  0
SECTION
  2
HEADER
  9
$ACADVER
  1
AC1024
  9
$ACADMAINTVER
 70
     6
  9
$DWGCODEPAGE
  3
ANSI_1252
  9
$INSBASE
 10
0.0
 20
0.0
 30
0.0
  9
$EXTMIN
 10
0.0
 20
0.0
 30
0.0
  9
$EXTMAX
 10
594.0
 20
841.0
 30
0.0
  9
$LIMMIN
 10
0.0
 20
0.0
  9
$LIMMAX
 10
594.0
 20
841.0
  9
$ORTHOMODE
 70
     0
  9
$REGENMODE
 70
     1
  9
$FILLMODE
 70
     1
  9
$QTEXTMODE
 70
     0
  9
$MIRRTEXT
 70
     1
  9
$LTSCALE
 40
1.0
  9
$ATTMODE
 70
     1
  9
$TEXTSIZE
 40
10.0
  9
$TRACEWID
 40
1.0
  9
$TEXTSTYLE
  7
Standard
  9
$CLAYER
  8
0
  9
$CELTYPE
  6
ByLayer
  9
$CECOLOR
 62
   256
  9
$CELTSCALE
 40
1.0
  9
$DISPSILH
 70
     0
  9
$DIMSCALE
 40
1.0
  9
$DIMASZ
 40
2.5
  9
$DIMEXO
 40
0.0
  9
$DIMDLI
 40
3.75
  9
$DIMRND
 40
0.0
  9
$DIMDLE
 40
0.0
  9
$DIMEXE
 40
1.0
  9
$DIMTP
 40
0.0
  9
$DIMTM
 40
0.0
  9
$DIMTXT
 40
3.5
  9
$DIMCEN
 40
2.5
  9
$DIMTSZ
 40
0.0
  9
$DIMTOL
 70
     0
  9
$DIMLIM
 70
     0
  9
$DIMTIH
 70
     1
  9
$DIMTOH
 70
     1
  9
$DIMSE1
 70
     0
  9
$DIMSE2
 70
     0
  9
$DIMTAD
 70
     1
  9
$DIMZIN
 70
     0
  9
$DIMBLK
  1

  9
$DIMASO
 70
     1
  9
$DIMSHO
 70
     1
  9
$DIMPOST
  1

  9
$DIMAPOST
  1

  9
$DIMALT
 70
     0
  9
$DIMALTD
 70
     3
  9
$DIMALTF
 40
0.0393700787
  9
$DIMLFAC
 40
1.0
  9
$DIMTOFL
 70
     1
  9
$DIMTVP
 40
0.0
  9
$DIMTIX
 70
     0
  9
$DIMSOXD
 70
     0
  9
$DIMSAH
 70
     0
  9
$DIMBLK1
  1

  9
$DIMBLK2
  1

  9
$DIMSTYLE
  2
ISO-25
  9
$DIMCLRD
 70
     0
  9
$DIMCLRE
 70
     0
  9
$DIMCLRT
 70
     0
  9
$DIMTFAC
 40
1.0
  9
$DIMGAP
 40
1.5
  9
$DIMJUST
 70
     0
  9
$DIMSD1
 70
     0
  9
$DIMSD2
 70
     0
  9
$DIMTOLJ
 70
     0
  9
$DIMTZIN
 70
     0
  9
$DIMALTZ
 70
     0
  9
$DIMALTTZ
 70
     0
  9
$DIMUPT
 70
     0
  9
$DIMDEC
 70
     2
  9
$DIMTDEC
 70
     2
  9
$DIMALTU
 70
     2
  9
$DIMALTTD
 70
     3
  9
$DIMTXSTY
  7
Standard
  9
$DIMAUNIT
 70
     0
  9
$DIMADEC
 70
     2
  9
$DIMALTRND
 40
0.0
  9
$DIMAZIN
 70
     0
  9
$DIMDSEP
 70
    44
  9
$DIMATFIT
 70
     3
  9
$DIMFRAC
 70
     0
  9
$DIMLDRBLK
  1

  9
$DIMLUNIT
 70
     2
  9
$DIMLWD
 70
    -2
  9
$DIMLWE
 70
    -2
  9
$DIMTMOVE
 70
     0
  9
$DIMFXL
 40
1.0
  9
$DIMFXLON
 70
     0
  9
$DIMJOGANG
 40
0.7853981634
  9
$DIMTFILL
 70
     0
  9
$DIMTFILLCLR
 70
     0
  9
$DIMARCSYM
 70
     0
  9
$DIMLTYPE
  6

  9
$DIMLTEX1
  6

  9
$DIMLTEX2
  6

  9
$DIMTXTDIRECTION
 70
     0
  9
$LUNITS
 70
     2
  9
$LUPREC
 70
     2
  9
$SKETCHINC
 40
1.0
  9
$FILLETRAD
 40
10.0
  9
$AUNITS
 70
     0
  9
$AUPREC
 70
     2
  9
$MENU
  1
.
  9
$ELEVATION
 40
0.0
  9
$PELEVATION
 40
0.0
  9
$THICKNESS
 40
0.0
  9
$LIMCHECK
 70
     0
  9
$CHAMFERA
 40
10.0
  9
$CHAMFERB
 40
10.0
  9
$CHAMFERC
 40
20.0
  9
$CHAMFERD
 40
0.0
  9
$SKPOLY
 70
     0
  9
$TDCREATE
 40
2456826.261511759
  9
$TDUCREATE
 40
2456826.178178426
  9
$TDUPDATE
 40
2456826.261513206
  9
$TDUUPDATE
 40
2456826.178179873
  9
$TDINDWG
 40
0.0000000116
  9
$TDUSRTIMER
 40
0.0000000116
  9
$USRTIMER
 70
     1
  9
$ANGBASE
 50
0.0
  9
$ANGDIR
 70
     0
  9
$PDMODE
 70
     0
  9
$PDSIZE
 40
-1.0
  9
$PLINEWID
 40
0.0
  9
$SPLFRAME
 70
     0
  9
$SPLINETYPE
 70
     6
  9
$SPLINESEGS
 70
     8
  9
$HANDSEED
  5
15F
  9
$SURFTAB1
 70
     6
  9
$SURFTAB2
 70
     6
  9
$SURFTYPE
 70
     6
  9
$SURFU
 70
     6
  9
$SURFV
 70
     6
  9
$UCSBASE
  2

  9
$UCSNAME
  2

  9
$UCSORG
 10
0.0
 20
0.0
 30
0.0
  9
$UCSXDIR
 10
1.0
 20
0.0
 30
0.0
  9
$UCSYDIR
 10
0.0
 20
1.0
 30
0.0
  9
$UCSORTHOREF
  2

  9
$UCSORTHOVIEW
 70
     0
  9
$UCSORGTOP
 10
0.0
 20
0.0
 30
0.0
  9
$UCSORGBOTTOM
 10
0.0
 20
0.0
 30
0.0
  9
$UCSORGLEFT
 10
0.0
 20
0.0
 30
0.0
  9
$UCSORGRIGHT
 10
0.0
 20
0.0
 30
0.0
  9
$UCSORGFRONT
 10
0.0
 20
0.0
 30
0.0
  9
$UCSORGBACK
 10
0.0
 20
0.0
 30
0.0
  9
$PUCSBASE
  2

  9
$PUCSNAME
  2

  9
$PUCSORG
 10
0.0
 20
0.0
 30
0.0
  9
$PUCSXDIR
 10
1.0
 20
0.0
 30
0.0
  9
$PUCSYDIR
 10
0.0
 20
1.0
 30
0.0
  9
$PUCSORTHOREF
  2

  9
$PUCSORTHOVIEW
 70
     0
  9
$PUCSORGTOP
 10
0.0
 20
0.0
 30
0.0
  9
$PUCSORGBOTTOM
 10
0.0
 20
0.0
 30
0.0
  9
$PUCSORGLEFT
 10
0.0
 20
0.0
 30
0.0
  9
$PUCSORGRIGHT
 10
0.0
 20
0.0
 30
0.0
  9
$PUCSORGFRONT
 10
0.0
 20
0.0
 30
0.0
  9
$PUCSORGBACK
 10
0.0
 20
0.0
 30
0.0
  9
$USERI1
 70
     0
  9
$USERI2
 70
     0
  9
$USERI3
 70
     0
  9
$USERI4
 70
     0
  9
$USERI5
 70
     0
  9
$USERR1
 40
0.0
  9
$USERR2
 40
0.0
  9
$USERR3
 40
0.0
  9
$USERR4
 40
0.0
  9
$USERR5
 40
0.0
  9
$WORLDVIEW
 70
     1
  9
$SHADEDGE
 70
     3
  9
$SHADEDIF
 70
    70
  9
$TILEMODE
 70
     1
  9
$MAXACTVP
 70
    64
  9
$PINSBASE
 10
0.0
 20
0.0
 30
0.0
  9
$PLIMCHECK
 70
     0
  9
$PEXTMIN
 10
1.0000000000E+20
 20
1.0000000000E+20
 30
1.0000000000E+20
  9
$PEXTMAX
 10
-1.0000000000E+20
 20
-1.0000000000E+20
 30
-1.0000000000E+20
  9
$PLIMMIN
 10
0.0
 20
0.0
  9
$PLIMMAX
 10
420.0
 20
297.0
  9
$UNITMODE
 70
     0
  9
$VISRETAIN
 70
     1
  9
$PLINEGEN
 70
     0
  9
$PSLTSCALE
 70
     1
  9
$TREEDEPTH
 70
  3020
  9
$CMLSTYLE
  2
Standard
  9
$CMLJUST
 70
     0
  9
$CMLSCALE
 40
20.0
  9
$PROXYGRAPHICS
 70
     1
  9
$MEASUREMENT
 70
     1
  9
$CELWEIGHT
370
    -1
  9
$ENDCAPS
280
     0
  9
$JOINSTYLE
280
     0
  9
$LWDISPLAY
290
     1
  9
$INSUNITS
 70
     4
  9
$HYPERLINKBASE
  1

  9
$STYLESHEET
  1

  9
$XEDIT
290
     1
  9
$CEPSNTYPE
380
     0
  9
$PSTYLEMODE
290
     1
  9
$FINGERPRINTGUID
  2
{5BEA51B4-DB1A-4A27-B30B-79EA699C33BD}
  9
$VERSIONGUID
  2
{FAEB1C32-E019-11D5-929B-00C0DF256EC4}
  9
$EXTNAMES
290
     1
  9
$PSVPSCALE
 40
0.0
  9
$OLESTARTUP
290
     0
  9
$SORTENTS
280
   127
  9
$INDEXCTL
280
     0
  9
$HIDETEXT
280
     1
  9
$XCLIPFRAME
280
     2
  9
$HALOGAP
280
     0
  9
$OBSCOLOR
 70
   257
  9
$OBSLTYPE
280
     0
  9
$INTERSECTIONDISPLAY
280
     0
  9
$INTERSECTIONCOLOR
 70
   257
  9
$DIMASSOC
280
     2
  9
$PROJECTNAME
  1

  9
$CAMERADISPLAY
290
     0
  9
$LENSLENGTH
 40
50.0
  9
$CAMERAHEIGHT
 40
0.0
  9
$STEPSPERSEC
 40
2.0
  9
$STEPSIZE
 40
6.0
  9
$3DDWFPREC
 40
2.0
  9
$PSOLWIDTH
 40
5.0
  9
$PSOLHEIGHT
 40
80.0
  9
$LOFTANG1
 40
1.5707963268
  9
$LOFTANG2
 40
1.5707963268
  9
$LOFTMAG1
 40
0.0
  9
$LOFTMAG2
 40
0.0
  9
$LOFTPARAM
 70
     7
  9
$LOFTNORMALS
280
     1
  9
$LATITUDE
 40
37.795
  9
$LONGITUDE
 40
-122.394
  9
$NORTHDIRECTION
 40
0.0
  9
$TIMEZONE
 70
 -8000
  9
$LIGHTGLYPHDISPLAY
280
     1
  9
$TILEMODELIGHTSYNCH
280
     1
  9
$SOLIDHIST
280
     1
  9
$SHOWHIST
280
     1
  9
$DWFFRAME
280
     2
  9
$DGNFRAME
280
     2
  9
$REALWORLDSCALE
290
     1
  9
$INTERFERECOLOR
 62
   256
  9
$CSHADOW
280
     0
  9
$SHADOWPLANELOCATION
 40
0.0
  0
ENDSEC
  0
SECTION
  2
CLASSES
  0
CLASS
  1
ACDBDICTIONARYWDFLT
  2
AcDbDictionaryWithDefault
  3
ObjectDBX Classes
 90
        0
 91
        4
280
     0
281
     0
  0
CLASS
  1
VISUALSTYLE
  2
AcDbVisualStyle
  3
ObjectDBX Classes
 90
     4095
 91
        4
280
     0
281
     0
  0
CLASS
  1
MATERIAL
  2
AcDbMaterial
  3
ObjectDBX Classes
 90
     1153
 91
        4
280
     0
281
     0
  0
ENDSEC
  0
SECTION
  2
TABLES
  0
TABLE
  2
VPORT
  5
8
330
0
100
AcDbSymbolTable
 70
     1
  0
VPORT
  5
29
330
8
100
AcDbSymbolTableRecord
100
AcDbViewportTableRecord
  2
*Active
 70
     0
 10
0.0
 20
0.0
 11
1.0
 21
1.0
 12
297.0
 22
420.5
 13
0.0
 23
0.0
 14
10.0
 24
10.0
 15
10.0
 25
10.0
 16
0.0
 26
0.0
 36
1.0
 17
0.0
 27
0.0
 37
0.0
 40
841.0
 41
0.7063020214
 42
50.0
 43
0.0
 44
0.0
 50
0.0
 51
0.0
 71
     0
 72
  2000
 73
     1
 74
     3
 75
     0
 76
     0
 77
     0
 78
     0
281
     0
 65
     1
110
0.0
120
0.0
130
0.0
111
1.0
121
0.0
131
0.0
112
0.0
122
1.0
132
0.0
 79
     0
146
0.0
 60
     3
 61
     5
292
     1
282
     1
141
0.0
142
0.0
 63
   250
  0
ENDTAB
  0
TABLE
  2
LTYPE
  5
5
330
0
100
AcDbSymbolTable
 70
     6
  0
LTYPE
  5
14
330
5
100
AcDbSymbolTableRecord
100
AcDbLinetypeTableRecord
  2
ByBlock
 70
     0
  3

 72
    65
 73
     0
 40
0.0
  0
LTYPE
  5
15
330
5
100
AcDbSymbolTableRecord
100
AcDbLinetypeTableRecord
  2
ByLayer
 70
     0
  3

 72
    65
 73
     0
 40
0.0
  0
LTYPE
  5
16
330
5
100
AcDbSymbolTableRecord
100
AcDbLinetypeTableRecord
  2
Continuous
 70
     0
  3
Solid line
 72
    65
 73
     0
 40
0.0
  0
LTYPE
  5
3F
330
5
100
AcDbSymbolTableRecord
100
AcDbLinetypeTableRecord
  2
HIDDEN
 70
     0
  3
Hidden __ __ __ __ __ __ __ __ __ __ __ __ __ __
 72
    65
 73
     2
 40
1.905
 49
1.27
 74
     0
 49
-0.635
 74
     0
  0
LTYPE
  5
40
330
5
100
AcDbSymbolTableRecord
100
AcDbLinetypeTableRecord
  2
PHANTOM
 70
     0
  3
Phantom ______  __  __  ______  __  __  ______
 72
    65
 73
     6
 40
12.7
 49
6.35
 74
     0
 49
-1.27
 74
     0
 49
1.27
 74
     0
 49
-1.27
 74
     0
 49
1.27
 74
     0
 49
-1.27
 74
     0
  0
LTYPE
  5
41
330
5
100
AcDbSymbolTableRecord
100
AcDbLinetypeTableRecord
  2
CENTER
 70
     0
  3
Center ____ _ ____ _ ____ _ ____ _ ____ _ ____
 72
    65
 73
     4
 40
10.16
 49
6.35
 74
     0
 49
-1.27
 74
     0
 49
1.27
 74
     0
 49
-1.27
 74
     0
  0
LTYPE
  5
42
330
5
100
AcDbSymbolTableRecord
100
AcDbLinetypeTableRecord
  2
CENTERX2
 70
     0
  3
Center (2x) ________  __  ________  __  _____
 72
    65
 73
     4
 40
20.32
 49
12.7
 74
     0
 49
-2.54
 74
     0
 49
2.54
 74
     0
 49
-2.54
 74
     0
  0
LTYPE
  5
43
330
5
100
AcDbSymbolTableRecord
100
AcDbLinetypeTableRecord
  2
DOT2
 70
     0
  3
Dot (.5x) ........................................
 72
    65
 73
     2
 40
0.635
 49
0.0
 74
     0
 49
-0.635
 74
     0
  0
ENDTAB
  0
TABLE
  2
LAYER
  5
2
330
0
100
AcDbSymbolTable
 70
     1
  0
LAYER
  5
10
330
2
100
AcDbSymbolTableRecord
100
AcDbLayerTableRecord
  2
0
 70
     0
 62
     7
  6
Continuous
370
    -3
390
F
347
3E
  0
ENDTAB
  0
TABLE
  2
STYLE
  5
3
330
0
100
AcDbSymbolTable
 70
     3
  0
STYLE
  5
11
330
3
100
AcDbSymbolTableRecord
100
AcDbTextStyleTableRecord
  2
Standard
 70
     0
 40
0.0
 41
1.0
 50
0.0
 71
     0
 42
10.0
  3
txt
  4

  0
STYLE
  5
47
330
3
100
AcDbSymbolTableRecord
100
AcDbTextStyleTableRecord
  2
SLDTEXTSTYLE0
 70
     0
 40
0.0
 41
0.96
 50
0.0
 71
     0
 42
0.2
  3
ISOCP3
  4

  0
STYLE
  5
5E
330
3
100
AcDbSymbolTableRecord
100
AcDbTextStyleTableRecord
  2
SLDTEXTSTYLE1
 70
     0
 40
0.0
 41
0.605
 50
0.0
 71
     0
 42
0.2
  3
TXT
  4

  0
ENDTAB
  0
TABLE
  2
VIEW
  5
6
330
0
100
AcDbSymbolTable
 70
     0
  0
ENDTAB
  0
TABLE
  2
UCS
  5
7
330
0
100
AcDbSymbolTable
 70
     0
  0
ENDTAB
  0
TABLE
  2
APPID
  5
9
330
0
100
AcDbSymbolTable
 70
     1
  0
APPID
  5
12
330
9
100
AcDbSymbolTableRecord
100
AcDbRegAppTableRecord
  2
ACAD
 70
     0
  0
ENDTAB
  0
TABLE
  2
DIMSTYLE
  5
A
330
0
100
AcDbSymbolTable
 70
     2
100
AcDbDimStyleTable
  0
DIMSTYLE
105
27
330
A
100
AcDbSymbolTableRecord
100
AcDbDimStyleTableRecord
  2
ISO-25
 70
     0
 41
2.5
 42
0.625
 43
3.75
 44
1.25
 73
     0
 74
     0
 77
     1
 78
     8
140
2.5
141
2.5
143
0.0393700787
147
0.625
171
     3
172
     1
178
     0
271
     2
272
     2
274
     3
278
    44
283
     0
284
     8
340
11
  0
DIMSTYLE
105
48
102
{ACAD_REACTORS
330
46
330
53
102
}
330
A
100
AcDbSymbolTableRecord
100
AcDbDimStyleTableRecord
  2
SLDDIMSTYLE0
 70
     0
 41
2.5
 44
0.0
 45
0.000000001
 73
     0
 74
     0
 77
     1
 78
    12
 79
     3
140
6.0
147
1.5
173
     1
178
     0
271
     2
272
     2
276
     2
284
    12
340
47
  0
ENDTAB
  0
TABLE
  2
BLOCK_RECORD
  5
1
330
0
100
AcDbSymbolTable
 70
     3
  0
BLOCK_RECORD
  5
1F
330
1
100
AcDbSymbolTableRecord
100
AcDbBlockTableRecord
  2
*Model_Space
340
22
 70
     0
280
     1
281
     0
  0
BLOCK_RECORD
  5
1B
330
1
100
AcDbSymbolTableRecord
100
AcDbBlockTableRecord
  2
*Paper_Space
340
1E
 70
     0
280
     1
281
     0
  0
BLOCK_RECORD
  5
23
330
1
100
AcDbSymbolTableRecord
100
AcDbBlockTableRecord
  2
*Paper_Space0
340
26
 70
     0
280
     1
281
     0
  0
BLOCK_RECORD
  5
49
330
1
100
AcDbSymbolTableRecord
100
AcDbBlockTableRecord
  2
_D
340
0
 70
     0
280
     1
281
     0
  0
BLOCK_RECORD
  5
54
330
1
100
AcDbSymbolTableRecord
100
AcDbBlockTableRecord
  2
_D_1
340
0
 70
     0
280
     1
281
     0
  0
ENDTAB
  0
ENDSEC
  0
SECTION
  2
BLOCKS
  0
BLOCK
  5
20
330
1F
100
AcDbEntity
  8
0
100
AcDbBlockBegin
  2
*Model_Space
 70
     0
 10
0.0
 20
0.0
 30
0.0
  3
*Model_Space
  1

  0
ENDBLK
  5
21
330
1F
100
AcDbEntity
  8
0
100
AcDbBlockEnd
  0
BLOCK
  5
1C
330
1B
100
AcDbEntity
 67
     1
  8
0
100
AcDbBlockBegin
  2
*Paper_Space
 70
     0
 10
0.0
 20
0.0
 30
0.0
  3
*Paper_Space
  1

  0
ENDBLK
  5
1D
330
1B
100
AcDbEntity
 67
     1
  8
0
100
AcDbBlockEnd
  0
BLOCK
  5
24
330
23
100
AcDbEntity
  8
0
100
AcDbBlockBegin
  2
*Paper_Space0
 70
     0
 10
0.0
 20
0.0
 30
0.0
  3
*Paper_Space0
  1

  0
ENDBLK
  5
25
330
23
100
AcDbEntity
  8
0
100
AcDbBlockEnd
  0
BLOCK
  5
4A
330
49
100
AcDbEntity
  8
0
100
AcDbBlockBegin
  2
_D
 70
     0
 10
0.0
 20
0.0
 30
0.0
  3
_D
  1

  0
SOLID
  5
4C
330
49
100
AcDbEntity
  8
0
  6
Continuous
 62
     7
370
     0
100
AcDbTrace
 10
42.7614395004
 20
152.0299240879
 30
0.0
 11
42.4614395004
 21
149.5299240879
 31
0.0
 12
43.0614395004
 22
149.5299240879
 32
0.0
 13
43.0614395004
 23
149.5299240879
 33
0.0
  0
SOLID
  5
4D
330
49
100
AcDbEntity
  8
0
  6
Continuous
 62
     7
370
     0
100
AcDbTrace
 10
42.7614395004
 20
52.0299240879
 30
0.0
 11
43.0614395004
 21
54.5299240879
 31
0.0
 12
42.4614395004
 22
54.5299240879
 32
0.0
 13
42.4614395004
 23
54.5299240879
 33
0.0
  0
LINE
  5
4E
330
49
100
AcDbEntity
  8
0
  6
Continuous
 62
     7
370
     0
100
AcDbLine
 10
56.6850079902
 20
152.0299240879
 30
0.0
 11
41.7614395004
 21
152.0299240879
 31
0.0
  0
LINE
  5
4F
330
49
100
AcDbEntity
  8
0
  6
Continuous
 62
     7
370
     0
100
AcDbLine
 10
56.6850079902
 20
52.0299240879
 30
0.0
 11
41.7614395004
 21
52.0299240879
 31
0.0
  0
LINE
  5
50
330
49
100
AcDbEntity
  8
0
  6
Continuous
 62
     7
370
     0
100
AcDbLine
 10
42.7614395004
 20
152.0299240879
 30
0.0
 11
42.7614395004
 21
52.0299240879
 31
0.0
  0
MTEXT
  5
51
330
49
100
AcDbEntity
  8
0
  6
Continuous
 62
     7
370
     0
100
AcDbMText
 10
35.0270332946
 20
91.6722208134
 30
0.1
 40
6.0
 41
0.0
 46
0.0
 71
     1
 72
     1
  1
100
  7
SLDTEXTSTYLE0
 11
-7.044195017643634E-15
 21
1.0
 31
0.0
 73
     1
 44
1.0
  0
MTEXT
  5
52
330
49
100
AcDbEntity
  8
0
  6
Continuous
 62
     7
370
     0
100
AcDbMText
 10
35.0270332946
 20
108.4388881795
 30
0.1
 40
6.0
 41
0.0
 46
0.0
 71
     1
 72
     1
  1
mm
  7
SLDTEXTSTYLE0
 11
-7.044195017643634E-15
 21
1.0
 31
0.0
 73
     1
 44
1.0
  0
ENDBLK
  5
4B
330
49
100
AcDbEntity
  8
0
100
AcDbBlockEnd
  0
BLOCK
  5
55
330
54
100
AcDbEntity
  8
0
100
AcDbBlockBegin
  2
_D_1
 70
     0
 10
0.0
 20
0.0
 30
0.0
  3
_D_1
  1

  0
SOLID
  5
57
330
54
100
AcDbEntity
  8
0
  6
Continuous
 62
     7
370
     0
100
AcDbTrace
 10
56.6850079902
 20
38.4602342313
 30
0.0
 11
59.1850079902
 21
38.1602342313
 31
0.0
 12
59.1850079902
 22
38.7602342313
 32
0.0
 13
59.1850079902
 23
38.7602342313
 33
0.0
  0
SOLID
  5
58
330
54
100
AcDbEntity
  8
0
  6
Continuous
 62
     7
370
     0
100
AcDbTrace
 10
156.6850079902
 20
38.4602342313
 30
0.0
 11
154.1850079902
 21
38.7602342313
 31
0.0
 12
154.1850079902
 22
38.1602342313
 32
0.0
 13
154.1850079902
 23
38.1602342313
 33
0.0
  0
LINE
  5
59
330
54
100
AcDbEntity
  8
0
  6
Continuous
 62
     7
370
     0
100
AcDbLine
 10
56.6850079902
 20
52.0299240879
 30
0.0
 11
56.6850079902
 21
37.4602342313
 31
0.0
  0
LINE
  5
5A
330
54
100
AcDbEntity
  8
0
  6
Continuous
 62
     7
370
     0
100
AcDbLine
 10
156.6850079902
 20
52.0299240879
 30
0.0
 11
156.6850079902
 21
37.4602342313
 31
0.0
  0
LINE
  5
5B
330
54
100
AcDbEntity
  8
0
  6
Continuous
 62
     7
370
     0
100
AcDbLine
 10
56.6850079902
 20
38.4602342313
 30
0.0
 11
156.6850079902
 21
38.4602342313
 31
0.0
  0
MTEXT
  5
5C
330
54
100
AcDbEntity
  8
0
  6
Continuous
 62
     7
370
     0
100
AcDbMText
 10
91.2668151533
 20
46.1946404371
 30
0.1
 40
6.0
 41
0.0
 46
0.0
 71
     1
 72
     1
  1
100
  7
SLDTEXTSTYLE0
 73
     1
 44
1.0
  0
MTEXT
  5
5D
330
54
100
AcDbEntity
  8
0
  6
Continuous
 62
     7
370
     0
100
AcDbMText
 10
108.0334825193
 20
46.1946404371
 30
0.1
 40
6.0
 41
0.0
 46
0.0
 71
     1
 72
     1
  1
mm
  7
SLDTEXTSTYLE0
 73
     1
 44
1.0
  0
ENDBLK
  5
56
330
54
100
AcDbEntity
  8
0
100
AcDbBlockEnd
  0
ENDSEC
  0
SECTION
  2
ENTITIES
  0
LINE
  5
44
330
1F
100
AcDbEntity
  8
0
  6
Continuous
 62
     7
370
     0
100
AcDbLine
 10
56.6850079902
 20
152.0299240879
 30
0.0
 11
56.6850079902
 21
52.0299240879
 31
0.0
  0
LINE
  5
45
330
1F
100
AcDbEntity
  8
0
  6
Continuous
 62
     7
370
     0
100
AcDbLine
 10
56.6850079902
 20
52.0299240879
 30
0.0
 11
156.6850079902
 21
52.0299240879
 31
0.0
  0
DIMENSION
  5
46
330
1F
100
AcDbEntity
  8
0
  6
Continuous
 62
     7
370
     0
100
AcDbDimension
280
     0
  2
_D
 10
42.7614395004
 20
52.0299240879
 30
0.0
 11
42.7614395004
 21
105.4472211621
 31
0.0
 70
   160
  1
<>mm
 71
     2
 42
-1.0
 73
     0
 74
     0
 75
     0
  3
SLDDIMSTYLE0
100
AcDbAlignedDimension
 13
56.6850079902
 23
152.0299240879
 33
0.0
 14
56.6850079902
 24
52.0299240879
 34
0.0
 50
90.0
100
AcDbRotatedDimension
  0
DIMENSION
  5
53
330
1F
100
AcDbEntity
  8
0
  6
Continuous
 62
     7
370
     0
100
AcDbDimension
280
     0
  2
_D_1
 10
156.6850079902
 20
38.4602342313
 30
0.0
 11
105.0418155019
 21
38.4602342313
 31
0.0
 70
   160
  1
<>mm
 71
     2
 42
-1.0
 73
     0
 74
     0
 75
     0
  3
SLDDIMSTYLE0
100
AcDbAlignedDimension
 13
56.6850079902
 23
52.0299240879
 33
0.0
 14
156.6850079902
 24
52.0299240879
 34
0.0
100
AcDbRotatedDimension
  0
MTEXT
  5
5F
330
1F
100
AcDbEntity
  8
0
  6
Continuous
 62
     7
370
     0
100
AcDbMText
 10
271.3785627782
 20
47.0479737555
 30
0.0
 40
10.0
 41
0.0
 46
0.0
 71
     1
 72
     1
  1
38 257 05 75
  7
SLDTEXTSTYLE1
 73
     1
 44
1.0
  0
MTEXT
  5
60
330
1F
100
AcDbEntity
  8
0
  6
Continuous
 62
     7
370
     0
100
AcDbMText
 10
412.8252631579
 20
48.4342449499
 30
0.0
 40
10.0
 41
0.0
 46
0.0
 71
     1
 72
     1
  1
KLUDI GmbH & Co KG
  7
SLDTEXTSTYLE1
 73
     1
 44
1.0
  0
LINE
  5
61
330
1F
100
AcDbEntity
  8
0
  6
Continuous
 62
     7
370
    15
100
AcDbLine
 10
121.6999648362
 20
600.9640549789
 30
0.0
 11
121.6999648362
 21
602.1523735499
 31
0.0
  0
LINE
  5
62
330
1F
100
AcDbEntity
  8
0
  6
Continuous
 62
     7
370
    15
100
AcDbLine
 10
97.6999648362
 20
602.1523735499
 30
0.0
 11
97.6999648362
 21
600.9640549789
 31
0.0
  0
LINE
  5
63
330
1F
100
AcDbEntity
  8
0
  6
Continuous
 62
     7
370
    15
100
AcDbLine
 10
98.6999648362
 20
596.8138082218
 30
0.0
 11
99.0308447515
 21
596.6303241065
 31
0.0
  0
LINE
  5
64
330
1F
100
AcDbEntity
  8
0
  6
Continuous
 62
     7
370
    15
100
AcDbLine
 10
120.369084921
 20
596.6303241065
 30
0.0
 11
120.6999648362
 21
596.8138082218
 31
0.0
  0
LINE
  5
65
330
1F
100
AcDbEntity
  8
0
  6
Continuous
 62
     7
370
    15
100
AcDbLine
 10
122.3605310934
 20
601.120355449
 30
0.0
 11
121.7740508742
 21
601.1216614587
 31
0.0
  0
SPLINE
  5
66
330
1F
100
AcDbEntity
  8
0
  6
Continuous
 62
     7
370
    15
100
AcDbSpline
210
0.0
220
0.0
230
1.0
 70
     8
 71
     3
 72
    17
 73
    13
 74
     0
 42
0.00000001
 43
0.00000001
 12
1.0
 22
0.0
 32
0.0
 13
1.0
 23
0.0
 33
0.0
 40
0.0
 40
0.0
 40
0.0
 40
0.0
 40
0.0318939168657791
 40
0.0831348971810654
 40
0.1755926500209423
 40
0.294016418969194
 40
0.5390082359926635
 40
0.6637807955101567
 40
0.7828989436330316
 40
0.8919212735187179
 40
0.9947978087005437
 40
1.0
 40
1.0
 40
1.0
 40
1.0
 10
96.119080125476
 20
620.0248156357133
 30
0.0
 10
96.36385982294836
 20
620.036596423586
 30
0.0
 10
97.00190422078813
 20
620.0673043041086
 30
0.0
 10
98.38012391544558
 20
620.1248542895252
 30
0.0
 10
100.6696404197092
 20
620.2134835710659
 30
0.0
 10
104.7912102619491
 20
620.3873837940362
 30
0.0
 10
109.2788119133613
 20
620.4910033234394
 30
0.0
 10
113.7600827439291
 20
620.4033605461372
 30
0.0
 10
116.9781180030068
 20
620.2779221250531
 30
0.0
 10
119.9297188445749
 20
620.1685866414751
 30
0.0
 10
121.7472167540981
 20
620.0983593277149
 30
0.0
 10
122.5811847335442
 20
620.0571913290395
 30
0.0
 10
122.6213264071922
 20
620.0552097753008
 30
0.0
  0
SPLINE
  5
67
330
1F
100
AcDbEntity
  8
0
  6
Continuous
 62
     7
370
    15
100
AcDbSpline
210
0.0
220
0.0
230
1.0
 70
     8
 71
     3
 72
     9
 73
     5
 74
     0
 42
0.00000001
 43
0.00000001
 12
1.0
 22
0.0
 32
0.0
 13
1.0
 23
0.0
 33
0.0
 40
0.0
 40
0.0
 40
0.0
 40
0.0
 40
0.3030189892389791
 40
1.0
 40
1.0
 40
1.0
 40
1.0
 10
95.16918960683299
 20
619.9732602615716
 30
0.0
 10
95.2645334905822
 20
619.9803138896426
 30
0.0
 10
95.5791800544449
 20
620.0035917313674
 30
0.0
 10
95.89733333229977
 20
620.0160985916158
 30
0.0
 10
96.119080125476
 20
620.0248156357133
 30
0.0
  0
LINE
  5
68
330
1F
100
AcDbEntity
  8
0
  6
Continuous
 62
     7
370
    15
100
AcDbLine
 10
86.6999648362
 20
667.0398387097
 30
0.0
 11
86.6999648362
 21
633.7396952479
 31
0.0
  0
LINE
  5
69
330
1F
100
AcDbEntity
  8
0
  6
Continuous
 62
     7
370
    15
100
AcDbLine
 10
132.6999648362
 20
633.7397190766
 30
0.0
 11
132.6999648362
 21
667.0398387097
 31
0.0
  0
ARC
  5
6A
330
1F
100
AcDbEntity
  8
0
  6
Continuous
 62
     7
370
    15
100
AcDbCircle
 10
88.1999648362
 20
667.0398387097
 30
0.0
 40
1.500000000000114
100
AcDbArc
 50
90.0
 51
180.0
  0
ARC
  5
6B
330
1F
100
AcDbEntity
  8
0
  6
Continuous
 62
     7
370
    15
100
AcDbCircle
 10
131.1999648362
 20
667.0398387097
 30
0.0
 40
1.500000000000114
100
AcDbArc
 50
0.0
 51
90.0
  0
LINE
  5
6C
330
1F
100
AcDbEntity
  8
0
  6
Continuous
 62
     7
370
    15
100
AcDbLine
 10
87.1999648362
 20
625.9398387097
 30
0.0
 11
87.1999648362
 21
338.4898387097
 31
0.0
  0
LINE
  5
6D
330
1F
100
AcDbEntity
  8
0
  6
Continuous
 62
     7
370
    15
100
AcDbLine
 10
132.1999648362
 20
338.4898387097
 30
0.0
 11
132.1999648362
 21
625.9398387097
 31
0.0
  0
LINE
  5
6E
330
1F
100
AcDbEntity
  8
0
  6
Continuous
 62
     7
370
    15
100
AcDbLine
 10
87.6999648362
 20
627.9398387097
 30
0.0
 11
87.6999648362
 21
625.9398387097
 31
0.0
  0
LINE
  5
6F
330
1F
100
AcDbEntity
  8
0
  6
Continuous
 62
     7
370
    15
100
AcDbLine
 10
131.6999648362
 20
625.9398387097
 30
0.0
 11
131.6999648362
 21
627.9398387097
 31
0.0
  0
ARC
  5
70
330
1F
100
AcDbEntity
  8
0
  6
Continuous
 62
     7
370
    15
100
AcDbCircle
 10
109.7000875011
 20
628.0133046147
 30
0.0
 40
22.00000000000001
100
AcDbArc
 50
165.4511058388
 51
180.1898022117
  0
ARC
  5
71
330
1F
100
AcDbEntity
  8
0
  6
Continuous
 62
     7
370
    15
100
AcDbCircle
 10
109.7000875011
 20
628.0133046147
 30
0.0
 40
22.00000000000004
100
AcDbArc
 50
0.0
 51
14.5488941612
  0
SPLINE
  5
72
330
1F
100
AcDbEntity
  8
0
  6
Continuous
 62
     7
370
    15
100
AcDbSpline
210
0.0
220
0.0
230
1.0
 70
     8
 71
     3
 72
     8
 73
     4
 74
     0
 42
0.00000001
 43
0.00000001
 12
1.0
 22
0.0
 32
0.0
 13
1.0
 23
0.0
 33
0.0
 40
0.0949625148271488
 40
0.0949625148271488
 40
0.0949625148271488
 40
0.0949625148271488
 40
0.8986566032588681
 40
0.8986566032588681
 40
0.8986566032588681
 40
0.8986566032588681
 10
91.98689943817571
 20
602.9725659186515
 30
0.0
 10
91.79891586233873
 20
607.9920621795842
 30
0.0
 10
91.80011367524715
 20
613.0070671298523
 30
0.0
 10
91.99049232361905
 20
618.0266585197269
 30
0.0
  0
SPLINE
  5
73
330
1F
100
AcDbEntity
  8
0
  6
Continuous
 62
     7
370
    15
100
AcDbSpline
210
0.0
220
0.0
230
1.0
 70
     8
 71
     3
 72
     8
 73
     4
 74
     0
 42
0.00000001
 43
0.00000001
 12
1.0
 22
0.0
 32
0.0
 13
1.0
 23
0.0
 33
0.0
 40
0.0949625148271488
 40
0.0949625148271488
 40
0.0949625148271488
 40
0.0949625148271488
 40
0.898656603258868
 40
0.898656603258868
 40
0.898656603258868
 40
0.898656603258868
 10
127.4094373488336
 20
618.0266585197269
 30
0.0
 10
127.5998159972055
 20
613.0070671298523
 30
0.0
 10
127.6010138101139
 20
607.9920621795842
 30
0.0
 10
127.4130302342769
 20
602.9725659186515
 30
0.0
  0
SPLINE
  5
74
330
1F
100
AcDbEntity
  8
0
  6
Continuous
 62
     7
370
    15
100
AcDbSpline
210
0.0
220
0.0
230
1.0
 70
     8
 71
     3
 72
    20
 73
    16
 74
     0
 42
0.00000001
 43
0.00000001
 12
1.0
 22
0.0
 32
0.0
 13
1.0
 23
0.0
 33
0.0
 40
0.0
 40
0.0
 40
0.0
 40
0.0
 40
0.1250000000000009
 40
0.1250000000000009
 40
0.1875000000000007
 40
0.1875000000000007
 40
0.2500000000000004
 40
0.2500000000000004
 40
0.3125000000000002
 40
0.3125000000000002
 40
0.375
 40
0.375
 40
0.5
 40
0.5
 40
1.0
 40
1.0
 40
1.0
 40
1.0
 10
98.35614236855149
 20
618.7541584005965
 30
0.0
 10
98.72702021718143
 20
618.7594919366736
 30
0.0
 10
99.09490622186085
 20
618.763557491959
 30
0.0
 10
99.70203391027948
 20
618.7704899393118
 30
0.0
 10
99.91184951830546
 20
618.7728459783391
 30
0.0
 10
100.3435505611288
 20
618.7777039819424
 30
0.0
 10
100.5639164988093
 20
618.7802317834404
 30
0.0
 10
101.0250401976763
 20
618.7853860940763
 30
0.0
 10
101.2656815203411
 20
618.7880166194167
 30
0.0
 10
101.7655085318133
 20
618.7926259246394
 30
0.0
 10
102.0249424116863
 20
618.7944512196906
 30
0.0
 10
102.7852701009236
 20
618.7983568173269
 30
0.0
 10
103.2804356636978
 20
618.7994304759885
 30
0.0
 10
105.7384692345749
 20
618.8049092447559
 30
0.0
 10
107.7153930944598
 20
618.8058232441504
 30
0.0
 10
109.6987871039656
 20
618.8056305987742
 30
0.0
  0
SPLINE
  5
75
330
1F
100
AcDbEntity
  8
0
  6
Continuous
 62
     7
370
    15
100
AcDbSpline
210
0.0
220
0.0
230
1.0
 70
     8
 71
     3
 72
    20
 73
    16
 74
     0
 42
0.00000001
 43
0.00000001
 12
1.0
 22
0.0
 32
0.0
 13
1.0
 23
0.0
 33
0.0
 40
0.0
 40
0.0
 40
0.0
 40
0.0
 40
0.5000000000000007
 40
0.5000000000000007
 40
0.6250000000000007
 40
0.6250000000000007
 40
0.6875000000000009
 40
0.6875000000000009
 40
0.750000000000001
 40
0.750000000000001
 40
0.8125000000000011
 40
0.8125000000000011
 40
0.8750000000000011
 40
0.8750000000000011
 40
1.0
 40
1.0
 40
1.0
 40
1.0
 10
109.7014112187846
 20
618.8056303447414
 30
0.0
 10
111.6833117759303
 20
618.805439121695
 30
0.0
 10
113.6626406017857
 20
618.8047803555573
 30
0.0
 10
116.1194287794121
 20
618.7985791437418
 30
0.0
 10
116.6151332695686
 20
618.7973205483316
 30
0.0
 10
117.3755140509492
 20
618.7933115018757
 30
0.0
 10
117.6347001445545
 20
618.7914665042599
 30
0.0
 10
118.1338211584681
 20
618.7868248436096
 30
0.0
 10
118.3739836758985
 20
618.7841789251344
 30
0.0
 10
118.8356232527446
 20
618.7790421600446
 30
0.0
 10
119.0562227660606
 20
618.7765684507389
 30
0.0
 10
119.4876989481007
 20
618.771926263894
 30
0.0
 10
119.6971626838508
 20
618.7697254716181
 30
0.0
 10
120.3037242132181
 20
618.763247641868
 30
0.0
 10
120.6725785358552
 20
618.7594446891752
 30
0.0
 10
121.0437602725419
 20
618.7541469190049
 30
0.0
  0
LWPOLYLINE
  5
76
330
1F
100
AcDbEntity
  8
0
  6
Continuous
 62
     7
370
    15
100
AcDbPolyline
 90
        9
 70
   128
 43
0.0
 10
109.7004805723
 20
602.2418947947
 10
109.7004798954
 20
602.2690205795
 10
109.7004792429
 20
602.3457206248
 10
109.7004786384
 20
602.469225236
 10
109.7004781038
 20
602.6350745712
 10
109.7004776583
 20
602.8372796894
 10
109.700477318
 20
603.0685388159
 10
109.7004770953
 20
603.3205010144
 10
109.7004769981
 20
603.5840677456
  0
SPLINE
  5
77
330
1F
100
AcDbEntity
  8
0
  6
Continuous
 62
     7
370
    15
100
AcDbSpline
210
0.0
220
0.0
230
1.0
 70
     8
 71
     3
 72
    14
 73
    10
 74
     0
 42
0.00000001
 43
0.00000001
 12
1.0
 22
0.0
 32
0.0
 13
1.0
 23
0.0
 33
0.0
 40
0.0
 40
0.0
 40
0.0
 40
0.0
 40
0.1250000000000001
 40
0.1250000000000001
 40
0.2500000000000002
 40
0.2500000000000002
 40
0.5000000000000002
 40
0.5000000000000002
 40
1.0
 40
1.0
 40
1.0
 40
1.0
 10
100.4868136528277
 20
602.2418990999583
 30
0.0
 10
100.8707164445835
 20
602.2419843328784
 30
0.0
 10
101.2546098150214
 20
602.2419288756336
 30
0.0
 10
102.0223996747792
 20
602.2418645359465
 30
0.0
 10
102.406296961907
 20
602.2418675673124
 30
0.0
 10
103.5579915255372
 20
602.2419170145112
 30
0.0
 10
104.3257896563265
 20
602.2419557448017
 30
0.0
 10
106.6292170268668
 20
602.2419636651108
 30
0.0
 10
108.1648438854169
 20
602.2418947673367
 30
0.0
 10
109.7004805722758
 20
602.2418947947386
 30
0.0
  0
SPLINE
  5
78
330
1F
100
AcDbEntity
  8
0
  6
Continuous
 62
     7
370
    15
100
AcDbSpline
210
0.0
220
0.0
230
1.0
 70
     8
 71
     3
 72
    14
 73
    10
 74
     0
 42
0.00000001
 43
0.00000001
 12
1.0
 22
0.0
 32
0.0
 13
1.0
 23
0.0
 33
0.0
 40
0.0
 40
0.0
 40
0.0
 40
0.0
 40
0.5
 40
0.5
 40
0.75
 40
0.75
 40
0.8750000000000002
 40
0.8750000000000002
 40
1.0
 40
1.0
 40
1.0
 40
1.0
 10
109.7004805722758
 20
602.2418947947202
 30
0.0
 10
111.2358485843104
 20
602.2418947673232
 30
0.0
 10
112.7712067569914
 20
602.2419636707097
 30
0.0
 10
115.0742311153655
 20
602.2419557408386
 30
0.0
 10
115.8418949253294
 20
602.2419170230804
 30
0.0
 10
116.9933879829409
 20
602.2418675744639
 30
0.0
 10
117.3772180914931
 20
602.2418645220865
 30
0.0
 10
118.1448735345556
 20
602.2419288259672
 30
0.0
 10
118.5286996746704
 20
602.2419843009922
 30
0.0
 10
118.9125353445599
 20
602.2418992287677
 30
0.0
  0
SPLINE
  5
79
330
1F
100
AcDbEntity
  8
0
  6
Continuous
 62
     7
370
    15
100
AcDbSpline
210
0.0
220
0.0
230
1.0
 70
     8
 71
     3
 72
    18
 73
    14
 74
     0
 42
0.00000001
 43
0.00000001
 12
1.0
 22
0.0
 32
0.0
 13
1.0
 23
0.0
 33
0.0
 40
0.0
 40
0.0
 40
0.0
 40
0.0
 40
0.0567078854580099
 40
0.1172711666790664
 40
0.1816686790523683
 40
0.2498681616794503
 40
0.3622566569229368
 40
0.499553904479585
 40
0.624922144138009
 40
0.6950880584429358
 40
0.749814362581401
 40
0.8852902079404793
 40
1.0
 40
1.0
 40
1.0
 40
1.0
 10
127.1790448779059
 20
602.1213658912794
 30
0.0
 10
127.1562651373071
 20
602.0818673449476
 30
0.0
 10
127.1091569311893
 20
602.0001848668751
 30
0.0
 10
127.0274714313736
 20
601.8841841598579
 30
0.0
 10
126.9343737861538
 20
601.7694713697437
 30
0.0
 10
126.8080861112243
 20
601.6366069469808
 30
0.0
 10
126.632446625646
 20
601.4860089291235
 30
0.0
 10
126.4090744987752
 20
601.3421597913922
 30
0.0
 10
126.2007289045052
 20
601.2458003745575
 30
0.0
 10
126.039822002554
 20
601.1901821234836
 30
0.0
 10
125.870393472977
 20
601.143761813315
 30
0.0
 10
125.6685085868115
 20
601.1072646360888
 30
0.0
 10
125.5017986501229
 20
601.1038294096531
 30
0.0
 10
125.4253623591787
 20
601.1022543627633
 30
0.0
  0
SPLINE
  5
7A
330
1F
100
AcDbEntity
  8
0
  6
Continuous
 62
     7
370
    15
100
AcDbSpline
210
0.0
220
0.0
230
1.0
 70
     8
 71
     3
 72
    50
 73
    46
 74
     0
 42
0.00000001
 43
0.00000001
 12
1.0
 22
0.0
 32
0.0
 13
1.0
 23
0.0
 33
0.0
 40
0.0
 40
0.0
 40
0.0
 40
0.0
 40
0.4999999999999982
 40
0.4999999999999982
 40
0.7499999999999972
 40
0.7499999999999972
 40
0.8124999999999969
 40
0.8124999999999969
 40
0.8437499999999967
 40
0.8437499999999967
 40
0.8749999999999964
 40
0.8749999999999964
 40
0.8906249999999967
 40
0.8906249999999967
 40
0.8984374999999967
 40
0.8984374999999967
 40
0.9062499999999968
 40
0.9062499999999968
 40
0.9218749999999969
 40
0.9218749999999969
 40
0.9257812499999971
 40
0.9257812499999971
 40
0.9296874999999973
 40
0.9296874999999973
 40
0.9374999999999977
 40
0.9374999999999977
 40
0.9414062499999979
 40
0.9414062499999979
 40
0.9453124999999981
 40
0.9453124999999981
 40
0.9531249999999983
 40
0.9531249999999983
 40
0.9609374999999987
 40
0.9609374999999987
 40
0.968749999999999
 40
0.968749999999999
 40
0.9765624999999993
 40
0.9765624999999993
 40
0.9843749999999996
 40
0.9843749999999996
 40
0.9882812499999997
 40
0.9882812499999997
 40
0.9921874999999998
 40
0.9921874999999998
 40
1.0
 40
1.0
 40
1.0
 40
1.0
 10
125.4253623856261
 20
601.1022543155445
 30
0.0
 10
125.3149724693584
 20
601.2983978228316
 30
0.0
 10
125.201312993725
 20
601.4945423193185
 30
0.0
 10
124.982754822736
 20
601.7887631828602
 30
0.0
 10
124.9021526664131
 20
601.8868375105166
 30
0.0
 10
124.7854979532961
 20
602.0094314974164
 30
0.0
 10
124.7615823861189
 20
602.0339525315161
 30
0.0
 10
124.7236310913406
 20
602.0707252342524
 30
0.0
 10
124.7104741641886
 20
602.0829807640081
 30
0.0
 10
124.6820735434554
 20
602.107484024248
 30
0.0
 10
124.666059725327
 20
602.1197211193228
 30
0.0
 10
124.6421490134631
 20
602.1381076770358
 30
0.0
 10
124.6354283437637
 20
602.1442574086584
 30
0.0
 10
124.6272482043608
 20
602.1534687849702
 30
0.0
 10
124.6249839226643
 20
602.1565368598647
 30
0.0
 10
124.6185842574307
 20
602.1626452152286
 30
0.0
 10
124.6144983924239
 20
602.1656884306102
 30
0.0
 10
124.6009819454526
 20
602.1748357871054
 30
0.0
 10
124.5873473517622
 20
602.1809702351898
 30
0.0
 10
124.5878443677741
 20
602.1887819875474
 30
0.0
 10
124.5891904388399
 20
602.1903632744416
 30
0.0
 10
124.592848883796
 20
602.1934636463727
 30
0.0
 10
124.5950661631763
 20
602.1949794791544
 30
0.0
 10
124.5956698525677
 20
602.1994194993665
 30
0.0
 10
124.5878686935745
 20
602.2022327005286
 30
0.0
 10
124.5431908226018
 20
602.206192696182
 30
0.0
 10
124.5227946108849
 20
602.2074675203302
 30
0.0
 10
124.4682215769681
 20
602.2099274459289
 30
0.0
 10
124.433824233414
 20
602.2111156039709
 30
0.0
 10
124.3040718363007
 20
602.2146767419496
 30
0.0
 10
124.1834692923265
 20
602.217015930471
 30
0.0
 10
123.8815641759244
 20
602.221498605614
 30
0.0
 10
123.7006198742593
 20
602.2236379686492
 30
0.0
 10
123.2869769203482
 20
602.2276136035199
 30
0.0
 10
123.0532365417099
 20
602.2294596693388
 30
0.0
 10
122.5383633444997
 20
602.2328314874323
 30
0.0
 10
122.2575201476384
 20
602.2343561166814
 30
0.0
 10
121.6496900195891
 20
602.237068266639
 30
0.0
 10
121.3265938272815
 20
602.2382385986248
 30
0.0
 10
120.8381297486231
 20
602.2396042195141
 30
0.0
 10
120.6740050934351
 20
602.2399977812426
 30
0.0
 10
120.3443372285166
 20
602.2406571943645
 30
0.0
 10
120.1772459322282
 20
602.2409259631688
 30
0.0
 10
119.6572790967904
 20
602.2415825427956
 30
0.0
 10
119.2907251160662
 20
602.2418154079381
 30
0.0
 10
118.9125353445595
 20
602.2418992287677
 30
0.0
  0
SPLINE
  5
7B
330
1F
100
AcDbEntity
  8
0
  6
Continuous
 62
     7
370
    15
100
AcDbSpline
210
0.0
220
0.0
230
1.0
 70
     8
 71
     3
 72
    17
 73
    13
 74
     0
 42
0.00000001
 43
0.00000001
 12
1.0
 22
0.0
 32
0.0
 13
1.0
 23
0.0
 33
0.0
 40
0.0
 40
0.0
 40
0.0
 40
0.0
 40
0.0822518272000413
 40
0.1643474266009056
 40
0.2467335457281845
 40
0.329860464212178
 40
0.4141762141530405
 40
0.5001209363747638
 40
0.6245783147365835
 40
0.7503323753426916
 40
0.8755575490269479
 40
1.0
 40
1.0
 40
1.0
 40
1.0
 10
127.4130301810145
 20
602.9725478006715
 30
0.0
 10
127.41158520448
 20
602.9438432234082
 30
0.0
 10
127.4086979959761
 20
602.8864885898948
 30
0.0
 10
127.3995832735488
 20
602.8013451359743
 30
0.0
 10
127.387144987609
 20
602.7175898203562
 30
0.0
 10
127.371207950488
 20
602.6355302123267
 30
0.0
 10
127.3520670912391
 20
602.5554313209326
 30
0.0
 10
127.3268030869203
 20
602.4665551438051
 30
0.0
 10
127.2945413646298
 20
602.3717148423451
 30
0.0
 10
127.2559351938434
 20
602.276318993403
 30
0.0
 10
127.2162713965848
 20
602.190962299223
 30
0.0
 10
127.1914277553726
 20
602.1445161567964
 30
0.0
 10
127.1790448779059
 20
602.1213658912795
 30
0.0
  0
SPLINE
  5
7C
330
1F
100
AcDbEntity
  8
0
  6
Continuous
 62
     7
370
    15
100
AcDbSpline
210
0.0
220
0.0
230
1.0
 70
     8
 71
     3
 72
    50
 73
    46
 74
     0
 42
0.00000001
 43
0.00000001
 12
1.0
 22
0.0
 32
0.0
 13
1.0
 23
0.0
 33
0.0
 40
0.0
 40
0.0
 40
0.0
 40
0.0
 40
0.0078124999999994
 40
0.0078124999999994
 40
0.0117187499999992
 40
0.0117187499999992
 40
0.0156249999999991
 40
0.0156249999999991
 40
0.0234374999999986
 40
0.0234374999999986
 40
0.031249999999998
 40
0.031249999999998
 40
0.0390624999999976
 40
0.0390624999999976
 40
0.046874999999997
 40
0.046874999999997
 40
0.0546874999999964
 40
0.0546874999999964
 40
0.0585937499999962
 40
0.0585937499999962
 40
0.0624999999999961
 40
0.0624999999999961
 40
0.0703124999999956
 40
0.0703124999999956
 40
0.0742187499999953
 40
0.0742187499999953
 40
0.0781249999999951
 40
0.0781249999999951
 40
0.0937499999999951
 40
0.0937499999999951
 40
0.101562499999995
 40
0.101562499999995
 40
0.109374999999995
 40
0.109374999999995
 40
0.1249999999999953
 40
0.1249999999999953
 40
0.1562499999999958
 40
0.1562499999999958
 40
0.1874999999999961
 40
0.1874999999999961
 40
0.2499999999999963
 40
0.2499999999999963
 40
0.4999999999999977
 40
0.4999999999999977
 40
1.0
 40
1.0
 40
1.0
 40
1.0
 10
100.4868136528263
 20
602.2418990999583
 30
0.0
 10
100.1086440644039
 20
602.2418151399613
 30
0.0
 10
99.74210489012313
 20
602.2415820847185
 30
0.0
 10
99.22216955682798
 20
602.2409251978087
 30
0.0
 10
99.0550886521324
 20
602.2406563182349
 30
0.0
 10
98.72543066018316
 20
602.2399966621471
 30
0.0
 10
98.56130750953972
 20
602.2396029742218
 30
0.0
 10
98.072853346029
 20
602.2382369884175
 30
0.0
 10
97.74976898103989
 20
602.2370664359736
 30
0.0
 10
97.14197967263978
 20
602.2343539299424
 30
0.0
 10
96.86116133777445
 20
602.2328291471623
 30
0.0
 10
96.34633649704516
 20
602.2294570250637
 30
0.0
 10
96.11262229658284
 20
602.2276108204137
 30
0.0
 10
95.69903250693203
 20
602.2236349161043
 30
0.0
 10
95.51811582756848
 20
602.2214954330243
 30
0.0
 10
95.21627054530985
 20
602.2170125861064
 30
0.0
 10
95.0956998937551
 20
602.2146733422394
 30
0.0
 10
94.96599685498627
 20
602.211112168479
 30
0.0
 10
94.93161632235133
 20
602.2099240041607
 30
0.0
 10
94.87706971667966
 20
602.2074639103154
 30
0.0
 10
94.85668530093496
 20
602.2061889981068
 30
0.0
 10
94.81203887528876
 20
602.2022287713315
 30
0.0
 10
94.80425265789579
 20
602.1994154265695
 30
0.0
 10
94.80486733133478
 20
602.1949752174392
 30
0.0
 10
94.80708637990433
 20
602.1934593153375
 30
0.0
 10
94.81074359965639
 20
602.1903588574063
 30
0.0
 10
94.81208688142358
 20
602.1887775738886
 30
0.0
 10
94.81257524099104
 20
602.1809659150904
 30
0.0
 10
94.79893909429428
 20
602.1748315343165
 30
0.0
 10
94.78542484325335
 20
602.165684222872
 30
0.0
 10
94.7813401720217
 20
602.1626410160085
 30
0.0
 10
94.77494185535473
 20
602.1565326740483
 30
0.0
 10
94.77267756100369
 20
602.1534646050229
 30
0.0
 10
94.76449672670812
 20
602.1442532581406
 30
0.0
 10
94.7577748494007
 20
602.1381035573419
 30
0.0
 10
94.7338635792745
 20
602.119717084309
 30
0.0
 10
94.71785055325851
 20
602.107480033503
 30
0.0
 10
94.68945041275859
 20
602.0829768688441
 30
0.0
 10
94.67629366127476
 20
602.0707213870857
 30
0.0
 10
94.63834273313552
 20
602.0339488292276
 30
0.0
 10
94.61442721568496
 20
602.009427892976
 30
0.0
 10
94.4977731341886
 20
601.8868343932072
 30
0.0
 10
94.4171714189468
 20
601.7887604552432
 30
0.0
 10
94.1986146094219
 20
601.4945407607286
 30
0.0
 10
94.08495608080334
 20
601.2983970435424
 30
0.0
 10
93.97456711386558
 20
601.1022543155451
 30
0.0
  0
SPLINE
  5
7D
330
1F
100
AcDbEntity
  8
0
  6
Continuous
 62
     7
370
    15
100
AcDbSpline
210
0.0
220
0.0
230
1.0
 70
     8
 71
     3
 72
    19
 73
    15
 74
     0
 42
0.00000001
 43
0.00000001
 12
1.0
 22
0.0
 32
0.0
 13
1.0
 23
0.0
 33
0.0
 40
0.0
 40
0.0
 40
0.0
 40
0.0
 40
0.0547846237989195
 40
0.1147189682238608
 40
0.1798480732963093
 40
0.2502112000831009
 40
0.3049367454699103
 40
0.3751016900498657
 40
0.5004681976475335
 40
0.6377635138420259
 40
0.7501504319849701
 40
0.8402332089569726
 40
0.9235375359469886
 40
1.0
 40
1.0
 40
1.0
 40
1.0
 10
93.97456714018487
 20
601.1022543627633
 30
0.0
 10
93.93805978855816
 20
601.1023667929646
 30
0.0
 10
93.86161341691614
 20
601.1026022217364
 30
0.0
 10
93.74196263472454
 20
601.1116810276789
 30
0.0
 10
93.61237239839437
 20
601.1292616424614
 30
0.0
 10
93.48716593897163
 20
601.1552721123488
 30
0.0
 10
93.36010741307123
 20
601.1902125544982
 30
0.0
 10
93.19920160864467
 20
601.2457845418206
 30
0.0
 10
92.9908474406298
 20
601.342157041054
 30
0.0
 10
92.7675112744032
 20
601.4860412563021
 30
0.0
 10
92.57967430022742
 20
601.6468829926769
 30
0.0
 10
92.43393854967289
 20
601.804599278937
 30
0.0
 10
92.3167443283804
 20
601.9579042923947
 30
0.0
 10
92.25191249156086
 20
602.0684567940397
 30
0.0
 10
92.22088475444514
 20
602.1213658912795
 30
0.0
  0
SPLINE
  5
7E
330
1F
100
AcDbEntity
  8
0
  6
Continuous
 62
     7
370
    15
100
AcDbSpline
210
0.0
220
0.0
230
1.0
 70
     8
 71
     3
 72
    15
 73
    11
 74
     0
 42
0.00000001
 43
0.00000001
 12
1.0
 22
0.0
 32
0.0
 13
1.0
 23
0.0
 33
0.0
 40
0.0
 40
0.0
 40
0.0
 40
0.0
 40
0.0832256449809451
 40
0.1665793141500581
 40
0.2504996265915134
 40
0.3762598594089735
 40
0.5007201908786889
 40
0.6707029997298087
 40
0.8359358697936787
 40
1.0
 40
1.0
 40
1.0
 40
1.0
 10
92.22088475444514
 20
602.1213658912794
 30
0.0
 10
92.21268367556057
 20
602.1365639912099
 30
0.0
 10
92.19626890225128
 20
602.1669835699752
 30
0.0
 10
92.1702453652373
 20
602.2197469830651
 30
0.0
 10
92.13959643559771
 20
602.2871055906329
 30
0.0
 10
92.10520527061955
 20
602.3722487926041
 30
0.0
 10
92.06489974580671
 20
602.4906667210591
 30
0.0
 10
92.02758636793554
 20
602.6331456445789
 30
0.0
 10
91.99782000486792
 20
602.800330697536
 30
0.0
 10
91.99053104170282
 20
602.9152780239996
 30
0.0
 10
91.98689949510263
 20
602.9725477018901
 30
0.0
  0
SPLINE
  5
7F
330
1F
100
AcDbEntity
  8
0
  6
Continuous
 62
     7
370
    15
100
AcDbSpline
210
0.0
220
0.0
230
1.0
 70
     8
 71
     3
 72
    36
 73
    32
 74
     0
 42
0.00000001
 43
0.00000001
 12
1.0
 22
0.0
 32
0.0
 13
1.0
 23
0.0
 33
0.0
 40
0.0
 40
0.0
 40
0.0
 40
0.0
 40
0.0078124999999998
 40
0.0078124999999998
 40
0.0156249999999996
 40
0.0156249999999996
 40
0.0312499999999992
 40
0.0312499999999992
 40
0.035156249999999
 40
0.035156249999999
 40
0.0390624999999988
 40
0.0390624999999988
 40
0.0429687499999986
 40
0.0429687499999986
 40
0.0468749999999983
 40
0.0468749999999983
 40
0.0546874999999984
 40
0.0546874999999984
 40
0.0624999999999986
 40
0.0624999999999986
 40
0.0781249999999988
 40
0.0781249999999988
 40
0.0937499999999991
 40
0.0937499999999991
 40
0.1249999999999994
 40
0.1249999999999994
 40
0.2499999999999996
 40
0.2499999999999996
 40
0.4999999999999997
 40
0.4999999999999997
 40
1.0
 40
1.0
 40
1.0
 40
1.0
 10
121.0436195276484
 20
618.7541167259434
 30
0.0
 10
121.3787351409288
 20
618.7489677135882
 30
0.0
 10
121.7069814965008
 20
618.7453742433906
 30
0.0
 10
122.3168994024241
 20
618.7403671690186
 30
0.0
 10
122.6007152811482
 20
618.738930468971
 30
0.0
 10
123.3850677954914
 20
618.7364974939185
 30
0.0
 10
123.8189985432039
 20
618.7374219910639
 30
0.0
 10
124.1969077494304
 20
618.7402730343911
 30
0.0
 10
124.2645888325105
 20
618.7409311196676
 30
0.0
 10
124.3838347193272
 20
618.7423974111997
 30
0.0
 10
124.4353748173332
 20
618.7432037371287
 30
0.0
 10
124.5190241832129
 20
618.744949896868
 30
0.0
 10
124.5511613071739
 20
618.745898621907
 30
0.0
 10
124.6005415127075
 20
618.7480888150482
 30
0.0
 10
124.6179878484028
 20
618.7493266155584
 30
0.0
 10
124.6555252215783
 20
618.7533091149218
 30
0.0
 10
124.6617362380438
 20
618.7562838345151
 30
0.0
 10
124.6664482114293
 20
618.762310298978
 30
0.0
 10
124.6644534819544
 20
618.7654523060562
 30
0.0
 10
124.6699594864135
 20
618.7747998270606
 30
0.0
 10
124.6814467903126
 20
618.7810259372213
 30
0.0
 10
124.6995055112053
 20
618.7933966518212
 30
0.0
 10
124.7051865526005
 20
618.7995767517743
 30
0.0
 10
124.7224826825743
 20
618.8181940298132
 30
0.0
 10
124.7390666882527
 20
618.8306300271975
 30
0.0
 10
124.817125766724
 20
618.8927704327245
 30
0.0
 10
124.8641972249226
 20
618.9426139516116
 30
0.0
 10
125.0046633368196
 20
619.0928010944872
 30
0.0
 10
125.0886306255349
 20
619.1937139071226
 30
0.0
 10
125.3145836522736
 20
619.4979909840581
 30
0.0
 10
125.4342204475579
 20
619.7029960882905
 30
0.0
 10
125.5516190788824
 20
619.9084276502341
 30
0.0
  0
SPLINE
  5
80
330
1F
100
AcDbEntity
  8
0
  6
Continuous
 62
     7
370
    15
100
AcDbSpline
210
0.0
220
0.0
230
1.0
 70
     8
 71
     3
 72
    20
 73
    16
 74
     0
 42
0.00000001
 43
0.00000001
 12
1.0
 22
0.0
 32
0.0
 13
1.0
 23
0.0
 33
0.0
 40
0.0
 40
0.0
 40
0.0
 40
0.0
 40
0.0384193905819145
 40
0.0801748383761386
 40
0.1253274699000632
 40
0.1762018502433438
 40
0.2505681570446991
 40
0.3747131419378039
 40
0.4996623016023927
 40
0.6242402664862621
 40
0.7494510865762893
 40
0.8139165051035744
 40
0.8749315517006566
 40
0.9382899921154544
 40
1.0
 40
1.0
 40
1.0
 40
1.0
 10
125.5516191412345
 20
619.9084277593417
 30
0.0
 10
125.5853202905156
 20
619.9060738664975
 30
0.0
 10
125.6556489489294
 20
619.9011616860731
 30
0.0
 10
125.7645563050261
 20
619.8861620416154
 30
0.0
 10
125.8831528123349
 20
619.8632486531432
 30
0.0
 10
126.0275923768139
 20
619.8254914691314
 30
0.0
 10
126.2348313233488
 20
619.752471693319
 30
0.0
 10
126.4921240855861
 20
619.6213186619541
 30
0.0
 10
126.7671106940753
 20
619.4158022624854
 30
0.0
 10
127.0126064123628
 20
619.1532645322765
 30
0.0
 10
127.1835469677352
 20
618.8831669360646
 30
0.0
 10
127.2898076532276
 20
618.6392507522245
 30
0.0
 10
127.3517471047515
 20
618.4425572214886
 30
0.0
 10
127.3946719828003
 20
618.2385120510005
 30
0.0
 10
127.4045590812646
 20
618.0966788309279
 30
0.0
 10
127.4094374733169
 20
618.026696919039
 30
0.0
  0
SPLINE
  5
81
330
1F
100
AcDbEntity
  8
0
  6
Continuous
 62
     7
370
    15
100
AcDbSpline
210
0.0
220
0.0
230
1.0
 70
     8
 71
     3
 72
    40
 73
    36
 74
     0
 42
0.00000001
 43
0.00000001
 12
1.0
 22
0.0
 32
0.0
 13
1.0
 23
0.0
 33
0.0
 40
0.0
 40
0.0
 40
0.0
 40
0.0
 40
0.4999999999999979
 40
0.4999999999999979
 40
0.7499999999999969
 40
0.7499999999999969
 40
0.8749999999999964
 40
0.8749999999999964
 40
0.9062499999999963
 40
0.9062499999999963
 40
0.921874999999996
 40
0.921874999999996
 40
0.9296874999999961
 40
0.9296874999999961
 40
0.9374999999999962
 40
0.9374999999999962
 40
0.9453124999999962
 40
0.9453124999999962
 40
0.9531249999999963
 40
0.9531249999999963
 40
0.9570312499999964
 40
0.9570312499999964
 40
0.9609374999999964
 40
0.9609374999999964
 40
0.9687499999999971
 40
0.9687499999999971
 40
0.9765624999999979
 40
0.9765624999999979
 40
0.9843749999999986
 40
0.9843749999999986
 40
0.9882812499999989
 40
0.9882812499999989
 40
0.9921874999999992
 40
0.9921874999999992
 40
1.0
 40
1.0
 40
1.0
 40
1.0
 10
93.84832538153887
 20
619.9084284624998
 30
0.0
 10
93.96583772614667
 20
619.7029043332634
 30
0.0
 10
94.08558784005976
 20
619.4978068219801
 30
0.0
 10
94.31170526803936
 20
619.1933911034796
 30
0.0
 10
94.39573759299597
 20
619.0924319349459
 30
0.0
 10
94.53627100952808
 20
618.9421760992274
 30
0.0
 10
94.58332857913908
 20
618.8923107272449
 30
0.0
 10
94.66158746543486
 20
618.8301390955868
 30
0.0
 10
94.67805703246353
 20
618.8176968858137
 30
0.0
 10
94.69524529682036
 20
618.799072740571
 30
0.0
 10
94.70106229338529
 20
618.7928906800877
 30
0.0
 10
94.71479980906143
 20
618.783606612754
 30
0.0
 10
94.71971402541261
 20
618.7805070503297
 30
0.0
 10
94.72850525156815
 20
618.7742780365822
 30
0.0
 10
94.73232167007427
 20
618.7711598712835
 30
0.0
 10
94.73552457281107
 20
618.764924937905
 30
0.0
 10
94.73336559303061
 20
618.7617905674525
 30
0.0
 10
94.73929787393874
 20
618.7557874704129
 30
0.0
 10
94.74662543032393
 20
618.752798572092
 30
0.0
 10
94.78816697473782
 20
618.7488672173465
 30
0.0
 10
94.80722312867631
 20
618.7476549311112
 30
0.0
 10
94.86010876734261
 20
618.7455320638537
 30
0.0
 10
94.89434140587014
 20
618.7446205255997
 30
0.0
 10
95.0236251335828
 20
618.7421068096243
 30
0.0
 10
95.1447506225308
 20
618.7406665913009
 30
0.0
 10
95.45287472003659
 20
618.738450344623
 30
0.0
 10
95.63785098951003
 20
618.7376795543018
 30
0.0
 10
96.05779030917303
 20
618.7371191896715
 30
0.0
 10
96.29561840185522
 20
618.7373395366184
 30
0.0
 10
96.68978602255628
 20
618.7386096383182
 30
0.0
 10
96.82619243900518
 20
618.7391904146232
 30
0.0
 10
97.10607564684278
 20
618.7407487638276
 30
0.0
 10
97.24991776160793
 20
618.741726485109
 30
0.0
 10
97.69956499936255
 20
618.7454516116325
 30
0.0
 10
98.0236397971814
 20
618.7490054612816
 30
0.0
 10
98.35624844412479
 20
618.754115777936
 30
0.0
  0
SPLINE
  5
82
330
1F
100
AcDbEntity
  8
0
  6
Continuous
 62
     7
370
    15
100
AcDbSpline
210
0.0
220
0.0
230
1.0
 70
     8
 71
     3
 72
    21
 73
    17
 74
     0
 42
0.00000001
 43
0.00000001
 12
1.0
 22
0.0
 32
0.0
 13
1.0
 23
0.0
 33
0.0
 40
0.0
 40
0.0
 40
0.0
 40
0.0
 40
0.0309094609436617
 40
0.0622014824266999
 40
0.0939146536193152
 40
0.1260833361003412
 40
0.1870701093428505
 40
0.2515145603067175
 40
0.3762982063862931
 40
0.5014840955144869
 40
0.6259390854259487
 40
0.751085270142469
 40
0.8244685072735614
 40
0.8752150749370715
 40
0.9413575667242438
 40
1.0
 40
1.0
 40
1.0
 40
1.0
 10
91.99049177258473
 20
618.026685683329
 30
0.0
 10
91.99238329480886
 20
618.0617614079298
 30
0.0
 10
91.99618975026915
 20
618.1323469827264
 30
0.0
 10
92.00916856068159
 20
618.2377414755324
 30
0.0
 10
92.02756227488568
 20
618.3429209896939
 30
0.0
 10
92.05902940865411
 20
618.4779692439841
 30
0.0
 10
92.11124256951149
 20
618.6420230952174
 30
0.0
 10
92.21750758066005
 20
618.8852181197049
 30
0.0
 10
92.38881504311824
 20
619.1551965603115
 30
0.0
 10
92.63435264071978
 20
619.4171722630482
 30
0.0
 10
92.91034614776841
 20
619.6229492346955
 30
0.0
 10
93.16745618996164
 20
619.7534711179305
 30
0.0
 10
93.37468678480737
 20
619.8262261598127
 30
0.0
 10
93.53605397974178
 20
619.868058030431
 30
0.0
 10
93.68755917432078
 20
619.8959292561515
 30
0.0
 10
93.79692776318244
 20
619.9044324922497
 30
0.0
 10
93.84832531918968
 20
619.908428571546
 30
0.0
  0
SPLINE
  5
83
330
1F
100
AcDbEntity
  8
0
  6
Continuous
 62
     7
370
    15
100
AcDbSpline
210
0.0
220
0.0
230
1.0
 70
     8
 71
     3
 72
    41
 73
    37
 74
     0
 42
0.00000001
 43
0.00000001
 12
1.0
 22
0.0
 32
0.0
 13
1.0
 23
0.0
 33
0.0
 40
0.0
 40
0.0
 40
0.0
 40
0.0
 40
0.013036686324675
 40
0.0259825552148865
 40
0.0388106057624099
 40
0.0514523720864062
 40
0.0638235880577076
 40
0.0758557353077765
 40
0.1064655942527599
 40
0.13323141511171
 40
0.1503063605560861
 40
0.2002202839055531
 40
0.2376213711877808
 40
0.2438738099763569
 40
0.3397634241531932
 40
0.3804785630305169
 40
0.4208210812630257
 40
0.4802256152217947
 40
0.4950344224233921
 40
0.4999698555867942
 40
0.5005325066829461
 40
0.5022204694723085
 40
0.5044711267331528
 40
0.6197757646655422
 40
0.6328396208780583
 40
0.6459446103605876
 40
0.7379110331564901
 40
0.7504716727089771
 40
0.7755653863402607
 40
0.825348279774186
 40
0.8683084839401326
 40
0.8774811874535132
 40
0.921353052653455
 40
0.9706586839566397
 40
0.9852678151814731
 40
1.0
 40
1.0
 40
1.0
 40
1.0
 10
93.84836006511796
 20
619.9084305901449
 30
0.0
 10
93.96413481132176
 20
619.9148521521183
 30
0.0
 10
94.1948777824122
 20
619.9276505415542
 30
0.0
 10
94.54593794900923
 20
619.9453671259367
 30
0.0
 10
94.89753399850252
 20
619.9644656346569
 30
0.0
 10
95.24865743817266
 20
619.9820993651292
 30
0.0
 10
95.59653735021746
 20
619.9995148436592
 30
0.0
 10
96.11912893943637
 20
620.0248670631834
 30
0.0
 10
96.79133354085879
 20
620.0561646959142
 30
0.0
 10
97.52958427302097
 20
620.088230696408
 30
0.0
 10
98.47489062982316
 20
620.1277328981776
 30
0.0
 10
99.55303592564795
 20
620.1686082402277
 30
0.0
 10
100.5454541096079
 20
620.2014933654287
 30
0.0
 10
102.0418726211875
 20
620.2472896544699
 30
0.0
 10
103.6162904108682
 20
620.2871395359682
 30
0.0
 10
105.6050285837032
 20
620.320562597604
 30
0.0
 10
107.1986215275058
 20
620.3402012029358
 30
0.0
 10
108.508720482301
 20
620.347884239091
 30
0.0
 10
109.4146722671403
 20
620.3491277559876
 30
0.0
 10
109.6471381503715
 20
620.3491959308188
 30
0.0
 10
109.7294007911621
 20
620.3491961266375
 30
0.0
 10
109.7809296433207
 20
620.3491899511791
 30
0.0
 10
111.1459292330558
 20
620.3487421265677
 30
0.0
 10
112.6447780638671
 20
620.3375732989375
 30
0.0
 10
114.2396872805262
 20
620.3130355785064
 30
0.0
 10
115.5671525365399
 20
620.2905231312517
 30
0.0
 10
116.871610144185
 20
620.2600416010592
 30
0.0
 10
118.2721134511398
 20
620.2196784503622
 30
0.0
 10
119.2082556715147
 20
620.1906233357644
 30
0.0
 10
120.4441564320173
 20
620.1464523800114
 30
0.0
 10
121.4809025697804
 20
620.1048427057115
 30
0.0
 10
122.4380955758551
 20
620.0636864262372
 30
0.0
 10
123.4378607923893
 20
620.0181348010912
 30
0.0
 10
124.4468369608605
 20
619.967098755282
 30
0.0
 10
125.1599434553893
 20
619.930039175028
 30
0.0
 10
125.4206650965686
 20
619.915615754409
 30
0.0
 10
125.5515726331756
 20
619.9083737991416
 30
0.0
  0
ELLIPSE
  5
84
330
1F
100
AcDbEntity
  8
0
  6
Continuous
 62
     7
370
    15
100
AcDbEllipse
 10
109.6999648362
 20
602.1523735499
 30
0.0
 11
12.0
 21
0.0
 31
0.0
210
0.0
220
0.0
230
1.0
 40
0.0070431304
 41
1.570796326794897
 42
3.141592653589776
  0
ELLIPSE
  5
85
330
1F
100
AcDbEntity
  8
0
  6
Continuous
 62
     7
370
    15
100
AcDbEllipse
 10
109.6999648362
 20
602.1523735499
 30
0.0
 11
12.0
 21
0.0
 31
0.0
210
0.0
220
0.0
230
1.0
 40
0.0070431304
 41
0.0
 42
1.570796326794913
  0
SPLINE
  5
86
330
1F
100
AcDbEntity
  8
0
  6
Continuous
 62
     7
370
    15
100
AcDbSpline
210
0.0
220
0.0
230
1.0
 70
     8
 71
     3
 72
    19
 73
    15
 74
     0
 42
0.00000001
 43
0.00000001
 12
1.0
 22
0.0
 32
0.0
 13
1.0
 23
0.0
 33
0.0
 40
0.0
 40
0.0
 40
0.0
 40
0.0
 40
0.0690905982906801
 40
0.1400703913155222
 40
0.2132885488342092
 40
0.2891006026883481
 40
0.3679413298599963
 40
0.450398814001199
 40
0.5102254364436096
 40
0.5204713556309134
 40
0.6105676810562222
 40
0.70686518088438
 40
0.8434214387079727
 40
1.0
 40
1.0
 40
1.0
 40
1.0
 10
96.64937896881003
 20
601.1204845263328
 30
0.0
 10
96.57187361565157
 20
601.1202290816275
 30
0.0
 10
96.41474362380697
 20
601.1197112074054
 30
0.0
 10
96.18239655200213
 20
601.1187983568392
 30
0.0
 10
95.94878542006371
 20
601.1177085980429
 30
0.0
 10
95.71435408373743
 20
601.1164310055177
 30
0.0
 10
95.47897144168208
 20
601.1150551912397
 30
0.0
 10
95.26831214062551
 20
601.1138445187614
 30
0.0
 10
95.12859132238756
 20
601.1130066466693
 30
0.0
 10
94.98488854497933
 20
601.1120737036091
 30
0.0
 10
94.81371386169049
 20
601.1107103958554
 30
0.0
 10
94.55053769316741
 20
601.1086087232177
 30
0.0
 10
94.25753927756342
 20
601.1055056887492
 30
0.0
 10
94.07310516948758
 20
601.1033713533878
 30
0.0
 10
93.9745893146232
 20
601.102231293803
 30
0.0
  0
SPLINE
  5
87
330
1F
100
AcDbEntity
  8
0
  6
Continuous
 62
     7
370
    15
100
AcDbSpline
210
0.0
220
0.0
230
1.0
 70
     8
 71
     3
 72
    21
 73
    17
 74
     0
 42
0.00000001
 43
0.00000001
 12
1.0
 22
0.0
 32
0.0
 13
1.0
 23
0.0
 33
0.0
 40
0.0
 40
0.0
 40
0.0
 40
0.0
 40
0.0641577460886083
 40
0.1260319824501037
 40
0.1848485752874157
 40
0.2408678374145085
 40
0.2945979422669291
 40
0.3462004031420141
 40
0.3958065797919529
 40
0.500042956964979
 40
0.5101576845466984
 40
0.5401212918358952
 40
0.6639369836432392
 40
0.780130234039051
 40
0.892498570106122
 40
1.0
 40
1.0
 40
1.0
 40
1.0
 10
125.4253488469639
 20
601.1022196491372
 30
0.0
 10
125.3861207721096
 20
601.1028074252073
 30
0.0
 10
125.309060832461
 20
601.1039620571554
 30
0.0
 10
125.1863710104759
 20
601.1049041333699
 30
0.0
 10
125.0625907120893
 20
601.1065029288069
 30
0.0
 10
124.9381956097441
 20
601.1077269641531
 30
0.0
 10
124.8136544172344
 20
601.1085970866498
 30
0.0
 10
124.6890343318151
 20
601.109940491895
 30
0.0
 10
124.5177141267726
 20
601.1111311204985
 30
0.0
 10
124.3736838171872
 20
601.1122886796104
 30
0.0
 10
124.242629459259
 20
601.1131954201084
 30
0.0
 10
124.0920431431309
 20
601.1141806987163
 30
0.0
 10
123.833056729541
 20
601.1156663322283
 30
0.0
 10
123.4744442100582
 20
601.1176613104499
 30
0.0
 10
123.1165680573581
 20
601.119178119281
 30
0.0
 10
122.8707463912185
 20
601.1200112897897
 30
0.0
 10
122.7505562391373
 20
601.1204186537609
 30
0.0
  0
LINE
  5
88
330
1F
100
AcDbEntity
  8
0
  6
Continuous
 62
     7
370
    15
100
AcDbLine
 10
120.6999648362
 20
598.2421649848
 30
0.0
 11
120.6999648362
 21
601.6315057237
 31
0.0
  0
ARC
  5
89
330
1F
100
AcDbEntity
  8
0
  6
Continuous
 62
     7
370
    15
100
AcDbCircle
 10
109.6999648362
 20
543.7765323569
 30
0.0
 40
55.56532315711089
100
AcDbArc
 50
78.5820056994
 51
101.4179943006
  0
LINE
  5
8A
330
1F
100
AcDbEntity
  8
0
  6
Continuous
 62
     7
370
    15
100
AcDbLine
 10
98.6999648362
 20
598.2421649848
 30
0.0
 11
98.6999648362
 21
601.6315057237
 31
0.0
  0
LWPOLYLINE
  5
8B
330
1F
100
AcDbEntity
  8
0
  6
Continuous
 62
     7
370
    15
100
AcDbPolyline
 90
        9
 70
   128
 43
0.0
 10
98.6999648362
 20
600.2966042342
 10
98.2659497662
 20
600.4572030656
 10
97.9526247118
 20
600.6231518957
 10
97.7632969282
 20
600.7926990767
 10
97.6999648362
 20
600.9640549789
 10
97.7632969282
 20
601.1354108812
 10
97.9526247118
 20
601.3049580622
 10
98.2659497662
 20
601.4709068923
 10
98.6999648362
 20
601.6315057237
  0
LWPOLYLINE
  5
8C
330
1F
100
AcDbEntity
  8
0
  6
Continuous
 62
     7
370
    15
100
AcDbPolyline
 90
        9
 70
   128
 43
0.0
 10
120.6999648362
 20
601.6315057237
 10
121.1339799063
 20
601.4709068923
 10
121.4473049607
 20
601.3049580622
 10
121.6366327443
 20
601.1354108812
 10
121.6999648362
 20
600.9640549789
 10
121.6366327443
 20
600.7926990767
 10
121.4473049607
 20
600.6231518957
 10
121.1339799063
 20
600.4572030656
 10
120.6999648362
 20
600.2966042342
  0
SPLINE
  5
8D
330
1F
100
AcDbEntity
  8
0
  6
Continuous
 62
     7
370
    15
100
AcDbSpline
210
0.0
220
0.0
230
1.0
 70
    24
 71
     3
 72
    10
 73
     6
 74
     0
 42
0.00000001
 43
0.00000001
 12
1.0
 22
0.0
 32
0.0
 13
1.0
 23
0.0
 33
0.0
 40
0.0
 40
0.0
 40
0.0
 40
0.0
 40
0.5
 40
0.5
 40
1.0
 40
1.0
 40
1.0
 40
1.0
 10
120.6999648362263
 20
597.0029827039803
 30
0.0
 10
120.6999648362263
 20
597.1153475656695
 30
0.0
 10
120.6999648362263
 20
597.2814773779494
 30
0.0
 10
120.6999648362263
 20
597.7014720512282
 30
0.0
 10
120.6999648362263
 20
597.9551123529868
 30
0.0
 10
120.6999648362263
 20
598.2421649848195
 30
0.0
  0
LWPOLYLINE
  5
8E
330
1F
100
AcDbEntity
  8
0
  6
Continuous
 62
     7
370
    15
100
AcDbPolyline
 90
       18
 70
   128
 43
0.0
 10
120.6999648362
 20
597.002982704
 10
120.5126689327
 20
597.2842855961
 10
119.9571593597
 20
597.5560090557
 10
119.0523533293
 20
597.8088998661
 10
117.8290629257
 20
598.0343461341
 10
116.3289458364
 20
598.2246705575
 10
114.6030867498
 20
598.3733918663
 10
112.710257727
 20
598.4754455348
 10
110.7149167903
 20
598.5273562475
 10
108.6850128821
 20
598.5273562475
 10
106.6896719454
 20
598.4754455348
 10
104.7968429227
 20
598.3733918663
 10
103.0709838361
 20
598.2246705575
 10
101.5708667468
 20
598.0343461341
 10
100.3475763432
 20
597.8088998661
 10
99.4427703128
 20
597.5560090557
 10
98.8872607397
 20
597.2842855961
 10
98.6999648362
 20
597.002982704
  0
SPLINE
  5
8F
330
1F
100
AcDbEntity
  8
0
  6
Continuous
 62
     7
370
    15
100
AcDbSpline
210
0.0
220
0.0
230
1.0
 70
    24
 71
     3
 72
    10
 73
     6
 74
     0
 42
0.00000001
 43
0.00000001
 12
1.0
 22
0.0
 32
0.0
 13
1.0
 23
0.0
 33
0.0
 40
0.0
 40
0.0
 40
0.0
 40
0.0
 40
0.5
 40
0.5
 40
1.0
 40
1.0
 40
1.0
 40
1.0
 10
98.69996483622631
 20
597.0029827039803
 30
0.0
 10
98.69996483622631
 20
597.1153475656695
 30
0.0
 10
98.69996483622631
 20
597.2814773779494
 30
0.0
 10
98.69996483622631
 20
597.7014720512282
 30
0.0
 10
98.69996483622631
 20
597.9551123529868
 30
0.0
 10
98.69996483622631
 20
598.2421649848195
 30
0.0
  0
LWPOLYLINE
  5
90
330
1F
100
AcDbEntity
  8
0
  6
Continuous
 62
     7
370
    15
100
AcDbPolyline
 90
       18
 70
   128
 43
0.0
 10
98.6999648362
 20
597.002982704
 10
98.8872607397
 20
596.7216798118
 10
99.4427703128
 20
596.4499563523
 10
100.3475763432
 20
596.1970655419
 10
101.5708667468
 20
595.9716192739
 10
103.0709838361
 20
595.7812948504
 10
104.7968429227
 20
595.6325735416
 10
106.6896719454
 20
595.5305198732
 10
108.6850128821
 20
595.4786091605
 10
110.7149167903
 20
595.4786091605
 10
112.710257727
 20
595.5305198732
 10
114.6030867498
 20
595.6325735416
 10
116.3289458364
 20
595.7812948504
 10
117.8290629257
 20
595.9716192739
 10
119.0523533293
 20
596.1970655419
 10
119.9571593597
 20
596.4499563523
 10
120.5126689327
 20
596.7216798118
 10
120.6999648362
 20
597.002982704
  0
LINE
  5
91
330
1F
100
AcDbEntity
  8
0
  6
Continuous
 62
     7
370
    15
100
AcDbLine
 10
114.6999648362
 20
657.5398387097
 30
0.0
 11
104.6999648362
 21
657.5398387097
 31
0.0
  0
LINE
  5
92
330
1F
100
AcDbEntity
  8
0
  6
Continuous
 62
     7
370
    15
100
AcDbLine
 10
114.6999648362
 20
663.5398387097
 30
0.0
 11
118.6999648362
 21
663.5398387097
 31
0.0
  0
ARC
  5
93
330
1F
100
AcDbEntity
  8
0
  6
Continuous
 62
     7
370
    15
100
AcDbCircle
 10
118.6999648362
 20
662.5398387097
 30
0.0
 40
1.0
100
AcDbArc
 50
0.0
 51
90.0
  0
LINE
  5
94
330
1F
100
AcDbEntity
  8
0
  6
Continuous
 62
     7
370
    15
100
AcDbLine
 10
119.6999648362
 20
662.5398387097
 30
0.0
 11
119.6999648362
 21
658.5398387097
 31
0.0
  0
LINE
  5
95
330
1F
100
AcDbEntity
  8
0
  6
Continuous
 62
     7
370
    15
100
AcDbLine
 10
99.6999648362
 20
658.5398387097
 30
0.0
 11
99.6999648362
 21
662.5398387097
 31
0.0
  0
LINE
  5
96
330
1F
100
AcDbEntity
  8
0
  6
Continuous
 62
     7
370
    15
100
AcDbLine
 10
104.6999648362
 20
657.5398387097
 30
0.0
 11
100.6999648362
 21
657.5398387097
 31
0.0
  0
ARC
  5
97
330
1F
100
AcDbEntity
  8
0
  6
Continuous
 62
     7
370
    15
100
AcDbCircle
 10
100.6999648362
 20
658.5398387097
 30
0.0
 40
1.000000000000114
100
AcDbArc
 50
180.0
 51
270.0
  0
ARC
  5
98
330
1F
100
AcDbEntity
  8
0
  6
Continuous
 62
     7
370
    15
100
AcDbCircle
 10
118.6999648362
 20
658.5398387097
 30
0.0
 40
1.000000000000114
100
AcDbArc
 50
270.0
 51
0.0
  0
LINE
  5
99
330
1F
100
AcDbEntity
  8
0
  6
Continuous
 62
     7
370
    15
100
AcDbLine
 10
118.6999648362
 20
657.5398387097
 30
0.0
 11
114.6999648362
 21
657.5398387097
 31
0.0
  0
LINE
  5
9A
330
1F
100
AcDbEntity
  8
0
  6
Continuous
 62
     7
370
    15
100
AcDbLine
 10
100.6999648362
 20
663.5398387097
 30
0.0
 11
104.6999648362
 21
663.5398387097
 31
0.0
  0
ARC
  5
9B
330
1F
100
AcDbEntity
  8
0
  6
Continuous
 62
     7
370
    15
100
AcDbCircle
 10
100.6999648362
 20
662.5398387097
 30
0.0
 40
1.0
100
AcDbArc
 50
90.0
 51
180.0
  0
LINE
  5
9C
330
1F
100
AcDbEntity
  8
0
  6
Continuous
 62
     7
370
    15
100
AcDbLine
 10
104.6999648362
 20
663.5398387097
 30
0.0
 11
114.6999648362
 21
663.5398387097
 31
0.0
  0
SPLINE
  5
9D
330
1F
100
AcDbEntity
  8
0
  6
Continuous
 62
     7
370
     0
100
AcDbSpline
210
0.0
220
0.0
230
1.0
 70
     8
 71
     3
 72
     9
 73
     5
 74
     0
 42
0.00000001
 43
0.00000001
 12
1.0
 22
0.0
 32
0.0
 13
1.0
 23
0.0
 33
0.0
 40
0.0
 40
0.0
 40
0.0
 40
0.0
 40
0.5026290755906216
 40
1.0
 40
1.0
 40
1.0
 40
1.0
 10
129.5818549701723
 20
602.2706162572957
 30
0.0
 10
129.5771149657398
 20
602.161540164978
 30
0.0
 10
129.5676845434606
 20
601.9445290575532
 30
0.0
 10
129.5529856761752
 20
601.7288578095632
 30
0.0
 10
129.5456748869657
 20
601.621589201582
 30
0.0
  0
SPLINE
  5
9E
330
1F
100
AcDbEntity
  8
0
  6
Continuous
 62
     7
370
     0
100
AcDbSpline
210
0.0
220
0.0
230
1.0
 70
     8
 71
     3
 72
     9
 73
     5
 74
     0
 42
0.00000001
 43
0.00000001
 12
1.0
 22
0.0
 32
0.0
 13
1.0
 23
0.0
 33
0.0
 40
0.0
 40
0.0
 40
0.0
 40
0.0
 40
0.4936350839122924
 40
1.0
 40
1.0
 40
1.0
 40
1.0
 10
129.5456439082566
 20
601.6215993254568
 30
0.0
 10
129.4985134535516
 20
600.947165038005
 30
0.0
 10
129.4030371467798
 20
599.5809041918217
 30
0.0
 10
129.3073761940429
 20
598.2136377012174
 30
0.0
 10
129.2589368437375
 20
597.521301919433
 30
0.0
  0
SPLINE
  5
9F
330
1F
100
AcDbEntity
  8
0
  6
Continuous
 62
     7
370
     0
100
AcDbSpline
210
0.0
220
0.0
230
1.0
 70
     8
 71
     3
 72
    46
 73
    42
 74
     0
 42
0.00000001
 43
0.00000001
 12
1.0
 22
0.0
 32
0.0
 13
1.0
 23
0.0
 33
0.0
 40
0.0
 40
0.0
 40
0.0
 40
0.0
 40
0.0126780538927624
 40
0.0261757430740844
 40
0.0405742811991
 40
0.0652455872562891
 40
0.0704973780121334
 40
0.1123228339424642
 40
0.1246645994935764
 40
0.1288390886531636
 40
0.1803387006567789
 40
0.1890301759147837
 40
0.1976848538898628
 40
0.2331185481241736
 40
0.2465945724555972
 40
0.2510464300049581
 40
0.3000550770132745
 40
0.3140862396562512
 40
0.3413714878680871
 40
0.3741992632687196
 40
0.393258110606018
 40
0.421473392553721
 40
0.4420404956810807
 40
0.475277424149437
 40
0.5010324816961073
 40
0.5032414540039915
 40
0.509838216852055
 40
0.5185648781905244
 40
0.5631729472591187
 40
0.5724847602924592
 40
0.5817147560248093
 40
0.6742081638682963
 40
0.7116985933695121
 40
0.7365835773528795
 40
0.7549238246112225
 40
0.8083998764500447
 40
0.8574516855517365
 40
0.875395981511844
 40
0.9048062470189252
 40
0.9531876347321563
 40
1.0
 40
1.0
 40
1.0
 40
1.0
 10
129.2589368437375
 20
597.5213019194329
 30
0.0
 10
129.2552688477008
 20
597.4735917616662
 30
0.0
 10
129.2476957199427
 20
597.3750869878035
 30
0.0
 10
129.231348214473
 20
597.2240534229231
 30
0.0
 10
129.2056598368678
 20
597.0306201570454
 30
0.0
 10
129.1783965068264
 20
596.8706702581592
 30
0.0
 10
129.1280747471255
 20
596.6165438750804
 30
0.0
 10
129.0783158835768
 20
596.4120268135589
 30
0.0
 10
129.0218389469424
 20
596.2192493352039
 30
0.0
 10
128.9533886117661
 20
595.9972072853267
 30
0.0
 10
128.8803376078987
 20
595.7955795498463
 30
0.0
 10
128.7944940123649
 20
595.589973958966
 30
0.0
 10
128.7269939922443
 20
595.4344417103883
 30
0.0
 10
128.648805708713
 20
595.2705509939442
 30
0.0
 10
128.5721392321601
 20
595.1242995291706
 30
0.0
 10
128.4741008812973
 20
594.9433543309069
 30
0.0
 10
128.3696454329701
 20
594.7683262466504
 30
0.0
 10
128.2220299284343
 20
594.5451483990485
 30
0.0
 10
128.0966991344016
 20
594.367662812751
 30
0.0
 10
127.9566733670674
 20
594.1867531507002
 30
0.0
 10
127.8098465934027
 20
594.0109035103005
 30
0.0
 10
127.6815655815116
 20
593.8674110709634
 30
0.0
 10
127.5217303731783
 20
593.700553974751
 30
0.0
 10
127.3616823822741
 20
593.5456440324385
 30
0.0
 10
127.2344474674731
 20
593.4322676352151
 30
0.0
 10
127.1615174574712
 20
593.3697695507103
 30
0.0
 10
127.1243475587905
 20
593.3383086288839
 30
0.0
 10
126.9962665994825
 20
593.2322177623442
 30
0.0
 10
126.8586419476567
 20
593.1265798824513
 30
0.0
 10
126.7162551947142
 20
593.025468219837
 30
0.0
 10
126.4636856233584
 20
592.8509427914269
 30
0.0
 10
126.1315250829355
 20
592.6543016318514
 30
0.0
 10
125.7417337508431
 20
592.4688256817378
 30
0.0
 10
125.5335305190573
 20
592.3806800991619
 30
0.0
 10
125.2800077554455
 20
592.2823103573899
 30
0.0
 10
124.9546744345741
 20
592.1744989659186
 30
0.0
 10
124.6190562927898
 20
592.0900561637013
 30
0.0
 10
124.3450086052758
 20
592.0350256105366
 30
0.0
 10
124.0690185283487
 20
591.989655180398
 30
0.0
 10
123.7026457823973
 20
591.9486479596403
 30
0.0
 10
123.4150718821845
 20
591.9427410389211
 30
0.0
 10
123.2736548875112
 20
591.9398362587053
 30
0.0
  0
SPLINE
  5
A0
330
1F
100
AcDbEntity
  8
0
  6
Continuous
 62
     7
370
     0
100
AcDbSpline
210
0.0
220
0.0
230
1.0
 70
     8
 71
     3
 72
    33
 73
    29
 74
     0
 42
0.00000001
 43
0.00000001
 12
1.0
 22
0.0
 32
0.0
 13
1.0
 23
0.0
 33
0.0
 40
0.0
 40
0.0
 40
0.0
 40
0.0
 40
0.0326425397329448
 40
0.065206052164413
 40
0.097674472212326
 40
0.1300739154805458
 40
0.1624327247093924
 40
0.194740417634306
 40
0.2269276198967523
 40
0.258950896871179
 40
0.2907926513058903
 40
0.3224426781544488
 40
0.353896983892786
 40
0.385156849941998
 40
0.4162278387544016
 40
0.4471183934569599
 40
0.4778382986764177
 40
0.5083971229162029
 40
0.5388029190951138
 40
0.5690611830967395
 40
0.5991739536192295
 40
0.6575801231172711
 40
0.7154990538489635
 40
0.7729904675486892
 40
0.8301127033683885
 40
0.8869317980061184
 40
0.9435276278580196
 40
1.0
 40
1.0
 40
1.0
 40
1.0
 10
123.2736548875107
 20
591.9398362587103
 30
0.0
 10
123.1466548356574
 20
591.9398389093384
 30
0.0
 10
122.892962197959
 20
591.9398442041777
 30
0.0
 10
122.5053416233613
 20
591.9398685782562
 30
0.0
 10
122.1134210612686
 20
591.9398800133869
 30
0.0
 10
121.7167475478677
 20
591.9398684281674
 30
0.0
 10
121.3155106027757
 20
591.9398458453418
 30
0.0
 10
120.9100800938694
 20
591.939843515946
 30
0.0
 10
120.5011910781913
 20
591.9398478701956
 30
0.0
 10
120.0896182389993
 20
591.9398486426554
 30
0.0
 10
119.6759082812587
 20
591.9398465277133
 30
0.0
 10
119.2604502251388
 20
591.9398408297533
 30
0.0
 10
118.84355666044
 20
591.9398327516514
 30
0.0
 10
118.425466544341
 20
591.9398243582865
 30
0.0
 10
118.0063513689862
 20
591.9398191509076
 30
0.0
 10
117.5863334640264
 20
591.9398197317987
 30
0.0
 10
117.1655079252908
 20
591.9398255674982
 30
0.0
 10
116.743964287087
 20
591.939833483203
 30
0.0
 10
116.3218063388162
 20
591.9398393471648
 30
0.0
 10
115.8991641830123
 20
591.9398407150783
 30
0.0
 10
115.3430605791799
 20
591.9398370846411
 30
0.0
 10
114.6521710898343
 20
591.939841419715
 30
0.0
 10
113.8251186014485
 20
591.9398613147142
 30
0.0
 10
112.9984155706071
 20
591.9398579300484
 30
0.0
 10
112.172470912894
 20
591.9398536650795
 30
0.0
 10
111.3474921161388
 20
591.9398491559939
 30
0.0
 10
110.5234396793547
 20
591.9398485068546
 30
0.0
 10
109.9742553905011
 20
591.9398502245807
 30
0.0
 10
109.6999630696915
 20
591.939851082506
 30
0.0
  0
SPLINE
  5
A1
330
1F
100
AcDbEntity
  8
0
  6
Continuous
 62
     7
370
     0
100
AcDbSpline
210
0.0
220
0.0
230
1.0
 70
     8
 71
     3
 72
    34
 73
    30
 74
     0
 42
0.00000001
 43
0.00000001
 12
1.0
 22
0.0
 32
0.0
 13
1.0
 23
0.0
 33
0.0
 40
0.0
 40
0.0
 40
0.0
 40
0.0
 40
0.0334038449654203
 40
0.0668367819285103
 40
0.1003244041573919
 40
0.133888764727151
 40
0.1675487734621335
 40
0.2013205804721502
 40
0.235217952486357
 40
0.2692526502256894
 40
0.3034348125103221
 40
0.3377733752039303
 40
0.3722770732625708
 40
0.4069558768508362
 40
0.4418214128441811
 40
0.4768870537537715
 40
0.5121680134410058
 40
0.5476745661601286
 40
0.5834103147870041
 40
0.6193820501930853
 40
0.6555973967296621
 40
0.6920613552435131
 40
0.7287732999748401
 40
0.7657243188468096
 40
0.8028946610422334
 40
0.8519652701147277
 40
0.9011389669671032
 40
0.9504676094943119
 40
1.0
 40
1.0
 40
1.0
 40
1.0
 10
109.6999630696915
 20
591.939851082506
 30
0.0
 10
109.5377186397008
 20
591.939850877302
 30
0.0
 10
109.2130884781842
 20
591.939850466715
 30
0.0
 10
108.7260358152116
 20
591.9398516680869
 30
0.0
 10
108.238662678741
 20
591.9398567525856
 30
0.0
 10
107.7508785762689
 20
591.939864090353
 30
0.0
 10
107.2626424374602
 20
591.9398715528554
 30
0.0
 10
106.7739581699588
 20
591.9398770793274
 30
0.0
 10
106.2848704540269
 20
591.9398792533367
 30
0.0
 10
105.7954610966437
 20
591.9398769203066
 30
0.0
 10
105.3058442581933
 20
591.9398695858513
 30
0.0
 10
104.8161634627353
 20
591.9398541275979
 30
0.0
 10
104.3265633749869
 20
591.9398401385495
 30
0.0
 10
103.8371764719875
 20
591.9398362381335
 30
0.0
 10
103.3481261851135
 20
591.9398402729349
 30
0.0
 10
102.8595243672037
 20
591.9398460139404
 30
0.0
 10
102.3715039613526
 20
591.9398486530246
 30
0.0
 10
101.8842560888246
 20
591.9398512242175
 30
0.0
 10
101.3980202204458
 20
591.9398560705944
 30
0.0
 10
100.9130563840481
 20
591.9398624059816
 30
0.0
 10
100.4296310150186
 20
591.9398662062392
 30
0.0
 10
99.94805921813031
 20
591.93986403324
 30
0.0
 10
99.46874615115306
 20
591.9398568568313
 30
0.0
 10
98.99220293625315
 20
591.9398498704838
 30
0.0
 10
98.46937936572178
 20
591.9398423927784
 30
0.0
 10
97.90371334852945
 20
591.9398533426192
 30
0.0
 10
97.29942664798615
 20
591.9398886577346
 30
0.0
 10
96.70482229349983
 20
591.939854916402
 30
0.0
 10
96.31924038201619
 20
591.9398424470699
 30
0.0
 10
96.12605209310583
 20
591.9398361995544
 30
0.0
  0
SPLINE
  5
A2
330
1F
100
AcDbEntity
  8
0
  6
Continuous
 62
     7
370
     0
100
AcDbSpline
210
0.0
220
0.0
230
1.0
 70
     8
 71
     3
 72
    49
 73
    45
 74
     0
 42
0.00000001
 43
0.00000001
 12
1.0
 22
0.0
 32
0.0
 13
1.0
 23
0.0
 33
0.0
 40
0.0
 40
0.0
 40
0.0
 40
0.0
 40
0.0234054985536535
 40
0.0471974637154038
 40
0.0713910532096579
 40
0.0959991094431807
 40
0.1210414077064849
 40
0.1388396656749459
 40
0.1629365118477027
 40
0.235874279276621
 40
0.253712606270334
 40
0.2597138273392986
 40
0.3203552930037906
 40
0.35570073996102
 40
0.4046158442749814
 40
0.433426105862358
 40
0.4511032216058399
 40
0.4751611776386306
 40
0.5020441698914926
 40
0.5087532240516258
 40
0.5177730496969275
 40
0.5559498226965993
 40
0.5639665068752195
 40
0.5666562474194142
 40
0.6223690073804876
 40
0.6310747645111601
 40
0.6398775498528004
 40
0.6834246360806795
 40
0.6965904908965127
 40
0.7099845551913895
 40
0.744472972313108
 40
0.7658622334882959
 40
0.8013598500648116
 40
0.8148502988737
 40
0.837383319303294
 40
0.8718612117897798
 40
0.880229575307521
 40
0.9043954679940525
 40
0.9266071581801921
 40
0.9421313376675485
 40
0.9636356811926483
 40
0.9832165531060296
 40
0.9917739756808653
 40
1.0
 40
1.0
 40
1.0
 40
1.0
 10
96.12605209310576
 20
591.9398361995547
 30
0.0
 10
96.05516487149687
 20
591.9405638286504
 30
0.0
 10
95.91221995357081
 20
591.9420311012982
 30
0.0
 10
95.69867581075889
 20
591.9538642641751
 30
0.0
 10
95.48379860480708
 20
591.9729489378207
 30
0.0
 10
95.26792695493953
 20
592.0001795225875
 30
0.0
 10
95.07336852148043
 20
592.0319228220147
 30
0.0
 10
94.88265533957329
 20
592.0691471996576
 30
0.0
 10
94.55958697038082
 20
592.1424077784467
 30
0.0
 10
94.24609747588943
 20
592.2371152210857
 30
0.0
 10
93.99060000637233
 20
592.3323832100872
 30
0.0
 10
93.76951520910987
 20
592.4190448045941
 30
0.0
 10
93.50918077590876
 20
592.5354930131484
 30
0.0
 10
93.15362886475498
 20
592.7238623056564
 30
0.0
 10
92.88603643042968
 20
592.8862972346461
 30
0.0
 10
92.66820118643118
 20
593.0351056994834
 30
0.0
 10
92.51066708879188
 20
593.150303260606
 30
0.0
 10
92.36056186764752
 20
593.2668694828874
 30
0.0
 10
92.23769736852766
 20
593.3694435372311
 30
0.0
 10
92.14849296609293
 20
593.4475186422587
 30
0.0
 10
92.0366037740579
 20
593.5476327147195
 30
0.0
 10
91.92494305078542
 20
593.6543536512013
 30
0.0
 10
91.8287324983872
 20
593.75248905745
 30
0.0
 10
91.69884147899573
 20
593.8869871652827
 30
0.0
 10
91.57215794442918
 20
594.029361193894
 30
0.0
 10
91.43984181415306
 20
594.1927499870517
 30
0.0
 10
91.33084925175315
 20
594.3308526910644
 30
0.0
 10
91.2182126597428
 20
594.4851396430392
 30
0.0
 10
91.10307311843565
 20
594.6576082076741
 30
0.0
 10
91.00504981747503
 20
594.810886339251
 30
0.0
 10
90.89850288975552
 20
594.9913377971695
 30
0.0
 10
90.76576078206352
 20
595.2398463314765
 30
0.0
 10
90.66993932294214
 20
595.4399248519588
 30
0.0
 10
90.57883879586032
 20
595.6511700710049
 30
0.0
 10
90.49376413499414
 20
595.8652998163946
 30
0.0
 10
90.42235783314001
 20
596.0729146432722
 30
0.0
 10
90.3557710640863
 20
596.292595668623
 30
0.0
 10
90.30557344983616
 20
596.4764598639816
 30
0.0
 10
90.25629277593045
 20
596.6911872132987
 30
0.0
 10
90.2154643722688
 20
596.9016531121116
 30
0.0
 10
90.1827043920417
 20
597.1071810091295
 30
0.0
 10
90.16062107865116
 20
597.2910667415158
 30
0.0
 10
90.14777376392796
 20
597.4271188936099
 30
0.0
 10
90.14307140003793
 20
597.490323406778
 30
0.0
 10
90.14076664345477
 20
597.5213016596771
 30
0.0
  0
SPLINE
  5
A3
330
1F
100
AcDbEntity
  8
0
  6
Continuous
 62
     7
370
     0
100
AcDbSpline
210
0.0
220
0.0
230
1.0
 70
     8
 71
     3
 72
     9
 73
     5
 74
     0
 42
0.00000001
 43
0.00000001
 12
1.0
 22
0.0
 32
0.0
 13
1.0
 23
0.0
 33
0.0
 40
0.0
 40
0.0
 40
0.0
 40
0.0
 40
0.506033679140743
 40
1.0
 40
1.0
 40
1.0
 40
1.0
 10
90.14076664345474
 20
597.5213016596772
 30
0.0
 10
90.09179973745536
 20
598.2214894316016
 30
0.0
 10
89.99503363666432
 20
599.6051676348262
 30
0.0
 10
89.89837096713401
 20
600.9877906796692
 30
0.0
 10
89.85062286390169
 20
601.6707598982654
 30
0.0
  0
SPLINE
  5
A4
330
1F
100
AcDbEntity
  8
0
  6
Continuous
 62
     7
370
     0
100
AcDbSpline
210
0.0
220
0.0
230
1.0
 70
     8
 71
     3
 72
     9
 73
     5
 74
     0
 42
0.00000001
 43
0.00000001
 12
1.0
 22
0.0
 32
0.0
 13
1.0
 23
0.0
 33
0.0
 40
0.0
 40
0.0
 40
0.0
 40
0.0
 40
0.4975444471301981
 40
1.0
 40
1.0
 40
1.0
 40
1.0
 10
89.8507435953236
 20
601.670797931171
 30
0.0
 10
89.84420994862924
 20
601.7699988661315
 30
0.0
 10
89.83107816365593
 20
601.9693799174779
 30
0.0
 10
89.82242709420991
 20
602.1698755899394
 30
0.0
 10
89.8180803163285
 20
602.2706157538939
 30
0.0
  0
SPLINE
  5
A5
330
1F
100
AcDbEntity
  8
0
  6
Continuous
 62
     7
370
     0
100
AcDbSpline
210
0.0
220
0.0
230
1.0
 70
     8
 71
     3
 72
    40
 73
    36
 74
     0
 42
0.00000001
 43
0.00000001
 12
1.0
 22
0.0
 32
0.0
 13
1.0
 23
0.0
 33
0.0
 40
0.0
 40
0.0
 40
0.0
 40
0.0
 40
0.0233660000138779
 40
0.0467420579794016
 40
0.070136455261859
 40
0.0935565226908788
 40
0.1170140793613887
 40
0.1294856490416284
 40
0.1544809421413466
 40
0.2290746157191744
 40
0.2474177112805148
 40
0.253550550746256
 40
0.350527607903091
 40
0.3806794001252657
 40
0.3867521992917567
 40
0.448749698826709
 40
0.486807705717264
 40
0.499631969140294
 40
0.5005043019630655
 40
0.5031232411164189
 40
0.5066196944754486
 40
0.5934210540113204
 40
0.6244314437948394
 40
0.6278853736052923
 40
0.648631065046321
 40
0.7449834809332878
 40
0.7516160134098099
 40
0.7847605527469599
 40
0.8649858828752439
 40
0.8717695148713146
 40
0.8921105702282603
 40
0.9329567410674701
 40
0.9397750649027267
 40
0.9700154268988294
 40
1.0
 40
1.0
 40
1.0
 40
1.0
 10
109.7000289963986
 20
625.307889521076
 30
0.0
 10
109.8486896525749
 20
625.307781510728
 30
0.0
 10
110.1460749562693
 20
625.3075654435382
 30
0.0
 10
110.5921213661213
 20
625.3058171273307
 30
0.0
 10
111.0381537194132
 20
625.3030225174758
 30
0.0
 10
111.4841673790052
 20
625.299081269399
 30
0.0
 10
111.8602534073799
 20
625.2948160045241
 30
0.0
 10
112.2457229612952
 20
625.2896979350627
 30
0.0
 10
112.9534569842654
 20
625.2788749027545
 30
0.0
 10
113.694364909908
 20
625.2635976420426
 30
0.0
 10
114.3116561381468
 20
625.2478471503827
 30
0.0
 10
115.0667219188267
 20
625.2276032627735
 30
0.0
 10
115.8877313890792
 20
625.2010687933091
 30
0.0
 10
116.6942098210926
 20
625.1697562742526
 30
0.0
 10
117.2858497086567
 20
625.1456849267955
 30
0.0
 10
117.9189186614007
 20
625.117703683507
 30
0.0
 10
118.5807206343777
 20
625.0851561923282
 30
0.0
 10
118.8812786627725
 20
625.0696158590911
 30
0.0
 10
118.9757789093224
 20
625.0646652674911
 30
0.0
 10
119.0162249259411
 20
625.0625393356011
 30
0.0
 10
119.5533967936609
 20
625.034140291716
 30
0.0
 10
120.2426764687116
 20
624.9945385808353
 30
0.0
 10
120.9126721463671
 20
624.9523725771213
 30
0.0
 10
121.2151223700855
 20
624.9328629193714
 30
0.0
 10
121.8714930371926
 20
624.8897822626119
 30
0.0
 10
122.5252236668839
 20
624.8433809953438
 30
0.0
 10
123.2214983653502
 20
624.7908513134194
 30
0.0
 10
123.8276387997157
 20
624.743970635388
 30
0.0
 10
124.4121322005726
 20
624.695851269518
 30
0.0
 10
124.9173006415274
 20
624.6525388198519
 30
0.0
 10
125.2338253043305
 20
624.6250307325597
 30
0.0
 10
125.5428943050285
 20
624.597468354883
 30
0.0
 10
125.8897312520935
 20
624.5659046492498
 30
0.0
 10
126.1840153544109
 20
624.5386832421711
 30
0.0
 10
126.439188539364
 20
624.514469164946
 30
0.0
 10
126.5662332427801
 20
624.5024135476596
 30
0.0
  0
SPLINE
  5
A6
330
1F
100
AcDbEntity
  8
0
  6
Continuous
 62
     7
370
     0
100
AcDbSpline
210
0.0
220
0.0
230
1.0
 70
     8
 71
     3
 72
    32
 73
    28
 74
     0
 42
0.00000001
 43
0.00000001
 12
1.0
 22
0.0
 32
0.0
 13
1.0
 23
0.0
 33
0.0
 40
0.0
 40
0.0
 40
0.0
 40
0.0
 40
0.0301038038884245
 40
0.0612031059539241
 40
0.093442128955985
 40
0.1270117843943165
 40
0.1622137714970973
 40
0.1994629857723635
 40
0.2398437127591972
 40
0.2440663601082497
 40
0.2659534879242394
 40
0.3141622225223361
 40
0.331408547122859
 40
0.3349471385571725
 40
0.3457332873443955
 40
0.3605214120797143
 40
0.4563977182525598
 40
0.5556227233279385
 40
0.5892975360407651
 40
0.5958736664584948
 40
0.6577408236965306
 40
0.7546127651112161
 40
0.7697501090159817
 40
0.784717413571851
 40
0.8570567209273453
 40
0.9281206987123036
 40
1.0
 40
1.0
 40
1.0
 40
1.0
 10
126.5662412404275
 20
624.5023948166961
 30
0.0
 10
126.6233175146568
 20
624.4960543966318
 30
0.0
 10
126.7393575098697
 20
624.4831638861026
 30
0.0
 10
126.9127718514244
 20
624.4511619292565
 30
0.0
 10
127.0892877518648
 20
624.4074990793976
 30
0.0
 10
127.2690100428146
 20
624.3489954259054
 30
0.0
 10
127.4525678746163
 20
624.2728591316605
 30
0.0
 10
127.6415858474591
 20
624.1745300169416
 30
0.0
 10
127.7732908261092
 20
624.0892536759701
 30
0.0
 10
127.8774464986531
 20
624.0133691911436
 30
0.0
 10
127.9920252584542
 20
623.9242238464766
 30
0.0
 10
128.1206443220246
 20
623.8056163900177
 30
0.0
 10
128.2172640807983
 20
623.7019279323367
 30
0.0
 10
128.2607480532319
 20
623.6530395888466
 30
0.0
 10
128.3003804295054
 20
623.6070367492192
 30
0.0
 10
128.4621771015521
 20
623.408402764391
 30
0.0
 10
128.7153681131088
 20
623.0139229187805
 30
0.0
 10
128.9362734991009
 20
622.5026898224271
 30
0.0
 10
129.0496500532947
 20
622.1671208704033
 30
0.0
 10
129.1282758022309
 20
621.916691394402
 30
0.0
 10
129.2434831657099
 20
621.498285551371
 30
0.0
 10
129.3377035086818
 20
621.0335251814663
 30
0.0
 10
129.39455086673
 20
620.6867249336073
 30
0.0
 10
129.4379382057369
 20
620.4053305447
 30
0.0
 10
129.4936830693396
 20
619.9634538007089
 30
0.0
 10
129.5484175800206
 20
619.3528916112886
 30
0.0
 10
129.5679474216958
 20
618.9426650044041
 30
0.0
 10
129.5777680399366
 20
618.7363817704965
 30
0.0
  0
SPLINE
  5
A7
330
1F
100
AcDbEntity
  8
0
  6
Continuous
 62
     7
370
     0
100
AcDbSpline
210
0.0
220
0.0
230
1.0
 70
     8
 71
     3
 72
    35
 73
    31
 74
     0
 42
0.00000001
 43
0.00000001
 12
1.0
 22
0.0
 32
0.0
 13
1.0
 23
0.0
 33
0.0
 40
0.0
 40
0.0
 40
0.0
 40
0.0
 40
0.033599507031005
 40
0.0668078384992368
 40
0.0998078841908026
 40
0.1327921577949053
 40
0.1659719436939661
 40
0.1995880242021996
 40
0.2339120358827876
 40
0.2562335503203159
 40
0.2868460891945694
 40
0.4016024279630603
 40
0.4146724538597948
 40
0.4279321578887952
 40
0.525791468911837
 40
0.5663037977209711
 40
0.5707334549294206
 40
0.5968431285877123
 40
0.6522520814089608
 40
0.6694011075042996
 40
0.6728043540220068
 40
0.682868607344146
 40
0.6959586776510779
 40
0.7463747100025216
 40
0.7560700996817015
 40
0.7592401894063213
 40
0.8278803659600118
 40
0.8894587211171036
 40
0.9463153738210192
 40
1.0
 40
1.0
 40
1.0
 40
1.0
 10
89.82216204796194
 20
618.7363696348483
 30
0.0
 10
89.82627959586846
 20
618.8328594103568
 30
0.0
 10
89.8344667539508
 20
619.0247155983969
 30
0.0
 10
89.8521340523683
 20
619.3101441668017
 30
0.0
 10
89.87364963282911
 20
619.5925426369441
 30
0.0
 10
89.8996864299802
 20
619.8731750489892
 30
0.0
 10
89.93058922456821
 20
620.1534784941904
 30
0.0
 10
89.96700532043563
 20
620.434986103583
 30
0.0
 10
90.00433191331658
 20
620.6835229179727
 30
0.0
 10
90.0444448306994
 20
620.9212096476678
 30
0.0
 10
90.12905574169186
 20
621.372647662298
 30
0.0
 10
90.22992025406694
 20
621.7846922168841
 30
0.0
 10
90.33876683135533
 20
622.1304547496289
 30
0.0
 10
90.4380880357476
 20
622.4309661625289
 30
0.0
 10
90.57846343918418
 20
622.777914868106
 30
0.0
 10
90.73445765780438
 20
623.0697595161737
 30
0.0
 10
90.81592614265837
 20
623.20889473875
 30
0.0
 10
90.91764694589737
 20
623.372152802352
 30
0.0
 10
91.04415736208408
 20
623.5433780762685
 30
0.0
 10
91.14775541882858
 20
623.6630410719533
 30
0.0
 10
91.19021306994249
 20
623.7098884368728
 30
0.0
 10
91.22743952613457
 20
623.7497369980057
 30
0.0
 10
91.33241608157165
 20
623.8563391834862
 30
0.0
 10
91.44194597030993
 20
623.9520779186886
 30
0.0
 10
91.54024885403169
 20
624.0262462834356
 30
0.0
 10
91.66785754684226
 20
624.1194443144154
 30
0.0
 10
91.88590817163205
 20
624.2507094598769
 30
0.0
 10
92.21114234136003
 20
624.3816834710445
 30
0.0
 10
92.52328627065154
 20
624.4641418302955
 30
0.0
 10
92.73217323929853
 20
624.4898931737666
 30
0.0
 10
92.83361967576823
 20
624.5023993729152
 30
0.0
  0
SPLINE
  5
A8
330
1F
100
AcDbEntity
  8
0
  6
Continuous
 62
     7
370
     0
100
AcDbSpline
210
0.0
220
0.0
230
1.0
 70
     8
 71
     3
 72
    38
 73
    34
 74
     0
 42
0.00000001
 43
0.00000001
 12
1.0
 22
0.0
 32
0.0
 13
1.0
 23
0.0
 33
0.0
 40
0.0
 40
0.0
 40
0.0
 40
0.0
 40
0.0202358718733386
 40
0.0403969093189828
 40
0.0608670337191047
 40
0.0730650209155633
 40
0.0974328516205178
 40
0.1284919430717142
 40
0.1471049618588196
 40
0.1965519088362769
 40
0.2539571265694248
 40
0.2731033526883598
 40
0.2986441503890068
 40
0.3637794150398453
 40
0.3767840668643827
 40
0.4027286114282003
 40
0.5001919564285008
 40
0.5010637273841079
 40
0.5019351799408106
 40
0.5071572164167474
 40
0.5904412687695514
 40
0.6158224783003574
 40
0.6252747811335568
 40
0.6409539989931302
 40
0.7149940832985077
 40
0.7457930554396383
 40
0.7641536418941139
 40
0.8127388981448406
 40
0.8691168636873364
 40
0.8878236258333164
 40
0.9127192427258922
 40
0.9563885393875439
 40
1.0
 40
1.0
 40
1.0
 40
1.0
 10
92.83361886663945
 20
624.5024178776608
 30
0.0
 10
92.91913408976332
 20
624.5105511879332
 30
0.0
 10
93.08984829153088
 20
624.526787730623
 30
0.0
 10
93.35327883185074
 20
624.5514365323223
 30
0.0
 10
93.58580915662255
 20
624.5728252831866
 30
0.0
 10
93.8405257521465
 20
624.5959424622317
 30
0.0
 10
94.14722244711749
 20
624.6233379747835
 30
0.0
 10
94.4906805942155
 20
624.6533196608912
 30
0.0
 10
94.95935302457167
 20
624.6932450566983
 30
0.0
 10
95.56784209129026
 20
624.7434307484091
 30
0.0
 10
96.20185944358357
 20
624.7929032964307
 30
0.0
 10
96.72789587440155
 20
624.8320361145309
 30
0.0
 10
97.3014424132528
 20
624.8735495911313
 30
0.0
 10
97.85734098419546
 20
624.9116127536773
 30
0.0
 10
98.4265493683644
 20
624.9485396999258
 30
0.0
 10
99.17976019615986
 20
624.996051773439
 30
0.0
 10
99.88662881483141
 20
625.0365771587444
 30
0.0
 10
100.4613624206186
 20
625.0666425301572
 30
0.0
 10
100.5017279857732
 20
625.0687506367249
 30
0.0
 10
101.0202921314789
 20
625.0956758182735
 30
0.0
 10
101.6925649132673
 20
625.1276714755853
 30
0.0
 10
102.4014108767068
 20
625.1574458397604
 30
0.0
 10
102.7060955356938
 20
625.1696971639752
 30
0.0
 10
103.3063866171374
 20
625.1930567439426
 30
0.0
 10
104.0449520320798
 20
625.2184460671476
 30
0.0
 10
104.8081132895103
 20
625.2404841696247
 30
0.0
 10
105.4164336202901
 20
625.2564430939141
 30
0.0
 10
106.1885110446274
 20
625.2739593336659
 30
0.0
 10
106.9684409229176
 20
625.2873163734488
 30
0.0
 10
107.6011479466311
 20
625.2956086542011
 30
0.0
 10
108.1544293138886
 20
625.3015265527312
 30
0.0
 10
108.867194320763
 20
625.3067642847428
 30
0.0
 10
109.4225401033256
 20
625.3075146080305
 30
0.0
 10
109.7000289963981
 20
625.3078895210757
 30
0.0
  0
LINE
  5
A9
330
1F
100
AcDbEntity
  8
0
  6
Continuous
 62
     7
370
     0
100
AcDbLine
 10
101.4199648362
 20
665.5398387097
 30
0.0
 11
117.9799648362
 21
665.5398387097
 31
0.0
  0
LINE
  5
AA
330
1F
100
AcDbEntity
  8
0
  6
Continuous
 62
     7
370
     0
100
AcDbLine
 10
117.9799648362
 20
655.5398387097
 30
0.0
 11
101.4199648362
 21
655.5398387097
 31
0.0
  0
ARC
  5
AB
330
1F
100
AcDbEntity
  8
0
  6
Continuous
 62
     7
370
    15
100
AcDbCircle
 10
109.6906824774
 20
645.0781424557
 30
0.0
 40
3.00000000000005
100
AcDbArc
 50
277.6622556608
 51
82.3377443392
  0
SPLINE
  5
AC
330
1F
100
AcDbEntity
  8
0
  6
Continuous
 62
     7
370
    15
100
AcDbSpline
210
0.0
220
0.0
230
1.0
 70
    24
 71
     3
 72
    12
 73
     8
 74
     0
 42
0.00000001
 43
0.00000001
 12
1.0
 22
0.0
 32
0.0
 13
1.0
 23
0.0
 33
0.0
 40
0.0
 40
0.0
 40
0.0
 40
0.0
 40
0.2500000000000017
 40
0.2500000000000017
 40
0.5000000000000033
 40
0.5000000000000033
 40
1.0
 40
1.0
 40
1.0
 40
1.0
 10
110.0906824773748
 20
642.1049287062389
 30
0.0
 10
110.0906824773748
 20
642.1049287062389
 30
0.0
 10
110.0906824773748
 20
642.1235404525853
 30
0.0
 10
110.0906824773748
 20
642.1950738974953
 30
0.0
 10
110.0906824773748
 20
642.2480135903668
 30
0.0
 10
110.0906824773748
 20
642.4443561717497
 30
0.0
 10
110.0906824773748
 20
642.6272349225106
 30
0.0
 10
110.0906824773748
 20
642.8131921251214
 30
0.0
  0
ARC
  5
AD
330
1F
100
AcDbEntity
  8
0
  6
Continuous
 62
     7
370
    15
100
AcDbCircle
 10
109.6906824774
 20
645.0781424557
 30
0.0
 40
2.300000000000086
100
AcDbArc
 50
280.0154101683
 51
79.9845898317
  0
SPLINE
  5
AE
330
1F
100
AcDbEntity
  8
0
  6
Continuous
 62
     7
370
    15
100
AcDbSpline
210
0.0
220
0.0
230
1.0
 70
    24
 71
     3
 72
    12
 73
     8
 74
     0
 42
0.00000001
 43
0.00000001
 12
1.0
 22
0.0
 32
0.0
 13
1.0
 23
0.0
 33
0.0
 40
0.0
 40
0.0
 40
0.0
 40
0.0
 40
0.25
 40
0.25
 40
0.5
 40
0.5
 40
1.0
 40
1.0
 40
1.0
 40
1.0
 10
110.0906824773748
 20
647.3430927862839
 30
0.0
 10
110.0906824773748
 20
647.4360863454939
 30
0.0
 10
110.0906824773748
 20
647.5273211760973
 30
0.0
 10
110.0906824773748
 20
647.6984278375866
 30
0.0
 10
110.0906824773748
 20
647.7768892992765
 30
0.0
 10
110.0906824773748
 20
647.9735767345865
 30
0.0
 10
110.0906824773748
 20
648.0513562051663
 30
0.0
 10
110.0906824773748
 20
648.0513562051663
 30
0.0
  0
ARC
  5
AF
330
1F
100
AcDbEntity
  8
0
  6
Continuous
 62
     7
370
    15
100
AcDbCircle
 10
109.6906824774
 20
645.0781424557
 30
0.0
 40
2.399999999999965
100
AcDbArc
 50
99.5940682269
 51
260.4059317731
  0
ARC
  5
B0
330
1F
100
AcDbEntity
  8
0
  6
Continuous
 62
     7
370
    15
100
AcDbCircle
 10
109.6906824774
 20
645.0781424557
 30
0.0
 40
3.000000000000054
100
AcDbArc
 50
97.6622556608
 51
262.3377443392
  0
SPLINE
  5
B1
330
1F
100
AcDbEntity
  8
0
  6
Continuous
 62
     7
370
    15
100
AcDbSpline
210
0.0
220
0.0
230
1.0
 70
    24
 71
     3
 72
    10
 73
     6
 74
     0
 42
0.00000001
 43
0.00000001
 12
1.0
 22
0.0
 32
0.0
 13
1.0
 23
0.0
 33
0.0
 40
0.0
 40
0.0
 40
0.0
 40
0.0
 40
0.5
 40
0.5
 40
1.0
 40
1.0
 40
1.0
 40
1.0
 10
109.2906824773747
 20
642.7117105424628
 30
0.0
 10
109.2906824773747
 20
642.5523370422433
 30
0.0
 10
109.2906824773747
 20
642.3961974278944
 30
0.0
 10
109.2906824773747
 20
642.1715588602954
 30
0.0
 10
109.2906824773747
 20
642.1049287062389
 30
0.0
 10
109.2906824773747
 20
642.1049287062389
 30
0.0
  0
SPLINE
  5
B2
330
1F
100
AcDbEntity
  8
0
  6
Continuous
 62
     7
370
    15
100
AcDbSpline
210
0.0
220
0.0
230
1.0
 70
    24
 71
     3
 72
    10
 73
     6
 74
     0
 42
0.00000001
 43
0.00000001
 12
1.0
 22
0.0
 32
0.0
 13
1.0
 23
0.0
 33
0.0
 40
0.0
 40
0.0
 40
0.0
 40
0.0
 40
0.5
 40
0.5
 40
1.0
 40
1.0
 40
1.0
 40
1.0
 10
109.2906824773747
 20
648.0513562051663
 30
0.0
 10
109.2906824773747
 20
648.0513562051663
 30
0.0
 10
109.2906824773747
 20
647.9848522521428
 30
0.0
 10
109.2906824773747
 20
647.7605943803896
 30
0.0
 10
109.2906824773747
 20
647.6039221868647
 30
0.0
 10
109.2906824773747
 20
647.4445743689424
 30
0.0
  0
LINE
  5
B3
330
1F
100
AcDbEntity
  8
0
  6
Continuous
 62
     7
370
    15
100
AcDbLine
 10
110.0906824774
 20
647.3430927863
 30
0.0
 11
110.0906824774
 21
642.8131921251
 31
0.0
  0
LINE
  5
B4
330
1F
100
AcDbEntity
  8
0
  6
Continuous
 62
     7
370
    15
100
AcDbLine
 10
109.2906824774
 20
642.7117105425
 30
0.0
 11
109.2906824774
 21
647.4445743689
 31
0.0
  0
SPLINE
  5
B5
330
1F
100
AcDbEntity
  8
0
  6
Continuous
 62
     7
370
     0
100
AcDbSpline
210
0.0
220
0.0
230
1.0
 70
     8
 71
     3
 72
    22
 73
    18
 74
     0
 42
0.00000001
 43
0.00000001
 12
1.0
 22
0.0
 32
0.0
 13
1.0
 23
0.0
 33
0.0
 40
0.0
 40
0.0
 40
0.0
 40
0.0
 40
0.125
 40
0.125
 40
0.25
 40
0.25
 40
0.375
 40
0.375
 40
0.5
 40
0.5
 40
0.625
 40
0.625
 40
0.75
 40
0.75
 40
0.875
 40
0.875
 40
1.0
 40
1.0
 40
1.0
 40
1.0
 10
101.4199648362263
 20
655.5398387096774
 30
0.0
 10
101.2338705778966
 20
655.5398387096775
 30
0.0
 10
101.0522488623744
 20
655.5600746411985
 30
0.0
 10
100.6971962959903
 20
655.6378477703946
 30
0.0
 10
100.5222928004892
 20
655.6961065247109
 30
0.0
 10
100.1876539278406
 20
655.8482430566315
 30
0.0
 10
100.0301928933257
 20
655.9406705315665
 30
0.0
 10
99.73372544155349
 20
656.156931947307
 30
0.0
 10
99.59331172666766
 20
656.2824526512252
 30
0.0
 10
99.33999802159343
 20
656.5582726024368
 30
0.0
 10
99.2270422324991
 20
656.7078653421805
 30
0.0
 10
99.02800983408534
 20
657.0305393164384
 30
0.0
 10
98.94125270257477
 20
657.2058987184371
 30
0.0
 10
98.80268462144942
 20
657.5676724233435
 30
0.0
 10
98.75004766883501
 20
657.7545493965366
 30
0.0
 10
98.67852231540772
 20
658.1406015622663
 30
0.0
 10
98.65996483622632
 20
658.3403503944894
 30
0.0
 10
98.65996483622632
 20
658.5398387096775
 30
0.0
  0
SPLINE
  5
B6
330
1F
100
AcDbEntity
  8
0
  6
Continuous
 62
     7
370
     0
100
AcDbSpline
210
0.0
220
0.0
230
1.0
 70
     8
 71
     3
 72
    22
 73
    18
 74
     0
 42
0.00000001
 43
0.00000001
 12
1.0
 22
0.0
 32
0.0
 13
1.0
 23
0.0
 33
0.0
 40
0.0
 40
0.0
 40
0.0
 40
0.0
 40
0.125
 40
0.125
 40
0.25
 40
0.25
 40
0.375
 40
0.375
 40
0.5
 40
0.5
 40
0.625
 40
0.625
 40
0.75
 40
0.75
 40
0.875
 40
0.875
 40
1.0
 40
1.0
 40
1.0
 40
1.0
 10
117.9799648362263
 20
665.5398387096774
 30
0.0
 10
118.1660590945561
 20
665.5398387096774
 30
0.0
 10
118.3476808100782
 20
665.5196027781564
 30
0.0
 10
118.7027333764624
 20
665.4418296489603
 30
0.0
 10
118.8776368719635
 20
665.383570894644
 30
0.0
 10
119.212275744612
 20
665.2314343627232
 30
0.0
 10
119.369736779127
 20
665.1390068877882
 30
0.0
 10
119.6662042308992
 20
664.9227454720477
 30
0.0
 10
119.806617945785
 20
664.7972247681296
 30
0.0
 10
120.0599316508592
 20
664.521404816918
 30
0.0
 10
120.1728874399535
 20
664.3718120771744
 30
0.0
 10
120.3719198383673
 20
664.0491381029163
 30
0.0
 10
120.4586769698779
 20
663.8737787009178
 30
0.0
 10
120.5972450510032
 20
663.5120049960112
 30
0.0
 10
120.6498820036176
 20
663.3251280228181
 30
0.0
 10
120.7214073570449
 20
662.9390758570886
 30
0.0
 10
120.7399648362263
 20
662.7393270248654
 30
0.0
 10
120.7399648362263
 20
662.5398387096775
 30
0.0
  0
ARC
  5
B7
330
1F
100
AcDbEntity
  8
0
  6
Continuous
 62
     7
370
    15
100
AcDbCircle
 10
109.6906824774
 20
645.0781424557
 30
0.0
 40
3.0
100
AcDbArc
 50
90.0
 51
97.6622556608
  0
ARC
  5
B8
330
1F
100
AcDbEntity
  8
0
  6
Continuous
 62
     7
370
    15
100
AcDbCircle
 10
109.6906824774
 20
645.0781424557
 30
0.0
 40
3.000000000000054
100
AcDbArc
 50
262.3377443392
 51
270.0
  0
ARC
  5
B9
330
1F
100
AcDbEntity
  8
0
  6
Continuous
 62
     7
370
    15
100
AcDbCircle
 10
109.6906824774
 20
645.0781424557
 30
0.0
 40
3.00000000000005
100
AcDbArc
 50
270.0
 51
277.6622556608
  0
ARC
  5
BA
330
1F
100
AcDbEntity
  8
0
  6
Continuous
 62
     7
370
    15
100
AcDbCircle
 10
109.6906824774
 20
645.0781424557
 30
0.0
 40
3.0
100
AcDbArc
 50
82.3377443392
 51
90.0
  0
SPLINE
  5
BB
330
1F
100
AcDbEntity
  8
0
  6
Continuous
 62
     7
370
     0
100
AcDbSpline
210
0.0
220
0.0
230
1.0
 70
     8
 71
     3
 72
    20
 73
    16
 74
     0
 42
0.00000001
 43
0.00000001
 12
1.0
 22
0.0
 32
0.0
 13
1.0
 23
0.0
 33
0.0
 40
0.0
 40
0.0
 40
0.0
 40
0.0
 40
0.1249999999999986
 40
0.1249999999999986
 40
0.2499999999999973
 40
0.2499999999999973
 40
0.4999999999999982
 40
0.4999999999999982
 40
0.6249999999999988
 40
0.6249999999999988
 40
0.7499999999999991
 40
0.7499999999999991
 40
0.8749999999999996
 40
0.8749999999999996
 40
1.0
 40
1.0
 40
1.0
 40
1.0
 10
98.65996483622632
 20
662.5398387096775
 30
0.0
 10
98.65996483622631
 20
662.7389268481724
 30
0.0
 10
98.67801585389894
 20
662.9346694951337
 30
0.0
 10
98.74875165623709
 20
663.3197637632219
 30
0.0
 10
98.80231421679346
 20
663.5108142339392
 30
0.0
 10
99.0098859933445
 20
664.0534117524847
 30
0.0
 10
99.21426369832321
 20
664.3844673499817
 30
0.0
 10
99.59268023054149
 20
664.7965531469
 30
0.0
 10
99.7327644954772
 20
664.9220176983877
 30
0.0
 10
100.0306311624429
 20
665.1393533420548
 30
0.0
 10
100.1880671451471
 20
665.231566632652
 30
0.0
 10
100.5205490443514
 20
665.382833501185
 30
0.0
 10
100.6964913630887
 20
665.4416585449856
 30
0.0
 10
101.0525055183158
 20
665.5196756674939
 30
0.0
 10
101.2342314362188
 20
665.5398387096774
 30
0.0
 10
101.4199648362263
 20
665.5398387096774
 30
0.0
  0
SPLINE
  5
BC
330
1F
100
AcDbEntity
  8
0
  6
Continuous
 62
     7
370
     0
100
AcDbSpline
210
0.0
220
0.0
230
1.0
 70
     8
 71
     3
 72
    20
 73
    16
 74
     0
 42
0.00000001
 43
0.00000001
 12
1.0
 22
0.0
 32
0.0
 13
1.0
 23
0.0
 33
0.0
 40
0.0
 40
0.0
 40
0.0
 40
0.0
 40
0.1249999999999987
 40
0.1249999999999987
 40
0.2499999999999973
 40
0.2499999999999973
 40
0.4999999999999991
 40
0.4999999999999991
 40
0.6249999999999993
 40
0.6249999999999993
 40
0.7499999999999996
 40
0.7499999999999996
 40
0.8749999999999998
 40
0.8749999999999998
 40
1.0
 40
1.0
 40
1.0
 40
1.0
 10
120.7399648362263
 20
658.5398387096775
 30
0.0
 10
120.7399648362263
 20
658.3407505711824
 30
0.0
 10
120.7219138185537
 20
658.1450079242212
 30
0.0
 10
120.6511780162156
 20
657.759913656133
 30
0.0
 10
120.5976154556592
 20
657.5688631854157
 30
0.0
 10
120.3900436791082
 20
657.02626566687
 30
0.0
 10
120.1856659741294
 20
656.6952100693732
 30
0.0
 10
119.8072494419112
 20
656.2831242724549
 30
0.0
 10
119.6671651769754
 20
656.1576597209672
 30
0.0
 10
119.3692985100097
 20
655.9403240772999
 30
0.0
 10
119.2118625273055
 20
655.8481107867029
 30
0.0
 10
118.8793806281012
 20
655.6968439181699
 30
0.0
 10
118.7034383093639
 20
655.6380188743693
 30
0.0
 10
118.3474241541369
 20
655.560001751861
 30
0.0
 10
118.1656982362339
 20
655.5398387096775
 30
0.0
 10
117.9799648362263
 20
655.5398387096774
 30
0.0
  0
SPLINE
  5
BD
330
1F
100
AcDbEntity
  8
0
  6
Continuous
 62
     7
370
    15
100
AcDbSpline
210
0.0
220
0.0
230
1.0
 70
     8
 71
     3
 72
    10
 73
     6
 74
     0
 42
0.00000001
 43
0.00000001
 12
1.0
 22
0.0
 32
0.0
 13
1.0
 23
0.0
 33
0.0
 40
0.0
 40
0.0
 40
0.0
 40
0.0
 40
0.215346477892519
 40
0.6274165719451952
 40
1.0
 40
1.0
 40
1.0
 40
1.0
 10
86.71744249487438
 20
633.7396952478688
 30
0.0
 10
86.71460821566835
 20
633.7107048561243
 30
0.0
 10
86.70635048254546
 20
633.6262407293565
 30
0.0
 10
86.83468459299407
 20
633.5571607943449
 30
0.0
 10
87.02799702433809
 20
633.545415719369
 30
0.0
 10
87.11978914191162
 20
633.5398387096775
 30
0.0
  0
SPLINE
  5
BE
330
1F
100
AcDbEntity
  8
0
  6
Continuous
 62
     7
370
    15
100
AcDbSpline
210
0.0
220
0.0
230
1.0
 70
     8
 71
     3
 72
    10
 73
     6
 74
     0
 42
0.00000001
 43
0.00000001
 12
1.0
 22
0.0
 32
0.0
 13
1.0
 23
0.0
 33
0.0
 40
0.0
 40
0.0
 40
0.0
 40
0.0
 40
0.3975144040062092
 40
0.7978409649420312
 40
1.0
 40
1.0
 40
1.0
 40
1.0
 10
132.280140530541
 20
633.5398387096775
 30
0.0
 10
132.3772501502217
 20
633.5461660625233
 30
0.0
 10
132.5721563772422
 20
633.5588655301381
 30
0.0
 10
132.6955479614229
 20
633.6302320239192
 30
0.0
 10
132.6857266747252
 20
633.7122115334481
 30
0.0
 10
132.682431223589
 20
633.7397190766178
 30
0.0
  0
LINE
  5
BF
330
1F
100
AcDbEntity
  8
0
  6
Continuous
 62
     7
370
     0
100
AcDbLine
 10
120.7399648362
 20
662.5398387097
 30
0.0
 11
120.7399648362
 21
658.5398387097
 31
0.0
  0
LINE
  5
C0
330
1F
100
AcDbEntity
  8
0
  6
Continuous
 62
     7
370
     0
100
AcDbLine
 10
98.6599648362
 20
658.5398387097
 30
0.0
 11
98.6599648362
 21
662.5398387097
 31
0.0
  0
LINE
  5
C1
330
1F
100
AcDbEntity
  8
0
  6
Continuous
 62
     7
370
    15
100
AcDbLine
 10
87.1197891419
 20
633.5398387097
 30
0.0
 11
132.2801405305
 21
633.5398387097
 31
0.0
  0
LINE
  5
C2
330
1F
100
AcDbEntity
  8
0
  6
Continuous
 62
     7
370
    15
100
AcDbLine
 10
88.1999648362
 20
668.5398387097
 30
0.0
 11
131.1999646924
 21
668.5398387097
 31
0.0
  0
LINE
  5
C3
330
1F
100
AcDbEntity
  8
0
  6
Continuous
 62
     7
370
    15
100
AcDbLine
 10
109.6999648362
 20
625.9398387097
 30
0.0
 11
132.1999648362
 21
625.9398387097
 31
0.0
  0
LINE
  5
C4
330
1F
100
AcDbEntity
  8
0
  6
Continuous
 62
     7
370
    15
100
AcDbLine
 10
87.1999648362
 20
625.9398387097
 30
0.0
 11
109.6999648362
 21
625.9398387097
 31
0.0
  0
LINE
  5
C5
330
1F
100
AcDbEntity
  8
0
  6
Continuous
 62
     7
370
    15
100
AcDbLine
 10
109.6999648362
 20
338.4898387097
 30
0.0
 11
132.1999648362
 21
338.4898387097
 31
0.0
  0
LINE
  5
C6
330
1F
100
AcDbEntity
  8
0
  6
Continuous
 62
     7
370
    15
100
AcDbLine
 10
87.1999648362
 20
338.4898387097
 30
0.0
 11
109.6999648362
 21
338.4898387097
 31
0.0
  0
SPLINE
  5
C7
330
1F
100
AcDbEntity
  8
0
  6
Continuous
 62
     7
370
     0
100
AcDbSpline
210
0.0
220
0.0
230
1.0
 70
     8
 71
     3
 72
    10
 73
     6
 74
     0
 42
0.00000001
 43
0.00000001
 12
1.0
 22
0.0
 32
0.0
 13
1.0
 23
0.0
 33
0.0
 40
0.0
 40
0.0
 40
0.0
 40
0.0
 40
0.5
 40
0.5
 40
1.0
 40
1.0
 40
1.0
 40
1.0
 10
129.5776817179772
 20
618.7363500046588
 30
0.0
 10
129.6858561362452
 20
616.0250044810143
 30
0.0
 10
129.739259200607
 20
613.2655363811683
 30
0.0
 10
129.7406036402994
 20
607.7433461306491
 30
0.0
 10
129.6885446779759
 20
604.9831416066627
 30
0.0
 10
129.5817637120073
 20
602.2706262507667
 30
0.0
  0
SPLINE
  5
C8
330
1F
100
AcDbEntity
  8
0
  6
Continuous
 62
     7
370
     0
100
AcDbSpline
210
0.0
220
0.0
230
1.0
 70
     8
 71
     3
 72
    10
 73
     6
 74
     0
 42
0.00000001
 43
0.00000001
 12
1.0
 22
0.0
 32
0.0
 13
1.0
 23
0.0
 33
0.0
 40
0.0
 40
0.0
 40
0.0
 40
0.0
 40
0.5
 40
0.5
 40
1.0
 40
1.0
 40
1.0
 40
1.0
 10
89.81816596044534
 20
602.2706262507667
 30
0.0
 10
89.71138499570505
 20
604.9831415777602
 30
0.0
 10
89.65932635479209
 20
607.7433204574461
 30
0.0
 10
89.66067013671066
 20
613.2655107148927
 30
0.0
 10
89.71407353491401
 20
616.0250044489555
 30
0.0
 10
89.82224795447551
 20
618.7363500046588
 30
0.0
  0
LINE
  5
C9
330
1F
100
AcDbEntity
  8
0
  6
Continuous
 62
     8
370
    15
100
AcDbLine
 10
122.7505810106
 20
601.1204449608
 30
0.0
 11
121.6999648362
 21
601.1236226191
 31
0.0
  0
LINE
  5
CA
330
1F
100
AcDbEntity
  8
0
  6
Continuous
 62
     8
370
    15
100
AcDbLine
 10
97.6522554908
 20
601.1234783191
 30
0.0
 11
96.6493486618
 21
601.1204449608
 31
0.0
  0
LINE
  5
CB
330
1F
100
AcDbEntity
  8
0
  6
Continuous
 62
     7
370
    15
100
AcDbLine
 10
216.6990054508
 20
667.0398387097
 30
0.0
 11
216.6990054508
 21
637.595359266
 31
0.0
  0
LINE
  5
CC
330
1F
100
AcDbEntity
  8
0
  6
Continuous
 62
     7
370
    15
100
AcDbLine
 10
262.6990054508
 20
665.5398387097
 30
0.0
 11
262.6990054508
 21
667.0398387097
 31
0.0
  0
LINE
  5
CD
330
1F
100
AcDbEntity
  8
0
  6
Continuous
 62
     7
370
    15
100
AcDbLine
 10
262.6990054508
 20
648.0778837147
 30
0.0
 11
262.6990054508
 21
655.5398387097
 31
0.0
  0
LINE
  5
CE
330
1F
100
AcDbEntity
  8
0
  6
Continuous
 62
     7
370
    15
100
AcDbLine
 10
262.6990054508
 20
633.5398387097
 30
0.0
 11
262.6990054508
 21
642.0789120573
 31
0.0
  0
ARC
  5
CF
330
1F
100
AcDbEntity
  8
0
  6
Continuous
 62
     7
370
    15
100
AcDbCircle
 10
218.1990054508
 20
667.0398387097
 30
0.0
 40
1.5
100
AcDbArc
 50
90.0
 51
180.0
  0
ARC
  5
D0
330
1F
100
AcDbEntity
  8
0
  6
Continuous
 62
     7
370
    15
100
AcDbCircle
 10
261.1990054508
 20
667.0398387097
 30
0.0
 40
1.5
100
AcDbArc
 50
0.0
 51
90.0
  0
LINE
  5
D1
330
1F
100
AcDbEntity
  8
0
  6
Continuous
 62
     7
370
    15
100
AcDbLine
 10
217.1990054508
 20
625.9398387097
 30
0.0
 11
217.1990054508
 21
338.4898387097
 31
0.0
  0
LINE
  5
D2
330
1F
100
AcDbEntity
  8
0
  6
Continuous
 62
     7
370
    15
100
AcDbLine
 10
262.1990054508
 20
625.3078902758
 30
0.0
 11
262.1990054508
 21
625.9398387097
 31
0.0
  0
LINE
  5
D3
330
1F
100
AcDbEntity
  8
0
  6
Continuous
 62
     7
370
    15
100
AcDbLine
 10
262.1990054508
 20
338.4898387097
 30
0.0
 11
262.1990054508
 21
591.9398387097
 31
0.0
  0
LINE
  5
D4
330
1F
100
AcDbEntity
  8
0
  6
Continuous
 62
     7
370
    15
100
AcDbLine
 10
217.6990054508
 20
627.9398387097
 30
0.0
 11
217.6990054508
 21
625.9398387097
 31
0.0
  0
LINE
  5
D5
330
1F
100
AcDbEntity
  8
0
  6
Continuous
 62
     7
370
    15
100
AcDbLine
 10
261.6990054508
 20
625.9398387097
 30
0.0
 11
261.6990054508
 21
627.9398387097
 31
0.0
  0
ARC
  5
D6
330
1F
100
AcDbEntity
  8
0
  6
Continuous
 62
     7
370
    15
100
AcDbCircle
 10
239.6990054508
 20
628.0133046147
 30
0.0
 40
22.00000000000002
100
AcDbArc
 50
155.6768977265
 51
180.1898070145
  0
ARC
  5
D7
330
1F
100
AcDbEntity
  8
0
  6
Continuous
 62
     7
370
    15
100
AcDbCircle
 10
239.6990054508
 20
628.0133046147
 30
0.0
 40
22.00000000000004
100
AcDbArc
 50
0.0
 51
14.5488941612
  0
SPLINE
  5
D8
330
1F
100
AcDbEntity
  8
0
  6
Continuous
 62
     7
370
    15
100
AcDbSpline
210
0.0
220
0.0
230
1.0
 70
     8
 71
     3
 72
    15
 73
    11
 74
     0
 42
0.00000001
 43
0.00000001
 12
1.0
 22
0.0
 32
0.0
 13
1.0
 23
0.0
 33
0.0
 40
0.0
 40
0.0
 40
0.0
 40
0.0
 40
0.0290727300678781
 40
0.1871542449705955
 40
0.3171897964111582
 40
0.4412072661541708
 40
0.6043821824882276
 40
0.7875560266898126
 40
0.8870010743409509
 40
1.0
 40
1.0
 40
1.0
 40
1.0
 10
262.2178747810087
 20
591.9441799896777
 30
0.0
 10
262.2118407237065
 20
592.0476214487502
 30
0.0
 10
262.1729967817762
 20
592.7135206651702
 30
0.0
 10
262.3143506470232
 20
593.8426372039412
 30
0.0
 10
262.5393640838095
 20
595.291840938198
 30
0.0
 10
262.8848994951626
 20
596.7396616520517
 30
0.0
 10
263.4299214133587
 20
598.3285079236667
 30
0.0
 10
264.3241320603969
 20
599.6873576975102
 30
0.0
 10
265.4765738855667
 20
600.5367733236984
 30
0.0
 10
266.1994584496757
 20
600.7746840867162
 30
0.0
 10
266.5839606685293
 20
600.9012287949744
 30
0.0
  0
SPLINE
  5
D9
330
1F
100
AcDbEntity
  8
0
  6
Continuous
 62
     7
370
    15
100
AcDbSpline
210
0.0
220
0.0
230
1.0
 70
     8
 71
     3
 72
     9
 73
     5
 74
     0
 42
0.00000001
 43
0.00000001
 12
1.0
 22
0.0
 32
0.0
 13
1.0
 23
0.0
 33
0.0
 40
0.0
 40
0.0
 40
0.0
 40
0.0
 40
0.3974461799836629
 40
1.0
 40
1.0
 40
1.0
 40
1.0
 10
265.1318875216615
 20
620.3002545680455
 30
0.0
 10
265.0511913704072
 20
620.3357555646455
 30
0.0
 10
264.8481546944535
 20
620.4250783418864
 30
0.0
 10
264.6822280229857
 20
620.554321876424
 30
0.0
 10
264.5822482732503
 20
620.632198061872
 30
0.0
  0
SPLINE
  5
DA
330
1F
100
AcDbEntity
  8
0
  6
Continuous
 62
     7
370
    15
100
AcDbSpline
210
0.0
220
0.0
230
1.0
 70
     8
 71
     3
 72
     9
 73
     5
 74
     0
 42
0.00000001
 43
0.00000001
 12
1.0
 22
0.0
 32
0.0
 13
1.0
 23
0.0
 33
0.0
 40
0.0
 40
0.0
 40
0.0
 40
0.0
 40
0.3797995138371899
 40
1.0
 40
1.0
 40
1.0
 40
1.0
 10
265.1898728306627
 20
620.3046693162698
 30
0.0
 10
265.1163115410944
 20
620.3322778275864
 30
0.0
 10
264.9226270131045
 20
620.4049701568566
 30
0.0
 10
264.7678065240663
 20
620.5238727163776
 30
0.0
 10
264.6717867814968
 20
620.5976161415986
 30
0.0
  0
SPLINE
  5
DB
330
1F
100
AcDbEntity
  8
0
  6
Continuous
 62
     7
370
    15
100
AcDbSpline
210
0.0
220
0.0
230
1.0
 70
     8
 71
     3
 72
    12
 73
     8
 74
     0
 42
0.00000001
 43
0.00000001
 12
1.0
 22
0.0
 32
0.0
 13
1.0
 23
0.0
 33
0.0
 40
0.0
 40
0.0
 40
0.0
 40
0.0
 40
0.1766774198107262
 40
0.3399576529681996
 40
0.6384544578250424
 40
0.8749489998277139
 40
0.9999999999999999
 40
0.9999999999999999
 40
0.9999999999999999
 40
0.9999999999999999
 10
264.6265160210966
 20
620.6151006478576
 30
0.0
 10
264.3285040236972
 20
620.7614075527725
 30
0.0
 10
263.7550778365771
 20
621.0429271270408
 30
0.0
 10
262.9779971117532
 20
621.9752382694154
 30
0.0
 10
262.476307677908
 20
623.1891154233135
 30
0.0
 10
262.2208465156304
 20
624.4006372397536
 30
0.0
 10
262.2151721242376
 20
625.0749410273468
 30
0.0
 10
262.2132094715805
 20
625.308168527681
 30
0.0
  0
LWPOLYLINE
  5
DC
330
1F
100
AcDbEntity
  8
0
  6
Continuous
 62
     7
370
    15
100
AcDbPolyline
 90
        8
 70
   128
 43
0.0
 10
415.2102878798
 20
619.2242276307
 10
412.324566259
 20
619.2458986438
 10
408.5652833137
 20
619.2744014282
 10
404.8059983726
 20
619.3028821135
 10
401.0467040847
 20
619.3312473594
 10
380.370557817
 20
619.4869463155
 10
343.4488729217
 20
619.7653404991
 10
266.1987695577
 20
620.349407184
  0
LINE
  5
DD
330
1F
100
AcDbEntity
  8
0
  6
Continuous
 62
     7
370
    15
100
AcDbLine
 10
425.9055707734
 20
599.2447914516
 30
0.0
 11
425.4850585893
 21
602.2368911146
 31
0.0
  0
LINE
  5
DE
330
1F
100
AcDbEntity
  8
0
  6
Continuous
 62
     7
370
    15
100
AcDbLine
 10
401.272953187
 20
602.0678559852
 30
0.0
 11
402.1391371236
 21
595.9046370285
 31
0.0
  0
SPLINE
  5
DF
330
1F
100
AcDbEntity
  8
0
  6
Continuous
 62
     7
370
    15
100
AcDbSpline
210
0.0
220
0.0
230
1.0
 70
     8
 71
     3
 72
    11
 73
     7
 74
     0
 42
0.00000001
 43
0.00000001
 12
1.0
 22
0.0
 32
0.0
 13
1.0
 23
0.0
 33
0.0
 40
0.0
 40
0.0
 40
0.0
 40
0.0
 40
0.2495307329085823
 40
0.5031620360615067
 40
0.7550608583371476
 40
1.0
 40
1.0
 40
1.0
 40
1.0
 10
427.6525590197184
 20
617.7060930790186
 30
0.0
 10
427.6110403336649
 20
617.843212477934
 30
0.0
 10
427.5273206797139
 20
618.1197045762724
 30
0.0
 10
427.2411139909569
 20
618.4686300751628
 30
0.0
 10
426.8733105902576
 20
618.7176425864444
 30
0.0
 10
426.6032907984468
 20
618.7764348189436
 30
0.0
 10
426.4701721142105
 20
618.8054191559106
 30
0.0
  0
SPLINE
  5
E0
330
1F
100
AcDbEntity
  8
0
  6
Continuous
 62
     7
370
    15
100
AcDbSpline
210
0.0
220
0.0
230
1.0
 70
     8
 71
     3
 72
     9
 73
     5
 74
     0
 42
0.00000001
 43
0.00000001
 12
1.0
 22
0.0
 32
0.0
 13
1.0
 23
0.0
 33
0.0
 40
0.0
 40
0.0
 40
0.0
 40
0.0
 40
0.4997709404009153
 40
1.0
 40
1.0
 40
1.0
 40
1.0
 10
426.5459764072882
 20
618.7950816857091
 30
0.0
 10
424.6466403918546
 20
618.949347955454
 30
0.0
 10
420.8462273187977
 20
619.2580219044057
 30
0.0
 10
417.0333597294118
 20
619.2359979309501
 30
0.0
 10
415.1260525607974
 20
619.22498089942
 30
0.0
  0
LINE
  5
E1
330
1F
100
AcDbEntity
  8
0
  6
Continuous
 62
     7
370
    15
100
AcDbLine
 10
402.1391371236
 20
595.9046370285
 30
0.0
 11
403.2097568197
 21
595.4720785934
 31
0.0
  0
LINE
  5
E2
330
1F
100
AcDbEntity
  8
0
  6
Continuous
 62
     7
370
    15
100
AcDbLine
 10
424.995654332
 20
598.5338868145
 30
0.0
 11
425.9055707734
 21
599.2447914516
 31
0.0
  0
ARC
  5
E3
330
1F
100
AcDbEntity
  8
0
  6
Continuous
 62
     7
370
    15
100
AcDbCircle
 10
264.6990054508
 20
665.5398387097
 30
0.0
 40
2.0
100
AcDbArc
 50
180.0
 51
270.0
  0
ARC
  5
E4
330
1F
100
AcDbEntity
  8
0
  6
Continuous
 62
     7
370
    15
100
AcDbCircle
 10
264.6990054508
 20
655.5398387097
 30
0.0
 40
2.0
100
AcDbArc
 50
90.0
 51
180.0
  0
SPLINE
  5
E5
330
1F
100
AcDbEntity
  8
0
  6
Continuous
 62
     7
370
    15
100
AcDbSpline
210
0.0
220
0.0
230
1.0
 70
     8
 71
     3
 72
    12
 73
     8
 74
     0
 42
0.00000001
 43
0.00000001
 12
1.0
 22
0.0
 32
0.0
 13
1.0
 23
0.0
 33
0.0
 40
0.0
 40
0.0
 40
0.0
 40
0.0
 40
0.5
 40
0.5
 40
0.75
 40
0.75
 40
1.0
 40
1.0
 40
1.0
 40
1.0
 10
235.3910297437791
 20
634.2994510590669
 30
0.0
 10
236.8179628438198
 20
634.0478442538638
 30
0.0
 10
238.2560030939454
 20
633.8581141432879
 30
0.0
 10
240.4297919309788
 20
633.6674724456632
 30
0.0
 10
241.1571860642975
 20
633.6196046163003
 30
0.0
 10
242.6177060694545
 20
633.5556897855603
 30
0.0
 10
243.3494768957662
 20
633.5398387096774
 30
0.0
 10
244.0734386271255
 20
633.5398387096774
 30
0.0
  0
LINE
  5
E6
330
1F
100
AcDbEntity
  8
0
  6
Continuous
 62
     7
370
    15
100
AcDbLine
 10
216.6990054508
 20
637.595359266
 30
0.0
 11
235.3910297438
 21
634.2994510591
 31
0.0
  0
LINE
  5
E7
330
1F
100
AcDbEntity
  8
0
  6
Continuous
 62
     7
370
    15
100
AcDbLine
 10
244.0734386271
 20
633.5398387097
 30
0.0
 11
262.6990054508
 21
633.5398387097
 31
0.0
  0
SPLINE
  5
E8
330
1F
100
AcDbEntity
  8
0
  6
Continuous
 62
     7
370
    15
100
AcDbSpline
210
0.0
220
0.0
230
1.0
 70
     8
 71
     3
 72
    22
 73
    18
 74
     0
 42
0.00000001
 43
0.00000001
 12
1.0
 22
0.0
 32
0.0
 13
1.0
 23
0.0
 33
0.0
 40
0.0
 40
0.0
 40
0.0
 40
0.0
 40
0.125
 40
0.125
 40
0.25
 40
0.25
 40
0.375
 40
0.375
 40
0.5
 40
0.5
 40
0.625
 40
0.625
 40
0.75
 40
0.75
 40
0.875
 40
0.875
 40
1.0
 40
1.0
 40
1.0
 40
1.0
 10
261.1569084238602
 20
655.5398387096774
 30
0.0
 10
261.085099894345
 20
655.5398387096774
 30
0.0
 10
261.0122399583709
 20
655.5600746411984
 30
0.0
 10
260.8647115658828
 20
655.6378477703945
 30
0.0
 10
260.7893792557454
 20
655.6961065247109
 30
0.0
 10
260.640578276404
 20
655.8482430566314
 30
0.0
 10
260.5681784070392
 20
655.9406705315664
 30
0.0
 10
260.4282346123775
 20
656.1569319473069
 30
0.0
 10
260.3599726198048
 20
656.2824526512251
 30
0.0
 10
260.2341238832645
 20
656.5582726024365
 30
0.0
 10
260.1765650907117
 20
656.7078653421804
 30
0.0
 10
260.0735467487551
 20
657.0305393164383
 30
0.0
 10
260.0277112720117
 20
657.2058987184371
 30
0.0
 10
259.9537691142145
 20
657.5676724233434
 30
0.0
 10
259.9252500607358
 20
657.7545493965365
 30
0.0
 10
259.8863644101582
 20
658.1406015622662
 30
0.0
 10
259.8761806743338
 20
658.3403503944894
 30
0.0
 10
259.8761806743338
 20
658.5398387096773
 30
0.0
  0
SPLINE
  5
E9
330
1F
100
AcDbEntity
  8
0
  6
Continuous
 62
     7
370
    15
100
AcDbSpline
210
0.0
220
0.0
230
1.0
 70
     8
 71
     3
 72
    20
 73
    16
 74
     0
 42
0.00000001
 43
0.00000001
 12
1.0
 22
0.0
 32
0.0
 13
1.0
 23
0.0
 33
0.0
 40
0.0
 40
0.0
 40
0.0
 40
0.0
 40
0.1249999999999986
 40
0.1249999999999986
 40
0.2499999999999973
 40
0.2499999999999973
 40
0.4999999999999982
 40
0.4999999999999982
 40
0.6249999999999988
 40
0.6249999999999988
 40
0.7499999999999991
 40
0.7499999999999991
 40
0.8749999999999996
 40
0.8749999999999996
 40
1.0
 40
1.0
 40
1.0
 40
1.0
 10
259.8761806743338
 20
662.5398387096773
 30
0.0
 10
259.8761806743338
 20
662.7389268481722
 30
0.0
 10
259.886086996256
 20
662.9346694951336
 30
0.0
 10
259.9245474850287
 20
663.3197637632218
 30
0.0
 10
259.9535694214726
 20
663.5108142339391
 30
0.0
 10
260.0643391576303
 20
664.0534117524846
 30
0.0
 10
260.1716561031704
 20
664.3844673499816
 30
0.0
 10
260.3596597524541
 20
664.7965531469
 30
0.0
 10
260.4277787193472
 20
664.9220176983875
 30
0.0
 10
260.5683875728589
 20
665.1393533420547
 30
0.0
 10
260.6407557024991
 20
665.2315666326518
 30
0.0
 10
260.7886101652081
 20
665.3828335011849
 30
0.0
 10
260.8644164540011
 20
665.4416585449854
 30
0.0
 10
261.0123488032872
 20
665.5196756674937
 30
0.0
 10
261.0852391394013
 20
665.5398387096774
 30
0.0
 10
261.1569084238602
 20
665.5398387096774
 30
0.0
  0
LINE
  5
EA
330
1F
100
AcDbEntity
  8
0
  6
Continuous
 62
     7
370
    15
100
AcDbLine
 10
259.8761806743
 20
658.5398387097
 30
0.0
 11
259.8761806743
 21
662.5398387097
 31
0.0
  0
SPLINE
  5
EB
330
1F
100
AcDbEntity
  8
0
  6
Continuous
 62
     7
370
    15
100
AcDbSpline
210
0.0
220
0.0
230
1.0
 70
     8
 71
     3
 72
    14
 73
    10
 74
     0
 42
0.00000001
 43
0.00000001
 12
1.0
 22
0.0
 32
0.0
 13
1.0
 23
0.0
 33
0.0
 40
0.0
 40
0.0
 40
0.0
 40
0.0
 40
0.2500000000000001
 40
0.2500000000000001
 40
0.5000000000000001
 40
0.5000000000000001
 40
0.75
 40
0.75
 40
1.0
 40
1.0
 40
1.0
 40
1.0
 10
262.6127180464205
 20
642.8253463370953
 30
0.0
 10
262.6245728146995
 20
642.7053310508791
 30
0.0
 10
262.6359613702799
 20
642.5994317820176
 30
0.0
 10
262.6567843586355
 20
642.4146921038141
 30
0.0
 10
262.6662747666818
 20
642.3354434454095
 30
0.0
 10
262.6820523007987
 20
642.2074137034055
 30
0.0
 10
262.6882257496493
 20
642.159466797321
 30
0.0
 10
262.6966657281741
 20
642.0948159905863
 30
0.0
 10
262.6989300672377
 20
642.0781424557025
 30
0.0
 10
262.6990035777383
 20
642.0781424557025
 30
0.0
  0
SPLINE
  5
EC
330
1F
100
AcDbEntity
  8
0
  6
Continuous
 62
     7
370
    15
100
AcDbSpline
210
0.0
220
0.0
230
1.0
 70
     8
 71
     3
 72
    14
 73
    10
 74
     0
 42
0.00000001
 43
0.00000001
 12
1.0
 22
0.0
 32
0.0
 13
1.0
 23
0.0
 33
0.0
 40
0.0
 40
0.0
 40
0.0
 40
0.0
 40
0.25
 40
0.25
 40
0.5
 40
0.5
 40
0.75
 40
0.75
 40
1.0
 40
1.0
 40
1.0
 40
1.0
 10
262.6990035777383
 20
648.0781424557025
 30
0.0
 10
262.6989300745919
 20
648.0781424557025
 30
0.0
 10
262.6966961668318
 20
648.0616961402487
 30
0.0
 10
262.688290199047
 20
647.9973176769109
 30
0.0
 10
262.6820600501461
 20
647.948931907034
 30
0.0
 10
262.6662895819707
 20
647.8209638687855
 30
0.0
 10
262.6569018101864
 20
647.7425967906134
 30
0.0
 10
262.6360804801196
 20
647.557947467932
 30
0.0
 10
262.6245716802209
 20
647.4509423752928
 30
0.0
 10
262.6127180464205
 20
647.3309385743097
 30
0.0
  0
LINE
  5
ED
330
1F
100
AcDbEntity
  8
0
  6
Continuous
 62
     7
370
    15
100
AcDbLine
 10
239.6990054508
 20
668.5398387097
 30
0.0
 11
261.1990054508
 21
668.5398387097
 31
0.0
  0
LINE
  5
EE
330
1F
100
AcDbEntity
  8
0
  6
Continuous
 62
     7
370
    15
100
AcDbLine
 10
218.1990054508
 20
668.5398387097
 30
0.0
 11
239.6990054508
 21
668.5398387097
 31
0.0
  0
LINE
  5
EF
330
1F
100
AcDbEntity
  8
0
  6
Continuous
 62
     7
370
    15
100
AcDbLine
 10
217.1990054508
 20
625.9398387097
 30
0.0
 11
262.1990054508
 21
625.9398387097
 31
0.0
  0
LINE
  5
F0
330
1F
100
AcDbEntity
  8
0
  6
Continuous
 62
     7
370
    15
100
AcDbLine
 10
217.1990054508
 20
338.4898387097
 30
0.0
 11
262.1990054508
 21
338.4898387097
 31
0.0
  0
SPLINE
  5
F1
330
1F
100
AcDbEntity
  8
0
  6
Continuous
 62
     7
370
    15
100
AcDbSpline
210
0.0
220
0.0
230
1.0
 70
     8
 71
     3
 72
    38
 73
    34
 74
     0
 42
0.00000001
 43
0.00000001
 12
1.0
 22
0.0
 32
0.0
 13
1.0
 23
0.0
 33
0.0
 40
0.0
 40
0.0
 40
0.0
 40
0.0
 40
0.0202358718733386
 40
0.0403969093189828
 40
0.0608670337191047
 40
0.0730650209155633
 40
0.0974328516205178
 40
0.1284919430717142
 40
0.1471049618588196
 40
0.1965519088362769
 40
0.2539571265694248
 40
0.2731033526883598
 40
0.2986441503890068
 40
0.3637794150398453
 40
0.3767840668643827
 40
0.4027286114282003
 40
0.5001919564285008
 40
0.5010637273841079
 40
0.5019351799408106
 40
0.5071572164167474
 40
0.5904412687695514
 40
0.6158224783003574
 40
0.6252747811335568
 40
0.6409539989931302
 40
0.7149940832985077
 40
0.7457930554396383
 40
0.7641536418941139
 40
0.8127388981448406
 40
0.8691168636873364
 40
0.8878236258333164
 40
0.9127192427258922
 40
0.9563885393875439
 40
1.0
 40
1.0
 40
1.0
 40
1.0
 10
254.5913156782994
 20
624.5024178776607
 30
0.0
 10
254.6872223457312
 20
624.5105511879331
 30
0.0
 10
254.8786810074373
 20
624.5267877306229
 30
0.0
 10
255.1615053014065
 20
624.5514365323222
 30
0.0
 10
255.4032880337829
 20
624.5728252831866
 30
0.0
 10
255.6607285114972
 20
624.5959424622316
 30
0.0
 10
255.9612842792418
 20
624.6233379747833
 30
0.0
 10
256.2823829796305
 20
624.653319660891
 30
0.0
 10
256.7024723034978
 20
624.6932450566982
 30
0.0
 10
257.2170899895079
 20
624.743430748409
 30
0.0
 10
257.705747468074
 20
624.7929032964307
 30
0.0
 10
258.0848253688849
 20
624.8320361145308
 30
0.0
 10
258.481814440653
 20
624.8735495911311
 30
0.0
 10
258.835715784569
 20
624.9116127536772
 30
0.0
 10
259.1721552513076
 20
624.9485396999257
 30
0.0
 10
259.6007761338959
 20
624.9960517734389
 30
0.0
 10
259.9556047684239
 20
625.0365771587443
 30
0.0
 10
260.2147945585036
 20
625.066642530157
 30
0.0
 10
260.2329625452519
 20
625.0687506367248
 30
0.0
 10
260.4647571258932
 20
625.0956758182734
 30
0.0
 10
260.7354560628164
 20
625.1276714755852
 30
0.0
 10
260.9833461820235
 20
625.1574458397603
 30
0.0
 10
261.0848736649779
 20
625.1696971639751
 30
0.0
 10
261.2778224556093
 20
625.1930567439425
 30
0.0
 10
261.4847818966282
 20
625.2184460671475
 30
0.0
 10
261.6625721767952
 20
625.2404841696246
 30
0.0
 10
261.7909071637297
 20
625.2564430939138
 30
0.0
 10
261.930948657585
 20
625.2739593336657
 30
0.0
 10
262.036688511617
 20
625.2873163734487
 30
0.0
 10
262.1021477031103
 20
625.2956086542009
 30
0.0
 10
262.1488205489912
 20
625.301526552731
 30
0.0
 10
262.1901291343157
 20
625.3067642847427
 30
0.0
 10
262.1961072093134
 20
625.3075146080304
 30
0.0
 10
262.1990942661452
 20
625.3078895210756
 30
0.0
  0
SPLINE
  5
F2
330
1F
100
AcDbEntity
  8
0
  6
Continuous
 62
     7
370
    15
100
AcDbSpline
210
0.0
220
0.0
230
1.0
 70
     8
 71
     3
 72
    35
 73
    31
 74
     0
 42
0.00000001
 43
0.00000001
 12
1.0
 22
0.0
 32
0.0
 13
1.0
 23
0.0
 33
0.0
 40
0.0
 40
0.0
 40
0.0
 40
0.0
 40
0.033599507031005
 40
0.0668078384992368
 40
0.0998078841908026
 40
0.1327921577949053
 40
0.1659719436939661
 40
0.1995880242021996
 40
0.2339120358827876
 40
0.2562335503203159
 40
0.2868460891945694
 40
0.4016024279630603
 40
0.4146724538597948
 40
0.4279321578887952
 40
0.525791468911837
 40
0.5663037977209711
 40
0.5707334549294206
 40
0.5968431285877123
 40
0.6522520814089608
 40
0.6694011075042996
 40
0.6728043540220068
 40
0.682868607344146
 40
0.6959586776510779
 40
0.7463747100025216
 40
0.7560700996817015
 40
0.7592401894063213
 40
0.8278803659600118
 40
0.8894587211171036
 40
0.9463153738210192
 40
1.0
 40
1.0
 40
1.0
 40
1.0
 10
250.2406979501034
 20
618.7363696348482
 30
0.0
 10
250.2484370175017
 20
618.8328594103567
 30
0.0
 10
250.2638250517488
 20
619.0247155983968
 30
0.0
 10
250.2966569232069
 20
619.3101441668016
 30
0.0
 10
250.3368081139919
 20
619.592542636944
 30
0.0
 10
250.3853313463478
 20
619.8731750489891
 30
0.0
 10
250.4426108625951
 20
620.1534784941903
 30
0.0
 10
250.5095159140805
 20
620.4349861035829
 30
0.0
 10
250.5773649122848
 20
620.6835229179726
 30
0.0
 10
250.6495908254058
 20
620.9212096476675
 30
0.0
 10
250.8006022280211
 20
621.3726476622979
 30
0.0
 10
250.9771086360285
 20
621.784692216884
 30
0.0
 10
251.1617474271863
 20
622.1304547496289
 30
0.0
 10
251.3291848898007
 20
622.4309661625288
 30
0.0
 10
251.5600492854375
 20
622.7779148681059
 30
0.0
 10
251.8055371918461
 20
623.0697595161736
 30
0.0
 10
251.9319325510569
 20
623.2088947387499
 30
0.0
 10
252.0882993124676
 20
623.3721528023519
 30
0.0
 10
252.2779438642183
 20
623.5433780762684
 30
0.0
 10
252.4293621867793
 20
623.6630410719532
 30
0.0
 10
252.4909726703438
 20
623.7098884368727
 30
0.0
 10
252.5447397856348
 20
623.7497369980056
 30
0.0
 10
252.6951298390053
 20
623.856339183486
 30
0.0
 10
252.8485736638281
 20
623.9520779186885
 30
0.0
 10
252.9832138061024
 20
624.0262462834355
 30
0.0
 10
253.1571652952848
 20
624.1194443144153
 30
0.0
 10
253.4469092463829
 20
624.2507094598768
 30
0.0
 10
253.8576203145648
 20
624.3816834710444
 30
0.0
 10
254.2354782594113
 20
624.4641418302954
 30
0.0
 10
254.4749948210967
 20
624.4898931737665
 30
0.0
 10
254.5913165898305
 20
624.5023993729151
 30
0.0
  0
SPLINE
  5
F3
330
1F
100
AcDbEntity
  8
0
  6
Continuous
 62
     7
370
    15
100
AcDbSpline
210
0.0
220
0.0
230
1.0
 70
     8
 71
     3
 72
    10
 73
     6
 74
     0
 42
0.00000001
 43
0.00000001
 12
1.0
 22
0.0
 32
0.0
 13
1.0
 23
0.0
 33
0.0
 40
0.0
 40
0.0
 40
0.0
 40
0.0
 40
0.5
 40
0.5
 40
1.0
 40
1.0
 40
1.0
 40
1.0
 10
250.2329540677059
 20
602.2706262507666
 30
0.0
 10
250.0314154289729
 20
604.9831415777601
 30
0.0
 10
249.9275347410214
 20
607.743320457446
 30
0.0
 10
249.9301671702932
 20
613.2655107148926
 30
0.0
 10
250.0366772130847
 20
616.0250044489554
 30
0.0
 10
250.240654826945
 20
618.7363500046587
 30
0.0
  0
SPLINE
  5
F4
330
1F
100
AcDbEntity
  8
0
  6
Continuous
 62
     7
370
    15
100
AcDbSpline
210
0.0
220
0.0
230
1.0
 70
     8
 71
     3
 72
     9
 73
     5
 74
     0
 42
0.00000001
 43
0.00000001
 12
1.0
 22
0.0
 32
0.0
 13
1.0
 23
0.0
 33
0.0
 40
0.0
 40
0.0
 40
0.0
 40
0.0
 40
0.4975444471301981
 40
1.0
 40
1.0
 40
1.0
 40
1.0
 10
250.2940183473651
 20
601.670797931171
 30
0.0
 10
250.2817671509637
 20
601.7699988661313
 30
0.0
 10
250.2571438304301
 20
601.9693799174778
 30
0.0
 10
250.2410704294914
 20
602.1698755899391
 30
0.0
 10
250.2329942599362
 20
602.2706157538938
 30
0.0
  0
SPLINE
  5
F5
330
1F
100
AcDbEntity
  8
0
  6
Continuous
 62
     7
370
    15
100
AcDbSpline
210
0.0
220
0.0
230
1.0
 70
     8
 71
     3
 72
     9
 73
     5
 74
     0
 42
0.00000001
 43
0.00000001
 12
1.0
 22
0.0
 32
0.0
 13
1.0
 23
0.0
 33
0.0
 40
0.0
 40
0.0
 40
0.0
 40
0.0
 40
0.506033679140743
 40
1.0
 40
1.0
 40
1.0
 40
1.0
 10
250.8203613529772
 20
597.521301659677
 30
0.0
 10
250.7336501075381
 20
598.2214894316016
 30
0.0
 10
250.5622954151264
 20
599.6051676348262
 30
0.0
 10
250.3825705231225
 20
600.987790679669
 30
0.0
 10
250.2937924794525
 20
601.6707598982653
 30
0.0
  0
SPLINE
  5
F6
330
1F
100
AcDbEntity
  8
0
  6
Continuous
 62
     7
370
    15
100
AcDbSpline
210
0.0
220
0.0
230
1.0
 70
     8
 71
     3
 72
    49
 73
    45
 74
     0
 42
0.00000001
 43
0.00000001
 12
1.0
 22
0.0
 32
0.0
 13
1.0
 23
0.0
 33
0.0
 40
0.0
 40
0.0
 40
0.0
 40
0.0
 40
0.0234054985536535
 40
0.0471974637154038
 40
0.0713910532096579
 40
0.0959991094431807
 40
0.1210414077064849
 40
0.1388396656749459
 40
0.1629365118477027
 40
0.235874279276621
 40
0.253712606270334
 40
0.2597138273392986
 40
0.3203552930037906
 40
0.35570073996102
 40
0.4046158442749814
 40
0.433426105862358
 40
0.4511032216058399
 40
0.4751611776386306
 40
0.5020441698914926
 40
0.5087532240516258
 40
0.5177730496969275
 40
0.5559498226965993
 40
0.5639665068752195
 40
0.5666562474194142
 40
0.6223690073804876
 40
0.6310747645111601
 40
0.6398775498528004
 40
0.6834246360806795
 40
0.6965904908965127
 40
0.7099845551913895
 40
0.744472972313108
 40
0.7658622334882959
 40
0.8013598500648116
 40
0.8148502988737
 40
0.837383319303294
 40
0.8718612117897798
 40
0.880229575307521
 40
0.9043954679940525
 40
0.9266071581801921
 40
0.9421313376675485
 40
0.9636356811926483
 40
0.9832165531060296
 40
0.9917739756808653
 40
1.0
 40
1.0
 40
1.0
 40
1.0
 10
257.6433653134062
 20
591.9398361995546
 30
0.0
 10
257.5893297913578
 20
591.9405638286503
 30
0.0
 10
257.4803665242276
 20
591.9420311012981
 30
0.0
 10
257.3124301857069
 20
591.9538642641749
 30
0.0
 10
257.13950980699
 20
591.9729489378207
 30
0.0
 10
256.9612997376767
 20
592.0001795225874
 30
0.0
 10
256.7965867405493
 20
592.0319228220145
 30
0.0
 10
256.6315771682818
 20
592.0691471996576
 30
0.0
 10
256.3460753969986
 20
592.1424077784466
 30
0.0
 10
256.0551269775511
 20
592.2371152210856
 30
0.0
 10
255.807204025303
 20
592.3323832100871
 30
0.0
 10
255.5901587712471
 20
592.419044804594
 30
0.0
 10
255.3260370225578
 20
592.5354930131483
 30
0.0
 10
254.9483228421625
 20
592.7238623056563
 30
0.0
 10
254.6523731491164
 20
592.886297234646
 30
0.0
 10
254.402527220317
 20
593.0351056994833
 30
0.0
 10
254.2178968547858
 20
593.150303260606
 30
0.0
 10
254.0385278398425
 20
593.2668694828873
 30
0.0
 10
253.8882195298226
 20
593.369443537231
 30
0.0
 10
253.7774110570572
 20
593.4475186422586
 30
0.0
 10
253.6374225462633
 20
593.5476327147194
 30
0.0
 10
253.4946570415156
 20
593.6543536512013
 30
0.0
 10
253.3690965289492
 20
593.7524890574499
 30
0.0
 10
253.1987699110026
 20
593.8869871652826
 30
0.0
 10
253.0281585090973
 20
594.0293611938939
 30
0.0
 10
252.8450085558628
 20
594.1927499870516
 30
0.0
 10
252.6929995993385
 20
594.3308526910643
 30
0.0
 10
252.5322685347244
 20
594.4851396430391
 30
0.0
 10
252.3641121626817
 20
594.657608207674
 30
0.0
 10
252.2193832839719
 20
594.8108863392509
 30
0.0
 10
252.0589306446985
 20
594.9913377971694
 30
0.0
 10
251.854647759962
 20
595.2398463314764
 30
0.0
 10
251.7038937182966
 20
595.4399248519587
 30
0.0
 10
251.5580599412294
 20
595.6511700710048
 30
0.0
 10
251.420106422907
 20
595.8652998163944
 30
0.0
 10
251.3020184902894
 20
596.072914643272
 30
0.0
 10
251.1905322552641
 20
596.2925956686229
 30
0.0
 10
251.1056508770683
 20
596.4764598639815
 30
0.0
 10
251.0213120813782
 20
596.6911872132986
 30
0.0
 10
250.9508609701113
 20
596.9016531121115
 30
0.0
 10
250.8939083762208
 20
597.1071810091294
 30
0.0
 10
250.8552643386295
 20
597.2910667415157
 30
0.0
 10
250.8327024174226
 20
597.4271188936098
 30
0.0
 10
250.8244205310137
 20
597.4903234067779
 30
0.0
 10
250.8203613529772
 20
597.521301659677
 30
0.0
  0
SPLINE
  5
F7
330
1F
100
AcDbEntity
  8
0
  6
Continuous
 62
     7
370
    15
100
AcDbSpline
210
0.0
220
0.0
230
1.0
 70
     8
 71
     3
 72
    34
 73
    30
 74
     0
 42
0.00000001
 43
0.00000001
 12
1.0
 22
0.0
 32
0.0
 13
1.0
 23
0.0
 33
0.0
 40
0.0
 40
0.0
 40
0.0
 40
0.0
 40
0.0334038449654203
 40
0.0668367819285103
 40
0.1003244041573919
 40
0.133888764727151
 40
0.1675487734621335
 40
0.2013205804721502
 40
0.235217952486357
 40
0.2692526502256894
 40
0.3034348125103221
 40
0.3377733752039303
 40
0.3722770732625708
 40
0.4069558768508362
 40
0.4418214128441811
 40
0.4768870537537715
 40
0.5121680134410058
 40
0.5476745661601286
 40
0.5834103147870041
 40
0.6193820501930853
 40
0.6555973967296621
 40
0.6920613552435131
 40
0.7287732999748401
 40
0.7657243188468096
 40
0.8028946610422334
 40
0.8519652701147277
 40
0.9011389669671032
 40
0.9504676094943119
 40
1.0
 40
1.0
 40
1.0
 40
1.0
 10
262.1990693359708
 20
591.9398510825059
 30
0.0
 10
262.1980552089857
 20
591.9398508773019
 30
0.0
 10
262.1960260717945
 20
591.9398504667149
 30
0.0
 10
262.179589039274
 20
591.9398516680867
 30
0.0
 10
262.153308358073
 20
591.9398567525855
 30
0.0
 10
262.1161654841107
 20
591.9398640903528
 30
0.0
 10
262.0683463687419
 20
591.9398715528554
 30
0.0
 10
262.009692887322
 20
591.9398770793273
 30
0.0
 10
261.940119519375
 20
591.9398792533366
 30
0.0
 10
261.8594994536841
 20
591.9398769203065
 30
0.0
 10
261.7676978874102
 20
591.9398695858512
 30
0.0
 10
261.6645457516672
 20
591.9398541275978
 30
0.0
 10
261.5499166183636
 20
591.9398401385494
 30
0.0
 10
261.4237041967363
 20
591.9398362381334
 30
0.0
 10
261.2857699814434
 20
591.9398402729348
 30
0.0
 10
261.1359506817093
 20
591.9398460139403
 30
0.0
 10
260.9740665958821
 20
591.9398486530243
 30
0.0
 10
260.7999450439647
 20
591.9398512242174
 30
0.0
 10
260.6134306580533
 20
591.9398560705944
 30
0.0
 10
260.4143792792089
 20
591.9398624059814
 30
0.0
 10
260.2026411789827
 20
591.9398662062391
 30
0.0
 10
259.9780732154657
 20
591.9398640332399
 30
0.0
 10
259.7405615076912
 20
591.9398568568312
 30
0.0
 10
259.4900721868694
 20
591.9398498704837
 30
0.0
 10
259.1989930042012
 20
591.9398423927784
 30
0.0
 10
258.863194300294
 20
591.9398533426192
 30
0.0
 10
258.4775701661971
 20
591.9398886577345
 30
0.0
 10
258.0729989810892
 20
591.9398549164019
 30
0.0
 10
257.7867731686508
 20
591.9398424470697
 30
0.0
 10
257.6433653134063
 20
591.9398361995543
 30
0.0
  0
SPLINE
  5
F8
330
1F
100
AcDbEntity
  8
0
  6
Continuous
 62
     7
370
    15
100
AcDbSpline
210
0.0
220
0.0
230
1.0
 70
     8
 71
     3
 72
    15
 73
    11
 74
     0
 42
0.00000001
 43
0.00000001
 12
1.0
 22
0.0
 32
0.0
 13
1.0
 23
0.0
 33
0.0
 40
0.0
 40
0.0
 40
0.0
 40
0.0
 40
0.0832256449809451
 40
0.1665793141500581
 40
0.2504996265915134
 40
0.3762598594089735
 40
0.5007201908786889
 40
0.6707029997298087
 40
0.8359358697936787
 40
1.0
 40
1.0
 40
1.0
 40
1.0
 10
259.3199729672616
 20
602.1213658912794
 30
0.0
 10
259.2965883225481
 20
602.1365639912098
 30
0.0
 10
259.249783061034
 20
602.1669835699751
 30
0.0
 10
259.1848814667407
 20
602.219746983065
 30
0.0
 10
259.1141447353549
 20
602.2871055906329
 30
0.0
 10
259.0417029945881
 20
602.372248792604
 30
0.0
 10
258.9643402114061
 20
602.490666721059
 30
0.0
 10
258.8989659274797
 20
602.6331456445788
 30
0.0
 10
258.853186823946
 20
602.8003306975359
 30
0.0
 10
258.8475983725865
 20
602.9152780239995
 30
0.0
 10
258.8448140641636
 20
602.97254770189
 30
0.0
  0
SPLINE
  5
F9
330
1F
100
AcDbEntity
  8
0
  6
Continuous
 62
     7
370
    15
100
AcDbSpline
210
0.0
220
0.0
230
1.0
 70
     8
 71
     3
 72
    19
 73
    15
 74
     0
 42
0.00000001
 43
0.00000001
 12
1.0
 22
0.0
 32
0.0
 13
1.0
 23
0.0
 33
0.0
 40
0.0
 40
0.0
 40
0.0
 40
0.0
 40
0.0547846237989195
 40
0.1147189682238608
 40
0.1798480732963093
 40
0.2502112000831009
 40
0.3049367454699103
 40
0.3751016900498657
 40
0.5004681976475335
 40
0.6377635138420259
 40
0.7501504319849701
 40
0.8402332089569726
 40
0.9235375359469886
 40
1.0
 40
1.0
 40
1.0
 40
1.0
 10
262.9629561129201
 20
601.1022543627632
 30
0.0
 10
262.8950372913979
 20
601.1023667929645
 30
0.0
 10
262.7528153212955
 20
601.1026022217363
 30
0.0
 10
262.5298873825361
 20
601.1116810276787
 30
0.0
 10
262.2878806176995
 20
601.1292616424613
 30
0.0
 10
262.0526165311488
 20
601.1552721123487
 30
0.0
 10
261.8114350501293
 20
601.1902125544981
 30
0.0
 10
261.5030169171424
 20
601.2457845418206
 30
0.0
 10
261.0943015356818
 20
601.3421570410537
 30
0.0
 10
260.6375987375779
 20
601.4860412563021
 30
0.0
 10
260.2278629504514
 20
601.6468829926768
 30
0.0
 10
259.8875853426819
 20
601.8045992789368
 30
0.0
 10
259.5932621051668
 20
601.9579042923946
 30
0.0
 10
259.4084309394745
 20
602.0684567940395
 30
0.0
 10
259.3199729672616
 20
602.1213658912794
 30
0.0
  0
SPLINE
  5
FA
330
1F
100
AcDbEntity
  8
0
  6
Continuous
 62
     7
370
    15
100
AcDbSpline
210
0.0
220
0.0
230
1.0
 70
     8
 71
     3
 72
    17
 73
    13
 74
     0
 42
0.00000001
 43
0.00000001
 12
1.0
 22
0.0
 32
0.0
 13
1.0
 23
0.0
 33
0.0
 40
0.0
 40
0.0
 40
0.0
 40
0.0
 40
0.0405338583865511
 40
0.0866654058109005
 40
0.1388320837595199
 40
0.1962111933582306
 40
0.4002028442816388
 40
0.5989339021334138
 40
0.699291473041236
 40
0.796457802945591
 40
0.9007920963120886
 40
1.0
 40
1.0
 40
1.0
 40
1.0
 10
258.8448161822272
 20
602.9725440826079
 30
0.0
 10
258.7236337058555
 20
602.9637788476059
 30
0.0
 10
258.4645335631607
 20
602.9450379066072
 30
0.0
 10
258.0497682653066
 20
602.9146001451934
 30
0.0
 10
257.5851782972096
 20
602.8801202824443
 30
0.0
 10
256.6514705778418
 20
602.8098659351607
 30
0.0
 10
255.2892588939557
 20
602.7040903348193
 30
0.0
 10
253.8291442813416
 20
602.5850916104001
 30
0.0
 10
252.704150717548
 20
602.4901183632804
 30
0.0
 10
251.8621461377334
 20
602.4171656044902
 30
0.0
 10
251.0380548115879
 20
602.3442212198684
 30
0.0
 10
250.4968055672021
 20
602.2947328916875
 30
0.0
 10
250.2329968647057
 20
602.2706119311845
 30
0.0
  0
SPLINE
  5
FB
330
1F
100
AcDbEntity
  8
0
  6
Continuous
 62
     7
370
    15
100
AcDbSpline
210
0.0
220
0.0
230
1.0
 70
     8
 71
     3
 72
     9
 73
     5
 74
     0
 42
0.00000001
 43
0.00000001
 12
1.0
 22
0.0
 32
0.0
 13
1.0
 23
0.0
 33
0.0
 40
0.0
 40
0.0
 40
0.0
 40
0.0
 40
0.3688281910967562
 40
1.0
 40
1.0
 40
1.0
 40
1.0
 10
265.1883294769456
 20
620.2622475740305
 30
0.0
 10
265.42794536319
 20
620.282609565587
 30
0.0
 10
266.0776133984121
 20
620.3378168193925
 30
0.0
 10
266.1520334560635
 20
620.3448703977641
 30
0.0
 10
266.1990052984701
 20
620.349322417584
 30
0.0
  0
LINE
  5
FC
330
1F
100
AcDbEntity
  8
0
  6
Continuous
 62
     7
370
    15
100
AcDbLine
 10
265.832541562
 20
620.3171010993
 30
0.0
 11
265.1296064574
 21
620.2572495756
 31
0.0
  0
SPLINE
  5
FD
330
1F
100
AcDbEntity
  8
0
  6
Continuous
 62
     7
370
    15
100
AcDbSpline
210
0.0
220
0.0
230
1.0
 70
     8
 71
     3
 72
    21
 73
    17
 74
     0
 42
0.00000001
 43
0.00000001
 12
1.0
 22
0.0
 32
0.0
 13
1.0
 23
0.0
 33
0.0
 40
0.0
 40
0.0
 40
0.0
 40
0.0
 40
0.0309094609436617
 40
0.0622014824266999
 40
0.0939146536193152
 40
0.1260833361003412
 40
0.1870701093428505
 40
0.2515145603067175
 40
0.3762982063862931
 40
0.5014840955144869
 40
0.6259390854259487
 40
0.751085270142469
 40
0.8244685072735614
 40
0.8752150749370715
 40
0.9413575667242438
 40
1.0
 40
1.0
 40
1.0
 40
1.0
 10
258.8448141262105
 20
618.0266856833289
 30
0.0
 10
258.8467203781302
 20
618.0617614079297
 30
0.0
 10
258.8505564752883
 20
618.1323469827263
 30
0.0
 10
258.8635974235746
 20
618.2377414755323
 30
0.0
 10
258.8819753544621
 20
618.3429209896938
 30
0.0
 10
258.9133395868892
 20
618.477969243984
 30
0.0
 10
258.9653337840567
 20
618.6420230952173
 30
0.0
 10
259.0700385740142
 20
618.8852181197047
 30
0.0
 10
259.2366731932497
 20
619.1551965603115
 30
0.0
 10
259.4694186072305
 20
619.4171722630481
 30
0.0
 10
259.7235230630238
 20
619.6229492346954
 30
0.0
 10
259.9531110767408
 20
619.7534711179304
 30
0.0
 10
260.1328932116091
 20
619.8262261598127
 30
0.0
 10
260.2710505970379
 20
619.8680580304308
 30
0.0
 10
260.398464982112
 20
619.8959292561514
 30
0.0
 10
260.4886194466335
 20
619.9044324922496
 30
0.0
 10
260.5309873622094
 20
619.9084285715458
 30
0.0
  0
SPLINE
  5
FE
330
1F
100
AcDbEntity
  8
0
  6
Continuous
 62
     7
370
    15
100
AcDbSpline
210
0.0
220
0.0
230
1.0
 70
     8
 71
     3
 72
    10
 73
     6
 74
     0
 42
0.00000001
 43
0.00000001
 12
1.0
 22
0.0
 32
0.0
 13
1.0
 23
0.0
 33
0.0
 40
0.0
 40
0.0
 40
0.0
 40
0.0
 40
0.5
 40
0.5
 40
1.0
 40
1.0
 40
1.0
 40
1.0
 10
250.240654826945
 20
618.7363500046587
 30
0.0
 10
251.5469084340566
 20
618.6145787499862
 30
0.0
 10
252.9559521379965
 20
618.491037447825
 30
0.0
 10
255.8656947780178
 20
618.2510350334578
 30
0.0
 10
257.3651990933291
 20
618.1346724563817
 30
0.0
 10
258.8448140639941
 20
618.0266587205949
 30
0.0
  0
SPLINE
  5
FF
330
1F
100
AcDbEntity
  8
0
  6
Continuous
 62
     7
370
    15
100
AcDbSpline
210
0.0
220
0.0
230
1.0
 70
     8
 71
     3
 72
    36
 73
    32
 74
     0
 42
0.00000001
 43
0.00000001
 12
1.0
 22
0.0
 32
0.0
 13
1.0
 23
0.0
 33
0.0
 40
0.0
 40
0.0
 40
0.0
 40
0.0
 40
0.0078124999999997
 40
0.0078124999999997
 40
0.0117187499999995
 40
0.0117187499999995
 40
0.0156249999999993
 40
0.0156249999999993
 40
0.023437499999999
 40
0.023437499999999
 40
0.0312499999999986
 40
0.0312499999999986
 40
0.0390624999999983
 40
0.0390624999999983
 40
0.0468749999999979
 40
0.0468749999999979
 40
0.0546874999999976
 40
0.0546874999999976
 40
0.0624999999999973
 40
0.0624999999999973
 40
0.0781249999999971
 40
0.0781249999999971
 40
0.0937499999999969
 40
0.0937499999999969
 40
0.124999999999997
 40
0.124999999999997
 40
0.2499999999999974
 40
0.2499999999999974
 40
0.4999999999999982
 40
0.4999999999999982
 40
1.0
 40
1.0
 40
1.0
 40
1.0
 10
427.1971223341511
 20
617.3985837870026
 30
0.0
 10
427.0268163601309
 20
617.3934797561213
 30
0.0
 10
426.815217217555
 20
617.3901083139607
 30
0.0
 10
426.4566841271055
 20
617.386739586364
 30
0.0
 10
426.3302340469046
 20
617.3858960036127
 30
0.0
 10
426.0592661426041
 20
617.3846168186606
 30
0.0
 10
425.9142386889146
 20
617.3841795835642
 30
0.0
 10
425.4546585930443
 20
617.3833024227544
 30
0.0
 10
425.1211210184693
 20
617.3832692108566
 30
0.0
 10
424.4078256067954
 20
617.3840641235912
 30
0.0
 10
424.0235148148551
 20
617.3849007480419
 30
0.0
 10
423.2182341079076
 20
617.3874602481446
 30
0.0
 10
422.8019432727983
 20
617.3891260848026
 30
0.0
 10
421.9456149327631
 20
617.3933625650127
 30
0.0
 10
421.5032452291406
 20
617.3964297781376
 30
0.0
 10
420.6125965283869
 20
617.403396347998
 30
0.0
 10
420.1670928879622
 20
617.4067846907019
 30
0.0
 10
419.2782948784677
 20
617.4122799491399
 30
0.0
 10
418.8354112209623
 20
617.4147697161432
 30
0.0
 10
417.5069598669568
 20
617.4228017056215
 30
0.0
 10
416.6208349649902
 20
617.4286015674923
 30
0.0
 10
414.847799631201
 20
617.4398343157869
 30
0.0
 10
413.9613074498421
 20
617.445230059833
 30
0.0
 10
411.3024500495573
 20
617.4614377266349
 30
0.0
 10
409.5298699996659
 20
617.4723213877483
 30
0.0
 10
400.6662140822502
 20
617.5256270300899
 30
0.0
 10
393.5752381154904
 20
617.5651157765346
 30
0.0
 10
372.3021230477132
 20
617.6733943904674
 30
0.0
 10
358.1200855897799
 20
617.7328351948477
 30
0.0
 10
315.5737593940588
 20
617.8874619783871
 30
0.0
 10
287.2092742792228
 20
617.9580496275644
 30
0.0
 10
258.8448141257171
 20
618.0266856833301
 30
0.0
  0
SPLINE
  5
100
330
1F
100
AcDbEntity
  8
0
  6
Continuous
 62
     7
370
    15
100
AcDbSpline
210
0.0
220
0.0
230
1.0
 70
     8
 71
     3
 72
    18
 73
    14
 74
     0
 42
0.00000001
 43
0.00000001
 12
1.0
 22
0.0
 32
0.0
 13
1.0
 23
0.0
 33
0.0
 40
0.0
 40
0.0
 40
0.0
 40
0.0
 40
0.5000000000000003
 40
0.5000000000000003
 40
0.6250000000000007
 40
0.6250000000000007
 40
0.6875000000000007
 40
0.6875000000000007
 40
0.7500000000000008
 40
0.7500000000000008
 40
0.8750000000000003
 40
0.8750000000000003
 40
1.0
 40
1.0
 40
1.0
 40
1.0
 10
427.6819932151593
 20
617.4572719252609
 30
0.0
 10
427.6819834528835
 20
617.4574595252402
 30
0.0
 10
427.6986626428858
 20
617.4561355368761
 30
0.0
 10
427.6848077769121
 20
617.4493888249997
 30
0.0
 10
427.6790384265877
 20
617.4480117605069
 30
0.0
 10
427.6788126494952
 20
617.4433718142067
 30
0.0
 10
427.6807797962476
 20
617.4412591618253
 30
0.0
 10
427.6873941264615
 20
617.4359864842098
 30
0.0
 10
427.6910284724832
 20
617.4329744005636
 30
0.0
 10
427.6861474959468
 20
617.4240603087048
 30
0.0
 10
427.6586757515558
 20
617.4184259543621
 30
0.0
 10
427.5074010577159
 20
617.4082624195324
 30
0.0
 10
427.3808617617192
 20
617.4039704683896
 30
0.0
 10
427.1971203407805
 20
617.3986492164804
 30
0.0
  0
SPLINE
  5
101
330
1F
100
AcDbEntity
  8
0
  6
Continuous
 62
     7
370
    15
100
AcDbSpline
210
0.0
220
0.0
230
1.0
 70
     8
 71
     3
 72
     8
 73
     4
 74
     0
 42
0.00000001
 43
0.00000001
 12
1.0
 22
0.0
 32
0.0
 13
1.0
 23
0.0
 33
0.0
 40
0.0713923413055575
 40
0.0713923413055575
 40
0.0713923413055575
 40
0.0713923413055575
 40
0.9186528527039185
 40
0.9186528527039185
 40
0.9186528527039185
 40
0.9186528527039185
 10
427.5908041553564
 20
603.5840669997973
 30
0.0
 10
427.7819555633621
 20
608.2106509014244
 30
0.0
 10
427.8123040860734
 20
612.8282031699204
 30
0.0
 10
427.6819931859937
 20
617.4572729613188
 30
0.0
  0
SPLINE
  5
102
330
1F
100
AcDbEntity
  8
0
  6
Continuous
 62
     7
370
    15
100
AcDbSpline
210
0.0
220
0.0
230
1.0
 70
     8
 71
     3
 72
    14
 73
    10
 74
     0
 42
0.00000001
 43
0.00000001
 12
1.0
 22
0.0
 32
0.0
 13
1.0
 23
0.0
 33
0.0
 40
0.0
 40
0.0
 40
0.0
 40
0.0
 40
0.5
 40
0.5
 40
0.75
 40
0.75
 40
0.875
 40
0.875
 40
1.0
 40
1.0
 40
1.0
 40
1.0
 10
427.5908041862721
 20
603.5840677480729
 30
0.0
 10
427.5908003994651
 20
603.5840715122174
 30
0.0
 10
427.6007636092164
 20
603.5841380113776
 30
0.0
 10
427.5994712828509
 20
603.584170021676
 30
0.0
 10
427.5936902325639
 20
603.5840994300572
 30
0.0
 10
427.5867807211341
 20
603.5839125590159
 30
0.0
 10
427.5868095788173
 20
603.5838420327277
 30
0.0
 10
427.5965008235035
 20
603.58388910282
 30
0.0
 10
427.6029752242291
 20
603.5840314623368
 30
0.0
 10
427.5907157726566
 20
603.5841031824698
 30
0.0
  0
SPLINE
  5
103
330
1F
100
AcDbEntity
  8
0
  6
Continuous
 62
     7
370
    15
100
AcDbSpline
210
0.0
220
0.0
230
1.0
 70
     8
 71
     3
 72
    36
 73
    32
 74
     0
 42
0.00000001
 43
0.00000001
 12
1.0
 22
0.0
 32
0.0
 13
1.0
 23
0.0
 33
0.0
 40
0.0
 40
0.0
 40
0.0
 40
0.0
 40
0.4999999999999993
 40
0.4999999999999993
 40
0.749999999999999
 40
0.749999999999999
 40
0.8749999999999989
 40
0.8749999999999989
 40
0.8906249999999988
 40
0.8906249999999988
 40
0.9062499999999988
 40
0.9062499999999988
 40
0.9218749999999988
 40
0.9218749999999988
 40
0.9296874999999988
 40
0.9296874999999988
 40
0.9374999999999988
 40
0.9374999999999988
 40
0.9453124999999988
 40
0.9453124999999988
 40
0.9531249999999988
 40
0.9531249999999988
 40
0.9687499999999991
 40
0.9687499999999991
 40
0.9765624999999993
 40
0.9765624999999993
 40
0.9843749999999996
 40
0.9843749999999996
 40
0.9921874999999998
 40
0.9921874999999998
 40
1.0
 40
1.0
 40
1.0
 40
1.0
 10
258.8448140395394
 20
602.9725477018375
 30
0.0
 10
287.6264276262164
 20
603.0339988484703
 30
0.0
 10
316.4081996618322
 20
603.0978738868695
 30
0.0
 10
359.5814411218104
 20
603.2458610436455
 30
0.0
 10
373.9726003006379
 20
603.3036584489296
 30
0.0
 10
395.5598562242728
 20
603.4109219260422
 30
0.0
 10
402.7574404905301
 20
603.4505872952209
 30
0.0
 10
410.8458785119603
 20
603.4975744033309
 30
0.0
 10
411.7448383277319
 20
603.5028711555243
 30
0.0
 10
413.5444653803159
 20
603.5136326796329
 30
0.0
 10
414.4449300157238
 20
603.5190394764893
 30
0.0
 10
416.2419941642838
 20
603.5296895574785
 30
0.0
 10
417.1380869145816
 20
603.5349340786742
 30
0.0
 10
418.4880420454747
 20
603.5439413984102
 30
0.0
 10
418.9397692234206
 20
603.547291465
 30
0.0
 10
419.8441125017254
 20
603.5538838601068
 30
0.0
 10
420.2954716223894
 20
603.5568190540099
 30
0.0
 10
421.1918698948322
 20
603.5608304251191
 30
0.0
 10
421.6376804661381
 20
603.5618989129781
 30
0.0
 10
422.5200587458386
 20
603.5643982909198
 30
0.0
 10
422.9532507168205
 20
603.5659968139721
 30
0.0
 10
424.1992447276068
 20
603.5713597380009
 30
0.0
 10
424.9559438410843
 20
603.5749454742719
 30
0.0
 10
425.8983688422687
 20
603.5784871850027
 30
0.0
 10
426.1814001500765
 20
603.5794719954
 30
0.0
 10
426.6826124203819
 20
603.5810288565053
 30
0.0
 10
426.8999630170779
 20
603.5815951658193
 30
0.0
 10
427.2458251422235
 20
603.5826099754463
 30
0.0
 10
427.3733392158341
 20
603.5831823714018
 30
0.0
 10
427.5370606538427
 20
603.5840410571308
 30
0.0
 10
427.5766951041001
 20
603.584185206752
 30
0.0
 10
427.5907157726566
 20
603.5841031824698
 30
0.0
  0
ARC
  5
104
330
1F
100
AcDbEntity
  8
0
  6
Continuous
 62
     7
370
    15
100
AcDbCircle
 10
426.1922860244
 20
603.6414684945
 30
0.0
 40
1.399605851597601
100
AcDbArc
 50
270.4135487681
 51
357.6509735118
  0
SPLINE
  5
105
330
1F
100
AcDbEntity
  8
0
  6
Continuous
 62
     7
370
    15
100
AcDbSpline
210
0.0
220
0.0
230
1.0
 70
    24
 71
     3
 72
    50
 73
    46
 74
     0
 42
0.00000001
 43
0.00000001
 12
1.0
 22
0.0
 32
0.0
 13
1.0
 23
0.0
 33
0.0
 40
0.0
 40
0.0
 40
0.0
 40
0.0
 40
0.0078124999999994
 40
0.0078124999999994
 40
0.0117187499999992
 40
0.0117187499999992
 40
0.0156249999999991
 40
0.0156249999999991
 40
0.0234374999999986
 40
0.0234374999999986
 40
0.031249999999998
 40
0.031249999999998
 40
0.0390624999999976
 40
0.0390624999999976
 40
0.046874999999997
 40
0.046874999999997
 40
0.0546874999999964
 40
0.0546874999999964
 40
0.0585937499999962
 40
0.0585937499999962
 40
0.0624999999999961
 40
0.0624999999999961
 40
0.0703124999999956
 40
0.0703124999999956
 40
0.0742187499999953
 40
0.0742187499999953
 40
0.0781249999999951
 40
0.0781249999999951
 40
0.0937499999999951
 40
0.0937499999999951
 40
0.101562499999995
 40
0.101562499999995
 40
0.109374999999995
 40
0.109374999999995
 40
0.1249999999999953
 40
0.1249999999999953
 40
0.1562499999999958
 40
0.1562499999999958
 40
0.1874999999999961
 40
0.1874999999999961
 40
0.2499999999999963
 40
0.2499999999999963
 40
0.4999999999999977
 40
0.4999999999999977
 40
1.0
 40
1.0
 40
1.0
 40
1.0
 10
426.2023879944783
 20
602.2418990999582
 30
0.0
 10
426.1903618061773
 20
602.2418151399612
 30
0.0
 10
426.1569796440112
 20
602.2415820847184
 30
0.0
 10
426.0628890537805
 20
602.2409251978086
 30
0.0
 10
426.0243755175442
 20
602.2406563182348
 30
0.0
 10
425.9298882782386
 20
602.239996662147
 30
0.0
 10
425.8734975529964
 20
602.2396029742217
 30
0.0
 10
425.6778376781411
 20
602.2382369884174
 30
0.0
 10
425.5101711153118
 20
602.2370664359735
 30
0.0
 10
425.121639558892
 20
602.2343539299422
 30
0.0
 10
424.903234062292
 20
602.2328291471622
 30
0.0
 10
424.4202209989883
 20
602.2294570250637
 30
0.0
 10
424.1557759588904
 20
602.2276108204136
 30
0.0
 10
423.5862788695832
 20
602.2236349161042
 30
0.0
 10
423.2798254713377
 20
602.2214954330241
 30
0.0
 10
422.6377153819458
 20
602.2170125861063
 30
0.0
 10
422.3026488235614
 20
602.2146733422393
 30
0.0
 10
421.792556544347
 20
602.2111121684788
 30
0.0
 10
421.6223673073266
 20
602.2099240041606
 30
0.0
 10
421.2699905458727
 20
602.2074639103153
 30
0.0
 10
421.087375790735
 20
602.2061889981067
 30
0.0
 10
420.520124306294
 20
602.2022287713313
 30
0.0
 10
420.1171489003268
 20
602.1994154265694
 30
0.0
 10
419.4811461248873
 20
602.1949752174392
 30
0.0
 10
419.2640126710939
 20
602.1934593153373
 30
0.0
 10
418.8199120011939
 20
602.1903588574062
 30
0.0
 10
418.5934135015778
 20
602.1887775738885
 30
0.0
 10
417.4744939798467
 20
602.1809659150903
 30
0.0
 10
416.5958229345642
 20
602.1748315343164
 30
0.0
 10
415.2855883722455
 20
602.1656842228718
 30
0.0
 10
414.8496881804703
 20
602.1626410160084
 30
0.0
 10
413.9747468599265
 20
602.1565326740482
 30
0.0
 10
413.5352854836514
 20
602.1534646050228
 30
0.0
 10
412.2158786695129
 20
602.1442532581405
 30
0.0
 10
411.3350132279793
 20
602.1381035573418
 30
0.0
 10
408.7013877530866
 20
602.1197170843088
 30
0.0
 10
406.9485878179191
 20
602.1074800335028
 30
0.0
 10
403.4388250403889
 20
602.082976868844
 30
0.0
 10
401.6833851086415
 20
602.0707213870855
 30
0.0
 10
396.4161897646142
 20
602.0339488292275
 30
0.0
 10
392.9038814352858
 20
602.0094278929757
 30
0.0
 10
375.3439413930273
 20
601.8868343932071
 30
0.0
 10
361.2961128082889
 20
601.7887604552429
 30
0.0
 10
319.1529306275424
 20
601.4945407607285
 30
0.0
 10
291.0578691442651
 20
601.2983970435423
 30
0.0
 10
262.9629493495196
 20
601.102254315545
 30
0.0
  0
SPLINE
  5
106
330
1F
100
AcDbEntity
  8
0
  6
Continuous
 62
     7
370
    15
100
AcDbSpline
210
0.0
220
0.0
230
1.0
 70
     8
 71
     3
 72
    40
 73
    36
 74
     0
 42
0.00000001
 43
0.00000001
 12
1.0
 22
0.0
 32
0.0
 13
1.0
 23
0.0
 33
0.0
 40
0.0
 40
0.0
 40
0.0
 40
0.0
 40
0.4999999999999979
 40
0.4999999999999979
 40
0.7499999999999969
 40
0.7499999999999969
 40
0.8749999999999964
 40
0.8749999999999964
 40
0.9062499999999963
 40
0.9062499999999963
 40
0.921874999999996
 40
0.921874999999996
 40
0.9296874999999961
 40
0.9296874999999961
 40
0.9374999999999962
 40
0.9374999999999962
 40
0.9453124999999962
 40
0.9453124999999962
 40
0.9531249999999963
 40
0.9531249999999963
 40
0.9570312499999964
 40
0.9570312499999964
 40
0.9609374999999964
 40
0.9609374999999964
 40
0.9687499999999971
 40
0.9687499999999971
 40
0.9765624999999979
 40
0.9765624999999979
 40
0.9843749999999986
 40
0.9843749999999986
 40
0.9882812499999989
 40
0.9882812499999989
 40
0.9921874999999992
 40
0.9921874999999992
 40
1.0
 40
1.0
 40
1.0
 40
1.0
 10
260.5310022624413
 20
619.9084284624997
 30
0.0
 10
288.6141542716885
 20
619.7029043332633
 30
0.0
 10
316.6973082368964
 20
619.49780682198
 30
0.0
 10
358.8216724884265
 20
619.1933911034795
 30
0.0
 10
372.8628659562399
 20
619.0924319349458
 30
0.0
 10
393.9251804839621
 20
618.9421760992273
 30
0.0
 10
400.9464354053736
 20
618.8923107272449
 30
0.0
 10
409.7192320218869
 20
618.8301390955867
 30
0.0
 10
411.4766062485912
 20
618.8176968858136
 30
0.0
 10
414.1110726352598
 20
618.7990727405709
 30
0.0
 10
414.9862430652159
 20
618.7928906800876
 30
0.0
 10
416.2995947402318
 20
618.7836066127539
 30
0.0
 10
416.7378615613539
 20
618.7805070503296
 30
0.0
 10
417.6177103588412
 20
618.7742780365821
 30
0.0
 10
418.0605279337469
 20
618.7711598712833
 30
0.0
 10
418.9456410573648
 20
618.7649249379049
 30
0.0
 10
419.3866732732159
 20
618.7617905674525
 30
0.0
 10
420.2433202513416
 20
618.7557874704128
 30
0.0
 10
420.6654875814037
 20
618.7527985720919
 30
0.0
 10
421.243535966653
 20
618.7488672173464
 30
0.0
 10
421.4279644328563
 20
618.7476549311111
 30
0.0
 10
421.7775861103199
 20
618.7455320638536
 30
0.0
 10
421.9450463021642
 20
618.7446205255995
 30
0.0
 10
422.4475156890264
 20
618.7421068096241
 30
0.0
 10
422.7796465207163
 20
618.7406665913007
 30
0.0
 10
423.4237612759517
 20
618.7384503446228
 30
0.0
 10
423.7326408671903
 20
618.7376795543018
 30
0.0
 10
424.3071226144743
 20
618.7371191896714
 30
0.0
 10
424.5769951597422
 20
618.7373395366183
 30
0.0
 10
424.9499222891747
 20
618.738609638318
 30
0.0
 10
425.0676428884438
 20
618.7391904146231
 30
0.0
 10
425.2880711398961
 20
618.7407487638275
 30
0.0
 10
425.3912314413703
 20
618.7417264851088
 30
0.0
 10
425.6843030350028
 20
618.7454516116323
 30
0.0
 10
425.8573543537477
 20
618.7490054612814
 30
0.0
 10
425.9938627673462
 20
618.7541157779359
 30
0.0
  0
SPLINE
  5
107
330
1F
100
AcDbEntity
  8
0
  6
Continuous
 62
     7
370
    15
100
AcDbSpline
210
0.0
220
0.0
230
1.0
 70
     8
 71
     3
 72
    14
 73
    10
 74
     0
 42
0.00000001
 43
0.00000001
 12
1.0
 22
0.0
 32
0.0
 13
1.0
 23
0.0
 33
0.0
 40
0.0
 40
0.0
 40
0.0
 40
0.0
 40
0.2500000000000001
 40
0.2500000000000001
 40
0.5000000000000002
 40
0.5000000000000002
 40
0.7500000000000003
 40
0.7500000000000003
 40
1.0
 40
1.0
 40
1.0
 40
1.0
 10
425.9938820655432
 20
618.7540851030195
 30
0.0
 10
426.138162081766
 20
618.7415921302955
 30
0.0
 10
426.2904308651489
 20
618.7016117334907
 30
0.0
 10
426.5816876840329
 20
618.5569915192236
 30
0.0
 10
426.7199615195509
 20
618.4521153714354
 30
0.0
 10
426.9498087917597
 20
618.1931194191549
 30
0.0
 10
427.0408088225772
 20
618.0396459496193
 30
0.0
 10
427.1616868510781
 20
617.7198739068627
 30
0.0
 10
427.1918171095547
 20
617.5543322552531
 30
0.0
 10
427.19680464445
 20
617.398640087171
 30
0.0
  0
LINE
  5
108
330
1F
100
AcDbEntity
  8
0
  6
Continuous
 62
     7
370
    15
100
AcDbLine
 10
425.9055707734
 20
599.2447914516
 30
0.0
 11
418.7715127691
 21
598.2421649848
 31
0.0
  0
LINE
  5
109
330
1F
100
AcDbEntity
  8
0
  6
Continuous
 62
     7
370
    15
100
AcDbLine
 10
418.7715127691
 20
598.2421649848
 30
0.0
 11
418.2951719926
 21
601.6315057237
 31
0.0
  0
LINE
  5
10A
330
1F
100
AcDbEntity
  8
0
  6
Continuous
 62
     7
370
    15
100
AcDbLine
 10
408.7968543514
 20
600.2966042342
 30
0.0
 11
418.2951719926
 21
601.6315057237
 31
0.0
  0
LINE
  5
10B
330
1F
100
AcDbEntity
  8
0
  6
Continuous
 62
     7
370
    15
100
AcDbLine
 10
408.7968543514
 20
600.2966042342
 30
0.0
 11
409.2731951279
 21
596.9072634953
 31
0.0
  0
LINE
  5
10C
330
1F
100
AcDbEntity
  8
0
  6
Continuous
 62
     7
370
    15
100
AcDbLine
 10
409.2731951279
 20
596.9072634953
 30
0.0
 11
402.1391371236
 21
595.9046370285
 31
0.0
  0
LINE
  5
10D
330
1F
100
AcDbEntity
  8
0
  6
Continuous
 62
     7
370
    15
100
AcDbLine
 10
426.4673157124
 20
618.8056305988
 30
0.0
 11
426.4658622961
 21
618.804141706
 31
0.0
  0
LINE
  5
10E
330
1F
100
AcDbEntity
  8
0
  6
Continuous
 62
     7
370
    15
100
AcDbLine
 10
427.6819932252
 20
617.4572717284
 30
0.0
 11
427.6321423497
 21
617.7047481778
 31
0.0
  0
LINE
  5
10F
330
1F
100
AcDbEntity
  8
0
  6
Continuous
 62
     7
370
    15
100
AcDbLine
 10
259.8761806743
 20
658.5398387097
 30
0.0
 11
261.6307176503
 21
658.5398387097
 31
0.0
  0
ARC
  5
110
330
1F
100
AcDbEntity
  8
0
  6
Continuous
 62
     7
370
    15
100
AcDbCircle
 10
263.0922699572
 20
655.6046387097
 30
0.0
 40
1.936446050037642
100
AcDbArc
 50
92.0555401372
 51
181.9176675672
  0
ARC
  5
111
330
1F
100
AcDbEntity
  8
0
  6
Continuous
 62
     7
370
    15
100
AcDbCircle
 10
263.0922699572
 20
665.4750387097
 30
0.0
 40
1.936446050037289
100
AcDbArc
 50
178.0823324328
 51
267.9444598628
  0
LINE
  5
112
330
1F
100
AcDbEntity
  8
0
  6
Continuous
 62
     7
370
    15
100
AcDbLine
 10
259.8761806743
 20
662.5398387097
 30
0.0
 11
261.6307176503
 21
662.5398387097
 31
0.0
  0
LINE
  5
113
330
1F
100
AcDbEntity
  8
0
  6
Continuous
 62
     7
370
    15
100
AcDbLine
 10
414.1027055758
 20
597.002982704
 30
0.0
 11
403.2097568197
 21
595.4720785934
 31
0.0
  0
SPLINE
  5
114
330
1F
100
AcDbEntity
  8
0
  6
Continuous
 62
     7
370
    15
100
AcDbSpline
210
0.0
220
0.0
230
1.0
 70
     8
 71
     3
 72
     8
 73
     4
 74
     0
 42
0.00000001
 43
0.00000001
 12
1.0
 22
0.0
 32
0.0
 13
1.0
 23
0.0
 33
0.0
 40
0.0
 40
0.0
 40
0.0
 40
0.0
 40
1.0
 40
1.0
 40
1.0
 40
1.0
 10
409.2731951279176
 20
596.9072634952565
 30
0.0
 10
410.8893608394956
 20
596.7660662134755
 30
0.0
 10
412.4999378108841
 20
596.7777283844617
 30
0.0
 10
414.1027055758217
 20
597.0029827039803
 30
0.0
  0
SPLINE
  5
115
330
1F
100
AcDbEntity
  8
0
  6
Continuous
 62
     7
370
    15
100
AcDbSpline
210
0.0
220
0.0
230
1.0
 70
     8
 71
     3
 72
    10
 73
     6
 74
     0
 42
0.00000001
 43
0.00000001
 12
1.0
 22
0.0
 32
0.0
 13
1.0
 23
0.0
 33
0.0
 40
0.0
 40
0.0
 40
0.0
 40
0.0
 40
0.5
 40
0.5
 40
1.0
 40
1.0
 40
1.0
 40
1.0
 10
414.1027055758217
 20
597.0029827039803
 30
0.0
 10
414.9022231105451
 20
597.1153475656694
 30
0.0
 10
415.703738741273
 20
597.2814773779493
 30
0.0
 10
417.2619204895148
 20
597.701472051228
 30
0.0
 10
418.0234420260213
 20
597.9551123529867
 30
0.0
 10
418.7715127691193
 20
598.2421649848194
 30
0.0
  0
LINE
  5
116
330
1F
100
AcDbEntity
  8
0
  6
Continuous
 62
     7
370
    15
100
AcDbLine
 10
424.995654332
 20
598.5338868145
 30
0.0
 11
414.1027055758
 21
597.002982704
 31
0.0
  0
LINE
  5
117
330
1F
100
AcDbEntity
  8
0
  6
Continuous
 62
     7
370
    15
100
AcDbLine
 10
311.6990054508
 20
662.5398387097
 30
0.0
 11
261.6307176503
 21
662.5398387097
 31
0.0
  0
LINE
  5
118
330
1F
100
AcDbEntity
  8
0
  6
Continuous
 62
     7
370
    15
100
AcDbLine
 10
263.0228130302
 20
663.5398387097
 30
0.0
 11
311.6990054508
 21
663.5398387097
 31
0.0
  0
LINE
  5
119
330
1F
100
AcDbEntity
  8
0
  6
Continuous
 62
     7
370
    15
100
AcDbLine
 10
261.6307176503
 20
658.5398387097
 30
0.0
 11
311.6990054508
 21
658.5398387097
 31
0.0
  0
LINE
  5
11A
330
1F
100
AcDbEntity
  8
0
  6
Continuous
 62
     7
370
    15
100
AcDbLine
 10
311.6990054508
 20
657.5398387097
 30
0.0
 11
263.0228130302
 21
657.5398387097
 31
0.0
  0
LINE
  5
11B
330
1F
100
AcDbEntity
  8
0
  6
Continuous
 62
     7
370
    15
100
AcDbLine
 10
311.6990054508
 20
663.5398387097
 30
0.0
 11
315.6990054508
 21
663.5398387097
 31
0.0
  0
ARC
  5
11C
330
1F
100
AcDbEntity
  8
0
  6
Continuous
 62
     7
370
    15
100
AcDbCircle
 10
315.6990054508
 20
662.5398387097
 30
0.0
 40
1.000000000000114
100
AcDbArc
 50
0.0
 51
90.0
  0
LINE
  5
11D
330
1F
100
AcDbEntity
  8
0
  6
Continuous
 62
     7
370
    15
100
AcDbLine
 10
316.6990054508
 20
662.5398387097
 30
0.0
 11
311.6990054508
 21
662.5398387097
 31
0.0
  0
LINE
  5
11E
330
1F
100
AcDbEntity
  8
0
  6
Continuous
 62
     7
370
    15
100
AcDbLine
 10
316.6990054508
 20
662.5398387097
 30
0.0
 11
316.6990054508
 21
658.5398387097
 31
0.0
  0
LINE
  5
11F
330
1F
100
AcDbEntity
  8
0
  6
Continuous
 62
     7
370
    15
100
AcDbLine
 10
311.6990054508
 20
658.5398387097
 30
0.0
 11
316.6990054508
 21
658.5398387097
 31
0.0
  0
ARC
  5
120
330
1F
100
AcDbEntity
  8
0
  6
Continuous
 62
     7
370
    15
100
AcDbCircle
 10
315.6990054508
 20
658.5398387097
 30
0.0
 40
1.0
100
AcDbArc
 50
270.0
 51
0.0
  0
LINE
  5
121
330
1F
100
AcDbEntity
  8
0
  6
Continuous
 62
     7
370
    15
100
AcDbLine
 10
315.6990054508
 20
657.5398387097
 30
0.0
 11
311.6990054508
 21
657.5398387097
 31
0.0
  0
LINE
  5
122
330
1F
100
AcDbEntity
  8
0
  6
Continuous
 62
     7
370
    15
100
AcDbLine
 10
263.1127180464
 20
648.0781424557
 30
0.0
 11
263.1127180464
 21
648.0513562052
 31
0.0
  0
LINE
  5
123
330
1F
100
AcDbEntity
  8
0
  6
Continuous
 62
     7
370
    15
100
AcDbLine
 10
263.2127180464
 20
648.0513562052
 30
0.0
 11
263.1127180464
 21
648.0513562052
 31
0.0
  0
LINE
  5
124
330
1F
100
AcDbEntity
  8
0
  6
Continuous
 62
     7
370
    15
100
AcDbLine
 10
263.2127180464
 20
642.1049287062
 30
0.0
 11
263.2127180464
 21
648.0513562052
 31
0.0
  0
LINE
  5
125
330
1F
100
AcDbEntity
  8
0
  6
Continuous
 62
     7
370
    15
100
AcDbLine
 10
263.2127180464
 20
642.1049287062
 30
0.0
 11
263.1127180464
 21
642.1049287062
 31
0.0
  0
LINE
  5
126
330
1F
100
AcDbEntity
  8
0
  6
Continuous
 62
     7
370
    15
100
AcDbLine
 10
263.1127180464
 20
642.1049287062
 30
0.0
 11
263.1127180464
 21
642.0781424557
 31
0.0
  0
LINE
  5
127
330
1F
100
AcDbEntity
  8
0
  6
Continuous
 62
     7
370
    15
100
AcDbLine
 10
263.1127180464
 20
642.0781424557
 30
0.0
 11
262.6990035777
 21
642.0781424557
 31
0.0
  0
LINE
  5
128
330
1F
100
AcDbEntity
  8
0
  6
Continuous
 62
     7
370
    15
100
AcDbLine
 10
262.6127180464
 20
642.8253463371
 30
0.0
 11
262.6127180464
 21
647.3309385743
 31
0.0
  0
LINE
  5
129
330
1F
100
AcDbEntity
  8
0
  6
Continuous
 62
     7
370
    15
100
AcDbLine
 10
263.1127180464
 20
648.0781424557
 30
0.0
 11
262.6990035777
 21
648.0781424557
 31
0.0
  0
LINE
  5
12A
330
1F
100
AcDbEntity
  8
0
  6
Continuous
 62
     7
370
    15
100
AcDbLine
 10
263.8127180464
 20
647.4445743689
 30
0.0
 11
263.8127180464
 21
642.7117105425
 31
0.0
  0
SPLINE
  5
12B
330
1F
100
AcDbEntity
  8
0
  6
Continuous
 62
     7
370
    15
100
AcDbSpline
210
0.0
220
0.0
230
1.0
 70
     8
 71
     3
 72
    10
 73
     6
 74
     0
 42
0.00000001
 43
0.00000001
 12
1.0
 22
0.0
 32
0.0
 13
1.0
 23
0.0
 33
0.0
 40
0.0
 40
0.0
 40
0.0
 40
0.0
 40
0.5
 40
0.5
 40
1.0
 40
1.0
 40
1.0
 40
1.0
 10
263.8127180464205
 20
642.7117105424627
 30
0.0
 10
263.8127180464205
 20
642.5523370422432
 30
0.0
 10
263.7488876698367
 20
642.3961974278942
 30
0.0
 10
263.5280955194002
 20
642.1715588602952
 30
0.0
 10
263.3721484526939
 20
642.1049287062388
 30
0.0
 10
263.2127180464205
 20
642.1049287062388
 30
0.0
  0
SPLINE
  5
12C
330
1F
100
AcDbEntity
  8
0
  6
Continuous
 62
     7
370
    15
100
AcDbSpline
210
0.0
220
0.0
230
1.0
 70
     8
 71
     3
 72
    10
 73
     6
 74
     0
 42
0.00000001
 43
0.00000001
 12
1.0
 22
0.0
 32
0.0
 13
1.0
 23
0.0
 33
0.0
 40
0.0
 40
0.0
 40
0.0
 40
0.0
 40
0.5
 40
0.5
 40
1.0
 40
1.0
 40
1.0
 40
1.0
 10
263.2127180464205
 20
648.0513562051661
 30
0.0
 10
263.3721169040332
 20
648.0513562051661
 30
0.0
 10
263.5278085963419
 20
647.9848522521427
 30
0.0
 10
263.748551876309
 20
647.7605943803894
 30
0.0
 10
263.8127180464205
 20
647.6039221868646
 30
0.0
 10
263.8127180464205
 20
647.4445743689423
 30
0.0
  0
LINE
  5
12D
330
1F
100
AcDbEntity
  8
0
  6
Continuous
 62
     8
370
    15
100
AcDbLine
 10
262.6990054508
 20
655.5398387097
 30
0.0
 11
261.1569084239
 21
655.5398387097
 31
0.0
  0
LINE
  5
12E
330
1F
100
AcDbEntity
  8
0
  6
Continuous
 62
     8
370
    15
100
AcDbLine
 10
261.1569084239
 20
665.5398387097
 30
0.0
 11
262.6990054508
 21
665.5398387097
 31
0.0
  0
SPLINE
  5
12F
330
1F
100
AcDbEntity
  8
0
  6
Continuous
 62
     8
370
    15
100
AcDbSpline
210
0.0
220
0.0
230
1.0
 70
     8
 71
     3
 72
    10
 73
     6
 74
     0
 42
0.00000001
 43
0.00000001
 12
1.0
 22
0.0
 32
0.0
 13
1.0
 23
0.0
 33
0.0
 40
0.0
 40
0.0
 40
0.0
 40
0.0
 40
0.4137379668787164
 40
0.8293229474894734
 40
1.0
 40
1.0
 40
1.0
 40
1.0
 10
260.5310169936163
 20
619.9084292471895
 30
0.0
 10
261.3729252848457
 20
619.9673834093553
 30
0.0
 10
263.0605003238629
 20
620.0855549175275
 30
0.0
 10
264.5745937833268
 20
620.2096041893287
 30
0.0
 10
265.0499423845154
 20
620.2503773748222
 30
0.0
 10
265.1883294769456
 20
620.2622475740305
 30
0.0
  0
SPLINE
  5
130
330
1F
100
AcDbEntity
  8
0
  6
Continuous
 62
     8
370
    15
100
AcDbSpline
210
0.0
220
0.0
230
1.0
 70
     8
 71
     3
 72
    19
 73
    15
 74
     0
 42
0.00000001
 43
0.00000001
 12
1.0
 22
0.0
 32
0.0
 13
1.0
 23
0.0
 33
0.0
 40
0.0
 40
0.0
 40
0.0
 40
0.0
 40
0.0574340617754147
 40
0.0921798817751852
 40
0.1287310584927072
 40
0.1931890341959235
 40
0.2652679924420904
 40
0.3528071063377486
 40
0.4426239767380228
 40
0.5360039547829413
 40
0.6518376422265285
 40
0.7683907163580341
 40
0.8888627180505345
 40
1.0
 40
1.0
 40
1.0
 40
1.0
 10
415.2102869523894
 20
619.22410413801
 30
0.0
 10
415.223998958992
 20
619.2237887467851
 30
0.0
 10
415.2460063028651
 20
619.2232825536844
 30
0.0
 10
415.4424656338294
 20
619.2185479217866
 30
0.0
 10
415.7101237741763
 20
619.2119668096205
 30
0.0
 10
416.1628147949734
 20
619.2005762743049
 30
0.0
 10
416.8704394933845
 20
619.1821593435369
 30
0.0
 10
417.76449902126
 20
619.1580467812465
 30
0.0
 10
418.814620953535
 20
619.1290595320795
 30
0.0
 10
420.0336240576501
 20
619.0942448915409
 30
0.0
 10
421.4121125841241
 20
619.0522054648505
 30
0.0
 10
422.9421395637752
 20
618.9841162048286
 30
0.0
 10
424.4739962489535
 20
618.8906685177285
 30
0.0
 10
425.5011306385517
 20
618.7983865488624
 30
0.0
 10
425.9939991560038
 20
618.7541052185484
 30
0.0
  0
SPLINE
  5
131
330
1F
100
AcDbEntity
  8
0
  6
Continuous
 62
     8
370
    15
100
AcDbSpline
210
0.0
220
0.0
230
1.0
 70
     8
 71
     3
 72
    10
 73
     6
 74
     0
 42
0.00000001
 43
0.00000001
 12
1.0
 22
0.0
 32
0.0
 13
1.0
 23
0.0
 33
0.0
 40
0.0
 40
0.0
 40
0.0
 40
0.0
 40
0.4348364462656993
 40
0.7432760065511127
 40
1.0
 40
1.0
 40
1.0
 40
1.0
 10
426.4658622961477
 20
618.8041417060396
 30
0.0
 10
426.4477896918152
 20
618.8044802733651
 30
0.0
 10
426.4168977707455
 20
618.8050589943343
 30
0.0
 10
426.5745901533838
 20
618.787632642422
 30
0.0
 10
426.1754348367328
 20
618.7646143821581
 30
0.0
 10
425.9941196294449
 20
618.7541584005963
 30
0.0
  0
SPLINE
  5
132
330
1F
100
AcDbEntity
  8
0
  6
Continuous
 62
     7
370
    15
100
AcDbSpline
210
0.0
220
0.0
230
1.0
 70
     8
 71
     3
 72
    11
 73
     7
 74
     0
 42
0.00000001
 43
0.00000001
 12
1.0
 22
0.0
 32
0.0
 13
1.0
 23
0.0
 33
0.0
 40
0.0
 40
0.0
 40
0.0
 40
0.0
 40
0.0760428709455466
 40
0.4556280088337731
 40
0.8386146274292536
 40
1.0
 40
1.0
 40
1.0
 40
1.0
 10
91.05468771964705
 20
247.147987369295
 30
0.0
 10
91.05851541395916
 20
247.1249990485488
 30
0.0
 10
91.08144990756986
 20
246.9872593409632
 30
0.0
 10
91.18291464173237
 20
246.5642527042719
 30
0.0
 10
91.3049697390608
 20
246.0987806577587
 30
0.0
 10
91.38268356905246
 20
245.7592535817037
 30
0.0
 10
91.40572273273212
 20
245.6585968532972
 30
0.0
  0
SPLINE
  5
133
330
1F
100
AcDbEntity
  8
0
  6
Continuous
 62
     7
370
    15
100
AcDbSpline
210
0.0
220
0.0
230
1.0
 70
     8
 71
     3
 72
     9
 73
     5
 74
     0
 42
0.00000001
 43
0.00000001
 12
1.0
 22
0.0
 32
0.0
 13
1.0
 23
0.0
 33
0.0
 40
0.0
 40
0.0
 40
0.0
 40
0.0
 40
0.7915074221563798
 40
1.0
 40
1.0
 40
1.0
 40
1.0
 10
127.5531249663045
 20
241.1679366959861
 30
0.0
 10
127.608105263002
 20
242.729842803463
 30
0.0
 10
127.6775680313328
 20
244.7031737713794
 30
0.0
 10
128.4017972354186
 20
246.5158864246019
 30
0.0
 10
128.5527936491281
 20
246.8938235585621
 30
0.0
  0
SPLINE
  5
134
330
1F
100
AcDbEntity
  8
0
  6
Continuous
 62
     7
370
    15
100
AcDbSpline
210
0.0
220
0.0
230
1.0
 70
     8
 71
     3
 72
     9
 73
     5
 74
     0
 42
0.00000001
 43
0.00000001
 12
1.0
 22
0.0
 32
0.0
 13
1.0
 23
0.0
 33
0.0
 40
0.0
 40
0.0
 40
0.0
 40
0.0
 40
0.2722829497168633
 40
1.0
 40
1.0
 40
1.0
 40
1.0
 10
90.66863641428908
 20
247.3734774183846
 30
0.0
 10
90.8872429286518
 20
246.8376469835958
 30
0.0
 10
91.69010816347475
 20
244.8697292886172
 30
0.0
 10
91.78080388360934
 20
242.7271373682419
 30
0.0
 10
91.84680470553897
 20
241.1679366959858
 30
0.0
  0
SPLINE
  5
135
330
1F
100
AcDbEntity
  8
0
  6
Continuous
 62
     7
370
    15
100
AcDbSpline
210
0.0
220
0.0
230
1.0
 70
     8
 71
     3
 72
    34
 73
    30
 74
     0
 42
0.00000001
 43
0.00000001
 12
1.0
 22
0.0
 32
0.0
 13
1.0
 23
0.0
 33
0.0
 40
0.0
 40
0.0
 40
0.0
 40
0.0
 40
0.0993217336266609
 40
0.1970026017272753
 40
0.2870514444001913
 40
0.3694693946112228
 40
0.4442542951852471
 40
0.5102733503505553
 40
0.5689382616365745
 40
0.620237263837176
 40
0.6641520816258002
 40
0.6925301857040939
 40
0.7167252726156129
 40
0.7394692788013953
 40
0.7627382472121198
 40
0.7865071484869522
 40
0.8107460311318674
 40
0.835421764531256
 40
0.8601470974935108
 40
0.8813312370636747
 40
0.8944594473362515
 40
0.9005132346276381
 40
0.9105575316877701
 40
0.9174749006586088
 40
0.925659090039908
 40
0.9351808662239509
 40
0.9458499352622598
 40
0.9701766873978295
 40
1.0
 40
1.0
 40
1.0
 40
1.0
 10
91.84680029310114
 20
241.1679318156311
 30
0.0
 10
91.90140737725882
 20
235.1343942178719
 30
0.0
 10
92.00971939779043
 20
223.1669973453425
 30
0.0
 10
92.16730469738708
 20
205.7293646073611
 30
0.0
 10
92.31538393625478
 20
189.3185908115666
 30
0.0
 10
92.45070264377087
 20
174.2986859759737
 30
0.0
 10
92.57264862239586
 20
160.7385268515685
 30
0.0
 10
92.68134685085867
 20
148.6213014743078
 30
0.0
 10
92.77721828355475
 20
137.9307842029217
 30
0.0
 10
92.86097175235943
 20
128.5830423834777
 30
0.0
 10
92.92766803902973
 20
121.0751416888414
 30
0.0
 10
92.97981949803415
 20
115.2137374197473
 30
0.0
 10
93.02083017552975
 20
110.6384078928237
 30
0.0
 10
93.05952989349261
 20
106.3734550406052
 30
0.0
 10
93.09797921857198
 20
102.1343719129027
 30
0.0
 10
93.13766651408453
 20
97.80456016494568
 30
0.0
 10
93.17839763039115
 20
93.38899765476624
 30
0.0
 10
93.22768271999759
 20
88.91654251747636
 30
0.0
 10
93.25836332366686
 20
84.62540044391731
 30
0.0
 10
93.28951100096876
 20
81.04810673307752
 30
0.0
 10
93.28984123355532
 20
78.584685830973
 30
0.0
 10
93.72053328064902
 20
76.8689538968654
 30
0.0
 10
94.34756819977991
 20
75.60328715206488
 30
0.0
 10
95.3025449527298
 20
74.40595448662285
 30
0.0
 10
96.44726606344936
 20
73.43357138747994
 30
0.0
 10
97.97687738389538
 20
72.59773506543496
 30
0.0
 10
100.6606450988988
 20
72.08069280746
 30
0.0
 10
104.6036070905149
 20
72.30971044303958
 30
0.0
 10
107.8886890965412
 20
72.27217080609216
 30
0.0
 10
109.6979579877972
 20
72.25149573703968
 30
0.0
  0
SPLINE
  5
136
330
1F
100
AcDbEntity
  8
0
  6
Continuous
 62
     7
370
    15
100
AcDbSpline
210
0.0
220
0.0
230
1.0
 70
     8
 71
     3
 72
    33
 73
    29
 74
     0
 42
0.00000001
 43
0.00000001
 12
1.0
 22
0.0
 32
0.0
 13
1.0
 23
0.0
 33
0.0
 40
0.0
 40
0.0
 40
0.0
 40
0.0
 40
0.0204739764918972
 40
0.0385263195006324
 40
0.0541516676606555
 40
0.0648210327254161
 40
0.074343073071298
 40
0.0825274894695493
 40
0.0894450502789974
 40
0.0994896257573851
 40
0.1125338527035246
 40
0.1279287454009422
 40
0.1459687162434806
 40
0.1658038787729337
 40
0.2264857202990393
 40
0.2526272979414628
 40
0.2781277114428853
 40
0.3044885963676702
 40
0.3358294881451662
 40
0.3806123366115179
 40
0.4330504194835241
 40
0.4931239220584877
 40
0.5608220637134005
 40
0.6361544235321126
 40
0.7175712993708521
 40
0.8063492031310135
 40
0.9024892129256332
 40
1.0
 40
1.0
 40
1.0
 40
1.0
 10
109.7019716846554
 20
72.2514957370397
 30
0.0
 10
110.9448526961737
 20
72.24290387748431
 30
0.0
 10
113.283608480619
 20
72.22673639158006
 30
0.0
 10
116.5680910764584
 20
72.29001035432883
 30
0.0
 10
119.2645571427844
 20
72.16219915941907
 30
0.0
 10
121.4229638030809
 20
72.60159995842116
 30
0.0
 10
122.9525372794258
 20
73.43276530383663
 30
0.0
 10
124.0978417253731
 20
74.40603015647227
 30
0.0
 10
125.0506531535454
 20
75.60357715124275
 30
0.0
 10
125.8808486482637
 20
77.25109720889125
 30
0.0
 10
126.1694653745478
 20
79.5866237277115
 30
0.0
 10
126.0880228160847
 20
82.40396558183083
 30
0.0
 10
126.1607877258865
 20
85.64095417085812
 30
0.0
 10
126.184614107361
 20
91.62746620974951
 30
0.0
 10
126.2685136862324
 20
98.10666693027164
 30
0.0
 10
126.3267441555719
 20
104.929832621899
 30
0.0
 10
126.3704946830335
 20
109.6681765879304
 30
0.0
 10
126.4156941218187
 20
114.7223558826263
 30
0.0
 10
126.4711494181067
 20
120.9478677363194
 30
0.0
 10
126.5405039157908
 20
128.7574602627579
 30
0.0
 10
126.6261382053657
 20
138.3124322119635
 30
0.0
 10
126.7243021224148
 20
149.2594105370909
 30
0.0
 10
126.8349920216175
 20
161.5971187787121
 30
0.0
 10
126.9576245964826
 20
175.2313436358001
 30
0.0
 10
127.092007559137
 20
190.1460722900882
 30
0.0
 10
127.2380035843761
 20
206.3247749483868
 30
0.0
 10
127.393052377045
 20
223.4811118631653
 30
0.0
 10
127.4995191015277
 20
235.2445688788771
 30
0.0
 10
127.5531292816529
 20
241.1679318128989
 30
0.0
  0
CIRCLE
  5
137
330
1F
100
AcDbEntity
  8
0
  6
Continuous
 62
     7
370
    15
100
AcDbCircle
 10
109.6999648362
 20
260.3137453092
 30
0.0
 40
23.0
  0
CIRCLE
  5
138
330
1F
100
AcDbEntity
  8
0
  6
Continuous
 62
     7
370
    15
100
AcDbCircle
 10
109.6999648362
 20
260.3137453092
 30
0.0
 40
21.5
  0
LINE
  5
139
330
1F
100
AcDbEntity
  8
0
  6
Continuous
 62
     7
370
    15
100
AcDbLine
 10
118.6999648362
 20
236.9899377298
 30
0.0
 11
117.9799648362
 21
238.8558423361
 31
0.0
  0
ARC
  5
13A
330
1F
100
AcDbEntity
  8
0
  6
Continuous
 62
     7
370
    15
100
AcDbCircle
 10
121.6999648362
 20
238.3820331097
 30
0.0
 40
2.000000000000001
100
AcDbArc
 50
118.6854020141
 51
180.0
  0
LINE
  5
13B
330
1F
100
AcDbEntity
  8
0
  6
Continuous
 62
     7
370
    15
100
AcDbLine
 10
100.6999648362
 20
236.9899377298
 30
0.0
 11
101.4199648362
 21
238.8558423361
 31
0.0
  0
ARC
  5
13C
330
1F
100
AcDbEntity
  8
0
  6
Continuous
 62
     7
370
    15
100
AcDbCircle
 10
97.6999648362
 20
238.3820331097
 30
0.0
 40
2.000000000000014
100
AcDbArc
 50
0.0
 51
61.3145979859
  0
LINE
  5
13D
330
1F
100
AcDbEntity
  8
0
  6
Continuous
 62
     7
370
    15
100
AcDbLine
 10
100.6999648362
 20
188.3137453092
 30
0.0
 11
99.6999648362
 21
188.3137453092
 31
0.0
  0
LINE
  5
13E
330
1F
100
AcDbEntity
  8
0
  6
Continuous
 62
     7
370
    15
100
AcDbLine
 10
99.6999648362
 20
188.3137453092
 30
0.0
 11
99.6999648362
 21
238.3820331097
 31
0.0
  0
LINE
  5
13F
330
1F
100
AcDbEntity
  8
0
  6
Continuous
 62
     7
370
    15
100
AcDbLine
 10
100.6999648362
 20
236.9899377298
 30
0.0
 11
100.6999648362
 21
188.3137453092
 31
0.0
  0
ARC
  5
140
330
1F
100
AcDbEntity
  8
0
  6
Continuous
 62
     7
370
    15
100
AcDbCircle
 10
114.6999648362
 20
188.3137453092
 30
0.0
 40
4.0
100
AcDbArc
 50
270.0
 51
0.0
  0
LINE
  5
141
330
1F
100
AcDbEntity
  8
0
  6
Continuous
 62
     7
370
    15
100
AcDbLine
 10
104.6999648362
 20
184.3137453092
 30
0.0
 11
114.6999648362
 21
184.3137453092
 31
0.0
  0
ARC
  5
142
330
1F
100
AcDbEntity
  8
0
  6
Continuous
 62
     7
370
    15
100
AcDbCircle
 10
104.6999648362
 20
188.3137453092
 30
0.0
 40
4.0
100
AcDbArc
 50
180.0
 51
270.0
  0
LINE
  5
143
330
1F
100
AcDbEntity
  8
0
  6
Continuous
 62
     7
370
    15
100
AcDbLine
 10
118.6999648362
 20
188.3137453092
 30
0.0
 11
118.6999648362
 21
236.9899377298
 31
0.0
  0
LINE
  5
144
330
1F
100
AcDbEntity
  8
0
  6
Continuous
 62
     7
370
    15
100
AcDbLine
 10
118.6999648362
 20
188.3137453092
 30
0.0
 11
119.6999648362
 21
188.3137453092
 31
0.0
  0
LINE
  5
145
330
1F
100
AcDbEntity
  8
0
  6
Continuous
 62
     7
370
    15
100
AcDbLine
 10
119.6999648362
 20
238.3820331097
 30
0.0
 11
119.6999648362
 21
188.3137453092
 31
0.0
  0
LINE
  5
146
330
1F
100
AcDbEntity
  8
0
  6
Continuous
 62
     7
370
    15
100
AcDbLine
 10
104.6999648362
 20
184.3137453092
 30
0.0
 11
104.6999648362
 21
183.3137453092
 31
0.0
  0
ARC
  5
147
330
1F
100
AcDbEntity
  8
0
  6
Continuous
 62
     7
370
    15
100
AcDbCircle
 10
104.6999648362
 20
188.3137453092
 30
0.0
 40
5.0
100
AcDbArc
 50
180.0
 51
270.0
  0
ARC
  5
148
330
1F
100
AcDbEntity
  8
0
  6
Continuous
 62
     7
370
    15
100
AcDbCircle
 10
114.6999648362
 20
188.3137453092
 30
0.0
 40
5.0
100
AcDbArc
 50
270.0
 51
0.0
  0
LINE
  5
149
330
1F
100
AcDbEntity
  8
0
  6
Continuous
 62
     7
370
    15
100
AcDbLine
 10
114.6999648362
 20
184.3137453092
 30
0.0
 11
114.6999648362
 21
183.3137453092
 31
0.0
  0
LINE
  5
14A
330
1F
100
AcDbEntity
  8
0
  6
Continuous
 62
     7
370
    15
100
AcDbLine
 10
114.6999648362
 20
183.3137453092
 30
0.0
 11
104.6999648362
 21
183.3137453092
 31
0.0
  0
SPLINE
  5
14B
330
1F
100
AcDbEntity
  8
0
  6
Continuous
 62
     7
370
    15
100
AcDbSpline
210
0.0
220
0.0
230
1.0
 70
     8
 71
     3
 72
     9
 73
     5
 74
     0
 42
0.00000001
 43
0.00000001
 12
1.0
 22
0.0
 32
0.0
 13
1.0
 23
0.0
 33
0.0
 40
0.0
 40
0.0
 40
0.0
 40
0.0
 40
0.9307567929539123
 40
1.0
 40
1.0
 40
1.0
 40
1.0
 10
127.4094362151673
 20
241.1679362171181
 30
0.0
 10
127.4361257404224
 20
242.6868589080831
 30
0.0
 10
127.464800820161
 20
244.3187811271457
 30
0.0
 10
128.0521947430496
 20
245.8089787042412
 30
0.0
 10
128.0928677820698
 20
245.9121647636116
 30
0.0
  0
SPLINE
  5
14C
330
1F
100
AcDbEntity
  8
0
  6
Continuous
 62
     7
370
    15
100
AcDbSpline
210
0.0
220
0.0
230
1.0
 70
     8
 71
     3
 72
    20
 73
    16
 74
     0
 42
0.00000001
 43
0.00000001
 12
1.0
 22
0.0
 32
0.0
 13
1.0
 23
0.0
 33
0.0
 40
0.0
 40
0.0
 40
0.0
 40
0.0
 40
0.0384193905819145
 40
0.0801748383761386
 40
0.1253274699000632
 40
0.1762018502433438
 40
0.2505681570446991
 40
0.3747131419378039
 40
0.4996623016023927
 40
0.6242402664862621
 40
0.7494510865762893
 40
0.8139165051035744
 40
0.8749315517006566
 40
0.9382899921154544
 40
1.0
 40
1.0
 40
1.0
 40
1.0
 10
125.5516191412345
 20
239.4817755234685
 30
0.0
 10
125.5853202905156
 20
239.5095053691979
 30
0.0
 10
125.6556489489294
 20
239.5673729164407
 30
0.0
 10
125.7645563050261
 20
239.6582287233418
 30
0.0
 10
125.8831528123349
 20
239.7581585700572
 30
0.0
 10
126.0275923768139
 20
239.8819029581616
 30
0.0
 10
126.2348313233488
 20
240.0617093541542
 30
0.0
 10
126.4921240855861
 20
240.2915412575318
 30
0.0
 10
126.7671106940753
 20
240.5447671125342
 30
0.0
 10
127.0126064123628
 20
240.7775128978531
 30
0.0
 10
127.1835469677352
 20
240.9438112310122
 30
0.0
 10
127.2898076532276
 20
241.0485289663227
 30
0.0
 10
127.3517471047515
 20
241.1102080321999
 30
0.0
 10
127.3946719828003
 20
241.1530418888092
 30
0.0
 10
127.4045590812646
 20
241.1630152504993
 30
0.0
 10
127.4094374733169
 20
241.1679362056794
 30
0.0
  0
SPLINE
  5
14D
330
1F
100
AcDbEntity
  8
0
  6
Continuous
 62
     7
370
    15
100
AcDbSpline
210
0.0
220
0.0
230
1.0
 70
     8
 71
     3
 72
    21
 73
    17
 74
     0
 42
0.00000001
 43
0.00000001
 12
1.0
 22
0.0
 32
0.0
 13
1.0
 23
0.0
 33
0.0
 40
0.0
 40
0.0
 40
0.0
 40
0.0
 40
0.0309094609436617
 40
0.0622014824266999
 40
0.0939146536193152
 40
0.1260833361003412
 40
0.1870701093428505
 40
0.2515145603067175
 40
0.3762982063862931
 40
0.5014840955144869
 40
0.6259390854259487
 40
0.751085270142469
 40
0.8244685072735614
 40
0.8752150749370715
 40
0.9413575667242438
 40
1.0
 40
1.0
 40
1.0
 40
1.0
 10
91.99049177258473
 20
241.1679366337693
 30
0.0
 10
91.99238329480886
 20
241.1660303818496
 30
0.0
 10
91.99618975026915
 20
241.1621942846914
 30
0.0
 10
92.00916856068159
 20
241.1491533364052
 30
0.0
 10
92.02756227488568
 20
241.1307754055177
 30
0.0
 10
92.05902940865411
 20
241.0994111730905
 30
0.0
 10
92.11124256951149
 20
241.0474169759231
 30
0.0
 10
92.21750758066005
 20
240.9427121859655
 30
0.0
 10
92.38881504311824
 20
240.7760775667301
 30
0.0
 10
92.63435264071978
 20
240.5433321527493
 30
0.0
 10
92.91034614776841
 20
240.289227696956
 30
0.0
 10
93.16745618996164
 20
240.0596396832391
 30
0.0
 10
93.37468678480737
 20
239.8798575483706
 30
0.0
 10
93.53605397974178
 20
239.7417001629419
 30
0.0
 10
93.68755917432078
 20
239.6142857778678
 30
0.0
 10
93.79692776318244
 20
239.5241313133463
 30
0.0
 10
93.84832531918968
 20
239.4817633977704
 30
0.0
  0
SPLINE
  5
14E
330
1F
100
AcDbEntity
  8
0
  6
Continuous
 62
     7
370
    15
100
AcDbSpline
210
0.0
220
0.0
230
1.0
 70
     8
 71
     3
 72
    36
 73
    32
 74
     0
 42
0.00000001
 43
0.00000001
 12
1.0
 22
0.0
 32
0.0
 13
1.0
 23
0.0
 33
0.0
 40
0.0
 40
0.0
 40
0.0
 40
0.0
 40
0.0078124999999998
 40
0.0078124999999998
 40
0.0156249999999996
 40
0.0156249999999996
 40
0.0312499999999992
 40
0.0312499999999992
 40
0.035156249999999
 40
0.035156249999999
 40
0.0390624999999988
 40
0.0390624999999988
 40
0.0429687499999986
 40
0.0429687499999986
 40
0.0468749999999983
 40
0.0468749999999983
 40
0.0546874999999984
 40
0.0546874999999984
 40
0.0624999999999986
 40
0.0624999999999986
 40
0.0781249999999988
 40
0.0781249999999988
 40
0.0937499999999991
 40
0.0937499999999991
 40
0.1249999999999994
 40
0.1249999999999994
 40
0.2499999999999996
 40
0.2499999999999996
 40
0.4999999999999997
 40
0.4999999999999997
 40
1.0
 40
1.0
 40
1.0
 40
1.0
 10
121.0436195276484
 20
74.0188626700534
 30
0.0
 10
121.3787351409288
 20
74.15639500464638
 30
0.0
 10
121.7069814965008
 20
74.33175488868454
 30
0.0
 10
122.3168994024241
 20
74.7313357005124
 30
0.0
 10
122.6007152811482
 20
74.95705163626246
 30
0.0
 10
123.3850677954914
 20
75.70614598128684
 30
0.0
 10
123.8189985432039
 20
76.30668039754637
 30
0.0
 10
124.1969077494304
 20
77.11486455304106
 30
0.0
 10
124.2645888325105
 20
77.27949973651263
 30
0.0
 10
124.3838347193272
 20
77.6158148929502
 30
0.0
 10
124.4353748173332
 20
77.78790236234876
 30
0.0
 10
124.5190241832129
 20
78.12954244138473
 30
0.0
 10
124.5511613071739
 20
78.29863386833414
 30
0.0
 10
124.6005415127075
 20
78.6526081035523
 30
0.0
 10
124.6179878484028
 20
78.8383914241812
 30
0.0
 10
124.6555252215783
 20
79.41921587426722
 30
0.0
 10
124.6617362380438
 20
79.84191727787959
 30
0.0
 10
124.6664482114293
 20
80.69992535994547
 30
0.0
 10
124.6644534819544
 20
81.14220102543271
 30
0.0
 10
124.6699594864135
 20
82.46931254572809
 30
0.0
 10
124.6814467903126
 20
83.34846482971378
 30
0.0
 10
124.6995055112053
 20
85.09853733223754
 30
0.0
 10
124.7051865526005
 20
85.97349129817496
 30
0.0
 10
124.7224826825743
 20
88.60698689667176
 30
0.0
 10
124.7390666882527
 20
90.36333369837455
 30
0.0
 10
124.817125766724
 20
99.13195026403714
 30
0.0
 10
124.8641972249226
 20
106.1499877671124
 30
0.0
 10
125.0046633368196
 20
127.2024505245861
 30
0.0
 10
125.0886306255349
 20
141.2370738574474
 30
0.0
 10
125.3145836522736
 20
183.3417308800744
 30
0.0
 10
125.4342204475579
 20
211.4117467070369
 30
0.0
 10
125.5516190788824
 20
239.4817606150814
 30
0.0
  0
SPLINE
  5
14F
330
1F
100
AcDbEntity
  8
0
  6
Continuous
 62
     7
370
     0
100
AcDbSpline
210
0.0
220
0.0
230
1.0
 70
     8
 71
     3
 72
    64
 73
    60
 74
     0
 42
0.00000001
 43
0.00000001
 12
1.0
 22
0.0
 32
0.0
 13
1.0
 23
0.0
 33
0.0
 40
0.0
 40
0.0
 40
0.0
 40
0.0
 40
0.0242622233356174
 40
0.0348835765342463
 40
0.0455039347730881
 40
0.0884865713043893
 40
0.0993569788551228
 40
0.1102267516000704
 40
0.1265321783035889
 40
0.1537070954404488
 40
0.1587849260740655
 40
0.1740146567366272
 40
0.1892496488900482
 40
0.1943284712070199
 40
0.2247959559951
 40
0.2349524722729361
 40
0.2672044353374027
 40
0.2913921291975552
 40
0.2994558368014687
 40
0.351825065759565
 40
0.3599508496766158
 40
0.3734951752096355
 40
0.3951633808391501
 40
0.4228205343020975
 40
0.4297381345466449
 40
0.4320443208955855
 40
0.4802897164307359
 40
0.4919740916995022
 40
0.4939220788162337
 40
0.4961175773979544
 40
0.4968601543509812
 40
0.4978502563350746
 40
0.523008619819275
 40
0.5481803871736911
 40
0.5652316970989114
 40
0.5671265953691718
 40
0.5784950004497296
 40
0.6286614727037922
 40
0.631526591962315
 40
0.6401206812397761
 40
0.6908605927094099
 40
0.6978213362118777
 40
0.7047814611532567
 40
0.7531074910571689
 40
0.7617107960758909
 40
0.7703135724176716
 40
0.7984651032223136
 40
0.803938832428757
 40
0.8148852298373308
 40
0.8313043916620672
 40
0.8367771988135202
 40
0.8531958327209331
 40
0.8696127380530912
 40
0.8750854316428694
 40
0.9020403039470021
 40
0.9182150369212376
 40
0.961347641703281
 40
0.9759994956935399
 40
1.0
 40
1.0
 40
1.0
 40
1.0
 10
121.0437240092848
 20
74.01870625820841
 30
0.0
 10
120.8970588221028
 20
74.23391147888519
 30
0.0
 10
120.6861875342081
 20
74.54332779585671
 30
0.0
 10
120.4098868350736
 20
74.94649694221903
 30
0.0
 10
120.0191266079349
 20
75.51517765246135
 30
0.0
 10
119.6228881355445
 20
76.08384650269498
 30
0.0
 10
119.2210436818065
 20
76.65212185190768
 30
0.0
 10
118.9836222305063
 20
76.98538266935431
 30
0.0
 10
118.6420892665743
 20
77.4598852928616
 30
0.0
 10
118.3332972291077
 20
77.88133921304613
 30
0.0
 10
118.0278167853692
 20
78.29090664673267
 30
0.0
 10
117.7981553936489
 20
78.59678328873062
 30
0.0
 10
117.5648202617687
 20
78.89992468053211
 30
0.0
 10
117.2292169404612
 20
79.33130325016246
 30
0.0
 10
116.92270651641
 20
79.71613466391666
 30
0.0
 10
116.4235298966384
 20
80.32123589023895
 30
0.0
 10
115.9567673226867
 20
80.86545870669681
 30
0.0
 10
115.4890325542495
 20
81.37879566307468
 30
0.0
 10
114.8603801264581
 20
82.03791598539486
 30
0.0
 10
114.3277114236644
 20
82.55095214172512
 30
0.0
 10
113.7181658992769
 20
83.06452409747766
 30
0.0
 10
113.3535641980387
 20
83.35576807790682
 30
0.0
 10
112.8048911862933
 20
83.7526756464917
 30
0.0
 10
112.2858380568349
 20
84.0670643912646
 30
0.0
 10
111.9315468508864
 20
84.24652200955856
 30
0.0
 10
111.3737559320153
 20
84.51394806533361
 30
0.0
 10
110.7259070731402
 20
84.73193261552622
 30
0.0
 10
110.0628872754207
 20
84.80340796537983
 30
0.0
 10
109.8927255771434
 20
84.81277982427402
 30
0.0
 10
109.8401561518701
 20
84.8148271760766
 30
0.0
 10
109.7978781328778
 20
84.81598072957131
 30
0.0
 10
109.5084189309124
 20
84.82188217663705
 30
0.0
 10
108.9538360110143
 20
84.77489140405531
 30
0.0
 10
108.2504415020173
 20
84.58527421201504
 30
0.0
 10
107.8097468908656
 20
84.40634199165228
 30
0.0
 10
107.5134666379626
 20
84.26946834153675
 30
0.0
 10
106.902918570419
 20
83.96301330093803
 30
0.0
 10
106.3252066284713
 20
83.57093912160846
 30
0.0
 10
105.8033159315123
 20
83.16146608393763
 30
0.0
 10
105.2827447334522
 20
82.74024810975541
 30
0.0
 10
104.7595521263828
 20
82.25253809916944
 30
0.0
 10
104.2717813356979
 20
81.75604920756082
 30
0.0
 10
103.8071726181515
 20
81.27320573206906
 30
0.0
 10
103.3494161925179
 20
80.75929939529475
 30
0.0
 10
102.8941812779259
 20
80.22049245803368
 30
0.0
 10
102.582234143804
 20
79.84491531774546
 30
0.0
 10
102.2973257264446
 20
79.4907089886569
 30
0.0
 10
102.0009982885022
 20
79.11344336487127
 30
0.0
 10
101.7841090999779
 20
78.83436587484452
 30
0.0
 10
101.569958064366
 20
78.55321645308311
 30
0.0
 10
101.3217899132674
 20
78.22399702708115
 30
0.0
 10
101.0756318393962
 20
77.89333346862293
 30
0.0
 10
100.8321916611183
 20
77.56074210177147
 30
0.0
 10
100.5236554282173
 20
77.13540079846793
 30
0.0
 10
100.2194767484361
 20
76.71022782315032
 30
0.0
 10
99.68469941594688
 20
75.9523262888979
 30
0.0
 10
99.23166073194066
 20
75.29908162484519
 30
0.0
 10
98.73501134959206
 20
74.57444159071594
 30
0.0
 10
98.50132452984626
 20
74.23161704283294
 30
0.0
 10
98.35622079566741
 20
74.01874614955747
 30
0.0
  0
SPLINE
  5
150
330
1F
100
AcDbEntity
  8
0
  6
Continuous
 62
     7
370
    15
100
AcDbSpline
210
0.0
220
0.0
230
1.0
 70
     8
 71
     3
 72
    40
 73
    36
 74
     0
 42
0.00000001
 43
0.00000001
 12
1.0
 22
0.0
 32
0.0
 13
1.0
 23
0.0
 33
0.0
 40
0.0
 40
0.0
 40
0.0
 40
0.0
 40
0.4999999999999979
 40
0.4999999999999979
 40
0.7499999999999969
 40
0.7499999999999969
 40
0.8749999999999964
 40
0.8749999999999964
 40
0.9062499999999963
 40
0.9062499999999963
 40
0.921874999999996
 40
0.921874999999996
 40
0.9296874999999961
 40
0.9296874999999961
 40
0.9374999999999962
 40
0.9374999999999962
 40
0.9453124999999962
 40
0.9453124999999962
 40
0.9531249999999963
 40
0.9531249999999963
 40
0.9570312499999964
 40
0.9570312499999964
 40
0.9609374999999964
 40
0.9609374999999964
 40
0.9687499999999971
 40
0.9687499999999971
 40
0.9765624999999979
 40
0.9765624999999979
 40
0.9843749999999986
 40
0.9843749999999986
 40
0.9882812499999989
 40
0.9882812499999989
 40
0.9921874999999992
 40
0.9921874999999992
 40
1.0
 40
1.0
 40
1.0
 40
1.0
 10
93.84832538153887
 20
239.4817484975385
 30
0.0
 10
93.96583772614667
 20
211.3985964882913
 30
0.0
 10
94.08558784005976
 20
183.3154425230833
 30
0.0
 10
94.31170526803936
 20
141.1910782715532
 30
0.0
 10
94.39573759299597
 20
127.1498848037399
 30
0.0
 10
94.53627100952808
 20
106.0875702760177
 30
0.0
 10
94.58332857913908
 20
99.06631535460616
 30
0.0
 10
94.66158746543486
 20
90.29351873809291
 30
0.0
 10
94.67805703246353
 20
88.53614451138858
 30
0.0
 10
94.69524529682036
 20
85.90167812472
 30
0.0
 10
94.70106229338529
 20
85.02650769476386
 30
0.0
 10
94.71479980906143
 20
83.71315601974801
 30
0.0
 10
94.71971402541261
 20
83.27488919862591
 30
0.0
 10
94.72850525156815
 20
82.39504040113863
 30
0.0
 10
94.73232167007427
 20
81.95222282623286
 30
0.0
 10
94.73552457281107
 20
81.067109702615
 30
0.0
 10
94.73336559303061
 20
80.6260774867639
 30
0.0
 10
94.73929787393874
 20
79.76943050863814
 30
0.0
 10
94.74662543032393
 20
79.34726317857607
 30
0.0
 10
94.78816697473782
 20
78.76921479332682
 30
0.0
 10
94.80722312867631
 20
78.58478632712348
 30
0.0
 10
94.86010876734261
 20
78.23516464965988
 30
0.0
 10
94.89434140587014
 20
78.06770445781555
 30
0.0
 10
95.0236251335828
 20
77.56523507095334
 30
0.0
 10
95.1447506225308
 20
77.23310423926353
 30
0.0
 10
95.45287472003659
 20
76.58898948402809
 30
0.0
 10
95.63785098951003
 20
76.28010989278947
 30
0.0
 10
96.05779030917303
 20
75.70562814550544
 30
0.0
 10
96.29561840185522
 20
75.43575560023757
 30
0.0
 10
96.68978602255628
 20
75.06282847080509
 30
0.0
 10
96.82619243900518
 20
74.945107871536
 30
0.0
 10
97.10607564684278
 20
74.72467962008369
 30
0.0
 10
97.24991776160793
 20
74.62151931860956
 30
0.0
 10
97.69956499936255
 20
74.32844772497695
 30
0.0
 10
98.0236397971814
 20
74.15539640623211
 30
0.0
 10
98.35624844412479
 20
74.01888799263362
 30
0.0
  0
SPLINE
  5
151
330
1F
100
AcDbEntity
  8
0
  6
Continuous
 62
     7
370
    15
100
AcDbSpline
210
0.0
220
0.0
230
1.0
 70
     8
 71
     3
 72
    36
 73
    32
 74
     0
 42
0.00000001
 43
0.00000001
 12
1.0
 22
0.0
 32
0.0
 13
1.0
 23
0.0
 33
0.0
 40
0.0
 40
0.0
 40
0.0
 40
0.0
 40
0.0078124999999997
 40
0.0078124999999997
 40
0.0117187499999995
 40
0.0117187499999995
 40
0.0156249999999993
 40
0.0156249999999993
 40
0.023437499999999
 40
0.023437499999999
 40
0.0312499999999986
 40
0.0312499999999986
 40
0.0390624999999983
 40
0.0390624999999983
 40
0.0468749999999979
 40
0.0468749999999979
 40
0.0546874999999976
 40
0.0546874999999976
 40
0.0624999999999973
 40
0.0624999999999973
 40
0.0781249999999971
 40
0.0781249999999971
 40
0.0937499999999969
 40
0.0937499999999969
 40
0.124999999999997
 40
0.124999999999997
 40
0.2499999999999974
 40
0.2499999999999974
 40
0.4999999999999982
 40
0.4999999999999982
 40
1.0
 40
1.0
 40
1.0
 40
1.0
 10
97.89796496495708
 20
72.8156284258287
 30
0.0
 10
97.47138350017039
 20
72.98593439984887
 30
0.0
 10
97.07063507343992
 20
73.19753354242484
 30
0.0
 10
96.51392333999634
 20
73.55606663287433
 30
0.0
 10
96.3354413176953
 20
73.68251671307513
 30
0.0
 10
95.9878697008523
 20
73.9534846173757
 30
0.0
 10
95.81828077041122
 20
74.09851207106513
 30
0.0
 10
95.32893496077433
 20
74.55809216693551
 30
0.0
 10
95.03412690912302
 20
74.89162974151051
 30
0.0
 10
94.51295673976783
 20
75.60492515318442
 30
0.0
 10
94.28353521912302
 20
75.98923594512469
 30
0.0
 10
93.90193466099164
 20
76.79451665207226
 30
0.0
 10
93.75192793952623
 20
77.21080748718151
 30
0.0
 10
93.53880542046423
 20
78.06713582721672
 30
0.0
 10
93.48084585682949
 20
78.50950553083919
 30
0.0
 10
93.42272561010623
 20
79.40015423159294
 30
0.0
 10
93.41745042110044
 20
79.84565787201761
 30
0.0
 10
93.41236977028028
 20
80.73445588151212
 30
0.0
 10
93.4141057266893
 20
81.17733953901751
 30
0.0
 10
93.40759218433988
 20
82.50579089302296
 30
0.0
 10
93.3954761312194
 20
83.39191579498961
 30
0.0
 10
93.3760836510268
 20
85.16495112877875
 30
0.0
 10
93.36995900416
 20
86.05144331013764
 30
0.0
 10
93.35033959290769
 20
88.71030071042252
 30
0.0
 10
93.33172333974363
 20
90.48288076031383
 30
0.0
 10
93.24364928264833
 20
99.34653667772957
 30
0.0
 10
93.18528193014025
 20
106.4375126444894
 30
0.0
 10
93.00071587681872
 20
127.7106277122666
 30
0.0
 10
92.87497130336949
 20
141.8926651701999
 30
0.0
 10
92.49833558843522
 20
184.438991365921
 30
0.0
 10
92.2446789872965
 20
212.803476480757
 30
0.0
 10
91.9904917725803
 20
241.1679366342628
 30
0.0
  0
SPLINE
  5
152
330
1F
100
AcDbEntity
  8
0
  6
Continuous
 62
     7
370
    15
100
AcDbSpline
210
0.0
220
0.0
230
1.0
 70
     8
 71
     3
 72
    36
 73
    32
 74
     0
 42
0.00000001
 43
0.00000001
 12
1.0
 22
0.0
 32
0.0
 13
1.0
 23
0.0
 33
0.0
 40
0.0
 40
0.0
 40
0.0
 40
0.0
 40
0.4999999999999988
 40
0.4999999999999988
 40
0.7499999999999982
 40
0.7499999999999982
 40
0.8749999999999981
 40
0.8749999999999981
 40
0.9062499999999982
 40
0.9062499999999982
 40
0.9218749999999986
 40
0.9218749999999986
 40
0.9374999999999988
 40
0.9374999999999988
 40
0.945312499999999
 40
0.945312499999999
 40
0.9531249999999992
 40
0.9531249999999992
 40
0.9609374999999994
 40
0.9609374999999994
 40
0.9648437499999996
 40
0.9648437499999996
 40
0.9687499999999997
 40
0.9687499999999997
 40
0.9765624999999998
 40
0.9765624999999998
 40
0.9843749999999998
 40
0.9843749999999998
 40
0.9921874999999999
 40
0.9921874999999999
 40
1.0
 40
1.0
 40
1.0
 40
1.0
 10
127.4094374735097
 20
241.167936227185
 30
0.0
 10
127.1553658750948
 20
212.816627718585
 30
0.0
 10
126.9018256462128
 20
184.4652944375965
 30
0.0
 10
126.5253585053626
 20
141.9386954441063
 30
0.0
 10
126.3996798086458
 20
127.7632340151819
 30
0.0
 10
126.215183003544
 20
106.4999831963763
 30
0.0
 10
126.1567904708177
 20
99.41229873851599
 30
0.0
 10
126.0689249107407
 20
90.55274537133029
 30
0.0
 10
126.0502209257979
 20
88.78097092676862
 30
0.0
 10
126.0304694814285
 20
86.12337156359509
 30
0.0
 10
126.0244537626232
 20
85.2373100253579
 30
0.0
 10
126.005335837439
 20
83.46502977671439
 30
0.0
 10
125.9931445123836
 20
82.57922357157585
 30
0.0
 10
125.9859236749631
 20
81.25132570958044
 30
0.0
 10
125.9873900231281
 20
80.80885677069524
 30
0.0
 10
125.983405373101
 20
79.92101275449748
 30
0.0
 10
125.9790106332835
 20
79.47631326336949
 30
0.0
 10
125.9272419339007
 20
78.59090603309785
 30
0.0
 10
125.8758034141593
 20
78.15082310610589
 30
0.0
 10
125.7212509053152
 20
77.49573778863645
 30
0.0
 10
125.6575475193334
 20
77.27821531525875
 30
0.0
 10
125.5096251735766
 20
76.85346592810563
 30
0.0
 10
125.4256416030816
 20
76.64654976406032
 30
0.0
 10
125.1446846249154
 20
76.03962723926999
 30
0.0
 10
124.9176692224519
 20
75.65221564213992
 30
0.0
 10
124.3916380372879
 20
74.92259366454229
 30
0.0
 10
124.0946741068049
 20
74.58340721476722
 30
0.0
 10
123.445644248999
 20
73.96792406551431
 30
0.0
 10
123.092817016348
 20
73.6905591121588
 30
0.0
 10
122.3375777311905
 20
73.20159903433202
 30
0.0
 10
121.9317851533409
 20
72.98722652361819
 30
0.0
 10
121.5019526098165
 20
72.81562359603355
 30
0.0
  0
SPLINE
  5
153
330
1F
100
AcDbEntity
  8
0
  6
Continuous
 62
     7
370
    15
100
AcDbSpline
210
0.0
220
0.0
230
1.0
 70
     8
 71
     3
 72
    20
 73
    16
 74
     0
 42
0.00000001
 43
0.00000001
 12
1.0
 22
0.0
 32
0.0
 13
1.0
 23
0.0
 33
0.0
 40
0.0
 40
0.0
 40
0.0
 40
0.0
 40
0.1250000000000009
 40
0.1250000000000009
 40
0.1875000000000007
 40
0.1875000000000007
 40
0.2500000000000004
 40
0.2500000000000004
 40
0.3125000000000002
 40
0.3125000000000002
 40
0.375
 40
0.375
 40
0.5
 40
0.5
 40
1.0
 40
1.0
 40
1.0
 40
1.0
 10
98.35614236855149
 20
74.01863113053489
 30
0.0
 10
98.72702021718143
 20
73.86381400086347
 30
0.0
 10
99.09490622186085
 20
73.7576583132862
 30
0.0
 10
99.70203391027948
 20
73.65233384195271
 30
0.0
 10
99.91184951830546
 20
73.62623599207657
 30
0.0
 10
100.3435505611288
 20
73.58996320436529
 30
0.0
 10
100.5639164988093
 20
73.58018531532764
 30
0.0
 10
101.0250401976763
 20
73.57068853602513
 30
0.0
 10
101.2656815203411
 20
73.57102098002393
 30
0.0
 10
101.7655085318133
 20
73.571986299698
 30
0.0
 10
102.0249424116863
 20
73.5713910540772
 30
0.0
 10
102.7852701009236
 20
73.56427024238391
 30
0.0
 10
103.2804356636978
 20
73.55543392187855
 30
0.0
 10
105.7384692345749
 20
73.53035327612852
 30
0.0
 10
107.7153930944598
 20
73.54544120497958
 30
0.0
 10
109.6987871039656
 20
73.54543504754093
 30
0.0
  0
SPLINE
  5
154
330
1F
100
AcDbEntity
  8
0
  6
Continuous
 62
     7
370
    15
100
AcDbSpline
210
0.0
220
0.0
230
1.0
 70
     8
 71
     3
 72
    20
 73
    16
 74
     0
 42
0.00000001
 43
0.00000001
 12
1.0
 22
0.0
 32
0.0
 13
1.0
 23
0.0
 33
0.0
 40
0.0
 40
0.0
 40
0.0
 40
0.0
 40
0.5000000000000007
 40
0.5000000000000007
 40
0.6250000000000007
 40
0.6250000000000007
 40
0.6875000000000009
 40
0.6875000000000009
 40
0.750000000000001
 40
0.750000000000001
 40
0.8125000000000011
 40
0.8125000000000011
 40
0.8750000000000011
 40
0.8750000000000011
 40
1.0
 40
1.0
 40
1.0
 40
1.0
 10
109.7014112187846
 20
73.54543504727005
 30
0.0
 10
111.6833117759303
 20
73.54544079132432
 30
0.0
 10
113.6626406017857
 20
73.53073224390133
 30
0.0
 10
116.1194287794121
 20
73.55550261623672
 30
0.0
 10
116.6151332695686
 20
73.56416761510667
 30
0.0
 10
117.3755140509492
 20
73.57102351200679
 30
0.0
 10
117.6347001445545
 20
73.5715044348998
 30
0.0
 10
118.1338211584681
 20
73.57025503190725
 30
0.0
 10
118.3739836758985
 20
73.56973052932753
 30
0.0
 10
118.8356232527446
 20
73.5789416004503
 30
0.0
 10
119.0562227660606
 20
73.58866232505254
 30
0.0
 10
119.4876989481007
 20
73.62497176058413
 30
0.0
 10
119.6971626838508
 20
73.65114743059684
 30
0.0
 10
120.3037242132181
 20
73.75677494214291
 30
0.0
 10
120.6725785358552
 20
73.86343616698358
 30
0.0
 10
121.0437602725419
 20
74.01852685376944
 30
0.0
  0
SPLINE
  5
155
330
1F
100
AcDbEntity
  8
0
  6
Continuous
 62
     7
370
    15
100
AcDbSpline
210
0.0
220
0.0
230
1.0
 70
     8
 71
     3
 72
    18
 73
    14
 74
     0
 42
0.00000001
 43
0.00000001
 12
1.0
 22
0.0
 32
0.0
 13
1.0
 23
0.0
 33
0.0
 40
0.0
 40
0.0
 40
0.0
 40
0.0
 40
0.5000000000000003
 40
0.5000000000000003
 40
0.6250000000000007
 40
0.6250000000000007
 40
0.6875000000000007
 40
0.6875000000000007
 40
0.7500000000000008
 40
0.7500000000000008
 40
0.8750000000000003
 40
0.8750000000000003
 40
1.0
 40
1.0
 40
1.0
 40
1.0
 10
109.6986497119711
 20
72.33075754482049
 30
0.0
 10
107.7229913353152
 20
72.33076730709628
 30
0.0
 10
105.7450247988455
 20
72.31408811709395
 30
0.0
 10
103.2754886626585
 20
72.32794298306771
 30
0.0
 10
102.7807075449379
 20
72.33371233339209
 30
0.0
 10
102.0400786827455
 20
72.33393811048458
 30
0.0
 10
101.7941407176749
 20
72.3319709637322
 30
0.0
 10
101.2999585571303
 20
72.32535663351835
 30
0.0
 10
101.0517417830846
 20
72.32172228749661
 30
0.0
 10
100.3085823931472
 20
72.32660326403301
 30
0.0
 10
99.80945837297851
 20
72.35407500842392
 30
0.0
 10
98.83584371985859
 20
72.50534970226394
 30
0.0
 10
98.35819653223665
 20
72.63188899826062
 30
0.0
 10
97.89796500428072
 20
72.81563041919925
 30
0.0
  0
SPLINE
  5
156
330
1F
100
AcDbEntity
  8
0
  6
Continuous
 62
     7
370
    15
100
AcDbSpline
210
0.0
220
0.0
230
1.0
 70
     8
 71
     3
 72
    18
 73
    14
 74
     0
 42
0.00000001
 43
0.00000001
 12
1.0
 22
0.0
 32
0.0
 13
1.0
 23
0.0
 33
0.0
 40
0.0
 40
0.0
 40
0.0
 40
0.0
 40
0.1250000000000001
 40
0.1250000000000001
 40
0.2500000000000002
 40
0.2500000000000002
 40
0.3125000000000001
 40
0.3125000000000001
 40
0.375
 40
0.375
 40
0.5
 40
0.5
 40
1.0
 40
1.0
 40
1.0
 40
1.0
 10
121.5019525697588
 20
72.81562542160938
 30
0.0
 10
121.0418636294715
 20
72.63194214520888
 30
0.0
 10
120.5633630375897
 20
72.50521314464542
 30
0.0
 10
119.5907036029344
 20
72.35410455192046
 30
0.0
 10
119.0915137972235
 20
72.32655829191408
 30
0.0
 10
118.3472130208022
 20
72.32169256565719
 30
0.0
 10
118.0995078476006
 20
72.3253316063075
 30
0.0
 10
117.6059869566629
 20
72.33193652316744
 30
0.0
 10
117.3602540868981
 20
72.33390573951019
 30
0.0
 10
116.6193994604433
 20
72.33368601104978
 30
0.0
 10
116.1238937883833
 20
72.32791493449947
 30
0.0
 10
113.6559129047476
 20
72.31409112093401
 30
0.0
 10
111.6758102126444
 20
72.33075637443947
 30
0.0
 10
109.7012799605447
 20
72.33075753759363
 30
0.0
  0
SPLINE
  5
157
330
1F
100
AcDbEntity
  8
0
  6
Continuous
 62
     8
370
    15
100
AcDbSpline
210
0.0
220
0.0
230
1.0
 70
     8
 71
     3
 72
     9
 73
     5
 74
     0
 42
0.00000001
 43
0.00000001
 12
1.0
 22
0.0
 32
0.0
 13
1.0
 23
0.0
 33
0.0
 40
0.0
 40
0.0
 40
0.0
 40
0.0
 40
0.6256964395819712
 40
1.0
 40
1.0
 40
1.0
 40
1.0
 10
93.84836145645576
 20
239.4817337663635
 30
0.0
 10
94.98583034364836
 20
238.6092078248731
 30
0.0
 10
96.80375484383018
 20
237.2147202006934
 30
0.0
 10
98.91115678602931
 20
236.3294284899387
 30
0.0
 10
99.69996483622633
 20
235.9980606505947
 30
0.0
  0
SPLINE
  5
158
330
1F
100
AcDbEntity
  8
0
  6
Continuous
 62
     8
370
    15
100
AcDbSpline
210
0.0
220
0.0
230
1.0
 70
     8
 71
     3
 72
     9
 73
     5
 74
     0
 42
0.00000001
 43
0.00000001
 12
1.0
 22
0.0
 32
0.0
 13
1.0
 23
0.0
 33
0.0
 40
0.0
 40
0.0
 40
0.0
 40
0.0
 40
0.3702998079467893
 40
1.0
 40
1.0
 40
1.0
 40
1.0
 10
119.6999648362263
 20
235.9972951580899
 30
0.0
 10
120.4804568590097
 20
236.3248599956328
 30
0.0
 10
122.5881868821791
 20
237.2094535884818
 30
0.0
 10
124.4065557554171
 20
238.60375439199
 30
0.0
 10
125.5515829841186
 20
239.4817458757391
 30
0.0
  0
SPLINE
  5
159
330
1F
100
AcDbEntity
  8
0
  6
Continuous
 62
     8
370
    15
100
AcDbSpline
210
0.0
220
0.0
230
1.0
 70
     8
 71
     3
 72
     9
 73
     5
 74
     0
 42
0.00000001
 43
0.00000001
 12
1.0
 22
0.0
 32
0.0
 13
1.0
 23
0.0
 33
0.0
 40
0.0
 40
0.0
 40
0.0
 40
0.0
 40
0.699030326207647
 40
1.0
 40
1.0
 40
1.0
 40
1.0
 10
91.99049200988362
 20
241.1679366959857
 30
0.0
 10
91.92363411633232
 20
242.6766701581801
 30
0.0
 10
91.82799034946741
 20
244.8349934892715
 30
0.0
 10
90.98841470146671
 20
246.8046111483528
 30
0.0
 10
90.73572789256394
 20
247.3974063327022
 30
0.0
  0
SPLINE
  5
15A
330
1F
100
AcDbEntity
  8
0
  6
Continuous
 62
     8
370
    15
100
AcDbSpline
210
0.0
220
0.0
230
1.0
 70
     8
 71
     3
 72
     9
 73
     5
 74
     0
 42
0.00000001
 43
0.00000001
 12
1.0
 22
0.0
 32
0.0
 13
1.0
 23
0.0
 33
0.0
 40
0.0
 40
0.0
 40
0.0
 40
0.0
 40
0.0044850449357896
 40
1.0
 40
1.0
 40
1.0
 40
1.0
 10
127.5524884760794
 20
241.1679366952078
 30
0.0
 10
127.5526998149332
 20
241.1679366416574
 30
0.0
 10
127.5998206034401
 20
241.1679247018845
 30
0.0
 10
127.5044150269881
 20
241.1679129245385
 30
0.0
 10
127.4094373488336
 20
241.1679012000145
 30
0.0
  0
SPLINE
  5
15B
330
1F
100
AcDbEntity
  8
0
  6
Continuous
 62
     8
370
    15
100
AcDbSpline
210
0.0
220
0.0
230
1.0
 70
     8
 71
     3
 72
     9
 73
     5
 74
     0
 42
0.00000001
 43
0.00000001
 12
1.0
 22
0.0
 32
0.0
 13
1.0
 23
0.0
 33
0.0
 40
0.0
 40
0.0
 40
0.0
 40
0.0
 40
0.9953486827148861
 40
0.9999999999999999
 40
0.9999999999999999
 40
0.9999999999999999
 40
0.9999999999999999
 10
91.99049232361904
 20
241.1679012000145
 30
0.0
 10
91.89552250943325
 20
241.1679129245475
 30
0.0
 10
91.80010889625925
 20
241.1679247038699
 30
0.0
 10
91.84724545698062
 20
241.1679366456463
 30
0.0
 10
91.84746470408025
 20
241.1679367011913
 30
0.0
  0
LINE
  5
15C
330
1F
100
AcDbEntity
  8
0
  6
Continuous
 62
     8
370
    15
100
AcDbLine
 10
109.6981285508
 20
72.2710398407
 30
0.0
 11
109.6986497122
 21
72.330757574
 31
0.0
  0
ENDSEC
  0
SECTION
  2
OBJECTS
  0
DICTIONARY
  5
C
330
0
100
AcDbDictionary
281
     1
  3
ACAD_GROUP
350
D
  3
ACAD_LAYOUT
350
1A
  3
ACAD_MATERIAL
350
3B
  3
ACAD_MLEADERSTYLE
350
15E
  3
ACAD_MLINESTYLE
350
17
  3
ACAD_PLOTSETTINGS
350
19
  3
ACAD_PLOTSTYLENAME
350
E
  3
ACAD_TABLESTYLE
350
15D
  3
ACAD_VISUALSTYLE
350
2A
  0
DICTIONARY
  5
D
102
{ACAD_REACTORS
330
C
102
}
330
C
100
AcDbDictionary
281
     1
  0
DICTIONARY
  5
1A
102
{ACAD_REACTORS
330
C
102
}
330
C
100
AcDbDictionary
281
     1
  3
Layout1
350
1E
  3
Layout2
350
26
  3
Model
350
22
  0
DICTIONARY
  5
3B
102
{ACAD_REACTORS
330
C
102
}
330
C
100
AcDbDictionary
281
     1
  3
ByBlock
350
3D
  3
ByLayer
350
3C
  3
Global
350
3E
  0
DICTIONARY
  5
15E
102
{ACAD_REACTORS
330
C
102
}
330
C
100
AcDbDictionary
281
     1
  0
DICTIONARY
  5
17
102
{ACAD_REACTORS
330
C
102
}
330
C
100
AcDbDictionary
281
     1
  3
Standard
350
18
  0
DICTIONARY
  5
19
102
{ACAD_REACTORS
330
C
102
}
330
C
100
AcDbDictionary
281
     1
  0
ACDBDICTIONARYWDFLT
  5
E
102
{ACAD_REACTORS
330
C
102
}
330
C
100
AcDbDictionary
281
     1
  3
Normal
350
F
100
AcDbDictionaryWithDefault
340
F
  0
DICTIONARY
  5
15D
102
{ACAD_REACTORS
330
C
102
}
330
C
100
AcDbDictionary
281
     1
  0
DICTIONARY
  5
2A
102
{ACAD_REACTORS
330
C
102
}
330
C
100
AcDbDictionary
281
     1
  3
2dWireframe
350
2F
  3
3D Hidden
350
31
  3
3dWireframe
350
30
  3
Basic
350
32
  3
Brighten
350
36
  3
ColorChange
350
3A
  3
Conceptual
350
34
  3
Dim
350
35
  3
Facepattern
350
39
  3
Flat
350
2B
  3
FlatWithEdges
350
2C
  3
Gouraud
350
2D
  3
GouraudWithEdges
350
2E
  3
Linepattern
350
38
  3
Realistic
350
33
  3
Thicken
350
37
  0
LAYOUT
  5
1E
102
{ACAD_REACTORS
330
1A
102
}
330
1A
100
AcDbPlotSettings
  1

  2
none_device
  4

  6

 40
0.0
 41
0.0
 42
0.0
 43
0.0
 44
0.0
 45
0.0
 46
0.0
 47
0.0
 48
0.0
 49
0.0
140
0.0
141
0.0
142
1.0
143
1.0
 70
   688
 72
     0
 73
     0
 74
     5
  7

 75
    16
 76
     0
 77
     2
 78
   300
147
1.0
148
0.0
149
0.0
100
AcDbLayout
  1
Layout1
 70
     1
 71
     1
 10
0.0
 20
0.0
 11
420.0
 21
297.0
 12
0.0
 22
0.0
 32
0.0
 14
1.0000000000E+20
 24
1.0000000000E+20
 34
1.0000000000E+20
 15
-1.0000000000E+20
 25
-1.0000000000E+20
 35
-1.0000000000E+20
146
0.0
 13
0.0
 23
0.0
 33
0.0
 16
1.0
 26
0.0
 36
0.0
 17
0.0
 27
1.0
 37
0.0
 76
     0
330
1B
  0
LAYOUT
  5
26
102
{ACAD_REACTORS
330
1A
102
}
330
1A
100
AcDbPlotSettings
  1

  2
none_device
  4

  6

 40
0.0
 41
0.0
 42
0.0
 43
0.0
 44
0.0
 45
0.0
 46
0.0
 47
0.0
 48
0.0
 49
0.0
140
0.0
141
0.0
142
1.0
143
1.0
 70
   688
 72
     0
 73
     0
 74
     5
  7

 75
    16
 76
     0
 77
     2
 78
   300
147
1.0
148
0.0
149
0.0
100
AcDbLayout
  1
Layout2
 70
     1
 71
     2
 10
0.0
 20
0.0
 11
0.0
 21
0.0
 12
0.0
 22
0.0
 32
0.0
 14
0.0
 24
0.0
 34
0.0
 15
0.0
 25
0.0
 35
0.0
146
0.0
 13
0.0
 23
0.0
 33
0.0
 16
1.0
 26
0.0
 36
0.0
 17
0.0
 27
1.0
 37
0.0
 76
     0
330
23
  0
LAYOUT
  5
22
102
{ACAD_REACTORS
330
1A
102
}
330
1A
100
AcDbPlotSettings
  1

  2
none_device
  4

  6

 40
0.0
 41
0.0
 42
0.0
 43
0.0
 44
0.0
 45
0.0
 46
0.0
 47
0.0
 48
0.0
 49
0.0
140
0.0
141
0.0
142
1.0
143
1.0
 70
  1712
 72
     0
 73
     0
 74
     0
  7

 75
     0
 76
     0
 77
     2
 78
   300
147
1.0
148
0.0
149
0.0
100
AcDbLayout
  1
Model
 70
     1
 71
     0
 10
0.0
 20
0.0
 11
594.0
 21
841.0
 12
0.0
 22
0.0
 32
0.0
 14
0.0
 24
0.0
 34
0.0
 15
594.0
 25
841.0
 35
0.0
146
0.0
 13
0.0
 23
0.0
 33
0.0
 16
1.0
 26
0.0
 36
0.0
 17
0.0
 27
1.0
 37
0.0
 76
     0
330
1F
331
29
  0
MATERIAL
  5
3D
102
{ACAD_REACTORS
330
3B
102
}
330
3B
100
AcDbMaterial
  1
ByBlock
 72
     1
 94
      127
  0
MATERIAL
  5
3C
102
{ACAD_REACTORS
330
3B
102
}
330
3B
100
AcDbMaterial
  1
ByLayer
 72
     1
 94
      127
  0
MATERIAL
  5
3E
102
{ACAD_REACTORS
330
3B
102
}
330
3B
100
AcDbMaterial
  1
Global
 72
     1
 94
      127
  0
MLINESTYLE
  5
18
102
{ACAD_REACTORS
330
17
102
}
330
17
100
AcDbMlineStyle
  2
Standard
 70
     0
  3

 62
   256
 51
90.0
 52
90.0
 71
     2
 49
0.5
 62
   256
  6
BYLAYER
 49
-0.5
 62
   256
  6
BYLAYER
  0
ACDBPLACEHOLDER
  5
F
102
{ACAD_REACTORS
330
E
102
}
330
E
  0
VISUALSTYLE
  5
2F
102
{ACAD_REACTORS
330
2A
102
}
330
2A
100
AcDbVisualStyle
  2
2dWireframe
 70
     4
177
     2
291
     0
 71
     0
176
     1
 72
     2
176
     1
 73
     0
176
     1
 90
        0
176
     1
 40
-0.6
176
     1
 41
-30.0
176
     1
 62
     5
 63
     7
421
 16777215
176
     1
 74
     1
176
     1
 91
        4
176
     1
 64
     7
176
     1
 65
   257
176
     1
 75
     1
176
     1
175
     1
176
     1
 42
1.0
176
     1
 92
        0
176
     1
 66
   257
176
     1
 43
1.0
176
     1
 76
     1
176
     1
 77
     6
176
     1
 78
     2
176
     1
 67
     7
176
     1
 79
     5
176
     1
170
     0
176
     1
171
     0
176
     1
290
     0
176
     1
 93
        1
176
     1
 44
0.0
176
     1
173
     0
176
     1
  0
VISUALSTYLE
  5
31
102
{ACAD_REACTORS
330
2A
102
}
330
2A
100
AcDbVisualStyle
  2
3D Hidden
 70
     6
177
     2
291
     0
 71
     1
176
     1
 72
     2
176
     1
 73
     2
176
     1
 90
        0
176
     1
 40
-0.6
176
     1
 41
-30.0
176
     1
 62
     5
 63
     7
421
 16777215
176
     1
 74
     2
176
     1
 91
        2
176
     1
 64
     7
176
     1
 65
   257
176
     1
 75
     2
176
     1
175
     1
176
     1
 42
40.0
176
     1
 92
        0
176
     1
 66
   257
176
     1
 43
1.0
176
     1
 76
     1
176
     1
 77
     6
176
     1
 78
     2
176
     1
 67
     7
176
     1
 79
     3
176
     1
170
     0
176
     1
171
     0
176
     1
290
     0
176
     1
 93
        1
176
     1
 44
0.0
176
     1
173
     0
176
     1
  0
VISUALSTYLE
  5
30
102
{ACAD_REACTORS
330
2A
102
}
330
2A
100
AcDbVisualStyle
  2
3dWireframe
 70
     5
177
     2
291
     0
 71
     0
176
     1
 72
     2
176
     1
 73
     0
176
     1
 90
        0
176
     1
 40
-0.6
176
     1
 41
-30.0
176
     1
 62
     5
 63
     7
421
 16777215
176
     1
 74
     1
176
     1
 91
        4
176
     1
 64
     7
176
     1
 65
   257
176
     1
 75
     1
176
     1
175
     1
176
     1
 42
1.0
176
     1
 92
        0
176
     1
 66
   257
176
     1
 43
1.0
176
     1
 76
     1
176
     1
 77
     6
176
     1
 78
     2
176
     1
 67
     7
176
     1
 79
     5
176
     1
170
     0
176
     1
171
     0
176
     1
290
     0
176
     1
 93
        1
176
     1
 44
0.0
176
     1
173
     0
176
     1
  0
VISUALSTYLE
  5
32
102
{ACAD_REACTORS
330
2A
102
}
330
2A
100
AcDbVisualStyle
  2
Basic
 70
     7
177
     2
291
     1
 71
     1
176
     1
 72
     0
176
     1
 73
     1
176
     1
 90
        0
176
     1
 40
-0.6
176
     1
 41
-30.0
176
     1
 62
     5
 63
     7
421
 16777215
176
     1
 74
     0
176
     1
 91
        4
176
     1
 64
     7
176
     1
 65
   257
176
     1
 75
     1
176
     1
175
     1
176
     1
 42
1.0
176
     1
 92
        8
176
     1
 66
     7
176
     1
 43
1.0
176
     1
 76
     1
176
     1
 77
     6
176
     1
 78
     2
176
     1
 67
     7
176
     1
 79
     5
176
     1
170
     0
176
     1
171
     0
176
     1
290
     0
176
     1
 93
        1
176
     1
 44
0.0
176
     1
173
     0
176
     1
  0
VISUALSTYLE
  5
36
102
{ACAD_REACTORS
330
2A
102
}
330
2A
100
AcDbVisualStyle
  2
Brighten
 70
    12
177
     2
291
     1
 71
     2
176
     1
 72
     2
176
     1
 73
     0
176
     1
 90
        0
176
     1
 40
-0.6
176
     1
 41
-30.0
176
     1
 62
     5
 63
     7
421
 16777215
176
     1
 74
     1
176
     1
 91
        4
176
     1
 64
     7
176
     1
 65
   257
176
     1
 75
     1
176
     1
175
     1
176
     1
 42
1.0
176
     1
 92
        8
176
     1
 66
     7
176
     1
 43
1.0
176
     1
 76
     1
176
     1
 77
     6
176
     1
 78
     2
176
     1
 67
     7
176
     1
 79
     5
176
     1
170
     0
176
     1
171
     0
176
     1
290
     0
176
     1
 93
        1
176
     1
 44
50.0
176
     1
173
     0
176
     1
  0
VISUALSTYLE
  5
3A
102
{ACAD_REACTORS
330
2A
102
}
330
2A
100
AcDbVisualStyle
  2
ColorChange
 70
    16
177
     2
291
     1
 71
     2
176
     1
 72
     2
176
     1
 73
     3
176
     1
 90
        0
176
     1
 40
-0.6
176
     1
 41
-30.0
176
     1
 62
     5
 63
     8
421
  8421504
176
     1
 74
     1
176
     1
 91
        4
176
     1
 64
     7
176
     1
 65
   257
176
     1
 75
     1
176
     1
175
     1
176
     1
 42
1.0
176
     1
 92
        8
176
     1
 66
     8
424
  8421504
176
     1
 43
1.0
176
     1
 76
     1
176
     1
 77
     6
176
     1
 78
     2
176
     1
 67
     7
176
     1
 79
     5
176
     1
170
     0
176
     1
171
     0
176
     1
290
     0
176
     1
 93
        1
176
     1
 44
0.0
176
     1
173
     0
176
     1
  0
VISUALSTYLE
  5
34
102
{ACAD_REACTORS
330
2A
102
}
330
2A
100
AcDbVisualStyle
  2
Conceptual
 70
     9
177
     2
291
     0
 71
     3
176
     1
 72
     2
176
     1
 73
     0
176
     1
 90
        0
176
     1
 40
-0.6
176
     1
 41
-30.0
176
     1
 62
     5
 63
     7
421
 16777215
176
     1
 74
     2
176
     1
 91
        2
176
     1
 64
     7
176
     1
 65
   257
176
     1
 75
     1
176
     1
175
     1
176
     1
 42
40.0
176
     1
 92
        8
176
     1
 66
     7
176
     1
 43
1.0
176
     1
 76
     1
176
     1
 77
     6
176
     1
 78
     2
176
     1
 67
     7
176
     1
 79
     3
176
     1
170
     0
176
     1
171
     0
176
     1
290
     0
176
     1
 93
        1
176
     1
 44
0.0
176
     1
173
     0
176
     1
  0
VISUALSTYLE
  5
35
102
{ACAD_REACTORS
330
2A
102
}
330
2A
100
AcDbVisualStyle
  2
Dim
 70
    11
177
     2
291
     1
 71
     2
176
     1
 72
     2
176
     1
 73
     0
176
     1
 90
        0
176
     1
 40
-0.6
176
     1
 41
-30.0
176
     1
 62
     5
 63
     7
421
 16777215
176
     1
 74
     1
176
     1
 91
        4
176
     1
 64
     7
176
     1
 65
   257
176
     1
 75
     1
176
     1
175
     1
176
     1
 42
1.0
176
     1
 92
        8
176
     1
 66
     7
176
     1
 43
1.0
176
     1
 76
     1
176
     1
 77
     6
176
     1
 78
     2
176
     1
 67
     7
176
     1
 79
     5
176
     1
170
     0
176
     1
171
     0
176
     1
290
     0
176
     1
 93
        1
176
     1
 44
-50.0
176
     1
173
     0
176
     1
  0
VISUALSTYLE
  5
39
102
{ACAD_REACTORS
330
2A
102
}
330
2A
100
AcDbVisualStyle
  2
Facepattern
 70
    15
177
     2
291
     1
 71
     2
176
     1
 72
     2
176
     1
 73
     0
176
     1
 90
        0
176
     1
 40
-0.6
176
     1
 41
-30.0
176
     1
 62
     5
 63
     7
421
 16777215
176
     1
 74
     1
176
     1
 91
        4
176
     1
 64
     7
176
     1
 65
   257
176
     1
 75
     1
176
     1
175
     1
176
     1
 42
1.0
176
     1
 92
        8
176
     1
 66
     7
176
     1
 43
1.0
176
     1
 76
     1
176
     1
 77
     6
176
     1
 78
     2
176
     1
 67
     7
176
     1
 79
     5
176
     1
170
     0
176
     1
171
     0
176
     1
290
     0
176
     1
 93
        1
176
     1
 44
0.0
176
     1
173
     0
176
     1
  0
VISUALSTYLE
  5
2B
102
{ACAD_REACTORS
330
2A
102
}
330
2A
100
AcDbVisualStyle
  2
Flat
 70
     0
177
     2
291
     1
 71
     2
176
     1
 72
     1
176
     1
 73
     1
176
     1
 90
        2
176
     1
 40
-0.6
176
     1
 41
30.0
176
     1
 62
     5
 63
     7
421
 16777215
176
     1
 74
     0
176
     1
 91
        4
176
     1
 64
     7
176
     1
 65
   257
176
     1
 75
     1
176
     1
175
     1
176
     1
 42
1.0
176
     1
 92
        8
176
     1
 66
     7
176
     1
 43
1.0
176
     1
 76
     1
176
     1
 77
     6
176
     1
 78
     2
176
     1
 67
     7
176
     1
 79
     5
176
     1
170
     0
176
     1
171
     0
176
     1
290
     0
176
     1
 93
       13
176
     1
 44
0.0
176
     1
173
     0
176
     1
  0
VISUALSTYLE
  5
2C
102
{ACAD_REACTORS
330
2A
102
}
330
2A
100
AcDbVisualStyle
  2
FlatWithEdges
 70
     1
177
     2
291
     1
 71
     2
176
     1
 72
     1
176
     1
 73
     1
176
     1
 90
        2
176
     1
 40
-0.6
176
     1
 41
30.0
176
     1
 62
     5
 63
     7
421
 16777215
176
     1
 74
     1
176
     1
 91
        4
176
     1
 64
     7
176
     1
 65
   257
176
     1
 75
     1
176
     1
175
     1
176
     1
 42
1.0
176
     1
 92
        0
176
     1
 66
   257
176
     1
 43
1.0
176
     1
 76
     1
176
     1
 77
     6
176
     1
 78
     2
176
     1
 67
     7
176
     1
 79
     5
176
     1
170
     0
176
     1
171
     0
176
     1
290
     0
176
     1
 93
       13
176
     1
 44
0.0
176
     1
173
     0
176
     1
  0
VISUALSTYLE
  5
2D
102
{ACAD_REACTORS
330
2A
102
}
330
2A
100
AcDbVisualStyle
  2
Gouraud
 70
     2
177
     2
291
     1
 71
     2
176
     1
 72
     2
176
     1
 73
     1
176
     1
 90
        2
176
     1
 40
-0.6
176
     1
 41
30.0
176
     1
 62
     5
 63
     7
421
 16777215
176
     1
 74
     0
176
     1
 91
        4
176
     1
 64
     7
176
     1
 65
   257
176
     1
 75
     1
176
     1
175
     1
176
     1
 42
1.0
176
     1
 92
        0
176
     1
 66
     7
176
     1
 43
1.0
176
     1
 76
     1
176
     1
 77
     6
176
     1
 78
     2
176
     1
 67
     7
176
     1
 79
     5
176
     1
170
     0
176
     1
171
     0
176
     1
290
     0
176
     1
 93
       13
176
     1
 44
0.0
176
     1
173
     0
176
     1
  0
VISUALSTYLE
  5
2E
102
{ACAD_REACTORS
330
2A
102
}
330
2A
100
AcDbVisualStyle
  2
GouraudWithEdges
 70
     3
177
     2
291
     1
 71
     2
176
     1
 72
     2
176
     1
 73
     1
176
     1
 90
        2
176
     1
 40
-0.6
176
     1
 41
30.0
176
     1
 62
     5
 63
     7
421
 16777215
176
     1
 74
     1
176
     1
 91
        4
176
     1
 64
     7
176
     1
 65
   257
176
     1
 75
     1
176
     1
175
     1
176
     1
 42
1.0
176
     1
 92
        0
176
     1
 66
   257
176
     1
 43
1.0
176
     1
 76
     1
176
     1
 77
     6
176
     1
 78
     2
176
     1
 67
     7
176
     1
 79
     5
176
     1
170
     0
176
     1
171
     0
176
     1
290
     0
176
     1
 93
       13
176
     1
 44
0.0
176
     1
173
     0
176
     1
  0
VISUALSTYLE
  5
38
102
{ACAD_REACTORS
330
2A
102
}
330
2A
100
AcDbVisualStyle
  2
Linepattern
 70
    14
177
     2
291
     1
 71
     2
176
     1
 72
     2
176
     1
 73
     0
176
     1
 90
        0
176
     1
 40
-0.6
176
     1
 41
-30.0
176
     1
 62
     5
 63
     7
421
 16777215
176
     1
 74
     1
176
     1
 91
        4
176
     1
 64
     7
176
     1
 65
   257
176
     1
 75
     7
176
     1
175
     7
176
     1
 42
1.0
176
     1
 92
        8
176
     1
 66
     7
176
     1
 43
1.0
176
     1
 76
     1
176
     1
 77
     6
176
     1
 78
     2
176
     1
 67
     7
176
     1
 79
     5
176
     1
170
     0
176
     1
171
     0
176
     1
290
     0
176
     1
 93
        1
176
     1
 44
0.0
176
     1
173
     0
176
     1
  0
VISUALSTYLE
  5
33
102
{ACAD_REACTORS
330
2A
102
}
330
2A
100
AcDbVisualStyle
  2
Realistic
 70
     8
177
     2
291
     0
 71
     2
176
     1
 72
     2
176
     1
 73
     0
176
     1
 90
        0
176
     1
 40
-0.6
176
     1
 41
-30.0
176
     1
 62
     5
 63
     7
421
 16777215
176
     1
 74
     1
176
     1
 91
        0
176
     1
 64
     7
176
     1
 65
   257
176
     1
 75
     1
176
     1
175
     1
176
     1
 42
1.0
176
     1
 92
        8
176
     1
 66
     8
424
  7895160
176
     1
 43
1.0
176
     1
 76
     1
176
     1
 77
     6
176
     1
 78
     2
176
     1
 67
     7
176
     1
 79
     5
176
     1
170
     0
176
     1
171
     0
176
     1
290
     0
176
     1
 93
       13
176
     1
 44
0.0
176
     1
173
     0
176
     1
  0
VISUALSTYLE
  5
37
102
{ACAD_REACTORS
330
2A
102
}
330
2A
100
AcDbVisualStyle
  2
Thicken
 70
    13
177
     2
291
     1
 71
     2
176
     1
 72
     2
176
     1
 73
     0
176
     1
 90
        0
176
     1
 40
-0.6
176
     1
 41
-30.0
176
     1
 62
     5
 63
     7
421
 16777215
176
     1
 74
     1
176
     1
 91
        4
176
     1
 64
     7
176
     1
 65
   257
176
     1
 75
     1
176
     1
175
     1
176
     1
 42
1.0
176
     1
 92
       12
176
     1
 66
     7
176
     1
 43
1.0
176
     1
 76
     1
176
     1
 77
     6
176
     1
 78
     2
176
     1
 67
     7
176
     1
 79
     5
176
     1
170
     0
176
     1
171
     0
176
     1
290
     0
176
     1
 93
        1
176
     1
 44
0.0
176
     1
173
     0
176
     1
  0
ENDSEC
  0
EOF
