  0
SECTION
  2
HEADER
  9
$ACADVER
  1
AC1015
  9
$ACADMAINTVER
 70
     6
  9
$DWGCODEPAGE
  3
ANSI_1252
  9
$INSBASE
 10
0.0
 20
0.0
 30
0.0
  9
$EXTMIN
 10
0.0
 20
0.0
 30
0.0
  9
$EXTMAX
 10
594.0
 20
841.0
 30
0.0
  9
$LIMMIN
 10
0.0
 20
0.0
  9
$LIMMAX
 10
594.0
 20
841.0
  9
$ORTHOMODE
 70
     0
  9
$REGENMODE
 70
     1
  9
$FILLMODE
 70
     1
  9
$QTEXTMODE
 70
     0
  9
$MIRRTEXT
 70
     1
  9
$LTSCALE
 40
1.0
  9
$ATTMODE
 70
     1
  9
$TEXTSIZE
 40
10.0
  9
$TRACEWID
 40
1.0
  9
$TEXTSTYLE
  7
Standard
  9
$CLAYER
  8
0
  9
$CELTYPE
  6
ByLayer
  9
$CECOLOR
 62
   256
  9
$CELTSCALE
 40
1.0
  9
$DISPSILH
 70
     0
  9
$DIMSCALE
 40
1.0
  9
$DIMASZ
 40
2.5
  9
$DIMEXO
 40
0.0
  9
$DIMDLI
 40
3.75
  9
$DIMRND
 40
0.0
  9
$DIMDLE
 40
0.0
  9
$DIMEXE
 40
1.0
  9
$DIMTP
 40
0.0
  9
$DIMTM
 40
0.0
  9
$DIMTXT
 40
3.5
  9
$DIMCEN
 40
2.5
  9
$DIMTSZ
 40
0.0
  9
$DIMTOL
 70
     0
  9
$DIMLIM
 70
     0
  9
$DIMTIH
 70
     1
  9
$DIMTOH
 70
     1
  9
$DIMSE1
 70
     0
  9
$DIMSE2
 70
     0
  9
$DIMTAD
 70
     1
  9
$DIMZIN
 70
     0
  9
$DIMBLK
  1

  9
$DIMASO
 70
     1
  9
$DIMSHO
 70
     1
  9
$DIMPOST
  1

  9
$DIMAPOST
  1

  9
$DIMALT
 70
     0
  9
$DIMALTD
 70
     3
  9
$DIMALTF
 40
0.0393700787
  9
$DIMLFAC
 40
2.0
  9
$DIMTOFL
 70
     1
  9
$DIMTVP
 40
0.0
  9
$DIMTIX
 70
     0
  9
$DIMSOXD
 70
     0
  9
$DIMSAH
 70
     0
  9
$DIMBLK1
  1

  9
$DIMBLK2
  1

  9
$DIMSTYLE
  2
ISO-25
  9
$DIMCLRD
 70
     0
  9
$DIMCLRE
 70
     0
  9
$DIMCLRT
 70
     0
  9
$DIMTFAC
 40
1.0
  9
$DIMGAP
 40
1.5
  9
$DIMJUST
 70
     0
  9
$DIMSD1
 70
     0
  9
$DIMSD2
 70
     0
  9
$DIMTOLJ
 70
     0
  9
$DIMTZIN
 70
     0
  9
$DIMALTZ
 70
     0
  9
$DIMALTTZ
 70
     0
  9
$DIMUPT
 70
     0
  9
$DIMDEC
 70
     2
  9
$DIMTDEC
 70
     2
  9
$DIMALTU
 70
     2
  9
$DIMALTTD
 70
     3
  9
$DIMTXSTY
  7
Standard
  9
$DIMAUNIT
 70
     0
  9
$DIMADEC
 70
     2
  9
$DIMALTRND
 40
0.0
  9
$DIMAZIN
 70
     0
  9
$DIMDSEP
 70
    44
  9
$DIMATFIT
 70
     3
  9
$DIMFRAC
 70
     0
  9
$DIMLDRBLK
  1

  9
$DIMLUNIT
 70
     2
  9
$DIMLWD
 70
    -2
  9
$DIMLWE
 70
    -2
  9
$DIMTMOVE
 70
     0
  9
$LUNITS
 70
     2
  9
$LUPREC
 70
     2
  9
$SKETCHINC
 40
1.0
  9
$FILLETRAD
 40
10.0
  9
$AUNITS
 70
     0
  9
$AUPREC
 70
     2
  9
$MENU
  1
.
  9
$ELEVATION
 40
0.0
  9
$PELEVATION
 40
0.0
  9
$THICKNESS
 40
0.0
  9
$LIMCHECK
 70
     0
  9
$CHAMFERA
 40
0.0
  9
$CHAMFERB
 40
0.0
  9
$CHAMFERC
 40
0.0
  9
$CHAMFERD
 40
0.0
  9
$SKPOLY
 70
     0
  9
$TDCREATE
 40
2457771.536956782
  9
$TDUCREATE
 40
2457771.495290116
  9
$TDUPDATE
 40
2457771.536959317
  9
$TDUUPDATE
 40
2457771.495292651
  9
$TDINDWG
 40
0.0000000116
  9
$TDUSRTIMER
 40
0.0000000116
  9
$USRTIMER
 70
     1
  9
$ANGBASE
 50
0.0
  9
$ANGDIR
 70
     0
  9
$PDMODE
 70
     0
  9
$PDSIZE
 40
-1.0
  9
$PLINEWID
 40
0.0
  9
$SPLFRAME
 70
     0
  9
$SPLINETYPE
 70
     6
  9
$SPLINESEGS
 70
     8
  9
$HANDSEED
  5
24B
  9
$SURFTAB1
 70
     6
  9
$SURFTAB2
 70
     6
  9
$SURFTYPE
 70
     6
  9
$SURFU
 70
     6
  9
$SURFV
 70
     6
  9
$UCSBASE
  2

  9
$UCSNAME
  2

  9
$UCSORG
 10
0.0
 20
0.0
 30
0.0
  9
$UCSXDIR
 10
1.0
 20
0.0
 30
0.0
  9
$UCSYDIR
 10
0.0
 20
1.0
 30
0.0
  9
$UCSORTHOREF
  2

  9
$UCSORTHOVIEW
 70
     0
  9
$UCSORGTOP
 10
0.0
 20
0.0
 30
0.0
  9
$UCSORGBOTTOM
 10
0.0
 20
0.0
 30
0.0
  9
$UCSORGLEFT
 10
0.0
 20
0.0
 30
0.0
  9
$UCSORGRIGHT
 10
0.0
 20
0.0
 30
0.0
  9
$UCSORGFRONT
 10
0.0
 20
0.0
 30
0.0
  9
$UCSORGBACK
 10
0.0
 20
0.0
 30
0.0
  9
$PUCSBASE
  2

  9
$PUCSNAME
  2

  9
$PUCSORG
 10
0.0
 20
0.0
 30
0.0
  9
$PUCSXDIR
 10
1.0
 20
0.0
 30
0.0
  9
$PUCSYDIR
 10
0.0
 20
1.0
 30
0.0
  9
$PUCSORTHOREF
  2

  9
$PUCSORTHOVIEW
 70
     0
  9
$PUCSORGTOP
 10
0.0
 20
0.0
 30
0.0
  9
$PUCSORGBOTTOM
 10
0.0
 20
0.0
 30
0.0
  9
$PUCSORGLEFT
 10
0.0
 20
0.0
 30
0.0
  9
$PUCSORGRIGHT
 10
0.0
 20
0.0
 30
0.0
  9
$PUCSORGFRONT
 10
0.0
 20
0.0
 30
0.0
  9
$PUCSORGBACK
 10
0.0
 20
0.0
 30
0.0
  9
$USERI1
 70
     0
  9
$USERI2
 70
     0
  9
$USERI3
 70
     0
  9
$USERI4
 70
     0
  9
$USERI5
 70
     0
  9
$USERR1
 40
0.0
  9
$USERR2
 40
0.0
  9
$USERR3
 40
0.0
  9
$USERR4
 40
0.0
  9
$USERR5
 40
0.0
  9
$WORLDVIEW
 70
     1
  9
$SHADEDGE
 70
     3
  9
$SHADEDIF
 70
    70
  9
$TILEMODE
 70
     1
  9
$MAXACTVP
 70
    64
  9
$PINSBASE
 10
0.0
 20
0.0
 30
0.0
  9
$PLIMCHECK
 70
     0
  9
$PEXTMIN
 10
1.0000000000E+20
 20
1.0000000000E+20
 30
1.0000000000E+20
  9
$PEXTMAX
 10
-1.0000000000E+20
 20
-1.0000000000E+20
 30
-1.0000000000E+20
  9
$PLIMMIN
 10
0.0
 20
0.0
  9
$PLIMMAX
 10
420.0
 20
297.0
  9
$UNITMODE
 70
     0
  9
$VISRETAIN
 70
     1
  9
$PLINEGEN
 70
     0
  9
$PSLTSCALE
 70
     1
  9
$TREEDEPTH
 70
  3020
  9
$CMLSTYLE
  2
Standard
  9
$CMLJUST
 70
     0
  9
$CMLSCALE
 40
20.0
  9
$PROXYGRAPHICS
 70
     1
  9
$MEASUREMENT
 70
     1
  9
$CELWEIGHT
370
    -1
  9
$ENDCAPS
280
     0
  9
$JOINSTYLE
280
     0
  9
$LWDISPLAY
290
     1
  9
$INSUNITS
 70
     4
  9
$HYPERLINKBASE
  1

  9
$STYLESHEET
  1

  9
$XEDIT
290
     1
  9
$CEPSNTYPE
380
     0
  9
$PSTYLEMODE
290
     1
  9
$FINGERPRINTGUID
  2
{EDDDFA82-DAC4-4EAA-B1D9-3BEAB6533619}
  9
$VERSIONGUID
  2
{FAEB1C32-E019-11D5-929B-00C0DF256EC4}
  9
$EXTNAMES
290
     1
  9
$PSVPSCALE
 40
0.0
  9
$OLESTARTUP
290
     0
  0
ENDSEC
  0
SECTION
  2
CLASSES
  0
CLASS
  1
ACDBDICTIONARYWDFLT
  2
AcDbDictionaryWithDefault
  3
ObjectDBX Classes
 90
        0
280
     0
281
     0
  0
CLASS
  1
VISUALSTYLE
  2
AcDbVisualStyle
  3
ObjectDBX Classes
 90
     4095
280
     0
281
     0
  0
CLASS
  1
MATERIAL
  2
AcDbMaterial
  3
ObjectDBX Classes
 90
     1153
280
     0
281
     0
  0
CLASS
  1
SCALE
  2
AcDbScale
  3
ObjectDBX Classes
 90
     1153
280
     0
281
     0
  0
CLASS
  1
TABLESTYLE
  2
AcDbTableStyle
  3
ObjectDBX Classes
 90
     4095
280
     0
281
     0
  0
CLASS
  1
MLEADERSTYLE
  2
AcDbMLeaderStyle
  3
ACDB_MLEADERSTYLE_CLASS
 90
     4095
280
     0
281
     0
  0
CLASS
  1
SUN
  2
AcDbSun
  3
SCENEOE
 90
     1153
280
     0
281
     0
  0
CLASS
  1
ACDBPLACEHOLDER
  2
AcDbPlaceHolder
  3
ObjectDBX Classes
 90
        0
280
     0
281
     0
  0
CLASS
  1
LAYOUT
  2
AcDbLayout
  3
ObjectDBX Classes
 90
        0
280
     0
281
     0
  0
ENDSEC
  0
SECTION
  2
TABLES
  0
TABLE
  2
VPORT
  5
8
330
0
100
AcDbSymbolTable
 70
     1
  0
VPORT
  5
29
330
8
100
AcDbSymbolTableRecord
100
AcDbViewportTableRecord
  2
*Active
 70
     0
 10
0.0
 20
0.0
 11
1.0
 21
1.0
 12
297.0
 22
420.5
 13
0.0
 23
0.0
 14
10.0
 24
10.0
 15
10.0
 25
10.0
 16
0.0
 26
0.0
 36
1.0
 17
0.0
 27
0.0
 37
0.0
 40
841.0
 41
0.7063020214
 42
50.0
 43
0.0
 44
0.0
 50
0.0
 51
0.0
 71
     0
 72
  2000
 73
     1
 74
     3
 75
     0
 76
     0
 77
     0
 78
     0
281
     0
 65
     1
110
0.0
120
0.0
130
0.0
111
1.0
121
0.0
131
0.0
112
0.0
122
1.0
132
0.0
 79
     0
146
0.0
  0
ENDTAB
  0
TABLE
  2
LTYPE
  5
5
330
0
100
AcDbSymbolTable
 70
     6
  0
LTYPE
  5
14
330
5
100
AcDbSymbolTableRecord
100
AcDbLinetypeTableRecord
  2
ByBlock
 70
     0
  3

 72
    65
 73
     0
 40
0.0
  0
LTYPE
  5
15
330
5
100
AcDbSymbolTableRecord
100
AcDbLinetypeTableRecord
  2
ByLayer
 70
     0
  3

 72
    65
 73
     0
 40
0.0
  0
LTYPE
  5
16
330
5
100
AcDbSymbolTableRecord
100
AcDbLinetypeTableRecord
  2
Continuous
 70
     0
  3
Solid line
 72
    65
 73
     0
 40
0.0
  0
LTYPE
  5
6E
330
5
100
AcDbSymbolTableRecord
100
AcDbLinetypeTableRecord
  2
HIDDEN
 70
     0
  3
Hidden __ __ __ __ __ __ __ __ __ __ __ __ __ __
 72
    65
 73
     2
 40
1.905
 49
1.27
 74
     0
 49
-0.635
 74
     0
  0
LTYPE
  5
6F
330
5
100
AcDbSymbolTableRecord
100
AcDbLinetypeTableRecord
  2
PHANTOM
 70
     0
  3
Phantom ______  __  __  ______  __  __  ______
 72
    65
 73
     6
 40
12.7
 49
6.35
 74
     0
 49
-1.27
 74
     0
 49
1.27
 74
     0
 49
-1.27
 74
     0
 49
1.27
 74
     0
 49
-1.27
 74
     0
  0
LTYPE
  5
70
330
5
100
AcDbSymbolTableRecord
100
AcDbLinetypeTableRecord
  2
CENTER
 70
     0
  3
Center ____ _ ____ _ ____ _ ____ _ ____ _ ____
 72
    65
 73
     4
 40
10.16
 49
6.35
 74
     0
 49
-1.27
 74
     0
 49
1.27
 74
     0
 49
-1.27
 74
     0
  0
LTYPE
  5
71
330
5
100
AcDbSymbolTableRecord
100
AcDbLinetypeTableRecord
  2
CENTERX2
 70
     0
  3
Center (2x) ________  __  ________  __  _____
 72
    65
 73
     4
 40
20.32
 49
12.7
 74
     0
 49
-2.54
 74
     0
 49
2.54
 74
     0
 49
-2.54
 74
     0
  0
LTYPE
  5
72
330
5
100
AcDbSymbolTableRecord
100
AcDbLinetypeTableRecord
  2
DOT2
 70
     0
  3
Dot (.5x) ........................................
 72
    65
 73
     2
 40
0.635
 49
0.0
 74
     0
 49
-0.635
 74
     0
  0
ENDTAB
  0
TABLE
  2
LAYER
  5
2
330
0
100
AcDbSymbolTable
 70
     1
  0
LAYER
  5
10
330
2
100
AcDbSymbolTableRecord
100
AcDbLayerTableRecord
  2
0
 70
     0
 62
     7
  6
Continuous
370
    -3
390
F
  0
ENDTAB
  0
TABLE
  2
STYLE
  5
3
330
0
100
AcDbSymbolTable
 70
     3
  0
STYLE
  5
11
330
3
100
AcDbSymbolTableRecord
100
AcDbTextStyleTableRecord
  2
Standard
 70
     0
 40
0.0
 41
1.0
 50
0.0
 71
     0
 42
10.0
  3
txt
  4

  0
STYLE
  5
76
330
3
100
AcDbSymbolTableRecord
100
AcDbTextStyleTableRecord
  2
SLDTEXTSTYLE0
 70
     0
 40
0.0
 41
0.96
 50
0.0
 71
     0
 42
10.0
  3
ISOCP3
  4

  0
STYLE
  5
8D
330
3
100
AcDbSymbolTableRecord
100
AcDbTextStyleTableRecord
  2
SLDTEXTSTYLE1
 70
     0
 40
0.0
 41
0.605
 50
0.0
 71
     0
 42
10.0
  3
TXT
  4

  0
ENDTAB
  0
TABLE
  2
VIEW
  5
6
330
0
100
AcDbSymbolTable
 70
     0
  0
ENDTAB
  0
TABLE
  2
UCS
  5
7
330
0
100
AcDbSymbolTable
 70
     0
  0
ENDTAB
  0
TABLE
  2
APPID
  5
9
330
0
100
AcDbSymbolTable
 70
     1
  0
APPID
  5
12
330
9
100
AcDbSymbolTableRecord
100
AcDbRegAppTableRecord
  2
ACAD
 70
     0
  0
ENDTAB
  0
TABLE
  2
DIMSTYLE
  5
A
330
0
100
AcDbSymbolTable
 70
     2
100
AcDbDimStyleTable
  0
DIMSTYLE
105
27
330
A
100
AcDbSymbolTableRecord
100
AcDbDimStyleTableRecord
  2
ISO-25
 70
     0
 41
2.5
 42
0.625
 43
3.75
 44
1.25
 73
     0
 74
     0
 77
     1
 78
     8
140
2.5
141
2.5
143
0.0393700787
147
0.625
171
     3
172
     1
178
     0
271
     2
272
     2
274
     3
278
    44
283
     0
284
     8
340
11
  0
DIMSTYLE
105
77
102
{ACAD_REACTORS
330
75
330
82
102
}
330
A
100
AcDbSymbolTableRecord
100
AcDbDimStyleTableRecord
  2
SLDDIMSTYLE0
 70
     0
 41
2.5
 44
0.0
 45
0.000000001
 73
     0
 74
     0
 77
     1
 78
    12
 79
     3
140
6.0
144
2.0
147
1.5
173
     1
178
     0
271
     2
272
     2
276
     2
284
    12
340
76
  0
ENDTAB
  0
TABLE
  2
BLOCK_RECORD
  5
1
330
0
100
AcDbSymbolTable
 70
     3
  0
BLOCK_RECORD
  5
1F
330
1
100
AcDbSymbolTableRecord
100
AcDbBlockTableRecord
  2
*Model_Space
340
22
  0
BLOCK_RECORD
  5
1B
330
1
100
AcDbSymbolTableRecord
100
AcDbBlockTableRecord
  2
*Paper_Space
340
1E
  0
BLOCK_RECORD
  5
23
330
1
100
AcDbSymbolTableRecord
100
AcDbBlockTableRecord
  2
*Paper_Space0
340
26
  0
BLOCK_RECORD
  5
78
330
1
100
AcDbSymbolTableRecord
100
AcDbBlockTableRecord
  2
_D
340
0
  0
BLOCK_RECORD
  5
83
330
1
100
AcDbSymbolTableRecord
100
AcDbBlockTableRecord
  2
_D_1
340
0
  0
ENDTAB
  0
ENDSEC
  0
SECTION
  2
BLOCKS
  0
BLOCK
  5
20
330
1F
100
AcDbEntity
  8
0
100
AcDbBlockBegin
  2
*Model_Space
 70
     0
 10
0.0
 20
0.0
 30
0.0
  3
*Model_Space
  1

  0
ENDBLK
  5
21
330
1F
100
AcDbEntity
  8
0
100
AcDbBlockEnd
  0
BLOCK
  5
1C
330
1B
100
AcDbEntity
 67
     1
  8
0
100
AcDbBlockBegin
  2
*Paper_Space
 70
     0
 10
0.0
 20
0.0
 30
0.0
  3
*Paper_Space
  1

  0
ENDBLK
  5
1D
330
1B
100
AcDbEntity
 67
     1
  8
0
100
AcDbBlockEnd
  0
BLOCK
  5
24
330
23
100
AcDbEntity
  8
0
100
AcDbBlockBegin
  2
*Paper_Space0
 70
     0
 10
0.0
 20
0.0
 30
0.0
  3
*Paper_Space0
  1

  0
ENDBLK
  5
25
330
23
100
AcDbEntity
  8
0
100
AcDbBlockEnd
  0
BLOCK
  5
79
330
78
100
AcDbEntity
  8
0
100
AcDbBlockBegin
  2
_D
 70
     0
 10
0.0
 20
0.0
 30
0.0
  3
_D
  1

  0
SOLID
  5
7B
330
78
100
AcDbEntity
  8
0
  6
Continuous
 62
     7
370
    18
100
AcDbTrace
 10
42.7614395004
 20
152.0299240879
 30
0.0
 11
42.4614395004
 21
149.5299240879
 31
0.0
 12
43.0614395004
 22
149.5299240879
 32
0.0
 13
43.0614395004
 23
149.5299240879
 33
0.0
  0
SOLID
  5
7C
330
78
100
AcDbEntity
  8
0
  6
Continuous
 62
     7
370
    18
100
AcDbTrace
 10
42.7614395004
 20
52.0299240879
 30
0.0
 11
43.0614395004
 21
54.5299240879
 31
0.0
 12
42.4614395004
 22
54.5299240879
 32
0.0
 13
42.4614395004
 23
54.5299240879
 33
0.0
  0
LINE
  5
7D
330
78
100
AcDbEntity
  8
0
  6
Continuous
 62
     7
370
    18
100
AcDbLine
 10
56.6850079902
 20
152.0299240879
 30
0.0
 11
41.7614395004
 21
152.0299240879
 31
0.0
  0
LINE
  5
7E
330
78
100
AcDbEntity
  8
0
  6
Continuous
 62
     7
370
    18
100
AcDbLine
 10
56.6850079902
 20
52.0299240879
 30
0.0
 11
41.7614395004
 21
52.0299240879
 31
0.0
  0
LINE
  5
7F
330
78
100
AcDbEntity
  8
0
  6
Continuous
 62
     7
370
    18
100
AcDbLine
 10
42.7614395004
 20
152.0299240879
 30
0.0
 11
42.7614395004
 21
52.0299240879
 31
0.0
  0
MTEXT
  5
80
330
78
100
AcDbEntity
  8
0
  6
Continuous
 62
     7
370
    18
100
AcDbMText
 10
35.0270332946
 20
94.3680541463
 30
0.0
 40
6.0
 41
0.0
 71
     1
 72
     1
  1
100
  7
SLDTEXTSTYLE0
 11
-7.044195017643634E-15
 21
1.0
 31
0.0
 73
     1
 44
1.0
  0
MTEXT
  5
81
330
78
100
AcDbEntity
  8
0
  6
Continuous
 62
     7
370
    18
100
AcDbMText
 10
35.0270332946
 20
105.7430548466
 30
0.0
 40
6.0
 41
0.0
 71
     1
 72
     1
  1
mm
  7
SLDTEXTSTYLE0
 11
-7.044195017643634E-15
 21
1.0
 31
0.0
 73
     1
 44
1.0
  0
ENDBLK
  5
7A
330
78
100
AcDbEntity
  8
0
100
AcDbBlockEnd
  0
BLOCK
  5
84
330
83
100
AcDbEntity
  8
0
100
AcDbBlockBegin
  2
_D_1
 70
     0
 10
0.0
 20
0.0
 30
0.0
  3
_D_1
  1

  0
SOLID
  5
86
330
83
100
AcDbEntity
  8
0
  6
Continuous
 62
     7
370
    18
100
AcDbTrace
 10
56.6850079902
 20
38.4602342313
 30
0.0
 11
59.1850079902
 21
38.1602342313
 31
0.0
 12
59.1850079902
 22
38.7602342313
 32
0.0
 13
59.1850079902
 23
38.7602342313
 33
0.0
  0
SOLID
  5
87
330
83
100
AcDbEntity
  8
0
  6
Continuous
 62
     7
370
    18
100
AcDbTrace
 10
156.6850079902
 20
38.4602342313
 30
0.0
 11
154.1850079902
 21
38.7602342313
 31
0.0
 12
154.1850079902
 22
38.1602342313
 32
0.0
 13
154.1850079902
 23
38.1602342313
 33
0.0
  0
LINE
  5
88
330
83
100
AcDbEntity
  8
0
  6
Continuous
 62
     7
370
    18
100
AcDbLine
 10
56.6850079902
 20
52.0299240879
 30
0.0
 11
56.6850079902
 21
37.4602342313
 31
0.0
  0
LINE
  5
89
330
83
100
AcDbEntity
  8
0
  6
Continuous
 62
     7
370
    18
100
AcDbLine
 10
156.6850079902
 20
52.0299240879
 30
0.0
 11
156.6850079902
 21
37.4602342313
 31
0.0
  0
LINE
  5
8A
330
83
100
AcDbEntity
  8
0
  6
Continuous
 62
     7
370
    18
100
AcDbLine
 10
56.6850079902
 20
38.4602342313
 30
0.0
 11
156.6850079902
 21
38.4602342313
 31
0.0
  0
MTEXT
  5
8B
330
83
100
AcDbEntity
  8
0
  6
Continuous
 62
     7
370
    18
100
AcDbMText
 10
93.9626484861
 20
46.1946404371
 30
0.0
 40
6.0
 41
0.0
 71
     1
 72
     1
  1
100
  7
SLDTEXTSTYLE0
 73
     1
 44
1.0
  0
MTEXT
  5
8C
330
83
100
AcDbEntity
  8
0
  6
Continuous
 62
     7
370
    18
100
AcDbMText
 10
105.3376491864
 20
46.1946404371
 30
0.0
 40
6.0
 41
0.0
 71
     1
 72
     1
  1
mm
  7
SLDTEXTSTYLE0
 73
     1
 44
1.0
  0
ENDBLK
  5
85
330
83
100
AcDbEntity
  8
0
100
AcDbBlockEnd
  0
ENDSEC
  0
SECTION
  2
ENTITIES
  0
LINE
  5
73
330
1F
100
AcDbEntity
  8
0
  6
Continuous
 62
     7
370
    18
100
AcDbLine
 10
56.6850079902
 20
152.0299240879
 30
0.0
 11
56.6850079902
 21
52.0299240879
 31
0.0
  0
LINE
  5
74
330
1F
100
AcDbEntity
  8
0
  6
Continuous
 62
     7
370
    18
100
AcDbLine
 10
56.6850079902
 20
52.0299240879
 30
0.0
 11
156.6850079902
 21
52.0299240879
 31
0.0
  0
DIMENSION
  5
75
330
1F
100
AcDbEntity
  8
0
  6
Continuous
 62
     7
370
    18
100
AcDbDimension
  2
_D
 10
42.7614395004
 20
52.0299240879
 30
0.0
 11
42.7614395004
 21
105.4472211621
 31
0.0
 70
   160
  1
<>mm
 71
     2
 42
-1.0
  3
SLDDIMSTYLE0
100
AcDbAlignedDimension
 13
56.6850079902
 23
152.0299240879
 33
0.0
 14
56.6850079902
 24
52.0299240879
 34
0.0
 50
90.0
100
AcDbRotatedDimension
  0
DIMENSION
  5
82
330
1F
100
AcDbEntity
  8
0
  6
Continuous
 62
     7
370
    18
100
AcDbDimension
  2
_D_1
 10
156.6850079902
 20
38.4602342313
 30
0.0
 11
105.0418155019
 21
38.4602342313
 31
0.0
 70
   160
  1
<>mm
 71
     2
 42
-1.0
  3
SLDDIMSTYLE0
100
AcDbAlignedDimension
 13
56.6850079902
 23
52.0299240879
 33
0.0
 14
156.6850079902
 24
52.0299240879
 34
0.0
100
AcDbRotatedDimension
  0
MTEXT
  5
8E
330
1F
100
AcDbEntity
  8
0
  6
Continuous
 62
     7
370
     0
100
AcDbMText
 10
412.8252631579
 20
48.4342449499
 30
0.0
 40
10.0
 41
0.0
 71
     1
 72
     1
  1
KLUDI GmbH & Co KG
  7
SLDTEXTSTYLE1
 73
     1
 44
1.0
  0
MTEXT
  5
8F
330
1F
100
AcDbEntity
  8
0
  6
Continuous
 62
     7
370
     0
100
AcDbMText
 10
210.0873490389
 20
48.4342449499
 30
0.0
 40
10.0
 41
0.0
 71
     1
 72
     1
  1
41 296 05 75
  7
SLDTEXTSTYLE1
 73
     1
 44
1.0
  0
SPLINE
  5
90
330
1F
100
AcDbEntity
  8
0
  6
Continuous
 62
     7
370
    25
100
AcDbSpline
210
0.0
220
0.0
230
1.0
 70
     8
 71
     3
 72
    11
 73
     7
 74
     0
 42
0.000000001
 43
0.00000001
 40
0.0
 40
0.0
 40
0.0
 40
0.0
 40
0.1157436531685405
 40
0.4404401637491844
 40
0.8375338945420139
 40
1.0
 40
1.0
 40
1.0
 40
1.0
 10
153.2050971314945
 20
602.7309066730166
 30
0.0
 10
153.2050404046562
 20
603.035533121006
 30
0.0
 10
153.2048245416065
 20
604.1947303552538
 30
0.0
 10
153.2003296509714
 20
606.1799731888601
 30
0.0
 10
153.1940383130193
 20
608.2022055875866
 30
0.0
 10
153.1905134566511
 20
609.3842301315647
 30
0.0
 10
153.189490027789
 20
609.7274265366221
 30
0.0
  0
SPLINE
  5
91
330
1F
100
AcDbEntity
  8
0
  6
Continuous
 62
     7
370
    25
100
AcDbSpline
210
0.0
220
0.0
230
1.0
 70
     8
 71
     3
 72
    16
 73
    12
 74
     0
 42
0.000000001
 43
0.00000001
 40
0.0
 40
0.0
 40
0.0
 40
0.0
 40
0.0353246877185136
 40
0.153686320588569
 40
0.263100919928062
 40
0.3664363901501286
 40
0.5384760188375687
 40
0.701000700020635
 40
0.8455914304332766
 40
0.9789284282736979
 40
1.0
 40
1.0
 40
1.0
 40
1.0
 10
153.2053858414926
 20
549.5681754427577
 30
0.0
 10
153.2052919821375
 20
549.7979849120748
 30
0.0
 10
153.2048836303622
 20
550.797811776991
 30
0.0
 10
153.2030480924025
 20
552.6964338570841
 30
0.0
 10
153.1987183483018
 20
555.1998976841126
 30
0.0
 10
153.1929385173195
 20
558.2660286312437
 30
0.0
 10
153.195144106837
 20
561.786437609547
 30
0.0
 10
153.2005614578929
 20
565.4975053471771
 30
0.0
 10
153.2041124629822
 20
568.9266706057145
 30
0.0
 10
153.2059968627868
 20
571.224547427782
 30
0.0
 10
153.206041050399
 20
572.4377985122013
 30
0.0
 10
153.2060470805206
 20
572.6033664422656
 30
0.0
  0
SPLINE
  5
92
330
1F
100
AcDbEntity
  8
0
  6
Continuous
 62
     7
370
    25
100
AcDbSpline
210
0.0
220
0.0
230
1.0
 70
     8
 71
     3
 72
    16
 73
    12
 74
     0
 42
0.000000001
 43
0.00000001
 40
0.0
 40
0.0
 40
0.0
 40
0.0
 40
0.0917099759017367
 40
0.2514468227538139
 40
0.3711697675338124
 40
0.5016031959348045
 40
0.6350088797290634
 40
0.7379333757797025
 40
0.8469128237214326
 40
0.9648037220615823
 40
1.0
 40
1.0
 40
1.0
 40
1.0
 10
105.2062869445123
 20
572.6935408192302
 30
0.0
 10
105.2063979468732
 20
571.9729701786893
 30
0.0
 10
105.2067022888021
 20
569.9973377968005
 30
0.0
 10
105.2100083459197
 20
567.130480246329
 30
0.0
 10
105.2135066462411
 20
563.916023738808
 30
0.0
 10
105.2183890319368
 20
560.9316008167411
 30
0.0
 10
105.2185343306406
 20
557.9598983346306
 30
0.0
 10
105.213471802831
 20
555.2005394981779
 30
0.0
 10
105.2091036748374
 20
552.696234542075
 30
0.0
 10
105.2072775729822
 20
550.7977405649866
 30
0.0
 10
105.2068689126519
 20
549.797827151338
 30
0.0
 10
105.2067749575414
 20
549.5679370241786
 30
0.0
  0
SPLINE
  5
93
330
1F
100
AcDbEntity
  8
0
  6
Continuous
 62
     7
370
    25
100
AcDbSpline
210
0.0
220
0.0
230
1.0
 70
     8
 71
     3
 72
    11
 73
     7
 74
     0
 42
0.000000001
 43
0.00000001
 40
0.0
 40
0.0
 40
0.0
 40
0.0
 40
0.1621778097579407
 40
0.5596132917374806
 40
0.8845892462106033
 40
1.0
 40
1.0
 40
1.0
 40
1.0
 10
105.2226633206644
 20
609.7246996241237
 30
0.0
 10
105.221642264181
 20
609.3824002939739
 30
0.0
 10
105.218118990679
 20
608.2012568614005
 30
0.0
 10
105.2118319582031
 20
606.1799419886988
 30
0.0
 10
105.207337081717
 20
604.1958045829653
 30
0.0
 10
105.2071219175725
 20
603.0377713489138
 30
0.0
 10
105.2070655301847
 20
602.7342892366077
 30
0.0
  0
LINE
  5
94
330
1F
100
AcDbEntity
  8
0
  6
Continuous
 62
     7
370
    25
100
AcDbLine
 10
141.2060805038
 20
588.9457530456
 30
0.0
 11
141.2060805038
 21
594.4436258751
 31
0.0
  0
LINE
  5
95
330
1F
100
AcDbEntity
  8
0
  6
Continuous
 62
     7
370
    25
100
AcDbLine
 10
117.2060802952
 20
594.441725977
 30
0.0
 11
117.2060802952
 21
588.9457530456
 31
0.0
  0
LINE
  5
96
330
1F
100
AcDbEntity
  8
0
  6
Continuous
 62
     7
370
    25
100
AcDbLine
 10
139.7022543848
 20
587.8166771608
 30
0.0
 11
140.6564511732
 21
588.3346787768
 31
0.0
  0
LINE
  5
97
330
1F
100
AcDbEntity
  8
0
  6
Continuous
 62
     7
370
    25
100
AcDbLine
 10
117.7557096258
 20
588.3346787768
 30
0.0
 11
118.7099064142
 21
587.8166771608
 31
0.0
  0
SPLINE
  5
98
330
1F
100
AcDbEntity
  8
0
  6
Continuous
 62
     7
370
    25
100
AcDbSpline
210
0.0
220
0.0
230
1.0
 70
     8
 71
     3
 72
    15
 73
    11
 74
     0
 42
0.000000001
 43
0.00000001
 40
0.0
 40
0.0
 40
0.0
 40
0.0
 40
0.1387512314015875
 40
0.2783744952160738
 40
0.4056281369580838
 40
0.5239833095698584
 40
0.6377733020995471
 40
0.7518797284484597
 40
0.8711796110565361
 40
1.0
 40
1.0
 40
1.0
 40
1.0
 10
127.4180894857906
 20
649.3844977694179
 30
0.0
 10
126.989082362704
 20
649.378605457824
 30
0.0
 10
126.1283718657451
 20
649.3667838022681
 30
0.0
 10
124.3267535909253
 20
649.3178568330964
 30
0.0
 10
122.15889288064
 20
649.2294514143183
 30
0.0
 10
119.6461512115043
 20
649.0851627695395
 30
0.0
 10
116.7977017197003
 20
648.8677457156547
 30
0.0
 10
113.6257438562556
 20
648.5559724808686
 30
0.0
 10
110.1450309340084
 20
648.1373704753835
 30
0.0
 10
107.7570653165665
 20
647.7712850203674
 30
0.0
 10
106.5172687546052
 20
647.5812188463832
 30
0.0
  0
SPLINE
  5
99
330
1F
100
AcDbEntity
  8
0
  6
Continuous
 62
     7
370
    25
100
AcDbSpline
210
0.0
220
0.0
230
1.0
 70
     8
 71
     3
 72
    15
 73
    11
 74
     0
 42
0.000000001
 43
0.00000001
 40
0.0
 40
0.0
 40
0.0
 40
0.0
 40
0.1111840326150748
 40
0.2198827272714894
 40
0.3300790294610634
 40
0.4455861160860947
 40
0.5697146625932692
 40
0.705133871783729
 40
0.8538711096301504
 40
1.0
 40
1.0
 40
1.0
 40
1.0
 10
151.8948920444288
 20
647.5812188463832
 30
0.0
 10
150.8586551148875
 20
647.7413637962046
 30
0.0
 10
148.8093446445992
 20
648.0580739163291
 30
0.0
 10
145.7844715627777
 20
648.4403817319754
 30
0.0
 10
142.9057083084498
 20
648.7479320727903
 30
0.0
 10
140.1767591096813
 20
648.9835355319758
 30
0.0
 10
137.5966009027988
 20
649.1579073464276
 30
0.0
 10
135.1679036437937
 20
649.2785004818081
 30
0.0
 10
132.94554896352
 20
649.3540624360572
 30
0.0
 10
131.6894716326791
 20
649.3732668625605
 30
0.0
 10
131.066988515731
 20
649.3827841358806
 30
0.0
  0
SPLINE
  5
9A
330
1F
100
AcDbEntity
  8
0
  6
Continuous
 62
     7
370
    25
100
AcDbSpline
210
0.0
220
0.0
230
1.0
 70
     8
 71
     3
 72
    10
 73
     6
 74
     0
 42
0.000000001
 43
0.00000001
 40
0.0
 40
0.0
 40
0.0
 40
0.0
 40
0.3187034323301972
 40
0.6892916323278603
 40
0.9999999999999999
 40
0.9999999999999999
 40
0.9999999999999999
 40
0.9999999999999999
 10
109.2291329429187
 20
613.3502862530376
 30
0.0
 10
108.905859119125
 20
613.2964694149102
 30
0.0
 10
108.2066826463069
 20
613.1800743829261
 30
0.0
 10
107.2677916271374
 20
612.99743564806
 30
0.0
 10
106.8194521975746
 20
612.9053036949849
 30
0.0
 10
106.614984981779
 20
612.8632865029002
 30
0.0
  0
SPLINE
  5
9B
330
1F
100
AcDbEntity
  8
0
  6
Continuous
 62
     7
370
    25
100
AcDbSpline
210
0.0
220
0.0
230
1.0
 70
     8
 71
     3
 72
     9
 73
     5
 74
     0
 42
0.000000001
 43
0.00000001
 40
0.0
 40
0.0
 40
0.0
 40
0.0
 40
0.412331152554161
 40
1.0
 40
1.0
 40
1.0
 40
1.0
 10
129.206090472249
 20
614.5937434511806
 30
0.0
 10
128.6848595749163
 20
614.5939777859844
 30
0.0
 10
127.4207520872719
 20
614.594546102985
 30
0.0
 10
126.1574877883828
 20
614.5640724563084
 30
0.0
 10
125.4151067138352
 20
614.5461640434886
 30
0.0
  0
LINE
  5
9C
330
1F
100
AcDbEntity
  8
0
  6
Continuous
 62
     7
370
    25
100
AcDbLine
 10
126.8344779406
 20
614.5779333192
 30
0.0
 11
123.0988269114
 21
614.4640437441
 31
0.0
  0
SPLINE
  5
9D
330
1F
100
AcDbEntity
  8
0
  6
Continuous
 62
     7
370
    25
100
AcDbSpline
210
0.0
220
0.0
230
1.0
 70
     8
 71
     3
 72
    10
 73
     6
 74
     0
 42
0.000000001
 43
0.00000001
 40
0.0
 40
0.0
 40
0.0
 40
0.0
 40
0.3105879662211496
 40
0.6812408984089436
 40
1.0
 40
1.0
 40
1.0
 40
1.0
 10
151.7968088761606
 20
612.8633610087062
 30
0.0
 10
151.5924527153013
 20
612.9053552733046
 30
0.0
 10
151.1442197193067
 20
612.9974651218961
 30
0.0
 10
150.2054748856111
 20
613.1800749281354
 30
0.0
 10
149.5063006469267
 20
613.2964695872921
 30
0.0
 10
149.1830278561153
 20
613.3502862530376
 30
0.0
  0
SPLINE
  5
9E
330
1F
100
AcDbEntity
  8
0
  6
Continuous
 62
     7
370
    25
100
AcDbSpline
210
0.0
220
0.0
230
1.0
 70
     8
 71
     3
 72
    15
 73
    11
 74
     0
 42
0.000000001
 43
0.00000001
 40
0.0
 40
0.0
 40
0.0
 40
0.0
 40
0.0015253401579492
 40
0.0034544149168138
 40
0.0055373159581305
 40
0.01048079042793
 40
0.0247313529168561
 40
0.0740650800481686
 40
0.2616405740997185
 40
1.0
 40
1.0
 40
1.0
 40
1.0
 10
137.0128346048929
 20
614.3782428579952
 30
0.0
 10
137.012750966056
 20
614.3782496901961
 30
0.0
 10
137.0125615504398
 20
614.3782651629787
 30
0.0
 10
137.0090147031309
 20
614.3784889773361
 30
0.0
 10
137.0003452080022
 20
614.3789804991374
 30
0.0
 10
136.9705354048054
 20
614.3806792502193
 30
0.0
 10
136.8529344212169
 20
614.3872441587407
 30
0.0
 10
136.3977716333833
 20
614.4118697244371
 30
0.0
 10
134.6160381378945
 20
614.5017621079554
 30
0.0
 10
132.925640487071
 20
614.5441401791899
 30
0.0
 10
131.5776828583963
 20
614.5779333191539
 30
0.0
  0
SPLINE
  5
9F
330
1F
100
AcDbEntity
  8
0
  6
Continuous
 62
     7
370
    25
100
AcDbSpline
210
0.0
220
0.0
230
1.0
 70
     8
 71
     3
 72
     9
 73
     5
 74
     0
 42
0.000000001
 43
0.00000001
 40
0.0
 40
0.0
 40
0.0
 40
0.0
 40
0.602808202918976
 40
1.0
 40
1.0
 40
1.0
 40
1.0
 10
132.9970540851988
 20
614.5461640434886
 30
0.0
 10
132.2546755485114
 20
614.564165199374
 30
0.0
 10
131.0231419809642
 20
614.5940273608345
 30
0.0
 10
129.7907860934615
 20
614.5936215241286
 30
0.0
 10
129.3013044438609
 20
614.593460329118
 30
0.0
  0
SPLINE
  5
A0
330
1F
100
AcDbEntity
  8
0
  6
Continuous
 62
     7
370
    25
100
AcDbSpline
210
0.0
220
0.0
230
1.0
 70
     8
 71
     3
 72
    13
 73
     9
 74
     0
 42
0.000000001
 43
0.00000001
 40
0.0
 40
0.0
 40
0.0
 40
0.0
 40
0.0845619318149345
 40
0.3811177879463347
 40
0.5973836794116996
 40
0.7868622327951784
 40
0.9762295957000948
 40
1.0
 40
1.0
 40
1.0
 40
1.0
 10
153.0863497779407
 20
611.6368911343243
 30
0.0
 10
153.0861096698007
 20
611.6381355710243
 30
0.0
 10
153.085027510474
 20
611.6437442054561
 30
0.0
 10
153.0284574188712
 20
611.8562900738042
 30
0.0
 10
152.8755784009549
 20
612.180509841718
 30
0.0
 10
152.5362023473232
 20
612.5644449562751
 30
0.0
 10
152.1000863567895
 20
612.8552191096339
 30
0.0
 10
151.8515872261725
 20
612.8574631947586
 30
0.0
 10
151.8238731101789
 20
612.8577134686137
 30
0.0
  0
SPLINE
  5
A1
330
1F
100
AcDbEntity
  8
0
  6
Continuous
 62
     7
370
    25
100
AcDbSpline
210
0.0
220
0.0
230
1.0
 70
     8
 71
     3
 72
    12
 73
     8
 74
     0
 42
0.000000001
 43
0.00000001
 40
0.0
 40
0.0
 40
0.0
 40
0.0
 40
0.1747669682443488
 40
0.3479395169479688
 40
0.5162294830142209
 40
0.7296062054125305
 40
1.0
 40
1.0
 40
1.0
 40
1.0
 10
106.5896660462655
 20
612.8578624802257
 30
0.0
 10
106.3759304385258
 20
612.7914647516966
 30
0.0
 10
105.9504091580536
 20
612.6592750488999
 30
0.0
 10
105.5999715112015
 20
612.259203071121
 30
0.0
 10
105.4354635609481
 20
611.9745876947138
 30
0.0
 10
105.3525264480019
 20
611.7471406933062
 30
0.0
 10
105.334633095815
 20
611.6722709606698
 30
0.0
 10
105.3246319667139
 20
611.630424030366
 30
0.0
  0
SPLINE
  5
A2
330
1F
100
AcDbEntity
  8
0
  6
Continuous
 62
     7
370
    25
100
AcDbSpline
210
0.0
220
0.0
230
1.0
 70
     8
 71
     3
 72
    11
 73
     7
 74
     0
 42
0.000000001
 43
0.00000001
 40
0.0
 40
0.0
 40
0.0
 40
0.0
 40
0.1979470289424839
 40
0.5723962204770349
 40
0.9080293900156164
 40
1.0
 40
1.0
 40
1.0
 40
1.0
 10
105.2238367871084
 20
643.7783083992625
 30
0.0
 10
105.2223100774879
 20
643.0540985114602
 30
0.0
 10
105.217895346834
 20
640.9599271322544
 30
0.0
 10
105.2118787393207
 20
637.6986284177583
 30
0.0
 10
105.2086071692551
 20
634.8551342957545
 30
0.0
 10
105.2075944181878
 20
633.7010431774985
 30
0.0
 10
105.2073765919246
 20
633.4528169708873
 30
0.0
  0
SPLINE
  5
A3
330
1F
100
AcDbEntity
  8
0
  6
Continuous
 62
     7
370
    25
100
AcDbSpline
210
0.0
220
0.0
230
1.0
 70
     8
 71
     3
 72
    11
 73
     7
 74
     0
 42
0.000000001
 43
0.00000001
 40
0.0
 40
0.0
 40
0.0
 40
0.0
 40
0.0919706099843835
 40
0.4276037795229651
 40
0.8020529710575162
 40
1.0
 40
1.0
 40
1.0
 40
1.0
 10
153.2047842071094
 20
633.4528169708873
 30
0.0
 10
153.2045663808462
 20
633.7010431774985
 30
0.0
 10
153.2035536297789
 20
634.8551342957546
 30
0.0
 10
153.2002820597133
 20
637.6986284177582
 30
0.0
 10
153.1942654522001
 20
640.9599271322544
 30
0.0
 10
153.1898507215461
 20
643.0540985114602
 30
0.0
 10
153.1883240119256
 20
643.7783083992625
 30
0.0
  0
ARC
  5
A4
330
1F
100
AcDbEntity
  8
0
  6
Continuous
 62
     7
370
    25
100
AcDbCircle
 10
140.7060803995
 20
612.9276310837
 30
0.0
 40
10.0
100
AcDbArc
 50
0.3538233102
 51
9.0468459803
  0
ARC
  5
A5
330
1F
100
AcDbEntity
  8
0
  6
Continuous
 62
     7
370
    25
100
AcDbCircle
 10
117.7060803995
 20
612.9276310837
 30
0.0
 40
10.00000000000001
100
AcDbArc
 50
170.9531540197
 51
179.6014102345
  0
ARC
  5
A6
330
1F
100
AcDbEntity
  8
0
  6
Continuous
 62
     7
370
    25
100
AcDbCircle
 10
129.2060803995
 20
611.0965703087
 30
0.0
 40
21.64486082191335
100
AcDbArc
 50
163.554370985
 51
170.9531540197
  0
ARC
  5
A7
330
1F
100
AcDbEntity
  8
0
  6
Continuous
 62
     7
370
    25
100
AcDbCircle
 10
129.2060803995
 20
611.0965703087
 30
0.0
 40
21.64486082191338
100
AcDbArc
 50
9.0468459803
 51
16.4457137547
  0
LINE
  5
A8
330
1F
100
AcDbEntity
  8
0
  6
Continuous
 62
     7
370
    25
100
AcDbLine
 10
106.5764282272
 20
647.6019910651
 30
0.0
 11
105.727561228
 21
647.1935204344
 31
0.0
  0
LINE
  5
A9
330
1F
100
AcDbEntity
  8
0
  6
Continuous
 62
     7
370
    25
100
AcDbLine
 10
152.684599571
 20
647.1935204344
 30
0.0
 11
151.8357325718
 21
647.6019910651
 31
0.0
  0
SPLINE
  5
AA
330
1F
100
AcDbEntity
  8
0
  6
Continuous
 62
     7
370
    25
100
AcDbSpline
210
0.0
220
0.0
230
1.0
 70
     8
 71
     3
 72
    10
 73
     6
 74
     0
 42
0.000000001
 43
0.00000001
 40
0.0
 40
0.0
 40
0.0
 40
0.0
 40
0.3286142361000356
 40
0.7595465332629998
 40
1.0
 40
1.0
 40
1.0
 40
1.0
 10
106.091441996459
 20
617.8938440161372
 30
0.0
 10
106.1876435004579
 20
617.764259435887
 30
0.0
 10
106.4100000231829
 20
617.4647425316239
 30
0.0
 10
106.8515610196281
 20
617.2416465470166
 30
0.0
 10
107.2611582202323
 20
617.2315880343823
 30
0.0
 10
107.4078534171619
 20
617.2279856281903
 30
0.0
  0
SPLINE
  5
AB
330
1F
100
AcDbEntity
  8
0
  6
Continuous
 62
     7
370
    25
100
AcDbSpline
210
0.0
220
0.0
230
1.0
 70
     8
 71
     3
 72
    13
 73
     9
 74
     0
 42
0.000000001
 43
0.00000001
 40
0.0
 40
0.0
 40
0.0
 40
0.0
 40
0.0000840240402799
 40
0.2086170487846111
 40
0.4303536852470861
 40
0.6458706636330604
 40
0.8740983407811418
 40
1.0
 40
1.0
 40
1.0
 40
1.0
 10
150.8961137757339
 20
617.2474316435481
 30
0.0
 10
150.8962447869814
 20
617.247426672579
 30
0.0
 10
151.2215228825553
 20
617.2350846222478
 30
0.0
 10
151.693955123952
 20
617.35899947217
 30
0.0
 10
152.3196073301374
 20
617.7227045465766
 30
0.0
 10
152.6843364309131
 20
618.3531527290652
 30
0.0
 10
152.8640448447235
 20
618.9763723742944
 30
0.0
 10
152.9205732164473
 20
619.5174627413866
 30
0.0
 10
152.9406704381742
 20
619.7098336296702
 30
0.0
  0
SPLINE
  5
AC
330
1F
100
AcDbEntity
  8
0
  6
Continuous
 62
     7
370
    25
100
AcDbSpline
210
0.0
220
0.0
230
1.0
 70
     8
 71
     3
 72
    16
 73
    12
 74
     0
 42
0.000000001
 43
0.00000001
 40
0.0
 40
0.0
 40
0.0
 40
0.0
 40
0.1778130235120036
 40
0.352732477144394
 40
0.4552499111915652
 40
0.5223240201263842
 40
0.5914661376207643
 40
0.7147534126742644
 40
0.8533355946442731
 40
0.9805609328106145
 40
1.0
 40
1.0
 40
1.0
 40
1.0
 10
105.3271521256008
 20
611.6429261046077
 30
0.0
 10
105.320112798492
 20
611.60888744444
 30
0.0
 10
105.3061486959788
 20
611.541364038772
 30
0.0
 10
105.2866468100977
 20
611.5057461840782
 30
0.0
 10
105.3681886266803
 20
611.7427318419964
 30
0.0
 10
105.3205694590824
 20
611.6317571465241
 30
0.0
 10
105.2334578475936
 20
611.2273287456904
 30
0.0
 10
105.2439158249282
 20
611.0891566793604
 30
0.0
 10
105.2300448239107
 20
610.7254983917038
 30
0.0
 10
105.2267622465183
 20
610.3287016520953
 30
0.0
 10
105.2246495260025
 20
609.9935740137473
 30
0.0
 10
105.224369503621
 20
609.9491558151866
 30
0.0
  0
SPLINE
  5
AD
330
1F
100
AcDbEntity
  8
0
  6
Continuous
 62
     7
370
    25
100
AcDbSpline
210
0.0
220
0.0
230
1.0
 70
     8
 71
     3
 72
    17
 73
    13
 74
     0
 42
0.000000001
 43
0.00000001
 40
0.0
 40
0.0
 40
0.0
 40
0.0
 40
0.0214718455096075
 40
0.1555894768668982
 40
0.2856347916834029
 40
0.4065324540899724
 40
0.4893480483997341
 40
0.5491864705650694
 40
0.6109983816901561
 40
0.7415670817087217
 40
0.8951602222847904
 40
1.0
 40
1.0
 40
1.0
 40
1.0
 10
153.1882737205066
 20
609.8801634388591
 30
0.0
 10
153.1879635110108
 20
609.9308338194378
 30
0.0
 10
153.1857156682184
 20
610.2980019794059
 30
0.0
 10
153.1825994130199
 20
610.7059017202015
 30
0.0
 10
153.1684363941022
 20
611.0807983320401
 30
0.0
 10
153.1812025752305
 20
611.2102643546622
 30
0.0
 10
153.0891008033196
 20
611.6395469806497
 30
0.0
 10
153.0504581676848
 20
611.726142363415
 30
0.0
 10
153.1027691948924
 20
611.5817407977064
 30
0.0
 10
153.1090082915735
 20
611.5324929913623
 30
0.0
 10
153.1068834511667
 20
611.5527817644504
 30
0.0
 10
153.0906962485635
 20
611.6186915475248
 30
0.0
 10
153.0841295049228
 20
611.6454294996882
 30
0.0
  0
SPLINE
  5
AE
330
1F
100
AcDbEntity
  8
0
  6
Continuous
 62
     7
370
    25
100
AcDbSpline
210
0.0
220
0.0
230
1.0
 70
     8
 71
     3
 72
     9
 73
     5
 74
     0
 42
0.000000001
 43
0.00000001
 40
0.0
 40
0.0
 40
0.0
 40
0.0
 40
0.6800416390678659
 40
1.0
 40
1.0
 40
1.0
 40
1.0
 10
152.9298726842441
 20
619.6708521919871
 30
0.0
 10
152.9425601177329
 20
619.747511611199
 30
0.0
 10
152.9612169657256
 20
619.8602391484669
 30
0.0
 10
152.9725331276467
 20
619.9725935703068
 30
0.0
 10
152.976153828267
 20
620.0085423069621
 30
0.0
  0
LINE
  5
AF
330
1F
100
AcDbEntity
  8
0
  6
Continuous
 62
     7
370
    25
100
AcDbLine
 10
152.6849814132
 20
647.1931479054
 30
0.0
 11
152.6846647636
 21
647.1934608298
 31
0.0
  0
LINE
  5
B0
330
1F
100
AcDbEntity
  8
0
  6
Continuous
 62
     7
370
    25
100
AcDbLine
 10
105.7274941728
 20
647.1934608298
 30
0.0
 11
105.7271793858
 21
647.1931479054
 31
0.0
  0
LINE
  5
B1
330
1F
100
AcDbEntity
  8
0
  6
Continuous
 62
     7
370
    25
100
AcDbLine
 10
105.7167932764
 20
647.1807799416
 30
0.0
 11
105.6765862182
 21
647.1272400695
 31
0.0
  0
LINE
  5
B2
330
1F
100
AcDbEntity
  8
0
  6
Continuous
 62
     7
370
    25
100
AcDbLine
 10
152.7391787992
 20
647.1224269944
 30
0.0
 11
152.6953675226
 21
647.1807799416
 31
0.0
  0
SPLINE
  5
B3
330
1F
100
AcDbEntity
  8
0
  6
Continuous
 62
     7
370
    25
100
AcDbSpline
210
0.0
220
0.0
230
1.0
 70
     8
 71
     3
 72
    22
 73
    18
 74
     0
 42
0.000000001
 43
0.00000001
 40
0.0
 40
0.0
 40
0.0
 40
0.0
 40
0.1250000000000017
 40
0.1250000000000017
 40
0.2500000000000034
 40
0.2500000000000034
 40
0.312500000000004
 40
0.312500000000004
 40
0.3750000000000046
 40
0.3750000000000046
 40
0.5000000000000037
 40
0.5000000000000037
 40
0.6250000000000027
 40
0.6250000000000027
 40
0.7500000000000017
 40
0.7500000000000017
 40
1.0
 40
1.0
 40
1.0
 40
1.0
 10
153.2024068329391
 20
606.2426310190402
 30
0.0
 10
153.2011348340522
 20
606.9107752978604
 30
0.0
 10
153.1994664256838
 20
607.5188948686059
 30
0.0
 10
153.1954588394996
 20
608.6258959125373
 30
0.0
 10
153.1931122383608
 20
609.1268494669678
 30
0.0
 10
153.1893449505961
 20
609.7498881878166
 30
0.0
 10
153.1880427185374
 20
609.9375845158679
 30
0.0
 10
153.1853243514554
 20
610.2713072391193
 30
0.0
 10
153.1839016601133
 20
610.417466201426
 30
0.0
 10
153.1794486721798
 20
610.787950250565
 30
0.0
 10
153.1763637690743
 20
610.933987372995
 30
0.0
 10
153.1699109773516
 20
611.1007564109335
 30
0.0
 10
153.1665246239082
 20
611.1190765727049
 30
0.0
 10
153.1597441759552
 20
611.1405183201844
 30
0.0
 10
153.1563814957296
 20
611.1465135529186
 30
0.0
 10
153.1464742152512
 20
611.1811996147655
 30
0.0
 10
153.1400535169075
 20
611.2139377813255
 30
0.0
 10
153.1335158698529
 20
611.2390929085383
 30
0.0
  0
SPLINE
  5
B4
330
1F
100
AcDbEntity
  8
0
  6
Continuous
 62
     7
370
    25
100
AcDbSpline
210
0.0
220
0.0
230
1.0
 70
     8
 71
     3
 72
    12
 73
     8
 74
     0
 42
0.000000001
 43
0.00000001
 40
0.0
 40
0.0
 40
0.0
 40
0.0
 40
0.4999999999999996
 40
0.4999999999999996
 40
0.7499999999999998
 40
0.7499999999999998
 40
1.0
 40
1.0
 40
1.0
 40
1.0
 10
153.2050934577023
 20
548.1528261495591
 30
0.0
 10
153.2074590030685
 20
557.1022144058663
 30
0.0
 10
153.2066123914346
 20
566.0516033380271
 30
0.0
 10
153.2056325828843
 20
579.4756865335614
 30
0.0
 10
153.2052734778766
 20
583.9503809333779
 30
0.0
 10
153.2048618945455
 20
592.8997697512257
 30
0.0
 10
153.2046515492306
 20
597.3744641756942
 30
0.0
 10
153.2052791622376
 20
601.84915860093
 30
0.0
  0
SPLINE
  5
B5
330
1F
100
AcDbEntity
  8
0
  6
Continuous
 62
     7
370
    25
100
AcDbSpline
210
0.0
220
0.0
230
1.0
 70
     8
 71
     3
 72
    28
 73
    24
 74
     0
 42
0.000000001
 43
0.00000001
 40
0.0
 40
0.0
 40
0.0
 40
0.0
 40
0.1249999999999992
 40
0.1249999999999992
 40
0.2499999999999984
 40
0.2499999999999984
 40
0.3749999999999976
 40
0.3749999999999976
 40
0.4374999999999991
 40
0.4374999999999991
 40
0.5000000000000006
 40
0.5000000000000006
 40
0.5625000000000018
 40
0.5625000000000018
 40
0.6250000000000031
 40
0.6250000000000031
 40
0.7500000000000032
 40
0.7500000000000032
 40
0.8125000000000024
 40
0.8125000000000024
 40
0.8750000000000016
 40
0.8750000000000016
 40
1.0
 40
1.0
 40
1.0
 40
1.0
 10
141.206080399517
 20
594.4436261609922
 30
0.0
 10
141.206080399517
 20
594.5289263346539
 30
0.0
 10
141.1283674386811
 20
594.5957257316322
 30
0.0
 10
140.8229585596258
 20
594.710385232987
 30
0.0
 10
140.5918442337155
 20
594.7586332693528
 30
0.0
 10
139.9941506333098
 20
594.8549363566468
 30
0.0
 10
139.6273221832992
 20
594.9037398902743
 30
0.0
 10
138.9720184813113
 20
594.9909782076237
 30
0.0
 10
138.7351487520092
 20
595.022442999684
 30
0.0
 10
138.2364088153664
 20
595.0894727071818
 30
0.0
 10
137.9734136736469
 20
595.1251832493392
 30
0.0
 10
137.4206215629351
 20
595.2008619829235
 30
0.0
 10
137.1308241149269
 20
595.2408282022661
 30
0.0
 10
136.5241139739762
 20
595.3240990795558
 30
0.0
 10
136.2058419267897
 20
595.3675864252832
 30
0.0
 10
135.2181073414656
 20
595.4992732497382
 30
0.0
 10
134.526477719397
 20
595.5873389211524
 30
0.0
 10
133.4404842576087
 20
595.7051185780858
 30
0.0
 10
133.0703342154061
 20
595.7419696116984
 30
0.0
 10
132.3131836615347
 20
595.8081898125893
 30
0.0
 10
131.9282449564626
 20
595.8373104853814
 30
0.0
 10
130.7723628012376
 20
595.9084979682715
 30
0.0
 10
129.9934464262373
 20
595.9347743315644
 30
0.0
 10
129.206080399517
 20
595.9355371639316
 30
0.0
  0
SPLINE
  5
B6
330
1F
100
AcDbEntity
  8
0
  6
Continuous
 62
     7
370
    25
100
AcDbSpline
210
0.0
220
0.0
230
1.0
 70
     8
 71
     3
 72
    12
 73
     8
 74
     0
 42
0.000000001
 43
0.00000001
 40
0.0
 40
0.0
 40
0.0
 40
0.0
 40
0.4999999999999996
 40
0.4999999999999996
 40
0.7499999999999998
 40
0.7499999999999998
 40
1.0
 40
1.0
 40
1.0
 40
1.0
 10
105.2070673413317
 20
548.1528261495591
 30
0.0
 10
105.2047017959655
 20
557.1022144058663
 30
0.0
 10
105.2055484075994
 20
566.0516033380271
 30
0.0
 10
105.2065282161497
 20
579.4756865335614
 30
0.0
 10
105.2068873211574
 20
583.9503809333779
 30
0.0
 10
105.2072989044885
 20
592.8997697512257
 30
0.0
 10
105.2075092498034
 20
597.3744641756942
 30
0.0
 10
105.2068816367965
 20
601.84915860093
 30
0.0
  0
SPLINE
  5
B7
330
1F
100
AcDbEntity
  8
0
  6
Continuous
 62
     7
370
    25
100
AcDbSpline
210
0.0
220
0.0
230
1.0
 70
     8
 71
     3
 72
    15
 73
    11
 74
     0
 42
0.000000001
 43
0.00000001
 40
0.0
 40
0.0
 40
0.0
 40
0.0
 40
0.2311743229194934
 40
0.435235915043134
 40
0.5399529983120026
 40
0.6273968846772918
 40
0.7150755202515171
 40
0.8072610876529622
 40
0.9839081723227695
 40
1.0
 40
1.0
 40
1.0
 40
1.0
 10
105.209753327135
 20
606.2426335292483
 30
0.0
 10
105.2105110969862
 20
606.5959944575247
 30
0.0
 10
105.2119377634534
 20
607.2612732177979
 30
0.0
 10
105.2143590750147
 20
607.9962254223188
 30
0.0
 10
105.2163117290169
 20
608.4959777855062
 30
0.0
 10
105.2177756244787
 20
608.8289192597038
 30
0.0
 10
105.2192392048749
 20
609.1304892712561
 30
0.0
 10
105.2212775229116
 20
609.5027415792638
 30
0.0
 10
105.2229611080148
 20
609.7882568860224
 30
0.0
 10
105.2242059654667
 20
609.936757459268
 30
0.0
 10
105.2243098989763
 20
609.9491558151866
 30
0.0
  0
SPLINE
  5
B8
330
1F
100
AcDbEntity
  8
0
  6
Continuous
 62
     7
370
    25
100
AcDbSpline
210
0.0
220
0.0
230
1.0
 70
     8
 71
     3
 72
    33
 73
    29
 74
     0
 42
0.000000001
 43
0.00000001
 40
0.0
 40
0.0
 40
0.0
 40
0.0
 40
0.0432772872657401
 40
0.0953432682370661
 40
0.1213818987318325
 40
0.1746369792891753
 40
0.2014159045281289
 40
0.228195088848982
 40
0.2554551781057395
 40
0.2904398443572555
 40
0.3255988664410437
 40
0.3788713216547514
 40
0.4330563372707035
 40
0.4693893171446621
 40
0.5041005318522377
 40
0.5389900898374271
 40
0.5918659381551816
 40
0.6456561886253498
 40
0.6817204323561803
 40
0.7332902235122999
 40
0.759080340906522
 40
0.8117794691487027
 40
0.838271411574071
 40
0.8647635302444668
 40
0.8917132817138674
 40
0.9270409696862647
 40
0.9625485862434108
 40
1.0
 40
1.0
 40
1.0
 40
1.0
 10
129.206080399517
 20
595.9355375843669
 30
0.0
 10
128.9336916128007
 20
595.9335122421217
 30
0.0
 10
128.333597688309
 20
595.9290502538323
 30
0.0
 10
127.5733948085094
 20
595.90051242306
 30
0.0
 10
126.7588506493783
 20
595.8564124576404
 30
0.0
 10
126.1087330980993
 20
595.8093997640573
 30
0.0
 10
125.4659906238204
 20
595.752939116525
 30
0.0
 10
124.9863197453916
 20
595.7061687742921
 30
0.0
 10
124.4663136349828
 20
595.6509513879025
 30
0.0
 10
123.9090021273787
 20
595.5867948837847
 30
0.0
 10
123.2217114842291
 20
595.5020816132349
 30
0.0
 10
122.4577028416053
 20
595.401812203402
 30
0.0
 10
121.7302142794006
 20
595.3025547983125
 30
0.0
 10
121.1321717402665
 20
595.2202377027152
 30
0.0
 10
120.6514193395889
 20
595.1542148963728
 30
0.0
 10
120.1258508796625
 20
595.082649041576
 30
0.0
 10
119.5647424478648
 20
595.0073992134232
 30
0.0
 10
119.0598849768662
 20
594.9405066589923
 30
0.0
 10
118.6134853721403
 20
594.8802736259837
 30
0.0
 10
118.2985603505927
 20
594.8354264921545
 30
0.0
 10
117.9829556467015
 20
594.7852847640955
 30
0.0
 10
117.7657502447401
 20
594.7447109421548
 30
0.0
 10
117.5864374771861
 20
594.7014746325635
 30
0.0
 10
117.4709522039927
 20
594.6669345150164
 30
0.0
 10
117.365100033638
 20
594.6259817715109
 30
0.0
 10
117.2794599783151
 20
594.5762998162262
 30
0.0
 10
117.2155316155902
 20
594.5162239066952
 30
0.0
 10
117.2152772775629
 20
594.4669810337253
 30
0.0
 10
117.2151467204728
 20
594.4417036252643
 30
0.0
  0
LINE
  5
B9
330
1F
100
AcDbEntity
  8
0
  6
Continuous
 62
     7
370
    25
100
AcDbLine
 10
123.1039943547
 20
614.3410644608
 30
0.0
 11
122.1409653687
 21
614.3006078082
 31
0.0
  0
LINE
  5
BA
330
1F
100
AcDbEntity
  8
0
  6
Continuous
 62
     7
370
    25
100
AcDbLine
 10
124.4102487714
 20
590.8180541473
 30
0.0
 11
124.4102487714
 21
594.1907606202
 31
0.0
  0
LWPOLYLINE
  5
BB
330
1F
100
AcDbEntity
  8
0
  6
Continuous
 62
     7
370
    25
100
AcDbPolyline
 90
       10
 70
   128
 43
0.0
 10
124.4102487714
 20
590.8180541473
 10
122.5342670829
 20
590.6434721428
 10
120.8700849116
 20
590.4150000888
 10
119.4705324621
 20
590.1398799496
 10
118.3800394089
 20
589.8268512564
 10
117.6332239435
 20
589.4858530837
 10
117.2537938134
 20
589.127711125
 10
117.2537938134
 20
588.7637949663
 10
117.6332239435
 20
588.405645557
 10
117.7557096258
 20
588.3346787768
  0
LWPOLYLINE
  5
BC
330
1F
100
AcDbEntity
  8
0
  6
Continuous
 62
     7
370
    25
100
AcDbPolyline
 90
       10
 70
   128
 43
0.0
 10
140.6564511732
 20
588.3346787768
 10
140.7789368556
 20
588.405645557
 10
141.1583669857
 20
588.7637949663
 10
141.1583669857
 20
589.127711125
 10
140.7789368556
 20
589.4858530837
 10
140.0321213902
 20
589.8268512564
 10
138.941628337
 20
590.1398799496
 10
137.5420758874
 20
590.4150000888
 10
135.8778937162
 20
590.6434721428
 10
134.0019120277
 20
590.8180541473
  0
LINE
  5
BD
330
1F
100
AcDbEntity
  8
0
  6
Continuous
 62
     7
370
    25
100
AcDbLine
 10
134.0019120277
 20
594.1907606202
 30
0.0
 11
134.0019120277
 21
590.8180541473
 31
0.0
  0
ARC
  5
BE
330
1F
100
AcDbEntity
  8
0
  6
Continuous
 62
     7
370
    25
100
AcDbCircle
 10
129.2060803995
 20
527.1921808398
 30
0.0
 40
67.17000590734699
100
AcDbArc
 50
85.9056887822
 51
94.0943112178
  0
LWPOLYLINE
  5
BF
330
1F
100
AcDbEntity
  8
0
  6
Continuous
 62
     7
370
    25
100
AcDbPolyline
 90
       18
 70
   128
 43
0.0
 10
129.2060803995
 20
586.5045256096
 10
131.2273251266
 20
586.5363991933
 10
133.1797385961
 20
586.6309545117
 10
134.9968341552
 20
586.7849580126
 10
136.6167324037
 20
586.9931793886
 10
137.9842697085
 20
587.2485107856
 10
139.0528766812
 20
587.5422722774
 10
139.7861628235
 20
587.864442833
 10
140.1591565833
 20
588.2040700989
 10
140.1591565833
 20
588.5495833235
 10
139.7861628235
 20
588.8892105895
 10
139.0528766812
 20
589.2113811451
 10
137.9842697085
 20
589.5051426368
 10
136.6167324037
 20
589.7604740339
 10
134.9968341552
 20
589.9686954098
 10
133.1797385961
 20
590.1226989108
 10
131.2273251266
 20
590.2172542291
 10
129.2060803995
 20
590.2491278129
  0
SPLINE
  5
C0
330
1F
100
AcDbEntity
  8
0
  6
Continuous
 62
     7
370
    25
100
AcDbSpline
210
0.0
220
0.0
230
1.0
 70
     8
 71
     3
 72
     8
 73
     4
 74
     0
 42
0.000000001
 43
0.00000001
 40
0.0
 40
0.0
 40
0.0
 40
0.0
 40
1.0
 40
1.0
 40
1.0
 40
1.0
 10
134.0019119228297
 20
590.8180568733709
 30
0.0
 10
132.4211254884116
 20
590.4586293884308
 30
0.0
 10
130.8245994808949
 20
590.2491313579197
 30
0.0
 10
129.206080399517
 20
590.2491313579197
 30
0.0
  0
SPLINE
  5
C1
330
1F
100
AcDbEntity
  8
0
  6
Continuous
 62
     7
370
    25
100
AcDbSpline
210
0.0
220
0.0
230
1.0
 70
     8
 71
     3
 72
    10
 73
     6
 74
     0
 42
0.000000001
 43
0.00000001
 40
0.0
 40
0.0
 40
0.0
 40
0.0
 40
0.5
 40
0.5
 40
1.0
 40
1.0
 40
1.0
 40
1.0
 10
129.206080399517
 20
590.2491313579197
 30
0.0
 10
128.3987055482412
 20
590.2491313579197
 30
0.0
 10
127.5818694113972
 20
590.3013221397871
 30
0.0
 10
125.9803998197506
 20
590.497467905418
 30
0.0
 10
125.190989451165
 20
590.6405378770417
 30
0.0
 10
124.4102488762043
 20
590.8180568733709
 30
0.0
  0
LINE
  5
C2
330
1F
100
AcDbEntity
  8
0
  6
Continuous
 62
     7
370
    25
100
AcDbLine
 10
124.4102487714
 20
594.1907606202
 30
0.0
 11
134.0019120277
 21
594.1907606202
 31
0.0
  0
LWPOLYLINE
  5
C3
330
1F
100
AcDbEntity
  8
0
  6
Continuous
 62
     7
370
    25
100
AcDbPolyline
 90
       18
 70
   128
 43
0.0
 10
129.2060803995
 20
590.2491278129
 10
127.1848356724
 20
590.2172542291
 10
125.2324222029
 20
590.1226989108
 10
123.4153266438
 20
589.9686954098
 10
121.7954283953
 20
589.7604740339
 10
120.4278910906
 20
589.5051426368
 10
119.3592841179
 20
589.2113811451
 10
118.6259979755
 20
588.8892105895
 10
118.2530042157
 20
588.5495833235
 10
118.2530042157
 20
588.2040700989
 10
118.6259979755
 20
587.864442833
 10
119.3592841179
 20
587.5422722774
 10
120.4278910906
 20
587.2485107856
 10
121.7954283953
 20
586.9931793886
 10
123.4153266438
 20
586.7849580126
 10
125.2324222029
 20
586.6309545117
 10
127.1848356724
 20
586.5363991933
 10
129.2060803995
 20
586.5045256096
  0
LINE
  5
C4
330
1F
100
AcDbEntity
  8
0
  6
Continuous
 62
     7
370
    25
100
AcDbLine
 10
106.5767113493
 20
647.6032576638
 30
0.0
 11
106.6895317659
 21
647.6082942563
 31
0.0
  0
LINE
  5
C5
330
1F
100
AcDbEntity
  8
0
  6
Continuous
 62
     7
370
    25
100
AcDbLine
 10
151.8354494498
 20
647.6032576638
 30
0.0
 11
151.7227091268
 21
647.6082793551
 31
0.0
  0
LINE
  5
C6
330
1F
100
AcDbEntity
  8
0
  6
Continuous
 62
     7
370
    25
100
AcDbLine
 10
131.0643166677
 20
649.3188581544
 30
0.0
 11
130.6477140776
 21
649.3362776118
 31
0.0
  0
SPLINE
  5
C7
330
1F
100
AcDbEntity
  8
0
  6
Continuous
 62
     7
370
    25
100
AcDbSpline
210
0.0
220
0.0
230
1.0
 70
     8
 71
     3
 72
    10
 73
     6
 74
     0
 42
0.000000001
 43
0.00000001
 40
0.0
 40
0.0
 40
0.0
 40
0.0
 40
0.5
 40
0.5
 40
1.0
 40
1.0
 40
1.0
 40
1.0
 10
133.1555546717315
 20
627.8303312834928
 30
0.0
 10
133.0739203729959
 20
628.1337804230985
 30
0.0
 10
132.9563769134098
 20
628.4167067965582
 30
0.0
 10
132.6573955419276
 20
628.9477336038991
 30
0.0
 10
132.4738660413599
 20
629.1974974332538
 30
0.0
 10
132.2625650942496
 20
629.4230087627566
 30
0.0
  0
SPLINE
  5
C8
330
1F
100
AcDbEntity
  8
0
  6
Continuous
 62
     7
370
    25
100
AcDbSpline
210
0.0
220
0.0
230
1.0
 70
     8
 71
     3
 72
    14
 73
    10
 74
     0
 42
0.000000001
 43
0.00000001
 40
0.0
 40
0.0
 40
0.0
 40
0.0
 40
0.4999999999999623
 40
0.4999999999999623
 40
0.7499999999999811
 40
0.7499999999999811
 40
0.8749999999999906
 40
0.8749999999999906
 40
1.0
 40
1.0
 40
1.0
 40
1.0
 10
132.2625650942483
 20
629.4230087627558
 30
0.0
 10
132.2036703464944
 20
629.4858642920299
 30
0.0
 10
132.1385858135978
 20
629.5416737717645
 30
0.0
 10
132.0261827369628
 20
629.6089590356809
 30
0.0
 10
131.9861070344107
 20
629.6287331731642
 30
0.0
 10
131.9223980465101
 20
629.6476721179356
 30
0.0
 10
131.9002938177007
 20
629.6523235101214
 30
0.0
 10
131.8549734626014
 20
629.6534051618172
 30
0.0
 10
131.8308414078988
 20
629.6495672401194
 30
0.0
 10
131.8127608333702
 20
629.635391401087
 30
0.0
  0
SPLINE
  5
C9
330
1F
100
AcDbEntity
  8
0
  6
Continuous
 62
     7
370
    25
100
AcDbSpline
210
0.0
220
0.0
230
1.0
 70
     8
 71
     3
 72
    10
 73
     6
 74
     0
 42
0.000000001
 43
0.00000001
 40
0.0
 40
0.0
 40
0.0
 40
0.0
 40
0.5
 40
0.5
 40
1.0
 40
1.0
 40
1.0
 40
1.0
 10
131.8127608333702
 20
629.635391401087
 30
0.0
 10
131.3952785227908
 20
629.4912812438494
 30
0.0
 10
130.9709176622867
 20
629.3712494669994
 30
0.0
 10
130.101856399738
 20
629.2023845268843
 30
0.0
 10
129.6541630244759
 20
629.1542503533954
 30
0.0
 10
129.206080399517
 20
629.1542500597126
 30
0.0
  0
SPLINE
  5
CA
330
1F
100
AcDbEntity
  8
0
  6
Continuous
 62
     7
370
    25
100
AcDbSpline
210
0.0
220
0.0
230
1.0
 70
     8
 71
     3
 72
     8
 73
     4
 74
     0
 42
0.000000001
 43
0.00000001
 40
0.0
 40
0.0
 40
0.0
 40
0.0
 40
1.0
 40
1.0
 40
1.0
 40
1.0
 10
129.2060803995171
 20
629.1542500596361
 30
0.0
 10
128.3038289655743
 20
629.1542506509905
 30
0.0
 10
127.4412119699878
 20
629.3448074476274
 30
0.0
 10
126.5993999656628
 20
629.6353914010874
 30
0.0
  0
SPLINE
  5
CB
330
1F
100
AcDbEntity
  8
0
  6
Continuous
 62
     7
370
    25
100
AcDbSpline
210
0.0
220
0.0
230
1.0
 70
     8
 71
     3
 72
    14
 73
    10
 74
     0
 42
0.000000001
 43
0.00000001
 40
0.0
 40
0.0
 40
0.0
 40
0.0
 40
0.1249999999999908
 40
0.1249999999999908
 40
0.2499999999999816
 40
0.2499999999999816
 40
0.4999999999999611
 40
0.4999999999999611
 40
1.0
 40
1.0
 40
1.0
 40
1.0
 10
126.5993999656628
 20
629.6353914010874
 30
0.0
 10
126.5812431292113
 20
629.6496270322874
 30
0.0
 10
126.5571994877713
 20
629.6534094358204
 30
0.0
 10
126.5117937692435
 20
629.6523177734304
 30
0.0
 10
126.4897491804896
 20
629.6476776678888
 30
0.0
 10
126.4256507502387
 20
629.6285941020619
 30
0.0
 10
126.3864342169029
 20
629.6092048094279
 30
0.0
 10
126.2736498739068
 20
629.5417728113036
 30
0.0
 10
126.2084881220228
 20
629.4858618047831
 30
0.0
 10
126.1495957047846
 20
629.4230087627564
 30
0.0
  0
SPLINE
  5
CC
330
1F
100
AcDbEntity
  8
0
  6
Continuous
 62
     7
370
    25
100
AcDbSpline
210
0.0
220
0.0
230
1.0
 70
     8
 71
     3
 72
    10
 73
     6
 74
     0
 42
0.000000001
 43
0.00000001
 40
0.0
 40
0.0
 40
0.0
 40
0.0
 40
0.5
 40
0.5
 40
1.0
 40
1.0
 40
1.0
 40
1.0
 10
126.1495957047846
 20
629.4230087627564
 30
0.0
 10
125.9386875064812
 20
629.1979165951494
 30
0.0
 10
125.7584087337931
 20
628.9531760113172
 30
0.0
 10
125.4581905752406
 20
628.4219896533695
 30
0.0
 10
125.3380449427654
 20
628.1330537771739
 30
0.0
 10
125.2566061273013
 20
627.8303312834939
 30
0.0
  0
SPLINE
  5
CD
330
1F
100
AcDbEntity
  8
0
  6
Continuous
 62
     7
370
    25
100
AcDbSpline
210
0.0
220
0.0
230
1.0
 70
     8
 71
     3
 72
    11
 73
     7
 74
     0
 42
0.000000001
 43
0.00000001
 40
0.0
 40
0.0
 40
0.0
 40
0.0
 40
0.1602906211883066
 40
0.3701855198604811
 40
0.7200491545946228
 40
1.0
 40
1.0
 40
1.0
 40
1.0
 10
106.6150986031331
 20
612.8627202587749
 30
0.0
 10
106.6091331359503
 20
612.8648892498492
 30
0.0
 10
106.5953561005011
 20
612.8698984580138
 30
0.0
 10
106.5791103162833
 20
612.8745905210689
 30
0.0
 10
106.5777249532761
 20
612.8693483869876
 30
0.0
 10
106.6101486114767
 20
612.8433235956767
 30
0.0
 10
106.6245608404912
 20
612.831755645814
 30
0.0
  0
SPLINE
  5
CE
330
1F
100
AcDbEntity
  8
0
  6
Continuous
 62
     7
370
    25
100
AcDbSpline
210
0.0
220
0.0
230
1.0
 70
     8
 71
     3
 72
     9
 73
     5
 74
     0
 42
0.000000001
 43
0.00000001
 40
0.0
 40
0.0
 40
0.0
 40
0.0
 40
0.386529258190592
 40
1.0
 40
1.0
 40
1.0
 40
1.0
 10
151.7965853587426
 20
612.8622285204555
 30
0.0
 10
151.8030705969537
 20
612.8647968494171
 30
0.0
 10
151.8198487271305
 20
612.8714414407568
 30
0.0
 10
151.8225738537562
 20
612.8700998167654
 30
0.0
 10
151.8242456392087
 20
612.8692767697001
 30
0.0
  0
SPLINE
  5
CF
330
1F
100
AcDbEntity
  8
0
  6
Continuous
 62
     7
370
    25
100
AcDbSpline
210
0.0
220
0.0
230
1.0
 70
     8
 71
     3
 72
    20
 73
    16
 74
     0
 42
0.000000001
 43
0.00000001
 40
0.0
 40
0.0
 40
0.0
 40
0.0
 40
0.0639572731196476
 40
0.1254719613805892
 40
0.1879473032080987
 40
0.2459851587350448
 40
0.3684131929322844
 40
0.492601438226114
 40
0.6173968684144026
 40
0.6804283622391507
 40
0.7421129903348493
 40
0.803953576483583
 40
0.8680637991580643
 40
0.9329348342807073
 40
1.0
 40
1.0
 40
1.0
 40
1.0
 10
105.2703017775761
 20
646.1129305817952
 30
0.0
 10
105.2679320526248
 20
646.1105983553581
 30
0.0
 10
105.2632831046153
 20
646.1060229722755
 30
0.0
 10
105.2565436881504
 20
646.0535860515882
 30
0.0
 10
105.2501666657592
 20
645.9152934501225
 30
0.0
 10
105.2419419335378
 20
645.5884891496078
 30
0.0
 10
105.232318510768
 20
644.874188118047
 30
0.0
 10
105.2223128651731
 20
643.6234688565473
 30
0.0
 10
105.2156854012983
 20
642.3198115285504
 30
0.0
 10
105.2116756571595
 20
641.1630477195794
 30
0.0
 10
105.2093726502403
 20
640.2461719199047
 30
0.0
 10
105.2077729856709
 20
639.2855688026342
 30
0.0
 10
105.2068395202894
 20
638.2854879183756
 30
0.0
 10
105.2064621942125
 20
637.249057060543
 30
0.0
 10
105.2064893922382
 20
636.5512684945927
 30
0.0
 10
105.2065032174059
 20
636.19657201619
 30
0.0
  0
SPLINE
  5
D0
330
1F
100
AcDbEntity
  8
0
  6
Continuous
 62
     7
370
    25
100
AcDbSpline
210
0.0
220
0.0
230
1.0
 70
     8
 71
     3
 72
    10
 73
     6
 74
     0
 42
0.000000001
 43
0.00000001
 40
0.0
 40
0.0
 40
0.0
 40
0.0
 40
0.5
 40
0.5
 40
1.0
 40
1.0
 40
1.0
 40
1.0
 10
105.2094190014976
 20
623.8201302848007
 30
0.0
 10
105.2174860137048
 20
623.1905900949469
 30
0.0
 10
105.2317017899335
 20
622.5612703793081
 30
0.0
 10
105.2969594912463
 20
621.3036311265068
 30
0.0
 10
105.3469745466173
 20
620.6754542357793
 30
0.0
 10
105.4307123730533
 20
620.0478212889567
 30
0.0
  0
SPLINE
  5
D1
330
1F
100
AcDbEntity
  8
0
  6
Continuous
 62
     7
370
    25
100
AcDbSpline
210
0.0
220
0.0
230
1.0
 70
     8
 71
     3
 72
     9
 73
     5
 74
     0
 42
0.000000001
 43
0.00000001
 40
0.0
 40
0.0
 40
0.0
 40
0.0
 40
0.553640946226536
 40
1.0
 40
1.0
 40
1.0
 40
1.0
 10
105.2070990577974
 20
633.4528169708874
 30
0.0
 10
105.2074593385801
 20
631.6751382192364
 30
0.0
 10
105.2081100866601
 20
628.464250795235
 30
0.0
 10
105.209014401771
 20
625.2533636016997
 30
0.0
 10
105.2094180510082
 20
623.82015503222
 30
0.0
  0
SPLINE
  5
D2
330
1F
100
AcDbEntity
  8
0
  6
Continuous
 62
     7
370
    25
100
AcDbSpline
210
0.0
220
0.0
230
1.0
 70
     8
 71
     3
 72
    24
 73
    20
 74
     0
 42
0.000000001
 43
0.00000001
 40
0.0
 40
0.0
 40
0.0
 40
0.0
 40
0.1249999999999957
 40
0.1249999999999957
 40
0.1874999999999961
 40
0.1874999999999961
 40
0.2499999999999965
 40
0.2499999999999965
 40
0.3749999999999971
 40
0.3749999999999971
 40
0.4999999999999976
 40
0.4999999999999976
 40
0.6249999999999981
 40
0.6249999999999981
 40
0.7499999999999988
 40
0.7499999999999988
 40
0.8749999999999993
 40
0.8749999999999993
 40
1.0
 40
1.0
 40
1.0
 40
1.0
 10
153.2056575805045
 20
636.1965720161892
 30
0.0
 10
153.2057132222494
 20
636.9171325878322
 30
0.0
 10
153.2056562342786
 20
637.616242217897
 30
0.0
 10
153.2050063920388
 20
638.6239051675077
 30
0.0
 10
153.204698828257
 20
638.9528699057541
 30
0.0
 10
153.2038554456849
 20
639.6052520092821
 30
0.0
 10
153.2033208670721
 20
639.9269118641193
 30
0.0
 10
153.2013639824208
 20
640.8680669383826
 30
0.0
 10
153.1995837060415
 20
641.4636027576032
 30
0.0
 10
153.1951334943332
 20
642.583958664844
 30
0.0
 10
153.1924818929971
 20
643.1051675566653
 30
0.0
 10
153.1864752793323
 20
644.0454241688886
 30
0.0
 10
153.1831171664423
 20
644.4643911963807
 30
0.0
 10
153.1758911589289
 20
645.1679080578425
 30
0.0
 10
153.1720151076892
 20
645.4532858656552
 30
0.0
 10
153.1639781677534
 20
645.8596189400306
 30
0.0
 10
153.1598772950684
 20
645.9759699248291
 30
0.0
 10
153.1512376885919
 20
646.1023950727396
 30
0.0
 10
153.1467581156324
 20
646.1087569142226
 30
0.0
 10
153.141859021458
 20
646.1129305817954
 30
0.0
  0
SPLINE
  5
D3
330
1F
100
AcDbEntity
  8
0
  6
Continuous
 62
     7
370
    25
100
AcDbSpline
210
0.0
220
0.0
230
1.0
 70
     8
 71
     3
 72
     9
 73
     5
 74
     0
 42
0.000000001
 43
0.00000001
 40
0.0
 40
0.0
 40
0.0
 40
0.0
 40
0.553640946226536
 40
1.0
 40
1.0
 40
1.0
 40
1.0
 10
153.2050617412366
 20
633.4528169708874
 30
0.0
 10
153.2047014604539
 20
631.6751382192364
 30
0.0
 10
153.2040507123739
 20
628.464250795235
 30
0.0
 10
153.203146397263
 20
625.2533636016997
 30
0.0
 10
153.2027427480258
 20
623.82015503222
 30
0.0
  0
SPLINE
  5
D4
330
1F
100
AcDbEntity
  8
0
  6
Continuous
 62
     7
370
    25
100
AcDbSpline
210
0.0
220
0.0
230
1.0
 70
     8
 71
     3
 72
    10
 73
     6
 74
     0
 42
0.000000001
 43
0.00000001
 40
0.0
 40
0.0
 40
0.0
 40
0.0
 40
0.5
 40
0.5
 40
1.0
 40
1.0
 40
1.0
 40
1.0
 10
152.9814484259808
 20
620.0478212889567
 30
0.0
 10
153.0651886831721
 20
620.6754724548114
 30
0.0
 10
153.1151984980306
 20
621.3035933273593
 30
0.0
 10
153.1804572503501
 20
622.5612201358217
 30
0.0
 10
153.1946746700936
 20
623.1905811020931
 30
0.0
 10
153.2027417975364
 20
623.8201302848007
 30
0.0
  0
SPLINE
  5
D5
330
1F
100
AcDbEntity
  8
0
  6
Continuous
 62
     7
370
    25
100
AcDbSpline
210
0.0
220
0.0
230
1.0
 70
    24
 71
     3
 72
    30
 73
    26
 74
     0
 42
0.000000001
 43
0.00000001
 40
0.0
 40
0.0
 40
0.0
 40
0.0
 40
0.1250000000000006
 40
0.1250000000000006
 40
0.1875000000000007
 40
0.1875000000000007
 40
0.2500000000000009
 40
0.2500000000000009
 40
0.3750000000000011
 40
0.3750000000000011
 40
0.4375000000000011
 40
0.4375000000000011
 40
0.500000000000001
 40
0.500000000000001
 40
0.6250000000000009
 40
0.6250000000000009
 40
0.6875000000000008
 40
0.6875000000000008
 40
0.7500000000000006
 40
0.7500000000000006
 40
0.8750000000000003
 40
0.8750000000000003
 40
0.9375000000000001
 40
0.9375000000000001
 40
1.0
 40
1.0
 40
1.0
 40
1.0
 10
150.8529759802225
 20
617.1965703087474
 30
0.0
 10
150.4991579875988
 20
617.1965703087473
 30
0.0
 10
150.0527914622191
 20
617.1965703087473
 30
0.0
 10
149.242137211376
 20
617.1965703087473
 30
0.0
 10
148.9484049022607
 20
617.1965703087474
 30
0.0
 10
148.3131457272371
 20
617.1965703087474
 30
0.0
 10
147.9713955374602
 20
617.1965703087474
 30
0.0
 10
146.8931242951717
 20
617.1965703087474
 30
0.0
 10
146.098479342855
 20
617.1965703087474
 30
0.0
 10
144.8005946208211
 20
617.1965703087474
 30
0.0
 10
144.3484425163492
 20
617.1965703087473
 30
0.0
 10
143.4201661697078
 20
617.1965703087474
 30
0.0
 10
142.9440762954399
 20
617.1965703087475
 30
0.0
 10
141.4821621435496
 20
617.1965703087475
 30
0.0
 10
140.4629533585027
 20
617.1965703087474
 30
0.0
 10
138.8711990231797
 20
617.1965703087474
 30
0.0
 10
138.3281451552699
 20
617.1965703087473
 30
0.0
 10
137.2330418099503
 20
617.1965703087474
 30
0.0
 10
136.6806776502084
 20
617.1965703087474
 30
0.0
 10
135.0094361535641
 20
617.1965703087474
 30
0.0
 10
133.8766534289544
 20
617.1965703087474
 30
0.0
 10
132.1470827295458
 20
617.1965703087474
 30
0.0
 10
131.5654450189605
 20
617.1965703087473
 30
0.0
 10
130.3905227984045
 20
617.1965703087473
 30
0.0
 10
129.7979998160697
 20
617.1965703087474
 30
0.0
 10
129.206080399517
 20
617.1965703087474
 30
0.0
  0
SPLINE
  5
D6
330
1F
100
AcDbEntity
  8
0
  6
Continuous
 62
     7
370
    25
100
AcDbSpline
210
0.0
220
0.0
230
1.0
 70
    24
 71
     3
 72
    30
 73
    26
 74
     0
 42
0.000000001
 43
0.00000001
 40
0.0
 40
0.0
 40
0.0
 40
0.0
 40
0.0624999999999999
 40
0.0624999999999999
 40
0.1249999999999997
 40
0.1249999999999997
 40
0.2499999999999994
 40
0.2499999999999994
 40
0.3124999999999993
 40
0.3124999999999993
 40
0.3749999999999993
 40
0.3749999999999993
 40
0.4999999999999993
 40
0.4999999999999993
 40
0.5624999999999993
 40
0.5624999999999993
 40
0.6249999999999992
 40
0.6249999999999992
 40
0.7499999999999994
 40
0.7499999999999994
 40
0.8124999999999997
 40
0.8124999999999997
 40
0.8749999999999998
 40
0.8749999999999998
 40
1.0
 40
1.0
 40
1.0
 40
1.0
 10
129.206080399517
 20
617.1965703087474
 30
0.0
 10
128.6141609829644
 20
617.1965703087474
 30
0.0
 10
128.0216380006296
 20
617.1965703087474
 30
0.0
 10
126.8467157800736
 20
617.1965703087474
 30
0.0
 10
126.2650780694882
 20
617.1965703087474
 30
0.0
 10
124.5355073700797
 20
617.1965703087473
 30
0.0
 10
123.40272464547
 20
617.1965703087474
 30
0.0
 10
121.7314831488257
 20
617.1965703087474
 30
0.0
 10
121.1791189890838
 20
617.1965703087473
 30
0.0
 10
120.0840156437642
 20
617.1965703087473
 30
0.0
 10
119.5409617758544
 20
617.1965703087473
 30
0.0
 10
117.9492074405313
 20
617.1965703087474
 30
0.0
 10
116.9299986554845
 20
617.1965703087474
 30
0.0
 10
115.4680845035943
 20
617.1965703087474
 30
0.0
 10
114.9919946293263
 20
617.1965703087474
 30
0.0
 10
114.0637182826849
 20
617.1965703087474
 30
0.0
 10
113.611566178213
 20
617.1965703087474
 30
0.0
 10
112.3136814561791
 20
617.1965703087474
 30
0.0
 10
111.5190365038624
 20
617.1965703087474
 30
0.0
 10
110.4407652615739
 20
617.1965703087474
 30
0.0
 10
110.0990150717969
 20
617.1965703087474
 30
0.0
 10
109.4637558967734
 20
617.1965703087474
 30
0.0
 10
109.1700235876581
 20
617.1965703087474
 30
0.0
 10
108.359369336815
 20
617.1965703087474
 30
0.0
 10
107.9130028114353
 20
617.1965703087474
 30
0.0
 10
107.5591848188116
 20
617.1965703087474
 30
0.0
  0
ARC
  5
D7
330
1F
100
AcDbEntity
  8
0
  6
Continuous
 62
     7
370
    25
100
AcDbCircle
 10
129.2060803995
 20
627.1965703087
 30
0.0
 40
4.00000000000002
100
AcDbArc
 50
170.8836260251
 51
9.1163739749
  0
ARC
  5
D8
330
1F
100
AcDbEntity
  8
0
  6
Continuous
 62
     7
370
    25
100
AcDbCircle
 10
129.2060803995
 20
627.1965703087
 30
0.0
 40
3.569682227408646
100
AcDbArc
 50
136.9054767405
 51
43.0945232595
  0
LINE
  5
D9
330
1F
100
AcDbEntity
  8
0
  6
Continuous
 62
     7
370
    25
100
AcDbLine
 10
153.2041769848
 20
382.0465720373
 30
0.0
 11
153.2041769848
 21
512.5965709912
 31
0.0
  0
SPLINE
  5
DA
330
1F
100
AcDbEntity
  8
0
  6
Continuous
 62
     7
370
    25
100
AcDbSpline
210
0.0
220
0.0
230
1.0
 70
    24
 71
     3
 72
    32
 73
    28
 74
     0
 42
0.000000001
 43
0.00000001
 40
0.0
 40
0.0
 40
0.0
 40
0.0
 40
0.0455572997700319
 40
0.0726366725530812
 40
0.1100236157413116
 40
0.1476332886294495
 40
0.1859676649242279
 40
0.224562589936346
 40
0.2607722466211571
 40
0.2972122360519482
 40
0.3343878741316516
 40
0.3718229729705403
 40
0.4080553259907642
 40
0.4445363357256432
 40
0.4818129924909361
 40
0.5193707644623321
 40
0.5488385913757048
 40
0.5784154101614364
 40
0.614039733562553
 40
0.662182978634455
 40
0.7104278663743387
 40
0.7335791647503175
 40
0.7798857595072524
 40
0.8262295210455959
 40
0.8783306501396487
 40
0.9304477500426392
 40
1.0
 40
1.0
 40
1.0
 40
1.0
 10
130.9039394278713
 20
382.0465720372821
 30
0.0
 10
131.6415486710169
 20
382.0465720372821
 30
0.0
 10
132.8175946907973
 20
382.0465720372821
 30
0.0
 10
134.573608937333
 20
382.0465720372821
 30
0.0
 10
136.1818856261474
 20
382.0465720372821
 30
0.0
 10
137.9271586513805
 20
382.0465720372821
 30
0.0
 10
139.6383020958101
 20
382.0465720372821
 30
0.0
 10
141.2633511084132
 20
382.0465720372821
 30
0.0
 10
142.7871759222918
 20
382.0465720372821
 30
0.0
 10
144.2104156288073
 20
382.0465720372821
 30
0.0
 10
145.5564269589159
 20
382.0465720372821
 30
0.0
 10
146.7950802601703
 20
382.0465720372821
 30
0.0
 10
147.9142995611215
 20
382.0465720372821
 30
0.0
 10
148.9125521877452
 20
382.0465720372821
 30
0.0
 10
149.7927252548977
 20
382.0465720372822
 30
0.0
 10
150.486267083006
 20
382.0465720372821
 30
0.0
 10
151.0128786652691
 20
382.0465720372821
 30
0.0
 10
151.4422418357045
 20
382.0465720372821
 30
0.0
 10
151.8623959116267
 20
382.0465720372821
 30
0.0
 10
152.2530590442359
 20
382.0465720372821
 30
0.0
 10
152.5232244840877
 20
382.0465720372822
 30
0.0
 10
152.734458309369
 20
382.0465720372821
 30
0.0
 10
152.8946542339318
 20
382.0465720372822
 30
0.0
 10
153.0315515421066
 20
382.0465720372821
 30
0.0
 10
153.1190530281299
 20
382.0465720372821
 30
0.0
 10
153.1775128777735
 20
382.0465720372821
 30
0.0
 10
153.1863377433258
 20
382.0465720372822
 30
0.0
 10
153.1913824752607
 20
382.0465720372821
 30
0.0
  0
SPLINE
  5
DB
330
1F
100
AcDbEntity
  8
0
  6
Continuous
 62
     7
370
    25
100
AcDbSpline
210
0.0
220
0.0
230
1.0
 70
    24
 71
     3
 72
    28
 73
    24
 74
     0
 42
0.000000001
 43
0.00000001
 40
0.0
 40
0.0
 40
0.0
 40
0.0
 40
0.0274888977064435
 40
0.0810620893375256
 40
0.11811143789954
 40
0.1553815049686932
 40
0.1933697315563051
 40
0.2316161541723407
 40
0.2674988468298342
 40
0.3036097923869588
 40
0.3404497438720491
 40
0.3775468132513951
 40
0.413451997302142
 40
0.4496035927603997
 40
0.4865436507579384
 40
0.5237622855624804
 40
0.5704784083190685
 40
0.617560565775262
 40
0.7130545783400204
 40
0.7359968263562974
 40
0.8278020749839322
 40
0.9310757892409395
 40
1.0
 40
1.0
 40
1.0
 40
1.0
 10
127.9543156875931
 20
382.0465720372821
 30
0.0
 10
127.5042466684811
 20
382.0465720372821
 30
0.0
 10
126.1770368463588
 20
382.0465720372821
 30
0.0
 10
124.2634725204695
 20
382.0465720372821
 30
0.0
 10
122.2303202640203
 20
382.0465720372821
 30
0.0
 10
120.4849897761318
 20
382.0465720372821
 30
0.0
 10
118.7738620769834
 20
382.0465720372821
 30
0.0
 10
117.1488088472347
 20
382.0465720372821
 30
0.0
 10
115.6249850951676
 20
382.0465720372822
 30
0.0
 10
114.2017451210957
 20
382.0465720372821
 30
0.0
 10
112.8557338118876
 20
382.0465720372821
 30
0.0
 10
111.6170807007188
 20
382.0465720372821
 30
0.0
 10
110.4978606395401
 20
382.0465720372821
 30
0.0
 10
109.4996108887339
 20
382.0465720372821
 30
0.0
 10
108.6194268103775
 20
382.0465720372821
 30
0.0
 10
107.8084097285344
 20
382.0465720372822
 30
0.0
 10
107.1292396406773
 20
382.0465720372821
 30
0.0
 10
106.4017003911406
 20
382.0465720372822
 30
0.0
 10
105.9755487031713
 20
382.0465720372821
 30
0.0
 10
105.5943785124971
 20
382.0465720372821
 30
0.0
 10
105.3513718075439
 20
382.0465720372821
 30
0.0
 10
105.2395364915454
 20
382.0465720372821
 30
0.0
 10
105.2261403031072
 20
382.0465720372821
 30
0.0
 10
105.2207783237733
 20
382.0465720372821
 30
0.0
  0
LINE
  5
DC
330
1F
100
AcDbEntity
  8
0
  6
Continuous
 62
     7
370
    25
100
AcDbLine
 10
105.2079838142
 20
382.0465720373
 30
0.0
 11
105.2079838142
 21
512.5965709912
 31
0.0
  0
LINE
  5
DD
330
1F
100
AcDbEntity
  8
0
  6
Continuous
 62
     7
370
    25
100
AcDbLine
 10
128.1992647006
 20
381.7965678054
 30
0.0
 11
129.2060803995
 21
381.7965678054
 31
0.0
  0
ARC
  5
DE
330
1F
100
AcDbEntity
  8
0
  6
Continuous
 62
     7
370
    25
100
AcDbCircle
 10
105.4579889666
 20
382.0465729576
 30
0.0
 40
0.2500051523286585
100
AcDbArc
 50
180.0002109161
 51
269.9985084308
  0
ARC
  5
DF
330
1F
100
AcDbEntity
  8
0
  6
Continuous
 62
     7
370
    25
100
AcDbCircle
 10
152.9541718325
 20
382.0465729576
 30
0.0
 40
0.2500051523286585
100
AcDbArc
 50
270.0014915692
 51
359.9997890839
  0
LINE
  5
E0
330
1F
100
AcDbEntity
  8
0
  6
Continuous
 62
     7
370
    25
100
AcDbLine
 10
130.6589905313
 20
381.7965678054
 30
0.0
 11
129.2060803995
 21
381.7965678054
 31
0.0
  0
SPLINE
  5
E1
330
1F
100
AcDbEntity
  8
0
  6
Continuous
 62
     7
370
    25
100
AcDbSpline
210
0.0
220
0.0
230
1.0
 70
     8
 71
     3
 72
     9
 73
     5
 74
     0
 42
0.000000001
 43
0.00000001
 40
0.0
 40
0.0
 40
0.0
 40
0.0
 40
0.5410982465573029
 40
1.0
 40
1.0
 40
1.0
 40
1.0
 10
105.4815430567302
 20
619.6937254744197
 30
0.0
 10
105.5483378919905
 20
619.3233080738809
 30
0.0
 10
105.6717809740652
 20
618.6387421879339
 30
0.0
 10
105.9187657078313
 20
618.2473201317191
 30
0.0
 10
106.0321074352302
 20
618.0676958637858
 30
0.0
  0
SPLINE
  5
E2
330
1F
100
AcDbEntity
  8
0
  6
Continuous
 62
     7
370
    25
100
AcDbSpline
210
0.0
220
0.0
230
1.0
 70
     8
 71
     3
 72
    11
 73
     7
 74
     0
 42
0.000000001
 43
0.00000001
 40
0.0
 40
0.0
 40
0.0
 40
0.0
 40
0.0006000014014084
 40
0.0006000014014084
 40
0.0006000014014084
 40
0.0010146059072764
 40
0.0010146059072764
 40
0.0010146059072764
 40
0.0010146059072764
 10
105.430721235973
 20
620.047814098183
 30
0.0
 10
105.4399997486758
 20
619.9779927244883
 30
0.0
 10
105.4497017919423
 20
619.9081833943094
 30
0.0
 10
105.4598519981562
 20
619.8383877026411
 30
0.0
 10
105.4668658588553
 20
619.7901584106993
 30
0.0
 10
105.4740937435836
 20
619.7419354936435
 30
0.0
 10
105.4815439225246
 20
619.6937195211647
 30
0.0
  0
LWPOLYLINE
  5
E3
330
1F
100
AcDbEntity
  8
0
  6
Continuous
 62
     7
370
    25
100
AcDbPolyline
 90
        4
 70
   128
 43
0.0
 10
153.2041509078
 20
514.0188030081
 10
153.2046053932
 20
530.3746937888
 10
153.2046594099
 20
532.4603720682
 10
153.2050021366
 20
548.1528184491
  0
LWPOLYLINE
  5
E4
330
1F
100
AcDbEntity
  8
0
  6
Continuous
 62
     7
370
    25
100
AcDbPolyline
 90
        4
 70
   128
 43
0.0
 10
105.2080508695
 20
512.5965747165
 10
105.2075554059
 20
530.3746937888
 10
105.2075013891
 20
532.4603720682
 10
105.2071586624
 20
548.1528184491
  0
SPLINE
  5
E5
330
1F
100
AcDbEntity
  8
0
  6
Continuous
 62
     7
370
    25
100
AcDbSpline
210
0.0
220
0.0
230
1.0
 70
     8
 71
     3
 72
    20
 73
    16
 74
     0
 42
0.000000001
 43
0.00000001
 40
0.0
 40
0.0
 40
0.0
 40
0.0
 40
0.0488570098163691
 40
0.1285413944914361
 40
0.2099674734042262
 40
0.2919966193120885
 40
0.3709241627583712
 40
0.450400881765895
 40
0.5316102856092679
 40
0.6134184100568418
 40
0.6922664393906843
 40
0.7716584437902035
 40
0.8527591084049939
 40
0.9344473469247884
 40
1.0
 40
1.0
 40
1.0
 40
1.0
 10
149.8516206071414
 20
613.2464400606776
 30
0.0
 10
149.7518421046322
 20
613.2642197007993
 30
0.0
 10
149.4893277202887
 20
613.3109974250889
 30
0.0
 10
148.9005550100728
 20
613.39355434272
 30
0.0
 10
148.1013522693678
 20
613.4937768216286
 30
0.0
 10
147.1620583696777
 20
613.5994922458374
 30
0.0
 10
146.1055980455585
 20
613.7080671503697
 30
0.0
 10
144.9355406899824
 20
613.8186663166887
 30
0.0
 10
143.6399605849355
 20
613.932545394043
 30
0.0
 10
142.24425601845
 20
614.0466743892107
 30
0.0
 10
140.7679702003532
 20
614.1574082042366
 30
0.0
 10
139.2168968591484
 20
614.2619880905096
 30
0.0
 10
137.5764445529181
 20
614.3585125231823
 30
0.0
 10
135.9758356769576
 20
614.4397351904199
 30
0.0
 10
134.9131000415438
 20
614.481466074345
 30
0.0
 10
134.4399628602602
 20
614.5000449495936
 30
0.0
  0
SPLINE
  5
E6
330
1F
100
AcDbEntity
  8
0
  6
Continuous
 62
     7
370
    25
100
AcDbSpline
210
0.0
220
0.0
230
1.0
 70
     8
 71
     3
 72
    20
 73
    16
 74
     0
 42
0.000000001
 43
0.00000001
 40
0.0
 40
0.0
 40
0.0
 40
0.0
 40
0.0795174012297774
 40
0.159585541307068
 40
0.2413968960661407
 40
0.3238135763678582
 40
0.4032376700205241
 40
0.4832197955341893
 40
0.5649666614024611
 40
0.6473245886570707
 40
0.726205011902249
 40
0.8056336355652944
 40
0.88679020802068
 40
0.9685429934662908
 40
1.0
 40
1.0
 40
1.0
 40
1.0
 10
123.9721979387738
 20
614.5000449495936
 30
0.0
 10
123.3987330434972
 20
614.4772345549028
 30
0.0
 10
122.247831425512
 20
614.4314557803468
 30
0.0
 10
120.5647025280786
 20
614.3434465527764
 30
0.0
 10
118.9201990459518
 20
614.244497970583
 30
0.0
 10
117.3550455862203
 20
614.1366356028375
 30
0.0
 10
115.8856474520069
 20
614.0242507413919
 30
0.0
 10
114.5132485058678
 20
613.910415973006
 30
0.0
 10
113.2295337972416
 20
613.7960631321189
 30
0.0
 10
112.0673348047423
 20
613.6843789297171
 30
0.0
 10
111.0380216907859
 20
613.5763761933438
 30
0.0
 10
110.1370749126271
 20
613.4729845623137
 30
0.0
 10
109.3686433622833
 20
613.3742159876163
 30
0.0
 10
108.8418716372243
 20
613.2984945688822
 30
0.0
 10
108.6201428629853
 20
613.2576657417774
 30
0.0
 10
108.5585322604217
 20
613.2463208513881
 30
0.0
  0
LINE
  5
E7
330
1F
100
AcDbEntity
  8
0
  6
Continuous
 62
     7
370
    25
100
AcDbLine
 10
129.2060803995
 20
614.5979306775
 30
0.0
 11
128.5736239539
 21
614.5918957072
 31
0.0
  0
LINE
  5
E8
330
1F
100
AcDbEntity
  8
0
  6
Continuous
 62
     7
370
    25
100
AcDbLine
 10
126.106406739
 20
614.5595154839
 30
0.0
 11
123.9721979388
 21
614.5000449496
 31
0.0
  0
LINE
  5
E9
330
1F
100
AcDbEntity
  8
0
  6
Continuous
 62
     7
370
    25
100
AcDbLine
 10
134.4399628603
 20
614.5000449496
 30
0.0
 11
132.3392686342
 21
614.558874734
 31
0.0
  0
LINE
  5
EA
330
1F
100
AcDbEntity
  8
0
  6
Continuous
 62
     7
370
    25
100
AcDbLine
 10
129.8255674216
 20
614.5919255095
 30
0.0
 11
129.2060803995
 21
614.5979306775
 31
0.0
  0
LINE
  5
EB
330
1F
100
AcDbEntity
  8
0
  6
Continuous
 62
     7
370
    25
100
AcDbLine
 10
107.5591840223
 20
617.1965739804
 30
0.0
 11
107.4071661011
 21
617.2076157408
 31
0.0
  0
LINE
  5
EC
330
1F
100
AcDbEntity
  8
0
  6
Continuous
 62
     7
370
    25
100
AcDbLine
 10
152.9275760428
 20
619.6481577235
 30
0.0
 11
152.9306177423
 21
619.6937254744
 31
0.0
  0
ARC
  5
ED
330
1F
100
AcDbEntity
  8
0
  6
Continuous
 62
     7
370
    25
100
AcDbCircle
 10
106.7753440081
 20
646.1202441822
 30
0.0
 40
1.499927097492295
100
AcDbArc
 50
134.2601631578
 51
180.0328149393
  0
ARC
  5
EE
330
1F
100
AcDbEntity
  8
0
  6
Continuous
 62
     7
370
    25
100
AcDbCircle
 10
151.636816791
 20
646.1202441822
 30
0.0
 40
1.499927097492315
100
AcDbArc
 50
359.9671850607
 51
45.7398368422
  0
LINE
  5
EF
330
1F
100
AcDbEntity
  8
0
  6
Continuous
 62
     7
370
    25
100
AcDbLine
 10
129.2060803995
 20
649.39656771
 30
0.0
 11
130.6522027031
 21
649.3624142485
 31
0.0
  0
LINE
  5
F0
330
1F
100
AcDbEntity
  8
0
  6
Continuous
 62
     7
370
    25
100
AcDbLine
 10
129.2060803995
 20
649.39656771
 30
0.0
 11
127.7599580959
 21
649.3624142485
 31
0.0
  0
SPLINE
  5
F1
330
1F
100
AcDbEntity
  8
0
  6
Continuous
 62
     8
370
    18
100
AcDbSpline
210
0.0
220
0.0
230
1.0
 70
     8
 71
     3
 72
    14
 73
    10
 74
     0
 42
0.000000001
 43
0.00000001
 40
0.0
 40
0.0
 40
0.0
 40
0.0
 40
0.125
 40
0.125
 40
0.2499999999999999
 40
0.2499999999999999
 40
0.5
 40
0.5
 40
1.0
 40
1.0
 40
1.0
 40
1.0
 10
153.1335184187477
 20
611.2394057475137
 30
0.0
 10
153.1282908298928
 20
611.2603065221193
 30
0.0
 10
153.1229755706242
 20
611.2751396909001
 30
0.0
 10
153.1119977688235
 20
611.2897570316819
 30
0.0
 10
153.1063369962203
 20
611.2898245302524
 30
0.0
 10
153.0888301179445
 20
611.2786849149857
 30
0.0
 10
153.0764666059455
 20
611.258265634388
 30
0.0
 10
153.0379609332794
 20
611.2127142762318
 30
0.0
 10
153.0107406603323
 20
611.2050934794922
 30
0.0
 10
152.9822276860378
 20
611.2007363111318
 30
0.0
  0
SPLINE
  5
F2
330
1F
100
AcDbEntity
  8
0
  6
Continuous
 62
     8
370
    18
100
AcDbSpline
210
0.0
220
0.0
230
1.0
 70
     8
 71
     3
 72
    14
 73
    10
 74
     0
 42
0.000000001
 43
0.00000001
 40
0.0
 40
0.0
 40
0.0
 40
0.0
 40
0.25
 40
0.25
 40
0.5
 40
0.5
 40
0.75
 40
0.75
 40
1.0
 40
1.0
 40
1.0
 40
1.0
 10
153.2052795692363
 20
601.8491601676279
 30
0.0
 10
153.2053246140503
 20
602.226186835463
 30
0.0
 10
153.2053531988983
 20
602.6032448982827
 30
0.0
 10
153.2052745910884
 20
603.3563313950385
 30
0.0
 10
153.2051637091388
 20
603.7339295551346
 30
0.0
 10
153.2047450566043
 20
604.4749422209449
 30
0.0
 10
153.2044377592782
 20
604.8387506026106
 30
0.0
 10
153.2035932061327
 20
605.5512254740491
 30
0.0
 10
153.2030585569952
 20
605.9003407933512
 30
0.0
 10
153.2024068831248
 20
606.2426406857926
 30
0.0
  0
SPLINE
  5
F3
330
1F
100
AcDbEntity
  8
0
  6
Continuous
 62
     8
370
    18
100
AcDbSpline
210
0.0
220
0.0
230
1.0
 70
    24
 71
     3
 72
     8
 73
     4
 74
     0
 42
0.000000001
 43
0.00000001
 40
0.0112506083151716
 40
0.0112506083151716
 40
0.0112506083151716
 40
0.0112506083151716
 40
0.2942137732330101
 40
0.2942137732330101
 40
0.2942137732330101
 40
0.2942137732330101
 10
152.5262132101213
 20
548.1528151391431
 30
0.0
 10
153.1229942112537
 20
548.1528151391425
 30
0.0
 10
153.1938325730294
 20
548.1528151391421
 30
0.0
 10
153.2050018109473
 20
548.1528151391421
 30
0.0
  0
SPLINE
  5
F4
330
1F
100
AcDbEntity
  8
0
  6
Continuous
 62
     8
370
    18
100
AcDbSpline
210
0.0
220
0.0
230
1.0
 70
     8
 71
     3
 72
    16
 73
    12
 74
     0
 42
0.000000001
 43
0.00000001
 40
0.0
 40
0.0
 40
0.0
 40
0.0
 40
0.1103535322157014
 40
0.207429574506757
 40
0.4413505843640796
 40
0.554081866078996
 40
0.6580518001693866
 40
0.763178331992155
 40
0.8616090048207204
 40
0.9316045159985821
 40
1.0
 40
1.0
 40
1.0
 40
1.0
 10
105.2070674188731
 20
548.1528261503795
 30
0.0
 10
105.2084238279298
 20
548.1528244630107
 30
0.0
 10
105.2109734459423
 20
548.1528212912935
 30
0.0
 10
105.2253334403695
 20
548.1528002543877
 30
0.0
 10
105.2568807568289
 20
548.1529109349036
 30
0.0
 10
105.3295923013847
 20
548.152663246668
 30
0.0
 10
105.4059603139497
 20
548.1528759361288
 30
0.0
 10
105.5061419337269
 20
548.1527225983419
 30
0.0
 10
105.6248274660343
 20
548.1528705476396
 30
0.0
 10
105.7508387402187
 20
548.1527074849168
 30
0.0
 10
105.8413159526005
 20
548.1527243719182
 30
0.0
 10
105.8860315262109
 20
548.1527327177981
 30
0.0
  0
SPLINE
  5
F5
330
1F
100
AcDbEntity
  8
0
  6
Continuous
 62
     8
370
    18
100
AcDbSpline
210
0.0
220
0.0
230
1.0
 70
     8
 71
     3
 72
    14
 73
    10
 74
     0
 42
0.000000001
 43
0.00000001
 40
0.0
 40
0.0
 40
0.0
 40
0.0
 40
0.25
 40
0.25
 40
0.5
 40
0.5
 40
0.75
 40
0.75
 40
1.0
 40
1.0
 40
1.0
 40
1.0
 10
105.2068812297977
 20
601.8491601676279
 30
0.0
 10
105.2068361849837
 20
602.226186835463
 30
0.0
 10
105.2068076001358
 20
602.6032448982827
 30
0.0
 10
105.2068862079456
 20
603.3563313950385
 30
0.0
 10
105.2069970898952
 20
603.7339295551346
 30
0.0
 10
105.2074157424297
 20
604.4749422209449
 30
0.0
 10
105.2077230397558
 20
604.8387506026106
 30
0.0
 10
105.2085675929013
 20
605.5512254740491
 30
0.0
 10
105.2091022420389
 20
605.9003407933512
 30
0.0
 10
105.2097539159092
 20
606.2426406857926
 30
0.0
  0
SPLINE
  5
F6
330
1F
100
AcDbEntity
  8
0
  6
Continuous
 62
     8
370
    18
100
AcDbSpline
210
0.0
220
0.0
230
1.0
 70
     8
 71
     3
 72
    17
 73
    13
 74
     0
 42
0.000000001
 43
0.00000001
 40
0.0
 40
0.0
 40
0.0
 40
0.0
 40
0.0700271522594448
 40
0.1110722859854166
 40
0.1536848951024009
 40
0.2543599191455139
 40
0.3726297468373578
 40
0.462465070184022
 40
0.6307664536156171
 40
0.7755053989131524
 40
0.871998629117563
 40
1.0
 40
1.0
 40
1.0
 40
1.0
 10
105.2243098989763
 20
609.9491558151866
 30
0.0
 10
105.2253556407054
 20
610.0830353983484
 30
0.0
 10
105.2270143248108
 20
610.2953860490425
 30
0.0
 10
105.2294696081011
 20
610.5230939488297
 30
0.0
 10
105.2325056828757
 20
610.7578184941495
 30
0.0
 10
105.2370576053624
 20
610.9876246644171
 30
0.0
 10
105.2427856887688
 20
611.1029681931757
 30
0.0
 10
105.2500363355173
 20
611.1371078288656
 30
0.0
 10
105.2577414634361
 20
611.1497395588829
 30
0.0
 10
105.2653347606613
 20
611.1823819053457
 30
0.0
 10
105.2721308916867
 20
611.2125427233153
 30
0.0
 10
105.2762796177519
 20
611.2294497557158
 30
0.0
 10
105.2786451206245
 20
611.2390897350932
 30
0.0
  0
SPLINE
  5
F7
330
1F
100
AcDbEntity
  8
0
  6
Continuous
 62
     8
370
    18
100
AcDbSpline
210
0.0
220
0.0
230
1.0
 70
     8
 71
     3
 72
    14
 73
    10
 74
     0
 42
0.000000001
 43
0.00000001
 40
0.0
 40
0.0
 40
0.0
 40
0.0
 40
0.125
 40
0.125
 40
0.2499999999999999
 40
0.2499999999999999
 40
0.5
 40
0.5
 40
1.0
 40
1.0
 40
1.0
 40
1.0
 10
105.2786423802863
 20
611.2394057475137
 30
0.0
 10
105.2838699691412
 20
611.2603065221193
 30
0.0
 10
105.2891852284098
 20
611.2751396909001
 30
0.0
 10
105.3001630302105
 20
611.2897570316819
 30
0.0
 10
105.3058238028137
 20
611.2898245302524
 30
0.0
 10
105.3233306810895
 20
611.2786849149857
 30
0.0
 10
105.3356941930885
 20
611.258265634388
 30
0.0
 10
105.3741998657546
 20
611.2127142762318
 30
0.0
 10
105.4014201387017
 20
611.2050934794922
 30
0.0
 10
105.4299331129962
 20
611.2007363111318
 30
0.0
  0
SPLINE
  5
F8
330
1F
100
AcDbEntity
  8
0
  6
Continuous
 62
     8
370
    18
100
AcDbSpline
210
0.0
220
0.0
230
1.0
 70
     8
 71
     3
 72
    14
 73
    10
 74
     0
 42
0.000000001
 43
0.00000001
 40
0.0
 40
0.0
 40
0.0
 40
0.0
 40
0.25
 40
0.25
 40
0.5
 40
0.5
 40
0.75
 40
0.75
 40
1.0
 40
1.0
 40
1.0
 40
1.0
 10
105.4299287806798
 20
611.2009125634536
 30
0.0
 10
105.425220160535
 20
611.392492526283
 30
0.0
 10
105.4552970713018
 20
611.5848745419274
 30
0.0
 10
105.5812124812719
 20
611.9468758008572
 30
0.0
 10
105.6770162121813
 20
612.1163950860448
 30
0.0
 10
105.922181368979
 20
612.4109998495098
 30
0.0
 10
106.0714750985437
 20
612.5360039795565
 30
0.0
 10
106.4045755179589
 20
612.7255828499141
 30
0.0
 10
106.5882902301779
 20
612.7901052423525
 30
0.0
 10
106.777534909853
 20
612.8202744206105
 30
0.0
  0
SPLINE
  5
F9
330
1F
100
AcDbEntity
  8
0
  6
Continuous
 62
     8
370
    18
100
AcDbSpline
210
0.0
220
0.0
230
1.0
 70
     8
 71
     3
 72
    50
 73
    46
 74
     0
 42
0.000000001
 43
0.00000001
 40
0.0
 40
0.0
 40
0.0
 40
0.0
 40
0.0312499999999994
 40
0.0312499999999994
 40
0.0468749999999991
 40
0.0468749999999991
 40
0.0624999999999988
 40
0.0624999999999988
 40
0.0781249999999985
 40
0.0781249999999985
 40
0.0859374999999984
 40
0.0859374999999984
 40
0.0937499999999982
 40
0.0937499999999982
 40
0.1015624999999981
 40
0.1015624999999981
 40
0.105468749999998
 40
0.105468749999998
 40
0.1093749999999979
 40
0.1093749999999979
 40
0.1171874999999978
 40
0.1171874999999978
 40
0.1210937499999977
 40
0.1210937499999977
 40
0.1249999999999976
 40
0.1249999999999976
 40
0.1406249999999978
 40
0.1406249999999978
 40
0.1562499999999979
 40
0.1562499999999979
 40
0.171874999999998
 40
0.171874999999998
 40
0.1874999999999981
 40
0.1874999999999981
 40
0.2187499999999984
 40
0.2187499999999984
 40
0.2499999999999987
 40
0.2499999999999987
 40
0.4999999999999991
 40
0.4999999999999991
 40
0.7499999999999996
 40
0.7499999999999996
 40
0.8749999999999998
 40
0.8749999999999998
 40
1.0
 40
1.0
 40
1.0
 40
1.0
 10
129.206080399517
 20
613.1002254204432
 30
0.0
 10
127.2877481322349
 20
613.0997131498916
 30
0.0
 10
125.3693225953629
 20
613.0857220673015
 30
0.0
 10
122.4926631057805
 20
613.0476547997175
 30
0.0
 10
121.5344618237012
 20
613.0319875081075
 30
0.0
 10
119.6192305580714
 20
612.9924000260917
 30
0.0
 10
118.6619346093015
 20
612.9682764023893
 30
0.0
 10
116.7521859621224
 20
612.9167550881758
 30
0.0
 10
115.7996437293463
 20
612.88971100155
 30
0.0
 10
114.3841247701185
 20
612.8542083859364
 30
0.0
 10
113.9104136014295
 20
612.8431364457019
 30
0.0
 10
112.9996443718659
 20
612.824687311471
 30
0.0
 10
112.5617916689276
 20
612.8173619252209
 30
0.0
 10
111.7319786871374
 20
612.8063393797333
 30
0.0
 10
111.3545027492131
 20
612.8026248998826
 30
0.0
 10
110.8449912530234
 20
612.7981560227154
 30
0.0
 10
110.6843808025277
 20
612.796858970088
 30
0.0
 10
110.3815272661411
 20
612.7947384719191
 30
0.0
 10
110.2396116808423
 20
612.7939441237962
 30
0.0
 10
109.8504975597951
 20
612.7923475831709
 30
0.0
 10
109.6361238413449
 20
612.792233001522
 30
0.0
 10
109.365893156227
 20
612.7924766976103
 30
0.0
 10
109.2842053494426
 20
612.792674625352
 30
0.0
 10
109.1373494211551
 20
612.7934724955601
 30
0.0
 10
109.07201417029
 20
612.7941031034067
 30
0.0
 10
108.7789514639687
 20
612.7979836212422
 30
0.0
 10
108.6492555322687
 20
612.8030324893293
 30
0.0
 10
108.4874557433747
 20
612.8109751188579
 30
0.0
 10
108.4533687876303
 20
612.8143542100303
 30
0.0
 10
108.3973192074839
 20
612.8215914970899
 30
0.0
 10
108.3780860716569
 20
612.8249057558193
 30
0.0
 10
108.3415303854955
 20
612.8301401507039
 30
0.0
 10
108.3248604611908
 20
612.8319133204164
 30
0.0
 10
108.2774433180326
 20
612.8349881302652
 30
0.0
 10
108.2505485981976
 20
612.8347273000036
 30
0.0
 10
108.1958918760377
 20
612.8340676217217
 30
0.0
 10
108.1695444119915
 20
612.8335907899838
 30
0.0
 10
107.9315919122928
 20
612.8310999900203
 30
0.0
 10
107.7388413649017
 20
612.8299998540947
 30
0.0
 10
107.3935999351257
 20
612.8269910197979
 30
0.0
 10
107.2408877707388
 20
612.8256266462419
 30
0.0
 10
107.0457180453688
 20
612.8240453784045
 30
0.0
 10
106.9874042015545
 20
612.8237672097307
 30
0.0
 10
106.8773183358179
 20
612.8225153920706
 30
0.0
 10
106.8254809148866
 20
612.8215261741361
 30
0.0
 10
106.777534909853
 20
612.8202744206105
 30
0.0
  0
SPLINE
  5
FA
330
1F
100
AcDbEntity
  8
0
  6
Continuous
 62
     8
370
    18
100
AcDbSpline
210
0.0
220
0.0
230
1.0
 70
     8
 71
     3
 72
    50
 73
    46
 74
     0
 42
0.000000001
 43
0.00000001
 40
0.0
 40
0.0
 40
0.0
 40
0.0
 40
0.0312499999999994
 40
0.0312499999999994
 40
0.0468749999999991
 40
0.0468749999999991
 40
0.0624999999999988
 40
0.0624999999999988
 40
0.0781249999999985
 40
0.0781249999999985
 40
0.0859374999999984
 40
0.0859374999999984
 40
0.0937499999999982
 40
0.0937499999999982
 40
0.1015624999999981
 40
0.1015624999999981
 40
0.105468749999998
 40
0.105468749999998
 40
0.1093749999999979
 40
0.1093749999999979
 40
0.1171874999999978
 40
0.1171874999999978
 40
0.1210937499999977
 40
0.1210937499999977
 40
0.1249999999999976
 40
0.1249999999999976
 40
0.1406249999999978
 40
0.1406249999999978
 40
0.1562499999999979
 40
0.1562499999999979
 40
0.171874999999998
 40
0.171874999999998
 40
0.1874999999999981
 40
0.1874999999999981
 40
0.2187499999999984
 40
0.2187499999999984
 40
0.2499999999999987
 40
0.2499999999999987
 40
0.4999999999999991
 40
0.4999999999999991
 40
0.7499999999999996
 40
0.7499999999999996
 40
0.8749999999999998
 40
0.8749999999999998
 40
1.0
 40
1.0
 40
1.0
 40
1.0
 10
129.206080399517
 20
613.1002254204432
 30
0.0
 10
131.1244126666773
 20
613.0997129257786
 30
0.0
 10
133.0428382036711
 20
613.0857220673015
 30
0.0
 10
135.9194976932535
 20
613.0476547997175
 30
0.0
 10
136.8776989753327
 20
613.0319875081075
 30
0.0
 10
138.7929302409626
 20
612.9924000260917
 30
0.0
 10
139.7502261897325
 20
612.9682764023893
 30
0.0
 10
141.6599748369117
 20
612.9167550881758
 30
0.0
 10
142.6125170696878
 20
612.88971100155
 30
0.0
 10
144.0280360289155
 20
612.8542083859364
 30
0.0
 10
144.5017471976045
 20
612.8431364457019
 30
0.0
 10
145.4125164271681
 20
612.824687311471
 30
0.0
 10
145.8503691301064
 20
612.8173619252209
 30
0.0
 10
146.6801821118966
 20
612.8063393797333
 30
0.0
 10
147.057658049821
 20
612.8026248998826
 30
0.0
 10
147.5671695460106
 20
612.7981560227154
 30
0.0
 10
147.7277799965063
 20
612.796858970088
 30
0.0
 10
148.0306335328929
 20
612.7947384719191
 30
0.0
 10
148.1725491181917
 20
612.7939441237962
 30
0.0
 10
148.5616632392389
 20
612.7923475831709
 30
0.0
 10
148.7760369576891
 20
612.792233001522
 30
0.0
 10
149.046267642807
 20
612.7924766976103
 30
0.0
 10
149.1279554495914
 20
612.792674625352
 30
0.0
 10
149.2748113778789
 20
612.7934724955601
 30
0.0
 10
149.340146628744
 20
612.7941031034067
 30
0.0
 10
149.6332093350653
 20
612.7979836212422
 30
0.0
 10
149.7629052667653
 20
612.8030324893293
 30
0.0
 10
149.9247050556594
 20
612.8109751188579
 30
0.0
 10
149.9587920114037
 20
612.8143542100303
 30
0.0
 10
150.0148415915501
 20
612.8215914970899
 30
0.0
 10
150.0340747273771
 20
612.8249057558193
 30
0.0
 10
150.0706304135385
 20
612.8301401507039
 30
0.0
 10
150.0873003378432
 20
612.8319133204164
 30
0.0
 10
150.1347174810014
 20
612.8349881302652
 30
0.0
 10
150.1616122008364
 20
612.8347273000036
 30
0.0
 10
150.2162689229964
 20
612.8340676217217
 30
0.0
 10
150.2426163870426
 20
612.8335907899838
 30
0.0
 10
150.4805688867412
 20
612.8310999900203
 30
0.0
 10
150.6733194341323
 20
612.8299998540947
 30
0.0
 10
151.0185608639083
 20
612.8269910197979
 30
0.0
 10
151.1712730282952
 20
612.8256266462419
 30
0.0
 10
151.3664427536652
 20
612.8240453784045
 30
0.0
 10
151.4247565974795
 20
612.8237672097307
 30
0.0
 10
151.5348424632162
 20
612.8225153920706
 30
0.0
 10
151.5866798841474
 20
612.8215261741361
 30
0.0
 10
151.6346258891811
 20
612.8202744206105
 30
0.0
  0
SPLINE
  5
FB
330
1F
100
AcDbEntity
  8
0
  6
Continuous
 62
     8
370
    18
100
AcDbSpline
210
0.0
220
0.0
230
1.0
 70
     8
 71
     3
 72
    14
 73
    10
 74
     0
 42
0.000000001
 43
0.00000001
 40
0.0
 40
0.0
 40
0.0
 40
0.0
 40
0.25
 40
0.25
 40
0.5
 40
0.5
 40
0.75
 40
0.75
 40
1.0
 40
1.0
 40
1.0
 40
1.0
 10
151.6344780940314
 20
612.820125878144
 30
0.0
 10
151.8237377264977
 20
612.7899719348615
 30
0.0
 10
152.0074698228474
 20
612.7254597474739
 30
0.0
 10
152.3406046677031
 20
612.5358909701462
 30
0.0
 10
152.4899154049491
 20
612.4108867387699
 30
0.0
 10
152.7351095614367
 20
612.1162735099748
 30
0.0
 10
152.8309252584822
 20
611.946745884213
 30
0.0
 10
152.9568564303361
 20
611.5847235333084
 30
0.0
 10
152.9869371231757
 20
611.3923287981042
 30
0.0
 10
152.9822276860378
 20
611.2007363111319
 30
0.0
  0
LINE
  5
FC
330
1F
100
AcDbEntity
  8
0
  6
Continuous
 62
     8
370
    18
100
AcDbLine
 10
129.2060803685
 20
614.5974687415
 30
0.0
 11
123.1039943547
 21
614.3410644608
 31
0.0
  0
SPLINE
  5
FD
330
1F
100
AcDbEntity
  8
0
  6
Continuous
 62
     8
370
    18
100
AcDbSpline
210
0.0
220
0.0
230
1.0
 70
     8
 71
     3
 72
     9
 73
     5
 74
     0
 42
0.000000001
 43
0.00000001
 40
0.0
 40
0.0
 40
0.0
 40
0.0
 40
0.3158527730004244
 40
1.0
 40
1.0
 40
1.0
 40
1.0
 10
122.1409653686621
 20
614.3006078081752
 30
0.0
 10
120.5146385690439
 20
614.2525591230268
 30
0.0
 10
115.3656358100403
 20
614.1004354462516
 30
0.0
 10
110.2662953804103
 20
613.3403156217886
 30
0.0
 10
106.7775957659521
 20
612.8202817516948
 30
0.0
  0
SPLINE
  5
FE
330
1F
100
AcDbEntity
  8
0
  6
Continuous
 62
     8
370
    18
100
AcDbSpline
210
0.0
220
0.0
230
1.0
 70
     8
 71
     3
 72
    26
 73
    22
 74
     0
 42
0.000000001
 43
0.00000001
 40
0.0
 40
0.0
 40
0.0
 40
0.0
 40
0.0528663929213484
 40
0.1056851903394482
 40
0.1584609920046758
 40
0.2111977742207123
 40
0.2638984919818563
 40
0.3165663572047962
 40
0.3692058292737602
 40
0.4218208663194066
 40
0.4744150219517972
 40
0.5269918548344542
 40
0.5795549589146135
 40
0.6321079452930094
 40
0.6846544260604075
 40
0.7371980132625835
 40
0.7897423356381091
 40
0.8422910565530185
 40
0.8948478612553873
 40
0.9474163769725817
 40
0.9999999999999999
 40
0.9999999999999999
 40
0.9999999999999999
 40
0.9999999999999999
 10
129.2060596850334
 20
614.5972849175785
 30
0.0
 10
129.602949504308
 20
614.5963417883114
 30
0.0
 10
130.396371823781
 20
614.5944563788747
 30
0.0
 10
131.585918977741
 20
614.5788473628353
 30
0.0
 10
132.7743275249236
 20
614.5541461182705
 30
0.0
 10
133.9616073185853
 20
614.5195654245314
 30
0.0
 10
135.1477475465626
 20
614.4751235843883
 30
0.0
 10
136.3327302107828
 20
614.4204719990374
 30
0.0
 10
137.5165750892747
 20
614.356023515971
 30
0.0
 10
138.6992976990187
 20
614.2818742799453
 30
0.0
 10
139.8808982392977
 20
614.1979880903842
 30
0.0
 10
141.0613749202608
 20
614.1043499149748
 30
0.0
 10
142.2407265983146
 20
614.0009524110206
 30
0.0
 10
143.4189532886266
 20
613.8877983481538
 30
0.0
 10
144.5960549191294
 20
613.7648886516815
 30
0.0
 10
145.772031149658
 20
613.632217960026
 30
0.0
 10
146.9468762974409
 20
613.4897422866818
 30
0.0
 10
148.1205953842805
 20
613.3374839118808
 30
0.0
 10
149.2931482243361
 20
613.1751900290525
 30
0.0
 10
150.4646714082169
 20
613.0037383025577
 30
0.0
 10
151.2445455365807
 20
612.8813294528035
 30
0.0
 10
151.6345386234006
 20
612.820116234627
 30
0.0
  0
SPLINE
  5
FF
330
1F
100
AcDbEntity
  8
0
  6
Continuous
 62
     8
370
    18
100
AcDbSpline
210
0.0
220
0.0
230
1.0
 70
     8
 71
     3
 72
    22
 73
    18
 74
     0
 42
0.000000001
 43
0.00000001
 40
0.0
 40
0.0
 40
0.0
 40
0.0
 40
0.0549497657248726
 40
0.1096167472614689
 40
0.1636677971861989
 40
0.2167790920251548
 40
0.2686450409475714
 40
0.3189858037260766
 40
0.3675529773515484
 40
0.4141332317857475
 40
0.4585498957243589
 40
0.5006626787720491
 40
0.6061550223555493
 40
0.7101013345356293
 40
0.8111152999921657
 40
0.9080404566606496
 40
1.0
 40
1.0
 40
1.0
 40
1.0
 10
113.3544849771825
 20
647.6128537840785
 30
0.0
 10
113.3469254705579
 20
647.6049912358109
 30
0.0
 10
113.3318453602763
 20
647.5893066017654
 30
0.0
 10
113.3101798283058
 20
647.5528026712685
 30
0.0
 10
113.2896615204881
 20
647.5076580356754
 30
0.0
 10
113.2706217038106
 20
647.4539524313486
 30
0.0
 10
113.2532709479029
 20
647.3931836839608
 30
0.0
 10
113.2377609299636
 20
647.3266849787937
 30
0.0
 10
113.2241659651355
 20
647.2559427803373
 30
0.0
 10
113.2124906116237
 20
647.1824259357714
 30
0.0
 10
113.2026815036448
 20
647.1075348854467
 30
0.0
 10
113.1904222161418
 20
646.9935405808247
 30
0.0
 10
113.1788589665917
 20
646.8317343979791
 30
0.0
 10
113.173215247882
 20
646.6165424749202
 30
0.0
 10
113.17639053057
 20
646.3984615896969
 30
0.0
 10
113.1869881430521
 20
646.1857600896931
 30
0.0
 10
113.199805417936
 20
646.0500156077742
 30
0.0
 10
113.2060455779126
 20
645.9839276685838
 30
0.0
  0
SPLINE
  5
100
330
1F
100
AcDbEntity
  8
0
  6
Continuous
 62
     8
370
    18
100
AcDbSpline
210
0.0
220
0.0
230
1.0
 70
     8
 71
     3
 72
    26
 73
    22
 74
     0
 42
0.000000001
 43
0.00000001
 40
0.0
 40
0.0
 40
0.0
 40
0.0
 40
0.0198067341554864
 40
0.0354858818469121
 40
0.0470601643043728
 40
0.054551618470967
 40
0.0745299380694965
 40
0.1119481173503086
 40
0.1785054974944451
 40
0.2359450354793556
 40
0.3000146728050587
 40
0.3637210695169699
 40
0.4906372644088229
 40
0.6179924630011356
 40
0.7454531344156279
 40
0.8283653313802628
 40
0.8914394695212117
 40
0.9462194326858334
 40
0.9733326051637229
 40
0.9869130414454503
 40
1.0
 40
1.0
 40
1.0
 40
1.0
 10
113.3544849041523
 20
647.6128552899321
 30
0.0
 10
113.4562747403421
 20
647.6149069803124
 30
0.0
 10
113.6386421145843
 20
647.6185828029824
 30
0.0
 10
113.8821603043965
 20
647.6232954942931
 30
0.0
 10
114.0625059603667
 20
647.6267514526311
 30
0.0
 10
114.265709545704
 20
647.6306810841785
 30
0.0
 10
114.6047563482963
 20
647.6375483692996
 30
0.0
 10
115.255255525523
 20
647.6500169822502
 30
0.0
 10
116.1066356073417
 20
647.6635741085611
 30
0.0
 10
117.1008517815482
 20
647.6741262048427
 30
0.0
 10
118.0806750612914
 20
647.678918245115
 30
0.0
 10
119.4288751229629
 20
647.682391093583
 30
0.0
 10
121.1128158198058
 20
647.6886868012139
 30
0.0
 10
123.134772251764
 20
647.6945801739973
 30
0.0
 10
124.9240117103937
 20
647.6978078794491
 30
0.0
 10
126.3728568156906
 20
647.6982148891154
 30
0.0
 10
127.4366018321358
 20
647.694233443056
 30
0.0
 10
128.2046870491091
 20
647.6876736873652
 30
0.0
 10
128.7105047728669
 20
647.6819922346032
 30
0.0
 10
128.9954397192939
 20
647.6794287219072
 30
0.0
 10
129.1367384121129
 20
647.6791375120879
 30
0.0
 10
129.2060803987632
 20
647.678994601584
 30
0.0
  0
SPLINE
  5
101
330
1F
100
AcDbEntity
  8
0
  6
Continuous
 62
     8
370
    18
100
AcDbSpline
210
0.0
220
0.0
230
1.0
 70
     8
 71
     3
 72
    38
 73
    34
 74
     0
 42
0.000000001
 43
0.00000001
 40
0.0
 40
0.0
 40
0.0
 40
0.0
 40
0.03125
 40
0.03125
 40
0.0625000000000001
 40
0.0625000000000001
 40
0.1250000000000001
 40
0.1250000000000001
 40
0.2500000000000001
 40
0.2500000000000001
 40
0.3750000000000001
 40
0.3750000000000001
 40
0.5000000000000001
 40
0.5000000000000001
 40
0.6250000000000002
 40
0.6250000000000002
 40
0.6875000000000003
 40
0.6875000000000003
 40
0.7500000000000003
 40
0.7500000000000003
 40
0.8750000000000006
 40
0.8750000000000006
 40
0.9375000000000008
 40
0.9375000000000008
 40
0.9687500000000009
 40
0.9687500000000009
 40
0.9843750000000003
 40
0.9843750000000003
 40
0.9921875000000002
 40
0.9921875000000002
 40
0.9960937500000001
 40
0.9960937500000001
 40
1.0
 40
1.0
 40
1.0
 40
1.0
 10
129.2060803994842
 20
647.6789923674385
 30
0.0
 10
129.370732519523
 20
647.6790731353049
 30
0.0
 10
129.5345368394866
 20
647.6804416180606
 30
0.0
 10
129.8681570764108
 20
647.6836430435808
 30
0.0
 10
130.0365702087196
 20
647.6855366274036
 30
0.0
 10
130.5437284936953
 20
647.690819528093
 30
0.0
 10
130.8832515929086
 20
647.6931709998178
 30
0.0
 10
131.8996174158307
 20
647.6978141495106
 30
0.0
 10
132.5763512011914
 20
647.698030350894
 30
0.0
 10
133.9278335015726
 20
647.6972022221216
 30
0.0
 10
134.6026339875064
 20
647.6958544739036
 30
0.0
 10
135.9531235538676
 20
647.692554756864
 30
0.0
 10
136.6296820655914
 20
647.6905394942913
 30
0.0
 10
137.9735291591099
 20
647.6862642382401
 30
0.0
 10
138.6450009788606
 20
647.6838447787836
 30
0.0
 10
139.6542502974355
 20
647.6805766926167
 30
0.0
 10
139.991267766856
 20
647.6797211601662
 30
0.0
 10
140.6676503171093
 20
647.6773445630097
 30
0.0
 10
141.0079044409047
 20
647.6756228278397
 30
0.0
 10
142.0229701324902
 20
647.6675639388508
 30
0.0
 10
142.6861989038649
 20
647.6580149353487
 30
0.0
 10
143.6210971119423
 20
647.6411732129582
 30
0.0
 10
143.9222305752592
 20
647.6351588641538
 30
0.0
 10
144.3559802733076
 20
647.6265858963545
 30
0.0
 10
144.4978014697798
 20
647.623784306838
 30
0.0
 10
144.7069291738368
 20
647.6196908141955
 30
0.0
 10
144.7760559972454
 20
647.6183459404898
 30
0.0
 10
144.8788464342524
 20
647.6163536348721
 30
0.0
 10
144.9129534110523
 20
647.6156931094741
 30
0.0
 10
144.963876259457
 20
647.6147066546536
 30
0.0
 10
144.9805095168332
 20
647.6143857114397
 30
0.0
 10
145.0188073224985
 20
647.613638805632
 30
0.0
 10
145.0384508506043
 20
647.6132483000008
 30
0.0
 10
145.0576758924073
 20
647.6128552505103
 30
0.0
  0
SPLINE
  5
102
330
1F
100
AcDbEntity
  8
0
  6
Continuous
 62
     8
370
    18
100
AcDbSpline
210
0.0
220
0.0
230
1.0
 70
     8
 71
     3
 72
     8
 73
     4
 74
     0
 42
0.000000001
 43
0.00000001
 40
0.6054101133028381
 40
0.6054101133028381
 40
0.6054101133028381
 40
0.6054101133028381
 40
1.0
 40
1.0
 40
1.0
 40
1.0
 10
129.206080399517
 20
641.1721646952866
 30
0.0
 10
122.2421340784382
 20
641.1721646952866
 30
0.0
 10
116.9574296486983
 20
641.24649267596
 30
0.0
 10
113.2060803950036
 20
641.6975523241395
 30
0.0
  0
SPLINE
  5
103
330
1F
100
AcDbEntity
  8
0
  6
Continuous
 62
     8
370
    18
100
AcDbSpline
210
0.0
220
0.0
230
1.0
 70
     8
 71
     3
 72
    10
 73
     6
 74
     0
 42
0.000000001
 43
0.00000001
 40
0.0
 40
0.0
 40
0.0
 40
0.0
 40
0.0600593588377821
 40
0.2570824178667416
 40
1.0
 40
1.0
 40
1.0
 40
1.0
 10
145.2060804040306
 20
641.6975523241395
 30
0.0
 10
144.9807767730771
 20
641.6704619708722
 30
0.0
 10
143.9926955181342
 20
641.5603192801622
 30
0.0
 10
139.7528027587714
 20
641.2240678073831
 30
0.0
 10
134.3797185624787
 20
641.1721646952866
 30
0.0
 10
129.206080399517
 20
641.1721646952866
 30
0.0
  0
SPLINE
  5
104
330
1F
100
AcDbEntity
  8
0
  6
Continuous
 62
     8
370
    18
100
AcDbSpline
210
0.0
220
0.0
230
1.0
 70
     8
 71
     3
 72
     9
 73
     5
 74
     0
 42
0.000000001
 43
0.00000001
 40
0.0
 40
0.0
 40
0.0
 40
0.0
 40
0.4977344376655763
 40
1.0
 40
1.0
 40
1.0
 40
1.0
 10
107.2292228713375
 20
647.6085834583818
 30
0.0
 10
107.2385891878971
 20
647.6083363030519
 30
0.0
 10
107.2574070872645
 20
647.6078397424141
 30
0.0
 10
107.2798470037301
 20
647.6042881399384
 30
0.0
 10
107.2911178009925
 20
647.6025042923239
 30
0.0
  0
SPLINE
  5
105
330
1F
100
AcDbEntity
  8
0
  6
Continuous
 62
     8
370
    18
100
AcDbSpline
210
0.0
220
0.0
230
1.0
 70
     8
 71
     3
 72
     8
 73
     4
 74
     0
 42
0.000000001
 43
0.00000001
 40
0.0
 40
0.0
 40
0.0
 40
0.0
 40
1.0
 40
1.0
 40
1.0
 40
1.0
 10
107.2292982769634
 20
647.6082627402964
 30
0.0
 10
114.4939437751151
 20
648.7972144389165
 30
0.0
 10
121.8430611419209
 20
649.3941967998189
 30
0.0
 10
129.2060801436581
 20
649.3931084495734
 30
0.0
  0
SPLINE
  5
106
330
1F
100
AcDbEntity
  8
0
  6
Continuous
 62
     8
370
    18
100
AcDbSpline
210
0.0
220
0.0
230
1.0
 70
     8
 71
     3
 72
    23
 73
    19
 74
     0
 42
0.000000001
 43
0.00000001
 40
0.0
 40
0.0
 40
0.0
 40
0.0
 40
0.0473762381553991
 40
0.1169273846899152
 40
0.2094578964583027
 40
0.3578495429852085
 40
0.4651219645183921
 40
0.5287060517258454
 40
0.5867229008568244
 40
0.6390626137618879
 40
0.6856413375237381
 40
0.726397819380252
 40
0.7955317573660535
 40
0.8567522682164049
 40
0.8887536799703786
 40
0.923304348377442
 40
0.9603993773716886
 40
0.9999999999999999
 40
0.9999999999999999
 40
0.9999999999999999
 40
0.9999999999999999
 10
107.2908672597253
 20
647.6024645663972
 30
0.0
 10
107.2938983510255
 20
647.6017666585378
 30
0.0
 10
107.3013792653463
 20
647.6000441802676
 30
0.0
 10
107.3231366709106
 20
647.5949903865308
 30
0.0
 10
107.4113613959132
 20
647.5872025608679
 30
0.0
 10
107.6474099169462
 20
647.5773550665212
 30
0.0
 10
108.0541263940867
 20
647.5716326623553
 30
0.0
 10
108.4625964586903
 20
647.5696479051038
 30
0.0
 10
108.8351267019492
 20
647.5686493873112
 30
0.0
 10
109.2285248952591
 20
647.5680466745841
 30
0.0
 10
109.6249738964315
 20
647.5682948505918
 30
0.0
 10
110.1152845239711
 20
647.5697082148981
 30
0.0
 10
110.7158864485132
 20
647.5730833978577
 30
0.0
 10
111.3511217261879
 20
647.5791386156403
 30
0.0
 10
111.8836431114891
 20
647.5866569293005
 30
0.0
 10
112.3313384651172
 20
647.5940805908444
 30
0.0
 10
112.8248812922199
 20
647.6029082367698
 30
0.0
 10
113.1741469312173
 20
647.6094681597865
 30
0.0
 10
113.3544848835571
 20
647.6128552753577
 30
0.0
  0
SPLINE
  5
107
330
1F
100
AcDbEntity
  8
0
  6
Continuous
 62
     8
370
    18
100
AcDbSpline
210
0.0
220
0.0
230
1.0
 70
     8
 71
     3
 72
    11
 73
     7
 74
     0
 42
0.000000001
 43
0.00000001
 40
0.0546333037656702
 40
0.0546333037656702
 40
0.0546333037656702
 40
0.0546333037656702
 40
0.3046333037656702
 40
0.5546333037656702
 40
0.8046333037656702
 40
1.0
 40
1.0
 40
1.0
 40
1.0
 10
129.206080399517
 20
649.3948393494115
 30
0.0
 10
131.1517133800816
 20
649.395126954331
 30
0.0
 10
135.0431082784322
 20
649.3120324371033
 30
0.0
 10
140.8697051575909
 20
648.93669218909
 30
0.0
 10
146.252061680844
 20
648.3570206764118
 30
0.0
 10
149.6823153392293
 20
647.854277816421
 30
0.0
 10
151.1829156304142
 20
647.6085871090793
 30
0.0
  0
SPLINE
  5
108
330
1F
100
AcDbEntity
  8
0
  6
Continuous
 62
     8
370
    18
100
AcDbSpline
210
0.0
220
0.0
230
1.0
 70
     8
 71
     3
 72
     8
 73
     4
 74
     0
 42
0.000000001
 43
0.00000001
 40
0.0
 40
0.0
 40
0.0
 40
0.0
 40
1.0
 40
1.0
 40
1.0
 40
1.0
 10
151.1210451637007
 20
647.6025179577895
 30
0.0
 10
151.1445917539976
 20
647.6062775066615
 30
0.0
 10
151.1648694970456
 20
647.6084657820644
 30
0.0
 10
151.1829379276966
 20
647.6085834583816
 30
0.0
  0
SPLINE
  5
109
330
1F
100
AcDbEntity
  8
0
  6
Continuous
 62
     8
370
    18
100
AcDbSpline
210
0.0
220
0.0
230
1.0
 70
     8
 71
     3
 72
    36
 73
    32
 74
     0
 42
0.000000001
 43
0.00000001
 40
0.0
 40
0.0
 40
0.0
 40
0.0
 40
0.0078125
 40
0.0078125
 40
0.0156249999999999
 40
0.0156249999999999
 40
0.03125
 40
0.03125
 40
0.0625
 40
0.0625
 40
0.1249999999999996
 40
0.1249999999999996
 40
0.2499999999999997
 40
0.2499999999999997
 40
0.3749999999999998
 40
0.3749999999999998
 40
0.4999999999999999
 40
0.4999999999999999
 40
0.625
 40
0.625
 40
0.7500000000000001
 40
0.7500000000000001
 40
0.8750000000000002
 40
0.8750000000000002
 40
0.9375000000000011
 40
0.9375000000000011
 40
0.9687500000000016
 40
0.9687500000000016
 40
0.9843750000000008
 40
0.9843750000000008
 40
1.0
 40
1.0
 40
1.0
 40
1.0
 10
145.0576758218516
 20
647.6128537840785
 30
0.0
 10
145.0996346728886
 20
647.612065577309
 30
0.0
 10
145.1488905742993
 20
647.6111414222589
 30
0.0
 10
145.2440477424748
 20
647.6093253597228
 30
0.0
 10
145.2902188177459
 20
647.6084384323341
 30
0.0
 10
145.4226117092624
 20
647.6059217611939
 30
0.0
 10
145.5053307237209
 20
647.6043769369583
 30
0.0
 10
145.7528811489492
 20
647.5998345743687
 30
0.0
 10
145.914369928456
 20
647.5969262770096
 30
0.0
 10
146.3798456666508
 20
647.5888780160461
 30
0.0
 10
146.6664726161008
 20
647.5844768812052
 30
0.0
 10
147.4764362148932
 20
647.5743737385567
 30
0.0
 10
147.9566076831125
 20
647.5712967468912
 30
0.0
 10
148.8036115975428
 20
647.5679286012177
 30
0.0
 10
149.1707107727908
 20
647.5678767333109
 30
0.0
 10
149.7957102196655
 20
647.5689975950951
 30
0.0
 10
150.0542017852187
 20
647.5700638009874
 30
0.0
 10
150.481755935787
 20
647.5728809702681
 30
0.0
 10
150.640714816494
 20
647.575549404336
 30
0.0
 10
150.8758960281409
 20
647.5817271826577
 30
0.0
 10
150.9522073017496
 20
647.5853329862593
 30
0.0
 10
151.0531522560845
 20
647.5916497546588
 30
0.0
 10
151.0784833579604
 20
647.5944776333297
 30
0.0
 10
151.1011795274157
 20
647.5981130852837
 30
0.0
 10
151.1062257964143
 20
647.599232665865
 30
0.0
 10
151.1123673023033
 20
647.6006352724386
 30
0.0
 10
151.114159407222
 20
647.6010578573379
 30
0.0
 10
151.1167083421524
 20
647.6016184213736
 30
0.0
 10
151.1175206262
 20
647.6017909933064
 30
0.0
 10
151.1192062127348
 20
647.6021205071328
 30
0.0
 10
151.1201462752848
 20
647.6022847192642
 30
0.0
 10
151.1212935434986
 20
647.602464592836
 30
0.0
  0
SPLINE
  5
10A
330
1F
100
AcDbEntity
  8
0
  6
Continuous
 62
     8
370
    18
100
AcDbSpline
210
0.0
220
0.0
230
1.0
 70
     8
 71
     3
 72
    14
 73
    10
 74
     0
 42
0.000000001
 43
0.00000001
 40
0.0
 40
0.0
 40
0.0
 40
0.0
 40
0.25
 40
0.25
 40
0.5
 40
0.5
 40
0.75
 40
0.75
 40
1.0
 40
1.0
 40
1.0
 40
1.0
 10
106.0262239479073
 20
646.0966045726
 30
0.0
 10
106.0236702783633
 20
646.260472675671
 30
0.0
 10
106.0482913966387
 20
646.4353791976209
 30
0.0
 10
106.1649902627605
 20
646.7768354073809
 30
0.0
 10
106.2572513721121
 20
646.9426301007885
 30
0.0
 10
106.4974062105398
 20
647.2286282951227
 30
0.0
 10
106.6447552385142
 20
647.3481819194509
 30
0.0
 10
106.9609309132933
 20
647.5221811771582
 30
0.0
 10
107.1290043891557
 20
647.5767880625657
 30
0.0
 10
107.2908650951948
 20
647.6024782096871
 30
0.0
  0
SPLINE
  5
10B
330
1F
100
AcDbEntity
  8
0
  6
Continuous
 62
     8
370
    18
100
AcDbSpline
210
0.0
220
0.0
230
1.0
 70
     8
 71
     3
 72
    14
 73
    10
 74
     0
 42
0.000000001
 43
0.00000001
 40
0.0
 40
0.0
 40
0.0
 40
0.0
 40
0.25
 40
0.25
 40
0.5
 40
0.5
 40
0.75
 40
0.75
 40
1.0
 40
1.0
 40
1.0
 40
1.0
 10
152.3861898611259
 20
646.0966005396396
 30
0.0
 10
152.3888458340185
 20
646.2604859297098
 30
0.0
 10
152.3640922997434
 20
646.4354891630915
 30
0.0
 10
152.2473166297544
 20
646.7770146756118
 30
0.0
 10
152.1550053030245
 20
646.9428226723031
 30
0.0
 10
151.9147668565251
 20
647.2288009792495
 30
0.0
 10
151.7673858872291
 20
647.3483221071299
 30
0.0
 10
151.4511898140472
 20
647.522243796269
 30
0.0
 10
151.2831276053245
 20
647.5768070185634
 30
0.0
 10
151.1212935434986
 20
647.602464592836
 30
0.0
  0
SPLINE
  5
10C
330
1F
100
AcDbEntity
  8
0
  6
Continuous
 62
     8
370
    18
100
AcDbSpline
210
0.0
220
0.0
230
1.0
 70
     8
 71
     3
 72
     9
 73
     5
 74
     0
 42
0.000000001
 43
0.00000001
 40
0.0878924825295642
 40
0.0878924825295642
 40
0.0878924825295642
 40
0.0878924825295642
 40
0.5791147900437639
 40
0.605410113302838
 40
0.605410113302838
 40
0.605410113302838
 40
0.605410113302838
 10
145.2060804040305
 20
641.6975523241393
 30
0.0
 10
149.8761099684371
 20
642.2590734595639
 30
0.0
 10
152.292590591487
 20
643.4657498290733
 30
0.0
 10
152.3839149939141
 20
645.9680057762167
 30
0.0
 10
152.385938068999
 20
646.096604907175
 30
0.0
  0
SPLINE
  5
10D
330
1F
100
AcDbEntity
  8
0
  6
Continuous
 62
     8
370
    18
100
AcDbSpline
210
0.0
220
0.0
230
1.0
 70
     8
 71
     3
 72
    17
 73
    13
 74
     0
 42
0.000000001
 43
0.00000001
 40
0.1451632654175027
 40
0.1451632654175027
 40
0.1451632654175027
 40
0.1451632654175027
 40
0.1707901201640645
 40
0.1874986320127443
 40
0.2498728326723989
 40
0.301181592534415
 40
0.3833305547572288
 40
0.4655161850332177
 40
0.5259141954812419
 40
0.7685937766117664
 40
0.7685937766117664
 40
1.0
 40
1.0
 40
1.0
 40
1.0
 10
106.0259719832954
 20
646.0966009625178
 30
0.0
 10
106.0272461633165
 20
646.0207698193616
 30
0.0
 10
106.0308877606326
 20
645.896353584714
 30
0.0
 10
106.0503226376533
 20
645.5944409730163
 30
0.0
 10
106.1071749813902
 20
645.23668251778
 30
0.0
 10
106.2641935326341
 20
644.7374001473214
 30
0.0
 10
106.5303797638729
 20
644.2350954758424
 30
0.0
 10
106.929090433784
 20
643.7692447013884
 30
0.0
 10
107.7954168396932
 20
643.051410766066
 30
0.0
 10
108.7855471766648
 20
642.6157303797524
 30
0.0
 10
110.7355992391726
 20
642.0653304739351
 30
0.0
 10
111.874196844469
 20
641.8576970840891
 30
0.0
 10
113.2060803950035
 20
641.6975523241395
 30
0.0
  0
SPLINE
  5
10E
330
1F
100
AcDbEntity
  8
0
  6
Continuous
 62
     8
370
    18
100
AcDbSpline
210
0.0
220
0.0
230
1.0
 70
     8
 71
     3
 72
    14
 73
    10
 74
     0
 42
0.000000001
 43
0.00000001
 40
0.0
 40
0.0
 40
0.0
 40
0.0
 40
0.25
 40
0.25
 40
0.5
 40
0.5
 40
0.75
 40
0.75
 40
1.0
 40
1.0
 40
1.0
 40
1.0
 10
151.1829379276966
 20
647.6085834583816
 30
0.0
 10
151.34400977488
 20
647.5822069729426
 30
0.0
 10
151.5110486464567
 20
647.5271342273631
 30
0.0
 10
151.8250792977722
 20
647.3529451309371
 30
0.0
 10
151.9713353671072
 20
647.2336757751528
 30
0.0
 10
152.209820450366
 20
646.948819553483
 30
0.0
 10
152.3015187839932
 20
646.7838665535905
 30
0.0
 10
152.4177905489115
 20
646.4440850536638
 30
0.0
 10
152.4426438959555
 20
646.2699539781185
 30
0.0
 10
152.4402986402108
 20
646.1067410079073
 30
0.0
  0
SPLINE
  5
10F
330
1F
100
AcDbEntity
  8
0
  6
Continuous
 62
     8
370
    18
100
AcDbSpline
210
0.0
220
0.0
230
1.0
 70
     8
 71
     3
 72
     8
 73
     4
 74
     0
 42
0.000000001
 43
0.00000001
 40
0.0
 40
0.0
 40
0.0
 40
0.0
 40
1.0
 40
1.0
 40
1.0
 40
1.0
 10
152.4402986402108
 20
646.1067410079073
 30
0.0
 10
152.4225756224623
 20
646.1063826084189
 30
0.0
 10
152.4044506974689
 20
646.1032669725524
 30
0.0
 10
152.3859522421426
 20
646.0975907845517
 30
0.0
  0
SPLINE
  5
110
330
1F
100
AcDbEntity
  8
0
  6
Continuous
 62
     8
370
    18
100
AcDbSpline
210
0.0
220
0.0
230
1.0
 70
     8
 71
     3
 72
     9
 73
     5
 74
     0
 42
0.000000001
 43
0.00000001
 40
0.0
 40
0.0
 40
0.0
 40
0.0
 40
0.4976708578321112
 40
1.0
 40
1.0
 40
1.0
 40
1.0
 10
106.0262072725432
 20
646.0975907644804
 30
0.0
 10
106.0170990715721
 20
646.1001151142203
 30
0.0
 10
105.9987974153111
 20
646.1051874420455
 30
0.0
 10
105.9808684171098
 20
646.1062215469019
 30
0.0
 10
105.9718621588233
 20
646.1067410079073
 30
0.0
  0
SPLINE
  5
111
330
1F
100
AcDbEntity
  8
0
  6
Continuous
 62
     8
370
    18
100
AcDbSpline
210
0.0
220
0.0
230
1.0
 70
     8
 71
     3
 72
    14
 73
    10
 74
     0
 42
0.000000001
 43
0.00000001
 40
0.0
 40
0.0
 40
0.0
 40
0.0
 40
0.25
 40
0.25
 40
0.5
 40
0.5
 40
0.75
 40
0.75
 40
1.0
 40
1.0
 40
1.0
 40
1.0
 10
105.9718655778467
 20
646.1063516551316
 30
0.0
 10
105.9695142104809
 20
646.2695740766089
 30
0.0
 10
105.9943642932432
 20
646.443717818562
 30
0.0
 10
106.1106397025466
 20
646.7835255848056
 30
0.0
 10
106.2023450911016
 20
646.9484919504405
 30
0.0
 10
106.4408525136921
 20
647.2333672176541
 30
0.0
 10
106.5871236592674
 20
647.3526420216
 30
0.0
 10
106.9011841652224
 20
647.5268310841315
 30
0.0
 10
107.0682375628105
 20
647.5818984696568
 30
0.0
 10
107.229320518801
 20
647.6082663897862
 30
0.0
  0
SPLINE
  5
112
330
1F
100
AcDbEntity
  8
0
  6
Continuous
 62
     8
370
    18
100
AcDbSpline
210
0.0
220
0.0
230
1.0
 70
     8
 71
     3
 72
     8
 73
     4
 74
     0
 42
0.000000001
 43
0.00000001
 40
0.0
 40
0.0
 40
0.0
 40
0.0
 40
1.0
 40
1.0
 40
1.0
 40
1.0
 10
105.9716698542165
 20
646.10635775302
 30
0.0
 10
105.9358979845994
 20
646.106038607127
 30
0.0
 10
105.9015553622793
 20
646.1059736805973
 30
0.0
 10
105.8685110522093
 20
646.1061631035498
 30
0.0
  0
LINE
  5
113
330
1F
100
AcDbEntity
  8
0
  6
Continuous
 62
     8
370
    18
100
AcDbLine
 10
105.9718676285
 20
646.1063466149
 30
0.0
 11
105.9716701881
 21
646.1063615161
 31
0.0
  0
SPLINE
  5
114
330
1F
100
AcDbEntity
  8
0
  6
Continuous
 62
     8
370
    18
100
AcDbSpline
210
0.0
220
0.0
230
1.0
 70
    24
 71
     3
 72
    11
 73
     7
 74
     0
 42
0.000000001
 43
0.00000001
 40
0.0
 40
0.0
 40
0.0
 40
0.0
 40
0.0276998977974757
 40
0.7570783311335175
 40
0.9232567452698989
 40
1.0
 40
1.0
 40
1.0
 40
1.0
 10
129.206080399517
 20
641.1721646952866
 30
0.0
 10
129.206080399517
 20
641.1639446174565
 30
0.0
 10
129.206080399517
 20
640.9761037966795
 30
0.0
 10
129.206080399517
 20
640.7470319851012
 30
0.0
 10
129.206080399517
 20
640.5057918891578
 30
0.0
 10
129.206080399517
 20
640.449324892264
 30
0.0
 10
129.206080399517
 20
640.4256220356846
 30
0.0
  0
SPLINE
  5
115
330
1F
100
AcDbEntity
  8
0
  6
Continuous
 62
     8
370
    18
100
AcDbSpline
210
0.0
220
0.0
230
1.0
 70
     8
 71
     3
 72
     8
 73
     4
 74
     0
 42
0.000000001
 43
0.00000001
 40
0.6115885202648413
 40
0.6115885202648413
 40
0.6115885202648413
 40
0.6115885202648413
 40
1.0
 40
1.0
 40
1.0
 40
1.0
 10
113.2060803995171
 20
641.1192821128194
 30
0.0
 10
116.9989109383415
 20
640.5769090962285
 30
0.0
 10
122.2889672940453
 20
640.4256220356846
 30
0.0
 10
129.206080399517
 20
640.4256220356846
 30
0.0
  0
LWPOLYLINE
  5
116
330
1F
100
AcDbEntity
  8
0
  6
Continuous
 62
     8
370
    18
100
AcDbPolyline
 90
        3
 70
   128
 43
0.0
 10
113.2057611272
 20
641.424327262
 10
113.2059306279
 20
641.2718138772
 10
113.2060796396
 20
641.1192855912
  0
SPLINE
  5
117
330
1F
100
AcDbEntity
  8
0
  6
Continuous
 62
     8
370
    18
100
AcDbSpline
210
0.0
220
0.0
230
1.0
 70
     8
 71
     3
 72
    18
 73
    14
 74
     0
 42
0.000000001
 43
0.00000001
 40
0.0
 40
0.0
 40
0.0
 40
0.0
 40
0.2499999999999998
 40
0.2499999999999998
 40
0.4999999999999996
 40
0.4999999999999996
 40
0.6249999999999997
 40
0.6249999999999997
 40
0.7499999999999998
 40
0.7499999999999998
 40
0.8749999999999999
 40
0.8749999999999999
 40
0.881639668037712
 40
0.881639668037712
 40
0.881639668037712
 40
0.881639668037712
 10
113.2057610548369
 20
641.424321441499
 30
0.0
 10
112.3092553890078
 20
641.5418950892337
 30
0.0
 10
111.4188040257048
 20
641.6888746605684
 30
0.0
 10
109.6639079145557
 20
642.1091486915258
 30
0.0
 10
108.790395505733
 20
642.3779156264914
 30
0.0
 10
107.5882845559841
 20
643.0178487954117
 30
0.0
 10
107.2125759347358
 20
643.2698146238196
 30
0.0
 10
106.5629225422051
 20
643.8930361503434
 30
0.0
 10
106.2922179038621
 20
644.2706717619067
 30
0.0
 10
105.9471902203056
 20
645.1139060849223
 30
0.0
 10
105.8801066119258
 20
645.5693412670105
 30
0.0
 10
105.869413998516
 20
646.0503688591552
 30
0.0
 10
105.8689205529115
 20
646.0746313158927
 30
0.0
 10
105.8684696303162
 20
646.098894041793
 30
0.0
  0
SPLINE
  5
118
330
1F
100
AcDbEntity
  8
0
  6
Continuous
 62
     8
370
    18
100
AcDbSpline
210
0.0
220
0.0
230
1.0
 70
     8
 71
     3
 72
     9
 73
     5
 74
     0
 42
0.000000001
 43
0.00000001
 40
0.0
 40
0.0
 40
0.0
 40
0.0
 40
0.5
 40
1.0
 40
1.0
 40
1.0
 40
1.0
 10
129.206080399517
 20
640.4256220356846
 30
0.0
 10
132.6646369522529
 20
640.4256220356846
 30
0.0
 10
138.7682216828407
 20
640.5012655659566
 30
0.0
 10
143.3096651301048
 20
640.848095604524
 30
0.0
 10
145.206080399517
 20
641.1192821128194
 30
0.0
  0
LINE
  5
119
330
1F
100
AcDbEntity
  8
0
  6
Continuous
 62
     8
370
    18
100
AcDbLine
 10
152.4402931706
 20
646.1063466149
 30
0.0
 11
152.440490611
 21
646.1063615161
 31
0.0
  0
SPLINE
  5
11A
330
1F
100
AcDbEntity
  8
0
  6
Continuous
 62
     8
370
    18
100
AcDbSpline
210
0.0
220
0.0
230
1.0
 70
     8
 71
     3
 72
     8
 73
     4
 74
     0
 42
0.000000001
 43
0.00000001
 40
0.0
 40
0.0
 40
0.0
 40
0.0
 40
1.0
 40
1.0
 40
1.0
 40
1.0
 10
152.5436422883184
 20
646.1061632785674
 30
0.0
 10
152.5106094557968
 20
646.1069388890077
 30
0.0
 10
152.4762677475004
 20
646.1074739544035
 30
0.0
 10
152.4404909448176
 20
646.10635775302
 30
0.0
  0
SPLINE
  5
11B
330
1F
100
AcDbEntity
  8
0
  6
Continuous
 62
     8
370
    18
100
AcDbSpline
210
0.0
220
0.0
230
1.0
 70
     8
 71
     3
 72
    22
 73
    18
 74
     0
 42
0.000000001
 43
0.00000001
 40
0.0
 40
0.0
 40
0.0
 40
0.0
 40
0.0374151404237061
 40
0.0750714459623307
 40
0.1129509116411729
 40
0.1514243116274384
 40
0.1910193201971621
 40
0.232416541886365
 40
0.2764285909144937
 40
0.3239654360146001
 40
0.3759953407409176
 40
0.4335110512443002
 40
0.5661889653381629
 40
0.6965698655810596
 40
0.8171011229468872
 40
0.9203553501808677
 40
1.0
 40
1.0
 40
1.0
 40
1.0
 10
152.5435457906217
 20
646.098896532148
 30
0.0
 10
152.5407661749018
 20
645.9795378371687
 30
0.0
 10
152.535189027016
 20
645.7400511021516
 30
0.0
 10
152.4933914121571
 20
645.3815253327919
 30
0.0
 10
152.4145459544388
 20
645.0258054681642
 30
0.0
 10
152.2937199380238
 20
644.6753174435969
 30
0.0
 10
152.1261040928946
 20
644.3319789056429
 30
0.0
 10
151.9066858693716
 20
643.9977443705806
 30
0.0
 10
151.6304513075158
 20
643.6745373740182
 30
0.0
 10
151.2923024498301
 20
643.364110182911
 30
0.0
 10
150.8869753618609
 20
643.0679189679247
 30
0.0
 10
150.2196083466254
 20
642.676336650007
 30
0.0
 10
149.2714859453914
 20
642.281444998432
 30
0.0
 10
148.0953370298054
 20
641.939811792996
 30
0.0
 10
146.9903617873804
 20
641.7016233363142
 30
0.0
 10
146.0361382010564
 20
641.538157831463
 30
0.0
 10
145.4581074500595
 20
641.4588546083357
 30
0.0
 10
145.2063997441972
 20
641.424321441499
 30
0.0
  0
SPLINE
  5
11C
330
1F
100
AcDbEntity
  8
0
  6
Continuous
 62
     8
370
    18
100
AcDbSpline
210
0.0
220
0.0
230
1.0
 70
     8
 71
     3
 72
    17
 73
    13
 74
     0
 42
0.000000001
 43
0.00000001
 40
0.6540137648318899
 40
0.6540137648318899
 40
0.6540137648318899
 40
0.6540137648318899
 40
0.6844227112538338
 40
0.7061433872917314
 40
0.735104288675595
 40
0.7857858660973561
 40
0.7891646379254735
 40
0.8702551618002914
 40
0.9189094761251821
 40
0.9513456856751092
 40
0.9791481510036183
 40
1.0
 40
1.0
 40
1.0
 40
1.0
 10
145.2060817469009
 20
641.1192798436479
 30
0.0
 10
145.2060887078576
 20
641.1284137933404
 30
0.0
 10
145.206101416938
 20
641.1434840139596
 30
0.0
 10
145.2061227342568
 20
641.1674030516818
 30
0.0
 10
145.2061511488675
 20
641.1971659977216
 30
0.0
 10
145.2061763075828
 20
641.2215766414643
 30
0.0
 10
145.2062186569472
 20
641.2612936065019
 30
0.0
 10
145.2062624365103
 20
641.3004120324508
 30
0.0
 10
145.2063164353983
 20
641.3480674493497
 30
0.0
 10
145.2063521316372
 20
641.380065658864
 30
0.0
 10
145.2063781766789
 20
641.4038950083891
 30
0.0
 10
145.206394198333
 20
641.4190240095754
 30
0.0
 10
145.2063997441972
 20
641.424321441499
 30
0.0
  0
LINE
  5
11D
330
1F
100
AcDbEntity
  8
0
  6
Continuous
 62
     8
370
    18
100
AcDbLine
 10
107.2291158513
 20
647.608264454
 30
0.0
 11
107.2293207423
 21
647.608264454
 31
0.0
  0
SPLINE
  5
11E
330
1F
100
AcDbEntity
  8
0
  6
Continuous
 62
     8
370
    18
100
AcDbSpline
210
0.0
220
0.0
230
1.0
 70
     8
 71
     3
 72
    10
 73
     6
 74
     0
 42
0.000000001
 43
0.00000001
 40
0.0
 40
0.0
 40
0.0
 40
0.0
 40
0.4965199982285588
 40
0.7473474849113968
 40
1.0
 40
1.0
 40
1.0
 40
1.0
 10
107.126974642243
 20
647.6076866184684
 30
0.0
 10
107.1431220849401
 20
647.6082525819488
 30
0.0
 10
107.1674267468479
 20
647.6091044537472
 30
0.0
 10
107.2016820026655
 20
647.6087272926259
 30
0.0
 10
107.219949388629
 20
647.6084219262092
 30
0.0
 10
107.2291161896767
 20
647.6082686895503
 30
0.0
  0
SPLINE
  5
11F
330
1F
100
AcDbEntity
  8
0
  6
Continuous
 62
     8
370
    18
100
AcDbSpline
210
0.0
220
0.0
230
1.0
 70
     8
 71
     3
 72
    15
 73
    11
 74
     0
 42
0.000000001
 43
0.00000001
 40
0.0
 40
0.0
 40
0.0
 40
0.0
 40
0.0510956450227233
 40
0.1428083941503635
 40
0.249945877018184
 40
0.4999929585779314
 40
0.5706745620003725
 40
0.750030742531601
 40
0.8818573656867408
 40
1.0
 40
1.0
 40
1.0
 40
1.0
 10
106.7452216595259
 20
647.6107003647276
 30
0.0
 10
106.7527560547328
 20
647.6110465351283
 30
0.0
 10
106.7738141092873
 20
647.6120140547476
 30
0.0
 10
106.8060315015708
 20
647.612741040239
 30
0.0
 10
106.863782285286
 20
647.6135956450541
 30
0.0
 10
106.9135033640738
 20
647.6127331069432
 30
0.0
 10
106.9677865508996
 20
647.6101987587133
 30
0.0
 10
107.0130367206153
 20
647.6082279841447
 30
0.0
 10
107.0704568735433
 20
647.6066445232423
 30
0.0
 10
107.1090066026684
 20
647.6073800079063
 30
0.0
 10
107.1272263093516
 20
647.6077276190348
 30
0.0
  0
LINE
  5
120
330
1F
100
AcDbEntity
  8
0
  6
Continuous
 62
     8
370
    18
100
AcDbLine
 10
106.6895317659
 20
647.6082942563
 30
0.0
 11
106.7458171771
 21
647.6107976514
 31
0.0
  0
LINE
  5
121
330
1F
100
AcDbEntity
  8
0
  6
Continuous
 62
     8
370
    18
100
AcDbLine
 10
127.4207060366
 20
649.3219128924
 30
0.0
 11
129.2060803995
 21
649.3965379077
 31
0.0
  0
LINE
  5
122
330
1F
100
AcDbEntity
  8
0
  6
Continuous
 62
     8
370
    18
100
AcDbLine
 10
151.7227091268
 20
647.6082793551
 30
0.0
 11
151.666343622
 21
647.6107976514
 31
0.0
  0
SPLINE
  5
123
330
1F
100
AcDbEntity
  8
0
  6
Continuous
 62
     8
370
    18
100
AcDbSpline
210
0.0
220
0.0
230
1.0
 70
     8
 71
     3
 72
    18
 73
    14
 74
     0
 42
0.000000001
 43
0.00000001
 40
0.0
 40
0.0
 40
0.0
 40
0.0
 40
0.25
 40
0.25
 40
0.5
 40
0.5
 40
0.7500000000000001
 40
0.7500000000000001
 40
0.8750000000000001
 40
0.8750000000000001
 40
0.9375
 40
0.9375
 40
1.0
 40
1.0
 40
1.0
 40
1.0
 10
151.2849526439936
 20
647.6078390650965
 30
0.0
 10
151.3243693341639
 20
647.6069530037088
 30
0.0
 10
151.3606385871184
 20
647.6069975383632
 30
0.0
 10
151.423190006715
 20
647.6092543171429
 30
0.0
 10
151.4510369349341
 20
647.6107875036191
 30
0.0
 10
151.5075770344676
 20
647.612765651807
 30
0.0
 10
151.5362110073769
 20
647.6133340775365
 30
0.0
 10
151.5826401274259
 20
647.6131293808857
 30
0.0
 10
151.5986390489155
 20
647.6128941549449
 30
0.0
 10
151.6234579242148
 20
647.6122901662984
 30
0.0
 10
151.6318764792032
 20
647.6120453578086
 30
0.0
 10
151.6491032002401
 20
647.6114523493923
 30
0.0
 10
151.6565132785038
 20
647.6113280429929
 30
0.0
 10
151.6669391395072
 20
647.6107003647277
 30
0.0
  0
SPLINE
  5
124
330
1F
100
AcDbEntity
  8
0
  6
Continuous
 62
     8
370
    18
100
AcDbSpline
210
0.0
220
0.0
230
1.0
 70
     8
 71
     3
 72
     8
 73
     4
 74
     0
 42
0.000000001
 43
0.00000001
 40
0.0
 40
0.0
 40
0.0
 40
0.0
 40
1.0
 40
1.0
 40
1.0
 40
1.0
 10
151.1830446093574
 20
647.6082686895503
 30
0.0
 10
151.2203861399299
 20
647.6086920697071
 30
0.0
 10
151.2531015495973
 20
647.6082934828215
 30
0.0
 10
151.2851728878125
 20
647.6076051632118
 30
0.0
  0
LINE
  5
125
330
1F
100
AcDbEntity
  8
0
  6
Continuous
 62
     8
370
    18
100
AcDbLine
 10
130.6477140776
 20
649.3362776118
 30
0.0
 11
129.2060803995
 21
649.3965379077
 31
0.0
  0
ARC
  5
126
330
1F
100
AcDbEntity
  8
0
  6
Continuous
 62
     8
370
    18
100
AcDbCircle
 10
107.4714815636
 20
646.1280071929
 30
0.0
 40
1.499967565494588
100
AcDbArc
 50
99.2986538664
 51
180.8268505283
  0
ARC
  5
127
330
1F
100
AcDbEntity
  8
0
  6
Continuous
 62
     8
370
    18
100
AcDbCircle
 10
150.9406792354
 20
646.1280071929
 30
0.0
 40
1.499967565494585
100
AcDbArc
 50
359.1731494717
 51
80.7013461336
  0
SPLINE
  5
128
330
1F
100
AcDbEntity
  8
0
  6
Continuous
 62
     8
370
    18
100
AcDbSpline
210
0.0
220
0.0
230
1.0
 70
     8
 71
     3
 72
    14
 73
    10
 74
     0
 42
0.000000001
 43
0.00000001
 40
0.0
 40
0.0
 40
0.0
 40
0.0
 40
0.25
 40
0.25
 40
0.5
 40
0.5
 40
0.75
 40
0.75
 40
1.0
 40
1.0
 40
1.0
 40
1.0
 10
151.2849212100355
 20
647.6076461840568
 30
0.0
 10
151.4460594696275
 20
647.5813822364711
 30
0.0
 10
151.6131933872026
 20
647.5264676819124
 30
0.0
 10
151.9274775599117
 20
647.352466169421
 30
0.0
 10
152.0738850153718
 20
647.2332539620088
 30
0.0
 10
152.3126616996994
 20
646.9484341820028
 30
0.0
 10
152.4044984550115
 20
646.7834615203107
 30
0.0
 10
152.5209937936628
 20
646.4436065448457
 30
0.0
 10
152.5459326483451
 20
646.2694233162897
 30
0.0
 10
152.5436497349732
 20
646.1061631037155
 30
0.0
  0
SPLINE
  5
129
330
1F
100
AcDbEntity
  8
0
  6
Continuous
 62
     8
370
    18
100
AcDbSpline
210
0.0
220
0.0
230
1.0
 70
     8
 71
     3
 72
    14
 73
    10
 74
     0
 42
0.000000001
 43
0.00000001
 40
0.0
 40
0.0
 40
0.0
 40
0.0
 40
0.25
 40
0.25
 40
0.5
 40
0.5
 40
0.75
 40
0.75
 40
1.0
 40
1.0
 40
1.0
 40
1.0
 10
107.1272081551139
 20
647.6078390650981
 30
0.0
 10
106.9661609985141
 20
647.5816026252662
 30
0.0
 10
106.7991089156288
 20
647.526706333648
 30
0.0
 10
106.484933012125
 20
647.3528378926964
 30
0.0
 10
106.3385434300944
 20
647.2337083093995
 30
0.0
 10
106.0997317639863
 20
646.9489663550464
 30
0.0
 10
106.0078443819877
 20
646.7839846677006
 30
0.0
 10
105.8912703591255
 20
646.4439630621346
 30
0.0
 10
105.8663072224034
 20
646.2696236116934
 30
0.0
 10
105.868616016377
 20
646.1061645861151
 30
0.0
  0
SPLINE
  5
12A
330
1F
100
AcDbEntity
  8
0
  6
Continuous
 62
     8
370
    18
100
AcDbSpline
210
0.0
220
0.0
230
1.0
 70
     8
 71
     3
 72
    24
 73
    20
 74
     0
 42
0.000000001
 43
0.00000001
 40
0.0
 40
0.0
 40
0.0
 40
0.0
 40
0.0078125
 40
0.0078125
 40
0.015625
 40
0.015625
 40
0.03125
 40
0.03125
 40
0.0624999999999999
 40
0.0624999999999999
 40
0.1249999999999999
 40
0.1249999999999999
 40
0.2499999999999999
 40
0.2499999999999999
 40
0.4999999999999999
 40
0.4999999999999999
 40
0.7499999999999999
 40
0.7499999999999999
 40
1.0
 40
1.0
 40
1.0
 40
1.0
 10
152.9266257196422
 20
646.0338316396661
 30
0.0
 10
152.9252612735314
 20
646.0330413147914
 30
0.0
 10
152.9238616683738
 20
646.0313080079861
 30
0.0
 10
152.9214708978212
 20
646.0273572538392
 30
0.0
 10
152.9205847845808
 20
646.0282998676116
 30
0.0
 10
152.9172476674151
 20
646.0274874958862
 30
0.0
 10
152.9148314067864
 20
646.0255786332493
 30
0.0
 10
152.9079216600012
 20
646.0219912633572
 30
0.0
 10
152.9033697963398
 20
646.0197517520703
 30
0.0
 10
152.8898742086215
 20
646.0134731017068
 30
0.0
 10
152.8811018618682
 20
646.0098981930604
 30
0.0
 10
152.855354941409
 20
646.0009843618053
 30
0.0
 10
152.8389087679406
 20
645.9972725198138
 30
0.0
 10
152.7918925178889
 20
645.993938883584
 30
0.0
 10
152.7640495018281
 20
646.0032687088122
 30
0.0
 10
152.7094351929326
 20
646.0342209890196
 30
0.0
 10
152.6825081502415
 20
646.0554903146669
 30
0.0
 10
152.6203611694647
 20
646.0874468775662
 30
0.0
 10
152.5835674114521
 20
646.0960402164797
 30
0.0
 10
152.543417288192
 20
646.0988992376087
 30
0.0
  0
SPLINE
  5
12B
330
1F
100
AcDbEntity
  8
0
  6
Continuous
 62
     8
370
    18
100
AcDbSpline
210
0.0
220
0.0
230
1.0
 70
     8
 71
     3
 72
    14
 73
    10
 74
     0
 42
0.000000001
 43
0.00000001
 40
0.0
 40
0.0
 40
0.0
 40
0.0
 40
0.25
 40
0.25
 40
0.5
 40
0.5
 40
0.75
 40
0.75
 40
1.0
 40
1.0
 40
1.0
 40
1.0
 10
152.9260322037263
 20
646.033869622175
 30
0.0
 10
152.9367720906487
 20
646.2016881572458
 30
0.0
 10
152.9192422823592
 20
646.3830158639464
 30
0.0
 10
152.8119776319932
 20
646.7399013609249
 30
0.0
 10
152.7218526322855
 20
646.9146424678063
 30
0.0
 10
152.4806414786507
 20
647.2167210374284
 30
0.0
 10
152.330181141113
 20
647.3432748874791
 30
0.0
 10
152.0058984215038
 20
647.526838718929
 30
0.0
 10
151.8329586765872
 20
647.5840486703123
 30
0.0
 10
151.6669391204466
 20
647.6107002459773
 30
0.0
  0
SPLINE
  5
12C
330
1F
100
AcDbEntity
  8
0
  6
Continuous
 62
     8
370
    18
100
AcDbSpline
210
0.0
220
0.0
230
1.0
 70
     8
 71
     3
 72
    16
 73
    12
 74
     0
 42
0.000000001
 43
0.00000001
 40
0.0
 40
0.0
 40
0.0
 40
0.0
 40
0.0943630820300885
 40
0.1775845571951022
 40
0.2500777413471153
 40
0.3751192595257202
 40
0.5001519078489794
 40
0.750168625801796
 40
0.8751357881250194
 40
0.9477564758537981
 40
1.0
 40
1.0
 40
1.0
 40
1.0
 10
105.8684696283516
 20
646.0988941475031
 30
0.0
 10
105.8533592863394
 20
646.0972566561555
 30
0.0
 10
105.8249227056601
 20
646.0941750148017
 30
0.0
 10
105.7899073341693
 20
646.08461421547
 30
0.0
 10
105.7535415287769
 20
646.0690879493476
 30
0.0
 10
105.7161688460955
 20
646.0448730958622
 30
0.0
 10
105.6620275806466
 20
646.0080713565983
 30
0.0
 10
105.606308683284
 20
645.9889868382007
 30
0.0
 10
105.5471690601981
 20
646.0039833633222
 30
0.0
 10
105.5122276665254
 20
646.0161144367215
 30
0.0
 10
105.4934089015736
 20
646.0286053907138
 30
0.0
 10
105.4855350793919
 20
646.0338316396661
 30
0.0
  0
SPLINE
  5
12D
330
1F
100
AcDbEntity
  8
0
  6
Continuous
 62
     8
370
    18
100
AcDbSpline
210
0.0
220
0.0
230
1.0
 70
     8
 71
     3
 72
    14
 73
    10
 74
     0
 42
0.000000001
 43
0.00000001
 40
0.0
 40
0.0
 40
0.0
 40
0.0
 40
0.25
 40
0.25
 40
0.5
 40
0.5
 40
0.75
 40
0.75
 40
1.0
 40
1.0
 40
1.0
 40
1.0
 10
106.7452216595259
 20
647.6107003647276
 30
0.0
 10
106.5791565562568
 20
647.584109319534
 30
0.0
 10
106.4061533574632
 20
647.5269489504876
 30
0.0
 10
106.0817302095849
 20
647.3434401040104
 30
0.0
 10
105.9311939356222
 20
647.2168910281495
 30
0.0
 10
105.6898538640746
 20
646.914782855427
 30
0.0
 10
105.5996768055856
 20
646.7400083071145
 30
0.0
 10
105.4923451655127
 20
646.383048887316
 30
0.0
 10
105.4747998316507
 20
646.2016816523621
 30
0.0
 10
105.4855350793919
 20
646.0338316396661
 30
0.0
  0
SPLINE
  5
12E
330
1F
100
AcDbEntity
  8
0
  6
Continuous
 62
     8
370
    18
100
AcDbSpline
210
0.0
220
0.0
230
1.0
 70
     8
 71
     3
 72
    15
 73
    11
 74
     0
 42
0.000000001
 43
0.00000001
 40
0.0
 40
0.0
 40
0.0
 40
0.0
 40
0.2109903601552492
 40
0.3186264177275242
 40
0.4262623621330628
 40
0.641536015446334
 40
0.7893781862357394
 40
0.8632994462664535
 40
0.9372202685194903
 40
1.0
 40
1.0
 40
1.0
 40
1.0
 10
106.7771841213741
 20
612.820147641244
 30
0.0
 10
106.7692171563916
 20
612.8203647711878
 30
0.0
 10
106.7571858696985
 20
612.8206926692778
 30
0.0
 10
106.7389574774763
 20
612.822917375135
 30
0.0
 10
106.7189630486566
 20
612.8263715841871
 30
0.0
 10
106.6941091450307
 20
612.8325475103072
 30
0.0
 10
106.6648218334241
 20
612.8428986184801
 30
0.0
 10
106.6438812679807
 20
612.8517218692361
 30
0.0
 10
106.6279505898793
 20
612.858269110761
 30
0.0
 10
106.6191433350527
 20
612.8613194091781
 30
0.0
 10
106.6150986031331
 20
612.8627202587749
 30
0.0
  0
SPLINE
  5
12F
330
1F
100
AcDbEntity
  8
0
  6
Continuous
 62
     8
370
    18
100
AcDbSpline
210
0.0
220
0.0
230
1.0
 70
     8
 71
     3
 72
    13
 73
     9
 74
     0
 42
0.000000001
 43
0.00000001
 40
0.0
 40
0.0
 40
0.0
 40
0.0
 40
0.1009314850811883
 40
0.2879409433419649
 40
0.4749514030014743
 40
0.6619616995844708
 40
0.8489721343481831
 40
1.0
 40
1.0
 40
1.0
 40
1.0
 10
108.6488165334501
 20
613.2520130949641
 30
0.0
 10
108.8405614461052
 20
613.2874483411824
 30
0.0
 10
109.3875781771733
 20
613.3885392764385
 30
0.0
 10
111.1141183025035
 20
613.5878814889438
 30
0.0
 10
113.6808427177753
 20
613.8427785298717
 30
0.0
 10
116.8650839540209
 20
614.1034336220727
 30
0.0
 10
120.241006620953
 20
614.3378442127643
 30
0.0
 10
122.6430116585198
 20
614.4380805726494
 30
0.0
 10
123.7161731720604
 20
614.4828639107371
 30
0.0
  0
LINE
  5
130
330
1F
100
AcDbEntity
  8
0
  6
Continuous
 62
     8
370
    18
100
AcDbLine
 10
125.4764955398
 20
614.5365378934
 30
0.0
 11
128.1428357494
 21
614.5876339751
 31
0.0
  0
SPLINE
  5
131
330
1F
100
AcDbEntity
  8
0
  6
Continuous
 62
     8
370
    18
100
AcDbSpline
210
0.0
220
0.0
230
1.0
 70
     8
 71
     3
 72
     9
 73
     5
 74
     0
 42
0.000000001
 43
0.00000001
 40
0.0
 40
0.0
 40
0.0
 40
0.0
 40
0.4999774969938549
 40
1.0
 40
1.0
 40
1.0
 40
1.0
 10
128.5807027745637
 20
614.5961397123723
 30
0.0
 10
128.6848989957023
 20
614.596560025478
 30
0.0
 10
128.8933008173144
 20
614.5974006895248
 30
0.0
 10
129.101770450063
 20
614.5975907746224
 30
0.0
 10
129.2060099576307
 20
614.5976858214486
 30
0.0
  0
SPLINE
  5
132
330
1F
100
AcDbEntity
  8
0
  6
Continuous
 62
     8
370
    18
100
AcDbSpline
210
0.0
220
0.0
230
1.0
 70
     8
 71
     3
 72
     9
 73
     5
 74
     0
 42
0.000000001
 43
0.00000001
 40
0.0
 40
0.0
 40
0.0
 40
0.0
 40
0.5000725277975183
 40
1.0
 40
1.0
 40
1.0
 40
1.0
 10
129.2061060073223
 20
614.5967923014022
 30
0.0
 10
129.3103628254183
 20
614.5968622005114
 30
0.0
 10
129.5188462199273
 20
614.5970019784542
 30
0.0
 10
129.727262320231
 20
614.5963529446869
 30
0.0
 10
129.8314552544221
 20
614.5960284748762
 30
0.0
  0
SPLINE
  5
133
330
1F
100
AcDbEntity
  8
0
  6
Continuous
 62
     8
370
    18
100
AcDbSpline
210
0.0
220
0.0
230
1.0
 70
     8
 71
     3
 72
    13
 73
     9
 74
     0
 42
0.000000001
 43
0.00000001
 40
0.0
 40
0.0
 40
0.0
 40
0.0
 40
0.102414424772867
 40
0.2921672071919514
 40
0.4819210056997282
 40
0.6716746387387508
 40
0.8614284119855228
 40
1.0
 40
1.0
 40
1.0
 40
1.0
 10
149.7633591667451
 20
613.251998193803
 30
0.0
 10
149.5716121028294
 20
613.2874396349589
 30
0.0
 10
149.0245973217013
 20
613.3885467485744
 30
0.0
 10
147.297976809698
 20
613.5878646070508
 30
0.0
 10
144.731561427298
 20
613.8428330328063
 30
0.0
 10
141.5461691488131
 20
614.1032324924793
 30
0.0
 10
138.2671271880427
 20
614.3320531248696
 30
0.0
 10
135.9695606113315
 20
614.4283802299989
 30
0.0
 10
134.9998595566191
 20
614.4690356331492
 30
0.0
  0
SPLINE
  5
134
330
1F
100
AcDbEntity
  8
0
  6
Continuous
 62
     8
370
    18
100
AcDbSpline
210
0.0
220
0.0
230
1.0
 70
     8
 71
     3
 72
     9
 73
     5
 74
     0
 42
0.000000001
 43
0.00000001
 40
0.0
 40
0.0
 40
0.0
 40
0.0
 40
0.6430496435300045
 40
1.0
 40
1.0
 40
1.0
 40
1.0
 10
151.6344774887599
 20
612.8201327400828
 30
0.0
 10
151.6595348295777
 20
612.8212856771664
 30
0.0
 10
151.6985012469763
 20
612.8230785979699
 30
0.0
 10
151.7707840031572
 20
612.8519300016333
 30
0.0
 10
151.7965853587426
 20
612.8622285204555
 30
0.0
  0
SPLINE
  5
135
330
1F
100
AcDbEntity
  8
0
  6
Continuous
 62
     8
370
    18
100
AcDbSpline
210
0.0
220
0.0
230
1.0
 70
     8
 71
     3
 72
     9
 73
     5
 74
     0
 42
0.000000001
 43
0.00000001
 40
0.0
 40
0.0
 40
0.0
 40
0.0
 40
0.2826616379819263
 40
1.0
 40
1.0
 40
1.0
 40
1.0
 10
151.8242456392087
 20
612.8692767697001
 30
0.0
 10
151.8276014598017
 20
612.8701159868342
 30
0.0
 10
151.8394736778251
 20
612.8730849681928
 30
0.0
 10
151.8092677961947
 20
612.8490190512524
 30
0.0
 10
151.7875999585428
 20
612.831755645814
 30
0.0
  0
LINE
  5
136
330
1F
100
AcDbEntity
  8
0
  6
Continuous
 62
     8
370
    18
100
AcDbLine
 10
153.0661251769
 20
611.6334340649
 30
0.0
 11
153.1335175411
 21
611.2390897351
 31
0.0
  0
LINE
  5
137
330
1F
100
AcDbEntity
  8
0
  6
Continuous
 62
     8
370
    18
100
AcDbLine
 10
105.3448733316
 20
611.6269520598
 30
0.0
 11
105.278643258
 21
611.2394026595
 31
0.0
  0
LWPOLYLINE
  5
138
330
1F
100
AcDbEntity
  8
0
  6
Continuous
 62
     8
370
    18
100
AcDbPolyline
 90
        3
 70
   128
 43
0.0
 10
105.2754171566
 20
646.1193851309
 10
105.2728485689
 20
646.1172244626
 10
105.270302333
 20
646.1150935965
  0
LWPOLYLINE
  5
139
330
1F
100
AcDbEntity
  8
0
  6
Continuous
 62
     8
370
    18
100
AcDbPolyline
 90
        3
 70
   128
 43
0.0
 10
105.275556855
 20
646.1194894391
 10
105.2754879371
 20
646.1194298344
 10
105.2754171566
 20
646.1193851309
  0
SPLINE
  5
13A
330
1F
100
AcDbEntity
  8
0
  6
Continuous
 62
     8
370
    18
100
AcDbSpline
210
0.0
220
0.0
230
1.0
 70
     8
 71
     3
 72
    15
 73
    11
 74
     0
 42
0.000000001
 43
0.00000001
 40
0.0
 40
0.0
 40
0.0
 40
0.0
 40
0.1671592841549225
 40
0.3338538291254953
 40
0.5000823084869758
 40
0.7501398401927436
 40
0.8502588840984638
 40
0.9254618127262098
 40
0.9669753030697906
 40
1.0
 40
1.0
 40
1.0
 40
1.0
 10
105.48617354536
 20
646.0331754707032
 30
0.0
 10
105.470928436206
 20
646.0428236813725
 30
0.0
 10
105.4404806026187
 20
646.0620932785861
 30
0.0
 10
105.4003935746145
 20
646.0835027240022
 30
0.0
 10
105.3584120143302
 20
646.1018419323091
 30
0.0
 10
105.3261239488089
 20
646.1102108558259
 30
0.0
 10
105.3016923498427
 20
646.1143337138446
 30
0.0
 10
105.2895691825453
 20
646.1195960189564
 30
0.0
 10
105.281349531135
 20
646.1224875703506
 30
0.0
 10
105.2773353951556
 20
646.1204182478103
 30
0.0
 10
105.2755569024259
 20
646.1195014191048
 30
0.0
  0
SPLINE
  5
13B
330
1F
100
AcDbEntity
  8
0
  6
Continuous
 62
     8
370
    18
100
AcDbSpline
210
0.0
220
0.0
230
1.0
 70
     8
 71
     3
 72
    14
 73
    10
 74
     0
 42
0.000000001
 43
0.00000001
 40
0.0
 40
0.0
 40
0.0
 40
0.0
 40
0.1250000000000001
 40
0.1250000000000001
 40
0.2500000000000001
 40
0.2500000000000001
 40
0.5
 40
0.5
 40
1.0
 40
1.0
 40
1.0
 40
1.0
 10
153.1366038966082
 20
646.1195014191048
 30
0.0
 10
153.1300203974377
 20
646.1249076494919
 30
0.0
 10
153.1230818246579
 20
646.1188760715492
 30
0.0
 10
153.1090145585469
 20
646.1144333026347
 30
0.0
 10
153.1018609949095
 20
646.1129916022635
 30
0.0
 10
153.0797867591831
 20
646.1084497183136
 30
0.0
 10
153.0641391456124
 20
646.1044305911018
 30
0.0
 10
153.0129692758347
 20
646.0857165338854
 30
0.0
 10
152.9728142108408
 20
646.0637685663764
 30
0.0
 10
152.9259877135743
 20
646.0331757711663
 30
0.0
  0
LINE
  5
13C
330
1F
100
AcDbEntity
  8
0
  6
Continuous
 62
     8
370
    18
100
AcDbLine
 10
153.1366039441
 20
646.1194894391
 30
0.0
 11
153.1367436425
 21
646.1193851309
 31
0.0
  0
LINE
  5
13D
330
1F
100
AcDbEntity
  8
0
  6
Continuous
 62
     8
370
    18
100
AcDbLine
 10
153.1367436425
 20
646.1193851309
 30
0.0
 11
153.141858466
 21
646.1150935965
 31
0.0
  0
ARC
  5
13E
330
1F
100
AcDbEntity
  8
0
  6
Continuous
 62
     8
370
    18
100
AcDbCircle
 10
150.845959814
 20
617.4898581701
 30
0.0
 40
0.2933681197376705
100
AcDbArc
 50
271.370567106
 51
1.3010829638
  0
LINE
  5
13F
330
1F
100
AcDbEntity
  8
0
  6
Continuous
 62
     8
370
    18
100
AcDbLine
 10
129.2060803995
 20
617.4966237622
 30
0.0
 11
129.2060803995
 21
617.1965739804
 31
0.0
  0
ARC
  5
140
330
1F
100
AcDbEntity
  8
0
  6
Continuous
 62
     8
370
    18
100
AcDbCircle
 10
107.5662009851
 20
617.4898581701
 30
0.0
 40
0.2933681197376563
100
AcDbArc
 50
178.6989170362
 51
268.629432894
  0
ARC
  5
141
330
1F
100
AcDbEntity
  8
0
  6
Continuous
 62
     8
370
    18
100
AcDbCircle
 10
129.2060803995
 20
627.1965703087
 30
0.0
 40
3.781418633081858
100
AcDbArc
 50
143.9292417127
 51
36.0707582873
  0
SPLINE
  5
142
330
1F
100
AcDbEntity
  8
0
  6
Continuous
 62
     8
370
    18
100
AcDbSpline
210
0.0
220
0.0
230
1.0
 70
    24
 71
     3
 72
    10
 73
     6
 74
     0
 42
0.000000001
 43
0.00000001
 40
0.0
 40
0.0
 40
0.0
 40
0.0
 40
0.0000352880310587
 40
0.7662134379074987
 40
1.0
 40
1.0
 40
1.0
 40
1.0
 10
129.206080399517
 20
382.0465720372821
 30
0.0
 10
129.2061003995154
 20
382.0465720372821
 30
0.0
 10
129.6403628697279
 20
382.0465720373197
 30
0.0
 10
130.208753042785
 20
382.0465720372778
 30
0.0
 10
130.7722068506495
 20
382.0465720372813
 30
0.0
 10
130.9039394278713
 20
382.0465720372821
 30
0.0
  0
SPLINE
  5
143
330
1F
100
AcDbEntity
  8
0
  6
Continuous
 62
     8
370
    18
100
AcDbSpline
210
0.0
220
0.0
230
1.0
 70
    24
 71
     3
 72
     9
 73
     5
 74
     0
 42
0.000000001
 43
0.00000001
 40
0.0
 40
0.0
 40
0.0
 40
0.0
 40
0.0000478728165656
 40
1.0
 40
1.0
 40
1.0
 40
1.0
 10
129.206080399517
 20
382.0465720372821
 30
0.0
 10
129.2060603995171
 20
382.0465720372821
 30
0.0
 10
128.7882867794225
 20
382.0465720373277
 30
0.0
 10
128.3712912521326
 20
382.0465720373049
 30
0.0
 10
127.9543156875931
 20
382.0465720372821
 30
0.0
  0
LINE
  5
144
330
1F
100
AcDbEntity
  8
0
  6
Continuous
 62
     8
370
    18
100
AcDbLine
 10
129.2060803995
 20
381.7965678054
 30
0.0
 11
129.2060803995
 21
382.0465720373
 31
0.0
  0
SPLINE
  5
145
330
1F
100
AcDbEntity
  8
0
  6
Continuous
 62
     8
370
    18
100
AcDbSpline
210
0.0
220
0.0
230
1.0
 70
     8
 71
     3
 72
    11
 73
     7
 74
     0
 42
0.000000001
 43
0.00000001
 40
0.0
 40
0.0
 40
0.0
 40
0.0
 40
0.0006000015722992
 40
0.0006000015722992
 40
0.0006000015722992
 40
0.0010146058036105
 40
0.0010146058036105
 40
0.0010146058036105
 40
0.0010146058036105
 10
152.9306168765095
 20
619.6937195211647
 30
0.0
 10
152.9413985098158
 20
619.7634959572603
 30
0.0
 10
152.951714626087
 20
619.8332869854383
 30
0.0
 10
152.9615902108368
 20
619.9030909037002
 30
0.0
 10
152.968414301172
 20
619.9513258443181
 30
0.0
 10
152.9750280513886
 20
619.9995670820116
 30
0.0
 10
152.981439563061
 20
620.0478140981835
 30
0.0
  0
SPLINE
  5
146
330
1F
100
AcDbEntity
  8
0
  6
Continuous
 62
     8
370
    18
100
AcDbSpline
210
0.0
220
0.0
230
1.0
 70
     8
 71
     3
 72
    14
 73
    10
 74
     0
 42
0.000000001
 43
0.00000001
 40
0.0
 40
0.0
 40
0.0
 40
0.0
 40
0.2499999999999999
 40
0.2499999999999999
 40
0.4999999999999998
 40
0.4999999999999998
 40
0.7499999999999999
 40
0.7499999999999999
 40
1.0
 40
1.0
 40
1.0
 40
1.0
 10
151.1392518532388
 20
617.4965135862569
 30
0.0
 10
151.4580534940236
 20
617.4965087962214
 30
0.0
 10
151.6979593573757
 20
617.5401432938745
 30
0.0
 10
152.0928462708183
 20
617.7187869602194
 30
0.0
 10
152.2475656357828
 20
617.8537782147779
 30
0.0
 10
152.5134026781958
 20
618.2173133161143
 30
0.0
 10
152.6220861124101
 20
618.4457381690295
 30
0.0
 10
152.8024199463622
 20
618.9998482359151
 30
0.0
 10
152.8734633555516
 20
619.3238340975506
 30
0.0
 10
152.9306168765095
 20
619.6937195211643
 30
0.0
  0
SPLINE
  5
147
330
1F
100
AcDbEntity
  8
0
  6
Continuous
 62
     8
370
    18
100
AcDbSpline
210
0.0
220
0.0
230
1.0
 70
     8
 71
     3
 72
    10
 73
     6
 74
     0
 42
0.000000001
 43
0.00000001
 40
0.0
 40
0.0
 40
0.0
 40
0.0
 40
0.0754869668036205
 40
0.5348803825876839
 40
1.0
 40
1.0
 40
1.0
 40
1.0
 10
106.0321074352302
 20
618.0676958637858
 30
0.0
 10
106.0492540683801
 20
618.0332966937315
 30
0.0
 10
106.1707505079332
 20
617.7895534090486
 30
0.0
 10
106.5074202302959
 20
617.5764904479313
 30
0.0
 10
107.0166943057689
 20
617.523286296406
 30
0.0
 10
107.2729085013904
 20
617.4965194540645
 30
0.0
  0
LINE
  5
148
330
1F
100
AcDbEntity
  8
0
  6
Continuous
 62
     8
370
    18
100
AcDbLine
 10
153.2041099296
 20
512.5965747165
 30
0.0
 11
153.2041509078
 21
514.0188030081
 31
0.0
  0
SPLINE
  5
149
330
1F
100
AcDbEntity
  8
0
  6
Continuous
 62
     8
370
    18
100
AcDbSpline
210
0.0
220
0.0
230
1.0
 70
     8
 71
     3
 72
    10
 73
     6
 74
     0
 42
0.000000001
 43
0.00000001
 40
0.0
 40
0.0
 40
0.0
 40
0.0
 40
0.1139188584083672
 40
0.5710818520482049
 40
1.0
 40
1.0
 40
1.0
 40
1.0
 10
105.7394262776412
 20
647.1791557150508
 30
0.0
 10
105.7033954020798
 20
647.1516876366303
 30
0.0
 10
105.5227705307104
 20
647.0139885645385
 30
0.0
 10
105.3330241659582
 20
646.6371679128633
 30
0.0
 10
105.2943011788569
 20
646.2883525689743
 30
0.0
 10
105.2755568549671
 20
646.1195043402339
 30
0.0
  0
SPLINE
  5
14A
330
1F
100
AcDbEntity
  8
0
  6
Continuous
 62
     8
370
    18
100
AcDbSpline
210
0.0
220
0.0
230
1.0
 70
     8
 71
     3
 72
    10
 73
     6
 74
     0
 42
0.000000001
 43
0.00000001
 40
0.0
 40
0.0
 40
0.0
 40
0.0
 40
0.1139210124214952
 40
0.5710829012785384
 40
1.0
 40
1.0
 40
1.0
 40
1.0
 10
152.6727307961025
 20
647.1791408138896
 30
0.0
 10
152.7087630046915
 20
647.1516728419844
 30
0.0
 10
152.8893914750948
 20
647.0139766544733
 30
0.0
 10
153.0791360655934
 20
646.6371523178912
 30
0.0
 10
153.1178594352724
 20
646.2883374397717
 30
0.0
 10
153.1366039440669
 20
646.1194894390727
 30
0.0
  0
ARC
  5
14B
330
1F
100
AcDbEntity
  8
0
  6
Continuous
 62
     7
370
    18
100
AcDbCircle
 10
127.8470859243
 20
614.6333047944
 30
0.0
 40
22.82223036828121
100
AcDbArc
 50
187.1539235197
 51
241.5087123067
  0
ARC
  5
14C
330
1F
100
AcDbEntity
  8
0
  6
Continuous
 62
     7
370
    18
100
AcDbCircle
 10
134.138082671
 20
612.1020162243
 30
0.0
 40
19.02039251743945
100
AcDbArc
 50
290.9855886491
 51
356.4776311652
  0
SPLINE
  5
14D
330
1F
100
AcDbEntity
  8
0
  6
Continuous
 62
     7
370
    25
100
AcDbSpline
210
0.0
220
0.0
230
1.0
 70
     8
 71
     3
 72
     9
 73
     5
 74
     0
 42
0.000000001
 43
0.00000001
 40
0.0
 40
0.0
 40
0.0
 40
0.0
 40
0.4578699740234719
 40
1.0
 40
1.0
 40
1.0
 40
1.0
 10
287.2074636703604
 20
614.5973793345119
 30
0.0
 10
286.5184996053753
 20
614.5975471753588
 30
0.0
 10
285.0137840658722
 20
614.5979137441591
 30
0.0
 10
283.5090667290812
 20
614.5972290092332
 30
0.0
 10
282.6933142801993
 20
614.5968577938701
 30
0.0
  0
LINE
  5
14E
330
1F
100
AcDbEntity
  8
0
  6
Continuous
 62
     7
370
    25
100
AcDbLine
 10
236.671741966
 20
607.4096999245
 30
0.0
 11
236.4065758026
 21
606.7905045229
 31
0.0
  0
SPLINE
  5
14F
330
1F
100
AcDbEntity
  8
0
  6
Continuous
 62
     7
370
    25
100
AcDbSpline
210
0.0
220
0.0
230
1.0
 70
     8
 71
     3
 72
     9
 73
     5
 74
     0
 42
0.000000001
 43
0.00000001
 40
0.0
 40
0.0
 40
0.0
 40
0.0
 40
0.551020987962146
 40
1.0
 40
1.0
 40
1.0
 40
1.0
 10
239.7628015911453
 20
612.5857821779872
 30
0.0
 10
239.0238296833129
 20
611.728328630121
 30
0.0
 10
237.6827339283847
 20
610.1722108658279
 30
0.0
 10
236.9850068019122
 20
608.2656884674037
 30
0.0
 10
236.6717419659965
 20
607.4096999245311
 30
0.0
  0
SPLINE
  5
150
330
1F
100
AcDbEntity
  8
0
  6
Continuous
 62
     7
370
    25
100
AcDbSpline
210
0.0
220
0.0
230
1.0
 70
     8
 71
     3
 72
    11
 73
     7
 74
     0
 42
0.000000001
 43
0.00000001
 40
0.0
 40
0.0
 40
0.0
 40
0.0
 40
0.2497162323627669
 40
0.4996704365448111
 40
0.7497830145032993
 40
0.9999999999999999
 40
0.9999999999999999
 40
0.9999999999999999
 40
0.9999999999999999
 10
283.5408913975828
 20
381.8155667858745
 30
0.0
 10
283.5627814601966
 20
381.8269001547009
 30
0.0
 10
283.6065824459747
 20
381.8495776927025
 30
0.0
 10
283.6555064233684
 20
381.9058797210766
 30
0.0
 10
283.6882782160572
 20
381.9728680932566
 30
0.0
 10
283.6920328045596
 20
382.0220006383209
 30
0.0
 10
283.6939104905599
 20
382.0465720372821
 30
0.0
  0
SPLINE
  5
151
330
1F
100
AcDbEntity
  8
0
  6
Continuous
 62
     7
370
    25
100
AcDbSpline
210
0.0
220
0.0
230
1.0
 70
     8
 71
     3
 72
    12
 73
     8
 74
     0
 42
0.000000001
 43
0.00000001
 40
0.0
 40
0.0
 40
0.0
 40
0.0
 40
0.1513504294794778
 40
0.3891868285254693
 40
0.6353313477389141
 40
0.8948732175808906
 40
1.0
 40
1.0
 40
1.0
 40
1.0
 10
443.6922147011631
 20
595.8781681137706
 30
0.0
 10
444.3989505602038
 20
596.2078182240175
 30
0.0
 10
446.2162713866544
 20
597.0554899575652
 30
0.0
 10
448.948502966657
 20
598.8553347980546
 30
0.0
 10
451.825526010513
 20
601.3082692937619
 30
0.0
 10
453.9244148132045
 20
603.5726895903706
 30
0.0
 10
454.9510257348084
 20
605.0600745364767
 30
0.0
 10
455.2469774222248
 20
605.4888582902576
 30
0.0
  0
SPLINE
  5
152
330
1F
100
AcDbEntity
  8
0
  6
Continuous
 62
     7
370
    25
100
AcDbSpline
210
0.0
220
0.0
230
1.0
 70
     8
 71
     3
 72
    10
 73
     6
 74
     0
 42
0.000000001
 43
0.00000001
 40
0.0
 40
0.0
 40
0.0
 40
0.0
 40
0.2167099250009418
 40
0.7492711628744079
 40
1.0
 40
1.0
 40
1.0
 40
1.0
 10
409.8333641028278
 20
591.6402555184985
 30
0.0
 10
410.6000739615907
 20
591.6577967150989
 30
0.0
 10
413.2509612592541
 20
591.7184451269093
 30
0.0
 10
416.781763878832
 20
591.80081255443
 30
0.0
 10
419.534548597243
 20
591.863536184121
 30
0.0
 10
420.4157068467014
 20
591.8836138325358
 30
0.0
  0
LINE
  5
153
330
1F
100
AcDbEntity
  8
0
  6
Continuous
 62
     7
370
    25
100
AcDbLine
 10
236.4450245237
 20
627.3870608884
 30
0.0
 11
236.4452927446
 21
627.2107354479
 31
0.0
  0
SPLINE
  5
154
330
1F
100
AcDbEntity
  8
0
  6
Continuous
 62
     7
370
    25
100
AcDbSpline
210
0.0
220
0.0
230
1.0
 70
     8
 71
     3
 72
    11
 73
     7
 74
     0
 42
0.000000001
 43
0.00000001
 40
0.0
 40
0.0
 40
0.0
 40
0.0
 40
0.2511450837682573
 40
0.4999942292337372
 40
0.7492933694799842
 40
1.0
 40
1.0
 40
1.0
 40
1.0
 10
305.9127180909985
 20
640.4256216364528
 30
0.0
 10
308.1278451450778
 20
640.4880781311932
 30
0.0
 10
312.5378488267791
 20
640.612420150873
 30
0.0
 10
319.2412053801071
 20
640.8004277124435
 30
0.0
 10
325.919434686345
 20
640.9850728497756
 30
0.0
 10
330.3451684585919
 20
641.1096872304321
 30
0.0
 10
332.5642644500606
 20
641.1721698122645
 30
0.0
  0
SPLINE
  5
155
330
1F
100
AcDbEntity
  8
0
  6
Continuous
 62
     7
370
    25
100
AcDbSpline
210
0.0
220
0.0
230
1.0
 70
     8
 71
     3
 72
    11
 73
     7
 74
     0
 42
0.000000001
 43
0.00000001
 40
0.0
 40
0.0
 40
0.0
 40
0.0
 40
0.2196273850497984
 40
0.4507144791298784
 40
0.7124653261358701
 40
1.0
 40
1.0
 40
1.0
 40
1.0
 10
446.9076468682164
 20
614.3272957878735
 30
0.0
 10
445.7464296966828
 20
614.3838529733752
 30
0.0
 10
443.363405409863
 20
614.499918382972
 30
0.0
 10
439.3863318733274
 20
614.5825548388597
 30
0.0
 10
435.0532587494737
 20
614.5955335571158
 30
0.0
 10
432.0868333282114
 20
614.5962462839425
 30
0.0
 10
430.5339976286762
 20
614.596619375291
 30
0.0
  0
SPLINE
  5
156
330
1F
100
AcDbEntity
  8
0
  6
Continuous
 62
     7
370
    25
100
AcDbSpline
210
0.0
220
0.0
230
1.0
 70
     8
 71
     3
 72
    14
 73
    10
 74
     0
 42
0.000000001
 43
0.00000001
 40
0.0
 40
0.0
 40
0.0
 40
0.0
 40
0.0004898310713096
 40
0.1135903042464894
 40
0.240448158651392
 40
0.3884284140959228
 40
0.5616240505668272
 40
0.7636909835713626
 40
1.0
 40
1.0
 40
1.0
 40
1.0
 10
344.9227958059185
 20
647.6970008688594
 30
0.0
 10
344.9221056131711
 20
647.6971846154242
 30
0.0
 10
344.7620520584864
 20
647.7397948731733
 30
0.0
 10
344.3454834695211
 20
647.8417478936138
 30
0.0
 10
343.698093899779
 20
647.9909115300211
 30
0.0
 10
342.9993130538419
 20
648.139696868373
 30
0.0
 10
342.2970753786968
 20
648.2790506819817
 30
0.0
 10
341.6194041392896
 20
648.4038863877253
 30
0.0
 10
341.297867891196
 20
648.4582868849224
 30
0.0
 10
341.1245419716709
 20
648.4876117783214
 30
0.0
  0
SPLINE
  5
157
330
1F
100
AcDbEntity
  8
0
  6
Continuous
 62
     7
370
    25
100
AcDbSpline
210
0.0
220
0.0
230
1.0
 70
     8
 71
     3
 72
     9
 73
     5
 74
     0
 42
0.000000001
 43
0.00000001
 40
0.0
 40
0.0
 40
0.0
 40
0.0
 40
0.485077523335262
 40
1.0
 40
1.0
 40
1.0
 40
1.0
 10
334.9984808897846
 20
649.1819015818263
 30
0.0
 10
333.9295489753897
 20
649.2439406762962
 30
0.0
 10
331.725917879384
 20
649.3718358919791
 30
0.0
 10
329.4654287007631
 20
649.3683806543445
 30
0.0
 10
328.3014520144337
 20
649.366601474824
 30
0.0
  0
ARC
  5
158
330
1F
100
AcDbEntity
  8
0
  6
Continuous
 62
     7
370
    25
100
AcDbCircle
 10
249.6953083014
 20
612.9276310837
 30
0.0
 40
10.00000000000001
100
AcDbArc
 50
170.9531540197
 51
180.0
  0
LINE
  5
159
330
1F
100
AcDbEntity
  8
0
  6
Continuous
 62
     7
370
    25
100
AcDbLine
 10
239.6953067815
 20
612.9276297169
 30
0.0
 11
239.6953067815
 21
612.5770351964
 31
0.0
  0
ARC
  5
15A
330
1F
100
AcDbEntity
  8
0
  6
Continuous
 62
     7
370
    25
100
AcDbCircle
 10
261.1953083014
 20
611.0965703087
 30
0.0
 40
21.64486082191337
100
AcDbArc
 50
142.7676009305
 51
170.9531540197
  0
ARC
  5
15B
330
1F
100
AcDbEntity
  8
0
  6
Continuous
 62
     7
370
    25
100
AcDbCircle
 10
261.1953083014
 20
611.0965703087
 30
0.0
 40
21.64486082191335
100
AcDbArc
 50
9.3142793154
 51
16.368983113
  0
LINE
  5
15C
330
1F
100
AcDbEntity
  8
0
  6
Continuous
 62
     7
370
    25
100
AcDbLine
 10
444.2755206561
 20
594.3609691339
 30
0.0
 11
444.003544662
 21
595.9355375844
 31
0.0
  0
LINE
  5
15D
330
1F
100
AcDbEntity
  8
0
  6
Continuous
 62
     7
370
    25
100
AcDbLine
 10
420.3506781793
 20
591.8683252412
 30
0.0
 11
420.6257238126
 21
590.2759424525
 31
0.0
  0
LINE
  5
15E
330
1F
100
AcDbEntity
  8
0
  6
Continuous
 62
     7
370
    25
100
AcDbLine
 10
284.8872457704
 20
623.1965712386
 30
0.0
 11
285.4877933001
 21
623.4151563721
 31
0.0
  0
LINE
  5
15F
330
1F
100
AcDbEntity
  8
0
  6
Continuous
 62
     7
370
    25
100
AcDbLine
 10
284.5547654739
 20
623.1965712386
 30
0.0
 11
284.8872457704
 21
623.1965712386
 31
0.0
  0
ARC
  5
160
330
1F
100
AcDbEntity
  8
0
  6
Continuous
 62
     7
370
    25
100
AcDbCircle
 10
285.4193892572
 20
623.6030901998
 30
0.0
 40
0.2000000000000893
100
AcDbArc
 50
290.0
 51
0.0
  0
LINE
  5
161
330
1F
100
AcDbEntity
  8
0
  6
Continuous
 62
     7
370
    25
100
AcDbLine
 10
285.6193891799
 20
623.6030898171
 30
0.0
 11
285.6193891799
 21
629.6534828025
 31
0.0
  0
LINE
  5
162
330
1F
100
AcDbEntity
  8
0
  6
Continuous
 62
     7
370
    25
100
AcDbLine
 10
236.4450245237
 20
627.3870608884
 30
0.0
 11
236.4452927446
 21
627.2107354479
 31
0.0
  0
SPLINE
  5
163
330
1F
100
AcDbEntity
  8
0
  6
Continuous
 62
     7
370
    25
100
AcDbSpline
210
0.0
220
0.0
230
1.0
 70
     8
 71
     3
 72
     9
 73
     5
 74
     0
 42
0.000000001
 43
0.00000001
 40
0.0
 40
0.0
 40
0.0
 40
0.0
 40
0.7694065737152161
 40
1.0
 40
1.0
 40
1.0
 40
1.0
 10
458.6176200842731
 20
610.7298276501323
 30
0.0
 10
457.8440383249015
 20
609.3228743583109
 30
0.0
 10
456.8386118237524
 20
607.4942530027281
 30
0.0
 10
455.5247237166867
 20
605.8808629796197
 30
0.0
 10
455.2217497563236
 20
605.5088258462573
 30
0.0
  0
LINE
  5
164
330
1F
100
AcDbEntity
  8
0
  6
Continuous
 62
     7
370
    25
100
AcDbLine
 10
444.967724297
 20
596.5027055817
 30
0.0
 11
444.003544662
 21
595.9355375844
 31
0.0
  0
SPLINE
  5
165
330
1F
100
AcDbEntity
  8
0
  6
Continuous
 62
     7
370
    25
100
AcDbSpline
210
0.0
220
0.0
230
1.0
 70
     8
 71
     3
 72
    58
 73
    54
 74
     0
 42
0.000000001
 43
0.00000001
 40
0.0
 40
0.0
 40
0.0
 40
0.0
 40
0.0312499999999999
 40
0.0312499999999999
 40
0.0624999999999998
 40
0.0624999999999998
 40
0.125
 40
0.125
 40
0.2500000000000001
 40
0.2500000000000001
 40
0.3750000000000001
 40
0.3750000000000001
 40
0.4375000000000002
 40
0.4375000000000002
 40
0.5000000000000003
 40
0.5000000000000003
 40
0.5312500000000004
 40
0.5312500000000004
 40
0.5625000000000004
 40
0.5625000000000004
 40
0.5937500000000004
 40
0.5937500000000004
 40
0.6250000000000003
 40
0.6250000000000003
 40
0.6562500000000003
 40
0.6562500000000003
 40
0.6875000000000003
 40
0.6875000000000003
 40
0.7187500000000003
 40
0.7187500000000003
 40
0.7343750000000003
 40
0.7343750000000003
 40
0.7500000000000002
 40
0.7500000000000002
 40
0.78125
 40
0.78125
 40
0.7968749999999998
 40
0.7968749999999998
 40
0.8124999999999997
 40
0.8124999999999997
 40
0.8437499999999994
 40
0.8437499999999994
 40
0.8593749999999993
 40
0.8593749999999993
 40
0.8749999999999992
 40
0.8749999999999992
 40
0.9062499999999994
 40
0.9062499999999994
 40
0.9374999999999997
 40
0.9374999999999997
 40
0.9687499999999999
 40
0.9687499999999999
 40
1.0
 40
1.0
 40
1.0
 40
1.0
 10
420.3506755741065
 20
591.8683268356676
 30
0.0
 10
418.6519427518973
 20
591.8362184401547
 30
0.0
 10
416.9535699974372
 20
591.7982918136482
 30
0.0
 10
413.5567392299974
 20
591.7238162284793
 30
0.0
 10
411.8584206590043
 20
591.6850140669436
 30
0.0
 10
406.7634534857025
 20
591.5687927663823
 30
0.0
 10
403.3667684988936
 20
591.49196155401
 30
0.0
 10
393.1767339872652
 20
591.261137490657
 30
0.0
 10
386.3834026153582
 20
591.1066222165633
 30
0.0
 10
372.7967096751906
 20
590.7985180518025
 30
0.0
 10
366.0033791843925
 20
590.6437573522089
 30
0.0
 10
355.8133446931369
 20
590.4133349341696
 30
0.0
 10
352.4166811596235
 20
590.335878669106
 30
0.0
 10
345.6233297168513
 20
590.1820471055082
 30
0.0
 10
342.2266190965782
 20
590.1069500182618
 30
0.0
 10
337.1312679163675
 20
590.006065440408
 30
0.0
 10
335.4327152171259
 20
589.9761210104111
 30
0.0
 10
332.0354341890967
 20
589.9225561058067
 30
0.0
 10
330.3367178537217
 20
589.8985037801418
 30
0.0
 10
326.9400535870392
 20
589.8227309308348
 30
0.0
 10
325.2421317790277
 20
589.770069776401
 30
0.0
 10
321.8482507598826
 20
589.5940795452068
 30
0.0
 10
320.1501826095295
 20
589.4710469142142
 30
0.0
 10
316.7817972070864
 20
589.119765147179
 30
0.0
 10
315.109484260238
 20
588.8911260363226
 30
0.0
 10
311.7951087959839
 20
588.2988939185651
 30
0.0
 10
310.1528060617161
 20
587.9363725725308
 30
0.0
 10
306.906536733328
 20
587.0403038300044
 30
0.0
 10
305.3032255550743
 20
586.5038324775114
 30
0.0
 10
302.9337852685298
 20
585.5406339136126
 30
0.0
 10
302.1471947156109
 20
585.1922712148516
 30
0.0
 10
300.6103500756947
 20
584.4463251103515
 30
0.0
 10
299.8582451863513
 20
584.0479225365033
 30
0.0
 10
297.6560269097104
 20
582.7684095474394
 30
0.0
 10
296.2595869475148
 20
581.8036530267129
 30
0.0
 10
294.2845469268229
 20
580.1700993493415
 30
0.0
 10
293.6440322846383
 20
579.5915371596071
 30
0.0
 10
292.4304234121149
 20
578.3906603219984
 30
0.0
 10
291.8546089237879
 20
577.7665077131556
 30
0.0
 10
290.219811832086
 20
575.8231548432751
 30
0.0
 10
289.2541450368371
 20
574.4325472726101
 30
0.0
 10
287.986009686185
 20
572.2086167707372
 30
0.0
 10
287.5922223231144
 20
571.44108329801
 30
0.0
 10
286.876120453411
 20
569.8903239329439
 30
0.0
 10
286.5518999535535
 20
569.1044688875278
 30
0.0
 10
285.6708109585518
 20
566.7185489513583
 30
0.0
 10
285.205519677257
 20
565.0901278024882
 30
0.0
 10
284.4811089112147
 20
561.7694458176294
 30
0.0
 10
284.2208534630593
 20
560.07150104827
 30
0.0
 10
283.861385250768
 20
556.6768945774086
 30
0.0
 10
283.7618238997668
 20
554.9750995871617
 30
0.0
 10
283.651057679964
 20
551.5665593507648
 30
0.0
 10
283.6357892247644
 20
549.8600417709192
 30
0.0
 10
283.6331743609359
 20
548.152815261575
 30
0.0
  0
SPLINE
  5
166
330
1F
100
AcDbEntity
  8
0
  6
Continuous
 62
     7
370
    25
100
AcDbSpline
210
0.0
220
0.0
230
1.0
 70
     8
 71
     3
 72
    11
 73
     7
 74
     0
 42
0.000000001
 43
0.00000001
 40
0.0
 40
0.0
 40
0.0
 40
0.0
 40
0.0651313241931905
 40
0.5249807655314821
 40
0.8390935713489711
 40
1.0
 40
1.0
 40
1.0
 40
1.0
 10
443.7168612217777
 20
595.8400807457591
 30
0.0
 10
443.7304174132395
 20
595.844294834758
 30
0.0
 10
443.8396849563065
 20
595.8782618344467
 30
0.0
 10
443.9366190368719
 20
595.9118049721469
 30
0.0
 10
443.9980900692096
 20
595.9330750787723
 30
0.0
 10
444.0021645021745
 20
595.9349145037087
 30
0.0
 10
444.0035446619862
 20
595.9355375843669
 30
0.0
  0
LINE
  5
167
330
1F
100
AcDbEntity
  8
0
  6
Continuous
 62
     7
370
    25
100
AcDbLine
 10
287.2074636704
 20
614.5971707183
 30
0.0
 11
288.5436712837
 21
614.5972899275
 31
0.0
  0
SPLINE
  5
168
330
1F
100
AcDbEntity
  8
0
  6
Continuous
 62
     7
370
    25
100
AcDbSpline
210
0.0
220
0.0
230
1.0
 70
     8
 71
     3
 72
    10
 73
     6
 74
     0
 42
0.000000001
 43
0.00000001
 40
0.0
 40
0.0
 40
0.0
 40
0.0
 40
0.4092698603655032
 40
0.8203479422979473
 40
1.0
 40
1.0
 40
1.0
 40
1.0
 10
236.3439946508282
 20
606.8119994478847
 30
0.0
 10
236.502428698185
 20
607.2337077985535
 30
0.0
 10
236.8199967805818
 20
608.078987676754
 30
0.0
 10
237.2758579722981
 20
609.0839021974799
 30
0.0
 10
237.6031333524147
 20
609.6460292041317
 30
0.0
 10
237.7026639020317
 20
609.8169825153972
 30
0.0
  0
SPLINE
  5
169
330
1F
100
AcDbEntity
  8
0
  6
Continuous
 62
     7
370
    25
100
AcDbSpline
210
0.0
220
0.0
230
1.0
 70
     8
 71
     3
 72
    10
 73
     6
 74
     0
 42
0.000000001
 43
0.00000001
 40
0.0
 40
0.0
 40
0.0
 40
0.0
 40
0.1866579738009779
 40
0.6152857228192644
 40
1.0
 40
1.0
 40
1.0
 40
1.0
 10
237.7924322223537
 20
609.9748901205684
 30
0.0
 10
237.8904032459024
 20
610.1516831266765
 30
0.0
 10
238.2133477781501
 20
610.7344506899236
 30
0.0
 10
238.8394187275132
 20
611.6228825657566
 30
0.0
 10
239.4214593683905
 20
612.2839347807883
 30
0.0
 10
239.6967670953148
 20
612.5966153221751
 30
0.0
  0
SPLINE
  5
16A
330
1F
100
AcDbEntity
  8
0
  6
Continuous
 62
     7
370
    25
100
AcDbSpline
210
0.0
220
0.0
230
1.0
 70
     8
 71
     3
 72
    17
 73
    13
 74
     0
 42
0.000000001
 43
0.00000001
 40
0.0
 40
0.0
 40
0.0
 40
0.0
 40
0.1390773027395416
 40
0.2755736455330149
 40
0.3932178797532617
 40
0.4919897397292439
 40
0.5589592409723443
 40
0.6236353425787742
 40
0.6860183610412488
 40
0.7461084003684832
 40
0.8743810115691615
 40
1.0
 40
1.0
 40
1.0
 40
1.0
 10
239.7486864662044
 20
612.5964365082408
 30
0.0
 10
239.8395664758393
 20
612.5960099406947
 30
0.0
 10
240.0196399678313
 20
612.59516472173
 30
0.0
 10
241.3088663329579
 20
612.5999591106452
 30
0.0
 10
242.9811139179782
 20
612.609654713528
 30
0.0
 10
244.7012377418517
 20
612.6240529425327
 30
0.0
 10
246.3001746390909
 20
612.6423080545322
 30
0.0
 10
247.7717608382362
 20
612.6619591281687
 30
0.0
 10
249.295453950928
 20
612.6855102319114
 30
0.0
 10
251.4564615739247
 20
612.7237668054993
 30
0.0
 10
254.3623793859636
 20
612.7846367685048
 30
0.0
 10
256.8716279941721
 20
612.8556656811128
 30
0.0
 10
258.1131392231458
 20
612.8908089476253
 30
0.0
  0
SPLINE
  5
16B
330
1F
100
AcDbEntity
  8
0
  6
Continuous
 62
     7
370
    25
100
AcDbSpline
210
0.0
220
0.0
230
1.0
 70
     8
 71
     3
 72
     8
 73
     4
 74
     0
 42
0.000000001
 43
0.00000001
 40
0.0
 40
0.0
 40
0.0
 40
0.0
 40
1.0
 40
1.0
 40
1.0
 40
1.0
 10
259.2903403407363
 20
612.9276310837445
 30
0.0
 10
258.8967759485084
 20
612.9153523395621
 30
0.0
 10
258.504176926117
 20
612.9030735953796
 30
0.0
 10
258.1131396786338
 20
612.8907948511973
 30
0.0
  0
SPLINE
  5
16C
330
1F
100
AcDbEntity
  8
0
  6
Continuous
 62
     7
370
    25
100
AcDbSpline
210
0.0
220
0.0
230
1.0
 70
     8
 71
     3
 72
     8
 73
     4
 74
     0
 42
0.000000001
 43
0.00000001
 40
0.0
 40
0.0
 40
0.0
 40
0.0
 40
1.0
 40
1.0
 40
1.0
 40
1.0
 10
261.1956517442741
 20
612.9932449257205
 30
0.0
 10
260.5597205297806
 20
612.971373958933
 30
0.0
 10
259.9237767858164
 20
612.949502521339
 30
0.0
 10
259.2903403407353
 20
612.9276310837444
 30
0.0
  0
LINE
  5
16D
330
1F
100
AcDbEntity
  8
0
  6
Continuous
 62
     7
370
    25
100
AcDbLine
 10
283.6953084057
 20
382.0465720373
 30
0.0
 11
283.6953084057
 21
512.5965709912
 31
0.0
  0
SPLINE
  5
16E
330
1F
100
AcDbEntity
  8
0
  6
Continuous
 62
     7
370
    25
100
AcDbSpline
210
0.0
220
0.0
230
1.0
 70
    24
 71
     3
 72
     9
 73
     5
 74
     0
 42
0.000000001
 43
0.00000001
 40
0.0
 40
0.0
 40
0.0
 40
0.0
 40
0.6547034812604811
 40
0.9999999999999999
 40
0.9999999999999999
 40
0.9999999999999999
 40
0.9999999999999999
 10
245.0637667512768
 20
381.7965678053524
 30
0.0
 10
246.3752215922002
 20
381.7965678053524
 30
0.0
 10
248.3783495401356
 20
381.7965678053524
 30
0.0
 10
250.3809826670246
 20
381.7965678053524
 30
0.0
 10
251.0724849140518
 20
381.7965678053524
 30
0.0
  0
LWPOLYLINE
  5
16F
330
1F
100
AcDbEntity
  8
0
  6
Continuous
 62
     7
370
    25
100
AcDbPolyline
 90
        4
 70
   128
 43
0.0
 10
283.4453078991
 20
381.7965678054
 10
283.4940812623
 20
381.8013734298
 10
283.5409789419
 20
381.8156040388
 10
283.5410376152
 20
381.8156263905
  0
LINE
  5
170
330
1F
100
AcDbEntity
  8
0
  6
Continuous
 62
     7
370
    25
100
AcDbLine
 10
283.6934234089
 20
382.0159277993
 30
0.0
 11
283.6953084057
 21
382.0465720373
 31
0.0
  0
SPLINE
  5
171
330
1F
100
AcDbEntity
  8
0
  6
Continuous
 62
     7
370
    18
100
AcDbSpline
210
0.0
220
0.0
230
1.0
 70
     8
 71
     3
 72
    19
 73
    15
 74
     0
 42
0.000000001
 43
0.00000001
 40
0.0
 40
0.0
 40
0.0
 40
0.0
 40
0.006172582330012
 40
0.0183047124884124
 40
0.0320655566526983
 40
0.0456814529647085
 40
0.0578101165653488
 40
0.0701872040928803
 40
0.1033970417792305
 40
0.1366357013159059
 40
0.2031230599559251
 40
0.4687486002465046
 40
0.7343742292768717
 40
1.0
 40
1.0
 40
1.0
 40
1.0
 10
456.8599238133305
 20
612.8724656181956
 30
0.0
 10
456.8038816971276
 20
612.8632228465556
 30
0.0
 10
456.637689531598
 20
612.8358135276638
 30
0.0
 10
455.8745402393675
 20
612.8068096561799
 30
0.0
 10
454.3033773039039
 20
612.7927427798845
 30
0.0
 10
452.2399845175241
 20
612.790981348256
 30
0.0
 10
450.1143573448708
 20
612.7984925642771
 30
0.0
 10
446.8280968534792
 20
612.81366573319
 30
0.0
 10
442.3176361733318
 20
612.830731704007
 30
0.0
 10
434.7201012828196
 20
612.836852684483
 30
0.0
 10
413.8318750693824
 20
612.8274736753466
 30
0.0
 10
379.6612596028581
 20
612.8297216022278
 30
0.0
 10
334.102738605876
 20
612.8242696821098
 30
0.0
 10
303.730039692158
 20
612.8216110620695
 30
0.0
 10
288.5436861848705
 20
612.8202817516948
 30
0.0
  0
SPLINE
  5
172
330
1F
100
AcDbEntity
  8
0
  6
Continuous
 62
     7
370
    25
100
AcDbSpline
210
0.0
220
0.0
230
1.0
 70
     8
 71
     3
 72
    18
 73
    14
 74
     0
 42
0.000000001
 43
0.00000001
 40
0.0
 40
0.0
 40
0.0
 40
0.0
 40
0.125
 40
0.125
 40
0.25
 40
0.25
 40
0.375
 40
0.375
 40
0.5
 40
0.5
 40
0.75
 40
0.75
 40
1.0
 40
1.0
 40
1.0
 40
1.0
 10
458.6176144482245
 20
610.7298211191068
 30
0.0
 10
458.6815773584658
 20
610.8407199731811
 30
0.0
 10
458.7311303271729
 20
610.956952103527
 30
0.0
 10
458.8024293909764
 20
611.1997079909305
 30
0.0
 10
458.8238246861411
 20
611.3271242355858
 30
0.0
 10
458.8358149951834
 20
611.5793672217833
 30
0.0
 10
458.8268023558915
 20
611.7069990495679
 30
0.0
 10
458.7786338100032
 20
611.9569555551071
 30
0.0
 10
458.7402158188078
 20
612.0771796193193
 30
0.0
 10
458.5823062255673
 20
612.4237038529051
 30
0.0
 10
458.4206695853454
 20
612.6294048780143
 30
0.0
 10
458.0224077142436
 20
612.9430425344829
 30
0.0
 10
457.786226868309
 20
613.0517053346504
 30
0.0
 10
457.5348207444559
 20
613.1002254204432
 30
0.0
  0
SPLINE
  5
173
330
1F
100
AcDbEntity
  8
0
  6
Continuous
 62
     7
370
    25
100
AcDbSpline
210
0.0
220
0.0
230
1.0
 70
     8
 71
     3
 72
    12
 73
     8
 74
     0
 42
0.000000001
 43
0.00000001
 40
0.0
 40
0.0
 40
0.0
 40
0.0
 40
0.2499999999999997
 40
0.2499999999999997
 40
0.4999999999999994
 40
0.4999999999999994
 40
1.0
 40
1.0
 40
1.0
 40
1.0
 10
269.0031785153781
 20
617.1965703087474
 30
0.0
 10
267.9896930480166
 20
617.1965703087474
 30
0.0
 10
266.9641431005369
 20
617.2407124319167
 30
0.0
 10
264.9036195659902
 20
617.4221072395833
 30
0.0
 10
263.8668066531487
 20
617.5596047370025
 30
0.0
 10
260.7672567759697
 20
618.1146631906925
 30
0.0
 10
258.7261472903812
 20
618.6726671033275
 30
0.0
 10
256.7459201712967
 20
619.4130436850535
 30
0.0
  0
SPLINE
  5
174
330
1F
100
AcDbEntity
  8
0
  6
Continuous
 62
     7
370
    25
100
AcDbSpline
210
0.0
220
0.0
230
1.0
 70
    24
 71
     3
 72
    12
 73
     8
 74
     0
 42
0.000000001
 43
0.00000001
 40
0.0
 40
0.0
 40
0.0
 40
0.0
 40
0.2500000000000009
 40
0.2500000000000009
 40
0.5000000000000018
 40
0.5000000000000018
 40
1.0
 40
1.0
 40
1.0
 40
1.0
 10
245.7098590329711
 20
623.5392578665311
 30
0.0
 10
245.6121938382909
 20
623.575773386541
 30
0.0
 10
245.5160062930894
 20
623.611736436049
 30
0.0
 10
245.3265315658856
 20
623.6825781337001
 30
0.0
 10
245.2328578499306
 20
623.717601300966
 30
0.0
 10
244.9687044827415
 20
623.8163641979924
 30
0.0
 10
244.80860170864
 20
623.876224172372
 30
0.0
 10
244.6827542153838
 20
623.923276622052
 30
0.0
  0
SPLINE
  5
175
330
1F
100
AcDbEntity
  8
0
  6
Continuous
 62
     7
370
    25
100
AcDbSpline
210
0.0
220
0.0
230
1.0
 70
     8
 71
     3
 72
    54
 73
    50
 74
     0
 42
0.000000001
 43
0.00000001
 40
0.0
 40
0.0
 40
0.0
 40
0.0
 40
0.0186922280658894
 40
0.033623913783743
 40
0.0485557439633129
 40
0.0637557223713502
 40
0.0832628548178668
 40
0.1028672064943315
 40
0.1325714441204341
 40
0.1627845171461386
 40
0.1830434570337593
 40
0.202398115380709
 40
0.2218522163209465
 40
0.2513353095407273
 40
0.281328265103292
 40
0.3014373601560505
 40
0.3301922077538331
 40
0.3445725431900331
 40
0.3739570988992544
 40
0.3887287656043715
 40
0.4035005305821168
 40
0.4185274674559686
 40
0.4382258657014258
 40
0.4580245904930439
 40
0.4880340466711173
 40
0.5185756296963556
 40
0.5390596408786631
 40
0.5678989466910376
 40
0.5823219715982414
 40
0.6118405227509284
 40
0.6266865054229949
 40
0.6415324754755222
 40
0.6566520502948912
 40
0.6853444501808201
 40
0.6996933190511991
 40
0.729019357806966
 40
0.7437627294336974
 40
0.7585063303075912
 40
0.7735061436933679
 40
0.793091382444666
 40
0.8127740411491321
 40
0.8425952495182433
 40
0.8729214079793526
 40
0.893253236979792
 40
0.9128074226401526
 40
0.9324603099094858
 40
0.962239336960976
 40
0.9925276167583456
 40
1.0
 40
1.0
 40
1.0
 40
1.0
 10
443.7116607165211
 20
595.8386949377681
 30
0.0
 10
443.6679835092314
 20
595.8247871685821
 30
0.0
 10
443.5894161684603
 20
595.7997696249064
 30
0.0
 10
443.4315620814064
 20
595.7527456065241
 30
0.0
 10
443.2695073506675
 20
595.7062212265835
 30
0.0
 10
443.0677768346884
 20
595.6509327211281
 30
0.0
 10
442.8200235444957
 20
595.5868003536733
 30
0.0
 10
442.4675305217162
 20
595.5020792825949
 30
0.0
 10
442.0052145061323
 20
595.4018129564826
 30
0.0
 10
441.4742817126527
 20
595.3025546677503
 30
0.0
 10
440.9670435107357
 20
595.2202377302176
 30
0.0
 10
440.5094147318662
 20
595.1542148891202
 30
0.0
 10
439.9496834109809
 20
595.082649045039
 30
0.0
 10
439.260437744109
 20
595.0073992099877
 30
0.0
 10
438.519118072065
 20
594.9405066670663
 30
0.0
 10
437.7510802119249
 20
594.8802736037233
 30
0.0
 10
437.1110503366438
 20
594.8354265902689
 30
0.0
 10
436.3574084409807
 20
594.7852845255394
 30
0.0
 10
435.7338367620802
 20
594.744712524239
 30
0.0
 10
435.0947032399229
 20
594.7014719101613
 30
0.0
 10
434.6061810248406
 20
594.6669449654553
 30
0.0
 10
434.0589953052989
 20
594.6259367212937
 30
0.0
 10
433.4514562843539
 20
594.5765274463456
 30
0.0
 10
432.6727185635328
 20
594.506111232929
 30
0.0
 10
431.7697091829717
 20
594.4121557583348
 30
0.0
 10
430.8629334937625
 20
594.2999161957522
 30
0.0
 10
429.9788961794284
 20
594.174425429244
 30
0.0
 10
429.2831698623182
 20
594.0630053788949
 30
0.0
 10
428.5036475578854
 20
593.9258372907351
 30
0.0
 10
427.8869996502207
 20
593.8074458577915
 30
0.0
 10
427.2830551405217
 20
593.6824215699704
 30
0.0
 10
426.8351610066808
 20
593.5853774388587
 30
0.0
 10
426.2620858796327
 20
593.4559485991483
 30
0.0
 10
425.7140108122026
 20
593.3251405879707
 30
0.0
 10
425.0603434115033
 20
593.1622789155684
 30
0.0
 10
424.5563100914756
 20
593.0316906412172
 30
0.0
 10
424.0757446054363
 20
592.9034305262468
 30
0.0
 10
423.7261692165413
 20
592.8085468683754
 30
0.0
 10
423.3547920152616
 20
592.7062652835301
 30
0.0
 10
422.9676853482999
 20
592.5981854118991
 30
0.0
 10
422.5073129854251
 20
592.4682167886194
 30
0.0
 10
422.0243086196068
 20
592.3306642592337
 30
0.0
 10
421.6008472137406
 20
592.2099235421948
 30
0.0
 10
421.280259468042
 20
592.1191071414863
 30
0.0
 10
421.0419740317739
 20
592.0521812821021
 30
0.0
 10
420.8041850402979
 20
591.9862502479076
 30
0.0
 10
420.5908654899139
 20
591.928415226873
 30
0.0
 10
420.4595528347224
 20
591.8941850339424
 30
0.0
 10
420.4229500914758
 20
591.8852979702596
 30
0.0
 10
420.4157068467014
 20
591.8835393267299
 30
0.0
  0
SPLINE
  5
176
330
1F
100
AcDbEntity
  8
0
  6
Continuous
 62
     7
370
    25
100
AcDbSpline
210
0.0
220
0.0
230
1.0
 70
     8
 71
     3
 72
     9
 73
     5
 74
     0
 42
0.000000001
 43
0.00000001
 40
0.0
 40
0.0
 40
0.0
 40
0.0
 40
0.5
 40
1.0
 40
1.0
 40
1.0
 40
1.0
 10
420.3758996393355
 20
591.8737881598246
 30
0.0
 10
420.367479073985
 20
591.871814110761
 30
0.0
 10
420.3548886802117
 20
591.8689804491083
 30
0.0
 10
420.350693230498
 20
591.8682246160639
 30
0.0
 10
420.3506755741064
 20
591.8683268356675
 30
0.0
  0
SPLINE
  5
177
330
1F
100
AcDbEntity
  8
0
  6
Continuous
 62
     7
370
    25
100
AcDbSpline
210
0.0
220
0.0
230
1.0
 70
    24
 71
     3
 72
    10
 73
     6
 74
     0
 42
0.000000001
 43
0.00000001
 40
0.0
 40
0.0
 40
0.0
 40
0.0
 40
0.5
 40
0.5
 40
1.0
 40
1.0
 40
1.0
 40
1.0
 10
255.7984948400869
 20
619.7672715013487
 30
0.0
 10
254.1182885760648
 20
620.3954748818409
 30
0.0
 10
252.436965048215
 20
621.0240959901615
 30
0.0
 10
249.0736401388865
 20
622.281591645889
 30
0.0
 10
247.3917822034743
 20
622.9104125610095
 30
0.0
 10
245.7098590277971
 20
623.5392578684655
 30
0.0
  0
SPLINE
  5
178
330
1F
100
AcDbEntity
  8
0
  6
Continuous
 62
     7
370
    25
100
AcDbSpline
210
0.0
220
0.0
230
1.0
 70
     8
 71
     3
 72
    10
 73
     6
 74
     0
 42
0.000000001
 43
0.00000001
 40
0.4600991615419362
 40
0.4600991615419362
 40
0.4600991615419362
 40
0.4600991615419362
 40
0.7500099759595782
 40
0.8900868383148721
 40
1.0
 40
1.0
 40
1.0
 40
1.0
 10
283.6953083014362
 20
512.5965703087475
 30
0.0
 10
283.6953083014362
 20
518.9606315163472
 30
0.0
 10
283.6953083014362
 20
528.3996305374545
 30
0.0
 10
283.6953083014362
 20
540.2514201606995
 30
0.0
 10
283.6302849175899
 20
545.7377802864243
 30
0.0
 10
283.6332542938001
 20
548.1528151391462
 30
0.0
  0
LINE
  5
179
330
1F
100
AcDbEntity
  8
0
  6
Continuous
 62
     7
370
    25
100
AcDbLine
 10
243.9997884518
 20
381.7965678054
 30
0.0
 11
245.0637667513
 21
381.7965678054
 31
0.0
  0
SPLINE
  5
17A
330
1F
100
AcDbEntity
  8
0
  6
Continuous
 62
     7
370
    25
100
AcDbSpline
210
0.0
220
0.0
230
1.0
 70
     8
 71
     3
 72
     9
 73
     5
 74
     0
 42
0.000000001
 43
0.00000001
 40
0.1052345213834648
 40
0.1052345213834648
 40
0.1052345213834648
 40
0.1052345213834648
 40
0.5
 40
1.0
 40
1.0
 40
1.0
 40
1.0
 10
284.4452829996148
 20
617.4966178115744
 30
0.0
 10
284.4452235913156
 20
617.8718057889306
 30
0.0
 10
284.4448857086283
 20
618.7221925628519
 30
0.0
 10
284.4449261028857
 20
619.5725923514105
 30
0.0
 10
284.4453985915923
 20
620.0478140981844
 30
0.0
  0
SPLINE
  5
17B
330
1F
100
AcDbEntity
  8
0
  6
Continuous
 62
     7
370
    25
100
AcDbSpline
210
0.0
220
0.0
230
1.0
 70
    24
 71
     3
 72
     8
 73
     4
 74
     0
 42
0.000000001
 43
0.00000001
 40
0.0
 40
0.0
 40
0.0
 40
0.0
 40
0.0010127502704989
 40
0.0010127502704989
 40
0.0010127502704989
 40
0.0010127502704989
 10
256.7459201712967
 20
619.4130436850535
 30
0.0
 10
256.4301746771445
 20
619.5310960879333
 30
0.0
 10
256.1143600064941
 20
619.649174354846
 30
0.0
 10
255.7984952378044
 20
619.7672713526482
 30
0.0
  0
SPLINE
  5
17C
330
1F
100
AcDbEntity
  8
0
  6
Continuous
 62
     7
370
    25
100
AcDbSpline
210
0.0
220
0.0
230
1.0
 70
     8
 71
     3
 72
    20
 73
    16
 74
     0
 42
0.000000001
 43
0.00000001
 40
0.0
 40
0.0
 40
0.0
 40
0.0
 40
0.1131615038583329
 40
0.1250000000000001
 40
0.2237477797371932
 40
0.2500000000000002
 40
0.3692024635059348
 40
0.5000000000000002
 40
0.5000000000000002
 40
0.6081791800525065
 40
0.7288293317323673
 40
0.7500000000000002
 40
0.856247063563363
 40
0.8750000000000001
 40
1.0
 40
1.0
 40
1.0
 40
1.0
 10
249.4453083014362
 20
649.3965703087474
 30
0.0
 10
248.6231116099785
 20
649.3965703087474
 30
0.0
 10
247.7136128934563
 20
649.391351787381
 30
0.0
 10
246.0999719737272
 20
649.2296033508005
 30
0.0
 10
245.122306459359
 20
649.0412327884469
 30
0.0
 10
243.4313327132178
 20
648.481546554214
 30
0.0
 10
241.6043558395532
 20
647.525157959366
 30
0.0
 10
240.1864734962394
 20
646.2565221058509
 30
0.0
 10
239.004432635739
 20
644.8984684475132
 30
0.0
 10
238.0163495862102
 20
643.4972814107073
 30
0.0
 10
237.2857642615078
 20
641.8703787217432
 30
0.0
 10
236.7873153112773
 20
640.2909860357909
 30
0.0
 10
236.6099839317386
 20
639.3860953800635
 30
0.0
 10
236.4489993115843
 20
637.9019005960419
 30
0.0
 10
236.4453083014362
 20
637.0943455947815
 30
0.0
 10
236.4453083014362
 20
636.3965703087473
 30
0.0
  0
SPLINE
  5
17D
330
1F
100
AcDbEntity
  8
0
  6
Continuous
 62
     7
370
    25
100
AcDbSpline
210
0.0
220
0.0
230
1.0
 70
     8
 71
     3
 72
     9
 73
     5
 74
     0
 42
0.000000001
 43
0.00000001
 40
0.0
 40
0.0
 40
0.0
 40
0.0
 40
0.1883967691736089
 40
1.0
 40
1.0
 40
1.0
 40
1.0
 10
236.4440000688904
 20
631.8531773167277
 30
0.0
 10
236.4442082585222
 20
631.5718135969312
 30
0.0
 10
236.4453133179813
 20
630.0783499827152
 30
0.0
 10
236.4452999051946
 20
628.5848858727223
 30
0.0
 10
236.4452890193336
 20
627.3727855759289
 30
0.0
  0
LWPOLYLINE
  5
17E
330
1F
100
AcDbEntity
  8
0
  6
Continuous
 62
     7
370
    25
100
AcDbPolyline
 90
        4
 70
   128
 43
0.0
 10
235.6947622335
 20
601.8501064854
 10
235.695205543
 20
593.2964078265
 10
235.6955147421
 20
571.106231876
 10
235.6954253352
 20
512.5965709912
  0
SPLINE
  5
17F
330
1F
100
AcDbEntity
  8
0
  6
Continuous
 62
     7
370
    25
100
AcDbSpline
210
0.0
220
0.0
230
1.0
 70
     8
 71
     3
 72
     9
 73
     5
 74
     0
 42
0.000000001
 43
0.00000001
 40
0.8169718673788278
 40
0.8169718673788278
 40
0.8169718673788278
 40
0.8169718673788278
 40
0.906348299390753
 40
1.0
 40
1.0
 40
1.0
 40
1.0
 10
236.3438682781221
 20
606.8119868919102
 30
0.0
 10
236.072111798426
 20
606.0405417527381
 30
0.0
 10
235.707296931703
 20
604.3909829891385
 30
0.0
 10
235.6953083014362
 20
602.7086805620252
 30
0.0
 10
235.6953083014362
 20
601.8501053564333
 30
0.0
  0
ARC
  5
180
330
1F
100
AcDbEntity
  8
0
  6
Continuous
 62
     7
370
    25
100
AcDbCircle
 10
236.7453209541
 20
627.211244122
 30
0.0
 40
0.3000000000567075
100
AcDbArc
 50
180.0966354428
 51
249.5
  0
SPLINE
  5
181
330
1F
100
AcDbEntity
  8
0
  6
Continuous
 62
     7
370
    25
100
AcDbSpline
210
0.0
220
0.0
230
1.0
 70
    24
 71
     3
 72
    20
 73
    16
 74
     0
 42
0.000000001
 43
0.00000001
 40
0.0
 40
0.0
 40
0.0
 40
0.0
 40
0.1249999999999999
 40
0.1249999999999999
 40
0.2499999999999998
 40
0.2499999999999998
 40
0.4999999999999996
 40
0.4999999999999996
 40
0.5624999999999996
 40
0.5624999999999996
 40
0.6249999999999997
 40
0.6249999999999997
 40
0.7499999999999997
 40
0.7499999999999997
 40
1.0
 40
1.0
 40
1.0
 40
1.0
 10
244.6827541929286
 20
623.9232766304476
 30
0.0
 10
244.0431210875818
 20
624.1624256490281
 30
0.0
 10
243.4350851630995
 20
624.3897609657683
 30
0.0
 10
242.2957466874182
 20
624.8157421665732
 30
0.0
 10
241.7629154016971
 20
625.0149596210546
 30
0.0
 10
240.2744777640935
 20
625.5714636501232
 30
0.0
 10
239.4280839537019
 20
625.8879173286393
 30
0.0
 10
238.5626596383691
 20
626.2114862213958
 30
0.0
 10
238.3990794640175
 20
626.2726463424533
 30
0.0
 10
238.0945910286522
 20
626.3864899035168
 30
0.0
 10
237.9532843951743
 20
626.4393222888838
 30
0.0
 10
237.5618040117177
 20
626.585690806577
 30
0.0
 10
237.3440139229484
 20
626.6671191841114
 30
0.0
 10
236.8193413172291
 20
626.8632862331352
 30
0.0
 10
236.6402380893109
 20
626.9302501861001
 30
0.0
 10
236.6402587397448
 20
626.9302424652193
 30
0.0
  0
LINE
  5
182
330
1F
100
AcDbEntity
  8
0
  6
Continuous
 62
     7
370
    25
100
AcDbLine
 10
235.6954253352
 20
382.0465720373
 30
0.0
 11
235.6954253352
 21
512.5965709912
 31
0.0
  0
ARC
  5
183
330
1F
100
AcDbEntity
  8
0
  6
Continuous
 62
     7
370
    25
100
AcDbCircle
 10
235.9454244946
 20
382.0465703087
 30
0.0
 40
0.2500000000200187
100
AcDbArc
 50
179.9992759512
 51
270.0000000092
  0
SPLINE
  5
184
330
1F
100
AcDbEntity
  8
0
  6
Continuous
 62
     7
370
    25
100
AcDbSpline
210
0.0
220
0.0
230
1.0
 70
    24
 71
     3
 72
    18
 73
    14
 74
     0
 42
0.000000001
 43
0.00000001
 40
0.0
 40
0.0
 40
0.0
 40
0.0
 40
0.125
 40
0.125
 40
0.2500000000000001
 40
0.2500000000000001
 40
0.5000000000000001
 40
0.5000000000000001
 40
0.625
 40
0.625
 40
0.7499999999999999
 40
0.7499999999999999
 40
1.0
 40
1.0
 40
1.0
 40
1.0
 10
235.9454244946005
 20
381.7965703087474
 30
0.0
 10
235.9454378522053
 20
381.7965703087474
 30
0.0
 10
235.9891677679053
 20
381.7965703087474
 30
0.0
 10
236.1643272782574
 20
381.7965703087474
 30
0.0
 10
236.2962263243285
 20
381.7965703087474
 30
0.0
 10
236.8205127494139
 20
381.7965703087474
 30
0.0
 10
237.3372275979724
 20
381.7965703087474
 30
0.0
 10
238.3542750688675
 20
381.7965703087474
 30
0.0
 10
238.7336911839895
 20
381.7965703087474
 30
0.0
 10
239.5748919374532
 20
381.7965703087474
 30
0.0
 10
240.0377125685361
 20
381.7965703087474
 30
0.0
 10
241.5470773607121
 20
381.7965703087474
 30
0.0
 10
242.6996679292442
 20
381.7965703087474
 30
0.0
 10
243.9997887189694
 20
381.7965703087474
 30
0.0
  0
SPLINE
  5
185
330
1F
100
AcDbEntity
  8
0
  6
Continuous
 62
     7
370
    25
100
AcDbSpline
210
0.0
220
0.0
230
1.0
 70
     8
 71
     3
 72
    44
 73
    40
 74
     0
 42
0.000000001
 43
0.00000001
 40
0.2989502842320226
 40
0.2989502842320226
 40
0.2989502842320226
 40
0.2989502842320226
 40
0.3020021551871317
 40
0.3125
 40
0.3244314874295766
 40
0.34375
 40
0.3498835751721123
 40
0.3753356873307961
 40
0.4007877107618224
 40
0.4262397607829523
 40
0.4516636220131124
 40
0.4785943635265914
 40
0.5
 40
0.5048884304996332
 40
0.5215000616466413
 40
0.5438515139298757
 40
0.5589848682292642
 40
0.5729833350553624
 40
0.577137465883865
 40
0.590502857704946
 40
0.6053925427796771
 40
0.6215667590034366
 40
0.6339725085321417
 40
0.6434407849353203
 40
0.6543602134628634
 40
0.65625
 40
0.6624411545211395
 40
0.6725634182061047
 40
0.6808731272949462
 40
0.6944411494051371
 40
0.7078598486430923
 40
0.7242884517519568
 40
0.7353739147670982
 40
0.7436745797442625
 40
0.7486801075150962
 40
0.75
 40
0.7784820705334783
 40
0.78125
 40
0.8102216185360576
 40
0.8102216185360576
 40
0.8102216185360576
 40
0.8102216185360576
 10
256.2453083014387
 20
649.3965433700893
 30
0.0
 10
256.3891693151114
 20
649.3965425995003
 30
0.0
 10
257.0268030963609
 20
649.3965473411445
 30
0.0
 10
258.2192618884721
 20
649.3966019207286
 30
0.0
 10
260.1770245498531
 20
649.3966053498352
 30
0.0
 10
261.9332814347511
 20
649.3965941156982
 30
0.0
 10
264.3247918651139
 20
649.396729917049
 30
0.0
 10
267.0045415334776
 20
649.3970679597508
 30
0.0
 10
270.5920515571085
 20
649.3977046331713
 30
0.0
 10
274.1783316865829
 20
649.3983083302653
 30
0.0
 10
277.8341471873796
 20
649.3986694788302
 30
0.0
 10
281.2998538265355
 20
649.398548570911
 30
0.0
 10
283.8006621328382
 20
649.3980007872684
 30
0.0
 10
285.8166011092145
 20
649.3973043096875
 30
0.0
 10
287.876965702336
 20
649.3963918359378
 30
0.0
 10
290.4186665500978
 20
649.3949116349145
 30
0.0
 10
292.8375802778768
 20
649.3932941355365
 30
0.0
 10
294.4015022661959
 20
649.3921828455026
 30
0.0
 10
295.8823593662531
 20
649.3911134311618
 30
0.0
 10
297.4050923689035
 20
649.390003091043
 30
0.0
 10
299.4925938792382
 20
649.3885023660893
 30
0.0
 10
301.5350226756057
 20
649.3871110862439
 30
0.0
 10
303.3227431084466
 20
649.3860025800104
 30
0.0
 10
304.8635778978363
 20
649.3851431346809
 30
0.0
 10
305.9103190525676
 20
649.384631599682
 30
0.0
 10
306.8030857518015
 20
649.3842411973376
 30
0.0
 10
307.6583999216429
 20
649.3838956528526
 30
0.0
 10
308.8153522550051
 20
649.383530609442
 30
0.0
 10
310.3188355654883
 20
649.3832655759556
 30
0.0
 10
311.977027113934
 20
649.38331083248
 30
0.0
 10
314.0162175738916
 20
649.3840359692864
 30
0.0
 10
315.9382029397424
 20
649.3855799106556
 30
0.0
 10
317.6192257939858
 20
649.3877848142397
 30
0.0
 10
318.7637250869312
 20
649.3897481258989
 30
0.0
 10
319.4498411397843
 20
649.3911313843371
 30
0.0
 10
321.0824774423934
 20
649.3946672323639
 30
0.0
 10
322.6092726867861
 20
649.3990638734758
 30
0.0
 10
325.4376362729948
 20
649.4023547138032
 30
0.0
 10
326.9315299305599
 20
649.4011376053295
 30
0.0
 10
328.3014502335262
 20
649.3931083900757
 30
0.0
  0
LWPOLYLINE
  5
186
330
1F
100
AcDbEntity
  8
0
  6
Continuous
 62
     7
370
    25
100
AcDbPolyline
 90
        3
 70
   128
 43
0.0
 10
256.2453084698
 20
649.3965379077
 10
252.4373083448
 20
649.39656771
 10
249.445307914
 20
649.3965826111
  0
SPLINE
  5
187
330
1F
100
AcDbEntity
  8
0
  6
Continuous
 62
     7
370
    25
100
AcDbSpline
210
0.0
220
0.0
230
1.0
 70
     8
 71
     3
 72
    52
 73
    48
 74
     0
 42
0.000000001
 43
0.00000001
 40
0.4934115228861332
 40
0.4934115228861332
 40
0.4934115228861332
 40
0.4934115228861332
 40
0.4958417190544761
 40
0.5251406864246283
 40
0.5340166043559049
 40
0.5672562343463897
 40
0.6004959440514661
 40
0.6334728236315355
 40
0.6664498015349717
 40
0.699418811667397
 40
0.7323879349676176
 40
0.7656390170183796
 40
0.7988902266728621
 40
0.8125
 40
0.8268281352404842
 40
0.8547661399300328
 40
0.875
 40
0.890625
 40
0.894211139097358
 40
0.90625
 40
0.9095337204469811
 40
0.9213302657499273
 40
0.9271040163753983
 40
0.9296875
 40
0.9314388230384043
 40
0.9343313642317116
 40
0.9375
 40
0.9378119403675361
 40
0.9378119403675361
 40
0.9378407114399226
 40
0.9416704565328358
 40
0.9453125
 40
0.945990959287155
 40
0.9459972758406847
 40
0.94602732569284
 40
0.9507841396856526
 40
0.953125
 40
0.955849317548716
 40
0.95703125
 40
0.9609544632314998
 40
0.96484375
 40
0.9656651424029544
 40
0.9658945127921682
 40
0.96875
 40
0.9695059721398279
 40
0.9697762763898918
 40
0.9703922344267268
 40
0.9703922344267268
 40
0.9703922344267268
 40
0.9703922344267268
 10
288.5436723670146
 20
614.5974647594583
 30
0.0
 10
288.8313710976935
 20
614.5974408809528
 30
0.0
 10
292.587635096747
 20
614.597132748683
 30
0.0
 10
297.3948004611526
 20
614.5967986265455
 30
0.0
 10
305.8496533936546
 20
614.5963267657073
 30
0.0
 10
314.7712847883357
 20
614.5959595474861
 30
0.0
 10
326.5466715198085
 20
614.5957151583322
 30
0.0
 10
338.2911609568364
 20
614.5956783436766
 30
0.0
 10
350.0036633847068
 20
614.5958158708385
 30
0.0
 10
361.7151761943158
 20
614.5960962959831
 30
0.0
 10
373.4589360472085
 20
614.5964894123834
 30
0.0
 10
385.2357630770032
 20
614.5969647624021
 30
0.0
 10
394.7201677510708
 20
614.5973874304866
 30
0.0
 10
401.9640299031958
 20
614.5977178273288
 30
0.0
 10
408.5787291519387
 20
614.5980205625763
 30
0.0
 10
415.9785788876516
 20
614.5980443134732
 30
0.0
 10
423.5359460847208
 20
614.5969840265686
 30
0.0
 10
428.2113674830106
 20
614.5955898989929
 30
0.0
 10
431.9004345795789
 20
614.5972232455329
 30
0.0
 10
434.1320770004703
 20
614.5984047781786
 30
0.0
 10
437.4292281996178
 20
614.5948518408205
 30
0.0
 10
439.9263992855774
 20
614.5804311508651
 30
0.0
 10
442.2988811426674
 20
614.5223565680968
 30
0.0
 10
443.4340338685619
 20
614.4847170495775
 30
0.0
 10
444.2994820604452
 20
614.451887163407
 30
0.0
 10
445.238760596713
 20
614.4117594217829
 30
0.0
 10
446.0000904754437
 20
614.3748568815415
 30
0.0
 10
446.4112862355433
 20
614.3536613044184
 30
0.0
 10
446.4513285378177
 20
614.3515853020731
 30
0.0
 10
446.9067268640015
 20
614.327963139646
 30
0.0
 10
447.7821790075563
 20
614.2792550506451
 30
0.0
 10
448.7409599966321
 20
614.2133139226966
 30
0.0
 10
449.259510554866
 20
614.1723016554148
 30
0.0
 10
449.3455019784695
 20
614.1653732236433
 30
0.0
 10
449.9221784041255
 20
614.1188640469379
 30
0.0
 10
450.7941334529744
 20
614.0396158273581
 30
0.0
 10
451.9494603839278
 20
613.9247326157599
 30
0.0
 10
452.6474860709596
 20
613.8523165188366
 30
0.0
 10
453.5107487396192
 20
613.7548443281137
 30
0.0
 10
454.5069040085342
 20
613.6273571840925
 30
0.0
 10
455.5483310474865
 20
613.4585793755168
 30
0.0
 10
456.1091501127285
 20
613.3614809115255
 30
0.0
 10
456.5421351140275
 20
613.2855167858801
 30
0.0
 10
456.94004003819
 20
613.2128907337225
 30
0.0
 10
457.2800914702858
 20
613.1488982157427
 30
0.0
 10
457.4168175537951
 20
613.1229135002442
 30
0.0
 10
457.4873325877164
 20
613.1093903898712
 30
0.0
 10
457.5348207444559
 20
613.1002254204432
 30
0.0
  0
LINE
  5
188
330
1F
100
AcDbEntity
  8
0
  6
Continuous
 62
     7
370
    25
100
AcDbLine
 10
328.3014520144
 20
649.3948391753
 30
0.0
 11
330.3874096906
 21
649.3488988953
 31
0.0
  0
SPLINE
  5
189
330
1F
100
AcDbEntity
  8
0
  6
Continuous
 62
     7
370
    25
100
AcDbSpline
210
0.0
220
0.0
230
1.0
 70
     8
 71
     3
 72
    10
 73
     6
 74
     0
 42
0.000000001
 43
0.00000001
 40
0.0
 40
0.0
 40
0.0
 40
0.0
 40
0.070767716045664
 40
0.5736119328218134
 40
1.0
 40
1.0
 40
1.0
 40
1.0
 10
332.497641358363
 20
649.3024370747235
 30
0.0
 10
332.7067761177246
 20
649.2983414823782
 30
0.0
 10
334.4019303524644
 20
649.2651444149509
 30
0.0
 10
337.3535090351253
 20
649.0324177500972
 30
0.0
 10
340.0715325844348
 20
648.6365206157365
 30
0.0
 10
341.3187264537685
 20
648.4548590260174
 30
0.0
  0
LINE
  5
18A
330
1F
100
AcDbEntity
  8
0
  6
Continuous
 62
     7
370
    25
100
AcDbLine
 10
344.9212460852
 20
647.6910851079
 30
0.0
 11
344.9397086239
 21
647.678985365
 31
0.0
  0
ARC
  5
18B
330
1F
100
AcDbEntity
  8
0
  6
Continuous
 62
     7
370
    25
100
AcDbCircle
 10
284.1452830034
 20
617.4965703087
 30
0.0
 40
0.3000000000000682
100
AcDbArc
 50
270.0
 51
0.0090723717
  0
SPLINE
  5
18C
330
1F
100
AcDbEntity
  8
0
  6
Continuous
 62
     7
370
    25
100
AcDbSpline
210
0.0
220
0.0
230
1.0
 70
    24
 71
     3
 72
    30
 73
    26
 74
     0
 42
0.000000001
 43
0.00000001
 40
0.0
 40
0.0
 40
0.0
 40
0.0
 40
0.0624999999999999
 40
0.0624999999999999
 40
0.1249999999999997
 40
0.1249999999999997
 40
0.2499999999999994
 40
0.2499999999999994
 40
0.3124999999999993
 40
0.3124999999999993
 40
0.3749999999999993
 40
0.3749999999999993
 40
0.4999999999999993
 40
0.4999999999999993
 40
0.5624999999999993
 40
0.5624999999999993
 40
0.6249999999999992
 40
0.6249999999999992
 40
0.7499999999999994
 40
0.7499999999999994
 40
0.8124999999999997
 40
0.8124999999999997
 40
0.8749999999999998
 40
0.8749999999999998
 40
1.0
 40
1.0
 40
1.0
 40
1.0
 10
284.1452830033757
 20
617.1965703087474
 30
0.0
 10
284.1452830033757
 20
617.1965703087474
 30
0.0
 10
284.1163999082615
 20
617.1965703087474
 30
0.0
 10
284.0107618189967
 20
617.1965703087474
 30
0.0
 10
283.934165224943
 20
617.1965703087474
 30
0.0
 10
283.6417306884032
 20
617.1965703087473
 30
0.0
 10
283.3640326341105
 20
617.1965703087474
 30
0.0
 10
282.8334338679721
 20
617.1965703087474
 30
0.0
 10
282.6373103070842
 20
617.1965703087473
 30
0.0
 10
282.2057634101001
 20
617.1965703087473
 30
0.0
 10
281.9699973204758
 20
617.1965703087473
 30
0.0
 10
281.212193609637
 20
617.1965703087474
 30
0.0
 10
280.6372999199362
 20
617.1965703087474
 30
0.0
 10
279.6638490737266
 20
617.1965703087474
 30
0.0
 10
279.3207391077681
 20
617.1965703087474
 30
0.0
 10
278.5948188303349
 20
617.1965703087474
 30
0.0
 10
278.2117152894936
 20
617.1965703087474
 30
0.0
 10
277.0176692008712
 20
617.1965703087474
 30
0.0
 10
276.1568836460631
 20
617.1965703087474
 30
0.0
 10
274.7614393787914
 20
617.1965703087474
 30
0.0
 10
274.2766186715463
 20
617.1965703087474
 30
0.0
 10
273.2834625751576
 20
617.1965703087474
 30
0.0
 10
272.7753328757339
 20
617.1965703087474
 30
0.0
 10
271.2168443129874
 20
617.1965703087474
 30
0.0
 10
270.1323798269042
 20
617.1965703087474
 30
0.0
 10
269.0031785153781
 20
617.1965703087474
 30
0.0
  0
SPLINE
  5
18D
330
1F
100
AcDbEntity
  8
0
  6
Continuous
 62
     7
370
    25
100
AcDbSpline
210
0.0
220
0.0
230
1.0
 70
     8
 71
     3
 72
    28
 73
    24
 74
     0
 42
0.000000001
 43
0.00000001
 40
0.0
 40
0.0
 40
0.0
 40
0.0
 40
0.1249999999999995
 40
0.1249999999999995
 40
0.2499999999999992
 40
0.2499999999999992
 40
0.3124999999999991
 40
0.3124999999999991
 40
0.3749999999999989
 40
0.3749999999999989
 40
0.4999999999999989
 40
0.4999999999999989
 40
0.562499999999999
 40
0.562499999999999
 40
0.6249999999999991
 40
0.6249999999999991
 40
0.7499999999999993
 40
0.7499999999999993
 40
0.8124999999999994
 40
0.8124999999999994
 40
0.8749999999999996
 40
0.8749999999999996
 40
1.0
 40
1.0
 40
1.0
 40
1.0
 10
281.9202400825943
 20
614.5000507141717
 30
0.0
 10
281.6340462849206
 20
614.4575604203319
 30
0.0
 10
281.2567796094897
 20
614.4040207289135
 30
0.0
 10
280.3261217054543
 20
614.283399863651
 30
0.0
 10
279.7727874310584
 20
614.215970780986
 30
0.0
 10
278.8046374743109
 20
614.1076245042747
 30
0.0
 10
278.4618076118617
 20
614.070692884172
 30
0.0
 10
277.7413985009855
 20
613.9965950637207
 30
0.0
 10
277.3631248546628
 20
613.9593610345282
 30
0.0
 10
276.1746839042967
 20
613.8480304234344
 30
0.0
 10
275.3112651975338
 20
613.77442368613
 30
0.0
 10
273.905513506985
 20
613.66525218795
 30
0.0
 10
273.4210399267801
 20
613.6292380073842
 30
0.0
 10
272.4324333920865
 20
613.559001253974
 30
0.0
 10
271.9266057179192
 20
613.5246856475255
 30
0.0
 10
270.3750390024108
 20
613.424402133501
 30
0.0
 10
269.2954545932955
 20
613.3611239087069
 30
0.0
 10
267.6061365883425
 20
613.2703728788409
 30
0.0
 10
267.0333266370849
 20
613.2409236855227
 30
0.0
 10
265.8852044980604
 20
613.1845296192407
 30
0.0
 10
265.3075163124802
 20
613.1574413838223
 30
0.0
 10
263.5637040428679
 20
613.0803262050641
 30
0.0
 10
262.3868175454597
 20
613.0364762752174
 30
0.0
 10
261.1954626606948
 20
612.9933237195868
 30
0.0
  0
SPLINE
  5
18E
330
1F
100
AcDbEntity
  8
0
  6
Continuous
 62
     7
370
    25
100
AcDbSpline
210
0.0
220
0.0
230
1.0
 70
     8
 71
     3
 72
     8
 73
     4
 74
     0
 42
0.000000001
 43
0.00000001
 40
0.0
 40
0.0
 40
0.0
 40
0.0
 40
1.0
 40
1.0
 40
1.0
 40
1.0
 10
282.5550955989745
 20
614.5979252756026
 30
0.0
 10
282.5552808797897
 20
614.5967949820899
 30
0.0
 10
282.3440737172645
 20
614.5629759621074
 30
0.0
 10
281.9202400825942
 20
614.5000507141718
 30
0.0
  0
LINE
  5
18F
330
1F
100
AcDbEntity
  8
0
  6
Continuous
 62
     7
370
    25
100
AcDbLine
 10
282.6938842496
 20
614.5976922589
 30
0.0
 11
282.5550957656
 21
614.5979306775
 31
0.0
  0
LINE
  5
190
330
1F
100
AcDbEntity
  8
0
  6
Continuous
 62
     7
370
    25
100
AcDbLine
 10
239.6953067815
 20
612.5950656014
 30
0.0
 11
239.7175951934
 21
612.5950357991
 31
0.0
  0
SPLINE
  5
191
330
1F
100
AcDbEntity
  8
0
  6
Continuous
 62
     7
370
    25
100
AcDbSpline
210
0.0
220
0.0
230
1.0
 70
     8
 71
     3
 72
    14
 73
    10
 74
     0
 42
0.000000001
 43
0.00000001
 40
0.0
 40
0.0
 40
0.0
 40
0.0
 40
0.25
 40
0.25
 40
0.5
 40
0.5
 40
0.75
 40
0.75
 40
1.0
 40
1.0
 40
1.0
 40
1.0
 10
345.9396084344989
 20
646.2540879675792
 30
0.0
 10
345.9524677912842
 20
646.3985780086977
 30
0.0
 10
345.9422358338356
 20
646.5542274630014
 30
0.0
 10
345.8633563983408
 20
646.8625326387868
 30
0.0
 10
345.7944367059607
 20
647.014625089743
 30
0.0
 10
345.6055360787566
 20
647.2838170249862
 30
0.0
 10
345.4859493179478
 20
647.4003547916576
 30
0.0
 10
345.2228489146246
 20
647.5793862685306
 30
0.0
 10
345.0799575462669
 20
647.6419443973842
 30
0.0
 10
344.9397070530788
 20
647.6789923674389
 30
0.0
  0
SPLINE
  5
192
330
1F
100
AcDbEntity
  8
0
  6
Continuous
 62
     7
370
    25
100
AcDbSpline
210
0.0
220
0.0
230
1.0
 70
     8
 71
     3
 72
    11
 73
     7
 74
     0
 42
0.000000001
 43
0.00000001
 40
0.9250147628747162
 40
0.9250147628747162
 40
0.9250147628747162
 40
0.9250147628747162
 40
0.9307786514404626
 40
0.9809605883919689
 40
0.9809605883919689
 40
1.0
 40
1.0
 40
1.0
 40
1.0
 10
284.5547654418014
 20
623.1965703087474
 30
0.0
 10
284.5491083728806
 20
623.1195740506508
 30
0.0
 10
284.4963509130829
 20
622.3693234599459
 30
0.0
 10
284.4644248087016
 20
621.5908052274274
 30
0.0
 10
284.4475383201287
 20
620.5954520914246
 30
0.0
 10
284.445670838609
 20
620.3216358868981
 30
0.0
 10
284.4453985915923
 20
620.0478140981844
 30
0.0
  0
SPLINE
  5
193
330
1F
100
AcDbEntity
  8
0
  6
Continuous
 62
     7
370
    25
100
AcDbSpline
210
0.0
220
0.0
230
1.0
 70
     8
 71
     3
 72
    26
 73
    22
 74
     0
 42
0.000000001
 43
0.00000001
 40
0.0
 40
0.0
 40
0.0
 40
0.0
 40
0.0311483734690532
 40
0.0622967469381063
 40
0.1201731720529872
 40
0.1780495971678681
 40
0.1780495971678681
 40
0.1945013883333333
 40
0.2282315341193744
 40
0.2784134710708807
 40
0.328595408022387
 40
0.3787773449738933
 40
0.4289592819253996
 40
0.4630009255555555
 40
0.4791412188769059
 40
0.5369990744444445
 40
0.5795050927799185
 40
0.6296870297314248
 40
0.6798689666829311
 40
0.7300509036344374
 40
0.7580358691994313
 40
0.7580358691994313
 40
0.7580358691994313
 40
0.7580358691994313
 10
305.9127190231035
 20
640.4256220356846
 30
0.0
 10
305.5148451000482
 20
640.411810601937
 30
0.0
 10
304.7192396008872
 20
640.380205790565
 30
0.0
 10
303.1860035585475
 20
640.2943446108233
 30
0.0
 10
301.31611451603
 20
640.1292494930698
 30
0.0
 10
299.8535337412004
 20
639.9198990511115
 30
0.0
 10
298.9198856500588
 20
639.754354764869
 30
0.0
 10
298.2968326737583
 20
639.6377228208597
 30
0.0
 10
297.094959913397
 20
639.3744261938945
 30
0.0
 10
295.5868898707417
 20
638.9539624278164
 30
0.0
 10
294.0228337806356
 20
638.3865308050209
 30
0.0
 10
292.5856239934193
 20
637.7205576457334
 30
0.0
 10
291.4137913651293
 20
637.0351869990928
 30
0.0
 10
290.6072692381143
 20
636.4647390414316
 30
0.0
 10
289.7824742615872
 20
635.8122666259982
 30
0.0
 10
288.961687146006
 20
635.0470418398744
 30
0.0
 10
288.0188215671886
 20
633.9465602993231
 30
0.0
 10
287.2256032313469
 20
632.8019779288846
 30
0.0
 10
286.5034714398664
 20
631.478401026827
 30
0.0
 10
285.9828843237317
 20
630.2471074281307
 30
0.0
 10
285.7100456750715
 20
629.4471547662484
 30
0.0
 10
285.617968361898
 20
629.1542500597126
 30
0.0
  0
SPLINE
  5
194
330
1F
100
AcDbEntity
  8
0
  6
Continuous
 62
     7
370
    25
100
AcDbSpline
210
0.0
220
0.0
230
1.0
 70
     8
 71
     3
 72
    14
 73
    10
 74
     0
 42
0.000000001
 43
0.00000001
 40
0.0
 40
0.0
 40
0.0
 40
0.0
 40
0.1249999999999908
 40
0.1249999999999908
 40
0.2499999999999816
 40
0.2499999999999816
 40
0.4999999999999611
 40
0.4999999999999611
 40
1.0
 40
1.0
 40
1.0
 40
1.0
 10
285.6179683618979
 20
629.6353914010874
 30
0.0
 10
285.620722838611
 20
629.6496270322874
 30
0.0
 10
285.6191448999508
 20
629.6534094358204
 30
0.0
 10
285.6132201551306
 20
629.6523177734304
 30
0.0
 10
285.6088836675427
 20
629.6476776678888
 30
0.0
 10
285.5942617200667
 20
629.6285941020619
 30
0.0
 10
285.5825446516617
 20
629.6092048094279
 30
0.0
 10
285.5447289234779
 20
629.5417728113036
 30
0.0
 10
285.5169036895441
 20
629.4858618047831
 30
0.0
 10
285.487793285833
 20
629.4230087627564
 30
0.0
  0
SPLINE
  5
195
330
1F
100
AcDbEntity
  8
0
  6
Continuous
 62
     7
370
    25
100
AcDbSpline
210
0.0
220
0.0
230
1.0
 70
     8
 71
     3
 72
    10
 73
     6
 74
     0
 42
0.000000001
 43
0.00000001
 40
0.0
 40
0.0
 40
0.0
 40
0.0
 40
0.5
 40
0.5
 40
1.0
 40
1.0
 40
1.0
 40
1.0
 10
285.487793285833
 20
629.4230087627564
 30
0.0
 10
285.3835417864635
 20
629.1979165951494
 30
0.0
 10
285.2787283179052
 20
628.9531760113172
 30
0.0
 10
285.0754711014256
 20
628.4219896533695
 30
0.0
 10
284.9763924940822
 20
628.1330537771739
 30
0.0
 10
284.8872459159119
 20
627.8303312834939
 30
0.0
  0
SPLINE
  5
196
330
1F
100
AcDbEntity
  8
0
  6
Continuous
 62
     7
370
    25
100
AcDbSpline
210
0.0
220
0.0
230
1.0
 70
     8
 71
     3
 72
    22
 73
    18
 74
     0
 42
0.000000001
 43
0.00000001
 40
0.0
 40
0.0
 40
0.0
 40
0.0
 40
0.125
 40
0.125
 40
0.25
 40
0.25
 40
0.375
 40
0.375
 40
0.5
 40
0.5
 40
0.625
 40
0.625
 40
0.75
 40
0.75
 40
0.875
 40
0.875
 40
1.0
 40
1.0
 40
1.0
 40
1.0
 10
284.8872459159119
 20
627.8303312834938
 30
0.0
 10
284.8106180104044
 20
627.5516554345736
 30
0.0
 10
284.74432624562
 20
627.2708053387203
 30
0.0
 10
284.632341927101
 20
626.7047739630486
 30
0.0
 10
284.5864731683328
 20
626.4166506990824
 30
0.0
 10
284.5180479613168
 20
625.8633510119901
 30
0.0
 10
284.4947573278909
 20
625.5954746701984
 30
0.0
 10
284.4659531988987
 20
625.078691531543
 30
0.0
 10
284.4608986930808
 20
624.8383252274673
 30
0.0
 10
284.4627366762347
 20
624.3966144506363
 30
0.0
 10
284.4697890002417
 20
624.1931048823078
 30
0.0
 10
284.4889240872733
 20
623.8423287828731
 30
0.0
 10
284.5009641490744
 20
623.6927301386518
 30
0.0
 10
284.5241492013816
 20
623.4465733859042
 30
0.0
 10
284.534895969565
 20
623.3539269647181
 30
0.0
 10
284.5501910179833
 20
623.2289971089969
 30
0.0
 10
284.5547658658604
 20
623.1965703087474
 30
0.0
 10
284.5547654418014
 20
623.1965703087475
 30
0.0
  0
SPLINE
  5
197
330
1F
100
AcDbEntity
  8
0
  6
Continuous
 62
     7
370
    25
100
AcDbSpline
210
0.0
220
0.0
230
1.0
 70
     8
 71
     3
 72
    25
 73
    21
 74
     0
 42
0.000000001
 43
0.00000001
 40
0.1572898398993331
 40
0.1572898398993331
 40
0.1572898398993331
 40
0.1572898398993331
 40
0.1650186264599854
 40
0.1727474130206378
 40
0.1882049861419426
 40
0.2397302298796251
 40
0.2938317358041918
 40
0.3840009123451361
 40
0.5530681183594067
 40
0.6545084419679691
 40
0.7559487655765315
 40
0.8168129597416689
 40
0.8427334466198168
 40
0.8859342580833963
 40
0.9274070370884329
 40
0.9688798160934694
 40
0.985468927695484
 40
0.9937634834964914
 40
0.9937634834964914
 40
1.0
 40
1.0
 40
1.0
 40
1.0
 10
332.5642655143654
 20
641.1721646952866
 30
0.0
 10
332.6371759616258
 20
641.1747125536183
 30
0.0
 10
332.7829968561466
 20
641.1798082702817
 30
0.0
 10
333.0727389468678
 20
641.1916004831298
 30
0.0
 10
333.7676261364835
 20
641.2244554308454
 30
0.0
 10
334.8667636155664
 20
641.2989581316746
 30
0.0
 10
336.5684046147838
 20
641.4710515006915
 30
0.0
 10
339.1094636758442
 20
641.854519565064
 30
0.0
 10
341.6011744682933
 20
642.5021460123866
 30
0.0
 10
343.590205916313
 20
643.3572503056404
 30
0.0
 10
344.6553955589487
 20
644.0521003501503
 30
0.0
 10
345.1976630187117
 20
644.5921965501952
 30
0.0
 10
345.4870643914624
 20
644.9801055133038
 30
0.0
 10
345.678767444227
 20
645.3138607108308
 30
0.0
 10
345.8285710704841
 20
645.6849225130119
 30
0.0
 10
345.8988937294828
 20
645.9590648872153
 30
0.0
 10
345.9260892857345
 20
646.1282558524119
 30
0.0
 10
345.9331667016371
 20
646.1889304300398
 30
0.0
 10
345.9368423351018
 20
646.2240821560532
 30
0.0
 10
345.9382722938914
 20
646.2390784502809
 30
0.0
 10
345.9396081166939
 20
646.2540879958631
 30
0.0
  0
LINE
  5
198
330
1F
100
AcDbEntity
  8
0
  6
Continuous
 62
     7
370
    25
100
AcDbLine
 10
443.8726826644
 20
590.8180541473
 30
0.0
 11
443.2901068663
 21
594.1907606202
 31
0.0
  0
LWPOLYLINE
  5
199
330
1F
100
AcDbEntity
  8
0
  6
Continuous
 62
     7
370
    25
100
AcDbPolyline
 90
       14
 70
   128
 43
0.0
 10
443.8726826644
 20
590.8180541473
 10
442.8619518018
 20
590.6434721428
 10
441.5392204261
 20
590.4150000888
 10
439.9464502072
 20
590.1398799496
 10
438.1342156863
 20
589.8268512564
 10
436.1600502467
 20
589.4858530837
 10
434.0866281724
 20
589.127711125
 10
431.9797529912
 20
588.7637949663
 10
429.9063309169
 20
588.405645557
 10
427.9321654773
 20
588.0646548348
 10
426.1199309564
 20
587.7516261416
 10
424.5271607375
 20
587.4765060025
 10
423.2044293618
 20
587.2480264979
 10
422.1936984992
 20
587.0734444934
  0
LINE
  5
19A
330
1F
100
AcDbEntity
  8
0
  6
Continuous
 62
     7
370
    25
100
AcDbLine
 10
422.1936984992
 20
587.0734444934
 30
0.0
 11
421.6111376023
 21
590.4461509662
 31
0.0
  0
LWPOLYLINE
  5
19B
330
1F
100
AcDbEntity
  8
0
  6
Continuous
 62
     7
370
    25
100
AcDbPolyline
 90
        5
 70
   128
 43
0.0
 10
420.6257238126
 20
590.2759424525
 10
420.6881298756
 20
590.2867234426
 10
420.874707315
 20
590.3189472037
 10
421.1834593749
 20
590.3722784596
 10
421.6111376023
 20
590.4461509662
  0
LWPOLYLINE
  5
19C
330
1F
100
AcDbEntity
  8
0
  6
Continuous
 62
     7
370
    25
100
AcDbPolyline
 90
        5
 70
   128
 43
0.0
 10
443.2901068663
 20
594.1907606202
 10
443.7177850938
 20
594.2646331268
 10
444.0265371537
 20
594.3179643827
 10
444.213114593
 20
594.3501955944
 10
444.2755206561
 20
594.3609691339
  0
SPLINE
  5
19D
330
1F
100
AcDbEntity
  8
0
  6
Continuous
 62
     7
370
    25
100
AcDbSpline
210
0.0
220
0.0
230
1.0
 70
    24
 71
     3
 72
    10
 73
     6
 74
     0
 42
0.000000001
 43
0.00000001
 40
0.0
 40
0.0
 40
0.0
 40
0.0
 40
0.5
 40
0.5
 40
1.0
 40
1.0
 40
1.0
 40
1.0
 10
443.9709474301974
 20
590.2491313579197
 30
0.0
 10
443.9709474301974
 20
590.2491313579197
 30
0.0
 10
443.9619325168236
 20
590.3013221397871
 30
0.0
 10
443.9280522601472
 20
590.497467905418
 30
0.0
 10
443.9033397849851
 20
590.6405378770417
 30
0.0
 10
443.8726769300353
 20
590.8180568733709
 30
0.0
  0
LWPOLYLINE
  5
19E
330
1F
100
AcDbEntity
  8
0
  6
Continuous
 62
     7
370
    25
100
AcDbPolyline
 90
       18
 70
   128
 43
0.0
 10
443.9709409213
 20
590.2491278129
 10
443.7863900399
 20
590.2172542291
 10
443.2389809823
 20
590.1226989108
 10
442.3473849034
 20
589.9686954098
 10
441.1419405675
 20
589.7604740339
 10
439.6637155747
 20
589.5051426368
 10
437.9630311465
 20
589.2113811451
 10
436.0978229976
 20
588.8892105895
 10
434.1315998769
 20
588.5495833235
 10
432.1313127017
 20
588.2040700989
 10
430.165089581
 20
587.864442833
 10
428.299881432
 20
587.5422722774
 10
426.599211905
 20
587.2485107856
 10
425.1209869122
 20
586.9931793886
 10
423.9155425763
 20
586.7849580126
 10
423.0239464974
 20
586.6309545117
 10
422.4765374398
 20
586.5363991933
 10
422.2919716573
 20
586.5045256096
  0
SPLINE
  5
19F
330
1F
100
AcDbEntity
  8
0
  6
Continuous
 62
     7
370
    25
100
AcDbSpline
210
0.0
220
0.0
230
1.0
 70
    24
 71
     3
 72
    10
 73
     6
 74
     0
 42
0.000000001
 43
0.00000001
 40
0.0
 40
0.0
 40
0.0
 40
0.0
 40
0.5
 40
0.5
 40
1.0
 40
1.0
 40
1.0
 40
1.0
 10
422.2919736635606
 20
586.5045223762671
 30
0.0
 10
422.2919736635606
 20
586.504522376267
 30
0.0
 10
422.2829587501868
 20
586.5567131581344
 30
0.0
 10
422.2490784935105
 20
586.7528589237654
 30
0.0
 10
422.2243660183483
 20
586.895928895389
 30
0.0
 10
422.1937031633985
 20
587.0734478917182
 30
0.0
  0
LINE
  5
1A0
330
1F
100
AcDbEntity
  8
0
  6
Continuous
 62
     7
370
    25
100
AcDbLine
 10
284.8872457704
 20
623.1965712386
 30
0.0
 11
284.8872457704
 21
627.8303257304
 31
0.0
  0
LINE
  5
1A1
330
1F
100
AcDbEntity
  8
0
  6
Continuous
 62
     7
370
    25
100
AcDbLine
 10
284.5547654739
 20
623.1965712386
 30
0.0
 11
284.5494848749
 21
623.2402018386
 31
0.0
  0
SPLINE
  5
1A2
330
1F
100
AcDbEntity
  8
0
  6
Continuous
 62
     8
370
    18
100
AcDbSpline
210
0.0
220
0.0
230
1.0
 70
     8
 71
     3
 72
    14
 73
    10
 74
     0
 42
0.000000001
 43
0.00000001
 40
0.0
 40
0.0
 40
0.0
 40
0.0
 40
0.4999999999999999
 40
0.4999999999999999
 40
0.7499999999999998
 40
0.7499999999999998
 40
0.8749999999999998
 40
0.8749999999999998
 40
1.0
 40
1.0
 40
1.0
 40
1.0
 10
288.5436849967842
 20
612.8201258781439
 30
0.0
 10
283.9853895635504
 20
612.8202636140462
 30
0.0
 10
279.4270890856619
 20
612.8225426329597
 30
0.0
 10
272.5900324182267
 20
612.853361056629
 30
0.0
 10
270.3110281231242
 20
612.8672087306875
 30
0.0
 10
266.8924368354193
 20
612.873755309269
 30
0.0
 10
265.7529351189113
 20
612.873202842113
 30
0.0
 10
263.4740395496692
 20
612.8609627277966
 30
0.0
 10
262.3346487125526
 20
612.8491328143527
 30
0.0
 10
261.1953085922459
 20
612.8317486740531
 30
0.0
  0
SPLINE
  5
1A3
330
1F
100
AcDbEntity
  8
0
  6
Continuous
 62
     8
370
    18
100
AcDbSpline
210
0.0
220
0.0
230
1.0
 70
     8
 71
     3
 72
     9
 73
     5
 74
     0
 42
0.000000001
 43
0.00000001
 40
0.0
 40
0.0
 40
0.0
 40
0.0
 40
0.5054647770871477
 40
1.0
 40
1.0
 40
1.0
 40
1.0
 10
261.1953352914222
 20
612.8313881281947
 30
0.0
 10
261.195293842679
 20
612.8602920897508
 30
0.0
 10
261.1952118414296
 20
612.9174750288325
 30
0.0
 10
261.1955075385929
 20
612.9682990921257
 30
0.0
 10
261.1956537712554
 20
612.9934333815959
 30
0.0
  0
SPLINE
  5
1A4
330
1F
100
AcDbEntity
  8
0
  6
Continuous
 62
     8
370
    18
100
AcDbSpline
210
0.0
220
0.0
230
1.0
 70
     8
 71
     3
 72
    31
 73
    27
 74
     0
 42
0.000000001
 43
0.00000001
 40
0.0
 40
0.0
 40
0.0
 40
0.0
 40
0.0125537347635837
 40
0.0251100901711335
 40
0.037664954875918
 40
0.05021815754035
 40
0.062775842469902
 40
0.0753348144210206
 40
0.087889184220077
 40
0.1336676614164868
 40
0.1794461534977785
 40
0.2252236047588939
 40
0.2710493694228536
 40
0.3625957688675884
 40
0.4542124300148905
 40
0.5000069034583062
 40
0.5686954160511715
 40
0.6374772803154214
 40
0.6832913039779396
 40
0.7748658122354832
 40
0.8434979294842802
 40
0.9121519490425899
 40
0.9349982466381024
 40
0.9578482849679326
 40
0.9789222452529914
 40
1.0
 40
1.0
 40
1.0
 40
1.0
 10
261.1953268037427
 20
612.9934799806017
 30
0.0
 10
261.3340508810446
 20
612.9985013458845
 30
0.0
 10
261.6115279948721
 20
613.008545124681
 30
0.0
 10
262.0275806857085
 20
613.0237041553603
 30
0.0
 10
262.4433056038051
 20
613.0390817720917
 30
0.0
 10
262.8585636083071
 20
613.0547872668197
 30
0.0
 10
263.2732268403857
 20
613.070907675701
 30
0.0
 10
263.687113479399
 20
613.0875001829174
 30
0.0
 10
264.4641740321844
 20
613.1196664923366
 30
0.0
 10
265.5986277170402
 20
613.1702030408563
 30
0.0
 10
267.0726946868211
 20
613.2418238708299
 30
0.0
 10
268.5179991833263
 20
613.3174587978003
 30
0.0
 10
270.3955206961492
 20
613.4232302059092
 30
0.0
 10
272.6359639100395
 20
613.5657277605908
 30
0.0
 10
274.6855386201693
 20
613.7186108800992
 30
0.0
 10
276.3732440005577
 20
613.8593577434325
 30
0.0
 10
277.7501162877309
 20
613.9868822791434
 30
0.0
 10
278.9626038900127
 20
614.1134583102017
 30
0.0
 10
280.1583706097975
 20
614.2490643415293
 30
0.0
 10
281.145598513953
 20
614.3723174185682
 30
0.0
 10
281.9505073367459
 20
614.4846236413201
 30
0.0
 10
282.3334030929639
 20
614.5423553698889
 30
0.0
 10
282.5185981803151
 20
614.5706678993828
 30
0.0
 10
282.600617126174
 20
614.5832321706606
 30
0.0
 10
282.6578829672148
 20
614.5919786844321
 30
0.0
 10
282.6758094055118
 20
614.5947526187301
 30
0.0
 10
282.6847734315216
 20
614.5961397107327
 30
0.0
  0
SPLINE
  5
1A5
330
1F
100
AcDbEntity
  8
0
  6
Continuous
 62
     8
370
    18
100
AcDbSpline
210
0.0
220
0.0
230
1.0
 70
     8
 71
     3
 72
     9
 73
     5
 74
     0
 42
0.000000001
 43
0.00000001
 40
0.0
 40
0.0
 40
0.0
 40
0.0
 40
0.4999774969938549
 40
1.0
 40
1.0
 40
1.0
 40
1.0
 10
282.6847700534971
 20
614.5961397123723
 30
0.0
 10
282.6874230006458
 20
614.596560025478
 30
0.0
 10
282.6927291337511
 20
614.5974006895248
 30
0.0
 10
282.6934757417128
 20
614.5975907746224
 30
0.0
 10
282.6938490624946
 20
614.5976858214486
 30
0.0
  0
SPLINE
  5
1A6
330
1F
100
AcDbEntity
  8
0
  6
Continuous
 62
     8
370
    18
100
AcDbSpline
210
0.0
220
0.0
230
1.0
 70
     8
 71
     3
 72
    32
 73
    28
 74
     0
 42
0.000000001
 43
0.00000001
 40
0.0
 40
0.0
 40
0.0
 40
0.0
 40
0.2499999999999988
 40
0.2499999999999988
 40
0.3124999999999986
 40
0.3124999999999986
 40
0.3749999999999984
 40
0.3749999999999984
 40
0.4374999999999982
 40
0.4374999999999982
 40
0.499999999999998
 40
0.499999999999998
 40
0.5624999999999978
 40
0.5624999999999978
 40
0.5937499999999981
 40
0.5937499999999981
 40
0.6249999999999983
 40
0.6249999999999983
 40
0.749999999999999
 40
0.749999999999999
 40
0.8124999999999992
 40
0.8124999999999992
 40
0.8749999999999994
 40
0.8749999999999994
 40
0.9374999999999998
 40
0.9374999999999998
 40
1.0
 40
1.0
 40
1.0
 40
1.0
 10
261.1953353303407
 20
612.8313293349646
 30
0.0
 10
259.6403203026707
 20
612.8084654128085
 30
0.0
 10
258.0859265893307
 20
612.7762752080364
 30
0.0
 10
256.1420499182729
 20
612.7493454250275
 30
0.0
 10
255.7531925779803
 20
612.7450598393278
 30
0.0
 10
254.9754824774829
 20
612.7363201865203
 30
0.0
 10
254.5866175092875
 20
612.7320297212068
 30
0.0
 10
253.8098542840063
 20
612.7108374396206
 30
0.0
 10
253.4219906677849
 20
612.6934821694039
 30
0.0
 10
252.6485250986124
 20
612.6294379103215
 30
0.0
 10
252.2629510764822
 20
612.5824692844809
 30
0.0
 10
251.4948488818857
 20
612.4487255501577
 30
0.0
 10
251.1122896874437
 20
612.362272466614
 30
0.0
 10
250.541252190089
 20
612.1954206652896
 30
0.0
 10
250.3513751860851
 20
612.1335820544248
 30
0.0
 10
249.9726473793285
 20
611.9962233159047
 30
0.0
 10
249.7839932766491
 20
611.9206765493843
 30
0.0
 10
248.8637116112072
 20
611.5158796874051
 30
0.0
 10
248.1840596688997
 20
611.1001022644333
 30
0.0
 10
247.2396080681182
 20
610.3509602869151
 30
0.0
 10
246.9369095476756
 20
610.0787465649115
 30
0.0
 10
246.3720966498342
 20
609.5071132682901
 30
0.0
 10
246.1077120207211
 20
609.2062564014337
 30
0.0
 10
245.6153397434859
 20
608.574143122857
 30
0.0
 10
245.3873212262961
 20
608.2429633194096
 30
0.0
 10
244.9712917281157
 20
607.5474348390779
 30
0.0
 10
244.7852571336544
 20
607.1849634898074
 30
0.0
 10
244.6229943859227
 20
606.8120550018497
 30
0.0
  0
SPLINE
  5
1A7
330
1F
100
AcDbEntity
  8
0
  6
Continuous
 62
     8
370
    18
100
AcDbSpline
210
0.0
220
0.0
230
1.0
 70
     8
 71
     3
 72
    22
 73
    18
 74
     0
 42
0.000000001
 43
0.00000001
 40
0.0
 40
0.0
 40
0.0
 40
0.0
 40
0.1250000000000017
 40
0.1250000000000017
 40
0.2500000000000034
 40
0.2500000000000034
 40
0.312500000000004
 40
0.312500000000004
 40
0.3750000000000046
 40
0.3750000000000046
 40
0.5000000000000037
 40
0.5000000000000037
 40
0.6250000000000027
 40
0.6250000000000027
 40
0.7500000000000017
 40
0.7500000000000017
 40
1.0
 40
1.0
 40
1.0
 40
1.0
 10
245.8429153564279
 20
606.2426310190402
 30
0.0
 10
246.1559976703084
 20
606.9107752978604
 30
0.0
 10
246.5545091091702
 20
607.5188948686059
 30
0.0
 10
247.5070034265603
 20
608.6258959125373
 30
0.0
 10
248.0646749169814
 20
609.1268494669678
 30
0.0
 10
248.9645310658789
 20
609.7498881878166
 30
0.0
 10
249.2759462296355
 20
609.9375845158679
 30
0.0
 10
249.9226798697831
 20
610.2713072391193
 30
0.0
 10
250.2594028804539
 20
610.417466201426
 30
0.0
 10
251.2992108251008
 20
610.787950250565
 30
0.0
 10
252.0000675538899
 20
610.933987372995
 30
0.0
 10
253.4112775795349
 20
611.1007564109335
 30
0.0
 10
254.1218135972389
 20
611.1190765727049
 30
0.0
 10
255.5440376170746
 20
611.1405183201844
 30
0.0
 10
256.255507947435
 20
611.1465135529186
 30
0.0
 10
258.3886539182859
 20
611.1811996147655
 30
0.0
 10
259.8101188577175
 20
611.2139377813255
 30
0.0
 10
261.2318715145616
 20
611.2390929085383
 30
0.0
  0
LINE
  5
1A8
330
1F
100
AcDbEntity
  8
0
  6
Continuous
 62
     8
370
    18
100
AcDbLine
 10
245.06445593
 20
382.0465720373
 30
0.0
 11
245.06445593
 21
512.5965709912
 31
0.0
  0
ARC
  5
1A9
330
1F
100
AcDbEntity
  8
0
  6
Continuous
 62
     8
370
    18
100
AcDbCircle
 10
222.4376117214
 20
381.9839436723
 30
0.0
 40
22.62693088224002
100
AcDbArc
 50
359.5255225234
 51
0.158587375
  0
SPLINE
  5
1AA
330
1F
100
AcDbEntity
  8
0
  6
Continuous
 62
     8
370
    18
100
AcDbSpline
210
0.0
220
0.0
230
1.0
 70
     8
 71
     3
 72
    54
 73
    50
 74
     0
 42
0.000000001
 43
0.00000001
 40
0.0
 40
0.0
 40
0.0
 40
0.0
 40
0.1250000000000007
 40
0.1250000000000007
 40
0.2500000000000014
 40
0.2500000000000014
 40
0.5000000000000029
 40
0.5000000000000029
 40
0.7500000000000043
 40
0.7500000000000043
 40
0.7812500000000046
 40
0.7812500000000046
 40
0.8125000000000047
 40
0.8125000000000047
 40
0.8281250000000048
 40
0.8281250000000048
 40
0.8437500000000049
 40
0.8437500000000049
 40
0.859375000000005
 40
0.859375000000005
 40
0.8671875000000052
 40
0.8671875000000052
 40
0.8750000000000056
 40
0.8750000000000056
 40
0.8828125000000058
 40
0.8828125000000058
 40
0.8867187500000057
 40
0.8867187500000057
 40
0.8906250000000056
 40
0.8906250000000056
 40
0.8984375000000052
 40
0.8984375000000052
 40
0.902343750000005
 40
0.902343750000005
 40
0.9062500000000048
 40
0.9062500000000048
 40
0.9140625000000044
 40
0.9140625000000044
 40
0.921875000000004
 40
0.921875000000004
 40
0.9375000000000032
 40
0.9375000000000032
 40
0.9531250000000024
 40
0.9531250000000024
 40
0.9687500000000016
 40
0.9687500000000016
 40
0.9843750000000008
 40
0.9843750000000008
 40
1.0
 40
1.0
 40
1.0
 40
1.0
 10
288.5520489465246
 20
611.2009125633307
 30
0.0
 10
296.3816943527614
 20
611.1950007807629
 30
0.0
 10
304.2113075336617
 20
611.1907068389986
 30
0.0
 10
319.8704834818164
 20
611.1889706339078
 30
0.0
 10
327.7000450497324
 20
611.1912306238668
 30
0.0
 10
351.188560556387
 20
611.1921058163712
 30
0.0
 10
366.8474050390581
 20
611.1905540573794
 30
0.0
 10
398.1646074323001
 20
611.190228388235
 30
0.0
 10
413.8229620351468
 20
611.1907809438118
 30
0.0
 10
431.4383145070173
 20
611.1901548897589
 30
0.0
 10
433.3955633054025
 20
611.1901206967323
 30
0.0
 10
437.3100457297684
 20
611.1883708996726
 30
0.0
 10
439.2672831537144
 20
611.1879291687779
 30
0.0
 10
442.2030762505106
 20
611.1769657705375
 30
0.0
 10
443.181680064466
 20
611.1724415249354
 30
0.0
 10
445.1387379207081
 20
611.1558394865148
 30
0.0
 10
446.117213876929
 20
611.1412729064774
 30
0.0
 10
448.0732285005933
 20
611.0943544454094
 30
0.0
 10
449.0520962461092
 20
611.0664000237981
 30
0.0
 10
450.4959964704041
 20
611.010554970511
 30
0.0
 10
450.9737368292722
 20
610.9891683741637
 30
0.0
 10
451.919560075273
 20
610.9403879232159
 30
0.0
 10
452.3904297429162
 20
610.9128759356778
 30
0.0
 10
453.3054805630493
 20
610.8523274654505
 30
0.0
 10
453.7459995261974
 20
610.8193364474897
 30
0.0
 10
454.3764341912396
 20
610.7681711253026
 30
0.0
 10
454.5815330783818
 20
610.7508857454187
 30
0.0
 10
454.9808351374886
 20
610.7163992997994
 30
0.0
 10
455.1753155688015
 20
610.6991683006875
 30
0.0
 10
455.7287096686314
 20
610.6494605457627
 30
0.0
 10
456.0622023923621
 20
610.6184083504336
 30
0.0
 10
456.5099448315045
 20
610.5782551742271
 30
0.0
 10
456.6504179954719
 20
610.5659668678665
 30
0.0
 10
456.9137886906499
 20
610.5442613765497
 30
0.0
 10
457.0365972138887
 20
610.5348871827229
 30
0.0
 10
457.372378226386
 20
610.5124203499615
 30
0.0
 10
457.5556594983539
 20
610.504951108814
 30
0.0
 10
457.8562991633071
 20
610.5022570151805
 30
0.0
 10
457.9731834882212
 20
610.506782018056
 30
0.0
 10
458.2469185648127
 20
610.5295968487326
 30
0.0
 10
458.3355305877611
 20
610.5593289349312
 30
0.0
 10
458.4538058872079
 20
610.6157310779968
 30
0.0
 10
458.4828762396123
 20
610.6401718818454
 30
0.0
 10
458.5357711890458
 20
610.6748841315763
 30
0.0
 10
458.5581218807963
 20
610.6868873637216
 30
0.0
 10
458.5918157657587
 20
610.7080086775736
 30
0.0
 10
458.6009151885769
 20
610.7152893470744
 30
0.0
 10
458.6124392665885
 20
610.7249702075144
 30
0.0
 10
458.6164525072602
 20
610.7292968572722
 30
0.0
 10
458.6176144482245
 20
610.7298211191068
 30
0.0
  0
SPLINE
  5
1AB
330
1F
100
AcDbEntity
  8
0
  6
Continuous
 62
     8
370
    18
100
AcDbSpline
210
0.0
220
0.0
230
1.0
 70
     8
 71
     3
 72
    12
 73
     8
 74
     0
 42
0.000000001
 43
0.00000001
 40
0.0
 40
0.0
 40
0.0
 40
0.0
 40
0.0000042293689286
 40
0.4149092354051835
 40
0.7435631525246942
 40
0.908371449385413
 40
1.0
 40
1.0
 40
1.0
 40
1.0
 10
457.5348272061222
 20
613.1002298670436
 30
0.0
 10
457.5348272061226
 20
613.1002298670442
 30
0.0
 10
457.5348272450149
 20
613.1002299153295
 30
0.0
 10
457.5140029627867
 20
613.0744157009218
 30
0.0
 10
457.3239007452207
 20
612.9925592302341
 30
0.0
 10
457.200782819856
 20
612.9128092276626
 30
0.0
 10
456.9496552744388
 20
612.8830861121669
 30
0.0
 10
456.8599238133305
 20
612.8724656181956
 30
0.0
  0
LWPOLYLINE
  5
1AC
330
1F
100
AcDbEntity
  8
0
  6
Continuous
 62
     8
370
    18
100
AcDbPolyline
 90
        9
 70
   128
 43
0.0
 10
269.0928787066
 20
617.4965194541
 10
269.0911522674
 20
617.4379876929
 10
269.0860458257
 20
617.3817209082
 10
269.0777556578
 20
617.3298648673
 10
269.0666000432
 20
617.2844163256
 10
269.0530080887
 20
617.2471187192
 10
269.037501335
 20
617.2194025593
 10
269.0206760613
 20
617.2023407298
 10
269.0031786056
 20
617.1965739804
  0
SPLINE
  5
1AD
330
1F
100
AcDbEntity
  8
0
  6
Continuous
 62
     8
370
    18
100
AcDbSpline
210
0.0
220
0.0
230
1.0
 70
     8
 71
     3
 72
    10
 73
     6
 74
     0
 42
0.000000001
 43
0.00000001
 40
0.0
 40
0.0
 40
0.0
 40
0.0
 40
0.5
 40
0.5
 40
1.0
 40
1.0
 40
1.0
 40
1.0
 10
245.8163763122858
 20
623.8201496318211
 30
0.0
 10
245.7888478271508
 20
623.746519988551
 30
0.0
 10
245.7613379223581
 20
623.6733550640872
 30
0.0
 10
245.7219127927446
 20
623.5693311944971
 30
0.0
 10
245.7102411679392
 20
623.539114992121
 30
0.0
 10
245.7099107767821
 20
623.5392385203129
 30
0.0
  0
SPLINE
  5
1AE
330
1F
100
AcDbEntity
  8
0
  6
Continuous
 62
     8
370
    18
100
AcDbSpline
210
0.0
220
0.0
230
1.0
 70
     8
 71
     3
 72
    10
 73
     6
 74
     0
 42
0.000000001
 43
0.00000001
 40
0.0
 40
0.0
 40
0.0
 40
0.0
 40
0.5
 40
0.5
 40
1.0
 40
1.0
 40
1.0
 40
1.0
 10
244.5521358800155
 20
624.2042986040038
 30
0.0
 10
244.5431213544298
 20
624.1413543195686
 30
0.0
 10
244.5510730836296
 20
624.0785885292597
 30
0.0
 10
244.5977854361868
 20
623.9780697300056
 30
0.0
 10
244.6364130872187
 20
623.9406028599029
 30
0.0
 10
244.6827253144124
 20
623.9232874276825
 30
0.0
  0
SPLINE
  5
1AF
330
1F
100
AcDbEntity
  8
0
  6
Continuous
 62
     8
370
    18
100
AcDbSpline
210
0.0
220
0.0
230
1.0
 70
     8
 71
     3
 72
    12
 73
     8
 74
     0
 42
0.000000001
 43
0.00000001
 40
0.0
 40
0.0
 40
0.0
 40
0.0
 40
0.4999999999999996
 40
0.4999999999999996
 40
0.7499999999999998
 40
0.7499999999999998
 40
1.0
 40
1.0
 40
1.0
 40
1.0
 10
245.0650825898544
 20
548.1528261495591
 30
0.0
 10
245.0628402188467
 20
557.1022144058663
 30
0.0
 10
245.0643636559549
 20
566.0516033380271
 30
0.0
 10
245.0656155527237
 20
579.4756865335614
 30
0.0
 10
245.0657402312775
 20
583.9503809333779
 30
0.0
 10
245.0651460466181
 20
592.8997697512257
 30
0.0
 10
245.062994299377
 20
597.3744641756942
 30
0.0
 10
245.0643236704702
 20
601.84915860093
 30
0.0
  0
SPLINE
  5
1B0
330
1F
100
AcDbEntity
  8
0
  6
Continuous
 62
     8
370
    18
100
AcDbSpline
210
0.0
220
0.0
230
1.0
 70
     8
 71
     3
 72
    14
 73
    10
 74
     0
 42
0.000000001
 43
0.00000001
 40
0.0
 40
0.0
 40
0.0
 40
0.0
 40
0.25
 40
0.25
 40
0.5
 40
0.5
 40
0.75
 40
0.75
 40
1.0
 40
1.0
 40
1.0
 40
1.0
 10
245.0641512864633
 20
601.8491601676279
 30
0.0
 10
245.0675779690305
 20
602.226186835463
 30
0.0
 10
245.0701694003995
 20
602.6032448982827
 30
0.0
 10
245.1027440585944
 20
603.3563313950385
 30
0.0
 10
245.1347624707199
 20
603.7339295551346
 30
0.0
 10
245.2478323674079
 20
604.4749422209449
 30
0.0
 10
245.3290316966648
 20
604.8387506026106
 30
0.0
 10
245.547188475153
 20
605.5512254740491
 30
0.0
 10
245.6824931495163
 20
605.9003407933512
 30
0.0
 10
245.8428947269601
 20
606.2426406857926
 30
0.0
  0
SPLINE
  5
1B1
330
1F
100
AcDbEntity
  8
0
  6
Continuous
 62
     8
370
    18
100
AcDbSpline
210
0.0
220
0.0
230
1.0
 70
     8
 71
     3
 72
    14
 73
    10
 74
     0
 42
0.000000001
 43
0.00000001
 40
0.0
 40
0.0
 40
0.0
 40
0.0
 40
0.125
 40
0.125
 40
0.2499999999999999
 40
0.2499999999999999
 40
0.5
 40
0.5
 40
1.0
 40
1.0
 40
1.0
 40
1.0
 10
261.2318659912096
 20
611.2394057475137
 30
0.0
 10
262.3700896421886
 20
611.2603065221193
 30
0.0
 10
263.5083453057084
 20
611.2751396909001
 30
0.0
 10
265.7849353972318
 20
611.2897570316819
 30
0.0
 10
266.9232683190705
 20
611.2898245302524
 30
0.0
 10
270.3383251650881
 20
611.2786849149857
 30
0.0
 10
272.6150214385583
 20
611.258265634388
 30
0.0
 10
279.4450994563427
 20
611.2127142762318
 30
0.0
 10
283.9985847470357
 20
611.2050934794922
 30
0.0
 10
288.5520487863453
 20
611.2007363111318
 30
0.0
  0
SPLINE
  5
1B2
330
1F
100
AcDbEntity
  8
0
  6
Continuous
 62
     8
370
    18
100
AcDbSpline
210
0.0
220
0.0
230
1.0
 70
     8
 71
     3
 72
    16
 73
    12
 74
     0
 42
0.000000001
 43
0.00000001
 40
0.0
 40
0.0
 40
0.0
 40
0.0
 40
0.4999999999999919
 40
0.4999999999999919
 40
0.7499999999999878
 40
0.7499999999999878
 40
0.8749999999999898
 40
0.8749999999999898
 40
0.9374999999999949
 40
0.9374999999999949
 40
1.0
 40
1.0
 40
1.0
 40
1.0
 10
244.6229380829923
 20
606.8120721269606
 30
0.0
 10
244.2831571240314
 20
606.0323169162342
 30
0.0
 10
244.0521023740434
 20
605.2251257224752
 30
0.0
 10
243.8699628096116
 20
603.9728258036921
 30
0.0
 10
243.8351826379964
 20
603.5478099604926
 30
0.0
 10
243.8110427047456
 20
602.9115277715728
 30
0.0
 10
243.8072551818925
 20
602.699311914374
 30
0.0
 10
243.8046458718894
 20
602.3809006474095
 30
0.0
 10
243.804286458711
 20
602.2747489900493
 30
0.0
 10
243.8040146940487
 20
602.0624325883437
 30
0.0
 10
243.8041025595014
 20
601.9550467178188
 30
0.0
 10
243.8041192523206
 20
601.8501053560925
 30
0.0
  0
SPLINE
  5
1B3
330
1F
100
AcDbEntity
  8
0
  6
Continuous
 62
     8
370
    18
100
AcDbSpline
210
0.0
220
0.0
230
1.0
 70
     8
 71
     3
 72
    23
 73
    19
 74
     0
 42
0.000000001
 43
0.00000001
 40
0.0
 40
0.0
 40
0.0
 40
0.0
 40
0.0053528564081969
 40
0.0053528564081969
 40
0.0053528564081969
 40
0.0267613237273018
 40
0.0267613237273018
 40
0.0267613237273018
 40
0.0374654875498773
 40
0.0374654875498773
 40
0.0374654875498773
 40
0.045581158171316
 40
0.045581158171316
 40
0.045581158171316
 40
0.049638995613008
 40
0.049638995613008
 40
0.049638995613008
 40
0.0536972383924097
 40
0.0536972383924097
 40
0.0536972383924097
 40
0.0536972383924097
 10
243.8039068242471
 20
601.8500981097337
 30
0.0
 10
243.802467121423
 20
600.065813303019
 30
0.0
 10
243.8028982131775
 20
598.2815272791184
 30
0.0
 10
243.802954915026
 20
596.497241810632
 30
0.0
 10
243.8031816910873
 20
589.3610859003087
 30
0.0
 10
243.805007389803
 20
582.2249301425622
 30
0.0
 10
243.8059205531698
 20
575.0887743092447
 30
0.0
 10
243.8063771318743
 20
571.5207196723115
 30
0.0
 10
243.80670900891
 20
567.9526650144805
 30
0.0
 10
243.806978714868
 20
564.3846103537436
 30
0.0
 10
243.8071832002209
 20
561.6793867768519
 30
0.0
 10
243.8073292922779
 20
558.9741631759057
 30
0.0
 10
243.8072410566868
 20
556.2689395912181
 30
0.0
 10
243.8071969388682
 20
554.91632709298
 30
0.0
 10
243.8070209887741
 20
553.5637146053189
 30
0.0
 10
243.8067841948881
 20
552.2111021575314
 30
0.0
 10
243.8065473773486
 20
550.8583545962579
 30
0.0
 10
243.806150176313
 20
549.5056071173797
 30
0.0
 10
243.8058391405845
 20
548.1528595905776
 30
0.0
  0
SPLINE
  5
1B4
330
1F
100
AcDbEntity
  8
0
  6
Continuous
 62
     8
370
    18
100
AcDbSpline
210
0.0
220
0.0
230
1.0
 70
     8
 71
     3
 72
    20
 73
    16
 74
     0
 42
0.000000001
 43
0.00000001
 40
0.0
 40
0.0
 40
0.0
 40
0.0
 40
0.0639572731196476
 40
0.1254719613805892
 40
0.1879473032080987
 40
0.2459851587350448
 40
0.3684131929322844
 40
0.492601438226114
 40
0.6173968684144026
 40
0.6804283622391507
 40
0.7421129903348493
 40
0.803953576483583
 40
0.8680637991580643
 40
0.9329348342807073
 40
1.0
 40
1.0
 40
1.0
 40
1.0
 10
255.5261540990398
 20
646.1129305817952
 30
0.0
 10
255.1878889815592
 20
646.1105983553581
 30
0.0
 10
254.5242773907785
 20
646.1060229722755
 30
0.0
 10
253.5308796577
 20
646.0535860515882
 30
0.0
 10
252.5762204942644
 20
645.9152934501225
 30
0.0
 10
251.3307505619643
 20
645.5884891496078
 30
0.0
 10
249.8656338485554
 20
644.874188118047
 30
0.0
 10
248.3317901200586
 20
643.6234688565473
 30
0.0
 10
247.2969765842014
 20
642.3198115285504
 30
0.0
 10
246.6566517301846
 20
641.1630477195794
 30
0.0
 10
246.2851127813028
 20
640.2461719199047
 30
0.0
 10
246.0269620219052
 20
639.2855688026342
 30
0.0
 10
245.8766858708567
 20
638.2854879183756
 30
0.0
 10
245.8233861683061
 20
637.249057060543
 30
0.0
 10
245.8182890085259
 20
636.5512684945927
 30
0.0
 10
245.8156980451422
 20
636.19657201619
 30
0.0
  0
LWPOLYLINE
  5
1B5
330
1F
100
AcDbEntity
  8
0
  6
Continuous
 62
     8
370
    18
100
AcDbPolyline
 90
        3
 70
   128
 43
0.0
 10
256.2453084698
 20
646.1193851309
 10
255.8857294804
 20
646.1172244626
 10
255.5261402464
 20
646.1150935965
  0
LWPOLYLINE
  5
1B6
330
1F
100
AcDbEntity
  8
0
  6
Continuous
 62
     8
370
    18
100
AcDbPolyline
 90
        3
 70
   128
 43
0.0
 10
256.2647535539
 20
646.1194894391
 10
256.2550314775
 20
646.1194298344
 10
256.2453084698
 20
646.1193851309
  0
SPLINE
  5
1B7
330
1F
100
AcDbEntity
  8
0
  6
Continuous
 62
     8
370
    18
100
AcDbSpline
210
0.0
220
0.0
230
1.0
 70
     8
 71
     3
 72
    15
 73
    11
 74
     0
 42
0.000000001
 43
0.00000001
 40
0.0
 40
0.0
 40
0.0
 40
0.0
 40
0.1671592841549225
 40
0.3338538291254953
 40
0.5000823084869758
 40
0.7501398401927436
 40
0.8502588840984638
 40
0.9254618127262098
 40
0.9669753030697906
 40
1.0
 40
1.0
 40
1.0
 40
1.0
 10
278.6896649193405
 20
646.0331754707032
 30
0.0
 10
277.4402146850784
 20
646.0428236813725
 30
0.0
 10
274.9447879600898
 20
646.0620932785861
 30
0.0
 10
271.2067525472561
 20
646.0835027240022
 30
0.0
 10
266.8489863986591
 20
646.1018419323091
 30
0.0
 10
262.9888007231094
 20
646.1102108558259
 30
0.0
 10
259.8090194085233
 20
646.1143337138446
 30
0.0
 10
258.1881464676569
 20
646.1195960189564
 30
0.0
 10
257.0688032517664
 20
646.1224875703506
 30
0.0
 10
256.511618631998
 20
646.1204182478103
 30
0.0
 10
256.2647538520103
 20
646.1195014191048
 30
0.0
  0
SPLINE
  5
1B8
330
1F
100
AcDbEntity
  8
0
  6
Continuous
 62
     8
370
    18
100
AcDbSpline
210
0.0
220
0.0
230
1.0
 70
     8
 71
     3
 72
    12
 73
     8
 74
     0
 42
0.000000001
 43
0.00000001
 40
0.0
 40
0.0
 40
0.0
 40
0.0
 40
0.0746852050552383
 40
0.2170259455030689
 40
0.4270125137572436
 40
0.7462052859285734
 40
1.0
 40
1.0
 40
1.0
 40
1.0
 10
245.815952921197
 20
636.1965703087467
 30
0.0
 10
245.8149937164858
 20
635.8884597350326
 30
0.0
 10
245.8122063865292
 20
634.993128611146
 30
0.0
 10
245.8127962385095
 20
633.2314967763737
 30
0.0
 10
245.8137942854252
 20
630.4611593089371
 30
0.0
 10
245.8155533260991
 20
627.2310197515096
 30
0.0
 10
245.8161595425979
 20
624.8671746328911
 30
0.0
 10
245.8164280555178
 20
623.8201510758448
 30
0.0
  0
SPLINE
  5
1B9
330
1F
100
AcDbEntity
  8
0
  6
Continuous
 62
     8
370
    18
100
AcDbSpline
210
0.0
220
0.0
230
1.0
 70
     8
 71
     3
 72
    22
 73
    18
 74
     0
 42
0.000000001
 43
0.00000001
 40
0.0
 40
0.0
 40
0.0
 40
0.0
 40
0.122873684423126
 40
0.1868444796776039
 40
0.2497648137606424
 40
0.3051492535465388
 40
0.3769125111843799
 40
0.4444623155219948
 40
0.5032807597435599
 40
0.638508037213791
 40
0.7574348644716349
 40
0.7890911115352846
 40
0.8207100437487137
 40
0.8456937917313917
 40
0.8820250887595772
 40
0.9419719353815543
 40
1.0
 40
1.0
 40
1.0
 40
1.0
 10
244.5580786170304
 20
636.1943973278703
 30
0.0
 10
244.5640620837372
 20
636.9327131636063
 30
0.0
 10
244.5731606773761
 20
638.0554127783649
 30
0.0
 10
244.7869931143912
 20
639.5419555298088
 30
0.0
 10
245.0609305018473
 20
640.6030681191268
 30
0.0
 10
245.4656966138447
 20
641.6710637733778
 30
0.0
 10
246.0093976217018
 20
642.7084367865126
 30
0.0
 10
246.6861205464075
 20
643.6884315329672
 30
0.0
 10
247.7115944763275
 20
644.8777425034923
 30
0.0
 10
249.1658112321617
 20
646.0918616115209
 30
0.0
 10
250.7104241317224
 20
646.865397793068
 30
0.0
 10
251.7486587266189
 20
647.1976359555329
 30
0.0
 10
252.2611180541668
 20
647.3252119081768
 30
0.0
 10
252.8074324912765
 20
647.4297013087015
 30
0.0
 10
253.5270897571511
 20
647.5280636193723
 30
0.0
 10
254.4509070917944
 20
647.5843583409406
 30
0.0
 10
255.1587460475965
 20
647.5908219815115
 30
0.0
 10
255.5069092649692
 20
647.5940012384293
 30
0.0
  0
SPLINE
  5
1BA
330
1F
100
AcDbEntity
  8
0
  6
Continuous
 62
     8
370
    18
100
AcDbSpline
210
0.0
220
0.0
230
1.0
 70
     8
 71
     3
 72
    16
 73
    12
 74
     0
 42
0.000000001
 43
0.00000001
 40
0.0
 40
0.0
 40
0.0
 40
0.0
 40
0.2499999999999983
 40
0.2499999999999983
 40
0.4999999999999966
 40
0.4999999999999966
 40
0.7499999999999949
 40
0.7499999999999949
 40
0.8749999999999974
 40
0.8749999999999974
 40
1.0
 40
1.0
 40
1.0
 40
1.0
 10
244.5521585264819
 20
624.2042985339012
 30
0.0
 10
244.5524392439652
 20
625.2020387272377
 30
0.0
 10
244.5527047687335
 20
626.2040480470873
 30
0.0
 10
244.5531247268158
 20
628.2112902528729
 30
0.0
 10
244.5532706649622
 20
629.2145074935219
 30
0.0
 10
244.5532707925065
 20
631.1967469756465
 30
0.0
 10
244.5530742164661
 20
632.1728571669838
 30
0.0
 10
244.5533735566359
 20
633.6687577245378
 30
0.0
 10
244.5535688327136
 20
634.1728012475023
 30
0.0
 10
244.5543621472664
 20
635.2000395114758
 30
0.0
 10
244.554775328114
 20
635.7278531036721
 30
0.0
 10
244.5582248916057
 20
636.205361470144
 30
0.0
  0
LWPOLYLINE
  5
1BB
330
1F
100
AcDbEntity
  8
0
  6
Continuous
 62
     8
370
    18
100
AcDbPolyline
 90
        4
 70
   128
 43
0.0
 10
245.0650575644
 20
512.5965747165
 10
245.0651823616
 20
530.3746937888
 10
245.0651916748
 20
532.4603720682
 10
245.0651767737
 20
548.1528184491
  0
LWPOLYLINE
  5
1BC
330
1F
100
AcDbEntity
  8
0
  6
Continuous
 62
     8
370
    18
100
AcDbPolyline
 90
        3
 70
   128
 43
0.0
 10
243.8057641572
 20
548.1528631526
 10
243.8048738128
 20
529.2604296582
 10
243.8037674016
 20
512.5965709912
  0
LINE
  5
1BD
330
1F
100
AcDbEntity
  8
0
  6
Continuous
 62
     8
370
    18
100
AcDbLine
 10
243.803445164
 20
512.5965709912
 30
0.0
 11
243.803445164
 21
382.0465720373
 31
0.0
  0
ARC
  5
1BE
330
1F
100
AcDbEntity
  8
0
  6
Continuous
 62
     8
370
    18
100
AcDbCircle
 10
244.0302911856
 20
382.0226256122
 30
0.0
 40
0.2281064418237287
100
AcDbArc
 50
173.9740335037
 51
262.3153035149
  0
LINE
  5
1BF
330
1F
100
AcDbEntity
  8
0
  6
Continuous
 62
     8
370
    18
100
AcDbLine
 10
255.5068823582
 20
647.5963733273
 30
0.0
 11
256.225869905
 21
647.6014695244
 31
0.0
  0
SPLINE
  5
1C0
330
1F
100
AcDbEntity
  8
0
  6
Continuous
 62
     8
370
    18
100
AcDbSpline
210
0.0
220
0.0
230
1.0
 70
     8
 71
     3
 72
    16
 73
    12
 74
     0
 42
0.000000001
 43
0.00000001
 40
0.0
 40
0.0
 40
0.0
 40
0.0
 40
0.0416527772969002
 40
0.0834009545711123
 40
0.1251395300581699
 40
0.1668520156722921
 40
0.2085463768955514
 40
0.2502287096017886
 40
0.5001752719931155
 40
0.7479356987990949
 40
1.0
 40
1.0
 40
1.0
 40
1.0
 10
256.2453083162198
 20
647.6016089225487
 30
0.0
 10
256.5567044440351
 20
647.6030053973269
 30
0.0
 10
257.1802099098152
 20
647.6058015453174
 30
0.0
 10
258.1157611728315
 20
647.6035658960454
 30
0.0
 10
259.0517568951145
 20
647.602583037176
 30
0.0
 10
259.9873522654717
 20
647.6020437206981
 30
0.0
 10
260.9225270604763
 20
647.6019602318768
 30
0.0
 10
263.4144759291497
 20
647.6024245801163
 30
0.0
 10
267.446947401378
 20
647.604375105034
 30
0.0
 10
273.0521812322495
 20
647.6070501825191
 30
0.0
 10
276.7887561318166
 20
647.6095401370218
 30
0.0
 10
278.6731309699724
 20
647.6107958344825
 30
0.0
  0
LWPOLYLINE
  5
1C1
330
1F
100
AcDbEntity
  8
0
  6
Continuous
 62
     8
370
    18
100
AcDbPolyline
 90
        3
 70
   128
 43
0.0
 10
256.225869905
 20
647.6014695244
 10
256.2355891874
 20
647.6015291291
 10
256.2453084698
 20
647.6016036349
  0
SPLINE
  5
1C2
330
1F
100
AcDbEntity
  8
0
  6
Continuous
 62
     8
370
    18
100
AcDbSpline
210
0.0
220
0.0
230
1.0
 70
     8
 71
     3
 72
    15
 73
    11
 74
     0
 42
0.000000001
 43
0.00000001
 40
0.0
 40
0.0
 40
0.0
 40
0.0
 40
0.0510956450227233
 40
0.1428083941503635
 40
0.249945877018184
 40
0.4999929585779314
 40
0.5706745620003725
 40
0.750030742531601
 40
0.8818573656867408
 40
1.0
 40
1.0
 40
1.0
 40
1.0
 10
278.6731381414463
 20
647.6107003647276
 30
0.0
 10
279.3753557733156
 20
647.6110465351283
 30
0.0
 10
281.3379999929302
 20
647.6120140547476
 30
0.0
 10
284.7731035164243
 20
647.612741040239
 30
0.0
 10
290.9424734561368
 20
647.6135956450541
 30
0.0
 10
296.8228538019029
 20
647.6127331069432
 30
0.0
 10
303.6958007092683
 20
647.6101987587133
 30
0.0
 10
308.9439472589275
 20
647.6082279841447
 30
0.0
 10
314.8443146723395
 20
647.6066445232423
 30
0.0
 10
318.279673936274
 20
647.6073800079063
 30
0.0
 10
319.9033231696401
 20
647.6077276190348
 30
0.0
  0
SPLINE
  5
1C3
330
1F
100
AcDbEntity
  8
0
  6
Continuous
 62
     8
370
    18
100
AcDbSpline
210
0.0
220
0.0
230
1.0
 70
     8
 71
     3
 72
    16
 73
    12
 74
     0
 42
0.000000001
 43
0.00000001
 40
0.0
 40
0.0
 40
0.0
 40
0.0
 40
0.0943630820300885
 40
0.1775845571951022
 40
0.2500777413471153
 40
0.3751192595257202
 40
0.5001519078489794
 40
0.750168625801796
 40
0.8751357881250194
 40
0.9477564758537981
 40
1.0
 40
1.0
 40
1.0
 40
1.0
 10
319.9192149286969
 20
646.0988941475031
 30
0.0
 10
318.622388062542
 20
646.0972566561555
 30
0.0
 10
316.181852846541
 20
646.0941750148017
 30
0.0
 10
312.7450017878843
 20
646.08461421547
 30
0.0
 10
308.8865220581851
 20
646.0690879493476
 30
0.0
 10
304.4534137665208
 20
646.0448730958622
 30
0.0
 10
297.5805371962027
 20
646.0080713565983
 30
0.0
 10
290.7085722830724
 20
645.9889868382007
 30
0.0
 10
284.5570419363839
 20
646.0039833633222
 30
0.0
 10
281.1235814385531
 20
646.0161144367215
 30
0.0
 10
279.4076090556777
 20
646.0286053907138
 30
0.0
 10
278.6896415670531
 20
646.0338316396661
 30
0.0
  0
SPLINE
  5
1C4
330
1F
100
AcDbEntity
  8
0
  6
Continuous
 62
     8
370
    18
100
AcDbSpline
210
0.0
220
0.0
230
1.0
 70
     8
 71
     3
 72
    10
 73
     6
 74
     0
 42
0.000000001
 43
0.00000001
 40
0.0
 40
0.0
 40
0.0
 40
0.0
 40
0.0078166815397227
 40
0.0234500446191681
 40
0.0325751471078963
 40
0.0325751471078963
 40
0.0325751471078963
 40
0.0325751471078963
 10
236.4453083014362
 20
636.3965703087473
 30
0.0
 10
236.4453314434409
 20
636.3965662728414
 30
0.0
 10
236.4461886790324
 20
636.3965359769335
 30
0.0
 10
236.4441202500416
 20
636.3967263038966
 30
0.0
 10
236.446131355937
 20
636.3962312448316
 30
0.0
 10
236.4473034101426
 20
636.3959720271445
 30
0.0
  0
SPLINE
  5
1C5
330
1F
100
AcDbEntity
  8
0
  6
Continuous
 62
     8
370
    25
100
AcDbSpline
210
0.0
220
0.0
230
1.0
 70
     8
 71
     3
 72
     9
 73
     5
 74
     0
 42
0.000000001
 43
0.00000001
 40
0.0
 40
0.0
 40
0.0
 40
0.0
 40
0.352506746818459
 40
1.0
 40
1.0
 40
1.0
 40
1.0
 10
236.4354915058487
 20
636.3982848005916
 30
0.0
 10
236.437961860426
 20
635.864227927579
 30
0.0
 10
236.444969824386
 20
634.3492019661392
 30
0.0
 10
236.4443811995199
 20
632.8341580382862
 30
0.0
 10
236.4440000688904
 20
631.8531773167277
 30
0.0
  0
LINE
  5
1C6
330
1F
100
AcDbEntity
  8
0
  6
Continuous
 62
     8
370
    25
100
AcDbLine
 10
236.4452890193
 20
627.3727855759
 30
0.0
 11
236.4453225469
 21
627.2107354479
 31
0.0
  0
SPLINE
  5
1C7
330
1F
100
AcDbEntity
  8
0
  6
Continuous
 62
     8
370
    18
100
AcDbSpline
210
0.0
220
0.0
230
1.0
 70
     8
 71
     3
 72
     8
 73
     4
 74
     0
 42
0.000000001
 43
0.00000001
 40
0.0
 40
0.0
 40
0.0
 40
0.0
 40
1.0
 40
1.0
 40
1.0
 40
1.0
 10
328.3014502335261
 20
646.10635775302
 30
0.0
 10
325.4654176832049
 20
646.106038607127
 30
0.0
 10
322.6753528496915
 20
646.1059736805973
 30
0.0
 10
319.9185908731624
 20
646.1061631035498
 30
0.0
  0
LINE
  5
1C8
330
1F
100
AcDbEntity
  8
0
  6
Continuous
 62
     8
370
    18
100
AcDbLine
 10
328.3171317613
 20
646.1063466149
 30
0.0
 11
328.3014520144
 21
646.1063615161
 31
0.0
  0
SPLINE
  5
1C9
330
1F
100
AcDbEntity
  8
0
  6
Continuous
 62
     8
370
    18
100
AcDbSpline
210
0.0
220
0.0
230
1.0
 70
     8
 71
     3
 72
     9
 73
     5
 74
     0
 42
0.000000001
 43
0.00000001
 40
0.0
 40
0.0
 40
0.0
 40
0.0
 40
0.4976708578321112
 40
1.0
 40
1.0
 40
1.0
 40
1.0
 10
332.5642655143654
 20
646.0975907644804
 30
0.0
 10
331.8597105067314
 20
646.1001151142203
 30
0.0
 10
330.4440057361061
 20
646.1051874420455
 30
0.0
 10
329.0282874788634
 20
646.1062215469019
 30
0.0
 10
328.3171309411512
 20
646.1067410079073
 30
0.0
  0
SPLINE
  5
1CA
330
1F
100
AcDbEntity
  8
0
  6
Continuous
 62
     8
370
    18
100
AcDbSpline
210
0.0
220
0.0
230
1.0
 70
     8
 71
     3
 72
    10
 73
     6
 74
     0
 42
0.000000001
 43
0.00000001
 40
0.0
 40
0.0
 40
0.0
 40
0.0
 40
0.4965199982285588
 40
0.7473474849113968
 40
1.0
 40
1.0
 40
1.0
 40
1.0
 10
319.9033260873464
 20
647.6076866184684
 30
0.0
 10
321.2907144375333
 20
647.6082525819488
 30
0.0
 10
323.3789710995142
 20
647.6091044537472
 30
0.0
 10
326.1731752391046
 20
647.6087272926259
 30
0.0
 10
327.5799881403569
 20
647.6084219262092
 30
0.0
 10
328.2859443183777
 20
647.6082686895503
 30
0.0
  0
LINE
  5
1CB
330
1F
100
AcDbEntity
  8
0
  6
Continuous
 62
     8
370
    18
100
AcDbLine
 10
328.2859436309
 20
647.608264454
 30
0.0
 11
328.3014482891
 21
647.608264454
 31
0.0
  0
SPLINE
  5
1CC
330
1F
100
AcDbEntity
  8
0
  6
Continuous
 62
     8
370
    18
100
AcDbSpline
210
0.0
220
0.0
230
1.0
 70
     8
 71
     3
 72
     9
 73
     5
 74
     0
 42
0.000000001
 43
0.00000001
 40
0.0
 40
0.0
 40
0.0
 40
0.0
 40
0.4977344376655763
 40
1.0
 40
1.0
 40
1.0
 40
1.0
 10
328.3014502335261
 20
647.6085834583818
 30
0.0
 10
329.0067845913705
 20
647.6083363030519
 30
0.0
 10
330.4238743172744
 20
647.6078397424141
 30
0.0
 10
331.8409069638131
 20
647.6042881399384
 30
0.0
 10
332.5526336628731
 20
647.6025042923239
 30
0.0
  0
SPLINE
  5
1CD
330
1F
100
AcDbEntity
  8
0
  6
Continuous
 62
     8
370
    18
100
AcDbSpline
210
0.0
220
0.0
230
1.0
 70
     8
 71
     3
 72
    25
 73
    21
 74
     0
 42
0.000000001
 43
0.00000001
 40
0.0
 40
0.0
 40
0.0
 40
0.0
 40
0.012623344790511
 40
0.0396270839090419
 40
0.0768069732232718
 40
0.1113188968617004
 40
0.1495903768965572
 40
0.2252843583155604
 40
0.2881534159776598
 40
0.3579445495265595
 40
0.4223069527469463
 40
0.4871283639297398
 40
0.5547424214016718
 40
0.6062024421494896
 40
0.683703846323165
 40
0.7498443440770312
 40
0.8023567529398851
 40
0.8694451362496219
 40
0.9350136615367352
 40
1.0
 40
1.0
 40
1.0
 40
1.0
 10
345.2397793762725
 20
645.9830623126522
 30
0.0
 10
345.2236745492142
 20
645.9795925935057
 30
0.0
 10
345.173118429282
 20
645.9687004841603
 30
0.0
 10
345.0618981111888
 20
645.9472297951799
 30
0.0
 10
344.8906641286572
 20
645.9183718495208
 30
0.0
 10
344.66476935485
 20
645.8921172388315
 30
0.0
 10
344.3062785907271
 20
645.8643405715117
 30
0.0
 10
343.7797749983353
 20
645.8416909736367
 30
0.0
 10
343.0399205330852
 20
645.8288974683156
 30
0.0
 10
342.2494539895314
 20
645.8308259857531
 30
0.0
 10
341.3787857996298
 20
645.8468964579678
 30
0.0
 10
340.462812765686
 20
645.8761910370031
 30
0.0
 10
339.5686006931133
 20
645.9161262152165
 30
0.0
 10
338.5866123681707
 20
645.9556234877011
 30
0.0
 10
337.5903636967878
 20
645.9854263546762
 30
0.0
 10
336.5747707547002
 20
646.0121067111515
 30
0.0
 10
335.6058077940662
 20
646.0368874207451
 30
0.0
 10
334.6345535001435
 20
646.0618187988032
 30
0.0
 10
333.5945893057185
 20
646.0859447395674
 30
0.0
 10
332.906684246958
 20
646.0924008059037
 30
0.0
 10
332.5642655143654
 20
646.0956144442164
 30
0.0
  0
SPLINE
  5
1CE
330
1F
100
AcDbEntity
  8
0
  6
Continuous
 62
     8
370
    18
100
AcDbSpline
210
0.0
220
0.0
230
1.0
 70
     8
 71
     3
 72
    23
 73
    19
 74
     0
 42
0.000000001
 43
0.00000001
 40
0.0
 40
0.0
 40
0.0
 40
0.0
 40
0.0473762381553991
 40
0.1169273846899152
 40
0.2094578964583027
 40
0.3578495429852085
 40
0.4651219645183921
 40
0.5287060517258454
 40
0.5867229008568244
 40
0.6390626137618879
 40
0.6856413375237381
 40
0.726397819380252
 40
0.7955317573660535
 40
0.8567522682164049
 40
0.8887536799703786
 40
0.923304348377442
 40
0.9603993773716886
 40
0.9999999999999999
 40
0.9999999999999999
 40
0.9999999999999999
 40
0.9999999999999999
 10
332.5526376881681
 20
647.6024645663972
 30
0.0
 10
332.7769731216496
 20
647.6017666585378
 30
0.0
 10
333.3306463669635
 20
647.6000441802676
 30
0.0
 10
334.322417462907
 20
647.5949903865308
 30
0.0
 10
335.7904958607121
 20
647.5872025608679
 30
0.0
 10
337.427024251472
 20
647.5773550665212
 30
0.0
 10
338.8876427146137
 20
647.5716326623553
 30
0.0
 10
339.8930024940046
 20
647.5696479051038
 30
0.0
 10
340.6288057642482
 20
647.5686493873112
 30
0.0
 10
341.2604626945079
 20
647.5680466745841
 30
0.0
 10
341.7909254786822
 20
647.5682948505918
 30
0.0
 10
342.3473440034634
 20
647.5697082148981
 30
0.0
 10
342.8955334114855
 20
647.5730833978577
 30
0.0
 10
343.3329859211669
 20
647.5791386156403
 30
0.0
 10
343.6212685177127
 20
647.5866569293005
 30
0.0
 10
343.8232007418737
 20
647.5940805908444
 30
0.0
 10
344.0088699869148
 20
647.6029082367698
 30
0.0
 10
344.108777576632
 20
647.6094681597865
 30
0.0
 10
344.1603633272501
 20
647.6128552753577
 30
0.0
  0
SPLINE
  5
1CF
330
1F
100
AcDbEntity
  8
0
  6
Continuous
 62
     8
370
    18
100
AcDbSpline
210
0.0
220
0.0
230
1.0
 70
     8
 71
     3
 72
     8
 73
     4
 74
     0
 42
0.000000001
 43
0.00000001
 40
0.0
 40
0.0
 40
0.0
 40
0.0
 40
1.0
 40
1.0
 40
1.0
 40
1.0
 10
328.3014529484915
 20
647.6082627402964
 30
0.0
 10
328.3014690979467
 20
648.7972144389165
 30
0.0
 10
328.301446850304
 20
649.3941967998189
 30
0.0
 10
328.3014400886232
 20
649.3931084495734
 30
0.0
  0
SPLINE
  5
1D0
330
1F
100
AcDbEntity
  8
0
  6
Continuous
 62
     8
370
    18
100
AcDbSpline
210
0.0
220
0.0
230
1.0
 70
     8
 71
     3
 72
    11
 73
     7
 74
     0
 42
0.000000001
 43
0.00000001
 40
0.0
 40
0.0
 40
0.0
 40
0.0
 40
0.2823754527206392
 40
0.5876523710718553
 40
0.89308741729101
 40
1.0
 40
1.0
 40
1.0
 40
1.0
 10
344.1603629922741
 20
647.6128540115977
 30
0.0
 10
344.352486714763
 20
647.6369184926624
 30
0.0
 10
344.7523159491104
 20
647.6869991537818
 30
0.0
 10
344.8174662953195
 20
647.6833880452997
 30
0.0
 10
344.9099221356818
 20
647.7040666668111
 30
0.0
 10
344.9189145514504
 20
647.6937579334804
 30
0.0
 10
344.9212460851543
 20
647.6910851078654
 30
0.0
  0
LINE
  5
1D1
330
1F
100
AcDbEntity
  8
0
  6
Continuous
 62
     8
370
    18
100
AcDbLine
 10
259.2903402707
 20
612.9276297169
 30
0.0
 11
239.6953067815
 21
612.9276297169
 31
0.0
  0
SPLINE
  5
1D2
330
1F
100
AcDbEntity
  8
0
  6
Continuous
 62
     8
370
    18
100
AcDbSpline
210
0.0
220
0.0
230
1.0
 70
     8
 71
     3
 72
    22
 73
    18
 74
     0
 42
0.000000001
 43
0.00000001
 40
0.0
 40
0.0
 40
0.0
 40
0.0
 40
0.0248466288655638
 40
0.0629444714697011
 40
0.0950381292779439
 40
0.1259030257033298
 40
0.2518517103705004
 40
0.5038945427193922
 40
0.604428908027181
 40
0.6799362172943006
 40
0.7555963021693723
 40
0.7948849813345962
 40
0.856021163972832
 40
0.8823721700308885
 40
0.9294404519795033
 40
0.965118927074506
 40
1.0
 40
1.0
 40
1.0
 40
1.0
 10
345.9396081166938
 20
646.2540879958631
 30
0.0
 10
345.9395893894757
 20
646.2547052803014
 30
0.0
 10
345.9395419474322
 20
646.2562690595544
 30
0.0
 10
345.9390395657246
 20
646.2634904792499
 30
0.0
 10
345.9376066264061
 20
646.2703852548188
 30
0.0
 10
345.9331189524618
 20
646.2799934914992
 30
0.0
 10
345.9139092757349
 20
646.2859643141497
 30
0.0
 10
345.8648746684843
 20
646.2793929234322
 30
0.0
 10
345.7958885092932
 20
646.266925864702
 30
0.0
 10
345.7472431973039
 20
646.2556798086191
 30
0.0
 10
345.7041909962422
 20
646.2318310239223
 30
0.0
 10
345.6558736018744
 20
646.1775855526699
 30
0.0
 10
345.6099553681647
 20
646.1351071070648
 30
0.0
 10
345.5415275220545
 20
646.0888342294018
 30
0.0
 10
345.4689147877806
 20
646.0516463135398
 30
0.0
 10
345.3646306591072
 20
646.0142864336382
 30
0.0
 10
345.2811398828246
 20
645.9945977732744
 30
0.0
 10
345.2398662644721
 20
645.9848646950842
 30
0.0
  0
LINE
  5
1D3
330
1F
100
AcDbEntity
  8
0
  6
Continuous
 62
     8
370
    18
100
AcDbLine
 10
285.4877933001
 20
623.4151563721
 30
0.0
 11
285.4877933001
 21
629.4230065423
 31
0.0
  0
SPLINE
  5
1D4
330
1F
100
AcDbEntity
  8
0
  6
Continuous
 62
     8
370
    18
100
AcDbSpline
210
0.0
220
0.0
230
1.0
 70
     8
 71
     3
 72
     8
 73
     4
 74
     0
 42
0.000000001
 43
0.00000001
 40
0.0
 40
0.0
 40
0.0
 40
0.0
 40
1.0
 40
1.0
 40
1.0
 40
1.0
 10
236.4453036163775
 20
636.3959892802408
 30
0.0
 10
236.4388587485763
 20
636.3962112325476
 30
0.0
 10
236.4355778152369
 20
636.3964344107704
 30
0.0
 10
236.4354784609981
 20
636.3966586686716
 30
0.0
  0
LINE
  5
1D5
330
1F
100
AcDbEntity
  8
0
  6
Continuous
 62
     7
370
    25
100
AcDbLine
 10
235.9454244946
 20
381.7965703087
 30
0.0
 11
283.4453083014
 21
381.7965703087
 31
0.0
  0
SPLINE
  5
1D6
330
1F
100
AcDbEntity
  8
0
  6
Continuous
 62
     7
370
    25
100
AcDbSpline
210
0.0
220
0.0
230
1.0
 70
     8
 71
     3
 72
     9
 73
     5
 74
     0
 42
0.000000001
 43
0.00000001
 40
0.0
 40
0.0
 40
0.0
 40
0.0
 40
0.238428549293902
 40
1.0
 40
1.0
 40
1.0
 40
1.0
 10
105.2069481835403
 20
312.4160037103891
 30
0.0
 10
105.2070789771809
 20
312.3428184862868
 30
0.0
 10
105.2076275425311
 20
312.0358702440607
 30
0.0
 10
105.2085149693614
 20
311.8422588049247
 30
0.0
 10
105.2091908083
 20
311.6948098603486
 30
0.0
  0
SPLINE
  5
1D7
330
1F
100
AcDbEntity
  8
0
  6
Continuous
 62
     7
370
    25
100
AcDbSpline
210
0.0
220
0.0
230
1.0
 70
     8
 71
     3
 72
     9
 73
     5
 74
     0
 42
0.000000001
 43
0.00000001
 40
0.0
 40
0.0
 40
0.0
 40
0.0
 40
0.5955975606301475
 40
0.9999999999999999
 40
0.9999999999999999
 40
0.9999999999999999
 40
0.9999999999999999
 10
105.2762404457368
 20
296.920288047552
 30
0.0
 10
105.2770150552432
 20
296.7772678754511
 30
0.0
 10
105.2783156138042
 20
296.5371390005954
 30
0.0
 10
105.2799123380235
 20
296.2842434211934
 30
0.0
 10
105.2805580571927
 20
296.1819718319773
 30
0.0
  0
SPLINE
  5
1D8
330
1F
100
AcDbEntity
  8
0
  6
Continuous
 62
     7
370
    25
100
AcDbSpline
210
0.0
220
0.0
230
1.0
 70
     8
 71
     3
 72
     9
 73
     5
 74
     0
 42
0.000000001
 43
0.00000001
 40
0.0
 40
0.0
 40
0.0
 40
0.0
 40
0.8636280317038172
 40
0.9999999999999999
 40
0.9999999999999999
 40
0.9999999999999999
 40
0.9999999999999999
 10
153.1291272864379
 20
295.7889266971349
 30
0.0
 10
153.1315499868155
 20
296.155651435091
 30
0.0
 10
153.1343552458954
 20
296.5802841756848
 30
0.0
 10
153.1365635619772
 20
296.9835184243532
 30
0.0
 10
153.1368647143878
 20
297.0385082725286
 30
0.0
  0
SPLINE
  5
1D9
330
1F
100
AcDbEntity
  8
0
  6
Continuous
 62
     7
370
    25
100
AcDbSpline
210
0.0
220
0.0
230
1.0
 70
     8
 71
     3
 72
     9
 73
     5
 74
     0
 42
0.000000001
 43
0.00000001
 40
0.0
 40
0.0
 40
0.0
 40
0.0
 40
0.7528507592124348
 40
1.0
 40
1.0
 40
1.0
 40
1.0
 10
153.2030929253139
 20
311.6936736468076
 30
0.0
 10
153.203720678385
 20
311.8467256524711
 30
0.0
 10
153.2045545130639
 20
312.0500222604516
 30
0.0
 10
153.2050792114064
 20
312.3416441228919
 30
0.0
 10
153.2052088902034
 20
312.413718244791
 30
0.0
  0
SPLINE
  5
1DA
330
1F
100
AcDbEntity
  8
0
  6
Continuous
 62
     7
370
    25
100
AcDbSpline
210
0.0
220
0.0
230
1.0
 70
     8
 71
     3
 72
    10
 73
     6
 74
     0
 42
0.000000001
 43
0.00000001
 40
0.0
 40
0.0
 40
0.0
 40
0.0
 40
0.2438522639868908
 40
0.4958314530558259
 40
1.0
 40
1.0
 40
1.0
 40
1.0
 10
113.0402706936635
 20
212.2530990008115
 30
0.0
 10
114.3526373138477
 20
212.0776837591867
 30
0.0
 10
117.021108123136
 20
211.7210071685291
 30
0.0
 10
122.4605570913855
 20
211.6355556139943
 30
0.0
 10
126.5658143758151
 20
211.5837483648793
 30
0.0
 10
129.3030329130758
 20
211.5492053989171
 30
0.0
  0
SPLINE
  5
1DB
330
1F
100
AcDbEntity
  8
0
  6
Continuous
 62
     7
370
    25
100
AcDbSpline
210
0.0
220
0.0
230
1.0
 70
     8
 71
     3
 72
    10
 73
     6
 74
     0
 42
0.000000001
 43
0.00000001
 40
0.0
 40
0.0
 40
0.0
 40
0.0
 40
0.5041685469441742
 40
0.7561477360131093
 40
1.0
 40
1.0
 40
1.0
 40
1.0
 10
129.1091278859582
 20
211.5492053989171
 30
0.0
 10
131.846346423219
 20
211.5837483648793
 30
0.0
 10
135.9516037076485
 20
211.6355556139943
 30
0.0
 10
141.391052675898
 20
211.7210071685291
 30
0.0
 10
144.0595234851863
 20
212.0776837591867
 30
0.0
 10
145.3718901053705
 20
212.2530990008115
 30
0.0
  0
SPLINE
  5
1DC
330
1F
100
AcDbEntity
  8
0
  6
Continuous
 62
     7
370
    25
100
AcDbSpline
210
0.0
220
0.0
230
1.0
 70
     8
 71
     3
 72
     9
 73
     5
 74
     0
 42
0.000000001
 43
0.00000001
 40
0.0
 40
0.0
 40
0.0
 40
0.0
 40
0.5311154101230483
 40
1.0
 40
1.0
 40
1.0
 40
1.0
 10
105.496393926505
 20
278.7969751942753
 30
0.0
 10
105.5605758810736
 20
271.4538995559683
 30
0.0
 10
105.6814195872535
 20
257.6281368340661
 30
0.0
 10
105.8233520051237
 20
243.8026226848996
 30
0.0
 10
105.889901928667
 20
237.3200521532297
 30
0.0
  0
SPLINE
  5
1DD
330
1F
100
AcDbEntity
  8
0
  6
Continuous
 62
     7
370
    25
100
AcDbSpline
210
0.0
220
0.0
230
1.0
 70
     8
 71
     3
 72
     9
 73
     5
 74
     0
 42
0.000000001
 43
0.00000001
 40
0.0
 40
0.0
 40
0.0
 40
0.0
 40
0.4063608997730186
 40
1.0
 40
1.0
 40
1.0
 40
1.0
 10
152.522258870367
 20
237.3200521532297
 30
0.0
 10
152.5812087989177
 20
242.9381867811856
 30
0.0
 10
152.7262767141223
 20
256.7636671142936
 30
0.0
 10
152.8451807736297
 20
270.5894499260002
 30
0.0
 10
152.915766872529
 20
278.7969751942753
 30
0.0
  0
SPLINE
  5
1DE
330
1F
100
AcDbEntity
  8
0
  6
Continuous
 62
     7
370
    25
100
AcDbSpline
210
0.0
220
0.0
230
1.0
 70
     8
 71
     3
 72
    17
 73
    13
 74
     0
 42
0.000000001
 43
0.00000001
 40
0.0
 40
0.0
 40
0.0
 40
0.0
 40
0.0568838746904255
 40
0.1161621943582956
 40
0.2356522680424931
 40
0.3590909968846435
 40
0.488575579144262
 40
0.62416119121493
 40
0.7595579018134847
 40
0.8442446525756172
 40
0.9232784609959793
 40
1.0
 40
1.0
 40
1.0
 40
1.0
 10
145.1494790986814
 20
212.2013323668241
 30
0.0
 10
145.4434086831806
 20
212.275632892876
 30
0.0
 10
146.0436403957366
 20
212.427361518873
 30
0.0
 10
147.2158433306332
 20
212.8853447344194
 30
0.0
 10
148.5962199230142
 20
213.7509784110883
 30
0.0
 10
149.9724736731491
 20
215.2087505807842
 30
0.0
 10
151.0270483578001
 20
217.0094815488704
 30
0.0
 10
151.7331823639008
 20
219.0341145396516
 30
0.0
 10
152.1002376675503
 20
220.8989155370426
 30
0.0
 10
152.2746323255921
 20
222.4846506591982
 30
0.0
 10
152.3464207133988
 20
223.7650143819849
 30
0.0
 10
152.3612729226723
 20
224.5952500034274
 30
0.0
 10
152.3685887829103
 20
225.0042051736116
 30
0.0
  0
SPLINE
  5
1DF
330
1F
100
AcDbEntity
  8
0
  6
Continuous
 62
     7
370
    25
100
AcDbSpline
210
0.0
220
0.0
230
1.0
 70
     8
 71
     3
 72
    16
 73
    12
 74
     0
 42
0.000000001
 43
0.00000001
 40
0.0
 40
0.0
 40
0.0
 40
0.0
 40
0.1156077726263172
 40
0.2404212347202667
 40
0.3758216643831546
 40
0.5114110007068842
 40
0.6408991396370411
 40
0.7643412590827872
 40
0.8838346149092854
 40
0.9431145628285617
 40
1.0
 40
1.0
 40
1.0
 40
1.0
 10
106.0435720161237
 20
225.0042051736116
 30
0.0
 10
106.055764200082
 20
224.3878878769227
 30
0.0
 10
106.0811194150005
 20
223.1061767766806
 30
0.0
 10
106.2708325829045
 20
221.1091102904682
 30
0.0
 10
106.6788902470791
 20
219.0341631294519
 30
0.0
 10
107.3851349451112
 20
217.0094691496977
 30
0.0
 10
108.4396815052922
 20
215.2087536776149
 30
0.0
 10
109.8159423311217
 20
213.7509776093572
 30
0.0
 10
111.1963172929298
 20
212.8853448311003
 30
0.0
 10
112.3685204326359
 20
212.4273615027081
 30
0.0
 10
112.9687521254975
 20
212.2756328875622
 30
0.0
 10
113.2626817003526
 20
212.2013323668241
 30
0.0
  0
SPLINE
  5
1E0
330
1F
100
AcDbEntity
  8
0
  6
Continuous
 62
     7
370
    25
100
AcDbSpline
210
0.0
220
0.0
230
1.0
 70
     8
 71
     3
 72
     9
 73
     5
 74
     0
 42
0.000000001
 43
0.00000001
 40
0.0
 40
0.0
 40
0.0
 40
0.0
 40
0.5097180750345988
 40
1.0
 40
1.0
 40
1.0
 40
1.0
 10
153.1210266426839
 20
301.9619953546523
 30
0.0
 10
153.1295882294539
 20
302.3060773838627
 30
0.0
 10
153.1463849396146
 20
302.9811211895722
 30
0.0
 10
153.1526615762118
 20
303.6486093974528
 30
0.0
 10
153.155738897685
 20
303.9758668009042
 30
0.0
  0
SPLINE
  5
1E1
330
1F
100
AcDbEntity
  8
0
  6
Continuous
 62
     7
370
    25
100
AcDbSpline
210
0.0
220
0.0
230
1.0
 70
     8
 71
     3
 72
     9
 73
     5
 74
     0
 42
0.000000001
 43
0.00000001
 40
0.0
 40
0.0
 40
0.0
 40
0.0
 40
0.4902819249654012
 40
1.0
 40
1.0
 40
1.0
 40
1.0
 10
105.256421901349
 20
303.9758668009042
 30
0.0
 10
105.2594992228222
 20
303.6486093974528
 30
0.0
 10
105.2657758594194
 20
302.9811211895722
 30
0.0
 10
105.2825725695801
 20
302.3060773838627
 30
0.0
 10
105.2911341563501
 20
301.9619953546523
 30
0.0
  0
LINE
  5
1E2
330
1F
100
AcDbEntity
  8
0
  6
Continuous
 62
     7
370
    25
100
AcDbLine
 10
152.9152229801
 20
278.7969374757
 30
0.0
 11
153.1158410386
 21
301.2234071929
 31
0.0
  0
LINE
  5
1E3
330
1F
100
AcDbEntity
  8
0
  6
Continuous
 62
     7
370
    25
100
AcDbLine
 10
105.2963197604
 20
301.2234071929
 30
0.0
 11
105.4969378189
 21
278.7969374757
 31
0.0
  0
LINE
  5
1E4
330
1F
100
AcDbEntity
  8
0
  6
Continuous
 62
     7
370
    25
100
AcDbLine
 10
152.3719098792
 20
224.2424093846
 30
0.0
 11
152.3620937393
 21
224.7352876428
 31
0.0
  0
LINE
  5
1E5
330
1F
100
AcDbEntity
  8
0
  6
Continuous
 62
     7
370
    25
100
AcDbLine
 10
106.0508586839
 20
224.7750774685
 30
0.0
 11
106.0402509198
 21
224.2424093846
 31
0.0
  0
SPLINE
  5
1E6
330
1F
100
AcDbEntity
  8
0
  6
Continuous
 62
     7
370
    25
100
AcDbSpline
210
0.0
220
0.0
230
1.0
 70
     8
 71
     3
 72
    12
 73
     8
 74
     0
 42
0.000000001
 43
0.00000001
 40
0.0
 40
0.0
 40
0.0
 40
0.0
 40
0.0899738531627755
 40
0.2142186488434743
 40
0.4830769082670562
 40
0.7475562634976448
 40
0.9999999999999999
 40
0.9999999999999999
 40
0.9999999999999999
 40
0.9999999999999999
 10
153.1443488225974
 20
302.3034088972806
 30
0.0
 10
153.1470500850456
 20
302.6856650833857
 30
0.0
 10
153.1534815178615
 20
303.5957784198829
 30
0.0
 10
153.1665874231726
 20
305.1886051134553
 30
0.0
 10
153.1802819575595
 20
306.4949083671814
 30
0.0
 10
153.1971601955954
 20
308.4665900432191
 30
0.0
 10
153.2025592016855
 20
310.4060081431127
 30
0.0
 10
153.2051958516874
 20
311.3531392726898
 30
0.0
  0
LINE
  5
1E7
330
1F
100
AcDbEntity
  8
0
  6
Continuous
 62
     7
370
    25
100
AcDbLine
 10
153.2049145923
 20
311.5297981266
 30
0.0
 11
153.2051958517
 21
311.3531392727
 31
0.0
  0
SPLINE
  5
1E8
330
1F
100
AcDbEntity
  8
0
  6
Continuous
 62
     7
370
    25
100
AcDbSpline
210
0.0
220
0.0
230
1.0
 70
     8
 71
     3
 72
     9
 73
     5
 74
     0
 42
0.000000001
 43
0.00000001
 40
0.0
 40
0.0
 40
0.0
 40
0.0
 40
0.8690113043104468
 40
1.0
 40
1.0
 40
1.0
 40
1.0
 10
153.1969592348375
 20
310.2696702543496
 30
0.0
 10
153.1946325758227
 20
309.1222954707247
 30
0.0
 10
153.1919552124752
 20
307.8019734243557
 30
0.0
 10
153.1937973129102
 20
308.3394690953188
 30
0.0
 10
153.1940386072435
 20
308.409874952197
 30
0.0
  0
LINE
  5
1E9
330
1F
100
AcDbEntity
  8
0
  6
Continuous
 62
     7
370
    25
100
AcDbLine
 10
105.2079409734
 20
311.6710946623
 30
0.0
 11
105.2079577372
 21
311.6636198673
 31
0.0
  0
SPLINE
  5
1EA
330
1F
100
AcDbEntity
  8
0
  6
Continuous
 62
     7
370
    25
100
AcDbSpline
210
0.0
220
0.0
230
1.0
 70
     8
 71
     3
 72
     9
 73
     5
 74
     0
 42
0.000000001
 43
0.00000001
 40
0.0
 40
0.0
 40
0.0
 40
0.0
 40
0.1309886956895533
 40
1.0
 40
1.0
 40
1.0
 40
1.0
 10
105.2181221917905
 20
308.409874952197
 30
0.0
 10
105.2183634861238
 20
308.3394690953188
 30
0.0
 10
105.2202055865588
 20
307.8019734243557
 30
0.0
 10
105.2175282232113
 20
309.1222954707247
 30
0.0
 10
105.2152015641965
 20
310.2696702543496
 30
0.0
  0
SPLINE
  5
1EB
330
1F
100
AcDbEntity
  8
0
  6
Continuous
 62
     7
370
    25
100
AcDbSpline
210
0.0
220
0.0
230
1.0
 70
     8
 71
     3
 72
    13
 73
     9
 74
     0
 42
0.000000001
 43
0.00000001
 40
0.0
 40
0.0
 40
0.0
 40
0.0
 40
0.0315652617186202
 40
0.2760405456090521
 40
0.5321715407726152
 40
0.7925432188722792
 40
0.9128661950601403
 40
1.0
 40
1.0
 40
1.0
 40
1.0
 10
105.2072629705705
 20
311.5401972744464
 30
0.0
 10
105.2071351786658
 20
311.4817221208775
 30
0.0
 10
105.2060176290188
 20
310.9703525830733
 30
0.0
 10
105.2164472268193
 20
308.2694322821981
 30
0.0
 10
105.2314664145169
 20
306.5511173132143
 30
0.0
 10
105.2456210920253
 20
305.1821019612397
 30
0.0
 10
105.258673831005
 20
303.5965212136385
 30
0.0
 10
105.2651091019416
 20
302.6858847864219
 30
0.0
 10
105.2678119764366
 20
302.3034088972806
 30
0.0
  0
SPLINE
  5
1EC
330
1F
100
AcDbEntity
  8
0
  6
Continuous
 62
     7
370
    25
100
AcDbSpline
210
0.0
220
0.0
230
1.0
 70
     8
 71
     3
 72
    16
 73
    12
 74
     0
 42
0.000000001
 43
0.00000001
 40
0.0
 40
0.0
 40
0.0
 40
0.0
 40
0.2036825571242323
 40
0.3684384018312245
 40
0.4956747843302107
 40
0.586616850964036
 40
0.6349104629589344
 40
0.6785663966516908
 40
0.7539231641073115
 40
0.8644325887657122
 40
1.0
 40
1.0
 40
1.0
 40
1.0
 10
129.206080399517
 20
321.0432358745336
 30
0.0
 10
127.4558953514553
 20
320.9740369763862
 30
0.0
 10
124.2900111877787
 20
320.8488641005056
 30
0.0
 10
120.1072165720905
 20
319.9900928029447
 30
0.0
 10
116.978369088197
 20
319.0468916545993
 30
0.0
 10
114.8653935295173
 20
318.2296552934063
 30
0.0
 10
113.5450420684312
 20
317.6480510742405
 30
0.0
 10
112.5073163484023
 20
317.1598670936413
 30
0.0
 10
110.7902120589621
 20
316.275797903957
 30
0.0
 10
108.5033956458685
 20
314.9311647722888
 30
0.0
 10
106.8402040216879
 20
313.6868089817444
 30
0.0
 10
105.923926867608
 20
313.0012747559547
 30
0.0
  0
SPLINE
  5
1ED
330
1F
100
AcDbEntity
  8
0
  6
Continuous
 62
     7
370
    25
100
AcDbSpline
210
0.0
220
0.0
230
1.0
 70
     8
 71
     3
 72
    16
 73
    12
 74
     0
 42
0.000000001
 43
0.00000001
 40
0.0
 40
0.0
 40
0.0
 40
0.0
 40
0.1450982955734765
 40
0.2543892879810603
 40
0.328915202176255
 40
0.3720898031888787
 40
0.4198509493371317
 40
0.5097903255010257
 40
0.6356238510727115
 40
0.798563164426635
 40
0.9999999999999999
 40
0.9999999999999999
 40
0.9999999999999999
 40
0.9999999999999999
 10
152.7164712921418
 20
312.8375128570794
 30
0.0
 10
151.7251484380642
 20
313.5801731972929
 30
0.0
 10
149.9871410134322
 20
314.8822204364557
 30
0.0
 10
147.622095643841
 20
316.2761587237962
 30
0.0
 10
145.9048267998935
 20
317.1598237405228
 30
0.0
 10
144.8671227135328
 20
317.6480608569724
 30
0.0
 10
143.5467650481688
 20
318.2296498374102
 30
0.0
 10
141.4337927720146
 20
319.0468942610262
 30
0.0
 10
138.3049438017825
 20
319.9900917586793
 30
0.0
 10
134.1221497612149
 20
320.8488644688309
 30
0.0
 10
130.9562655009663
 20
320.9740371075148
 30
0.0
 10
129.206080399517
 20
321.0432358745336
 30
0.0
  0
SPLINE
  5
1EE
330
1F
100
AcDbEntity
  8
0
  6
Continuous
 62
     7
370
    25
100
AcDbSpline
210
0.0
220
0.0
230
1.0
 70
     8
 71
     3
 72
     9
 73
     5
 74
     0
 42
0.000000001
 43
0.00000001
 40
0.0
 40
0.0
 40
0.0
 40
0.0
 40
0.5251525780568763
 40
1.0
 40
1.0
 40
1.0
 40
1.0
 10
153.1643536315002
 20
312.0332338575124
 30
0.0
 10
153.1071225614479
 20
312.2108332187801
 30
0.0
 10
152.9981426717099
 20
312.5490194311087
 30
0.0
 10
152.7473097617825
 20
312.7849857056783
 30
0.0
 10
152.6282024011649
 20
312.8970336828231
 30
0.0
  0
SPLINE
  5
1EF
330
1F
100
AcDbEntity
  8
0
  6
Continuous
 62
     7
370
    25
100
AcDbSpline
210
0.0
220
0.0
230
1.0
 70
     8
 71
     3
 72
     9
 73
     5
 74
     0
 42
0.000000001
 43
0.00000001
 40
0.0
 40
0.0
 40
0.0
 40
0.0
 40
0.4766526603147639
 40
1.0
 40
1.0
 40
1.0
 40
1.0
 10
105.7863220945634
 20
312.8996451113223
 30
0.0
 10
105.6663085295433
 20
312.7868117162811
 30
0.0
 10
105.4145244212979
 20
312.5500913443299
 30
0.0
 10
105.3050830290291
 20
312.2108007089294
 30
0.0
 10
105.2478071675338
 20
312.0332338575124
 30
0.0
  0
SPLINE
  5
1F0
330
1F
100
AcDbEntity
  8
0
  6
Continuous
 62
     7
370
    25
100
AcDbSpline
210
0.0
220
0.0
230
1.0
 70
     8
 71
     3
 72
    18
 73
    14
 74
     0
 42
0.000000001
 43
0.00000001
 40
0.0
 40
0.0
 40
0.0
 40
0.0
 40
0.0206196847192119
 40
0.0862186575519961
 40
0.1491809021038829
 40
0.2144469599194445
 40
0.2808260884621675
 40
0.3478937320421796
 40
0.4175964334156168
 40
0.5092295106980858
 40
0.615858882316179
 40
0.7769607665553315
 40
1.0
 40
1.0
 40
1.0
 40
1.0
 10
108.2069002465047
 20
104.3640129927396
 30
0.0
 10
108.2597264037493
 20
104.2132600936583
 30
0.0
 10
108.4806124368422
 20
103.5829055194807
 30
0.0
 10
109.0856334955769
 20
102.5848936336112
 30
0.0
 10
110.0480596281451
 20
101.4267312610326
 30
0.0
 10
111.2415258247912
 20
100.4891992397103
 30
0.0
 10
112.6111809274793
 20
99.77050511149882
 30
0.0
 10
114.1200772638756
 20
99.30723148054965
 30
0.0
 10
115.8581286627622
 20
98.97425913903413
 30
0.0
 10
117.9275658209331
 20
98.79493646517817
 30
0.0
 10
120.7085035620918
 20
98.76774737945576
 30
0.0
 10
124.5055999735762
 20
98.66439517205417
 30
0.0
 10
127.4793514613279
 20
98.66072674489865
 30
0.0
 10
129.2059649940896
 20
98.65859679019442
 30
0.0
  0
SPLINE
  5
1F1
330
1F
100
AcDbEntity
  8
0
  6
Continuous
 62
     7
370
    25
100
AcDbSpline
210
0.0
220
0.0
230
1.0
 70
     8
 71
     3
 72
    17
 73
    13
 74
     0
 42
0.000000001
 43
0.00000001
 40
0.0
 40
0.0
 40
0.0
 40
0.0
 40
0.2242624674366971
 40
0.4284508224356482
 40
0.5422055637962011
 40
0.630928686072206
 40
0.7004372067597108
 40
0.7668471834606758
 40
0.831150203026402
 40
0.9005749468152504
 40
0.9650636288847456
 40
1.0
 40
1.0
 40
1.0
 40
1.0
 10
129.2061455056881
 20
98.66455725467196
 30
0.0
 10
130.9417494927129
 20
98.66849218619572
 30
0.0
 10
134.2576006209152
 20
98.67600982687289
 30
0.0
 10
138.4505137669041
 20
98.75550837569635
 30
0.0
 10
141.5979028072771
 20
98.85397663341206
 30
0.0
 10
143.6832670737831
 20
99.16465752004247
 30
0.0
 10
145.3693128228782
 20
99.60770455760654
 30
0.0
 10
146.7858549510724
 20
100.2554251325286
 30
0.0
 10
148.06309411428
 20
101.1490615573736
 30
0.0
 10
149.1145240444159
 20
102.278325399306
 30
0.0
 10
149.8271631523022
 20
103.3877813163468
 30
0.0
 10
150.103510932173
 20
104.1068342556844
 30
0.0
 10
150.2006151155271
 20
104.3594979408979
 30
0.0
  0
SPLINE
  5
1F2
330
1F
100
AcDbEntity
  8
0
  6
Continuous
 62
     7
370
    25
100
AcDbSpline
210
0.0
220
0.0
230
1.0
 70
     8
 71
     3
 72
    13
 73
     9
 74
     0
 42
0.000000001
 43
0.00000001
 40
0.0
 40
0.0
 40
0.0
 40
0.0
 40
0.0131933648276717
 40
0.0301501118911177
 40
0.4001503066692546
 40
0.6684678876763176
 40
0.8855509715919075
 40
0.9999999999999999
 40
0.9999999999999999
 40
0.9999999999999999
 40
0.9999999999999999
 10
153.1731434539594
 20
312.7447717550992
 30
0.0
 10
153.1725892431139
 20
312.7474836160355
 30
0.0
 10
153.1713227338329
 20
312.7536808910849
 30
0.0
 10
153.1633725229755
 20
312.7907764904371
 30
0.0
 10
153.1420763677816
 20
312.898218452491
 30
0.0
 10
153.0411014709485
 20
313.1386697426876
 30
0.0
 10
152.8808329699824
 20
313.4432714568309
 30
0.0
 10
152.6592588990377
 20
313.6097612367093
 30
0.0
 10
152.5827687606849
 20
313.667235589385
 30
0.0
  0
LINE
  5
1F3
330
1F
100
AcDbEntity
  8
0
  6
Continuous
 62
     7
370
    25
100
AcDbLine
 10
153.0654397235
 20
313.0771253917
 30
0.0
 11
153.0585945026
 21
313.0923227135
 31
0.0
  0
SPLINE
  5
1F4
330
1F
100
AcDbEntity
  8
0
  6
Continuous
 62
     7
370
    25
100
AcDbSpline
210
0.0
220
0.0
230
1.0
 70
     8
 71
     3
 72
    10
 73
     6
 74
     0
 42
0.000000001
 43
0.00000001
 40
0.0
 40
0.0
 40
0.0
 40
0.0
 40
0.0078166815397227
 40
0.0234500446191681
 40
0.0325751471078963
 40
0.0325751471078963
 40
0.0325751471078963
 40
0.0325751471078963
 10
129.206080399517
 20
321.0409553412198
 30
0.0
 10
129.1412039859752
 20
321.0409321992151
 30
0.0
 10
128.9466571607241
 20
321.0400749636236
 30
0.0
 10
128.6560979577766
 20
321.0421433926145
 30
0.0
 10
128.437832421807
 20
321.0401322867191
 30
0.0
 10
128.3576633447279
 20
321.0389602325135
 30
0.0
  0
SPLINE
  5
1F5
330
1F
100
AcDbEntity
  8
0
  6
Continuous
 62
     7
370
    25
100
AcDbSpline
210
0.0
220
0.0
230
1.0
 70
     8
 71
     3
 72
     8
 73
     4
 74
     0
 42
0.000000001
 43
0.00000001
 40
0.0
 40
0.0
 40
0.0
 40
0.0
 40
1.0
 40
1.0
 40
1.0
 40
1.0
 10
130.0545430899554
 20
321.0409600262786
 30
0.0
 10
129.7720394763432
 20
321.0474048940798
 30
0.0
 10
129.4892033743419
 20
321.0506858274192
 30
0.0
 10
129.2060839190623
 20
321.0507851816579
 30
0.0
  0
SPLINE
  5
1F6
330
1F
100
AcDbEntity
  8
0
  6
Continuous
 62
     7
370
    25
100
AcDbSpline
210
0.0
220
0.0
230
1.0
 70
     8
 71
     3
 72
     9
 73
     5
 74
     0
 42
0.000000001
 43
0.00000001
 40
0.0
 40
0.0
 40
0.0
 40
0.0
 40
0.5508109630110827
 40
1.0
 40
1.0
 40
1.0
 40
1.0
 10
105.2066855505742
 20
312.4215096894502
 30
0.0
 10
105.206173929555
 20
312.4219704273347
 30
0.0
 10
105.2052450790897
 20
312.4228068992197
 30
0.0
 10
105.2053907644907
 20
312.4225132923618
 30
0.0
 10
105.2054562047758
 20
312.42238140738
 30
0.0
  0
SPLINE
  5
1F7
330
1F
100
AcDbEntity
  8
0
  6
Continuous
 62
     7
370
    25
100
AcDbSpline
210
0.0
220
0.0
230
1.0
 70
     8
 71
     3
 72
    15
 73
    11
 74
     0
 42
0.000000001
 43
0.00000001
 40
0.0
 40
0.0
 40
0.0
 40
0.0
 40
0.0450708795659166
 40
0.1586662905456159
 40
0.2921145793426454
 40
0.3934791488876038
 40
0.5833799212100104
 40
0.7466943095810602
 40
0.85557124550446
 40
0.9999999999999999
 40
0.9999999999999999
 40
0.9999999999999999
 40
0.9999999999999999
 10
105.229586772684
 20
306.9171231899261
 30
0.0
 10
105.2302408327821
 20
306.7646976166399
 30
0.0
 10
105.2325433680456
 20
306.2281028013059
 30
0.0
 10
105.2370613765887
 20
305.2033759441741
 30
0.0
 10
105.2427849127005
 20
303.9611657847275
 30
0.0
 10
105.2500367072605
 20
302.4427321822472
 30
0.0
 10
105.2577413566729
 20
300.8174838428486
 30
0.0
 10
105.2653347773577
 20
299.1655579261507
 30
0.0
 10
105.2721308868665
 20
297.6762452767369
 30
0.0
 10
105.2762796160015
 20
296.770707857176
 30
0.0
 10
105.2786451206245
 20
296.254392406702
 30
0.0
  0
SPLINE
  5
1F8
330
1F
100
AcDbEntity
  8
0
  6
Continuous
 62
     7
370
    25
100
AcDbSpline
210
0.0
220
0.0
230
1.0
 70
     8
 71
     3
 72
    14
 73
    10
 74
     0
 42
0.000000001
 43
0.00000001
 40
0.0
 40
0.0
 40
0.0
 40
0.0
 40
0.125
 40
0.125
 40
0.2499999999999999
 40
0.2499999999999999
 40
0.5
 40
0.5
 40
1.0
 40
1.0
 40
1.0
 40
1.0
 10
105.2786423802863
 20
296.2543976514465
 30
0.0
 10
105.2838699691412
 20
295.1161740004674
 30
0.0
 10
105.2891852284098
 20
293.9779183369477
 30
0.0
 10
105.3001630302105
 20
291.7013282454243
 30
0.0
 10
105.3058238028137
 20
290.5629953235855
 30
0.0
 10
105.3233306810895
 20
287.147938477568
 30
0.0
 10
105.3356941930885
 20
284.8712422040978
 30
0.0
 10
105.3741998657546
 20
278.0411641863133
 30
0.0
 10
105.4014201387017
 20
273.4876788956203
 30
0.0
 10
105.4299331129962
 20
268.9342148563108
 30
0.0
  0
SPLINE
  5
1F9
330
1F
100
AcDbEntity
  8
0
  6
Continuous
 62
     7
370
    25
100
AcDbSpline
210
0.0
220
0.0
230
1.0
 70
     8
 71
     3
 72
    16
 73
    12
 74
     0
 42
0.000000001
 43
0.00000001
 40
0.0
 40
0.0
 40
0.0
 40
0.0
 40
0.4327682836658744
 40
0.5533558139265523
 40
0.8300331983378003
 40
0.8994517207612448
 40
0.934161398497589
 40
0.9688779128996118
 40
0.9826642663602029
 40
0.9966662744250433
 40
0.9999999999999999
 40
0.9999999999999999
 40
0.9999999999999999
 40
0.9999999999999999
 10
105.429929159645
 20
268.9342141810655
 30
0.0
 10
105.5970417469583
 20
245.1787594671492
 30
0.0
 10
105.8107189623652
 20
214.8040312937613
 30
0.0
 10
106.2917485394523
 20
169.2419490424945
 30
0.0
 10
106.6323566483471
 20
143.6310445615117
 30
0.0
 10
106.8918554893695
 20
122.721948601039
 30
0.0
 10
107.0403309616616
 20
115.1092060299607
 30
0.0
 10
107.0198649738802
 20
110.5219455986758
 30
0.0
 10
107.4210655425362
 20
107.1317688663695
 30
0.0
 10
107.7072104917969
 20
105.4092444890744
 30
0.0
 10
108.1746964118251
 20
104.5803623299049
 30
0.0
 10
108.2645956800022
 20
104.4209652308225
 30
0.0
  0
SPLINE
  5
1FA
330
1F
100
AcDbEntity
  8
0
  6
Continuous
 62
     7
370
    25
100
AcDbSpline
210
0.0
220
0.0
230
1.0
 70
     8
 71
     3
 72
    16
 73
    12
 74
     0
 42
0.000000001
 43
0.00000001
 40
0.0
 40
0.0
 40
0.0
 40
0.0
 40
0.4327521226837893
 40
0.5533351498119832
 40
0.8300022021854604
 40
0.899418132294404
 40
0.9341265138579432
 40
0.968841731831858
 40
0.9826275704649542
 40
0.996629055649052
 40
1.0
 40
1.0
 40
1.0
 40
1.0
 10
152.982231639389
 20
268.9342141810655
 30
0.0
 10
152.8151203291916
 20
245.1787589282923
 30
0.0
 10
152.6014447467591
 20
214.8040300658993
 30
0.0
 10
152.1204082231829
 20
169.2419507455829
 30
0.0
 10
151.7798310163518
 20
143.6310332260109
 30
0.0
 10
151.5202875085967
 20
122.7219561118904
 30
0.0
 10
151.3718613711135
 20
115.1091927248463
 30
0.0
 10
151.3922057258478
 20
110.5219836145138
 30
0.0
 10
150.9912173860597
 20
107.1317173359213
 30
0.0
 10
150.7042818304897
 20
105.4073147403877
 30
0.0
 10
150.2356097799082
 20
104.5767238717624
 30
0.0
 10
150.1446687058248
 20
104.4155561093091
 30
0.0
  0
SPLINE
  5
1FB
330
1F
100
AcDbEntity
  8
0
  6
Continuous
 62
     7
370
    25
100
AcDbSpline
210
0.0
220
0.0
230
1.0
 70
     8
 71
     3
 72
    14
 73
    10
 74
     0
 42
0.000000001
 43
0.00000001
 40
0.0
 40
0.0
 40
0.0
 40
0.0
 40
0.125
 40
0.125
 40
0.2499999999999999
 40
0.2499999999999999
 40
0.5
 40
0.5
 40
1.0
 40
1.0
 40
1.0
 40
1.0
 10
153.1335184187477
 20
296.2543976514465
 30
0.0
 10
153.1282908298928
 20
295.1161740004674
 30
0.0
 10
153.1229755706242
 20
293.9779183369477
 30
0.0
 10
153.1119977688235
 20
291.7013282454243
 30
0.0
 10
153.1063369962203
 20
290.5629953235855
 30
0.0
 10
153.0888301179445
 20
287.147938477568
 30
0.0
 10
153.0764666059455
 20
284.8712422040978
 30
0.0
 10
153.0379609332794
 20
278.0411641863133
 30
0.0
 10
153.0107406603323
 20
273.4876788956203
 30
0.0
 10
152.9822276860378
 20
268.9342148563108
 30
0.0
  0
SPLINE
  5
1FC
330
1F
100
AcDbEntity
  8
0
  6
Continuous
 62
     7
370
    25
100
AcDbSpline
210
0.0
220
0.0
230
1.0
 70
     8
 71
     3
 72
    16
 73
    12
 74
     0
 42
0.000000001
 43
0.00000001
 40
0.0
 40
0.0
 40
0.0
 40
0.0
 40
0.0656021066297405
 40
0.1876115984748997
 40
0.2404841324411894
 40
0.366149285430632
 40
0.5289780992389671
 40
0.6378449671765317
 40
0.8555821279880502
 40
0.9277910797207309
 40
1.0
 40
1.0
 40
1.0
 40
1.0
 10
153.1825758889951
 20
306.9175404224395
 30
0.0
 10
153.1816198625706
 20
306.6950257609786
 30
0.0
 10
153.1788857789427
 20
306.05866919462
 30
0.0
 10
153.1751036638371
 20
305.2091530007423
 30
0.0
 10
153.1702083899534
 20
304.1409480720389
 30
0.0
 10
153.1644133973091
 20
302.9198117863482
 30
0.0
 10
153.1576301201378
 20
301.4993002076187
 30
0.0
 10
153.1494919246372
 20
299.7493405526786
 30
0.0
 10
153.14298202067
 20
298.3236046529748
 30
0.0
 10
153.137071009669
 20
297.0288731346922
 30
0.0
 10
153.1347007886573
 20
296.5125526118815
 30
0.0
 10
153.1335156784095
 20
296.254392406702
 30
0.0
  0
SPLINE
  5
1FD
330
1F
100
AcDbEntity
  8
0
  6
Continuous
 62
     7
370
    25
100
AcDbSpline
210
0.0
220
0.0
230
1.0
 70
     8
 71
     3
 72
     9
 73
     5
 74
     0
 42
0.000000001
 43
0.00000001
 40
0.0
 40
0.0
 40
0.0
 40
0.0
 40
0.1240834829918434
 40
0.9999999999999999
 40
0.9999999999999999
 40
0.9999999999999999
 40
0.9999999999999999
 10
153.2063190267124
 20
312.4220088783502
 30
0.0
 10
153.2064620223065
 20
312.4221044270809
 30
0.0
 10
153.2076144367188
 20
312.4228744629335
 30
0.0
 10
153.206672678803
 20
312.4224477957574
 30
0.0
 10
153.2058477774896
 20
312.4220740709304
 30
0.0
  0
LWPOLYLINE
  5
1FE
330
1F
100
AcDbEntity
  8
0
  6
Continuous
 62
     7
370
    25
100
AcDbPolyline
 90
        3
 70
   128
 43
0.0
 10
105.2754171566
 20
301.2409551728
 10
105.2728485689
 20
301.6005341623
 10
105.270302333
 20
301.9601233963
  0
LINE
  5
1FF
330
1F
100
AcDbEntity
  8
0
  6
Continuous
 62
     7
370
    25
100
AcDbLine
 10
153.1367436425
 20
301.2409551728
 30
0.0
 11
153.141858466
 21
301.9601233963
 31
0.0
  0
LINE
  5
200
330
1F
100
AcDbEntity
  8
0
  6
Continuous
 62
     7
370
    25
100
AcDbLine
 10
105.5195428804
 20
278.7972550567
 30
0.0
 11
105.4855347053
 21
278.796622223
 31
0.0
  0
LINE
  5
201
330
1F
100
AcDbEntity
  8
0
  6
Continuous
 62
     7
370
    25
100
AcDbLine
 10
152.3598771915
 20
224.2428601447
 30
0.0
 11
152.3861740158
 21
224.9220029179
 31
0.0
  0
LINE
  5
202
330
1F
100
AcDbEntity
  8
0
  6
Continuous
 62
     7
370
    25
100
AcDbLine
 10
106.0522836075
 20
224.2428601447
 30
0.0
 11
106.0259867833
 21
224.9220029179
 31
0.0
  0
SPLINE
  5
203
330
1F
100
AcDbEntity
  8
0
  6
Continuous
 62
     7
370
    25
100
AcDbSpline
210
0.0
220
0.0
230
1.0
 70
     8
 71
     3
 72
     9
 73
     5
 74
     0
 42
0.000000001
 43
0.00000001
 40
0.0
 40
0.0
 40
0.0
 40
0.0
 40
0.0325271769755505
 40
1.0
 40
1.0
 40
1.0
 40
1.0
 10
153.2051325217523
 20
311.5780629876851
 30
0.0
 10
153.2051633606447
 20
311.5829552640606
 30
0.0
 10
153.2061114568278
 20
311.7333610733027
 30
0.0
 10
153.2058808721213
 20
311.7014442907776
 30
0.0
 10
153.2056577876844
 20
311.6705656710863
 30
0.0
  0
SPLINE
  5
204
330
1F
100
AcDbEntity
  8
0
  6
Continuous
 62
     7
370
    25
100
AcDbSpline
210
0.0
220
0.0
230
1.0
 70
     8
 71
     3
 72
    10
 73
     6
 74
     0
 42
0.000000001
 43
0.00000001
 40
0.0
 40
0.0
 40
0.0
 40
0.0
 40
0.5
 40
0.5
 40
1.0
 40
1.0
 40
1.0
 40
1.0
 10
153.2056575570508
 20
311.6705659743457
 30
0.0
 10
153.2058721186303
 20
311.9033963457895
 30
0.0
 10
153.1525894802061
 20
312.1485715021266
 30
0.0
 10
152.9389643298009
 20
312.5898328724024
 30
0.0
 10
152.779697084506
 20
312.7836983960852
 30
0.0
 10
152.5969328140635
 20
312.9279454790113
 30
0.0
  0
SPLINE
  5
205
330
1F
100
AcDbEntity
  8
0
  6
Continuous
 62
     7
370
    25
100
AcDbSpline
210
0.0
220
0.0
230
1.0
 70
     8
 71
     3
 72
     9
 73
     5
 74
     0
 42
0.000000001
 43
0.00000001
 40
0.0
 40
0.0
 40
0.0
 40
0.0
 40
0.039303760692016
 40
1.0
 40
1.0
 40
1.0
 40
1.0
 10
105.2070282772817
 20
311.5780629876851
 30
0.0
 10
105.2069973515487
 20
311.5829686602971
 30
0.0
 10
105.2062105125158
 20
311.7077829916886
 30
0.0
 10
105.2063995932732
 20
311.681709617539
 30
0.0
 10
105.2065812424459
 20
311.6566610250472
 30
0.0
  0
SPLINE
  5
206
330
1F
100
AcDbEntity
  8
0
  6
Continuous
 62
     7
370
    25
100
AcDbSpline
210
0.0
220
0.0
230
1.0
 70
     8
 71
     3
 72
    10
 73
     6
 74
     0
 42
0.000000001
 43
0.00000001
 40
0.0
 40
0.0
 40
0.0
 40
0.0
 40
0.5
 40
0.5
 40
1.0
 40
1.0
 40
1.0
 40
1.0
 10
105.8151041795365
 20
312.9281022917862
 30
0.0
 10
105.6323414812581
 20
312.7838272244181
 30
0.0
 10
105.4730840745679
 20
312.5899286334626
 30
0.0
 10
105.2595015511154
 20
312.1486084948088
 30
0.0
 10
105.20625164144
 20
311.9034086201806
 30
0.0
 10
105.2065032185296
 20
311.6705655975151
 30
0.0
  0
SPLINE
  5
207
330
1F
100
AcDbEntity
  8
0
  6
Continuous
 62
     7
370
    25
100
AcDbSpline
210
0.0
220
0.0
230
1.0
 70
     8
 71
     3
 72
     8
 73
     4
 74
     0
 42
0.000000001
 43
0.00000001
 40
0.0
 40
0.0
 40
0.0
 40
0.0
 40
1.0
 40
1.0
 40
1.0
 40
1.0
 10
105.9716698542165
 20
229.1848134091299
 30
0.0
 10
105.9358979845994
 20
232.0208459594512
 30
0.0
 10
105.9015553622793
 20
234.8109107929646
 30
0.0
 10
105.8685110522093
 20
237.5676727694937
 30
0.0
  0
SPLINE
  5
208
330
1F
100
AcDbEntity
  8
0
  6
Continuous
 62
     7
370
    25
100
AcDbSpline
210
0.0
220
0.0
230
1.0
 70
     8
 71
     3
 72
     8
 73
     4
 74
     0
 42
0.000000001
 43
0.00000001
 40
0.0
 40
0.0
 40
0.0
 40
0.0
 40
1.0
 40
1.0
 40
1.0
 40
1.0
 10
152.5436422883184
 20
237.5670512713334
 30
0.0
 10
152.5106094557968
 20
234.8101345476201
 30
0.0
 10
152.4762677475004
 20
232.0195974612967
 30
0.0
 10
152.4404909448176
 20
229.1848134091299
 30
0.0
  0
SPLINE
  5
209
330
1F
100
AcDbEntity
  8
0
  6
Continuous
 62
     7
370
    25
100
AcDbSpline
210
0.0
220
0.0
230
1.0
 70
     8
 71
     3
 72
     8
 73
     4
 74
     0
 42
0.000000001
 43
0.00000001
 40
0.0
 40
0.0
 40
0.0
 40
0.0
 40
1.0
 40
1.0
 40
1.0
 40
1.0
 10
152.4402986402108
 20
229.1691327015049
 30
0.0
 10
152.4225756224623
 20
227.7647423576818
 30
0.0
 10
152.4044506974689
 20
226.3493013828355
 30
0.0
 10
152.3859522421426
 20
224.9219981444736
 30
0.0
  0
SPLINE
  5
20A
330
1F
100
AcDbEntity
  8
0
  6
Continuous
 62
     7
370
    25
100
AcDbSpline
210
0.0
220
0.0
230
1.0
 70
     8
 71
     3
 72
     9
 73
     5
 74
     0
 42
0.000000001
 43
0.00000001
 40
0.0
 40
0.0
 40
0.0
 40
0.0
 40
0.4976708578321112
 40
1.0
 40
1.0
 40
1.0
 40
1.0
 10
106.0262072725432
 20
224.9219981282906
 30
0.0
 10
106.0170990715721
 20
225.6265531359247
 30
0.0
 10
105.9987974153111
 20
227.0422579065499
 30
0.0
 10
105.9808684171098
 20
228.4579761637927
 30
0.0
 10
105.9718621588233
 20
229.1691327015049
 30
0.0
  0
LWPOLYLINE
  5
20B
330
1F
100
AcDbEntity
  8
0
  6
Continuous
 62
     7
370
    25
100
AcDbPolyline
 90
        3
 70
   128
 43
0.0
 10
105.275556855
 20
301.2215100888
 10
105.2754879371
 20
301.2312321652
 10
105.2754171566
 20
301.2409551728
  0
LINE
  5
20C
330
1F
100
AcDbEntity
  8
0
  6
Continuous
 62
     7
370
    25
100
AcDbLine
 10
152.3859374598
 20
224.9219991926
 30
0.0
 11
152.3583758996
 21
224.9219991926
 31
0.0
  0
LINE
  5
20D
330
1F
100
AcDbEntity
  8
0
  6
Continuous
 62
     7
370
    25
100
AcDbLine
 10
106.0259718821
 20
224.9219991926
 30
0.0
 11
106.0461853073
 21
224.9219991926
 31
0.0
  0
LINE
  5
20E
330
1F
100
AcDbEntity
  8
0
  6
Continuous
 62
     7
370
    25
100
AcDbLine
 10
153.2056577877
 20
311.6703104887
 30
0.0
 11
153.2040465996
 21
311.6710946623
 31
0.0
  0
SPLINE
  5
20F
330
1F
100
AcDbEntity
  8
0
  6
Continuous
 62
     7
370
    25
100
AcDbSpline
210
0.0
220
0.0
230
1.0
 70
     8
 71
     3
 72
     9
 73
     5
 74
     0
 42
0.000000001
 43
0.00000001
 40
0.0
 40
0.0
 40
0.0
 40
0.0
 40
0.7612055076868085
 40
1.0
 40
1.0
 40
1.0
 40
1.0
 10
105.2065030113496
 20
311.6703104887008
 30
0.0
 10
105.2070340302604
 20
311.6709962133435
 30
0.0
 10
105.2077316328203
 20
311.6718970537024
 30
0.0
 10
105.20870805065
 20
311.670723075932
 30
0.0
 10
105.20894121385
 20
311.6704427365064
 30
0.0
  0
LINE
  5
210
330
1F
100
AcDbEntity
  8
0
  6
Continuous
 62
     7
370
    25
100
AcDbLine
 10
105.8163218573
 20
312.9300174031
 30
0.0
 11
105.8162417636
 21
312.929855353
 31
0.0
  0
LINE
  5
211
330
1F
100
AcDbEntity
  8
0
  6
Continuous
 62
     7
370
    25
100
AcDbLine
 10
152.5935348496
 20
312.933750144
 30
0.0
 11
152.5938328729
 21
312.933519176
 31
0.0
  0
LINE
  5
212
330
1F
100
AcDbEntity
  8
0
  6
Continuous
 62
     7
370
    25
100
AcDbLine
 10
152.5958501176
 20
312.9300509307
 30
0.0
 11
152.5959283487
 21
312.9298926059
 31
0.0
  0
SPLINE
  5
213
330
1F
100
AcDbEntity
  8
0
  6
Continuous
 62
     7
370
    25
100
AcDbSpline
210
0.0
220
0.0
230
1.0
 70
     8
 71
     3
 72
     9
 73
     5
 74
     0
 42
0.000000001
 43
0.00000001
 40
0.0
 40
0.0
 40
0.0
 40
0.0
 40
0.1163770728888024
 40
0.9999999999999999
 40
0.9999999999999999
 40
0.9999999999999999
 40
0.9999999999999999
 10
105.5612661317625
 20
312.6763959143161
 30
0.0
 10
105.5557160305599
 20
312.6701847229079
 30
0.0
 10
105.5080253551998
 20
312.6168134595316
 30
0.0
 10
105.4732711933076
 20
312.5544785841003
 30
0.0
 10
105.4425616190471
 20
312.4993980590104
 30
0.0
  0
SPLINE
  5
214
330
1F
100
AcDbEntity
  8
0
  6
Continuous
 62
     7
370
    25
100
AcDbSpline
210
0.0
220
0.0
230
1.0
 70
     8
 71
     3
 72
    10
 73
     6
 74
     0
 42
0.000000001
 43
0.00000001
 40
0.0
 40
0.0
 40
0.0
 40
0.0
 40
0.5
 40
0.5
 40
0.9700052589748044
 40
0.9700052589748044
 40
0.9700052589748044
 40
0.9700052589748044
 10
129.206080399517
 20
321.7909553412199
 30
0.0
 10
133.5662464181436
 20
321.7914296602363
 30
0.0
 10
137.8938704951729
 20
321.0363225843648
 30
0.0
 10
145.849731885809
 20
318.1747889109124
 30
0.0
 10
149.3879934052437
 20
316.2129454415794
 30
0.0
 10
152.5959918506128
 20
313.6823185535417
 30
0.0
  0
SPLINE
  5
215
330
1F
100
AcDbEntity
  8
0
  6
Continuous
 62
     7
370
    25
100
AcDbSpline
210
0.0
220
0.0
230
1.0
 70
     8
 71
     3
 72
     8
 73
     4
 74
     0
 42
0.000000001
 43
0.00000001
 40
0.0
 40
0.0
 40
0.0
 40
0.0
 40
1.0
 40
1.0
 40
1.0
 40
1.0
 10
105.8162759702455
 20
313.6821827612276
 30
0.0
 10
112.4748033126667
 20
318.9299633715505
 30
0.0
 10
120.7131361672787
 20
321.7913612289991
 30
0.0
 10
129.206080399517
 20
321.7915018610918
 30
0.0
  0
SPLINE
  5
216
330
1F
100
AcDbEntity
  8
0
  6
Continuous
 62
     7
370
    25
100
AcDbSpline
210
0.0
220
0.0
230
1.0
 70
     8
 71
     3
 72
    10
 73
     6
 74
     0
 42
0.000000001
 43
0.00000001
 40
0.0
 40
0.0
 40
0.0
 40
0.0
 40
0.5
 40
0.5
 40
1.0
 40
1.0
 40
1.0
 40
1.0
 10
152.595663978594
 20
313.682356818409
 30
0.0
 10
152.7853546220337
 20
313.5328584224122
 30
0.0
 10
152.9404965971158
 20
313.3397938942627
 30
0.0
 10
153.1508168646917
 20
312.9049438192195
 30
0.0
 10
153.2058491716287
 20
312.6634601064338
 30
0.0
 10
153.2052791622376
 20
312.4219399721859
 30
0.0
  0
SPLINE
  5
217
330
1F
100
AcDbEntity
  8
0
  6
Continuous
 62
     7
370
    25
100
AcDbSpline
210
0.0
220
0.0
230
1.0
 70
     8
 71
     3
 72
    10
 73
     6
 74
     0
 42
0.000000001
 43
0.00000001
 40
0.0
 40
0.0
 40
0.0
 40
0.0
 40
0.5
 40
0.5
 40
1.0
 40
1.0
 40
1.0
 40
1.0
 10
105.2068812297908
 20
312.4221123556647
 30
0.0
 10
105.2063115087487
 20
312.6635505707156
 30
0.0
 10
105.2613022635875
 20
312.9049372094482
 30
0.0
 10
105.4714376615193
 20
313.3396332666408
 30
0.0
 10
105.6264360881236
 20
313.5326419595833
 30
0.0
 10
105.8159480560275
 20
313.6821443887156
 30
0.0
  0
LWPOLYLINE
  5
218
330
1F
100
AcDbEntity
  8
0
  6
Continuous
 62
     8
370
    18
100
AcDbPolyline
 90
        3
 70
   128
 43
0.0
 10
106.539396979
 20
301.2603937376
 10
106.5394733474
 20
301.2506744552
 10
106.5395478532
 20
301.2409551728
  0
LWPOLYLINE
  5
219
330
1F
100
AcDbEntity
  8
0
  6
Continuous
 62
     8
370
    18
100
AcDbPolyline
 90
        3
 70
   128
 43
0.0
 10
106.5338742361
 20
301.9793812845
 10
106.5366365389
 20
301.6198870454
 10
106.539396979
 20
301.2603937376
  0
SPLINE
  5
21A
330
1F
100
AcDbEntity
  8
0
  6
Continuous
 62
     8
370
    18
100
AcDbSpline
210
0.0
220
0.0
230
1.0
 70
     8
 71
     3
 72
    25
 73
    21
 74
     0
 42
0.000000001
 43
0.00000001
 40
0.0
 40
0.0
 40
0.0
 40
0.0
 40
0.0265870421687291
 40
0.0531580029932307
 40
0.0797178662861997
 40
0.106271576867182
 40
0.1328241171761157
 40
0.1593804473980165
 40
0.185945531338717
 40
0.21252432404129
 40
0.2391217714548931
 40
0.2657428081562697
 40
0.3984976819582564
 40
0.5314911541539438
 40
0.6640594731399997
 40
0.7969143024292583
 40
0.8476853781681928
 40
0.8984344389854693
 40
0.9491948447863526
 40
0.9999999999999999
 40
0.9999999999999999
 40
0.9999999999999999
 40
0.9999999999999999
 10
129.2060803995169
 20
308.0409553412198
 30
0.0
 10
128.9949693034154
 20
308.0401106297762
 30
0.0
 10
128.5728748031227
 20
308.0384217178179
 30
0.0
 10
127.9400228561773
 20
308.0247484236752
 30
0.0
 10
127.3077087027943
 20
308.0029180281639
 30
0.0
 10
126.675946840959
 20
307.9721321938353
 30
0.0
 10
126.0447547996667
 20
307.9326047280316
 30
0.0
 10
125.4141481523703
 20
307.8842783962997
 30
0.0
 10
124.7841428064902
 20
307.8271684232971
 30
0.0
 10
124.1547565080147
 20
307.7612712771665
 30
0.0
 10
123.5259984841621
 20
307.6865860089498
 30
0.0
 10
122.0634888077933
 20
307.4922350855124
 30
0.0
 10
119.7780945949009
 20
307.0912935115412
 30
0.0
 10
116.714562579271
 20
306.3307621114915
 30
0.0
 10
113.7146294185164
 20
305.3619974070818
 30
0.0
 10
111.3964811289532
 20
304.4313032595475
 30
0.0
 10
109.7160469815441
 20
303.6622795906786
 30
0.0
 10
108.6386757084186
 20
303.1338125398526
 30
0.0
 10
107.5748588015051
 20
302.5792125790401
 30
0.0
 10
106.878830009919
 20
302.1861808152458
 30
0.0
 10
106.5306622802627
 20
301.9895783491737
 30
0.0
  0
LINE
  5
21B
330
1F
100
AcDbEntity
  8
0
  6
Continuous
 62
     8
370
    18
100
AcDbLine
 10
151.8782865629
 20
301.9793812845
 30
0.0
 11
151.8727638201
 21
301.2603937376
 31
0.0
  0
LINE
  5
21C
330
1F
100
AcDbEntity
  8
0
  6
Continuous
 62
     8
370
    18
100
AcDbLine
 10
151.8727638201
 20
301.2603937376
 30
0.0
 11
151.8726129458
 21
301.2409523789
 31
0.0
  0
SPLINE
  5
21D
330
1F
100
AcDbEntity
  8
0
  6
Continuous
 62
     8
370
    18
100
AcDbSpline
210
0.0
220
0.0
230
1.0
 70
     8
 71
     3
 72
    26
 73
    22
 74
     0
 42
0.000000001
 43
0.00000001
 40
0.0
 40
0.0
 40
0.0
 40
0.0
 40
0.066562244497309
 40
0.2067612152861946
 40
0.290880597759526
 40
0.3749999802328574
 40
0.4038409113665711
 40
0.4254716097168563
 40
0.4254716097168563
 40
0.4561860708431064
 40
0.4582337015848564
 40
0.5073768393868566
 40
0.5128371880315233
 40
0.6111234636355238
 40
0.6438855555035239
 40
0.7749339229755244
 40
0.840072935806547
 40
0.8791563435051604
 40
0.9182397512037739
 40
0.9338731142832193
 40
0.941689795822942
 40
0.941689795822942
 40
0.941689795822942
 40
0.941689795822942
 10
151.8764268392341
 20
301.9811773936829
 30
0.0
 10
151.395178995719
 20
302.2599674705269
 30
0.0
 10
149.8916338887157
 20
303.1107539634582
 30
0.0
 10
147.6954073684149
 20
304.1652967978646
 30
0.0
 10
145.2936381480767
 20
305.1284103999722
 30
0.0
 10
143.7298499717832
 20
305.6720372468686
 30
0.0
 10
142.6511540326383
 20
306.0114648678546
 30
0.0
 10
142.2450353330269
 20
306.1335626434624
 30
0.0
 10
141.8230935226759
 20
306.2577395861991
 30
0.0
 10
141.5583415488584
 20
306.333279987682
 30
0.0
 10
140.8946043091759
 20
306.5159041705228
 30
0.0
 10
140.4335893968159
 20
306.6356278556223
 30
0.0
 10
139.1843924624534
 20
306.9396544940171
 30
0.0
 10
138.0606431404509
 20
307.1787241747675
 30
0.0
 10
135.887217895471
 20
307.5584268599631
 30
0.0
 10
133.973033891869
 20
307.8032346103051
 30
0.0
 10
131.9948853127649
 20
307.9464720699095
 30
0.0
 10
130.7877853663756
 20
308.0033716943479
 30
0.0
 10
129.9970230744656
 20
308.0269920745313
 30
0.0
 10
129.4622466793679
 20
308.0369441107111
 30
0.0
 10
129.2701369473305
 20
308.0401008254651
 30
0.0
 10
129.206080399517
 20
308.0409553412198
 30
0.0
  0
SPLINE
  5
21E
330
1F
100
AcDbEntity
  8
0
  6
Continuous
 62
     8
370
    18
100
AcDbSpline
210
0.0
220
0.0
230
1.0
 70
     8
 71
     3
 72
    22
 73
    18
 74
     0
 42
0.000000001
 43
0.00000001
 40
0.0
 40
0.0
 40
0.0
 40
0.0
 40
0.122873684423126
 40
0.1868444796776039
 40
0.2497648137606424
 40
0.3051492535465388
 40
0.3769125111843799
 40
0.4444623155219948
 40
0.5032807597435599
 40
0.638508037213791
 40
0.7574348644716349
 40
0.7890911115352846
 40
0.8207100437487137
 40
0.8456937917313917
 40
0.8820250887595772
 40
0.9419719353815543
 40
1.0
 40
1.0
 40
1.0
 40
1.0
 10
105.8151145765639
 20
312.9281850256256
 30
0.0
 10
105.8145153675221
 20
312.9222015589189
 30
0.0
 10
105.8136041968172
 20
312.91310296528
 30
0.0
 10
105.8292644001661
 20
312.6992705282649
 30
0.0
 10
105.8491965308083
 20
312.4253331408088
 30
0.0
 10
105.8791047063349
 20
312.0205670288113
 30
0.0
 10
105.9148145051657
 20
311.4768660209543
 30
0.0
 10
105.9555464804345
 20
310.8001430962486
 30
0.0
 10
106.0174065278616
 20
309.7746691663286
 30
0.0
 10
106.1109493219422
 20
308.3204524104944
 30
0.0
 10
106.2320632145282
 20
306.7758395109336
 30
0.0
 10
106.3227549252836
 20
305.7376049160371
 30
0.0
 10
106.3676703486159
 20
305.2251455884892
 30
0.0
 10
106.4099694546886
 20
304.6788311513796
 30
0.0
 10
106.4602934766448
 20
303.959173885505
 30
0.0
 10
106.5136138967119
 20
303.0353565508616
 30
0.0
 10
106.5263317325339
 20
302.3275175950596
 30
0.0
 10
106.5325872269532
 20
301.9793543776868
 30
0.0
  0
SPLINE
  5
21F
330
1F
100
AcDbEntity
  8
0
  6
Continuous
 62
     8
370
    18
100
AcDbSpline
210
0.0
220
0.0
230
1.0
 70
     8
 71
     3
 72
    25
 73
    21
 74
     0
 42
0.000000001
 43
0.00000001
 40
0.0325751471078963
 40
0.0325751471078963
 40
0.0325751471078963
 40
0.0325751471078963
 40
0.0625334523177816
 40
0.1016168600163951
 40
0.1667558728474175
 40
0.2978042403194181
 40
0.3305663321874182
 40
0.4288526077914186
 40
0.4343129564360854
 40
0.4834560942380856
 40
0.4855037249798356
 40
0.5162181861060857
 40
0.5162181861060857
 40
0.5378488844563709
 40
0.5666898155900846
 40
0.650809198063416
 40
0.7349285805367474
 40
0.875127551325633
 40
0.9531728317471124
 40
0.9703009293615498
 40
0.9703009293615498
 40
0.9703009293615498
 40
0.9703009293615498
 10
128.3576633447279
 20
321.0389602325135
 30
0.0
 10
128.0944630483478
 20
321.035112302295
 30
0.0
 10
127.4947479556752
 20
321.0155425017857
 30
0.0
 10
126.3331196588481
 20
320.9499984738133
 30
0.0
 10
124.3081346356972
 20
320.7631688227502
 30
0.0
 10
122.3638974287967
 20
320.4502466889564
 30
0.0
 10
120.1628514693549
 20
319.9667359906528
 30
0.0
 10
119.0267046027387
 20
319.6626979608052
 30
0.0
 10
117.7631556040112
 20
319.2758816747517
 30
0.0
 10
117.2967025025278
 20
319.1235234185291
 30
0.0
 10
116.6246663254077
 20
318.8910111837698
 30
0.0
 10
116.3563288463972
 20
318.7948513150854
 30
0.0
 10
115.9288802372558
 20
318.6365914831659
 30
0.0
 10
115.5176025108771
 20
318.4808576609138
 30
0.0
 10
114.4290117412978
 20
318.0466292621248
 30
0.0
 10
112.8611324181493
 20
317.3490671754259
 30
0.0
 10
110.4765195404863
 20
316.1177461315989
 30
0.0
 10
108.2387172403554
 20
314.7341639211502
 30
0.0
 10
106.5856208109205
 20
313.5294427718374
 30
0.0
 10
105.9321700888823
 20
313.0205984148154
 30
0.0
 10
105.8151356778604
 20
312.9282016847636
 30
0.0
  0
SPLINE
  5
220
330
1F
100
AcDbEntity
  8
0
  6
Continuous
 62
     8
370
    18
100
AcDbSpline
210
0.0
220
0.0
230
1.0
 70
     8
 71
     3
 72
    24
 73
    20
 74
     0
 42
0.000000001
 43
0.00000001
 40
0.0
 40
0.0
 40
0.0
 40
0.0
 40
0.1250000000000004
 40
0.1250000000000004
 40
0.1875000000000003
 40
0.1875000000000003
 40
0.2500000000000003
 40
0.2500000000000003
 40
0.3750000000000002
 40
0.3750000000000002
 40
0.5000000000000002
 40
0.5000000000000002
 40
0.6250000000000002
 40
0.6250000000000002
 40
0.7500000000000001
 40
0.7500000000000001
 40
0.875
 40
0.875
 40
1.0
 40
1.0
 40
1.0
 40
1.0
 10
151.8795735720809
 20
301.9793543776868
 30
0.0
 10
151.8860193134903
 20
302.6758270810829
 30
0.0
 10
151.9137022879098
 20
303.3723080426972
 30
0.0
 10
151.9870789150438
 20
304.4617619195377
 30
0.0
 10
152.0131295327395
 20
304.8238396018754
 30
0.0
 10
152.0709968545248
 20
305.546848938394
 30
0.0
 10
152.1045698077662
 20
305.9154154402357
 30
0.0
 10
152.1993580512359
 20
306.9989477119434
 30
0.0
 10
152.2511506881391
 20
307.684589043716
 30
0.0
 10
152.3416485290977
 20
308.954136671907
 30
0.0
 10
152.3793795050586
 20
309.5379410399871
 30
0.0
 10
152.4440406566785
 20
310.5845524339825
 30
0.0
 10
152.4712207135098
 20
311.0481308328481
 30
0.0
 10
152.5202872587739
 20
311.8360093687851
 30
0.0
 10
152.5433581217312
 20
312.1589628700653
 30
0.0
 10
152.5777094991515
 20
312.6271077334176
 30
0.0
 10
152.5883949953001
 20
312.7730221204457
 30
0.0
 10
152.5983716966763
 20
312.9169571253933
 30
0.0
 10
152.5977353195069
 20
312.9227059684982
 30
0.0
 10
152.5970462224701
 20
312.9281850256256
 30
0.0
  0
SPLINE
  5
221
330
1F
100
AcDbEntity
  8
0
  6
Continuous
 62
     8
370
    18
100
AcDbSpline
210
0.0
220
0.0
230
1.0
 70
     8
 71
     3
 72
    28
 73
    24
 74
     0
 42
0.000000001
 43
0.00000001
 40
0.0
 40
0.0
 40
0.0
 40
0.0
 40
0.0253467574664434
 40
0.050661408060839
 40
0.0759460054864693
 40
0.1012025597393817
 40
0.126433039188355
 40
0.1516393726575121
 40
0.1768234515151513
 40
0.2019871317732069
 40
0.2271322362024079
 40
0.2832500714111418
 40
0.3450980970428055
 40
0.412686314779985
 40
0.4860360724193363
 40
0.5237049137514416
 40
0.6092779617801872
 40
0.7429059151096762
 40
0.8029735180804533
 40
0.8587244205079048
 40
0.9101535621679399
 40
0.9572503465993515
 40
1.0
 40
1.0
 40
1.0
 40
1.0
 10
152.5968988594607
 20
312.9280439623367
 30
0.0
 10
152.4345981837247
 20
313.054888350316
 30
0.0
 10
152.1102024193792
 20
313.308416451816
 30
0.0
 10
151.6161212945482
 20
313.678340162505
 30
0.0
 10
151.1171110565085
 20
314.0402937030828
 30
0.0
 10
150.612718069837
 20
314.3935156250707
 30
0.0
 10
150.10320843843
 20
314.7381567731088
 30
0.0
 10
149.5886551422402
 20
315.0741242268991
 30
0.0
 10
149.0691853271652
 20
315.4013892954765
 30
0.0
 10
148.5449025741855
 20
315.719909745673
 30
0.0
 10
147.7986577900824
 20
316.1568676083718
 30
0.0
 10
146.7797974162293
 20
316.718085887919
 30
0.0
 10
145.4318496471765
 20
317.3949859258445
 30
0.0
 10
143.9291049492732
 20
318.0725915736306
 30
0.0
 10
142.5796920016107
 20
318.60865894763
 30
0.0
 10
141.0750148895849
 20
319.144845577495
 30
0.0
 10
139.0819367620254
 20
319.7670279467301
 30
0.0
 10
136.8706081021927
 20
320.2891133655241
 30
0.0
 10
134.8726150091831
 20
320.6305511990207
 30
0.0
 10
133.5252246694862
 20
320.8094968201023
 30
0.0
 10
132.2773375096812
 20
320.930744020586
 30
0.0
 10
131.1316511214557
 20
321.007780024394
 30
0.0
 10
130.4018081910124
 20
321.0302626251168
 30
0.0
 10
130.0545430899554
 20
321.0409600262786
 30
0.0
  0
SPLINE
  5
222
330
1F
100
AcDbEntity
  8
0
  6
Continuous
 62
     8
370
    18
100
AcDbSpline
210
0.0
220
0.0
230
1.0
 70
     8
 71
     3
 72
    14
 73
    10
 74
     0
 42
0.000000001
 43
0.00000001
 40
0.0
 40
0.0
 40
0.0
 40
0.0
 40
0.5
 40
0.5
 40
0.75
 40
0.75
 40
0.875
 40
0.875
 40
1.0
 40
1.0
 40
1.0
 40
1.0
 10
151.6663429070911
 20
278.8131326726839
 30
0.0
 10
151.7108744478504
 20
282.5500150355153
 30
0.0
 10
151.7502832207591
 20
286.2861922965689
 30
0.0
 10
151.8007737780826
 20
291.8913759736808
 30
0.0
 10
151.8162842178538
 20
293.7598437843988
 30
0.0
 10
151.8381832241958
 20
296.5632581348068
 30
0.0
 10
151.8452722148734
 20
297.4979894700144
 30
0.0
 10
151.8590923037935
 20
299.3694207098052
 30
0.0
 10
151.8655022812484
 20
300.3078474205994
 30
0.0
 10
151.8726280226835
 20
301.2409553264363
 30
0.0
  0
SPLINE
  5
223
330
1F
100
AcDbEntity
  8
0
  6
Continuous
 62
     8
370
    18
100
AcDbSpline
210
0.0
220
0.0
230
1.0
 70
     8
 71
     3
 72
    18
 73
    14
 74
     0
 42
0.000000001
 43
0.00000001
 40
0.0
 40
0.0
 40
0.0
 40
0.0
 40
0.25
 40
0.25
 40
0.5
 40
0.5
 40
0.7500000000000001
 40
0.7500000000000001
 40
0.8750000000000001
 40
0.8750000000000001
 40
0.9375
 40
0.9375
 40
1.0
 40
1.0
 40
1.0
 40
1.0
 10
151.2849526439936
 20
237.582940307971
 30
0.0
 10
151.3243693341639
 20
241.0167313809599
 30
0.0
 10
151.3606385871184
 20
244.4530297742435
 30
0.0
 10
151.423190006715
 20
251.325188206982
 30
0.0
 10
151.4510369349341
 20
254.7615815747147
 30
0.0
 10
151.5075770344676
 20
261.6349955128765
 30
0.0
 10
151.5362110073769
 20
265.0717970436804
 30
0.0
 10
151.5826401274259
 20
270.2258742618635
 30
0.0
 10
151.5986390489155
 20
271.9437144447699
 30
0.0
 10
151.6234579242148
 20
274.520025454319
 30
0.0
 10
151.6318764792032
 20
275.3787227762791
 30
0.0
 10
151.6491032002401
 20
277.0960025152381
 30
0.0
 10
151.6565132785038
 20
277.9545966471177
 30
0.0
 10
151.6669391395072
 20
278.8131255012099
 30
0.0
  0
SPLINE
  5
224
330
1F
100
AcDbEntity
  8
0
  6
Continuous
 62
     8
370
    18
100
AcDbSpline
210
0.0
220
0.0
230
1.0
 70
     8
 71
     3
 72
     8
 73
     4
 74
     0
 42
0.000000001
 43
0.00000001
 40
0.0
 40
0.0
 40
0.0
 40
0.0
 40
1.0
 40
1.0
 40
1.0
 40
1.0
 10
151.1830446093574
 20
229.2003193242784
 30
0.0
 10
151.2203861399299
 20
232.0346531133399
 30
0.0
 10
151.2531015495973
 20
234.8263418323458
 30
0.0
 10
151.2851728878125
 20
237.5829376806691
 30
0.0
  0
LINE
  5
225
330
1F
100
AcDbEntity
  8
0
  6
Continuous
 62
     8
370
    18
100
AcDbLine
 10
151.1830449477
 20
229.2003200117
 30
0.0
 11
151.1828400568
 21
229.1848153535
 31
0.0
  0
LINE
  5
226
330
1F
100
AcDbEntity
  8
0
  6
Continuous
 62
     8
370
    18
100
AcDbLine
 10
107.2291158513
 20
229.2003200117
 30
0.0
 11
107.2293207423
 21
229.1848153535
 31
0.0
  0
SPLINE
  5
227
330
1F
100
AcDbEntity
  8
0
  6
Continuous
 62
     8
370
    18
100
AcDbSpline
210
0.0
220
0.0
230
1.0
 70
     8
 71
     3
 72
    10
 73
     6
 74
     0
 42
0.000000001
 43
0.00000001
 40
0.0
 40
0.0
 40
0.0
 40
0.0
 40
0.4965199982285588
 40
0.7473474849113968
 40
1.0
 40
1.0
 40
1.0
 40
1.0
 10
107.126974642243
 20
237.5829375553096
 30
0.0
 10
107.1431220849401
 20
236.1955492051228
 30
0.0
 10
107.1674267468479
 20
234.1072925431419
 30
0.0
 10
107.2016820026655
 20
231.3130884035515
 30
0.0
 10
107.219949388629
 20
229.9062755022992
 30
0.0
 10
107.2291161896767
 20
229.2003193242784
 30
0.0
  0
SPLINE
  5
228
330
1F
100
AcDbEntity
  8
0
  6
Continuous
 62
     8
370
    18
100
AcDbSpline
210
0.0
220
0.0
230
1.0
 70
     8
 71
     3
 72
    15
 73
    11
 74
     0
 42
0.000000001
 43
0.00000001
 40
0.0
 40
0.0
 40
0.0
 40
0.0
 40
0.0510956450227233
 40
0.1428083941503635
 40
0.249945877018184
 40
0.4999929585779314
 40
0.5706745620003725
 40
0.750030742531601
 40
0.8818573656867408
 40
1.0
 40
1.0
 40
1.0
 40
1.0
 10
106.7452216595259
 20
278.8131255012098
 30
0.0
 10
106.7527560547328
 20
278.1109078693405
 30
0.0
 10
106.7738141092873
 20
276.1482636497259
 30
0.0
 10
106.8060315015708
 20
272.7131601262318
 30
0.0
 10
106.863782285286
 20
266.5437901865192
 30
0.0
 10
106.9135033640738
 20
260.6634098407532
 30
0.0
 10
106.9677865508996
 20
253.7904629333878
 30
0.0
 10
107.0130367206153
 20
248.5423163837286
 30
0.0
 10
107.0704568735433
 20
242.6419489703165
 30
0.0
 10
107.1090066026684
 20
239.2065897063821
 30
0.0
 10
107.1272263093516
 20
237.582940473016
 30
0.0
  0
SPLINE
  5
229
330
1F
100
AcDbEntity
  8
0
  6
Continuous
 62
     8
370
    18
100
AcDbSpline
210
0.0
220
0.0
230
1.0
 70
     8
 71
     3
 72
    16
 73
    12
 74
     0
 42
0.000000001
 43
0.00000001
 40
0.0
 40
0.0
 40
0.0
 40
0.0
 40
0.0416527772969002
 40
0.0834009545711123
 40
0.1251395300581699
 40
0.1668520156722921
 40
0.2085463768955514
 40
0.2502287096017886
 40
0.5001752719931155
 40
0.7479356987990949
 40
1.0
 40
1.0
 40
1.0
 40
1.0
 10
106.5395327763346
 20
301.2409553264362
 30
0.0
 10
106.541902912433
 20
300.929559198621
 30
0.0
 10
106.5466486131016
 20
300.3060537328409
 30
0.0
 10
106.5537034870671
 20
299.3705024698245
 30
0.0
 10
106.5606750115046
 20
298.4345067475415
 30
0.0
 10
106.567572247432
 20
297.4989113771844
 30
0.0
 10
106.574458566254
 20
296.5637365821798
 30
0.0
 10
106.5924703845707
 20
294.0717877135064
 30
0.0
 10
106.6271267743144
 20
290.0393162412781
 30
0.0
 10
106.6809748293692
 20
284.4340824104066
 30
0.0
 10
106.7240798154068
 20
280.6975075108395
 30
0.0
 10
106.7458178919265
 20
278.8131326726837
 30
0.0
  0
SPLINE
  5
22A
330
1F
100
AcDbEntity
  8
0
  6
Continuous
 62
     8
370
    18
100
AcDbSpline
210
0.0
220
0.0
230
1.0
 70
     8
 71
     3
 72
     9
 73
     5
 74
     0
 42
0.000000001
 43
0.00000001
 40
0.0
 40
0.0
 40
0.0
 40
0.0
 40
0.4977344376655763
 40
1.0
 40
1.0
 40
1.0
 40
1.0
 10
107.2292228713375
 20
229.18481340913
 30
0.0
 10
107.2385891878971
 20
228.4794790512856
 30
0.0
 10
107.2574070872645
 20
227.0623893253817
 30
0.0
 10
107.2798470037301
 20
225.645356678843
 30
0.0
 10
107.2911178009925
 20
224.933629979783
 30
0.0
  0
SPLINE
  5
22B
330
1F
100
AcDbEntity
  8
0
  6
Continuous
 62
     8
370
    18
100
AcDbSpline
210
0.0
220
0.0
230
1.0
 70
     8
 71
     3
 72
    26
 73
    22
 74
     0
 42
0.000000001
 43
0.00000001
 40
0.0
 40
0.0
 40
0.0
 40
0.0
 40
0.0198067341554864
 40
0.0354858818469121
 40
0.0470601643043728
 40
0.054551618470967
 40
0.0745299380694965
 40
0.1119481173503086
 40
0.1785054974944451
 40
0.2359450354793556
 40
0.3000146728050587
 40
0.3637210695169699
 40
0.4906372644088229
 40
0.6179924630011356
 40
0.7454531344156279
 40
0.8283653313802628
 40
0.8914394695212117
 40
0.9462194326858334
 40
0.9733326051637229
 40
0.9869130414454503
 40
1.0
 40
1.0
 40
1.0
 40
1.0
 10
113.3544849041523
 20
213.3259003963722
 30
0.0
 10
113.4562747403421
 20
213.3004118602936
 30
0.0
 10
113.6386421145843
 20
213.25474642284
 30
0.0
 10
113.8821603043965
 20
213.2012152809729
 30
0.0
 10
114.0625059603667
 20
213.1643805556727
 30
0.0
 10
114.265709545704
 20
213.1257397299721
 30
0.0
 10
114.6047563482963
 20
213.0688721632444
 30
0.0
 10
115.255255525523
 20
212.9783168839073
 30
0.0
 10
116.1066356073417
 20
212.8948580474019
 30
0.0
 10
117.1008517815482
 20
212.8280719718465
 30
0.0
 10
118.0806750612914
 20
212.7726971630433
 30
0.0
 10
119.4288751229629
 20
212.7130392758015
 30
0.0
 10
121.1128158198058
 20
212.6578451101706
 30
0.0
 10
123.134772251764
 20
212.6058193437294
 30
0.0
 10
124.9240117103937
 20
212.5748915156204
 30
0.0
 10
126.3728568156906
 20
212.5646173503118
 30
0.0
 10
127.4366018321358
 20
212.5581863954276
 30
0.0
 10
128.2046870491091
 20
212.5546451063543
 30
0.0
 10
128.7105047728669
 20
212.5500465848622
 30
0.0
 10
128.9954397192939
 20
212.5470978540236
 30
0.0
 10
129.1367384121129
 20
212.5467343755781
 30
0.0
 10
129.2060803987632
 20
212.5465559994233
 30
0.0
  0
SPLINE
  5
22C
330
1F
100
AcDbEntity
  8
0
  6
Continuous
 62
     8
370
    18
100
AcDbSpline
210
0.0
220
0.0
230
1.0
 70
     8
 71
     3
 72
    23
 73
    19
 74
     0
 42
0.000000001
 43
0.00000001
 40
0.0
 40
0.0
 40
0.0
 40
0.0
 40
0.0473762381553991
 40
0.1169273846899152
 40
0.2094578964583027
 40
0.3578495429852085
 40
0.4651219645183921
 40
0.5287060517258454
 40
0.5867229008568244
 40
0.6390626137618879
 40
0.6856413375237381
 40
0.726397819380252
 40
0.7955317573660535
 40
0.8567522682164049
 40
0.8887536799703786
 40
0.923304348377442
 40
0.9603993773716886
 40
0.9999999999999999
 40
0.9999999999999999
 40
0.9999999999999999
 40
0.9999999999999999
 10
107.2908672597253
 20
224.9336259544879
 30
0.0
 10
107.2938983510255
 20
224.7092905210065
 30
0.0
 10
107.3013792653463
 20
224.1556172756926
 30
0.0
 10
107.3231366709106
 20
223.163846179749
 30
0.0
 10
107.4113613959132
 20
221.695767781944
 30
0.0
 10
107.6474099169462
 20
220.059239391184
 30
0.0
 10
108.0541263940867
 20
218.5986209280424
 30
0.0
 10
108.4625964586903
 20
217.5932611486515
 30
0.0
 10
108.8351267019492
 20
216.8574578784079
 30
0.0
 10
109.2285248952591
 20
216.2258009481482
 30
0.0
 10
109.6249738964315
 20
215.6953381639739
 30
0.0
 10
110.1152845239711
 20
215.1389196391926
 30
0.0
 10
110.7158864485132
 20
214.5907302311706
 30
0.0
 10
111.3511217261879
 20
214.1532777214892
 30
0.0
 10
111.8836431114891
 20
213.8649951249433
 30
0.0
 10
112.3313384651172
 20
213.6630629007824
 30
0.0
 10
112.8248812922199
 20
213.4773936557413
 30
0.0
 10
113.1741469312173
 20
213.3774860660241
 30
0.0
 10
113.3544848835571
 20
213.325900315406
 30
0.0
  0
SPLINE
  5
22D
330
1F
100
AcDbEntity
  8
0
  6
Continuous
 62
     8
370
    18
100
AcDbSpline
210
0.0
220
0.0
230
1.0
 70
     8
 71
     3
 72
    38
 73
    34
 74
     0
 42
0.000000001
 43
0.00000001
 40
0.0
 40
0.0
 40
0.0
 40
0.0
 40
0.03125
 40
0.03125
 40
0.0625000000000001
 40
0.0625000000000001
 40
0.1250000000000001
 40
0.1250000000000001
 40
0.2500000000000001
 40
0.2500000000000001
 40
0.3750000000000001
 40
0.3750000000000001
 40
0.5000000000000001
 40
0.5000000000000001
 40
0.6250000000000002
 40
0.6250000000000002
 40
0.6875000000000003
 40
0.6875000000000003
 40
0.7500000000000003
 40
0.7500000000000003
 40
0.8750000000000006
 40
0.8750000000000006
 40
0.9375000000000008
 40
0.9375000000000008
 40
0.9687500000000009
 40
0.9687500000000009
 40
0.9843750000000003
 40
0.9843750000000003
 40
0.9921875000000002
 40
0.9921875000000002
 40
0.9960937500000001
 40
0.9960937500000001
 40
1.0
 40
1.0
 40
1.0
 40
1.0
 10
129.2060803994842
 20
212.5465565895758
 30
0.0
 10
129.370732519523
 20
212.5466826597385
 30
0.0
 10
129.5345368394866
 20
212.5484060225825
 30
0.0
 10
129.8681570764108
 20
212.5514634697664
 30
0.0
 10
130.0365702087196
 20
212.5530038356792
 30
0.0
 10
130.5437284936953
 20
212.5568833439631
 30
0.0
 10
130.8832515929086
 20
212.5579245403916
 30
0.0
 10
131.8996174158307
 20
212.5625385987019
 30
0.0
 10
132.5763512011914
 20
212.5667990409821
 30
0.0
 10
133.9278335015726
 20
212.5831627493766
 30
0.0
 10
134.6026339875064
 20
212.5944212803841
 30
0.0
 10
135.9531235538676
 20
212.6229379568618
 30
0.0
 10
136.6296820655914
 20
212.6402216881898
 30
0.0
 10
137.9735291591099
 20
212.6803454666691
 30
0.0
 10
138.6450009788606
 20
212.7024941376949
 30
0.0
 10
139.6542502974355
 20
212.7424558154559
 30
0.0
 10
139.991267766856
 20
212.7573788395218
 30
0.0
 10
140.6676503171093
 20
212.791958729594
 30
0.0
 10
141.0079044409047
 20
212.8109367589399
 30
0.0
 10
142.0229701324902
 20
212.873976950474
 30
0.0
 10
142.6861989038649
 20
212.9256475545353
 30
0.0
 10
143.6210971119423
 20
213.0409181762957
 30
0.0
 10
143.9222305752592
 20
213.0854263717375
 30
0.0
 10
144.3559802733076
 20
213.1647780765121
 30
0.0
 10
144.4978014697798
 20
213.1933136780299
 30
0.0
 10
144.7069291738368
 20
213.2395694628654
 30
0.0
 10
144.7760559972454
 20
213.2555711043701
 30
0.0
 10
144.8788464342524
 20
213.2804496913454
 30
0.0
 10
144.9129534110523
 20
213.2888855341967
 30
0.0
 10
144.963876259457
 20
213.3017515423026
 30
0.0
 10
144.9805095168332
 20
213.3060035513649
 30
0.0
 10
145.0188073224985
 20
213.3158662725124
 30
0.0
 10
145.0384508506043
 20
213.3209383070268
 30
0.0
 10
145.0576758924073
 20
213.3259004028371
 30
0.0
  0
SPLINE
  5
22E
330
1F
100
AcDbEntity
  8
0
  6
Continuous
 62
     8
370
    18
100
AcDbSpline
210
0.0
220
0.0
230
1.0
 70
     8
 71
     3
 72
     8
 73
     4
 74
     0
 42
0.000000001
 43
0.00000001
 40
0.0
 40
0.0
 40
0.0
 40
0.0
 40
1.0
 40
1.0
 40
1.0
 40
1.0
 10
151.1210451637007
 20
224.9336299093838
 30
0.0
 10
151.1445917539976
 20
226.3616509689334
 30
0.0
 10
151.1648694970456
 20
227.7794216739372
 30
0.0
 10
151.1829379276966
 20
229.18481340913
 30
0.0
  0
SPLINE
  5
22F
330
1F
100
AcDbEntity
  8
0
  6
Continuous
 62
     8
370
    18
100
AcDbSpline
210
0.0
220
0.0
230
1.0
 70
     8
 71
     3
 72
    36
 73
    32
 74
     0
 42
0.000000001
 43
0.00000001
 40
0.0
 40
0.0
 40
0.0
 40
0.0
 40
0.0078125
 40
0.0078125
 40
0.0156249999999999
 40
0.0156249999999999
 40
0.03125
 40
0.03125
 40
0.0625
 40
0.0625
 40
0.1249999999999996
 40
0.1249999999999996
 40
0.2499999999999997
 40
0.2499999999999997
 40
0.3749999999999998
 40
0.3749999999999998
 40
0.4999999999999999
 40
0.4999999999999999
 40
0.625
 40
0.625
 40
0.7500000000000001
 40
0.7500000000000001
 40
0.8750000000000002
 40
0.8750000000000002
 40
0.9375000000000011
 40
0.9375000000000011
 40
0.9687500000000016
 40
0.9687500000000016
 40
0.9843750000000008
 40
0.9843750000000008
 40
1.0
 40
1.0
 40
1.0
 40
1.0
 10
145.0576758218516
 20
213.3259005600281
 30
0.0
 10
145.0996346728886
 20
213.3371554114869
 30
0.0
 10
145.1488905742993
 20
213.3507041476137
 30
0.0
 10
145.2440477424748
 20
213.3775776973157
 30
0.0
 10
145.2902188177459
 20
213.3909761324614
 30
0.0
 10
145.4226117092624
 20
213.430581833845
 30
0.0
 10
145.5053307237209
 20
213.4568948799377
 30
0.0
 10
145.7528811489492
 20
213.5399358909052
 30
0.0
 10
145.914369928456
 20
213.5998410511378
 30
0.0
 10
146.3798456666508
 20
213.7904303041692
 30
0.0
 10
146.6664726161008
 20
213.9326135762104
 30
0.0
 10
147.4764362148932
 20
214.411267939784
 30
0.0
 10
147.9566076831125
 20
214.8021023745966
 30
0.0
 10
148.8036115975428
 20
215.6882158709446
 30
0.0
 10
149.1707107727908
 20
216.1838148862678
 30
0.0
 10
149.7957102196655
 20
217.2482483814929
 30
0.0
 10
150.0542017852187
 20
217.8178282205215
 30
0.0
 10
150.481755935787
 20
219.0042374329008
 30
0.0
 10
150.640714816494
 20
219.6200056079634
 30
0.0
 10
150.8758960281409
 20
220.8247558421947
 30
0.0
 10
150.9522073017496
 20
221.4116718724491
 30
0.0
 10
151.0531522560845
 20
222.5101683961589
 30
0.0
 10
151.0784833579604
 20
223.02450780085
 30
0.0
 10
151.1011795274157
 20
223.7575168624807
 30
0.0
 10
151.1062257964143
 20
223.9954915725915
 30
0.0
 10
151.1123673023033
 20
224.349765462972
 30
0.0
 10
151.114159407222
 20
224.4665494128425
 30
0.0
 10
151.1167083421524
 20
224.6367083891453
 30
0.0
 10
151.1175206262
 20
224.6918319088545
 30
0.0
 10
151.1192062127348
 20
224.8034760099561
 30
0.0
 10
151.1201462752848
 20
224.8634418880283
 30
0.0
 10
151.1212935434986
 20
224.9336259543516
 30
0.0
  0
LWPOLYLINE
  5
230
330
1F
100
AcDbEntity
  8
0
  6
Continuous
 62
     8
370
    18
100
AcDbPolyline
 90
        4
 70
   128
 43
0.0
 10
105.2054562048
 20
312.4223814074
 10
105.2054450289
 20
312.4222770993
 10
105.2067377046
 20
312.4206323836
 10
105.2069500462
 20
312.4208335493
  0
SPLINE
  5
231
330
1F
100
AcDbEntity
  8
0
  6
Continuous
 62
     8
370
    18
100
AcDbSpline
210
0.0
220
0.0
230
1.0
 70
     8
 71
     3
 72
    12
 73
     8
 74
     0
 42
0.000000001
 43
0.00000001
 40
0.0
 40
0.0
 40
0.0
 40
0.0
 40
0.2499999999999976
 40
0.2499999999999976
 40
0.4999999999999951
 40
0.4999999999999951
 40
1.0
 40
1.0
 40
1.0
 40
1.0
 10
105.2068330610807
 20
312.4160114693171
 30
0.0
 10
105.2068180915585
 20
312.4107077773859
 30
0.0
 10
105.2068356573316
 20
312.4009321216834
 30
0.0
 10
105.2070016638657
 20
312.3504451136379
 30
0.0
 10
105.2071496719723
 20
312.3097344919562
 30
0.0
 10
105.2078280891518
 20
312.1293818028052
 30
0.0
 10
105.2086084281811
 20
311.9253167532432
 30
0.0
 10
105.2097539159092
 20
311.643368915696
 30
0.0
  0
SPLINE
  5
232
330
1F
100
AcDbEntity
  8
0
  6
Continuous
 62
     8
370
    18
100
AcDbSpline
210
0.0
220
0.0
230
1.0
 70
     8
 71
     3
 72
    13
 73
     9
 74
     0
 42
0.000000001
 43
0.00000001
 40
0.0
 40
0.0
 40
0.0
 40
0.0
 40
0.0849673147554393
 40
0.3093030259536595
 40
0.4788880927211465
 40
0.6495497929843085
 40
0.8240834297055976
 40
1.0
 40
1.0
 40
1.0
 40
1.0
 10
153.2053113356866
 20
312.413718244791
 30
0.0
 10
153.2053202522134
 20
312.412477372562
 30
0.0
 10
153.2053527106796
 20
312.4079602763545
 30
0.0
 10
153.2052363030661
 20
312.3721350833567
 30
0.0
 10
153.2048803414509
 20
312.2746894791493
 30
0.0
 10
153.2043291673417
 20
312.1288437324076
 30
0.0
 10
153.2035304547294
 20
311.9225319464462
 30
0.0
 10
153.2027827829873
 20
311.7366679248867
 30
0.0
 10
153.202407471899
 20
311.6433691892623
 30
0.0
  0
LINE
  5
233
330
1F
100
AcDbEntity
  8
0
  6
Continuous
 62
     8
370
    18
100
AcDbLine
 10
153.2058477775
 20
312.4220740709
 30
0.0
 11
153.2052796707
 21
312.4219399605
 31
0.0
  0
SPLINE
  5
234
330
1F
100
AcDbEntity
  8
0
  6
Continuous
 62
     8
370
    18
100
AcDbSpline
210
0.0
220
0.0
230
1.0
 70
     8
 71
     3
 72
    14
 73
    10
 74
     0
 42
0.000000001
 43
0.00000001
 40
0.0
 40
0.0
 40
0.0
 40
0.0
 40
0.25
 40
0.25
 40
0.5
 40
0.5
 40
0.75
 40
0.75
 40
1.0
 40
1.0
 40
1.0
 40
1.0
 10
129.2060803995163
 20
211.5466552081572
 30
0.0
 10
129.206100995878
 20
211.5337958513718
 30
0.0
 10
129.2061148832928
 20
211.5440278088204
 30
0.0
 10
129.2061288628261
 20
211.6229072443153
 30
0.0
 10
129.2061289465462
 20
211.6918269366954
 30
0.0
 10
129.2061203496091
 20
211.8807275638995
 30
0.0
 10
129.2061118212497
 20
212.0003143247083
 30
0.0
 10
129.2060944882369
 20
212.2634147280315
 30
0.0
 10
129.2060858272351
 20
212.4063060963892
 30
0.0
 10
129.2060803994842
 20
212.5465565895773
 30
0.0
  0
LINE
  5
235
330
1F
100
AcDbEntity
  8
0
  6
Continuous
 62
     8
370
    18
100
AcDbLine
 10
105.9718676285
 20
229.1691318814
 30
0.0
 11
105.9716701881
 21
229.1848116282
 31
0.0
  0
LWPOLYLINE
  5
236
330
1F
100
AcDbEntity
  8
0
  6
Continuous
 62
     8
370
    18
100
AcDbPolyline
 90
        9
 70
   128
 43
0.0
 10
105.9716701881
 20
229.1848116282
 10
105.9915092216
 20
229.185001618
 10
106.0580447689
 20
229.1857764784
 10
106.1691776291
 20
229.1871213082
 10
106.3214004413
 20
229.1889914039
 10
106.5099113063
 20
229.1913234357
 10
106.7287609354
 20
229.1940466229
 10
106.9710445032
 20
229.1970790092
 10
107.2291158513
 20
229.2003200117
  0
SPLINE
  5
237
330
1F
100
AcDbEntity
  8
0
  6
Continuous
 62
     8
370
    18
100
AcDbSpline
210
0.0
220
0.0
230
1.0
 70
     8
 71
     3
 72
    14
 73
    10
 74
     0
 42
0.000000001
 43
0.00000001
 40
0.0
 40
0.0
 40
0.0
 40
0.0
 40
0.25
 40
0.25
 40
0.5
 40
0.5
 40
0.75
 40
0.75
 40
1.0
 40
1.0
 40
1.0
 40
1.0
 10
105.9718655778467
 20
229.1693058624875
 30
0.0
 10
105.9695142104809
 20
229.1692371099256
 30
0.0
 10
105.9943642932432
 20
229.1695090117313
 30
0.0
 10
106.1106397025466
 20
229.1708949931044
 30
0.0
 10
106.2023450911016
 20
229.172012773956
 30
0.0
 10
106.4408525136921
 20
229.1749544166458
 30
0.0
 10
106.5871236592674
 20
229.1767717307459
 30
0.0
 10
106.9011841652224
 20
229.1806933179406
 30
0.0
 10
107.0682375628105
 20
229.1827882668769
 30
0.0
 10
107.229320518801
 20
229.1848147430696
 30
0.0
  0
SPLINE
  5
238
330
1F
100
AcDbEntity
  8
0
  6
Continuous
 62
     8
370
    18
100
AcDbSpline
210
0.0
220
0.0
230
1.0
 70
     8
 71
     3
 72
    11
 73
     7
 74
     0
 42
0.000000001
 43
0.00000001
 40
0.0
 40
0.0
 40
0.0
 40
0.0
 40
0.2791739047667467
 40
0.5784927704197033
 40
0.8778080665401492
 40
1.0
 40
1.0
 40
1.0
 40
1.0
 10
106.7452211306133
 20
278.813125724703
 30
0.0
 10
106.5718989170825
 20
278.8109805021257
 30
0.0
 10
106.2127477006949
 20
278.8065352594625
 30
0.0
 10
105.7895304335185
 20
278.8010991757911
 30
0.0
 10
105.5431181390874
 20
278.7977967248045
 30
0.0
 10
105.5248412267006
 20
278.7973767921766
 30
0.0
 10
105.5195428804197
 20
278.797255056709
 30
0.0
  0
SPLINE
  5
239
330
1F
100
AcDbEntity
  8
0
  6
Continuous
 62
     8
370
    18
100
AcDbSpline
210
0.0
220
0.0
230
1.0
 70
     8
 71
     3
 72
    14
 73
    10
 74
     0
 42
0.000000001
 43
0.00000001
 40
0.0
 40
0.0
 40
0.0
 40
0.0
 40
0.25
 40
0.25
 40
0.5
 40
0.5
 40
0.75
 40
0.75
 40
1.0
 40
1.0
 40
1.0
 40
1.0
 10
152.9260322037263
 20
278.7966291973208
 30
0.0
 10
152.9367720906487
 20
278.7966467245203
 30
0.0
 10
152.9192422823592
 20
278.7970116646646
 30
0.0
 10
152.8119776319932
 20
278.7986006626888
 30
0.0
 10
152.7218526322855
 20
278.7998288122499
 30
0.0
 10
152.4806414786507
 20
278.8029806365673
 30
0.0
 10
152.330181141113
 20
278.8048962809103
 30
0.0
 10
152.0058984215038
 20
278.8089581058809
 30
0.0
 10
151.8329586765872
 20
278.8110938753387
 30
0.0
 10
151.6669391204466
 20
278.8131255013545
 30
0.0
  0
SPLINE
  5
23A
330
1F
100
AcDbEntity
  8
0
  6
Continuous
 62
     8
370
    18
100
AcDbSpline
210
0.0
220
0.0
230
1.0
 70
     8
 71
     3
 72
    14
 73
    10
 74
     0
 42
0.000000001
 43
0.00000001
 40
0.0
 40
0.0
 40
0.0
 40
0.0
 40
0.1453545260330275
 40
0.2847834680809743
 40
0.4266488355815546
 40
0.5705534442175332
 40
0.7151615625960499
 40
0.859421718774141
 40
1.0
 40
1.0
 40
1.0
 40
1.0
 10
153.1418584660329
 20
301.9601103577613
 30
0.0
 10
153.1464714214688
 20
302.6240750010707
 30
0.0
 10
153.1555092786514
 20
303.9249368246772
 30
0.0
 10
153.1682493589036
 20
305.8568802200049
 30
0.0
 10
153.1798409204291
 20
307.6200408676949
 30
0.0
 10
153.1898568399327
 20
309.1559069073209
 30
0.0
 10
153.1977481587064
 20
310.3879716365976
 30
0.0
 10
153.2032256994694
 20
311.2721956977363
 30
0.0
 10
153.2045024153475
 20
311.4769896259172
 30
0.0
 10
153.2051325217523
 20
311.5780629876851
 30
0.0
  0
SPLINE
  5
23B
330
1F
100
AcDbEntity
  8
0
  6
Continuous
 62
     8
370
    18
100
AcDbSpline
210
0.0
220
0.0
230
1.0
 70
     8
 71
     3
 72
    14
 73
    10
 74
     0
 42
0.000000001
 43
0.00000001
 40
0.0
 40
0.0
 40
0.0
 40
0.0
 40
0.1453545260330275
 40
0.2847834680809743
 40
0.4266488355815546
 40
0.5705534442175332
 40
0.7151615625960499
 40
0.859421718774141
 40
1.0
 40
1.0
 40
1.0
 40
1.0
 10
105.2703023330011
 20
301.9601103577613
 30
0.0
 10
105.2656893775652
 20
302.6240750010707
 30
0.0
 10
105.2566515203826
 20
303.9249368246772
 30
0.0
 10
105.2439114401304
 20
305.8568802200049
 30
0.0
 10
105.2323198786049
 20
307.6200408676949
 30
0.0
 10
105.2223039591013
 20
309.1559069073209
 30
0.0
 10
105.2144126403276
 20
310.3879716365976
 30
0.0
 10
105.2089350995646
 20
311.2721956977363
 30
0.0
 10
105.2076583836865
 20
311.4769896259172
 30
0.0
 10
105.2070282772817
 20
311.5780629876851
 30
0.0
  0
LWPOLYLINE
  5
23C
330
1F
100
AcDbEntity
  8
0
  6
Continuous
 62
     8
370
    18
100
AcDbPolyline
 90
        9
 70
   128
 43
0.0
 10
152.440490611
 20
229.1848116282
 10
152.4206515775
 20
229.185001618
 10
152.3541160301
 20
229.1857764784
 10
152.2429831699
 20
229.1871213082
 10
152.0907603577
 20
229.1889914039
 10
151.9022494928
 20
229.1913234357
 10
151.6833998636
 20
229.1940466229
 10
151.4411162958
 20
229.1970790092
 10
151.1830449477
 20
229.2003200117
  0
SPLINE
  5
23D
330
1F
100
AcDbEntity
  8
0
  6
Continuous
 62
     8
370
    18
100
AcDbSpline
210
0.0
220
0.0
230
1.0
 70
     8
 71
     3
 72
    14
 73
    10
 74
     0
 42
0.000000001
 43
0.00000001
 40
0.0
 40
0.0
 40
0.0
 40
0.0
 40
0.25
 40
0.25
 40
0.5
 40
0.5
 40
0.75
 40
0.75
 40
1.0
 40
1.0
 40
1.0
 40
1.0
 10
106.5395327763346
 20
301.2409553264362
 30
0.0
 10
106.3792262052671
 20
301.239626985999
 30
0.0
 10
106.2129765584438
 20
301.2380575503457
 30
0.0
 10
105.8999431665717
 20
301.2346152277601
 30
0.0
 10
105.753870256653
 20
301.2327463933236
 30
0.0
 10
105.5145498881294
 20
301.2290645882452
 30
0.0
 10
105.4218202143377
 20
301.2272595834224
 30
0.0
 10
105.3024054282414
 20
301.2240489415838
 30
0.0
 10
105.2754608424437
 20
301.2226461960092
 30
0.0
 10
105.2755569024259
 20
301.2215097906458
 30
0.0
  0
LINE
  5
23E
330
1F
100
AcDbEntity
  8
0
  6
Continuous
 62
     8
370
    18
100
AcDbLine
 10
153.1366039441
 20
301.2215100888
 30
0.0
 11
153.1367436425
 21
301.2409551728
 31
0.0
  0
SPLINE
  5
23F
330
1F
100
AcDbEntity
  8
0
  6
Continuous
 62
     8
370
    18
100
AcDbSpline
210
0.0
220
0.0
230
1.0
 70
     8
 71
     3
 72
     9
 73
     5
 74
     0
 42
0.000000001
 43
0.00000001
 40
0.0
 40
0.0
 40
0.0
 40
0.0
 40
0.1334316343629111
 40
1.0
 40
1.0
 40
1.0
 40
1.0
 10
153.2040465996303
 20
311.6710946623086
 30
0.0
 10
153.2039995757732
 20
311.6711240266862
 30
0.0
 10
153.2036471566685
 20
311.671344097269
 30
0.0
 10
153.2031626265225
 20
311.670591767497
 30
0.0
 10
153.2027427480258
 20
311.6699398223161
 30
0.0
  0
LINE
  5
240
330
1F
100
AcDbEntity
  8
0
  6
Continuous
 62
     8
370
    18
100
AcDbLine
 10
105.2089412138
 20
311.6704427365
 30
0.0
 11
105.209418051
 21
311.6699398223
 31
0.0
  0
LINE
  5
241
330
1F
100
AcDbEntity
  8
0
  6
Continuous
 62
     8
370
    18
100
AcDbLine
 10
105.8190916107
 20
312.9341059092
 30
0.0
 11
105.8183223382
 21
312.9335154507
 31
0.0
  0
LINE
  5
242
330
1F
100
AcDbEntity
  8
0
  6
Continuous
 62
     8
370
    18
100
AcDbLine
 10
105.8162417636
 20
312.929855353
 30
0.0
 11
105.8153458313
 21
312.928039274
 31
0.0
  0
SPLINE
  5
243
330
1F
100
AcDbEntity
  8
0
  6
Continuous
 62
     8
370
    18
100
AcDbSpline
210
0.0
220
0.0
230
1.0
 70
    24
 71
     3
 72
    14
 73
    10
 74
     0
 42
0.000000001
 43
0.00000001
 40
0.0710594971401061
 40
0.0710594971401061
 40
0.0710594971401061
 40
0.0710594971401061
 40
0.0914755590470074
 40
0.09375
 40
0.115707703930753
 40
0.125
 40
0.1283061042700326
 40
0.1362411064927967
 40
0.136414200749065
 40
0.136414200749065
 40
0.136414200749065
 40
0.136414200749065
 10
129.206080399517
 20
321.040942261894
 30
0.0
 10
129.206080399517
 20
321.042549163247
 30
0.0
 10
129.206080399517
 20
321.0443042701362
 30
0.0
 10
129.206080399517
 20
321.0418093357245
 30
0.0
 10
129.206080399517
 20
321.0346407143295
 30
0.0
 10
129.206080399517
 20
321.041311465718
 30
0.0
 10
129.206080399517
 20
321.0507823081074
 30
0.0
 10
129.206080399517
 20
321.0544313749136
 30
0.0
 10
129.206080399517
 20
321.0508498849867
 30
0.0
 10
129.206080399517
 20
321.0507705594106
 30
0.0
  0
LINE
  5
244
330
1F
100
AcDbEntity
  8
0
  6
Continuous
 62
     8
370
    18
100
AcDbLine
 10
152.5959283487
 20
312.9298926059
 30
0.0
 11
152.5968075172
 21
312.9281193677
 31
0.0
  0
SPLINE
  5
245
330
1F
100
AcDbEntity
  8
0
  6
Continuous
 62
     8
370
    18
100
AcDbSpline
210
0.0
220
0.0
230
1.0
 70
     8
 71
     3
 72
    22
 73
    18
 74
     0
 42
0.000000001
 43
0.00000001
 40
0.0
 40
0.0
 40
0.0
 40
0.0
 40
0.0000004457043911
 40
0.0437244589595259
 40
0.0783590572878714
 40
0.0957270814178685
 40
0.1132478087334464
 40
0.1287056135865735
 40
0.1462385975661875
 40
0.1635869004069493
 40
0.179040288445167
 40
0.1948101986878612
 40
0.2371235586219517
 40
0.279473641088031
 40
0.3641865976454313
 40
0.7026257433032314
 40
1.0
 40
1.0
 40
1.0
 40
1.0
 10
129.206080399517
 20
99.95143643653387
 30
0.0
 10
129.2060603995295
 20
99.95143643653323
 30
0.0
 10
127.2440231223396
 20
99.95143637386639
 30
0.0
 10
123.7276493120007
 20
99.98384258604037
 30
0.0
 10
119.4347141803446
 20
100.1373803727065
 30
0.0
 10
116.3229689485144
 20
100.3448202324835
 30
0.0
 10
114.0855523585385
 20
100.7160503379662
 30
0.0
 10
111.9642827313458
 20
101.5977446315786
 30
0.0
 10
110.2747637825831
 20
103.1867976448045
 30
0.0
 10
109.2660724125809
 20
105.2453647548509
 30
0.0
 10
108.7534512511782
 20
107.3721374541948
 30
0.0
 10
108.402526324676
 20
110.6579815315668
 30
0.0
 10
108.3677057914945
 20
115.1686933265716
 30
0.0
 10
108.2242358964665
 20
122.7661249770409
 30
0.0
 10
107.9659492482483
 20
143.6544487298523
 30
0.0
 10
107.5364135235353
 20
175.9824387162852
 30
0.0
 10
107.2778447756955
 20
204.5122004581331
 30
0.0
 10
107.1569104120769
 20
217.8557642463445
 30
0.0
  0
SPLINE
  5
246
330
1F
100
AcDbEntity
  8
0
  6
Continuous
 62
     8
370
    18
100
AcDbSpline
210
0.0
220
0.0
230
1.0
 70
     8
 71
     3
 72
    26
 73
    22
 74
     0
 42
0.000000001
 43
0.00000001
 40
0.0
 40
0.0
 40
0.0
 40
0.0
 40
0.0000004456303238
 40
0.0437171928150763
 40
0.0783460355548932
 40
0.0957111734611351
 40
0.113228989176694
 40
0.1209044063476471
 40
0.1287227057247794
 40
0.1373718392083155
 40
0.1463287830589735
 40
0.1549216914421274
 40
0.1637230675447088
 40
0.1791738875340038
 40
0.1949411771280152
 40
0.2160855422648681
 40
0.2372503336707949
 40
0.2795933783867459
 40
0.3642922573181734
 40
0.7026751610514703
 40
1.0
 40
1.0
 40
1.0
 40
1.0
 10
129.206080399517
 20
99.95143643653384
 30
0.0
 10
129.2061003995044
 20
99.9514364365332
 30
0.0
 10
131.1681376769833
 20
99.95143637699857
 30
0.0
 10
134.6843590990946
 20
99.9836267404282
 30
0.0
 10
138.9777753241376
 20
100.1378459562118
 30
0.0
 10
142.0886177184969
 20
100.3440070231406
 30
0.0
 10
143.9825032849844
 20
100.6610699095454
 30
0.0
 10
145.3838790264266
 20
101.152843648948
 30
0.0
 10
146.3484392639778
 20
101.6561042168046
 30
0.0
 10
147.2573879362591
 20
102.3569259293639
 30
0.0
 10
148.043002558447
 20
103.24106031492
 30
0.0
 10
148.6631276643046
 20
104.2543359763485
 30
0.0
 10
149.2344068608281
 20
105.618002021953
 30
0.0
 10
149.6582810216376
 20
107.3727186158509
 30
0.0
 10
149.9131000002837
 20
109.7117310962872
 30
0.0
 10
149.9981389053353
 20
112.3178987438816
 30
0.0
 10
150.0762025637333
 20
116.1159642812901
 30
0.0
 10
150.1782189685847
 20
122.7669645929253
 30
0.0
 10
150.4607738059798
 20
143.6531890158676
 30
0.0
 10
150.871168572242
 20
175.9828347989282
 30
0.0
 10
151.1328569508097
 20
204.5123266758133
 30
0.0
 10
151.2552503869571
 20
217.8557642463445
 30
0.0
  0
SPLINE
  5
247
330
1F
100
AcDbEntity
  8
0
  6
Continuous
 62
     8
370
    18
100
AcDbSpline
210
0.0
220
0.0
230
1.0
 70
     8
 71
     3
 72
    16
 73
    12
 74
     0
 42
0.000000001
 43
0.00000001
 40
0.0
 40
0.0
 40
0.0
 40
0.0
 40
0.4999999999999919
 40
0.4999999999999919
 40
0.7499999999999878
 40
0.7499999999999878
 40
0.8749999999999898
 40
0.8749999999999898
 40
0.9374999999999949
 40
0.9374999999999949
 40
1.0
 40
1.0
 40
1.0
 40
1.0
 10
152.4724332042023
 20
312.8633255596637
 30
0.0
 10
152.508941073235
 20
313.2031065186247
 30
0.0
 10
152.5369974197316
 20
313.4341612686127
 30
0.0
 10
152.5657403472765
 20
313.6163008330445
 30
0.0
 10
152.5732446830133
 20
313.6510810046597
 30
0.0
 10
152.5825763672422
 20
313.6752209379105
 30
0.0
 10
152.5854443094437
 20
313.6790084607635
 30
0.0
 10
152.5895970170413
 20
313.6816177707666
 30
0.0
 10
152.5909540046938
 20
313.6819771839451
 30
0.0
 10
152.5936211388666
 20
313.6822489486074
 30
0.0
 10
152.5949460154704
 20
313.6821610887761
 30
0.0
 10
152.5962126303323
 20
313.6821443903355
 30
0.0
  0
SPLINE
  5
248
330
1F
100
AcDbEntity
  8
0
  6
Continuous
 62
     8
370
    18
100
AcDbSpline
210
0.0
220
0.0
230
1.0
 70
     8
 71
     3
 72
    16
 73
    12
 74
     0
 42
0.000000001
 43
0.00000001
 40
0.0
 40
0.0
 40
0.0
 40
0.0
 40
0.4999999999999919
 40
0.4999999999999919
 40
0.7499999999999878
 40
0.7499999999999878
 40
0.8749999999999898
 40
0.8749999999999898
 40
0.9374999999999949
 40
0.9374999999999949
 40
1.0
 40
1.0
 40
1.0
 40
1.0
 10
105.9397275948317
 20
312.8633255596637
 30
0.0
 10
105.903219725799
 20
313.2031065186247
 30
0.0
 10
105.8751633793024
 20
313.4341612686127
 30
0.0
 10
105.8464204517575
 20
313.6163008330445
 30
0.0
 10
105.8389161160207
 20
313.6510810046597
 30
0.0
 10
105.8295844317918
 20
313.6752209379105
 30
0.0
 10
105.8267164895904
 20
313.6790084607635
 30
0.0
 10
105.8225637819927
 20
313.6816177707666
 30
0.0
 10
105.8212067943402
 20
313.6819771839451
 30
0.0
 10
105.8185396601674
 20
313.6822489486074
 30
0.0
 10
105.8172147931454
 20
313.6821610831547
 30
0.0
 10
105.8159481687017
 20
313.6821443903355
 30
0.0
  0
LINE
  5
249
330
1F
100
AcDbEntity
  8
0
  6
Continuous
 62
     8
370
    18
100
AcDbLine
 10
105.8165658639
 20
313.6824832026
 30
0.0
 11
105.8169570193
 21
313.6832114968
 31
0.0
  0
ARC
  5
24A
330
1F
100
AcDbEntity
  8
0
  6
Continuous
 62
     8
370
    18
100
AcDbCircle
 10
153.2047702333
 20
312.4227496281
 30
0.0
 40
0.0016788528960456
100
AcDbArc
 50
246.8396057507
 51
277.9397683734
  0
ENDSEC
  0
SECTION
  2
OBJECTS
  0
DICTIONARY
  5
C
330
0
100
AcDbDictionary
281
     1
  3
ACAD_GROUP
350
D
  3
ACAD_LAYOUT
350
1A
  3
ACAD_MLINESTYLE
350
17
  3
ACAD_PLOTSETTINGS
350
19
  3
ACAD_PLOTSTYLENAME
350
E
  3
ACAD_SCALELIST
350
47
  0
DICTIONARY
  5
D
102
{ACAD_REACTORS
330
C
102
}
330
C
100
AcDbDictionary
281
     1
  0
DICTIONARY
  5
1A
102
{ACAD_REACTORS
330
C
102
}
330
C
100
AcDbDictionary
281
     1
  3
Layout1
350
1E
  3
Layout2
350
26
  3
Model
350
22
  0
DICTIONARY
  5
17
102
{ACAD_REACTORS
330
C
102
}
330
C
100
AcDbDictionary
281
     1
  3
Standard
350
18
  0
DICTIONARY
  5
19
102
{ACAD_REACTORS
330
C
102
}
330
C
100
AcDbDictionary
281
     1
  0
ACDBDICTIONARYWDFLT
  5
E
102
{ACAD_REACTORS
330
C
102
}
330
C
100
AcDbDictionary
281
     1
  3
Normal
350
F
100
AcDbDictionaryWithDefault
340
F
  0
DICTIONARY
  5
47
102
{ACAD_REACTORS
330
C
102
}
330
C
100
AcDbDictionary
281
     1
  3
A0
350
48
  3
A1
350
49
  3
A2
350
4A
  3
A3
350
4B
  3
A4
350
4C
  3
A5
350
4D
  3
A6
350
4E
  3
A7
350
4F
  3
A8
350
50
  3
A9
350
51
  3
B0
350
52
  3
B1
350
53
  3
B2
350
54
  3
B3
350
55
  3
B4
350
56
  3
B5
350
57
  3
B6
350
58
  3
B7
350
59
  3
B8
350
5A
  3
B9
350
5B
  3
C0
350
5C
  3
C1
350
5D
  3
C2
350
5E
  3
C3
350
5F
  3
C4
350
60
  3
C5
350
61
  3
C6
350
62
  3
C7
350
63
  3
C8
350
64
  3
C9
350
65
  3
D0
350
66
  3
D1
350
67
  3
D2
350
68
  0
LAYOUT
  5
1E
102
{ACAD_REACTORS
330
1A
102
}
330
1A
100
AcDbPlotSettings
  1

  2
none_device
  4

  6

 40
0.0
 41
0.0
 42
0.0
 43
0.0
 44
0.0
 45
0.0
 46
0.0
 47
0.0
 48
0.0
 49
0.0
140
0.0
141
0.0
142
1.0
143
1.0
 70
   688
 72
     1
 73
     0
 74
     5
  7

 75
    16
147
1.0
148
0.0
149
0.0
100
AcDbLayout
  1
Layout1
 70
     1
 71
     1
 10
0.0
 20
0.0
 11
420.0
 21
297.0
 12
0.0
 22
0.0
 32
0.0
 14
1.0000000000E+20
 24
1.0000000000E+20
 34
1.0000000000E+20
 15
-1.0000000000E+20
 25
-1.0000000000E+20
 35
-1.0000000000E+20
146
0.0
 13
0.0
 23
0.0
 33
0.0
 16
1.0
 26
0.0
 36
0.0
 17
0.0
 27
1.0
 37
0.0
 76
     0
330
1B
  0
LAYOUT
  5
26
102
{ACAD_REACTORS
330
1A
102
}
330
1A
100
AcDbPlotSettings
  1

  2
none_device
  4

  6

 40
0.0
 41
0.0
 42
0.0
 43
0.0
 44
0.0
 45
0.0
 46
0.0
 47
0.0
 48
0.0
 49
0.0
140
0.0
141
0.0
142
1.0
143
1.0
 70
   688
 72
     1
 73
     0
 74
     5
  7

 75
    16
147
1.0
148
0.0
149
0.0
100
AcDbLayout
  1
Layout2
 70
     1
 71
     2
 10
0.0
 20
0.0
 11
0.0
 21
0.0
 12
0.0
 22
0.0
 32
0.0
 14
0.0
 24
0.0
 34
0.0
 15
0.0
 25
0.0
 35
0.0
146
0.0
 13
0.0
 23
0.0
 33
0.0
 16
1.0
 26
0.0
 36
0.0
 17
0.0
 27
1.0
 37
0.0
 76
     0
330
23
  0
LAYOUT
  5
22
102
{ACAD_REACTORS
330
1A
102
}
330
1A
100
AcDbPlotSettings
  1

  2
none_device
  4
Letter_(8.50_x_11.00_Inches)
  6

 40
6.35
 41
6.35
 42
6.35000508
 43
6.35000508
 44
215.9
 45
279.4
 46
0.0
 47
0.0
 48
0.0
 49
0.0
140
0.0
141
0.0
142
1.0
143
1.0
 70
  1712
 72
     1
 73
     0
 74
     0
  7

 75
     0
147
1.0
148
0.0
149
0.0
100
AcDbLayout
  1
Model
 70
     1
 71
     0
 10
0.0
 20
0.0
 11
594.0
 21
841.0
 12
0.0
 22
0.0
 32
0.0
 14
0.0
 24
0.0
 34
0.0
 15
594.0
 25
841.0
 35
0.0
146
0.0
 13
0.0
 23
0.0
 33
0.0
 16
1.0
 26
0.0
 36
0.0
 17
0.0
 27
1.0
 37
0.0
 76
     0
330
1F
331
29
  0
MLINESTYLE
  5
18
102
{ACAD_REACTORS
330
17
102
}
330
17
100
AcDbMlineStyle
  2
Standard
 70
     0
  3

 62
   256
 51
90.0
 52
90.0
 71
     2
 49
0.5
 62
   256
  6
BYLAYER
 49
-0.5
 62
   256
  6
BYLAYER
  0
ACDBPLACEHOLDER
  5
F
102
{ACAD_REACTORS
330
E
102
}
330
E
  0
SCALE
  5
48
102
{ACAD_REACTORS
330
47
102
}
330
47
100
AcDbScale
 70
     0
300
1:1
140
1.0
141
1.0
290
     1
  0
SCALE
  5
49
102
{ACAD_REACTORS
330
47
102
}
330
47
100
AcDbScale
 70
     0
300
1:2
140
1.0
141
2.0
290
     0
  0
SCALE
  5
4A
102
{ACAD_REACTORS
330
47
102
}
330
47
100
AcDbScale
 70
     0
300
1:4
140
1.0
141
4.0
290
     0
  0
SCALE
  5
4B
102
{ACAD_REACTORS
330
47
102
}
330
47
100
AcDbScale
 70
     0
300
1:5
140
1.0
141
5.0
290
     0
  0
SCALE
  5
4C
102
{ACAD_REACTORS
330
47
102
}
330
47
100
AcDbScale
 70
     0
300
1:8
140
1.0
141
8.0
290
     0
  0
SCALE
  5
4D
102
{ACAD_REACTORS
330
47
102
}
330
47
100
AcDbScale
 70
     0
300
1:10
140
1.0
141
10.0
290
     0
  0
SCALE
  5
4E
102
{ACAD_REACTORS
330
47
102
}
330
47
100
AcDbScale
 70
     0
300
1:16
140
1.0
141
16.0
290
     0
  0
SCALE
  5
4F
102
{ACAD_REACTORS
330
47
102
}
330
47
100
AcDbScale
 70
     0
300
1:20
140
1.0
141
20.0
290
     0
  0
SCALE
  5
50
102
{ACAD_REACTORS
330
47
102
}
330
47
100
AcDbScale
 70
     0
300
1:30
140
1.0
141
30.0
290
     0
  0
SCALE
  5
51
102
{ACAD_REACTORS
330
47
102
}
330
47
100
AcDbScale
 70
     0
300
1:40
140
1.0
141
40.0
290
     0
  0
SCALE
  5
52
102
{ACAD_REACTORS
330
47
102
}
330
47
100
AcDbScale
 70
     0
300
1:50
140
1.0
141
50.0
290
     0
  0
SCALE
  5
53
102
{ACAD_REACTORS
330
47
102
}
330
47
100
AcDbScale
 70
     0
300
1:100
140
1.0
141
100.0
290
     0
  0
SCALE
  5
54
102
{ACAD_REACTORS
330
47
102
}
330
47
100
AcDbScale
 70
     0
300
2:1
140
2.0
141
1.0
290
     0
  0
SCALE
  5
55
102
{ACAD_REACTORS
330
47
102
}
330
47
100
AcDbScale
 70
     0
300
4:1
140
4.0
141
1.0
290
     0
  0
SCALE
  5
56
102
{ACAD_REACTORS
330
47
102
}
330
47
100
AcDbScale
 70
     0
300
8:1
140
8.0
141
1.0
290
     0
  0
SCALE
  5
57
102
{ACAD_REACTORS
330
47
102
}
330
47
100
AcDbScale
 70
     0
300
10:1
140
10.0
141
1.0
290
     0
  0
SCALE
  5
58
102
{ACAD_REACTORS
330
47
102
}
330
47
100
AcDbScale
 70
     0
300
100:1
140
100.0
141
1.0
290
     0
  0
SCALE
  5
59
102
{ACAD_REACTORS
330
47
102
}
330
47
100
AcDbScale
 70
     0
300
1/128" = 1'-0"
140
0.0078125
141
12.0
290
     0
  0
SCALE
  5
5A
102
{ACAD_REACTORS
330
47
102
}
330
47
100
AcDbScale
 70
     0
300
1/64" = 1'-0"
140
0.015625
141
12.0
290
     0
  0
SCALE
  5
5B
102
{ACAD_REACTORS
330
47
102
}
330
47
100
AcDbScale
 70
     0
300
1/32" = 1'-0"
140
0.03125
141
12.0
290
     0
  0
SCALE
  5
5C
102
{ACAD_REACTORS
330
47
102
}
330
47
100
AcDbScale
 70
     0
300
1/16" = 1'-0"
140
0.0625
141
12.0
290
     0
  0
SCALE
  5
5D
102
{ACAD_REACTORS
330
47
102
}
330
47
100
AcDbScale
 70
     0
300
3/32" = 1'-0"
140
0.09375
141
12.0
290
     0
  0
SCALE
  5
5E
102
{ACAD_REACTORS
330
47
102
}
330
47
100
AcDbScale
 70
     0
300
1/8" = 1'-0"
140
0.125
141
12.0
290
     0
  0
SCALE
  5
5F
102
{ACAD_REACTORS
330
47
102
}
330
47
100
AcDbScale
 70
     0
300
3/16" = 1'-0"
140
0.1875
141
12.0
290
     0
  0
SCALE
  5
60
102
{ACAD_REACTORS
330
47
102
}
330
47
100
AcDbScale
 70
     0
300
1/4" = 1'-0"
140
0.25
141
12.0
290
     0
  0
SCALE
  5
61
102
{ACAD_REACTORS
330
47
102
}
330
47
100
AcDbScale
 70
     0
300
3/8" = 1'-0"
140
0.375
141
12.0
290
     0
  0
SCALE
  5
62
102
{ACAD_REACTORS
330
47
102
}
330
47
100
AcDbScale
 70
     0
300
1/2" = 1'-0"
140
0.5
141
12.0
290
     0
  0
SCALE
  5
63
102
{ACAD_REACTORS
330
47
102
}
330
47
100
AcDbScale
 70
     0
300
3/4" = 1'-0"
140
0.75
141
12.0
290
     0
  0
SCALE
  5
64
102
{ACAD_REACTORS
330
47
102
}
330
47
100
AcDbScale
 70
     0
300
1" = 1'-0"
140
1.0
141
12.0
290
     0
  0
SCALE
  5
65
102
{ACAD_REACTORS
330
47
102
}
330
47
100
AcDbScale
 70
     0
300
1-1/2" = 1'-0"
140
1.5
141
12.0
290
     0
  0
SCALE
  5
66
102
{ACAD_REACTORS
330
47
102
}
330
47
100
AcDbScale
 70
     0
300
3" = 1'-0"
140
3.0
141
12.0
290
     0
  0
SCALE
  5
67
102
{ACAD_REACTORS
330
47
102
}
330
47
100
AcDbScale
 70
     0
300
6" = 1'-0"
140
6.0
141
12.0
290
     0
  0
SCALE
  5
68
102
{ACAD_REACTORS
330
47
102
}
330
47
100
AcDbScale
 70
     0
300
1'-0" = 1'-0"
140
12.0
141
12.0
290
     0
  0
ENDSEC
  0
EOF
