  0
SECTION
  2
HEADER
  9
$ACADVER
  1
AC1015
  9
$ACADMAINTVER
 70
     6
  9
$DWGCODEPAGE
  3
ANSI_1252
  9
$INSBASE
 10
0.0
 20
0.0
 30
0.0
  9
$EXTMIN
 10
0.0
 20
0.0
 30
0.0
  9
$EXTMAX
 10
594.0
 20
841.0
 30
0.0
  9
$LIMMIN
 10
0.0
 20
0.0
  9
$LIMMAX
 10
594.0
 20
841.0
  9
$ORTHOMODE
 70
     0
  9
$REGENMODE
 70
     1
  9
$FILLMODE
 70
     1
  9
$QTEXTMODE
 70
     0
  9
$MIRRTEXT
 70
     1
  9
$LTSCALE
 40
1.0
  9
$ATTMODE
 70
     1
  9
$TEXTSIZE
 40
10.0
  9
$TRACEWID
 40
1.0
  9
$TEXTSTYLE
  7
Standard
  9
$CLAYER
  8
0
  9
$CELTYPE
  6
ByLayer
  9
$CECOLOR
 62
   256
  9
$CELTSCALE
 40
1.0
  9
$DISPSILH
 70
     0
  9
$DIMSCALE
 40
1.0
  9
$DIMASZ
 40
2.5
  9
$DIMEXO
 40
0.0
  9
$DIMDLI
 40
3.75
  9
$DIMRND
 40
0.0
  9
$DIMDLE
 40
0.0
  9
$DIMEXE
 40
1.0
  9
$DIMTP
 40
0.0
  9
$DIMTM
 40
0.0
  9
$DIMTXT
 40
3.5
  9
$DIMCEN
 40
2.5
  9
$DIMTSZ
 40
0.0
  9
$DIMTOL
 70
     0
  9
$DIMLIM
 70
     0
  9
$DIMTIH
 70
     1
  9
$DIMTOH
 70
     1
  9
$DIMSE1
 70
     0
  9
$DIMSE2
 70
     0
  9
$DIMTAD
 70
     1
  9
$DIMZIN
 70
     0
  9
$DIMBLK
  1

  9
$DIMASO
 70
     1
  9
$DIMSHO
 70
     1
  9
$DIMPOST
  1

  9
$DIMAPOST
  1

  9
$DIMALT
 70
     0
  9
$DIMALTD
 70
     3
  9
$DIMALTF
 40
0.0393700787
  9
$DIMLFAC
 40
1.0
  9
$DIMTOFL
 70
     1
  9
$DIMTVP
 40
0.0
  9
$DIMTIX
 70
     0
  9
$DIMSOXD
 70
     0
  9
$DIMSAH
 70
     0
  9
$DIMBLK1
  1

  9
$DIMBLK2
  1

  9
$DIMSTYLE
  2
ISO-25
  9
$DIMCLRD
 70
     0
  9
$DIMCLRE
 70
     0
  9
$DIMCLRT
 70
     0
  9
$DIMTFAC
 40
1.0
  9
$DIMGAP
 40
1.5
  9
$DIMJUST
 70
     0
  9
$DIMSD1
 70
     0
  9
$DIMSD2
 70
     0
  9
$DIMTOLJ
 70
     0
  9
$DIMTZIN
 70
     0
  9
$DIMALTZ
 70
     0
  9
$DIMALTTZ
 70
     0
  9
$DIMUPT
 70
     0
  9
$DIMDEC
 70
     2
  9
$DIMTDEC
 70
     2
  9
$DIMALTU
 70
     2
  9
$DIMALTTD
 70
     3
  9
$DIMTXSTY
  7
Standard
  9
$DIMAUNIT
 70
     0
  9
$DIMADEC
 70
     2
  9
$DIMALTRND
 40
0.0
  9
$DIMAZIN
 70
     0
  9
$DIMDSEP
 70
    44
  9
$DIMATFIT
 70
     3
  9
$DIMFRAC
 70
     0
  9
$DIMLDRBLK
  1

  9
$DIMLUNIT
 70
     2
  9
$DIMLWD
 70
    -2
  9
$DIMLWE
 70
    -2
  9
$DIMTMOVE
 70
     0
  9
$LUNITS
 70
     2
  9
$LUPREC
 70
     2
  9
$SKETCHINC
 40
1.0
  9
$FILLETRAD
 40
10.0
  9
$AUNITS
 70
     0
  9
$AUPREC
 70
     2
  9
$MENU
  1
.
  9
$ELEVATION
 40
0.0
  9
$PELEVATION
 40
0.0
  9
$THICKNESS
 40
0.0
  9
$LIMCHECK
 70
     0
  9
$CHAMFERA
 40
0.0
  9
$CHAMFERB
 40
0.0
  9
$CHAMFERC
 40
0.0
  9
$CHAMFERD
 40
0.0
  9
$SKPOLY
 70
     0
  9
$TDCREATE
 40
2459079.422504097
  9
$TDUCREATE
 40
2459079.339170764
  9
$TDUPDATE
 40
2459079.422506447
  9
$TDUUPDATE
 40
2459079.339173113
  9
$TDINDWG
 40
0.0000000116
  9
$TDUSRTIMER
 40
0.0000000116
  9
$USRTIMER
 70
     1
  9
$ANGBASE
 50
0.0
  9
$ANGDIR
 70
     0
  9
$PDMODE
 70
     0
  9
$PDSIZE
 40
-1.0
  9
$PLINEWID
 40
0.0
  9
$SPLFRAME
 70
     0
  9
$SPLINETYPE
 70
     6
  9
$SPLINESEGS
 70
     8
  9
$HANDSEED
  5
25E
  9
$SURFTAB1
 70
     6
  9
$SURFTAB2
 70
     6
  9
$SURFTYPE
 70
     6
  9
$SURFU
 70
     6
  9
$SURFV
 70
     6
  9
$UCSBASE
  2

  9
$UCSNAME
  2

  9
$UCSORG
 10
0.0
 20
0.0
 30
0.0
  9
$UCSXDIR
 10
1.0
 20
0.0
 30
0.0
  9
$UCSYDIR
 10
0.0
 20
1.0
 30
0.0
  9
$UCSORTHOREF
  2

  9
$UCSORTHOVIEW
 70
     0
  9
$UCSORGTOP
 10
0.0
 20
0.0
 30
0.0
  9
$UCSORGBOTTOM
 10
0.0
 20
0.0
 30
0.0
  9
$UCSORGLEFT
 10
0.0
 20
0.0
 30
0.0
  9
$UCSORGRIGHT
 10
0.0
 20
0.0
 30
0.0
  9
$UCSORGFRONT
 10
0.0
 20
0.0
 30
0.0
  9
$UCSORGBACK
 10
0.0
 20
0.0
 30
0.0
  9
$PUCSBASE
  2

  9
$PUCSNAME
  2

  9
$PUCSORG
 10
0.0
 20
0.0
 30
0.0
  9
$PUCSXDIR
 10
1.0
 20
0.0
 30
0.0
  9
$PUCSYDIR
 10
0.0
 20
1.0
 30
0.0
  9
$PUCSORTHOREF
  2

  9
$PUCSORTHOVIEW
 70
     0
  9
$PUCSORGTOP
 10
0.0
 20
0.0
 30
0.0
  9
$PUCSORGBOTTOM
 10
0.0
 20
0.0
 30
0.0
  9
$PUCSORGLEFT
 10
0.0
 20
0.0
 30
0.0
  9
$PUCSORGRIGHT
 10
0.0
 20
0.0
 30
0.0
  9
$PUCSORGFRONT
 10
0.0
 20
0.0
 30
0.0
  9
$PUCSORGBACK
 10
0.0
 20
0.0
 30
0.0
  9
$USERI1
 70
     0
  9
$USERI2
 70
     0
  9
$USERI3
 70
     0
  9
$USERI4
 70
     0
  9
$USERI5
 70
     0
  9
$USERR1
 40
0.0
  9
$USERR2
 40
0.0
  9
$USERR3
 40
0.0
  9
$USERR4
 40
0.0
  9
$USERR5
 40
0.0
  9
$WORLDVIEW
 70
     1
  9
$SHADEDGE
 70
     3
  9
$SHADEDIF
 70
    70
  9
$TILEMODE
 70
     1
  9
$MAXACTVP
 70
    64
  9
$PINSBASE
 10
0.0
 20
0.0
 30
0.0
  9
$PLIMCHECK
 70
     0
  9
$PEXTMIN
 10
1.0000000000E+20
 20
1.0000000000E+20
 30
1.0000000000E+20
  9
$PEXTMAX
 10
-1.0000000000E+20
 20
-1.0000000000E+20
 30
-1.0000000000E+20
  9
$PLIMMIN
 10
0.0
 20
0.0
  9
$PLIMMAX
 10
420.0
 20
297.0
  9
$UNITMODE
 70
     0
  9
$VISRETAIN
 70
     1
  9
$PLINEGEN
 70
     0
  9
$PSLTSCALE
 70
     1
  9
$TREEDEPTH
 70
  3020
  9
$CMLSTYLE
  2
Standard
  9
$CMLJUST
 70
     0
  9
$CMLSCALE
 40
20.0
  9
$PROXYGRAPHICS
 70
     1
  9
$MEASUREMENT
 70
     1
  9
$CELWEIGHT
370
    -1
  9
$ENDCAPS
280
     0
  9
$JOINSTYLE
280
     0
  9
$LWDISPLAY
290
     1
  9
$INSUNITS
 70
     4
  9
$HYPERLINKBASE
  1

  9
$STYLESHEET
  1

  9
$XEDIT
290
     1
  9
$CEPSNTYPE
380
     0
  9
$PSTYLEMODE
290
     1
  9
$FINGERPRINTGUID
  2
{565b44b7-5a3a-45d9-bb1e-4136abfa9040}
  9
$VERSIONGUID
  2
{FAEB1C32-E019-11D5-929B-00C0DF256EC4}
  9
$EXTNAMES
290
     1
  9
$PSVPSCALE
 40
0.0
  9
$OLESTARTUP
290
     0
  0
ENDSEC
  0
SECTION
  2
CLASSES
  0
CLASS
  1
ACDBDICTIONARYWDFLT
  2
AcDbDictionaryWithDefault
  3
ObjectDBX Classes
 90
        0
280
     0
281
     0
  0
CLASS
  1
VISUALSTYLE
  2
AcDbVisualStyle
  3
ObjectDBX Classes
 90
     4095
280
     0
281
     0
  0
CLASS
  1
MATERIAL
  2
AcDbMaterial
  3
ObjectDBX Classes
 90
     1153
280
     0
281
     0
  0
CLASS
  1
SCALE
  2
AcDbScale
  3
ObjectDBX Classes
 90
     1153
280
     0
281
     0
  0
CLASS
  1
TABLESTYLE
  2
AcDbTableStyle
  3
ObjectDBX Classes
 90
     4095
280
     0
281
     0
  0
CLASS
  1
MLEADERSTYLE
  2
AcDbMLeaderStyle
  3
ACDB_MLEADERSTYLE_CLASS
 90
     4095
280
     0
281
     0
  0
CLASS
  1
SUN
  2
AcDbSun
  3
SCENEOE
 90
     1153
280
     0
281
     0
  0
CLASS
  1
ACDBPLACEHOLDER
  2
AcDbPlaceHolder
  3
ObjectDBX Classes
 90
        0
280
     0
281
     0
  0
CLASS
  1
LAYOUT
  2
AcDbLayout
  3
ObjectDBX Classes
 90
        0
280
     0
281
     0
  0
ENDSEC
  0
SECTION
  2
TABLES
  0
TABLE
  2
VPORT
  5
8
330
0
100
AcDbSymbolTable
 70
     1
  0
VPORT
  5
29
330
8
100
AcDbSymbolTableRecord
100
AcDbViewportTableRecord
  2
*Active
 70
     0
 10
0.0
 20
0.0
 11
1.0
 21
1.0
 12
297.0
 22
420.5
 13
0.0
 23
0.0
 14
10.0
 24
10.0
 15
10.0
 25
10.0
 16
0.0
 26
0.0
 36
1.0
 17
0.0
 27
0.0
 37
0.0
 40
841.0
 41
0.7063020214
 42
50.0
 43
0.0
 44
0.0
 50
0.0
 51
0.0
 71
     0
 72
  2000
 73
     1
 74
     3
 75
     0
 76
     0
 77
     0
 78
     0
281
     0
 65
     1
110
0.0
120
0.0
130
0.0
111
1.0
121
0.0
131
0.0
112
0.0
122
1.0
132
0.0
 79
     0
146
0.0
  0
ENDTAB
  0
TABLE
  2
LTYPE
  5
5
330
0
100
AcDbSymbolTable
 70
     6
  0
LTYPE
  5
14
330
5
100
AcDbSymbolTableRecord
100
AcDbLinetypeTableRecord
  2
ByBlock
 70
     0
  3

 72
    65
 73
     0
 40
0.0
  0
LTYPE
  5
15
330
5
100
AcDbSymbolTableRecord
100
AcDbLinetypeTableRecord
  2
ByLayer
 70
     0
  3

 72
    65
 73
     0
 40
0.0
  0
LTYPE
  5
16
330
5
100
AcDbSymbolTableRecord
100
AcDbLinetypeTableRecord
  2
Continuous
 70
     0
  3
Solid line
 72
    65
 73
     0
 40
0.0
  0
LTYPE
  5
6E
330
5
100
AcDbSymbolTableRecord
100
AcDbLinetypeTableRecord
  2
HIDDEN
 70
     0
  3
Hidden __ __ __ __ __ __ __ __ __ __ __ __ __ __
 72
    65
 73
     2
 40
1.905
 49
1.27
 74
     0
 49
-0.635
 74
     0
  0
LTYPE
  5
6F
330
5
100
AcDbSymbolTableRecord
100
AcDbLinetypeTableRecord
  2
PHANTOM
 70
     0
  3
Phantom ______  __  __  ______  __  __  ______
 72
    65
 73
     6
 40
12.7
 49
6.35
 74
     0
 49
-1.27
 74
     0
 49
1.27
 74
     0
 49
-1.27
 74
     0
 49
1.27
 74
     0
 49
-1.27
 74
     0
  0
LTYPE
  5
70
330
5
100
AcDbSymbolTableRecord
100
AcDbLinetypeTableRecord
  2
CENTER
 70
     0
  3
Center ____ _ ____ _ ____ _ ____ _ ____ _ ____
 72
    65
 73
     4
 40
10.16
 49
6.35
 74
     0
 49
-1.27
 74
     0
 49
1.27
 74
     0
 49
-1.27
 74
     0
  0
LTYPE
  5
71
330
5
100
AcDbSymbolTableRecord
100
AcDbLinetypeTableRecord
  2
CENTERX2
 70
     0
  3
Center (2x) ________  __  ________  __  _____
 72
    65
 73
     4
 40
20.32
 49
12.7
 74
     0
 49
-2.54
 74
     0
 49
2.54
 74
     0
 49
-2.54
 74
     0
  0
LTYPE
  5
72
330
5
100
AcDbSymbolTableRecord
100
AcDbLinetypeTableRecord
  2
DOT2
 70
     0
  3
Dot (.5x) ........................................
 72
    65
 73
     2
 40
0.635
 49
0.0
 74
     0
 49
-0.635
 74
     0
  0
ENDTAB
  0
TABLE
  2
LAYER
  5
2
330
0
100
AcDbSymbolTable
 70
     1
  0
LAYER
  5
10
330
2
100
AcDbSymbolTableRecord
100
AcDbLayerTableRecord
  2
0
 70
     0
 62
     7
  6
Continuous
370
    -3
390
F
  0
ENDTAB
  0
TABLE
  2
STYLE
  5
3
330
0
100
AcDbSymbolTable
 70
     3
  0
STYLE
  5
11
330
3
100
AcDbSymbolTableRecord
100
AcDbTextStyleTableRecord
  2
Standard
 70
     0
 40
0.0
 41
1.0
 50
0.0
 71
     0
 42
10.0
  3
txt
  4

  0
STYLE
  5
76
330
3
100
AcDbSymbolTableRecord
100
AcDbTextStyleTableRecord
  2
SLDTEXTSTYLE0
 70
     0
 40
0.0
 41
0.96
 50
0.0
 71
     0
 42
10.0
  3
ISOCP3
  4

  0
STYLE
  5
8D
330
3
100
AcDbSymbolTableRecord
100
AcDbTextStyleTableRecord
  2
SLDTEXTSTYLE1
 70
     0
 40
0.0
 41
0.605
 50
0.0
 71
     0
 42
10.0
  3
TXT
  4

  0
ENDTAB
  0
TABLE
  2
VIEW
  5
6
330
0
100
AcDbSymbolTable
 70
     0
  0
ENDTAB
  0
TABLE
  2
UCS
  5
7
330
0
100
AcDbSymbolTable
 70
     0
  0
ENDTAB
  0
TABLE
  2
APPID
  5
9
330
0
100
AcDbSymbolTable
 70
     1
  0
APPID
  5
12
330
9
100
AcDbSymbolTableRecord
100
AcDbRegAppTableRecord
  2
ACAD
 70
     0
  0
ENDTAB
  0
TABLE
  2
DIMSTYLE
  5
A
330
0
100
AcDbSymbolTable
 70
     2
100
AcDbDimStyleTable
  0
DIMSTYLE
105
27
330
A
100
AcDbSymbolTableRecord
100
AcDbDimStyleTableRecord
  2
ISO-25
 70
     0
 41
2.5
 42
0.625
 43
3.75
 44
1.25
 73
     0
 74
     0
 77
     1
 78
     8
140
2.5
141
2.5
143
0.0393700787
147
0.625
171
     3
172
     1
178
     0
271
     2
272
     2
274
     3
278
    44
283
     0
284
     8
340
11
  0
DIMSTYLE
105
77
102
{ACAD_REACTORS
330
75
330
82
102
}
330
A
100
AcDbSymbolTableRecord
100
AcDbDimStyleTableRecord
  2
SLDDIMSTYLE0
 70
     0
 41
2.5
 44
0.0
 45
0.000000001
 73
     0
 74
     0
 77
     1
 78
    12
 79
     3
140
6.0
147
1.5
173
     1
178
     0
271
     2
272
     2
276
     2
284
    12
340
76
  0
ENDTAB
  0
TABLE
  2
BLOCK_RECORD
  5
1
330
0
100
AcDbSymbolTable
 70
     3
  0
BLOCK_RECORD
  5
1F
330
1
100
AcDbSymbolTableRecord
100
AcDbBlockTableRecord
  2
*Model_Space
340
22
  0
BLOCK_RECORD
  5
1B
330
1
100
AcDbSymbolTableRecord
100
AcDbBlockTableRecord
  2
*Paper_Space
340
1E
  0
BLOCK_RECORD
  5
23
330
1
100
AcDbSymbolTableRecord
100
AcDbBlockTableRecord
  2
*Paper_Space0
340
26
  0
BLOCK_RECORD
  5
78
330
1
100
AcDbSymbolTableRecord
100
AcDbBlockTableRecord
  2
_D
340
0
  0
BLOCK_RECORD
  5
83
330
1
100
AcDbSymbolTableRecord
100
AcDbBlockTableRecord
  2
_D_1
340
0
  0
ENDTAB
  0
ENDSEC
  0
SECTION
  2
BLOCKS
  0
BLOCK
  5
20
330
1F
100
AcDbEntity
  8
0
100
AcDbBlockBegin
  2
*Model_Space
 70
     0
 10
0.0
 20
0.0
 30
0.0
  3
*Model_Space
  1

  0
ENDBLK
  5
21
330
1F
100
AcDbEntity
  8
0
100
AcDbBlockEnd
  0
BLOCK
  5
1C
330
1B
100
AcDbEntity
 67
     1
  8
0
100
AcDbBlockBegin
  2
*Paper_Space
 70
     0
 10
0.0
 20
0.0
 30
0.0
  3
*Paper_Space
  1

  0
ENDBLK
  5
1D
330
1B
100
AcDbEntity
 67
     1
  8
0
100
AcDbBlockEnd
  0
BLOCK
  5
24
330
23
100
AcDbEntity
  8
0
100
AcDbBlockBegin
  2
*Paper_Space0
 70
     0
 10
0.0
 20
0.0
 30
0.0
  3
*Paper_Space0
  1

  0
ENDBLK
  5
25
330
23
100
AcDbEntity
  8
0
100
AcDbBlockEnd
  0
BLOCK
  5
79
330
78
100
AcDbEntity
  8
0
100
AcDbBlockBegin
  2
_D
 70
     0
 10
0.0
 20
0.0
 30
0.0
  3
_D
  1

  0
SOLID
  5
7B
330
78
100
AcDbEntity
  8
0
  6
Continuous
 62
     7
370
    18
100
AcDbTrace
 10
42.7614395004
 20
152.0299240879
 30
0.0
 11
42.4614395004
 21
149.5299240879
 31
0.0
 12
43.0614395004
 22
149.5299240879
 32
0.0
 13
43.0614395004
 23
149.5299240879
 33
0.0
  0
SOLID
  5
7C
330
78
100
AcDbEntity
  8
0
  6
Continuous
 62
     7
370
    18
100
AcDbTrace
 10
42.7614395004
 20
52.0299240879
 30
0.0
 11
43.0614395004
 21
54.5299240879
 31
0.0
 12
42.4614395004
 22
54.5299240879
 32
0.0
 13
42.4614395004
 23
54.5299240879
 33
0.0
  0
LINE
  5
7D
330
78
100
AcDbEntity
  8
0
  6
Continuous
 62
     7
370
     0
100
AcDbLine
 10
56.6850079902
 20
152.0299240879
 30
0.0
 11
41.7614395004
 21
152.0299240879
 31
0.0
  0
LINE
  5
7E
330
78
100
AcDbEntity
  8
0
  6
Continuous
 62
     7
370
     0
100
AcDbLine
 10
56.6850079902
 20
52.0299240879
 30
0.0
 11
41.7614395004
 21
52.0299240879
 31
0.0
  0
LINE
  5
7F
330
78
100
AcDbEntity
  8
0
  6
Continuous
 62
     7
370
     0
100
AcDbLine
 10
42.7614395004
 20
152.0299240879
 30
0.0
 11
42.7614395004
 21
52.0299240879
 31
0.0
  0
MTEXT
  5
80
330
78
100
AcDbEntity
  8
0
  6
Continuous
 62
     7
370
    18
100
AcDbMText
 10
35.0270332946
 20
94.3680541463
 30
0.0
 40
6.0
 41
0.0
 71
     1
 72
     1
  1
100
  7
SLDTEXTSTYLE0
 11
-7.044195017643634E-15
 21
1.0
 31
0.0
 73
     1
 44
1.0
  0
MTEXT
  5
81
330
78
100
AcDbEntity
  8
0
  6
Continuous
 62
     7
370
    18
100
AcDbMText
 10
35.0270332946
 20
105.7430548466
 30
0.0
 40
6.0
 41
0.0
 71
     1
 72
     1
  1
mm
  7
SLDTEXTSTYLE0
 11
-7.044195017643634E-15
 21
1.0
 31
0.0
 73
     1
 44
1.0
  0
ENDBLK
  5
7A
330
78
100
AcDbEntity
  8
0
100
AcDbBlockEnd
  0
BLOCK
  5
84
330
83
100
AcDbEntity
  8
0
100
AcDbBlockBegin
  2
_D_1
 70
     0
 10
0.0
 20
0.0
 30
0.0
  3
_D_1
  1

  0
SOLID
  5
86
330
83
100
AcDbEntity
  8
0
  6
Continuous
 62
     7
370
    18
100
AcDbTrace
 10
56.6850079902
 20
38.4602342313
 30
0.0
 11
59.1850079902
 21
38.1602342313
 31
0.0
 12
59.1850079902
 22
38.7602342313
 32
0.0
 13
59.1850079902
 23
38.7602342313
 33
0.0
  0
SOLID
  5
87
330
83
100
AcDbEntity
  8
0
  6
Continuous
 62
     7
370
    18
100
AcDbTrace
 10
156.6850079902
 20
38.4602342313
 30
0.0
 11
154.1850079902
 21
38.7602342313
 31
0.0
 12
154.1850079902
 22
38.1602342313
 32
0.0
 13
154.1850079902
 23
38.1602342313
 33
0.0
  0
LINE
  5
88
330
83
100
AcDbEntity
  8
0
  6
Continuous
 62
     7
370
     0
100
AcDbLine
 10
56.6850079902
 20
52.0299240879
 30
0.0
 11
56.6850079902
 21
37.4602342313
 31
0.0
  0
LINE
  5
89
330
83
100
AcDbEntity
  8
0
  6
Continuous
 62
     7
370
     0
100
AcDbLine
 10
156.6850079902
 20
52.0299240879
 30
0.0
 11
156.6850079902
 21
37.4602342313
 31
0.0
  0
LINE
  5
8A
330
83
100
AcDbEntity
  8
0
  6
Continuous
 62
     7
370
     0
100
AcDbLine
 10
56.6850079902
 20
38.4602342313
 30
0.0
 11
156.6850079902
 21
38.4602342313
 31
0.0
  0
MTEXT
  5
8B
330
83
100
AcDbEntity
  8
0
  6
Continuous
 62
     7
370
    18
100
AcDbMText
 10
93.9626484861
 20
46.1946404371
 30
0.0
 40
6.0
 41
0.0
 71
     1
 72
     1
  1
100
  7
SLDTEXTSTYLE0
 73
     1
 44
1.0
  0
MTEXT
  5
8C
330
83
100
AcDbEntity
  8
0
  6
Continuous
 62
     7
370
    18
100
AcDbMText
 10
105.3376491864
 20
46.1946404371
 30
0.0
 40
6.0
 41
0.0
 71
     1
 72
     1
  1
mm
  7
SLDTEXTSTYLE0
 73
     1
 44
1.0
  0
ENDBLK
  5
85
330
83
100
AcDbEntity
  8
0
100
AcDbBlockEnd
  0
ENDSEC
  0
SECTION
  2
ENTITIES
  0
LINE
  5
73
330
1F
100
AcDbEntity
  8
0
  6
Continuous
 62
     7
370
    18
100
AcDbLine
 10
56.6850079902
 20
152.0299240879
 30
0.0
 11
56.6850079902
 21
52.0299240879
 31
0.0
  0
LINE
  5
74
330
1F
100
AcDbEntity
  8
0
  6
Continuous
 62
     7
370
    18
100
AcDbLine
 10
56.6850079902
 20
52.0299240879
 30
0.0
 11
156.6850079902
 21
52.0299240879
 31
0.0
  0
DIMENSION
  5
75
330
1F
100
AcDbEntity
  8
0
  6
Continuous
 62
     7
370
    18
100
AcDbDimension
  2
_D
 10
42.7614395004
 20
52.0299240879
 30
0.0
 11
42.7614395004
 21
105.4472211621
 31
0.0
 70
   160
  1
<>mm
 71
     2
 42
-1.0
  3
SLDDIMSTYLE0
100
AcDbAlignedDimension
 13
56.6850079902
 23
152.0299240879
 33
0.0
 14
56.6850079902
 24
52.0299240879
 34
0.0
 50
90.0
100
AcDbRotatedDimension
  0
DIMENSION
  5
82
330
1F
100
AcDbEntity
  8
0
  6
Continuous
 62
     7
370
    18
100
AcDbDimension
  2
_D_1
 10
156.6850079902
 20
38.4602342313
 30
0.0
 11
105.0418155019
 21
38.4602342313
 31
0.0
 70
   160
  1
<>mm
 71
     2
 42
-1.0
  3
SLDDIMSTYLE0
100
AcDbAlignedDimension
 13
56.6850079902
 23
52.0299240879
 33
0.0
 14
156.6850079902
 24
52.0299240879
 34
0.0
100
AcDbRotatedDimension
  0
MTEXT
  5
8E
330
1F
100
AcDbEntity
  8
0
  6
Continuous
 62
     7
370
     0
100
AcDbMText
 10
412.8252631579
 20
48.4342449499
 30
0.0
 40
10.0
 41
0.0
 71
     1
 72
     1
  1
KLUDI GmbH & Co KG
  7
SLDTEXTSTYLE1
 73
     1
 44
1.0
  0
MTEXT
  5
8F
330
1F
100
AcDbEntity
  8
0
  6
Continuous
 62
     7
370
     0
100
AcDbMText
 10
210.0873490389
 20
48.4342449499
 30
0.0
 40
10.0
 41
0.0
 71
     1
 72
     1
  1
38 902 05 38
  7
SLDTEXTSTYLE1
 73
     1
 44
1.0
  0
CIRCLE
  5
90
330
1F
100
AcDbEntity
  8
0
  6
Continuous
 62
     7
370
    25
100
AcDbCircle
 10
199.6722580645
 20
336.0212694954
 30
0.0
 40
20.45127607873351
  0
SPLINE
  5
91
330
1F
100
AcDbEntity
  8
0
  6
Continuous
 62
     7
370
    25
100
AcDbSpline
210
0.0
220
0.0
230
1.0
 70
     8
 71
     3
 72
    10
 73
     6
 74
     0
 42
0.000000001
 43
0.00000001
 40
0.0
 40
0.0
 40
0.0
 40
0.0
 40
0.4947664118200654
 40
0.9207584366766272
 40
1.0
 40
1.0
 40
1.0
 40
1.0
 10
210.2289233136858
 20
353.5345079480642
 30
0.0
 10
210.2065762611913
 20
353.6064782000545
 30
0.0
 10
210.1649884803162
 20
353.7404145690699
 30
0.0
 10
210.0861219670585
 20
353.8737136644489
 30
0.0
 10
210.0341835766912
 20
353.9302146423996
 30
0.0
 10
210.0260374847735
 20
353.9390763371223
 30
0.0
  0
SPLINE
  5
92
330
1F
100
AcDbEntity
  8
0
  6
Continuous
 62
     7
370
    25
100
AcDbSpline
210
0.0
220
0.0
230
1.0
 70
     8
 71
     3
 72
    10
 73
     6
 74
     0
 42
0.000000001
 43
0.00000001
 40
0.0
 40
0.0
 40
0.0
 40
0.0
 40
0.0602778250923673
 40
0.6953289653261977
 40
1.0
 40
1.0
 40
1.0
 40
1.0
 10
189.3190793473209
 20
353.9386740057701
 30
0.0
 10
189.3124610313429
 20
353.9320910575985
 30
0.0
 10
189.2361160936464
 20
353.8561541017793
 30
0.0
 10
189.1564554068304
 20
353.712218153303
 30
0.0
 10
189.1331790063544
 20
353.567816934446
 30
0.0
 10
189.1256324727024
 20
353.521000045442
 30
0.0
  0
SPLINE
  5
93
330
1F
100
AcDbEntity
  8
0
  6
Continuous
 62
     7
370
    25
100
AcDbSpline
210
0.0
220
0.0
230
1.0
 70
     8
 71
     3
 72
    13
 73
     9
 74
     0
 42
0.000000001
 43
0.00000001
 40
0.0
 40
0.0
 40
0.0
 40
0.0
 40
0.3107862141601058
 40
0.5906141797944335
 40
0.7081082782523237
 40
0.817943441335432
 40
0.9281450313808346
 40
0.9999999999999999
 40
0.9999999999999999
 40
0.9999999999999999
 40
0.9999999999999999
 10
210.0617723319615
 20
353.8986047833198
 30
0.0
 10
209.6631691391864
 20
354.3623345035162
 30
0.0
 10
208.9056686869847
 20
355.2436005824517
 30
0.0
 10
207.8970952324501
 20
356.1126196336311
 30
0.0
 10
207.0039465467752
 20
356.7031239977585
 30
0.0
 10
206.381041847887
 20
357.0239399361337
 30
0.0
 10
205.8075514875767
 20
357.2475438789522
 30
0.0
 10
205.4410285391112
 20
357.3348115119599
 30
0.0
 10
205.2963674779917
 20
357.3692547260755
 30
0.0
  0
SPLINE
  5
94
330
1F
100
AcDbEntity
  8
0
  6
Continuous
 62
     7
370
    25
100
AcDbSpline
210
0.0
220
0.0
230
1.0
 70
     8
 71
     3
 72
    13
 73
     9
 74
     0
 42
0.000000001
 43
0.00000001
 40
0.0
 40
0.0
 40
0.0
 40
0.0
 40
0.0713510558697703
 40
0.1816258771966219
 40
0.2915221839974471
 40
0.4090721377851508
 40
0.6890477038627614
 40
1.0
 40
1.0
 40
1.0
 40
1.0
 10
194.0449821542884
 20
357.368450063371
 30
0.0
 10
193.9014142201898
 20
357.3342454375424
 30
0.0
 10
193.5359584935701
 20
357.2471767166304
 30
0.0
 10
192.9635104113287
 20
357.023919721908
 30
0.0
 10
192.3406106753173
 20
356.7031416565853
 30
0.0
 10
191.4474120385248
 20
356.1125959530916
 30
0.0
 10
190.4388647545476
 20
355.243599046965
 30
0.0
 10
189.6813544254962
 20
354.3623337499789
 30
0.0
 10
189.2827447283948
 20
353.8986029206746
 30
0.0
  0
LINE
  5
95
330
1F
100
AcDbEntity
  8
0
  6
Continuous
 62
     7
370
    25
100
AcDbLine
 10
194.32954637
 20
360.0721391021
 30
0.0
 11
194.2870366167
 21
357.4172830312
 31
0.0
  0
LINE
  5
96
330
1F
100
AcDbEntity
  8
0
  6
Continuous
 62
     7
370
    25
100
AcDbLine
 10
205.0562832285
 20
357.4171526461
 30
0.0
 11
205.0138377365
 21
360.0735752015
 31
0.0
  0
LINE
  5
97
330
1F
100
AcDbEntity
  8
0
  6
Continuous
 62
     7
370
    25
100
AcDbLine
 10
199.6722580645
 20
361.1221866786
 30
0.0
 11
195.7802153904
 21
361.047353047
 31
0.0
  0
LINE
  5
98
330
1F
100
AcDbEntity
  8
0
  6
Continuous
 62
     7
370
    25
100
AcDbLine
 10
203.5642858375
 20
361.047353047
 30
0.0
 11
199.6722580645
 21
361.1221866786
 31
0.0
  0
SPLINE
  5
99
330
1F
100
AcDbEntity
  8
0
  6
Continuous
 62
     7
370
    25
100
AcDbSpline
210
0.0
220
0.0
230
1.0
 70
     8
 71
     3
 72
    14
 73
    10
 74
     0
 42
0.000000001
 43
0.00000001
 40
0.0
 40
0.0
 40
0.0
 40
0.0
 40
0.11036790627142
 40
0.2280457398337837
 40
0.3525296321258883
 40
0.4816333859512564
 40
0.7425531276515629
 40
0.8721807341064696
 40
1.0
 40
1.0
 40
1.0
 40
1.0
 10
205.0123015198792
 20
360.0148627637857
 30
0.0
 10
205.0031418205378
 20
360.0888990870772
 30
0.0
 10
204.9842157533182
 20
360.2418753343393
 30
0.0
 10
204.8853361183937
 20
360.4494087101393
 30
0.0
 10
204.7395913489692
 20
360.6304597221041
 30
0.0
 10
204.4852934738196
 20
360.8275943269868
 30
0.0
 10
204.1634217963693
 20
360.9532942400888
 30
0.0
 10
203.8172177886284
 20
361.0239151977556
 30
0.0
 10
203.6482021555297
 20
361.0395771010297
 30
0.0
 10
203.5642879329557
 20
361.0473530470365
 30
0.0
  0
SPLINE
  5
9A
330
1F
100
AcDbEntity
  8
0
  6
Continuous
 62
     7
370
    25
100
AcDbSpline
210
0.0
220
0.0
230
1.0
 70
     8
 71
     3
 72
    13
 73
     9
 74
     0
 42
0.000000001
 43
0.00000001
 40
0.0
 40
0.0
 40
0.0
 40
0.0
 40
0.1983333630508138
 40
0.4244456508869585
 40
0.5556242827949956
 40
0.698154344561477
 40
0.8482735010850594
 40
1.0
 40
1.0
 40
1.0
 40
1.0
 10
195.7802135277475
 20
361.0473530470365
 30
0.0
 10
195.6480380145012
 20
361.0368717361575
 30
0.0
 10
195.3651742497358
 20
361.0144410832923
 30
0.0
 10
195.0075029787087
 20
360.8999434984099
 30
0.0
 10
194.7286845490335
 20
360.7295926004517
 30
0.0
 10
194.5335163458602
 20
360.5400034049122
 30
0.0
 10
194.3833570126586
 20
360.2982336759333
 30
0.0
 10
194.3494706166067
 20
360.109700329411
 30
0.0
 10
194.3324371952499
 20
360.0149316816562
 30
0.0
  0
SPLINE
  5
9B
330
1F
100
AcDbEntity
  8
0
  6
Continuous
 62
     7
370
    25
100
AcDbSpline
210
0.0
220
0.0
230
1.0
 70
     8
 71
     3
 72
    12
 73
     8
 74
     0
 42
0.000000001
 43
0.00000001
 40
0.0
 40
0.0
 40
0.0
 40
0.0
 40
0.25
 40
0.25
 40
0.5
 40
0.5
 40
1.0
 40
1.0
 40
1.0
 40
1.0
 10
197.1758420420931
 20
317.1748720201038
 30
0.0
 10
197.1788946361745
 20
317.1684165793678
 30
0.0
 10
197.1857746684785
 20
317.1655375542938
 30
0.0
 10
197.1966098134918
 20
317.1574234187224
 30
0.0
 10
197.202102777088
 20
317.1535298205113
 30
0.0
 10
197.2183470770938
 20
317.1423014379504
 30
0.0
 10
197.2289667864555
 20
317.1353625514327
 30
0.0
 10
197.2392915340119
 20
317.1288508890129
 30
0.0
  0
SPLINE
  5
9C
330
1F
100
AcDbEntity
  8
0
  6
Continuous
 62
     7
370
    25
100
AcDbSpline
210
0.0
220
0.0
230
1.0
 70
     8
 71
     3
 72
    12
 73
     8
 74
     0
 42
0.000000001
 43
0.00000001
 40
0.0
 40
0.0
 40
0.0
 40
0.0
 40
0.4999999999999714
 40
0.4999999999999714
 40
0.7499999999999857
 40
0.7499999999999857
 40
1.0
 40
1.0
 40
1.0
 40
1.0
 10
202.1052245950211
 20
317.1288508890114
 30
0.0
 10
202.1155108140401
 20
317.1353382520638
 30
0.0
 10
202.1261259904573
 20
317.1422718618787
 30
0.0
 10
202.1424243687352
 20
317.1535373411213
 30
0.0
 10
202.1479172736196
 20
317.1574313838466
 30
0.0
 10
202.1587467921122
 20
317.1655417881167
 30
0.0
 10
202.1656702221376
 20
317.1685206009597
 30
0.0
 10
202.1686741529416
 20
317.1748719540042
 30
0.0
  0
SPLINE
  5
9D
330
1F
100
AcDbEntity
  8
0
  6
Continuous
 62
     7
370
    25
100
AcDbSpline
210
0.0
220
0.0
230
1.0
 70
     8
 71
     3
 72
    26
 73
    22
 74
     0
 42
0.000000001
 43
0.00000001
 40
0.0
 40
0.0
 40
0.0
 40
0.0
 40
0.0625
 40
0.0625
 40
0.125
 40
0.125
 40
0.2499999999999999
 40
0.2499999999999999
 40
0.3749999999999999
 40
0.3749999999999999
 40
0.4999999999999999
 40
0.4999999999999999
 40
0.6249999999999999
 40
0.6249999999999999
 40
0.7499999999999998
 40
0.7499999999999998
 40
0.8749999999999998
 40
0.8749999999999998
 40
0.9374999999999999
 40
0.9374999999999999
 40
1.0
 40
1.0
 40
1.0
 40
1.0
 10
202.1052245950182
 20
317.1288508890141
 30
0.0
 10
202.0237640251662
 20
317.214593592603
 30
0.0
 10
201.9445372916343
 20
317.3024527517507
 30
0.0
 10
201.778452624273
 20
317.4709408642581
 30
0.0
 10
201.6926088665502
 20
317.5520004222589
 30
0.0
 10
201.4236140438562
 20
317.7819912732464
 30
0.0
 10
201.2283577674758
 20
317.9177866850989
 30
0.0
 10
200.8167150915659
 20
318.1382278876435
 30
0.0
 10
200.5967797153893
 20
318.2252234858676
 30
0.0
 10
200.1399729869285
 20
318.34242855346
 30
0.0
 10
199.9085783625454
 20
318.3718629338859
 30
0.0
 10
199.4397852436821
 20
318.372187203496
 30
0.0
 10
199.202586069849
 20
318.3419348834058
 30
0.0
 10
198.749500427197
 20
318.2256676183284
 30
0.0
 10
198.5274366729086
 20
318.1381878335742
 30
0.0
 10
198.1133862280914
 20
317.9161459155697
 30
0.0
 10
197.9210284109695
 20
317.7821345392488
 30
0.0
 10
197.6513713549447
 20
317.5515245456979
 30
0.0
 10
197.5654637656186
 20
317.4703513127416
 30
0.0
 10
197.3997621745997
 20
317.3022139938213
 30
0.0
 10
197.3206130933963
 20
317.2144472747768
 30
0.0
 10
197.2392915340131
 20
317.1288508890132
 30
0.0
  0
ARC
  5
9E
330
1F
100
AcDbEntity
  8
0
  6
Continuous
 62
     7
370
    25
100
AcDbCircle
 10
202.1657480135
 20
317.1969620656
 30
0.0
 40
0.0911164998951074
100
AcDbArc
 50
228.3757896702
 51
277.5455398385
  0
ARC
  5
9F
330
1F
100
AcDbEntity
  8
0
  6
Continuous
 62
     7
370
    25
100
AcDbCircle
 10
197.1787681156
 20
317.1969620656
 30
0.0
 40
0.0911164998951036
100
AcDbArc
 50
262.4544601615
 51
311.6242103289
  0
ARC
  5
A0
330
1F
100
AcDbEntity
  8
0
  6
Continuous
 62
     7
370
    25
100
AcDbCircle
 10
199.6722580645
 20
336.0212694954
 30
0.0
 40
19.07985111645612
100
AcDbArc
 50
277.5455398385
 51
262.4544601615
  0
CIRCLE
  5
A1
330
1F
100
AcDbEntity
  8
0
  6
Continuous
 62
     7
370
    25
100
AcDbCircle
 10
199.6722580645
 20
336.0212694954
 30
0.0
 40
19.30000000000001
  0
SPLINE
  5
A2
330
1F
100
AcDbEntity
  8
0
  6
Continuous
 62
     7
370
    25
100
AcDbSpline
210
0.0
220
0.0
230
1.0
 70
     8
 71
     3
 72
     9
 73
     5
 74
     0
 42
0.000000001
 43
0.00000001
 40
0.0
 40
0.0
 40
0.0
 40
0.0
 40
0.3950864061790454
 40
1.0
 40
1.0
 40
1.0
 40
1.0
 10
210.0259601849998
 20
353.9390074192518
 30
0.0
 10
210.0286575464991
 20
353.937303867177
 30
0.0
 10
210.0354848163243
 20
353.9329920203301
 30
0.0
 10
210.0297956116777
 20
353.9359683424921
 30
0.0
 10
210.0263541344489
 20
353.9377687602275
 30
0.0
  0
SPLINE
  5
A3
330
1F
100
AcDbEntity
  8
0
  6
Continuous
 62
     7
370
    25
100
AcDbSpline
210
0.0
220
0.0
230
1.0
 70
     8
 71
     3
 72
    10
 73
     6
 74
     0
 42
0.000000001
 43
0.00000001
 40
0.0
 40
0.0
 40
0.0
 40
0.0
 40
0.4999999999999999
 40
0.4999999999999999
 40
1.0
 40
1.0
 40
1.0
 40
1.0
 10
199.6722580394967
 20
356.5077514368339
 30
0.0
 10
200.4107844843234
 20
356.5077514648365
 30
0.0
 10
201.1494704126148
 20
356.4682791335393
 30
0.0
 10
202.6103421277502
 20
356.3116090220963
 30
0.0
 10
203.3335338891797
 20
356.1948211837312
 30
0.0
 10
204.0490711676856
 20
356.0373153714032
 30
0.0
  0
SPLINE
  5
A4
330
1F
100
AcDbEntity
  8
0
  6
Continuous
 62
     7
370
    25
100
AcDbSpline
210
0.0
220
0.0
230
1.0
 70
     8
 71
     3
 72
    10
 73
     6
 74
     0
 42
0.000000001
 43
0.00000001
 40
0.0
 40
0.0
 40
0.0
 40
0.0
 40
0.5
 40
0.5
 40
1.0
 40
1.0
 40
1.0
 40
1.0
 10
195.2954450435863
 20
356.0373153933958
 30
0.0
 10
196.0109347354949
 20
356.1948106337618
 30
0.0
 10
196.7384007707452
 20
356.3120903195386
 30
0.0
 10
198.1992784470315
 20
356.4684437832057
 30
0.0
 10
198.9337621585715
 20
356.5077514088317
 30
0.0
 10
199.6722580394967
 20
356.5077514368339
 30
0.0
  0
SPLINE
  5
A5
330
1F
100
AcDbEntity
  8
0
  6
Continuous
 62
     7
370
    25
100
AcDbSpline
210
0.0
220
0.0
230
1.0
 70
     8
 71
     3
 72
     9
 73
     5
 74
     0
 42
0.000000001
 43
0.00000001
 40
0.0
 40
0.0
 40
0.0
 40
0.0
 40
0.6044725530968287
 40
1.0
 40
1.0
 40
1.0
 40
1.0
 10
189.3181536126817
 20
353.9377557217115
 30
0.0
 10
189.3147041635602
 20
353.9359529390562
 30
0.0
 10
189.3089976197247
 20
353.9329705329137
 30
0.0
 10
189.3159269589073
 20
353.9373471339381
 30
0.0
 10
189.3186677027429
 20
353.9390781997674
 30
0.0
  0
SPLINE
  5
A6
330
1F
100
AcDbEntity
  8
0
  6
Continuous
 62
     7
370
    25
100
AcDbSpline
210
0.0
220
0.0
230
1.0
 70
     8
 71
     3
 72
    18
 73
    14
 74
     0
 42
0.000000001
 43
0.00000001
 40
0.0
 40
0.0
 40
0.0
 40
0.0
 40
0.125
 40
0.125
 40
0.25
 40
0.25
 40
0.5
 40
0.5
 40
0.75
 40
0.75
 40
0.875
 40
0.875
 40
1.0
 40
1.0
 40
1.0
 40
1.0
 10
195.3477149722637
 20
357.5199980994527
 30
0.0
 10
195.7076486479686
 20
357.5419248745082
 30
0.0
 10
196.067865033392
 20
357.5576924982263
 30
0.0
 10
196.7883959522586
 20
357.5870894799124
 30
0.0
 10
197.148772085957
 20
357.599410833459
 30
0.0
 10
198.23006282643
 20
357.6286668898483
 30
0.0
 10
198.9511830527961
 20
357.6386392563219
 30
0.0
 10
200.3934784360916
 20
357.6386379397621
 30
0.0
 10
201.1145074529309
 20
357.6286640733492
 30
0.0
 10
202.1958324827976
 20
357.59940551938
 30
0.0
 10
202.556174362705
 20
357.5870850358932
 30
0.0
 10
203.2766554199122
 20
357.5576909080926
 30
0.0
 10
203.636893466295
 20
357.5429337953807
 30
0.0
 10
203.9968011567688
 20
357.520184855772
 30
0.0
  0
SPLINE
  5
A7
330
1F
100
AcDbEntity
  8
0
  6
Continuous
 62
     7
370
    25
100
AcDbSpline
210
0.0
220
0.0
230
1.0
 70
     8
 71
     3
 72
    11
 73
     7
 74
     0
 42
0.000000001
 43
0.00000001
 40
0.0
 40
0.0
 40
0.0
 40
0.0
 40
0.284898165680713
 40
0.5697578712754169
 40
0.8554291816138181
 40
0.9999999999999999
 40
0.9999999999999999
 40
0.9999999999999999
 40
0.9999999999999999
 10
203.9968013543571
 20
357.5201848625177
 30
0.0
 10
204.1577856458494
 20
357.5087248060295
 30
0.0
 10
204.4797324966137
 20
357.4858062401139
 30
0.0
 10
204.9005544224374
 20
357.4425573763465
 30
0.0
 10
205.190583587641
 20
357.4006708716025
 30
0.0
 10
205.2711114017529
 20
357.382461006176
 30
0.0
 10
205.2981705184962
 20
357.3763420908683
 30
0.0
  0
SPLINE
  5
A8
330
1F
100
AcDbEntity
  8
0
  6
Continuous
 62
     7
370
    25
100
AcDbSpline
210
0.0
220
0.0
230
1.0
 70
     8
 71
     3
 72
     8
 73
     4
 74
     0
 42
0.000000001
 43
0.00000001
 40
0.0
 40
0.0
 40
0.0
 40
0.0
 40
1.0
 40
1.0
 40
1.0
 40
1.0
 10
205.3880095754347
 20
357.3576032422519
 30
0.0
 10
205.4159760075378
 20
357.3493203773676
 30
0.0
 10
205.4264723144651
 20
357.3422639818988
 30
0.0
 10
205.419433684598
 20
357.3370978931091
 30
0.0
  0
SPLINE
  5
A9
330
1F
100
AcDbEntity
  8
0
  6
Continuous
 62
     7
370
    25
100
AcDbSpline
210
0.0
220
0.0
230
1.0
 70
     8
 71
     3
 72
    20
 73
    16
 74
     0
 42
0.000000001
 43
0.00000001
 40
0.0
 40
0.0
 40
0.0
 40
0.0
 40
0.1250000000000007
 40
0.1250000000000007
 40
0.2500000000000015
 40
0.2500000000000015
 40
0.3750000000000022
 40
0.3750000000000022
 40
0.500000000000003
 40
0.500000000000003
 40
0.7500000000000044
 40
0.7500000000000044
 40
0.8750000000000022
 40
0.8750000000000022
 40
1.0
 40
1.0
 40
1.0
 40
1.0
 10
193.925082444419
 20
357.3370978931053
 30
0.0
 10
193.9197931859325
 20
357.340979957634
 30
0.0
 10
193.9245029385853
 20
357.3459397841991
 30
0.0
 10
193.9530592265361
 20
357.3573013112095
 30
0.0
 10
193.9773751871575
 20
357.3637256541246
 30
0.0
 10
194.0440253597471
 20
357.3782964659295
 30
0.0
 10
194.0860971095288
 20
357.3864046045143
 30
0.0
 10
194.1876961349543
 20
357.4041760200438
 30
0.0
 10
194.2473963205518
 20
357.4137137558145
 30
0.0
 10
194.4451842430379
 20
357.4414150976652
 30
0.0
 10
194.6072275808061
 20
357.4592655079724
 30
0.0
 10
194.8715938897194
 20
357.4842084802915
 30
0.0
 10
194.9648926771842
 20
357.4924759623975
 30
0.0
 10
195.1541882587228
 20
357.5074874189075
 30
0.0
 10
195.2502419996152
 20
357.5140601500764
 30
0.0
 10
195.3477149722637
 20
357.5199980994528
 30
0.0
  0
SPLINE
  5
AA
330
1F
100
AcDbEntity
  8
0
  6
Continuous
 62
     7
370
    25
100
AcDbSpline
210
0.0
220
0.0
230
1.0
 70
     8
 71
     3
 72
     9
 73
     5
 74
     0
 42
0.000000001
 43
0.00000001
 40
0.0
 40
0.0
 40
0.0
 40
0.0
 40
0.132388175103524
 40
1.0
 40
1.0
 40
1.0
 40
1.0
 10
194.3323594298149
 20
360.0096156924003
 30
0.0
 10
194.3290787051685
 20
360.0071827104623
 30
0.0
 10
194.3042976048635
 20
359.9888050726097
 30
0.0
 10
194.3180387920409
 20
359.9699589415602
 30
0.0
 10
194.329960808524
 20
359.9536078154081
 30
0.0
  0
LINE
  5
AB
330
1F
100
AcDbEntity
  8
0
  6
Continuous
 62
     7
370
    25
100
AcDbLine
 10
195.7237344015
 20
357.537257868
 30
0.0
 11
195.8178282496
 21
360.2129904657
 31
0.0
  0
SPLINE
  5
AC
330
1F
100
AcDbEntity
  8
0
  6
Continuous
 62
     7
370
    25
100
AcDbSpline
210
0.0
220
0.0
230
1.0
 70
     8
 71
     3
 72
     9
 73
     5
 74
     0
 42
0.000000001
 43
0.00000001
 40
0.0
 40
0.0
 40
0.0
 40
0.0
 40
0.8462633256898257
 40
1.0
 40
1.0
 40
1.0
 40
1.0
 10
205.0145436789776
 20
359.9536096780532
 30
0.0
 10
205.0263228951482
 20
359.9699548284848
 30
0.0
 10
205.0402419860659
 20
359.9892693254449
 30
0.0
 10
205.0144860508724
 20
360.0081008209627
 30
0.0
 10
205.010526419052
 20
360.0109959124559
 30
0.0
  0
LWPOLYLINE
  5
AD
330
1F
100
AcDbEntity
  8
0
  6
Continuous
 62
     7
370
    25
100
AcDbPolyline
 90
        3
 70
   128
 43
0.0
 10
195.7802165545
 20
361.0473232447
 10
195.7797681227
 20
361.0510876506
 10
195.7788926795
 20
361.0425269335
  0
LINE
  5
AE
330
1F
100
AcDbEntity
  8
0
  6
Continuous
 62
     7
370
    25
100
AcDbLine
 10
199.6722580645
 20
361.1173847794
 30
0.0
 11
199.6722580645
 21
361.1259305953
 31
0.0
  0
CIRCLE
  5
AF
330
1F
100
AcDbEntity
  8
0
  6
Continuous
 62
     7
370
    25
100
AcDbCircle
 10
199.6722580645
 20
374.0212694954
 30
0.0
 40
11.97348501976029
  0
ELLIPSE
  5
B0
330
1F
100
AcDbEntity
  8
0
  6
Continuous
 62
     7
370
    25
100
AcDbEllipse
 10
153.0800646012
 20
336.0212694954
 30
0.0
 11
93.2483275368005
 21
-2.626165951369330E-11
 31
0.0
210
0.0
220
0.0
230
1.0
 40
0.8662232586
 41
5.114824691439475
 42
5.116346132877066
  0
ARC
  5
B1
330
1F
100
AcDbEntity
  8
0
  6
Continuous
 62
     7
370
    25
100
AcDbCircle
 10
199.6722580645
 20
336.0212694954
 30
0.0
 40
75.00000000000009
100
AcDbArc
 50
277.7165988175
 51
262.2834011825
  0
ELLIPSE
  5
B2
330
1F
100
AcDbEntity
  8
0
  6
Continuous
 62
     7
370
    25
100
AcDbEllipse
 10
246.2644515278
 20
336.0212694954
 30
0.0
 11
93.2483275368005
 21
2.683009370230138E-11
 31
0.0
210
0.0
220
0.0
230
1.0
 40
0.8662232586
 41
4.308431827892341
 42
4.309953269329931
  0
ARC
  5
B3
330
1F
100
AcDbEntity
  8
0
  6
Continuous
 62
     7
370
    25
100
AcDbCircle
 10
199.6722580645
 20
336.0212694954
 30
0.0
 40
74.93479705529278
100
AcDbArc
 50
262.3773251375
 51
277.6226748625
  0
SPLINE
  5
B4
330
1F
100
AcDbEntity
  8
0
  6
Continuous
 62
     8
370
    18
100
AcDbSpline
210
0.0
220
0.0
230
1.0
 70
     8
 71
     3
 72
    22
 73
    18
 74
     0
 42
0.000000001
 43
0.00000001
 40
0.0
 40
0.0
 40
0.0
 40
0.0
 40
0.125
 40
0.125
 40
0.25
 40
0.25
 40
0.375
 40
0.375
 40
0.5
 40
0.5
 40
0.625
 40
0.625
 40
0.75
 40
0.75
 40
0.875
 40
0.875
 40
1.0
 40
1.0
 40
1.0
 40
1.0
 10
197.175517984935
 20
317.1755571169388
 30
0.0
 10
197.3087159277006
 20
317.3863663846657
 30
0.0
 10
197.4671603809343
 20
317.5780596890789
 30
0.0
 10
197.8256593721096
 20
317.9160110252824
 30
0.0
 10
198.029699790421
 20
318.0648639763923
 30
0.0
 10
198.462214122183
 20
318.3034049697549
 30
0.0
 10
198.6938878915083
 20
318.3957537912398
 30
0.0
 10
199.1769202306665
 20
318.520204384705
 30
0.0
 10
199.4221686154124
 20
318.551281837571
 30
0.0
 10
199.9200901263895
 20
318.5514721294159
 30
0.0
 10
200.1688469700466
 20
318.5197982050402
 30
0.0
 10
200.6475013769834
 20
318.3966429295015
 30
0.0
 10
200.8826077101201
 20
318.3032644753455
 30
0.0
 10
201.3150264742894
 20
318.0647199409336
 30
0.0
 10
201.5168529502909
 20
317.9178425509349
 30
0.0
 10
201.8786375896778
 20
317.5769086339741
 30
0.0
 10
202.0357992794148
 20
317.3863678437618
 30
0.0
 10
202.1689981440972
 20
317.1755571169388
 30
0.0
  0
ARC
  5
B5
330
1F
100
AcDbEntity
  8
0
  6
Continuous
 62
     8
370
    18
100
AcDbCircle
 10
199.6722580645
 20
336.0212694954
 30
0.0
 40
19.01038100818091
100
AcDbArc
 50
277.5467792049
 51
262.4532207951
  0
SPLINE
  5
B6
330
1F
100
AcDbEntity
  8
0
  6
Continuous
 62
     8
370
    18
100
AcDbSpline
210
0.0
220
0.0
230
1.0
 70
     8
 71
     3
 72
     8
 73
     4
 74
     0
 42
0.000000001
 43
0.00000001
 40
0.0
 40
0.0
 40
0.0
 40
0.0
 40
1.0
 40
1.0
 40
1.0
 40
1.0
 10
197.1758420420931
 20
317.1748720201038
 30
0.0
 10
197.1757340189443
 20
317.1751003474012
 30
0.0
 10
197.1756259998916
 20
317.1753287130131
 30
0.0
 10
197.175517984935
 20
317.1755571169388
 30
0.0
  0
SPLINE
  5
B7
330
1F
100
AcDbEntity
  8
0
  6
Continuous
 62
     8
370
    18
100
AcDbSpline
210
0.0
220
0.0
230
1.0
 70
     8
 71
     3
 72
     8
 73
     4
 74
     0
 42
0.000000001
 43
0.00000001
 40
0.0
 40
0.0
 40
0.0
 40
0.0
 40
1.0
 40
1.0
 40
1.0
 40
1.0
 10
202.1686740869353
 20
317.1748720201375
 30
0.0
 10
202.1687821100861
 20
317.1751003474163
 30
0.0
 10
202.1688901291405
 20
317.1753287130129
 30
0.0
 10
202.1689981440972
 20
317.1755571169387
 30
0.0
  0
LWPOLYLINE
  5
B8
330
1F
100
AcDbEntity
  8
0
  6
Continuous
 62
     8
370
    18
100
AcDbPolyline
 90
        9
 70
   128
 43
0.0
 10
202.1686740465
 20
317.174871835
 10
202.1698496085
 20
317.1659963309
 10
202.1710167885
 20
317.1571860193
 10
202.1721732583
 20
317.1484539389
 10
202.1733166896
 20
317.1398224412
 10
202.1744445212
 20
317.1313082903
 10
202.1755548906
 20
317.1229263871
 10
202.1766450036
 20
317.1146972208
 10
202.1777129978
 20
317.10663383
  0
LWPOLYLINE
  5
B9
330
1F
100
AcDbEntity
  8
0
  6
Continuous
 62
     8
370
    18
100
AcDbPolyline
 90
        9
 70
   128
 43
0.0
 10
197.1668031312
 20
317.10663383
 10
197.1678711254
 20
317.1146972208
 10
197.1689612385
 20
317.1229263871
 10
197.1700716078
 20
317.1313082903
 10
197.1711994395
 20
317.1398224412
 10
197.1723428708
 20
317.1484539389
 10
197.1734993406
 20
317.1571860193
 10
197.1746665206
 20
317.1659963309
 10
197.1758420825
 20
317.174871835
  0
CIRCLE
  5
BA
330
1F
100
AcDbEntity
  8
0
  6
Continuous
 62
     8
370
    18
100
AcDbCircle
 10
199.6722580645
 20
336.0212694954
 30
0.0
 40
19.55783217965629
  0
ARC
  5
BB
330
1F
100
AcDbEntity
  8
0
  6
Continuous
 62
     8
370
    18
100
AcDbCircle
 10
204.1484866168
 20
356.0060051933
 30
0.0
 40
0.104229442946978
100
AcDbArc
 50
162.5180375954
 51
203.4909307876
  0
SPLINE
  5
BC
330
1F
100
AcDbEntity
  8
0
  6
Continuous
 62
     8
370
    18
100
AcDbSpline
210
0.0
220
0.0
230
1.0
 70
     8
 71
     3
 72
    13
 73
     9
 74
     0
 42
0.000000001
 43
0.00000001
 40
0.0
 40
0.0
 40
0.0
 40
0.0
 40
0.187573908885231
 40
0.378898591593977
 40
0.5453209777543873
 40
0.6668075970208616
 40
0.80673778039019
 40
0.9999999999999999
 40
0.9999999999999999
 40
0.9999999999999999
 40
0.9999999999999999
 10
204.0563571046973
 20
356.3424008070463
 30
0.0
 10
204.6148810301017
 20
356.2090595271715
 30
0.0
 10
205.7430972621191
 20
355.9397106425312
 30
0.0
 10
207.2783386114884
 20
355.3820401603137
 30
0.0
 10
208.4897867384985
 20
354.8225703710133
 30
0.0
 10
209.3395016123158
 20
354.3606146224435
 30
0.0
 10
209.917543007262
 20
354.0179301102757
 30
0.0
 10
209.9861600891997
 20
353.9679800482123
 30
0.0
 10
210.0259601849998
 20
353.9390074192518
 30
0.0
  0
ARC
  5
BD
330
1F
100
AcDbEntity
  8
0
  6
Continuous
 62
     8
370
    18
100
AcDbCircle
 10
202.6945553809
 20
356.222292802
 30
0.0
 40
1.367088098055574
100
AcDbArc
 50
352.2236309194
 51
5.0403231191
  0
ARC
  5
BE
330
1F
100
AcDbEntity
  8
0
  6
Continuous
 62
     8
370
    18
100
AcDbCircle
 10
194.8417288621
 20
355.9841127127
 30
0.0
 40
0.4568250874690609
100
AcDbArc
 50
1.9098047187
 51
6.6880616223
  0
SPLINE
  5
BF
330
1F
100
AcDbEntity
  8
0
  6
Continuous
 62
     8
370
    18
100
AcDbSpline
210
0.0
220
0.0
230
1.0
 70
     8
 71
     3
 72
    10
 73
     6
 74
     0
 42
0.000000001
 43
0.00000001
 40
0.0
 40
0.0
 40
0.0
 40
0.0
 40
0.5
 40
0.5
 40
1.0
 40
1.0
 40
1.0
 40
1.0
 10
199.6722621374394
 20
356.7970519558831
 30
0.0
 10
200.4095680179848
 20
356.7970517174654
 30
0.0
 10
201.1475441050224
 20
356.7610259758308
 30
0.0
 10
202.6134176335129
 20
356.6119944630388
 30
0.0
 10
203.3402120142489
 20
356.5005500175997
 30
0.0
 10
204.056357188479
 20
356.3424003552987
 30
0.0
  0
LWPOLYLINE
  5
C0
330
1F
100
AcDbEntity
  8
0
  6
Continuous
 62
     8
370
    18
100
AcDbPolyline
 90
        9
 70
   128
 43
0.0
 10
199.6722578906
 20
356.7970519989
 10
199.6722579071
 20
356.7757489263
 10
199.6722579245
 20
356.7498991369
 10
199.6722579425
 20
356.7196255653
 10
199.6722579611
 20
356.6850753604
 10
199.6722579801
 20
356.646418023
 10
199.6722579996
 20
356.6038379549
 10
199.6722580195
 20
356.5575400471
 10
199.6722580395
 20
356.5077515422
  0
SPLINE
  5
C1
330
1F
100
AcDbEntity
  8
0
  6
Continuous
 62
     8
370
    18
100
AcDbSpline
210
0.0
220
0.0
230
1.0
 70
     8
 71
     3
 72
    10
 73
     6
 74
     0
 42
0.000000001
 43
0.00000001
 40
0.0
 40
0.0
 40
0.0
 40
0.0
 40
0.5
 40
0.5
 40
1.0
 40
1.0
 40
1.0
 40
1.0
 10
195.2881594819196
 20
356.3424004938025
 30
0.0
 10
196.0043011487404
 20
356.50054899872
 30
0.0
 10
196.731162601395
 20
356.6112388231814
 30
0.0
 10
198.1970209510719
 20
356.7601675968197
 30
0.0
 10
198.9337907600643
 20
356.7970515770139
 30
0.0
 10
199.6722621374394
 20
356.797051955883
 30
0.0
  0
ARC
  5
C2
330
1F
100
AcDbEntity
  8
0
  6
Continuous
 62
     8
370
    18
100
AcDbCircle
 10
196.6499201794
 20
356.222291822
 30
0.0
 40
1.367047308454441
100
AcDbArc
 50
174.959484869
 51
187.7765610926
  0
SPLINE
  5
C3
330
1F
100
AcDbEntity
  8
0
  6
Continuous
 62
     8
370
    18
100
AcDbSpline
210
0.0
220
0.0
230
1.0
 70
     8
 71
     3
 72
    13
 73
     9
 74
     0
 42
0.000000001
 43
0.00000001
 40
0.0
 40
0.0
 40
0.0
 40
0.0
 40
0.1932290407625149
 40
0.3331986353563299
 40
0.4547193804956172
 40
0.6595804282128567
 40
0.8281118170503292
 40
1.0
 40
1.0
 40
1.0
 40
1.0
 10
189.3186677027429
 20
353.9390781997674
 30
0.0
 10
189.3584630483942
 20
353.9680538676393
 30
0.0
 10
189.4270850050744
 20
354.0180186811858
 30
0.0
 10
190.0049963886731
 20
354.3605352386449
 30
0.0
 10
190.9310763065374
 20
354.8643473168086
 30
0.0
 10
192.216693925271
 20
355.4453057886421
 30
0.0
 10
193.761964174348
 20
355.9816130211124
 30
0.0
 10
194.7760943549148
 20
356.2213502151292
 30
0.0
 10
195.2881594899977
 20
356.3424008070463
 30
0.0
  0
SPLINE
  5
C4
330
1F
100
AcDbEntity
  8
0
  6
Continuous
 62
     8
370
    18
100
AcDbSpline
210
0.0
220
0.0
230
1.0
 70
     8
 71
     3
 72
    14
 73
    10
 74
     0
 42
0.000000001
 43
0.00000001
 40
0.0
 40
0.0
 40
0.0
 40
0.0
 40
0.1459061622467747
 40
0.2919073771357783
 40
0.4379067481764
 40
0.5839853655009167
 40
0.7300888425309872
 40
0.8761778561610178
 40
1.0
 40
1.0
 40
1.0
 40
1.0
 10
195.8178280167217
 20
360.2129886030191
 30
0.0
 10
195.7117861819612
 20
360.2120230670206
 30
0.0
 10
195.4996334299804
 20
360.2100913660116
 30
0.0
 10
195.1954264867877
 20
360.1942432398139
 30
0.0
 10
194.9192797970355
 20
360.1695011931061
 30
0.0
 10
194.682957229158
 20
360.1361500920335
 30
0.0
 10
194.4995049058722
 20
360.0959217330421
 30
0.0
 10
194.3747644018787
 20
360.0530852675099
 30
0.0
 10
194.3456950418471
 20
360.0232861032189
 30
0.0
 10
194.3323594298149
 20
360.0096156924003
 30
0.0
  0
SPLINE
  5
C5
330
1F
100
AcDbEntity
  8
0
  6
Continuous
 62
     8
370
    18
100
AcDbSpline
210
0.0
220
0.0
230
1.0
 70
     8
 71
     3
 72
    14
 73
    10
 74
     0
 42
0.000000001
 43
0.00000001
 40
0.0
 40
0.0
 40
0.0
 40
0.0
 40
0.1200556754865633
 40
0.266796955712562
 40
0.4134656927724524
 40
0.5600782771855188
 40
0.7067348575124957
 40
0.8534160758948574
 40
1.0
 40
1.0
 40
1.0
 40
1.0
 10
205.010526419052
 20
360.0109959124559
 30
0.0
 10
204.9975416127149
 20
360.0241919092087
 30
0.0
 10
204.9686857773935
 20
360.0535170681151
 30
0.0
 10
204.8448161010032
 20
360.0958893347201
 30
0.0
 10
204.6619298095573
 20
360.1361608268565
 30
0.0
 10
204.4252175142153
 20
360.1694402724751
 30
0.0
 10
204.1493124690706
 20
360.1942304679595
 30
0.0
 10
203.8450413378564
 20
360.2101393988232
 30
0.0
 10
203.6327726010283
 20
360.2120390783677
 30
0.0
 10
203.5266734439815
 20
360.2129886030191
 30
0.0
  0
LINE
  5
C6
330
1F
100
AcDbEntity
  8
0
  6
Continuous
 62
     8
370
    18
100
AcDbLine
 10
203.5685308058
 20
357.537887442
 30
0.0
 11
203.5266732112
 21
360.2129923283
 31
0.0
  0
SPLINE
  5
C7
330
1F
100
AcDbEntity
  8
0
  6
Continuous
 62
     8
370
    18
100
AcDbSpline
210
0.0
220
0.0
230
1.0
 70
     8
 71
     3
 72
    11
 73
     7
 74
     0
 42
0.000000001
 43
0.00000001
 40
0.0
 40
0.0
 40
0.0
 40
0.0
 40
0.2500136271666651
 40
0.5000020073485225
 40
0.7499893837832665
 40
1.0
 40
1.0
 40
1.0
 40
1.0
 10
199.6722580645185
 20
360.2879726358527
 30
0.0
 10
199.3509546059005
 20
360.2870771599411
 30
0.0
 10
198.7083801346701
 20
360.2852862985453
 30
0.0
 10
197.7446361859585
 20
360.2705565987423
 30
0.0
 10
196.7810564402012
 20
360.2477961385526
 30
0.0
 10
196.138914571944
 20
360.2245946962087
 30
0.0
 10
195.8178287145185
 20
360.2129934358381
 30
0.0
  0
SPLINE
  5
C8
330
1F
100
AcDbEntity
  8
0
  6
Continuous
 62
     8
370
    18
100
AcDbSpline
210
0.0
220
0.0
230
1.0
 70
     8
 71
     3
 72
    11
 73
     7
 74
     0
 42
0.000000001
 43
0.00000001
 40
0.0
 40
0.0
 40
0.0
 40
0.0
 40
0.2500105803703002
 40
0.4999979449714972
 40
0.7499863371615304
 40
1.0
 40
1.0
 40
1.0
 40
1.0
 10
203.5266727445185
 20
360.2129940054818
 30
0.0
 10
203.2055881542562
 20
360.2245951778536
 30
0.0
 10
202.5634487893726
 20
360.2477964453224
 30
0.0
 10
201.5998727567328
 20
360.2705567318585
 30
0.0
 10
200.6361324310803
 20
360.285286319305
 30
0.0
 10
199.9935603454701
 20
360.2870771668331
 30
0.0
 10
199.6722580645185
 20
360.2879726358527
 30
0.0
  0
ARC
  5
C9
330
1F
100
AcDbEntity
  8
0
  6
Continuous
 62
     8
370
    18
100
AcDbCircle
 10
161.4626695564
 20
359.0822872781
 30
0.0
 40
34.37376031687647
100
AcDbArc
 50
1.8850455138
 51
3.2771998339
  0
LINE
  5
CA
330
1F
100
AcDbEntity
  8
0
  6
Continuous
 62
     8
370
    18
100
AcDbLine
 10
199.6722580645
 20
360.2879731088
 30
0.0
 11
199.6722580645
 21
361.1221568762
 31
0.0
  0
LWPOLYLINE
  5
CB
330
1F
100
AcDbEntity
  8
0
  6
Continuous
 62
     8
370
    18
100
AcDbPolyline
 90
        9
 70
   128
 43
0.0
 10
203.5266727455
 20
360.212994191
 10
203.5341773428
 20
360.4000931709
 10
203.5414004479
 20
360.5741890251
 10
203.5480712786
 20
360.7287531822
 10
203.5539400078
 20
360.8579909532
 10
203.5587866105
 20
360.9570557355
 10
203.5624290131
 20
361.0222371398
 10
203.5647310097
 20
361.0510876506
 10
203.5656062201
 20
361.0425287961
  0
SPLINE
  5
CC
330
1F
100
AcDbEntity
  8
0
  6
Continuous
 62
     8
370
    18
100
AcDbSpline
210
0.0
220
0.0
230
1.0
 70
     8
 71
     3
 72
     9
 73
     5
 74
     0
 42
0.000000001
 43
0.00000001
 40
0.0
 40
0.0
 40
0.0
 40
0.0
 40
0.5354061614173499
 40
1.0
 40
1.0
 40
1.0
 40
1.0
 10
204.066852644452
 20
360.9427208184236
 30
0.0
 10
204.0696669968938
 20
360.9476290294995
 30
0.0
 10
204.074923478131
 20
360.9567962962021
 30
0.0
 10
204.0588278012033
 20
360.9666313550244
 30
0.0
 10
204.0513498488749
 20
360.9712006627553
 30
0.0
  0
SPLINE
  5
CD
330
1F
100
AcDbEntity
  8
0
  6
Continuous
 62
     8
370
    18
100
AcDbSpline
210
0.0
220
0.0
230
1.0
 70
     8
 71
     3
 72
     9
 73
     5
 74
     0
 42
0.000000001
 43
0.00000001
 40
0.0
 40
0.0
 40
0.0
 40
0.0
 40
0.4661063866754801
 40
1.0
 40
1.0
 40
1.0
 40
1.0
 10
195.2931811813201
 20
360.9712192892068
 30
0.0
 10
195.2857012377235
 20
360.9666323726498
 30
0.0
 10
195.2696535202703
 20
360.956791450731
 30
0.0
 10
195.2748663944901
 20
360.9476170889432
 30
0.0
 10
195.2776495147432
 20
360.9427189557784
 30
0.0
  0
CIRCLE
  5
CE
330
1F
100
AcDbEntity
  8
0
  6
Continuous
 62
     8
370
    18
100
AcDbCircle
 10
199.6722580645
 20
374.0212694954
 30
0.0
 40
11.66554315570778
  0
CIRCLE
  5
CF
330
1F
100
AcDbEntity
  8
0
  6
Continuous
 62
     8
370
    18
100
AcDbCircle
 10
199.6722580645
 20
336.0212694954
 30
0.0
 40
74.38360264185118
  0
LINE
  5
D0
330
1F
100
AcDbEntity
  8
0
  6
Continuous
 62
     7
370
    25
100
AcDbLine
 10
124.6722550843
 20
178.426612903
 30
0.0
 11
125.2886565182
 21
154.8873467262
 31
0.0
  0
LINE
  5
D1
330
1F
100
AcDbEntity
  8
0
  6
Continuous
 62
     7
370
    25
100
AcDbLine
 10
274.0558596108
 20
154.8873467262
 30
0.0
 11
274.6722610447
 21
178.426612903
 31
0.0
  0
ARC
  5
D2
330
1F
100
AcDbEntity
  8
0
  6
Continuous
 62
     7
370
    25
100
AcDbCircle
 10
126.7881414101
 20
154.926612903
 30
0.0
 40
1.500000000000023
100
AcDbArc
 50
181.5
 51
270.0
  0
ARC
  5
D3
330
1F
100
AcDbEntity
  8
0
  6
Continuous
 62
     7
370
    25
100
AcDbCircle
 10
272.5563747189
 20
154.926612903
 30
0.0
 40
1.500000000000008
100
AcDbArc
 50
270.0
 51
358.5
  0
ARC
  5
D4
330
1F
100
AcDbEntity
  8
0
  6
Continuous
 62
     7
370
    25
100
AcDbCircle
 10
188.0222689664
 20
153.8078613636
 30
0.0
 40
0.4999999999999795
100
AcDbArc
 50
229.6848181752
 51
268.217348702
  0
ARC
  5
D5
330
1F
100
AcDbEntity
  8
0
  6
Continuous
 62
     7
370
    25
100
AcDbCircle
 10
211.3222471627
 20
153.8078613636
 30
0.0
 40
0.4999999999999795
100
AcDbArc
 50
271.782651298
 51
310.3151818248
  0
ARC
  5
D6
330
1F
100
AcDbEntity
  8
0
  6
Continuous
 62
     7
370
    25
100
AcDbCircle
 10
199.6722580645
 20
528.126612903
 30
0.0
 40
375.0000000000001
100
AcDbArc
 50
268.217348702
 51
270.0
  0
ARC
  5
D7
330
1F
100
AcDbEntity
  8
0
  6
Continuous
 62
     7
370
    25
100
AcDbCircle
 10
199.6722580645
 20
528.126612903
 30
0.0
 40
375.0000000000001
100
AcDbArc
 50
270.0
 51
271.782651298
  0
LINE
  5
D8
330
1F
100
AcDbEntity
  8
0
  6
Continuous
 62
     7
370
    25
100
AcDbLine
 10
205.0214666653
 20
111.109811988
 30
0.0
 11
204.9960490096
 21
111.4452445771
 31
0.0
  0
LINE
  5
D9
330
1F
100
AcDbEntity
  8
0
  6
Continuous
 62
     7
370
    25
100
AcDbLine
 10
194.3484554779
 20
111.4452594782
 30
0.0
 11
194.323193353
 21
111.1097747351
 31
0.0
  0
LINE
  5
DA
330
1F
100
AcDbEntity
  8
0
  6
Continuous
 62
     7
370
    25
100
AcDbLine
 10
220.1234964434
 20
98.819855776
 30
0.0
 11
219.6765826795
 21
150.0309763367
 31
0.0
  0
LINE
  5
DB
330
1F
100
AcDbEntity
  8
0
  6
Continuous
 62
     7
370
    25
100
AcDbLine
 10
179.6679334495
 20
150.0309763367
 30
0.0
 11
179.2210196856
 21
98.819855776
 31
0.0
  0
ARC
  5
DC
330
1F
100
AcDbEntity
  8
0
  6
Continuous
 62
     7
370
    25
100
AcDbCircle
 10
219.1235341432
 20
98.8111328549
 30
0.0
 40
1.000000000000007
100
AcDbArc
 50
276.1168276045
 51
0.5
  0
ARC
  5
DD
330
1F
100
AcDbEntity
  8
0
  6
Continuous
 62
     7
370
    25
100
AcDbCircle
 10
180.2209819858
 20
98.8111328549
 30
0.0
 40
0.999999999999994
100
AcDbArc
 50
179.5
 51
263.8831723955
  0
ARC
  5
DE
330
1F
100
AcDbEntity
  8
0
  6
Continuous
 62
     7
370
    25
100
AcDbCircle
 10
219.1766024592
 20
150.0266129034
 30
0.0
 40
0.5000000000000027
100
AcDbArc
 50
0.5
 51
90.0
  0
ARC
  5
DF
330
1F
100
AcDbEntity
  8
0
  6
Continuous
 62
     7
370
    25
100
AcDbCircle
 10
180.1679136698
 20
150.0266129034
 30
0.0
 40
0.5000000000000027
100
AcDbArc
 50
90.0
 51
179.5
  0
ARC
  5
E0
330
1F
100
AcDbEntity
  8
0
  6
Continuous
 62
     7
370
    25
100
AcDbCircle
 10
180.1722580645
 20
152.3266129034
 30
0.0
 40
0.5
100
AcDbArc
 50
180.0
 51
270.0
  0
ARC
  5
E1
330
1F
100
AcDbEntity
  8
0
  6
Continuous
 62
     7
370
    25
100
AcDbCircle
 10
219.1722580645
 20
152.3266129034
 30
0.0
 40
0.5
100
AcDbArc
 50
270.0
 51
0.0
  0
LINE
  5
E2
330
1F
100
AcDbEntity
  8
0
  6
Continuous
 62
     7
370
    25
100
AcDbLine
 10
219.6722576175
 20
152.3266119774
 30
0.0
 11
219.6722576175
 21
153.426613834
 31
0.0
  0
LINE
  5
E3
330
1F
100
AcDbEntity
  8
0
  6
Continuous
 62
     7
370
    25
100
AcDbLine
 10
179.6722585116
 20
153.426613834
 30
0.0
 11
179.6722585116
 21
152.3266119774
 31
0.0
  0
LINE
  5
E4
330
1F
100
AcDbEntity
  8
0
  6
Continuous
 62
     7
370
    25
100
AcDbLine
 10
180.1144262556
 20
97.8168288137
 30
0.0
 11
180.3722573224
 21
97.7891946103
 31
0.0
  0
LINE
  5
E5
330
1F
100
AcDbEntity
  8
0
  6
Continuous
 62
     7
370
    25
100
AcDbLine
 10
218.9722588066
 20
97.7891946103
 30
0.0
 11
219.2300898734
 21
97.8168288137
 31
0.0
  0
ARC
  5
E6
330
1F
100
AcDbEntity
  8
0
  6
Continuous
 62
     7
370
    25
100
AcDbCircle
 10
180.683523448
 20
97.9672339734
 30
0.0
 40
0.2000000000000129
100
AcDbArc
 50
242.8975804661
 51
263.7865942846
  0
ARC
  5
E7
330
1F
100
AcDbEntity
  8
0
  6
Continuous
 62
     7
370
    25
100
AcDbCircle
 10
218.6609926811
 20
97.9672339734
 30
0.0
 40
0.2000000000000129
100
AcDbArc
 50
276.2134057155
 51
297.1024195339
  0
ARC
  5
E8
330
1F
100
AcDbEntity
  8
0
  6
Continuous
 62
     7
370
    25
100
AcDbCircle
 10
199.6722580645
 20
272.381416361
 30
0.0
 40
175.6448034575514
100
AcDbArc
 50
263.7865942846
 51
270.0
  0
ARC
  5
E9
330
1F
100
AcDbEntity
  8
0
  6
Continuous
 62
     7
370
    25
100
AcDbCircle
 10
199.6722580645
 20
272.381416361
 30
0.0
 40
175.6448034575514
100
AcDbArc
 50
270.0
 51
276.2134057155
  0
LINE
  5
EA
330
1F
100
AcDbEntity
  8
0
  6
Continuous
 62
     7
370
    25
100
AcDbLine
 10
217.172258139
 20
150.5266131724
 30
0.0
 11
217.172258139
 21
151.8266128267
 31
0.0
  0
LINE
  5
EB
330
1F
100
AcDbEntity
  8
0
  6
Continuous
 62
     7
370
    25
100
AcDbLine
 10
182.17225799
 20
151.8266128267
 30
0.0
 11
182.17225799
 21
150.5266131724
 31
0.0
  0
LINE
  5
EC
330
1F
100
AcDbEntity
  8
0
  6
Continuous
 62
     7
370
    25
100
AcDbLine
 10
124.6722550843
 20
178.426612903
 30
0.0
 11
274.6722610447
 21
178.426612903
 31
0.0
  0
LINE
  5
ED
330
1F
100
AcDbEntity
  8
0
  6
Continuous
 62
     7
370
    25
100
AcDbLine
 10
272.5563781116
 20
153.426613834
 30
0.0
 11
126.7881380174
 21
153.426613834
 31
0.0
  0
SPLINE
  5
EE
330
1F
100
AcDbEntity
  8
0
  6
Continuous
 62
     7
370
    25
100
AcDbSpline
210
0.0
220
0.0
230
1.0
 70
     8
 71
     3
 72
    23
 73
    19
 74
     0
 42
0.000000001
 43
0.00000001
 40
0.0
 40
0.0
 40
0.0
 40
0.0
 40
0.055636758442343
 40
0.1132099996404278
 40
0.172596279413108
 40
0.2336355184137792
 40
0.29613095767309
 40
0.3598508428897501
 40
0.4245319963891625
 40
0.4898852715070087
 40
0.5556026911675942
 40
0.6213656569529251
 40
0.6868541711742902
 40
0.7517566183736271
 40
0.8157779592184501
 40
0.878647241245375
 40
0.9401235302537319
 40
1.0
 40
1.0
 40
1.0
 40
1.0
 10
205.0145434523199
 20
111.4239026407908
 30
0.0
 10
205.018872824892
 20
111.3827918378236
 30
0.0
 10
205.0276822573797
 20
111.2991393368613
 30
0.0
 10
205.0271922477598
 20
111.1707583727321
 30
0.0
 10
205.015738136925
 20
111.0389523866336
 30
0.0
 10
204.9913926296269
 20
110.9050846361932
 30
0.0
 10
204.9537774741464
 20
110.7709122751924
 30
0.0
 10
204.9024679357233
 20
110.6383248105179
 30
0.0
 10
204.8375089175288
 20
110.5093312349912
 30
0.0
 10
204.7593173993216
 20
110.3859556523232
 30
0.0
 10
204.6687232574946
 20
110.2701443650861
 30
0.0
 10
204.5669351835751
 20
110.1636671391687
 30
0.0
 10
204.4554932183483
 20
110.0680073900558
 30
0.0
 10
204.3361820582089
 20
109.9843512126759
 30
0.0
 10
204.2109675516736
 20
109.9133951777654
 30
0.0
 10
204.0817968997271
 20
109.8558396854087
 30
0.0
 10
203.9508713188377
 20
109.8105629821002
 30
0.0
 10
203.8618588344609
 20
109.7907619356207
 30
0.0
 10
203.8179393275413
 20
109.7809919330872
 30
0.0
  0
SPLINE
  5
EF
330
1F
100
AcDbEntity
  8
0
  6
Continuous
 62
     7
370
    25
100
AcDbSpline
210
0.0
220
0.0
230
1.0
 70
     8
 71
     3
 72
    20
 73
    16
 74
     0
 42
0.000000001
 43
0.00000001
 40
0.0
 40
0.0
 40
0.0
 40
0.0
 40
0.0768964513735296
 40
0.1537908397933005
 40
0.2306858677068644
 40
0.3075840550066447
 40
0.384487713042149
 40
0.4613989522343199
 40
0.5383196897083213
 40
0.6152513436769103
 40
0.6921926613813442
 40
0.7691410331285753
 40
0.8460936855164413
 40
0.9230476960071847
 40
1.0
 40
1.0
 40
1.0
 40
1.0
 10
194.329958592769
 20
111.4239240836233
 30
0.0
 10
194.4046508399601
 20
112.0043876711016
 30
0.0
 10
194.5540333305221
 20
113.1652992735639
 30
0.0
 10
194.7661783329497
 20
114.9079884972696
 30
0.0
 10
194.96986571286
 20
116.6515746498243
 30
0.0
 10
195.1645616879706
 20
118.3961384065255
 30
0.0
 10
195.3508067152827
 20
120.1416375195199
 30
0.0
 10
195.5288533575684
 20
121.8880627775833
 30
0.0
 10
195.6990295915244
 20
123.6353938125256
 30
0.0
 10
195.8616451988262
 20
125.3835912695287
 30
0.0
 10
196.0169908569073
 20
127.132584967854
 30
0.0
 10
196.1653982036899
 20
128.8822735992811
 30
0.0
 10
196.3070198536026
 20
130.6325584990494
 30
0.0
 10
196.442675953751
 20
132.3832973463441
 30
0.0
 10
196.5280231474101
 20
133.5508020396509
 30
0.0
 10
196.570696271079
 20
134.1345479137163
 30
0.0
  0
SPLINE
  5
F0
330
1F
100
AcDbEntity
  8
0
  6
Continuous
 62
     7
370
    25
100
AcDbSpline
210
0.0
220
0.0
230
1.0
 70
     8
 71
     3
 72
    17
 73
    13
 74
     0
 42
0.000000001
 43
0.00000001
 40
0.0
 40
0.0
 40
0.0
 40
0.0
 40
0.100045009416599
 40
0.2000945801080587
 40
0.3001413176938128
 40
0.4001782497088118
 40
0.5001989885734546
 40
0.6002000643501653
 40
0.7001806254491794
 40
0.8001404257611826
 40
0.9000797832959231
 40
1.0
 40
1.0
 40
1.0
 40
1.0
 10
202.7738675360927
 20
134.1345411939563
 30
0.0
 10
202.8295594927891
 20
133.3756322935331
 30
0.0
 10
202.9409459453023
 20
131.8577798923393
 30
0.0
 10
203.1210776322818
 20
129.5818944161287
 30
0.0
 10
203.311597549293
 20
127.3068282850857
 30
0.0
 10
203.5140473004823
 20
125.0328937043705
 30
0.0
 10
203.7288331441868
 20
122.7603087810359
 30
0.0
 10
203.9567046420183
 20
120.4892788445971
 30
0.0
 10
204.1982018561076
 20
118.2199527342246
 30
0.0
 10
204.4543841448714
 20
115.9525215016373
 30
0.0
 10
204.7244578443009
 20
113.6869600077467
 30
0.0
 10
204.9178558376611
 20
112.1782071752267
 30
0.0
 10
205.0145455733432
 20
111.4239030066502
 30
0.0
  0
SPLINE
  5
F1
330
1F
100
AcDbEntity
  8
0
  6
Continuous
 62
     7
370
    25
100
AcDbSpline
210
0.0
220
0.0
230
1.0
 70
     8
 71
     3
 72
    12
 73
     8
 74
     0
 42
0.000000001
 43
0.00000001
 40
0.0
 40
0.0
 40
0.0
 40
0.0
 40
0.5
 40
0.5
 40
0.75
 40
0.75
 40
1.0
 40
1.0
 40
1.0
 40
1.0
 10
195.6215174375308
 20
108.9539056959133
 30
0.0
 10
196.9417836036442
 20
108.9794855918401
 30
0.0
 10
198.2714352768327
 20
108.9934602945404
 30
0.0
 10
200.279527256332
 20
108.9940787740676
 30
0.0
 10
200.9513689401865
 20
108.990935996524
 30
0.0
 10
202.2990499500216
 20
108.9779865256852
 30
0.0
 10
202.9666282592871
 20
108.9682618603147
 30
0.0
 10
203.6279553491957
 20
108.9557271582355
 30
0.0
  0
SPLINE
  5
F2
330
1F
100
AcDbEntity
  8
0
  6
Continuous
 62
     7
370
    25
100
AcDbSpline
210
0.0
220
0.0
230
1.0
 70
     8
 71
     3
 72
    15
 73
    11
 74
     0
 42
0.000000001
 43
0.00000001
 40
0.0
 40
0.0
 40
0.0
 40
0.0
 40
0.0812154749773077
 40
0.1826925347089465
 40
0.3044391530395436
 40
0.4464597124209883
 40
0.5848630259485226
 40
0.7232491666900007
 40
0.8616258642702406
 40
1.0
 40
1.0
 40
1.0
 40
1.0
 10
195.6234452654062
 20
108.9561634995155
 30
0.0
 10
195.630152422677
 20
108.9713549317187
 30
0.0
 10
195.645240034525
 20
109.0055277449153
 30
0.0
 10
195.6613462351418
 20
109.0677741351564
 30
0.0
 10
195.6777336131662
 20
109.1493659262781
 30
0.0
 10
195.6909735150489
 20
109.248264020131
 30
0.0
 10
195.7084199581583
 20
109.3607756173378
 30
0.0
 10
195.7360879359041
 20
109.4816188742623
 30
0.0
 10
195.7715016529259
 20
109.6110807775721
 30
0.0
 10
195.8023862077035
 20
109.7055412239183
 30
0.0
 10
195.8178283421449
 20
109.7527710098867
 30
0.0
  0
SPLINE
  5
F3
330
1F
100
AcDbEntity
  8
0
  6
Continuous
 62
     7
370
    25
100
AcDbSpline
210
0.0
220
0.0
230
1.0
 70
     8
 71
     3
 72
    18
 73
    14
 74
     0
 42
0.000000001
 43
0.00000001
 40
0.0
 40
0.0
 40
0.0
 40
0.0
 40
0.1249999999999976
 40
0.1249999999999976
 40
0.2499999999999952
 40
0.2499999999999952
 40
0.5000000000000064
 40
0.5000000000000064
 40
0.625000000000005
 40
0.625000000000005
 40
0.7500000000000037
 40
0.7500000000000037
 40
1.0
 40
1.0
 40
1.0
 40
1.0
 10
194.2251232194838
 20
110.6253335747016
 30
0.0
 10
194.2114351397226
 20
110.5219188926013
 30
0.0
 10
194.2084355654608
 20
110.4187006291149
 30
0.0
 10
194.2235644602664
 20
110.2126518724106
 30
0.0
 10
194.2421739503399
 20
110.1087404841167
 30
0.0
 10
194.3284469446052
 20
109.8115710645315
 30
0.0
 10
194.4286687345785
 20
109.6257573582309
 30
0.0
 10
194.6262966202821
 20
109.3932583389808
 30
0.0
 10
194.7011286583334
 20
109.322041818727
 30
0.0
 10
194.8620150778182
 20
109.1982696139114
 30
0.0
 10
194.9478651229752
 20
109.1454697091431
 30
0.0
 10
195.2215026544235
 20
109.0137867241053
 30
0.0
 10
195.4198008252863
 20
108.9645283415726
 30
0.0
 10
195.6234617958918
 20
108.9561963277719
 30
0.0
  0
SPLINE
  5
F4
330
1F
100
AcDbEntity
  8
0
  6
Continuous
 62
     7
370
    25
100
AcDbSpline
210
0.0
220
0.0
230
1.0
 70
     8
 71
     3
 72
    13
 73
     9
 74
     0
 42
0.000000001
 43
0.00000001
 40
0.0
 40
0.0
 40
0.0
 40
0.0
 40
0.0787718223498969
 40
0.2103789466954775
 40
0.3419700266016534
 40
0.4735933686309499
 40
0.7367785964654412
 40
1.0
 40
1.0
 40
1.0
 40
1.0
 10
194.2251205828729
 20
110.6253338210265
 30
0.0
 10
194.2271210097021
 20
110.6404511019173
 30
0.0
 10
194.232463626855
 20
110.6808254075487
 30
0.0
 10
194.2416244642279
 20
110.7501541924211
 30
0.0
 10
194.2534844926211
 20
110.8400531875104
 30
0.0
 10
194.2708269185401
 20
110.9717844948049
 30
0.0
 10
194.2951182901364
 20
111.1567437893169
 30
0.0
 10
194.3183446071327
 20
111.3348597565275
 30
0.0
 10
194.32995856371
 20
111.4239238603727
 30
0.0
  0
SPLINE
  5
F5
330
1F
100
AcDbEntity
  8
0
  6
Continuous
 62
     7
370
    25
100
AcDbSpline
210
0.0
220
0.0
230
1.0
 70
     8
 71
     3
 72
    10
 73
     6
 74
     0
 42
0.000000001
 43
0.00000001
 40
0.0
 40
0.0
 40
0.0
 40
0.0
 40
0.5
 40
0.5
 40
1.0
 40
1.0
 40
1.0
 40
1.0
 10
205.1191799865519
 20
110.6267642569664
 30
0.0
 10
205.1070050935433
 20
110.7187839809395
 30
0.0
 10
205.0925440496926
 20
110.8282127660618
 30
0.0
 10
205.0576072721315
 20
111.0939590490746
 30
0.0
 10
205.0373971250554
 20
111.2482751032042
 30
0.0
 10
205.0145436755424
 20
111.4239009256497
 30
0.0
  0
SPLINE
  5
F6
330
1F
100
AcDbEntity
  8
0
  6
Continuous
 62
     7
370
    25
100
AcDbSpline
210
0.0
220
0.0
230
1.0
 70
     8
 71
     3
 72
    20
 73
    16
 74
     0
 42
0.000000001
 43
0.00000001
 40
0.0
 40
0.0
 40
0.0
 40
0.0
 40
0.1249999999999968
 40
0.1249999999999968
 40
0.2499999999999937
 40
0.2499999999999937
 40
0.3749999999999905
 40
0.3749999999999905
 40
0.4999999999999873
 40
0.4999999999999873
 40
0.7499999999999936
 40
0.7499999999999936
 40
0.8749999999999968
 40
0.8749999999999968
 40
1.0
 40
1.0
 40
1.0
 40
1.0
 10
203.6277627542111
 20
108.955730887866
 30
0.0
 10
203.7337737155694
 20
108.9537216822553
 30
0.0
 10
203.8380421261547
 20
108.9625491617482
 30
0.0
 10
204.0431363705064
 20
109.00185233516
 30
0.0
 10
204.1451225972925
 20
109.0327865238785
 30
0.0
 10
204.3380685454394
 20
109.114766632736
 30
0.0
 10
204.4293508805554
 20
109.1655548476027
 30
0.0
 10
204.6013682486841
 20
109.2872962891961
 30
0.0
 10
204.6816090525247
 20
109.3583309482853
 30
0.0
 10
204.8940752257534
 20
109.592439284319
 30
0.0
 10
205.0031837312171
 20
109.7830030465222
 30
0.0
 10
205.0979222847954
 20
110.090248306485
 30
0.0
 10
205.1185965683046
 20
110.1980263192105
 30
0.0
 10
205.1360707716574
 20
110.4118309513271
 30
0.0
 10
205.1334277818714
 20
110.519107558004
 30
0.0
 10
205.1191797543856
 20
110.626766011229
 30
0.0
  0
SPLINE
  5
F7
330
1F
100
AcDbEntity
  8
0
  6
Continuous
 62
     7
370
    25
100
AcDbSpline
210
0.0
220
0.0
230
1.0
 70
     8
 71
     3
 72
    23
 73
    19
 74
     0
 42
0.000000001
 43
0.00000001
 40
0.0
 40
0.0
 40
0.0
 40
0.0
 40
0.0527836491918513
 40
0.1040762268835839
 40
0.1538777585846903
 40
0.2021882798893083
 40
0.2490078375264903
 40
0.294336490583093
 40
0.3381743119344097
 40
0.3805213899264076
 40
0.421377830364521
 40
0.4607437588785421
 40
0.498619323752226
 40
0.6011776034110465
 40
0.7025905967316781
 40
0.802862444074616
 40
0.9019974321062154
 40
1.0
 40
1.0
 40
1.0
 40
1.0
 10
196.5706962870519
 20
134.1345480432537
 30
0.0
 10
196.5744376380683
 20
134.1738989529462
 30
0.0
 10
196.581814651655
 20
134.2514891587757
 30
0.0
 10
196.6040368383303
 20
134.3646860617299
 30
0.0
 10
196.6332422644377
 20
134.472728460128
 30
0.0
 10
196.6693486736625
 20
134.5751540615503
 30
0.0
 10
196.7112768585995
 20
134.6716825454672
 30
0.0
 10
196.7582280571289
 20
134.7621158299001
 30
0.0
 10
196.8093677588564
 20
134.8463517693815
 30
0.0
 10
196.8639162244747
 20
134.9243689540199
 30
0.0
 10
196.9211298714301
 20
134.9962173168993
 30
0.0
 10
196.9803199662925
 20
135.062012900935
 30
0.0
 10
197.0760540471889
 20
135.1567964957683
 30
0.0
 10
197.218092511082
 20
135.2704916311081
 30
0.0
 10
197.4163953682184
 20
135.3847281009227
 30
0.0
 10
197.6272555072344
 20
135.4662240048063
 30
0.0
 10
197.8454653349262
 20
135.5171951418066
 30
0.0
 10
197.9933101436847
 20
135.5234856958888
 30
0.0
 10
198.0668079145182
 20
135.5266129054691
 30
0.0
  0
SPLINE
  5
F8
330
1F
100
AcDbEntity
  8
0
  6
Continuous
 62
     7
370
    25
100
AcDbSpline
210
0.0
220
0.0
230
1.0
 70
     8
 71
     3
 72
    21
 73
    17
 74
     0
 42
0.000000001
 43
0.00000001
 40
0.0
 40
0.0
 40
0.0
 40
0.0
 40
0.054325202464409
 40
0.1089978616032519
 40
0.1640187636379092
 40
0.219388679861477
 40
0.2751083669797672
 40
0.3311785674436656
 40
0.3876000097730957
 40
0.4443734088727818
 40
0.5014994663400234
 40
0.5868213842094671
 40
0.6793336106281047
 40
0.779035201183909
 40
0.8859246543786731
 40
0.9999999999999999
 40
0.9999999999999999
 40
0.9999999999999999
 40
0.9999999999999999
 10
201.2777554145182
 20
135.5266129027104
 30
0.0
 10
201.3184695563789
 20
135.5256548717529
 30
0.0
 10
201.4001582422651
 20
135.5237326824013
 30
0.0
 10
201.5222672253383
 20
135.5081425389247
 30
0.0
 10
201.6434980143032
 20
135.4831386188337
 30
0.0
 10
201.7629874375246
 20
135.4477846709946
 30
0.0
 10
201.8798575916968
 20
135.4023852888357
 30
0.0
 10
201.9932229149859
 20
135.3470068300471
 30
0.0
 10
202.1021962432386
 20
135.2818822383151
 30
0.0
 10
202.2058986106614
 20
135.2072971584878
 30
0.0
 10
202.3193067440739
 20
135.1100571799488
 30
0.0
 10
202.4402390184216
 20
134.9815686029237
 30
0.0
 10
202.5618324609965
 20
134.8121386678435
 30
0.0
 10
202.6646638338381
 20
134.6125125099124
 30
0.0
 10
202.7434731815125
 20
134.3840778672286
 30
0.0
 10
202.7635187859629
 20
134.2195040869262
 30
0.0
 10
202.7738675350312
 20
134.1345411834737
 30
0.0
  0
SPLINE
  5
F9
330
1F
100
AcDbEntity
  8
0
  6
Continuous
 62
     7
370
    25
100
AcDbSpline
210
0.0
220
0.0
230
1.0
 70
    24
 71
     3
 72
     9
 73
     5
 74
     0
 42
0.000000001
 43
0.00000001
 40
0.0
 40
0.0
 40
0.0
 40
0.0
 40
0.5000159095895284
 40
1.0
 40
1.0
 40
1.0
 40
1.0
 10
198.0668079145182
 20
135.5266129034366
 30
0.0
 10
198.3343780093887
 20
135.5266129034366
 30
0.0
 10
198.8695011719501
 20
135.5266129034366
 30
0.0
 10
199.4046781099591
 20
135.5266129034366
 30
0.0
 10
199.6722580645182
 20
135.5266129034366
 30
0.0
  0
SPLINE
  5
FA
330
1F
100
AcDbEntity
  8
0
  6
Continuous
 62
     7
370
    25
100
AcDbSpline
210
0.0
220
0.0
230
1.0
 70
    24
 71
     3
 72
     9
 73
     5
 74
     0
 42
0.000000001
 43
0.00000001
 40
0.0
 40
0.0
 40
0.0
 40
0.0
 40
0.4999996830999151
 40
1.0
 40
1.0
 40
1.0
 40
1.0
 10
199.6722580645182
 20
135.5266129034366
 30
0.0
 10
199.9398542326953
 20
135.5266129034366
 30
0.0
 10
200.4750469082547
 20
135.5266129034366
 30
0.0
 10
201.0101857993733
 20
135.5266129034366
 30
0.0
 10
201.2777554145182
 20
135.5266129034366
 30
0.0
  0
SPLINE
  5
FB
330
1F
100
AcDbEntity
  8
0
  6
Continuous
 62
     7
370
    25
100
AcDbSpline
210
0.0
220
0.0
230
1.0
 70
    24
 71
     3
 72
    18
 73
    14
 74
     0
 42
0.000000001
 43
0.00000001
 40
0.0
 40
0.0
 40
0.0
 40
0.0
 40
0.125
 40
0.125
 40
0.25
 40
0.25
 40
0.5
 40
0.5
 40
0.75
 40
0.75
 40
0.875
 40
0.875
 40
1.0
 40
1.0
 40
1.0
 40
1.0
 10
195.3477149722637
 20
108.8520755478888
 30
0.0
 10
195.7076486479686
 20
108.8520755478897
 30
0.0
 10
196.067865033392
 20
108.8520755478905
 30
0.0
 10
196.7883959522586
 20
108.8520755478922
 30
0.0
 10
197.148772085957
 20
108.8520755478931
 30
0.0
 10
198.23006282643
 20
108.8520755478956
 30
0.0
 10
198.9511830527961
 20
108.8520755478973
 30
0.0
 10
200.3934784360916
 20
108.8520755479007
 30
0.0
 10
201.1145074529309
 20
108.8520755479024
 30
0.0
 10
202.1958324827976
 20
108.8520755479049
 30
0.0
 10
202.556174362705
 20
108.8520755479058
 30
0.0
 10
203.2766554199122
 20
108.8520755479075
 30
0.0
 10
203.636893466295
 20
108.8520755479083
 30
0.0
 10
203.9968011567688
 20
108.8520755479091
 30
0.0
  0
SPLINE
  5
FC
330
1F
100
AcDbEntity
  8
0
  6
Continuous
 62
     7
370
    25
100
AcDbSpline
210
0.0
220
0.0
230
1.0
 70
     8
 71
     3
 72
    20
 73
    16
 74
     0
 42
0.000000001
 43
0.00000001
 40
0.0
 40
0.0
 40
0.0
 40
0.0
 40
0.1249999999999949
 40
0.1249999999999949
 40
0.2499999999999899
 40
0.2499999999999899
 40
0.3749999999999848
 40
0.3749999999999848
 40
0.4999999999999798
 40
0.4999999999999798
 40
0.7499999999999815
 40
0.7499999999999815
 40
0.8749999999999907
 40
0.8749999999999907
 40
1.0
 40
1.0
 40
1.0
 40
1.0
 10
203.9968011567688
 20
108.8520755479092
 30
0.0
 10
204.0942642394968
 20
108.8520755479101
 30
0.0
 10
204.1900109121856
 20
108.8619741803453
 30
0.0
 10
204.3781317404655
 20
108.900700700318
 30
0.0
 10
204.4715392508787
 20
108.9300422563835
 30
0.0
 10
204.6486269676532
 20
109.0062661915091
 30
0.0
 10
204.7324327950101
 20
109.0528826990352
 30
0.0
 10
204.8905486669278
 20
109.1630929526431
 30
0.0
 10
204.9646637803206
 20
109.2269066503034
 30
0.0
 10
205.162577776902
 20
109.4356236988525
 30
0.0
 10
205.2669663404672
 20
109.6034408396938
 30
0.0
 10
205.3666913284913
 20
109.8737270446808
 30
0.0
 10
205.3911484336089
 20
109.9685571985875
 30
0.0
 10
205.4200301308892
 20
110.1600174443753
 30
0.0
 10
205.4247229352463
 20
110.2565839774341
 30
0.0
 10
205.419433684598
 20
110.3540250712269
 30
0.0
  0
SPLINE
  5
FD
330
1F
100
AcDbEntity
  8
0
  6
Continuous
 62
     7
370
    25
100
AcDbSpline
210
0.0
220
0.0
230
1.0
 70
     8
 71
     3
 72
    20
 73
    16
 74
     0
 42
0.000000001
 43
0.00000001
 40
0.0
 40
0.0
 40
0.0
 40
0.0
 40
0.1250000000000007
 40
0.1250000000000007
 40
0.2500000000000015
 40
0.2500000000000015
 40
0.3750000000000022
 40
0.3750000000000022
 40
0.500000000000003
 40
0.500000000000003
 40
0.7500000000000044
 40
0.7500000000000044
 40
0.8750000000000022
 40
0.8750000000000022
 40
1.0
 40
1.0
 40
1.0
 40
1.0
 10
193.925082444419
 20
110.3540250712277
 30
0.0
 10
193.9197931859325
 20
110.2565838330349
 30
0.0
 10
193.9245029385853
 20
110.1603505923043
 30
0.0
 10
193.9530592265361
 20
109.9701611417512
 30
0.0
 10
193.9773751871575
 20
109.8751539149658
 30
0.0
 10
194.0440253597471
 20
109.6940966245795
 30
0.0
 10
194.0860971095288
 20
109.6078790477624
 30
0.0
 10
194.1876961349543
 20
109.4440393036237
 30
0.0
 10
194.2473963205518
 20
109.3666720296515
 30
0.0
 10
194.4451842430379
 20
109.157851049907
 30
0.0
 10
194.6072275808061
 20
109.0445827614716
 30
0.0
 10
194.8715938897194
 20
108.9305611988563
 30
0.0
 10
194.9648926771842
 20
108.9010720381329
 30
0.0
 10
195.1541882587228
 20
108.8619757858537
 30
0.0
 10
195.2502419996152
 20
108.8520755478948
 30
0.0
 10
195.3477149722637
 20
108.8520755478939
 30
0.0
  0
SPLINE
  5
FE
330
1F
100
AcDbEntity
  8
0
  6
Continuous
 62
     7
370
    25
100
AcDbSpline
210
0.0
220
0.0
230
1.0
 70
     8
 71
     3
 72
     8
 73
     4
 74
     0
 42
0.000000001
 43
0.00000001
 40
0.0
 40
0.0
 40
0.0
 40
0.0
 40
0.0001029845837661
 40
0.0001029845837661
 40
0.0001029845837661
 40
0.0001029845837661
 10
196.3530851494663
 20
134.6802902060331
 30
0.0
 10
196.3481735181479
 20
134.6463184078457
 30
0.0
 10
196.344488395561
 20
134.61214909892
 30
0.0
 10
196.3420436846007
 20
134.5779191302281
 30
0.0
  0
SPLINE
  5
FF
330
1F
100
AcDbEntity
  8
0
  6
Continuous
 62
     7
370
    25
100
AcDbSpline
210
0.0
220
0.0
230
1.0
 70
     8
 71
     3
 72
    14
 73
    10
 74
     0
 42
0.000000001
 43
0.00000001
 40
0.0
 40
0.0
 40
0.0
 40
0.0
 40
0.2499999999999998
 40
0.2499999999999998
 40
0.4999999999999996
 40
0.4999999999999996
 40
0.7499999999999993
 40
0.7499999999999993
 40
1.0
 40
1.0
 40
1.0
 40
1.0
 10
196.3420436845956
 20
134.5779191302285
 30
0.0
 10
196.1980855246668
 20
132.5622684511404
 30
0.0
 10
196.0399257580659
 20
130.5477314417138
 30
0.0
 10
195.6953319186354
 20
126.5221772953951
 30
0.0
 10
195.5088851309019
 20
124.5109575294592
 30
0.0
 10
195.1076369125945
 20
120.4909688569763
 30
0.0
 10
194.8928623056063
 20
118.4824811303332
 30
0.0
 10
194.4349937495149
 20
114.4683802947817
 30
0.0
 10
194.1918988422493
 20
112.4627476926816
 30
0.0
 10
193.9345832002805
 20
110.4582004388181
 30
0.0
  0
SPLINE
  5
100
330
1F
100
AcDbEntity
  8
0
  6
Continuous
 62
     7
370
    25
100
AcDbSpline
210
0.0
220
0.0
230
1.0
 70
     8
 71
     3
 72
     8
 73
     4
 74
     0
 42
0.000000001
 43
0.00000001
 40
0.0
 40
0.0
 40
0.0
 40
0.0
 40
0.0001046666746584
 40
0.0001046666746584
 40
0.0001046666746584
 40
0.0001046666746584
 10
193.9345832002704
 20
110.4582004388194
 30
0.0
 10
193.9301421599318
 20
110.4236037265988
 30
0.0
 10
193.9269712457108
 20
110.3888257400365
 30
0.0
 10
193.9250819314538
 20
110.3540156205581
 30
0.0
  0
SPLINE
  5
101
330
1F
100
AcDbEntity
  8
0
  6
Continuous
 62
     7
370
    25
100
AcDbSpline
210
0.0
220
0.0
230
1.0
 70
     8
 71
     3
 72
     8
 73
     4
 74
     0
 42
0.000000001
 43
0.00000001
 40
0.0
 40
0.0
 40
0.0
 40
0.0
 40
0.0001029837963743
 40
0.0001029837963743
 40
0.0001029837963743
 40
0.0001029837963743
 10
202.9914309795713
 20
134.680290206035
 30
0.0
 10
202.9963426000732
 20
134.6463184826613
 30
0.0
 10
203.0000277282427
 20
134.6121491722058
 30
0.0
 10
203.0024724444371
 20
134.5779191302284
 30
0.0
  0
SPLINE
  5
102
330
1F
100
AcDbEntity
  8
0
  6
Continuous
 62
     7
370
    25
100
AcDbSpline
210
0.0
220
0.0
230
1.0
 70
     8
 71
     3
 72
    11
 73
     7
 74
     0
 42
0.000000001
 43
0.00000001
 40
-0.0980497121962567
 40
-0.0980497121962567
 40
-0.0980497121962567
 40
-0.0980497121962567
 40
0.0
 40
0.0
 40
0.0
 40
0.8094990168875451
 40
0.8094990168875451
 40
0.8094990168875451
 40
0.8094990168875451
 10
202.9914309795714
 20
134.680290206035
 30
0.0
 10
203.0545092336756
 20
134.7017182320667
 30
0.0
 10
203.1175874877798
 20
134.7231462580983
 30
0.0
 10
203.180665741884
 20
134.74457428413
 30
0.0
 10
203.7014401892594
 20
134.9214841966419
 30
0.0
 10
204.2332307749728
 20
135.0989997204483
 30
0.0
 10
204.7760374990245
 20
135.2771208555492
 30
0.0
  0
SPLINE
  5
103
330
1F
100
AcDbEntity
  8
0
  6
Continuous
 62
     7
370
    25
100
AcDbSpline
210
0.0
220
0.0
230
1.0
 70
     8
 71
     3
 72
    14
 73
    10
 74
     0
 42
0.000000001
 43
0.00000001
 40
0.0
 40
0.0
 40
0.0
 40
0.0
 40
0.2500000000000002
 40
0.2500000000000002
 40
0.5000000000000004
 40
0.5000000000000004
 40
0.7500000000000007
 40
0.7500000000000007
 40
1.0
 40
1.0
 40
1.0
 40
1.0
 10
203.0024724444334
 20
134.5779191302281
 30
0.0
 10
203.1464322980739
 20
132.562244736394
 30
0.0
 10
203.3045934752908
 20
130.5476929961156
 30
0.0
 10
203.649187860655
 20
126.5221368337512
 30
0.0
 10
203.835634174847
 20
124.510924289893
 30
0.0
 10
204.2368819747766
 20
120.490942634909
 30
0.0
 10
204.4516545057825
 20
118.4824751069794
 30
0.0
 10
204.9095219222224
 20
114.4683843449782
 30
0.0
 10
205.152616914586
 20
112.4627505921544
 30
0.0
 10
205.4099329287486
 20
110.4582004388175
 30
0.0
  0
SPLINE
  5
104
330
1F
100
AcDbEntity
  8
0
  6
Continuous
 62
     7
370
    25
100
AcDbSpline
210
0.0
220
0.0
230
1.0
 70
     8
 71
     3
 72
     8
 73
     4
 74
     0
 42
0.000000001
 43
0.00000001
 40
0.0
 40
0.0
 40
0.0
 40
0.0
 40
0.0001046666735618
 40
0.0001046666735618
 40
0.0001046666735618
 40
0.0001046666735618
 10
205.4099329287469
 20
110.4582004388173
 30
0.0
 10
205.4143739691289
 20
110.4236037262579
 30
0.0
 10
205.4175448833457
 20
110.3888257393093
 30
0.0
 10
205.4194341975632
 20
110.3540156205574
 30
0.0
  0
SPLINE
  5
105
330
1F
100
AcDbEntity
  8
0
  6
Continuous
 62
     7
370
    25
100
AcDbSpline
210
0.0
220
0.0
230
1.0
 70
     8
 71
     3
 72
    14
 73
    10
 74
     0
 42
0.000000001
 43
0.00000001
 40
0.0
 40
0.0
 40
0.0
 40
0.0
 40
0.25
 40
0.25
 40
0.5
 40
0.5
 40
0.75
 40
0.75
 40
1.0
 40
1.0
 40
1.0
 40
1.0
 10
202.5668196702586
 20
145.5696319337919
 30
0.0
 10
202.655777932941
 20
145.5713621337231
 30
0.0
 10
202.7442937197739
 20
145.5840883629942
 30
0.0
 10
202.9079170366313
 20
145.6527031820926
 30
0.0
 10
202.981570027187
 20
145.7039899399017
 30
0.0
 10
203.1075839299601
 20
145.8291018727209
 30
0.0
 10
203.160241396058
 20
145.9037224869661
 30
0.0
 10
203.2298542655723
 20
146.066517121209
 30
0.0
 10
203.2435125521586
 20
146.157039267914
 30
0.0
 10
203.2453811409839
 20
146.2471985420819
 30
0.0
  0
SPLINE
  5
106
330
1F
100
AcDbEntity
  8
0
  6
Continuous
 62
     7
370
    25
100
AcDbSpline
210
0.0
220
0.0
230
1.0
 70
     8
 71
     3
 72
    18
 73
    14
 74
     0
 42
0.000000001
 43
0.00000001
 40
0.0
 40
0.0
 40
0.0
 40
0.0
 40
0.125
 40
0.125
 40
0.2500000000000001
 40
0.2500000000000001
 40
0.4999999999999997
 40
0.4999999999999997
 40
0.7499999999999992
 40
0.7499999999999992
 40
0.8749999999999997
 40
0.8749999999999997
 40
1.0
 40
1.0
 40
1.0
 40
1.0
 10
201.8911767434934
 20
146.2489256271828
 30
0.0
 10
201.8920989377621
 20
146.2042331724252
 30
0.0
 10
201.8947911233297
 20
146.1598339222813
 30
0.0
 10
201.910924234437
 20
146.0728161796412
 30
0.0
 10
201.9231984768044
 20
146.029499482456
 30
0.0
 10
201.9743658698928
 20
145.9057346160074
 30
0.0
 10
202.0259205874986
 20
145.8318630712779
 30
0.0
 10
202.1513548365976
 20
145.7059655700571
 30
0.0
 10
202.2261710132294
 20
145.6544301899346
 30
0.0
 10
202.3478839917117
 20
145.6028937870695
 30
0.0
 10
202.3902097244802
 20
145.5903543748255
 30
0.0
 10
202.4779467792179
 20
145.5734652177077
 30
0.0
 10
202.5223149554615
 20
145.5705866776298
 30
0.0
 10
202.5668196702586
 20
145.5696319337919
 30
0.0
  0
ELLIPSE
  5
107
330
1F
100
AcDbEntity
  8
0
  6
Continuous
 62
     7
370
    25
100
AcDbEllipse
 10
199.6722580645
 20
144.4561630784
 30
0.0
 11
20.05297595489895
 21
0.0
 31
0.0
210
0.0
220
0.0
230
1.0
 40
0.0087268678
 41
0.7909958929802969
 42
1.295554042536482
  0
ELLIPSE
  5
108
330
1F
100
AcDbEntity
  8
0
  6
Continuous
 62
     7
370
    25
100
AcDbEllipse
 10
199.6722580645
 20
144.4561630784
 30
0.0
 11
20.05297595489895
 21
0.0
 31
0.0
210
0.0
220
0.0
230
1.0
 40
0.0087268678
 41
1.846038611053314
 42
2.350596760609496
  0
ELLIPSE
  5
109
330
1F
100
AcDbEntity
  8
0
  6
Continuous
 62
     7
370
    25
100
AcDbEllipse
 10
199.6941234006
 20
145.5544332777
 30
0.0
 11
20.04337993213915
 21
-2.505705802083839
 31
0.0
210
0.0
220
0.0
230
1.0
 40
0.0085925832
 41
1.676787856686149
 42
1.695548787234004
  0
SPLINE
  5
10A
330
1F
100
AcDbEntity
  8
0
  6
Continuous
 62
     7
370
    25
100
AcDbSpline
210
0.0
220
0.0
230
1.0
 70
     8
 71
     3
 72
    16
 73
    12
 74
     0
 42
0.000000001
 43
0.00000001
 40
0.0
 40
0.0
 40
0.0
 40
0.0
 40
0.25
 40
0.25
 40
0.5
 40
0.5
 40
0.7499999999999996
 40
0.7499999999999996
 40
0.8749999999999998
 40
0.8749999999999998
 40
1.0
 40
1.0
 40
1.0
 40
1.0
 10
197.5950800342131
 20
145.9907777915336
 30
0.0
 10
197.6050147665568
 20
146.0605666325349
 30
0.0
 10
197.6179716010483
 20
146.1295206119606
 30
0.0
 10
197.6656867062731
 20
146.2614082649686
 30
0.0
 10
197.6979135751412
 20
146.3251676932977
 30
0.0
 10
197.7866520478948
 20
146.4342637203313
 30
0.0
 10
197.8428142136258
 20
146.478343627671
 30
0.0
 10
197.9387752937444
 20
146.5226104630914
 30
0.0
 10
197.971771641002
 20
146.5340763992858
 30
0.0
 10
198.04050319722
 20
146.5480768442215
 30
0.0
 10
198.0762531157444
 20
146.5498533791961
 30
0.0
 10
198.1116623151524
 20
146.5515276447875
 30
0.0
  0
SPLINE
  5
10B
330
1F
100
AcDbEntity
  8
0
  6
Continuous
 62
     7
370
    25
100
AcDbSpline
210
0.0
220
0.0
230
1.0
 70
     8
 71
     3
 72
    16
 73
    12
 74
     0
 42
0.000000001
 43
0.00000001
 40
0.0
 40
0.0
 40
0.0
 40
0.0
 40
0.1249999999999997
 40
0.1249999999999997
 40
0.2499999999999993
 40
0.2499999999999993
 40
0.4999999999999996
 40
0.4999999999999996
 40
0.7499999999999998
 40
0.7499999999999998
 40
1.0
 40
1.0
 40
1.0
 40
1.0
 10
198.1116623151524
 20
146.5515276447875
 30
0.0
 10
198.1446984988318
 20
146.5496674202266
 30
0.0
 10
198.1777323920259
 20
146.5477675335163
 30
0.0
 10
198.2417763971273
 20
146.5345714400083
 30
0.0
 10
198.273008236791
 20
146.5235935055536
 30
0.0
 10
198.3632772107653
 20
146.4791754124462
 30
0.0
 10
198.4149673559064
 20
146.4361098183815
 30
0.0
 10
198.4992700299873
 20
146.3330206685094
 30
0.0
 10
198.5303497769268
 20
146.2724229087543
 30
0.0
 10
198.5679797331389
 20
146.1450133283213
 30
0.0
 10
198.5728411159366
 20
146.0774105177414
 30
0.0
 10
198.5757108048097
 20
146.0104275559641
 30
0.0
  0
SPLINE
  5
10C
330
1F
100
AcDbEntity
  8
0
  6
Continuous
 62
     7
370
    25
100
AcDbSpline
210
0.0
220
0.0
230
1.0
 70
     8
 71
     3
 72
    17
 73
    13
 74
     0
 42
0.000000001
 43
0.00000001
 40
0.0
 40
0.0
 40
0.0
 40
0.0
 40
0.0000659635109999
 40
0.0000659635109999
 40
0.0000659635109999
 40
0.0001319891981231
 40
0.0001319891981231
 40
0.0001319891981231
 40
0.0001977921178754
 40
0.0001977921178754
 40
0.0001977921178754
 40
0.0002642485833778
 40
0.0002642485833778
 40
0.0002642485833778
 40
0.0002642485833778
 10
197.8752602543836
 20
145.0075036805917
 30
0.0
 10
197.8961621808229
 20
145.0140801078996
 30
0.0
 10
197.9170745432726
 20
145.0206599986919
 30
0.0
 10
197.9381899403899
 20
145.0265277016109
 30
0.0
 10
197.9593172802861
 20
145.0323987232777
 30
0.0
 10
197.9806856807444
 20
145.0374324207262
 30
0.0
 10
198.0021608748092
 20
145.041875771612
 30
0.0
 10
198.0235631088852
 20
145.0463040266235
 30
0.0
 10
198.0450737755746
 20
145.0504014477221
 30
0.0
 10
198.0667660295802
 20
145.0530882840543
 30
0.0
 10
198.0886609107417
 20
145.0558002181012
 30
0.0
 10
198.1107676137092
 20
145.0565958311323
 30
0.0
 10
198.1328217588632
 20
145.0573047005977
 30
0.0
  0
SPLINE
  5
10D
330
1F
100
AcDbEntity
  8
0
  6
Continuous
 62
     7
370
    25
100
AcDbSpline
210
0.0
220
0.0
230
1.0
 70
     8
 71
     3
 72
    16
 73
    12
 74
     0
 42
0.000000001
 43
0.00000001
 40
0.0
 40
0.0
 40
0.0
 40
0.0
 40
0.1250000000000032
 40
0.1250000000000032
 40
0.2500000000000064
 40
0.2500000000000064
 40
0.5000000000000043
 40
0.5000000000000043
 40
0.7500000000000022
 40
0.7500000000000022
 40
1.0
 40
1.0
 40
1.0
 40
1.0
 10
198.1328217588632
 20
145.0573047005977
 30
0.0
 10
198.1751192497845
 20
145.0561836779243
 30
0.0
 10
198.2171615424419
 20
145.0535387799914
 30
0.0
 10
198.2989165311472
 20
145.0347630413053
 30
0.0
 10
198.3393462966645
 20
145.0198086913226
 30
0.0
 10
198.4523828324502
 20
144.9635497700072
 30
0.0
 10
198.5174843124016
 20
144.9058056727747
 30
0.0
 10
198.6215872671054
 20
144.7733898294573
 30
0.0
 10
198.659072257715
 20
144.6952928510526
 30
0.0
 10
198.7071209925759
 20
144.5332309644721
 30
0.0
 10
198.7135986268488
 20
144.4473516285304
 30
0.0
 10
198.7158009148949
 20
144.3623054597417
 30
0.0
  0
SPLINE
  5
10E
330
1F
100
AcDbEntity
  8
0
  6
Continuous
 62
     7
370
    25
100
AcDbSpline
210
0.0
220
0.0
230
1.0
 70
     8
 71
     3
 72
    20
 73
    16
 74
     0
 42
0.000000001
 43
0.00000001
 40
0.0
 40
0.0
 40
0.0
 40
0.0
 40
0.1249999999999974
 40
0.1249999999999974
 40
0.2499999999999947
 40
0.2499999999999947
 40
0.3749999999999921
 40
0.3749999999999921
 40
0.4999999999999895
 40
0.4999999999999895
 40
0.7499999999999946
 40
0.7499999999999946
 40
0.8749999999999973
 40
0.8749999999999973
 40
1.0
 40
1.0
 40
1.0
 40
1.0
 10
197.1748097039575
 20
144.2626452194352
 30
0.0
 10
197.1807904525087
 20
144.1985880852218
 30
0.0
 10
197.1875956137531
 20
144.1347361891903
 30
0.0
 10
197.2123573079159
 20
144.0098074787082
 30
0.0
 10
197.2290325775115
 20
143.9484116619745
 30
0.0
 10
197.2707670668714
 20
143.8277035991905
 30
0.0
 10
197.2964243444773
 20
143.7677894893104
 30
0.0
 10
197.3591740560861
 20
143.6561430556514
 30
0.0
 10
197.3956828284993
 20
143.6038398472855
 30
0.0
 10
197.5184070362633
 20
143.4559564692745
 30
0.0
 10
197.6182416863168
 20
143.3739318305132
 30
0.0
 10
197.7921454501846
 20
143.2892628206643
 30
0.0
 10
197.8530707265319
 20
143.2695372919322
 30
0.0
 10
197.977311402947
 20
143.2423206829184
 30
0.0
 10
198.0419053535956
 20
143.2378630441322
 30
0.0
 10
198.1065548632222
 20
143.2361852343066
 30
0.0
  0
SPLINE
  5
10F
330
1F
100
AcDbEntity
  8
0
  6
Continuous
 62
     7
370
    25
100
AcDbSpline
210
0.0
220
0.0
230
1.0
 70
     8
 71
     3
 72
    18
 73
    14
 74
     0
 42
0.000000001
 43
0.00000001
 40
0.0
 40
0.0
 40
0.0
 40
0.0
 40
0.1249999999999986
 40
0.1249999999999986
 40
0.2499999999999972
 40
0.2499999999999972
 40
0.4999999999999943
 40
0.4999999999999943
 40
0.7499999999999913
 40
0.7499999999999913
 40
0.8749999999999957
 40
0.8749999999999957
 40
1.0
 40
1.0
 40
1.0
 40
1.0
 10
198.1065548632222
 20
143.2361852343066
 30
0.0
 10
198.1762693100378
 20
143.2383869741253
 30
0.0
 10
198.2455674743954
 20
143.243197301016
 30
0.0
 10
198.3806224102185
 20
143.273997223588
 30
0.0
 10
198.447827488747
 20
143.2971874648593
 30
0.0
 10
198.6325199424699
 20
143.3919540308662
 30
0.0
 10
198.7421211185869
 20
143.4829861475216
 30
0.0
 10
198.9200417844474
 20
143.6950842939517
 30
0.0
 10
198.9887471379638
 20
143.8204984261752
 30
0.0
 10
199.0506707425933
 20
144.0194619937438
 30
0.0
 10
199.0654665301612
 20
144.0883907621927
 30
0.0
 10
199.0854288269612
 20
144.2268475938852
 30
0.0
 10
199.0881270550271
 20
144.2967598377294
 30
0.0
 10
199.0893745417889
 20
144.366808321637
 30
0.0
  0
SPLINE
  5
110
330
1F
100
AcDbEntity
  8
0
  6
Continuous
 62
     7
370
    25
100
AcDbSpline
210
0.0
220
0.0
230
1.0
 70
     8
 71
     3
 72
    16
 73
    12
 74
     0
 42
0.000000001
 43
0.00000001
 40
0.0
 40
0.0
 40
0.0
 40
0.0
 40
0.1250000000000002
 40
0.1250000000000002
 40
0.2500000000000004
 40
0.2500000000000004
 40
0.5000000000000003
 40
0.5000000000000003
 40
0.7500000000000002
 40
0.7500000000000002
 40
1.0
 40
1.0
 40
1.0
 40
1.0
 10
198.5443364572385
 20
145.2559975415305
 30
0.0
 10
198.5757115541258
 20
145.2752060584496
 30
0.0
 10
198.6070791144552
 20
145.2944277439902
 30
0.0
 10
198.6655204172636
 20
145.3380650024868
 30
0.0
 10
198.692672731738
 20
145.3623854428336
 30
0.0
 10
198.7696351365857
 20
145.4407827058725
 30
0.0
 10
198.8137304596931
 20
145.5009826226465
 30
0.0
 10
198.8827743288775
 20
145.6293437349002
 30
0.0
 10
198.9087281469374
 20
145.6993840630533
 30
0.0
 10
198.9423286988909
 20
145.8420133108608
 30
0.0
 10
198.9472081394196
 20
145.915558333081
 30
0.0
 10
198.9492844317037
 20
145.9894170720193
 30
0.0
  0
SPLINE
  5
111
330
1F
100
AcDbEntity
  8
0
  6
Continuous
 62
     7
370
    25
100
AcDbSpline
210
0.0
220
0.0
230
1.0
 70
     8
 71
     3
 72
    18
 73
    14
 74
     0
 42
0.000000001
 43
0.00000001
 40
0.0
 40
0.0
 40
0.0
 40
0.0
 40
0.1249999999999998
 40
0.1249999999999998
 40
0.2499999999999996
 40
0.2499999999999996
 40
0.4999999999999997
 40
0.4999999999999997
 40
0.7499999999999997
 40
0.7499999999999997
 40
0.8749999999999999
 40
0.8749999999999999
 40
1.0
 40
1.0
 40
1.0
 40
1.0
 10
200.4224194955686
 20
143.2365967251047
 30
0.0
 10
200.4903853598172
 20
143.2388286193562
 30
0.0
 10
200.5580432690988
 20
143.2427691946051
 30
0.0
 10
200.6898511335115
 20
143.2710396411813
 30
0.0
 10
200.7555856671163
 20
143.2926121592911
 30
0.0
 10
200.9378293991489
 20
143.3798291094661
 30
0.0
 10
201.0441751246398
 20
143.4681488584483
 30
0.0
 10
201.2164872052094
 20
143.6758355375513
 30
0.0
 10
201.2814983071949
 20
143.7972546977908
 30
0.0
 10
201.3408716136211
 20
143.9908586741491
 30
0.0
 10
201.3557937917779
 20
144.057622622807
 30
0.0
 10
201.3737085673035
 20
144.1914447271149
 30
0.0
 10
201.3759532831905
 20
144.2591087274168
 30
0.0
 10
201.3775130065143
 20
144.3268496060168
 30
0.0
  0
SPLINE
  5
112
330
1F
100
AcDbEntity
  8
0
  6
Continuous
 62
     7
370
    25
100
AcDbSpline
210
0.0
220
0.0
230
1.0
 70
     8
 71
     3
 72
    14
 73
    10
 74
     0
 42
0.000000001
 43
0.00000001
 40
0.0
 40
0.0
 40
0.0
 40
0.0
 40
0.25
 40
0.25
 40
0.5
 40
0.5
 40
0.75
 40
0.75
 40
1.0
 40
1.0
 40
1.0
 40
1.0
 10
200.8047487543429
 20
145.2559952900112
 30
0.0
 10
200.8716792426631
 20
145.2896160778726
 30
0.0
 10
200.9364422900581
 20
145.3263770509665
 30
0.0
 10
201.049050534364
 20
145.4246506758639
 30
0.0
 10
201.0976849902641
 20
145.4829099371928
 30
0.0
 10
201.1723858718921
 20
145.6124973301805
 30
0.0
 10
201.1980951257323
 20
145.6839975363075
 30
0.0
 10
201.2310502631299
 20
145.8301754786104
 30
0.0
 10
201.2355221702795
 20
145.9057946988748
 30
0.0
 10
201.2374228964291
 20
145.9809710397406
 30
0.0
  0
SPLINE
  5
113
330
1F
100
AcDbEntity
  8
0
  6
Continuous
 62
     7
370
    25
100
AcDbSpline
210
0.0
220
0.0
230
1.0
 70
     8
 71
     3
 72
    14
 73
    10
 74
     0
 42
0.000000001
 43
0.00000001
 40
0.0
 40
0.0
 40
0.0
 40
0.0
 40
0.25
 40
0.25
 40
0.5
 40
0.5
 40
0.75
 40
0.75
 40
1.0
 40
1.0
 40
1.0
 40
1.0
 10
199.6030382787681
 20
145.9960963421054
 30
0.0
 10
199.6047741383512
 20
145.9198377584534
 30
0.0
 10
199.6088952194173
 20
145.843971924683
 30
0.0
 10
199.6410701683662
 20
145.6961800929223
 30
0.0
 10
199.6661876686742
 20
145.622400628399
 30
0.0
 10
199.7401153973199
 20
145.4897209732471
 30
0.0
 10
199.7895581615708
 20
145.4292513362519
 30
0.0
 10
199.9038541924632
 20
145.3290041008559
 30
0.0
 10
199.9712938366712
 20
145.2908271940695
 30
0.0
 10
200.0400902367944
 20
145.2562452114281
 30
0.0
  0
SPLINE
  5
114
330
1F
100
AcDbEntity
  8
0
  6
Continuous
 62
     7
370
    25
100
AcDbSpline
210
0.0
220
0.0
230
1.0
 70
     8
 71
     3
 72
    18
 73
    14
 74
     0
 42
0.000000001
 43
0.00000001
 40
0.0
 40
0.0
 40
0.0
 40
0.0
 40
0.125
 40
0.125
 40
0.2499999999999999
 40
0.2499999999999999
 40
0.4999999999999999
 40
0.4999999999999999
 40
0.7499999999999998
 40
0.7499999999999998
 40
0.8749999999999999
 40
0.8749999999999999
 40
1.0
 40
1.0
 40
1.0
 40
1.0
 10
199.4629481686828
 20
144.3398772217351
 30
0.0
 10
199.464297966326
 20
144.2715846199995
 30
0.0
 10
199.4669076691442
 20
144.2035202056148
 30
0.0
 10
199.484696942733
 20
144.0696676549756
 30
0.0
 10
199.4976631386033
 20
144.0034786927741
 30
0.0
 10
199.5554371417704
 20
143.8083289292046
 30
0.0
 10
199.61863778675
 20
143.6836744663264
 30
0.0
 10
199.7929089260896
 20
143.4715119265011
 30
0.0
 10
199.8997790608556
 20
143.3818716050623
 30
0.0
 10
200.0858879865008
 20
143.2930902383551
 30
0.0
 10
200.1504316960144
 20
143.271679958837
 30
0.0
 10
200.2838561117892
 20
143.2430285813315
 30
0.0
 10
200.3534122840573
 20
143.2388496426568
 30
0.0
 10
200.4224194955686
 20
143.2365967251047
 30
0.0
  0
SPLINE
  5
115
330
1F
100
AcDbEntity
  8
0
  6
Continuous
 62
     7
370
    25
100
AcDbSpline
210
0.0
220
0.0
230
1.0
 70
    24
 71
     3
 72
    10
 73
     6
 74
     0
 42
0.000000001
 43
0.00000001
 40
0.0
 40
0.0
 40
0.0
 40
0.0
 40
0.5
 40
0.5
 40
1.0
 40
1.0
 40
1.0
 40
1.0
 10
201.5813653891662
 20
135.9011502582806
 30
0.0
 10
200.9451937123779
 20
135.9011502582794
 30
0.0
 10
200.3087759036326
 20
135.9011502582782
 30
0.0
 10
199.0357941084144
 20
135.9011502582757
 30
0.0
 10
198.3993301061877
 20
135.9011502582745
 30
0.0
 10
197.7631507399232
 20
135.9011502582732
 30
0.0
  0
SPLINE
  5
116
330
1F
100
AcDbEntity
  8
0
  6
Continuous
 62
     7
370
    25
100
AcDbSpline
210
0.0
220
0.0
230
1.0
 70
     8
 71
     3
 72
    12
 73
     8
 74
     0
 42
0.000000001
 43
0.00000001
 40
0.0
 40
0.0
 40
0.0
 40
0.0
 40
0.25
 40
0.25
 40
0.5
 40
0.5
 40
1.0
 40
1.0
 40
1.0
 40
1.0
 10
202.9914309795713
 20
134.680290206035
 30
0.0
 10
202.9669690288944
 20
134.8494837789613
 30
0.0
 10
202.9132123744089
 20
135.0103579325747
 30
0.0
 10
202.7496621443787
 20
135.3094811190403
 30
0.0
 10
202.64254506776
 20
135.4421640725777
 30
0.0
 10
202.2569308229544
 20
135.7760775378231
 30
0.0
 10
201.9232471233944
 20
135.9011502582709
 30
0.0
 10
201.5813653891662
 20
135.9011502582788
 30
0.0
  0
SPLINE
  5
117
330
1F
100
AcDbEntity
  8
0
  6
Continuous
 62
     7
370
    25
100
AcDbSpline
210
0.0
220
0.0
230
1.0
 70
     8
 71
     3
 72
    14
 73
    10
 74
     0
 42
0.000000001
 43
0.00000001
 40
0.0
 40
0.0
 40
0.0
 40
0.0
 40
0.25
 40
0.25
 40
0.5
 40
0.5
 40
0.75
 40
0.75
 40
1.0
 40
1.0
 40
1.0
 40
1.0
 10
197.7631507399232
 20
135.9011502582732
 30
0.0
 10
197.592210419868
 20
135.9011502582761
 30
0.0
 10
197.4253684793842
 20
135.8709816464478
 30
0.0
 10
197.105981707344
 20
135.7519697234122
 30
0.0
 10
196.9593497908367
 20
135.664979287547
 30
0.0
 10
196.7022020057894
 20
135.4424196998706
 30
0.0
 10
196.5946712748796
 20
135.3090484321676
 30
0.0
 10
196.4318670890867
 20
135.0114865281524
 30
0.0
 10
196.3775472714786
 20
134.8494849640195
 30
0.0
 10
196.3530851494664
 20
134.6802902060332
 30
0.0
  0
LINE
  5
118
330
1F
100
AcDbEntity
  8
0
  6
Continuous
 62
     7
370
    25
100
AcDbLine
 10
200.4224194809
 20
143.2365963127
 30
0.0
 11
200.4224194809
 21
143.2366857196
 31
0.0
  0
LINE
  5
119
330
1F
100
AcDbEntity
  8
0
  6
Continuous
 62
     7
370
    25
100
AcDbLine
 10
199.4629481617
 20
144.3398782874
 30
0.0
 11
199.4629481617
 21
144.3399639691
 31
0.0
  0
SPLINE
  5
11A
330
1F
100
AcDbEntity
  8
0
  6
Continuous
 62
     7
370
    25
100
AcDbSpline
210
0.0
220
0.0
230
1.0
 70
     8
 71
     3
 72
    18
 73
    14
 74
     0
 42
0.000000001
 43
0.00000001
 40
0.0
 40
0.0
 40
0.0
 40
0.0
 40
0.125
 40
0.125
 40
0.2499999999999999
 40
0.2499999999999999
 40
0.5
 40
0.5
 40
0.75
 40
0.75
 40
0.875
 40
0.875
 40
1.0
 40
1.0
 40
1.0
 40
1.0
 10
199.4629481686828
 20
144.339964491841
 30
0.0
 10
199.4642979661894
 20
144.2716718969552
 30
0.0
 10
199.4669076682615
 20
144.2036074892243
 30
0.0
 10
199.484696938248
 20
144.0697549508332
 30
0.0
 10
199.4976631313573
 20
144.003565994366
 30
0.0
 10
199.5554371216809
 20
143.8084162467424
 30
0.0
 10
199.6186377532959
 20
143.6837617898329
 30
0.0
 10
199.7929088542323
 20
143.4715992621572
 30
0.0
 10
199.8997789616823
 20
143.3819589429684
 30
0.0
 10
200.0858878868893
 20
143.2931775587012
 30
0.0
 10
200.1504316020766
 20
143.2717672757224
 30
0.0
 10
200.2838560435938
 20
143.2431158943347
 30
0.0
 10
200.3534122425399
 20
143.2389369591533
 30
0.0
 10
200.4224194955686
 20
143.2366840514848
 30
0.0
  0
SPLINE
  5
11B
330
1F
100
AcDbEntity
  8
0
  6
Continuous
 62
     7
370
    25
100
AcDbSpline
210
0.0
220
0.0
230
1.0
 70
     8
 71
     3
 72
    14
 73
    10
 74
     0
 42
0.000000001
 43
0.00000001
 40
0.0
 40
0.0
 40
0.0
 40
0.0
 40
0.25
 40
0.25
 40
0.5
 40
0.5
 40
0.75
 40
0.75
 40
1.0
 40
1.0
 40
1.0
 40
1.0
 10
199.6030382787681
 20
145.9961836079807
 30
0.0
 10
199.6047741383195
 20
145.919925025691
 30
0.0
 10
199.608895219155
 20
145.8440591931853
 30
0.0
 10
199.6410701668774
 20
145.6962673636586
 30
0.0
 10
199.6661876661656
 20
145.6224879000748
 30
0.0
 10
199.740115391698
 20
145.4898082470803
 30
0.0
 10
199.7895581536642
 20
145.4293386112548
 30
0.0
 10
199.9038541837832
 20
145.3290913777169
 30
0.0
 10
199.9712938288426
 20
145.2909144725515
 30
0.0
 10
200.0400902367944
 20
145.2563324914695
 30
0.0
  0
SPLINE
  5
11C
330
1F
100
AcDbEntity
  8
0
  6
Continuous
 62
     7
370
    25
100
AcDbSpline
210
0.0
220
0.0
230
1.0
 70
     8
 71
     3
 72
    18
 73
    14
 74
     0
 42
0.000000001
 43
0.00000001
 40
0.0
 40
0.0
 40
0.0
 40
0.0
 40
0.1249999999999976
 40
0.1249999999999976
 40
0.2499999999999952
 40
0.2499999999999952
 40
0.4999999999999968
 40
0.4999999999999968
 40
0.7499999999999983
 40
0.7499999999999983
 40
0.8749999999999992
 40
0.8749999999999992
 40
1.0
 40
1.0
 40
1.0
 40
1.0
 10
200.4165824076484
 20
146.9255848535105
 30
0.0
 10
200.3588807891583
 20
146.9236568567659
 30
0.0
 10
200.3013939158681
 20
146.9204348936406
 30
0.0
 10
200.1892735939385
 20
146.897332455057
 30
0.0
 10
200.1336358213564
 20
146.8784447415937
 30
0.0
 10
199.9773585607988
 20
146.8051527078943
 30
0.0
 10
199.8859826186432
 20
146.7305147479268
 30
0.0
 10
199.7397775096062
 20
146.5527176387461
 30
0.0
 10
199.683809500301
 20
146.4489478695456
 30
0.0
 10
199.6340550531502
 20
146.2834500587272
 30
0.0
 10
199.6220329359013
 20
146.2262766429167
 30
0.0
 10
199.6062999886624
 20
146.1118898955654
 30
0.0
 10
199.6041912929155
 20
146.0540873018979
 30
0.0
 10
199.6030382787681
 20
145.9961836079807
 30
0.0
  0
SPLINE
  5
11D
330
1F
100
AcDbEntity
  8
0
  6
Continuous
 62
     7
370
    25
100
AcDbSpline
210
0.0
220
0.0
230
1.0
 70
     8
 71
     3
 72
    18
 73
    14
 74
     0
 42
0.000000001
 43
0.00000001
 40
0.0
 40
0.0
 40
0.0
 40
0.0
 40
0.1249999999999947
 40
0.1249999999999947
 40
0.2499999999999895
 40
0.2499999999999895
 40
0.499999999999993
 40
0.499999999999993
 40
0.7499999999999966
 40
0.7499999999999966
 40
0.8749999999999982
 40
0.8749999999999982
 40
1.0
 40
1.0
 40
1.0
 40
1.0
 10
201.2374228964291
 20
145.9810585723301
 30
0.0
 10
201.2362646444307
 20
146.0395267321153
 30
0.0
 10
201.2340645454428
 20
146.0978025862906
 30
0.0
 10
201.2186752992376
 20
146.2123260450626
 30
0.0
 10
201.207126997583
 20
146.2688765036218
 30
0.0
 10
201.1569496864826
 20
146.4356614688587
 30
0.0
 10
201.1015111816002
 20
146.5415901843941
 30
0.0
 10
200.9542473040545
 20
146.7238712284016
 30
0.0
 10
200.863866103339
 20
146.8000233625189
 30
0.0
 10
200.7042082498207
 20
146.8773528494965
 30
0.0
 10
200.6488297658433
 20
146.8953260965637
 30
0.0
 10
200.5348487175123
 20
146.9196534552207
 30
0.0
 10
200.4756163223493
 20
146.9237599656237
 30
0.0
 10
200.4165824076484
 20
146.9255848535105
 30
0.0
  0
SPLINE
  5
11E
330
1F
100
AcDbEntity
  8
0
  6
Continuous
 62
     7
370
    25
100
AcDbSpline
210
0.0
220
0.0
230
1.0
 70
     8
 71
     3
 72
    14
 73
    10
 74
     0
 42
0.000000001
 43
0.00000001
 40
0.0
 40
0.0
 40
0.0
 40
0.0
 40
0.25
 40
0.25
 40
0.5
 40
0.5
 40
0.75
 40
0.75
 40
1.0
 40
1.0
 40
1.0
 40
1.0
 10
200.8047487543429
 20
145.2560826948799
 30
0.0
 10
200.871679282768
 20
145.2897035194211
 30
0.0
 10
200.9364423756873
 20
145.3264645451942
 30
0.0
 10
201.0490506726925
 20
145.4247382875179
 30
0.0
 10
201.09768511602
 20
145.482997595035
 30
0.0
 10
201.1723859600614
 20
145.6125850405375
 30
0.0
 10
201.1980951775786
 20
145.6840852317136
 30
0.0
 10
201.231050275555
 20
145.8302631178076
 30
0.0
 10
201.2355221716049
 20
145.9058822832161
 30
0.0
 10
201.2374228964291
 20
145.9810585723301
 30
0.0
  0
SPLINE
  5
11F
330
1F
100
AcDbEntity
  8
0
  6
Continuous
 62
     7
370
    25
100
AcDbSpline
210
0.0
220
0.0
230
1.0
 70
     8
 71
     3
 72
    16
 73
    12
 74
     0
 42
0.000000001
 43
0.00000001
 40
0.0
 40
0.0
 40
0.0
 40
0.0
 40
0.2500000000000001
 40
0.2500000000000001
 40
0.5000000000000002
 40
0.5000000000000002
 40
0.7500000000000003
 40
0.7500000000000003
 40
0.8750000000000001
 40
0.8750000000000001
 40
1.0
 40
1.0
 40
1.0
 40
1.0
 10
201.3775130065143
 20
144.3269371883986
 30
0.0
 10
201.3764114547066
 20
144.4245149368226
 30
0.0
 10
201.3685616680546
 20
144.5209520123606
 30
0.0
 10
201.3275858982553
 20
144.7095542377081
 30
0.0
 10
201.2945466154389
 20
144.8038028779886
 30
0.0
 10
201.1960340794133
 20
144.9713749389615
 30
0.0
 10
201.1325362446651
 20
145.0483337868612
 30
0.0
 10
201.0205316949518
 20
145.1411424039379
 30
0.0
 10
200.9805571718418
 20
145.1689563043521
 30
0.0
 10
200.8951018307544
 20
145.2176836121784
 30
0.0
 10
200.8502866663057
 20
145.2376394291987
 30
0.0
 10
200.8047487543429
 20
145.2560826948799
 30
0.0
  0
SPLINE
  5
120
330
1F
100
AcDbEntity
  8
0
  6
Continuous
 62
     7
370
    25
100
AcDbSpline
210
0.0
220
0.0
230
1.0
 70
     8
 71
     3
 72
    18
 73
    14
 74
     0
 42
0.000000001
 43
0.00000001
 40
0.0
 40
0.0
 40
0.0
 40
0.0
 40
0.1250000000000021
 40
0.1250000000000021
 40
0.2500000000000042
 40
0.2500000000000042
 40
0.5000000000000028
 40
0.5000000000000028
 40
0.7500000000000013
 40
0.7500000000000013
 40
0.8750000000000007
 40
0.8750000000000007
 40
1.0
 40
1.0
 40
1.0
 40
1.0
 10
200.4224194955686
 20
143.2366840514848
 30
0.0
 10
200.4903853532352
 20
143.2389159565898
 30
0.0
 10
200.5580432717449
 20
143.242856543114
 30
0.0
 10
200.6898511773342
 20
143.2711270299135
 30
0.0
 10
200.755585744986
 20
143.2926995776642
 30
0.0
 10
200.9378295513687
 20
143.3799166426147
 30
0.0
 10
201.0441753253934
 20
143.4682365080384
 30
0.0
 10
201.2164874030101
 20
143.6759233616226
 30
0.0
 10
201.2814984363069
 20
143.7973425504792
 30
0.0
 10
201.3408716721982
 20
143.9909464916223
 30
0.0
 10
201.3557938279759
 20
144.0577103998618
 30
0.0
 10
201.3737085723425
 20
144.1915324132454
 30
0.0
 10
201.3759532844081
 20
144.2591963620754
 30
0.0
 10
201.3775130065143
 20
144.3269371883986
 30
0.0
  0
SPLINE
  5
121
330
1F
100
AcDbEntity
  8
0
  6
Continuous
 62
     7
370
    25
100
AcDbSpline
210
0.0
220
0.0
230
1.0
 70
     8
 71
     3
 72
    16
 73
    12
 74
     0
 42
0.000000001
 43
0.00000001
 40
0.0
 40
0.0
 40
0.0
 40
0.0
 40
0.1250000000000041
 40
0.1250000000000041
 40
0.2500000000000083
 40
0.2500000000000083
 40
0.5000000000000056
 40
0.5000000000000056
 40
0.7500000000000028
 40
0.7500000000000028
 40
1.0
 40
1.0
 40
1.0
 40
1.0
 10
200.0400902367944
 20
145.2563324914695
 30
0.0
 10
199.9938503459206
 20
145.2407607067009
 30
0.0
 10
199.9483750891713
 20
145.2236799314535
 30
0.0
 10
199.8623727959072
 20
145.1797796591041
 30
0.0
 10
199.8214616487253
 20
145.1531197287724
 30
0.0
 10
199.7067185911686
 20
145.061307313748
 30
0.0
 10
199.6434959805884
 20
144.9867985546775
 30
0.0
 10
199.5454849946383
 20
144.8176389784683
 30
0.0
 10
199.5126596987606
 20
144.7250726549269
 30
0.0
 10
199.4714414067697
 20
144.5345270001434
 30
0.0
 10
199.4641191432547
 20
144.4376231854881
 30
0.0
 10
199.4629481686828
 20
144.339964491841
 30
0.0
  0
SPLINE
  5
122
330
1F
100
AcDbEntity
  8
0
  6
Continuous
 62
     7
370
    25
100
AcDbSpline
210
0.0
220
0.0
230
1.0
 70
     8
 71
     3
 72
    18
 73
    14
 74
     0
 42
0.000000001
 43
0.00000001
 40
0.0
 40
0.0
 40
0.0
 40
0.0
 40
0.1249999999999986
 40
0.1249999999999986
 40
0.2499999999999971
 40
0.2499999999999971
 40
0.4999999999999942
 40
0.4999999999999942
 40
0.7499999999999911
 40
0.7499999999999911
 40
0.8749999999999956
 40
0.8749999999999956
 40
1.0
 40
1.0
 40
1.0
 40
1.0
 10
198.1065548632222
 20
143.2362727664399
 30
0.0
 10
198.1762694688163
 20
143.2384744874075
 30
0.0
 10
198.2455677598892
 20
143.2432848203978
 30
0.0
 10
198.3806228770604
 20
143.2740848081164
 30
0.0
 10
198.4478280027199
 20
143.2972751002001
 30
0.0
 10
198.6325204893688
 20
143.3920418049208
 30
0.0
 10
198.7421215938186
 20
143.4830739583543
 30
0.0
 10
198.9200420700215
 20
143.6951720743328
 30
0.0
 10
198.9887473074222
 20
143.8205861430148
 30
0.0
 10
199.0506708048716
 20
144.019549572814
 30
0.0
 10
199.0654665706655
 20
144.0884782885359
 30
0.0
 10
199.0854288345027
 20
144.2269350087765
 30
0.0
 10
199.0881270560313
 20
144.2968471964946
 30
0.0
 10
199.0893745417889
 20
144.3668956238566
 30
0.0
  0
SPLINE
  5
123
330
1F
100
AcDbEntity
  8
0
  6
Continuous
 62
     7
370
    25
100
AcDbSpline
210
0.0
220
0.0
230
1.0
 70
     8
 71
     3
 72
    20
 73
    16
 74
     0
 42
0.000000001
 43
0.00000001
 40
0.0
 40
0.0
 40
0.0
 40
0.0
 40
0.1249999999999973
 40
0.1249999999999973
 40
0.2499999999999946
 40
0.2499999999999946
 40
0.3749999999999918
 40
0.3749999999999918
 40
0.4999999999999891
 40
0.4999999999999891
 40
0.7499999999999946
 40
0.7499999999999946
 40
0.8749999999999972
 40
0.8749999999999972
 40
1.0
 40
1.0
 40
1.0
 40
1.0
 10
197.1748097039575
 20
144.2627331690315
 30
0.0
 10
197.1807904393355
 20
144.1986761725563
 30
0.0
 10
197.1875955779827
 20
144.1348244083811
 30
0.0
 10
197.2123571901044
 20
144.0098959055852
 30
0.0
 10
197.2290324091443
 20
143.948500172419
 30
0.0
 10
197.2707667744071
 20
143.8277922384195
 30
0.0
 10
197.2964239656304
 20
143.76787816974
 30
0.0
 10
197.35917354362
 20
143.6562316954756
 30
0.0
 10
197.3956822722652
 20
143.6039284378156
 30
0.0
 10
197.5184063881837
 20
143.4560448458354
 30
0.0
 10
197.6182410753673
 20
143.3740199540898
 30
0.0
 10
197.7921450525202
 20
143.2893506139442
 30
0.0
 10
197.8530704169191
 20
143.2696250029871
 30
0.0
 10
197.9773112606565
 20
143.2424082743341
 30
0.0
 10
198.0419053014636
 20
143.2379505997511
 30
0.0
 10
198.1065548632222
 20
143.2362727664399
 30
0.0
  0
ELLIPSE
  5
124
330
1F
100
AcDbEntity
  8
0
  6
Continuous
 62
     7
370
    25
100
AcDbEllipse
 10
199.6503708138
 20
144.3984367827
 30
0.0
 11
20.06346852985303
 21
2.508217160747819
 31
0.0
210
0.0
220
0.0
230
1.0
 40
0.0085925832
 41
1.674681584422368
 42
1.693423800485852
  0
SPLINE
  5
125
330
1F
100
AcDbEntity
  8
0
  6
Continuous
 62
     7
370
    25
100
AcDbSpline
210
0.0
220
0.0
230
1.0
 70
     8
 71
     3
 72
    16
 73
    12
 74
     0
 42
0.000000001
 43
0.00000001
 40
0.0
 40
0.0
 40
0.0
 40
0.0
 40
0.1249999999999959
 40
0.1249999999999959
 40
0.2499999999999918
 40
0.2499999999999918
 40
0.4999999999999946
 40
0.4999999999999946
 40
0.7499999999999973
 40
0.7499999999999973
 40
1.0
 40
1.0
 40
1.0
 40
1.0
 10
198.1123919511424
 20
143.6098360600451
 30
0.0
 10
198.0710174157429
 20
143.6111673692926
 30
0.0
 10
198.0299061406115
 20
143.6139686242951
 30
0.0
 10
197.9502130074479
 20
143.6341945087562
 30
0.0
 10
197.9109394143043
 20
143.6494957971673
 30
0.0
 10
197.8049867830379
 20
143.7121782947351
 30
0.0
 10
197.7473274692862
 20
143.7740867544042
 30
0.0
 10
197.6583750944591
 20
143.9138440884634
 30
0.0
 10
197.6277685324814
 20
143.9902516643246
 30
0.0
 10
197.5790100582947
 20
144.1472002353472
 30
0.0
 10
197.5622573892651
 20
144.2284169073436
 30
0.0
 10
197.5483833308514
 20
144.3098060153865
 30
0.0
  0
SPLINE
  5
126
330
1F
100
AcDbEntity
  8
0
  6
Continuous
 62
     7
370
    25
100
AcDbSpline
210
0.0
220
0.0
230
1.0
 70
     8
 71
     3
 72
    18
 73
    14
 74
     0
 42
0.000000001
 43
0.00000001
 40
0.0
 40
0.0
 40
0.0
 40
0.0
 40
0.125
 40
0.125
 40
0.2499999999999999
 40
0.2499999999999999
 40
0.5
 40
0.5
 40
0.75
 40
0.75
 40
0.875
 40
0.875
 40
1.0
 40
1.0
 40
1.0
 40
1.0
 10
198.7158009148949
 20
144.3623928244636
 30
0.0
 10
198.7147706167925
 20
144.3177265628964
 30
0.0
 10
198.7135328654669
 20
144.2730949756744
 30
0.0
 10
198.7031595880013
 20
144.1851518452047
 30
0.0
 10
198.6939432126751
 20
144.1418538146594
 30
0.0
 10
198.6602978089433
 20
144.012961929799
 30
0.0
 10
198.6212228723121
 20
143.9300356162496
 30
0.0
 10
198.5141175050615
 20
143.7867161686012
 30
0.0
 10
198.4485066025878
 20
143.7231296008893
 30
0.0
 10
198.3315362019519
 20
143.6561657640006
 30
0.0
 10
198.2894929065798
 20
143.6380188529789
 30
0.0
 10
198.2029350888736
 20
143.6157192254793
 30
0.0
 10
198.1578172659498
 20
143.6107312418448
 30
0.0
 10
198.1123919511424
 20
143.6098360600451
 30
0.0
  0
SPLINE
  5
127
330
1F
100
AcDbEntity
  8
0
  6
Continuous
 62
     7
370
    25
100
AcDbSpline
210
0.0
220
0.0
230
1.0
 70
     8
 71
     3
 72
    16
 73
    12
 74
     0
 42
0.000000001
 43
0.00000001
 40
0.0
 40
0.0
 40
0.0
 40
0.0
 40
0.1250000000000005
 40
0.1250000000000005
 40
0.2500000000000009
 40
0.2500000000000009
 40
0.5000000000000007
 40
0.5000000000000007
 40
0.7500000000000003
 40
0.7500000000000003
 40
1.0
 40
1.0
 40
1.0
 40
1.0
 10
198.1328217588632
 20
145.0573922242263
 30
0.0
 10
198.1751193347954
 20
145.0562711850439
 30
0.0
 10
198.2171616994866
 20
145.0536262591173
 30
0.0
 10
198.2989167995484
 20
145.0348504308079
 30
0.0
 10
198.3393466020442
 20
145.0198960288318
 30
0.0
 10
198.4523831764097
 20
144.9636369636423
 30
0.0
 10
198.5174846147514
 20
144.9058927826304
 30
0.0
 10
198.6215874522823
 20
144.7734768946139
 30
0.0
 10
198.659072367131
 20
144.6953799447937
 30
0.0
 10
198.7071210167711
 20
144.5333181634166
 30
0.0
 10
198.7135986289765
 20
144.4474389115522
 30
0.0
 10
198.7158009148949
 20
144.3623928244636
 30
0.0
  0
SPLINE
  5
128
330
1F
100
AcDbEntity
  8
0
  6
Continuous
 62
     7
370
    25
100
AcDbSpline
210
0.0
220
0.0
230
1.0
 70
     8
 71
     3
 72
    17
 73
    13
 74
     0
 42
0.000000001
 43
0.00000001
 40
0.0
 40
0.0
 40
0.0
 40
0.0
 40
0.0000659635110405
 40
0.0000659635110405
 40
0.0000659635110405
 40
0.0001319891988649
 40
0.0001319891988649
 40
0.0001319891988649
 40
0.0001977916797926
 40
0.0001977916797926
 40
0.0001977916797926
 40
0.0002642477030735
 40
0.0002642477030735
 40
0.0002642477030735
 40
0.0002642477030735
 10
197.8752602543836
 20
145.0075912984257
 30
0.0
 10
197.8961622576666
 20
145.0141677416636
 30
0.0
 10
197.9170746945032
 20
145.0207476476946
 30
0.0
 10
197.9381901667392
 20
145.026615357958
 30
0.0
 10
197.9593175819477
 20
145.0324863870154
 30
0.0
 10
197.980686058368
 20
145.0375200844795
 30
0.0
 10
198.0021613259947
 20
145.0419634345315
 30
0.0
 10
198.0235634904174
 20
145.0463916591318
 30
0.0
 10
198.0450740849745
 20
145.0504890508847
 30
0.0
 10
198.0667662643086
 20
145.053175859505
 30
0.0
 10
198.0886610708047
 20
145.0558877656685
 30
0.0
 10
198.1107676950208
 20
145.0566833648073
 30
0.0
 10
198.1328217588632
 20
145.0573922242263
 30
0.0
  0
ELLIPSE
  5
129
330
1F
100
AcDbEntity
  8
0
  6
Continuous
 62
     7
370
    25
100
AcDbEllipse
 10
198.087057336
 20
146.7527210638
 30
0.0
 11
20.04292556489495
 21
181.6460958666201
 31
0.0
210
0.0
220
0.0
230
1.0
 40
0.0001046431
 41
1.57808539057137
 42
1.580415327733576
  0
ELLIPSE
  5
12A
330
1F
100
AcDbEntity
  8
0
  6
Continuous
 62
     7
370
    25
100
AcDbEllipse
 10
199.6881712362
 20
145.0958708538
 30
0.0
 11
20.05738748002423
 21
-1.823606048435892
 31
0.0
210
0.0
220
0.0
230
1.0
 40
0.0086553226
 41
1.656943842881744
 42
1.659755481148033
  0
SPLINE
  5
12B
330
1F
100
AcDbEntity
  8
0
  6
Continuous
 62
     7
370
    25
100
AcDbSpline
210
0.0
220
0.0
230
1.0
 70
     8
 71
     3
 72
    16
 73
    12
 74
     0
 42
0.000000001
 43
0.00000001
 40
0.0
 40
0.0
 40
0.0
 40
0.0
 40
0.1250000000000001
 40
0.1250000000000001
 40
0.2500000000000003
 40
0.2500000000000003
 40
0.5000000000000002
 40
0.5000000000000002
 40
0.7500000000000001
 40
0.7500000000000001
 40
1.0
 40
1.0
 40
1.0
 40
1.0
 10
198.5757108048097
 20
146.0105149521839
 30
0.0
 10
198.5744866734558
 20
145.9712954847976
 30
0.0
 10
198.5729902182176
 20
145.9321223161946
 30
0.0
 10
198.5610927381922
 20
145.8552898993146
 30
0.0
 10
198.5512720209839
 20
145.8175319896813
 30
0.0
 10
198.5103376448131
 20
145.7062087623214
 30
0.0
 10
198.4654539357839
 20
145.6398113662913
 30
0.0
 10
198.3526163994165
 20
145.5311694011035
 30
0.0
 10
198.2839461204883
 20
145.4892738337551
 30
0.0
 10
198.1366559500909
 20
145.4364189074963
 30
0.0
 10
198.0570909225272
 20
145.4266966518447
 30
0.0
 10
197.9781389289774
 20
145.4257351107292
 30
0.0
  0
SPLINE
  5
12C
330
1F
100
AcDbEntity
  8
0
  6
Continuous
 62
     7
370
    25
100
AcDbSpline
210
0.0
220
0.0
230
1.0
 70
     8
 71
     3
 72
    16
 73
    12
 74
     0
 42
0.000000001
 43
0.00000001
 40
0.0
 40
0.0
 40
0.0
 40
0.0
 40
0.1249999999999999
 40
0.1249999999999999
 40
0.2499999999999999
 40
0.2499999999999999
 40
0.4999999999999999
 40
0.4999999999999999
 40
0.7499999999999999
 40
0.7499999999999999
 40
1.0
 40
1.0
 40
1.0
 40
1.0
 10
198.1116623151524
 20
146.5516151759446
 30
0.0
 10
198.1446985626454
 20
146.549754936485
 30
0.0
 10
198.1777325129278
 20
146.5478550328786
 30
0.0
 10
198.2417765959399
 20
146.5346588720915
 30
0.0
 10
198.273008452711
 20
146.523680901433
 30
0.0
 10
198.3632774874065
 20
146.4792626812377
 30
0.0
 10
198.4149676119572
 20
146.4361970116094
 30
0.0
 10
198.499270189671
 20
146.3331078192854
 30
0.0
 10
198.5303498737328
 20
146.2725100733001
 30
0.0
 10
198.5679797497062
 20
146.1451005852527
 30
0.0
 10
198.5728411189354
 20
146.0774978446595
 30
0.0
 10
198.5757108048097
 20
146.0105149521839
 30
0.0
  0
SPLINE
  5
12D
330
1F
100
AcDbEntity
  8
0
  6
Continuous
 62
     7
370
    25
100
AcDbSpline
210
0.0
220
0.0
230
1.0
 70
     8
 71
     3
 72
    16
 73
    12
 74
     0
 42
0.000000001
 43
0.00000001
 40
0.0
 40
0.0
 40
0.0
 40
0.0
 40
0.2499999999999972
 40
0.2499999999999972
 40
0.4999999999999944
 40
0.4999999999999944
 40
0.7499999999999921
 40
0.7499999999999921
 40
0.874999999999996
 40
0.874999999999996
 40
1.0
 40
1.0
 40
1.0
 40
1.0
 10
197.5950800342131
 20
145.9908655292204
 30
0.0
 10
197.6050147491314
 20
146.060654243287
 30
0.0
 10
197.617971559868
 20
146.1296081048974
 30
0.0
 10
197.6656865275389
 20
146.2614955973395
 30
0.0
 10
197.6979133336315
 20
146.3252549821832
 30
0.0
 10
197.7866516991713
 20
146.4343510514059
 30
0.0
 10
197.8428138613047
 20
146.4784310479744
 30
0.0
 10
197.9387750537622
 20
146.5226979698975
 30
0.0
 10
197.9717714435386
 20
146.5341639259615
 30
0.0
 10
198.0405030976819
 20
146.5481643940668
 30
0.0
 10
198.0762530716311
 20
146.549940920384
 30
0.0
 10
198.1116623151524
 20
146.5516151759446
 30
0.0
  0
ELLIPSE
  5
12E
330
1F
100
AcDbEntity
  8
0
  6
Continuous
 62
     7
370
    25
100
AcDbEllipse
 10
199.69413431
 20
145.5544319074
 30
0.0
 11
20.05338031908332
 21
-2.506955991806052
 31
0.0
210
0.0
220
0.0
230
1.0
 40
0.0085925832
 41
1.676735889977027
 42
1.695487342353223
  0
SPLINE
  5
12F
330
1F
100
AcDbEntity
  8
0
  6
Continuous
 62
     7
370
    25
100
AcDbSpline
210
0.0
220
0.0
230
1.0
 70
     8
 71
     3
 72
    16
 73
    12
 74
     0
 42
0.000000001
 43
0.00000001
 40
0.0
 40
0.0
 40
0.0
 40
0.0
 40
0.1250000000000001
 40
0.1250000000000001
 40
0.2500000000000002
 40
0.2500000000000002
 40
0.5000000000000001
 40
0.5000000000000001
 40
0.75
 40
0.75
 40
1.0
 40
1.0
 40
1.0
 40
1.0
 10
198.101447411292
 20
146.9251675066222
 30
0.0
 10
198.0438996651336
 20
146.9235696627047
 30
0.0
 10
197.9866697890691
 20
146.9201987902213
 30
0.0
 10
197.8746780284656
 20
146.8989355865578
 30
0.0
 10
197.8190618596466
 20
146.8819373387212
 30
0.0
 10
197.6605458261942
 20
146.8142180750561
 30
0.0
 10
197.5658566989668
 20
146.7457748159619
 30
0.0
 10
197.4097733272354
 20
146.5780483057936
 30
0.0
 10
197.3516765268024
 20
146.4758252238736
 30
0.0
 10
197.2660044753609
 20
146.2639270460829
 30
0.0
 10
197.2410626280002
 20
146.1510198608759
 30
0.0
 10
197.2215064073192
 20
146.0371899419081
 30
0.0
  0
SPLINE
  5
130
330
1F
100
AcDbEntity
  8
0
  6
Continuous
 62
     7
370
    25
100
AcDbSpline
210
0.0
220
0.0
230
1.0
 70
     8
 71
     3
 72
    20
 73
    16
 74
     0
 42
0.000000001
 43
0.00000001
 40
0.0
 40
0.0
 40
0.0
 40
0.0
 40
0.1249999999999992
 40
0.1249999999999992
 40
0.2499999999999983
 40
0.2499999999999983
 40
0.3749999999999975
 40
0.3749999999999975
 40
0.4999999999999967
 40
0.4999999999999967
 40
0.7499999999999952
 40
0.7499999999999952
 40
0.8749999999999976
 40
0.8749999999999976
 40
1.0
 40
1.0
 40
1.0
 40
1.0
 10
198.9492844317037
 20
145.989504394188
 30
0.0
 10
198.9482010125096
 20
146.0485132384669
 30
0.0
 10
198.9457799785183
 20
146.1072615655045
 30
0.0
 10
198.9280480941762
 20
146.2222472768153
 30
0.0
 10
198.9145305750971
 20
146.2788339765403
 30
0.0
 10
198.8773930382015
 20
146.3900383815542
 30
0.0
 10
198.8533629466897
 20
146.4450011136339
 30
0.0
 10
198.794112565346
 20
146.5461924050819
 30
0.0
 10
198.7600511281566
 20
146.5938630247674
 30
0.0
 10
198.643699710923
 20
146.7275262256797
 30
0.0
 10
198.5503415114882
 20
146.8018569731475
 30
0.0
 10
198.3900316483361
 20
146.8771538126288
 30
0.0
 10
198.3346133708604
 20
146.8954104756282
 30
0.0
 10
198.2200931728215
 20
146.9191750500345
 30
0.0
 10
198.1606603836987
 20
146.9234649455053
 30
0.0
 10
198.101447411292
 20
146.9251675066222
 30
0.0
  0
SPLINE
  5
131
330
1F
100
AcDbEntity
  8
0
  6
Continuous
 62
     7
370
    25
100
AcDbSpline
210
0.0
220
0.0
230
1.0
 70
     8
 71
     3
 72
    16
 73
    12
 74
     0
 42
0.000000001
 43
0.00000001
 40
0.0
 40
0.0
 40
0.0
 40
0.0
 40
0.1250000000000063
 40
0.1250000000000063
 40
0.2500000000000127
 40
0.2500000000000127
 40
0.5000000000000084
 40
0.5000000000000084
 40
0.7500000000000042
 40
0.7500000000000042
 40
1.0
 40
1.0
 40
1.0
 40
1.0
 10
198.5443364572385
 20
145.256084945273
 30
0.0
 10
198.575711580098
 20
145.2752934703778
 30
0.0
 10
198.6070791633238
 20
145.2945151633883
 30
0.0
 10
198.6655204916752
 20
145.3381524392576
 30
0.0
 10
198.6926728116746
 20
145.3624728865304
 30
0.0
 10
198.7696352221348
 20
145.4408701613323
 30
0.0
 10
198.8137305327799
 20
145.5010700806589
 30
0.0
 10
198.8827743741074
 20
145.6294311751559
 30
0.0
 10
198.9087281748301
 20
145.6994714832792
 30
0.0
 10
198.9423287057373
 20
145.8421006900093
 30
0.0
 10
198.9472081401793
 20
145.9156456825965
 30
0.0
 10
198.9492844317037
 20
145.989504394188
 30
0.0
  0
SPLINE
  5
132
330
1F
100
AcDbEntity
  8
0
  6
Continuous
 62
     7
370
    25
100
AcDbSpline
210
0.0
220
0.0
230
1.0
 70
     8
 71
     3
 72
    16
 73
    12
 74
     0
 42
0.000000001
 43
0.00000001
 40
0.0
 40
0.0
 40
0.0
 40
0.0
 40
0.2500000000000029
 40
0.2500000000000029
 40
0.5000000000000059
 40
0.5000000000000059
 40
0.7500000000000089
 40
0.7500000000000089
 40
0.8750000000000044
 40
0.8750000000000044
 40
1.0
 40
1.0
 40
1.0
 40
1.0
 10
199.0893745417889
 20
144.3668956238566
 30
0.0
 10
199.0873496291158
 20
144.4607312590663
 30
0.0
 10
199.0813446316845
 20
144.55391616193
 30
0.0
 10
199.0407658927807
 20
144.7356131752802
 30
0.0
 10
199.0092219903837
 20
144.8255139605406
 30
0.0
 10
198.924126637525
 20
144.9924347612141
 30
0.0
 10
198.8668045502132
 20
145.0697457602296
 30
0.0
 10
198.7579432669305
 20
145.1589412418492
 30
0.0
 10
198.7174573970873
 20
145.1844916769366
 30
0.0
 10
198.6340545350136
 20
145.2272189136362
 30
0.0
 10
198.5894534216562
 20
145.2422256349984
 30
0.0
 10
198.5443364572385
 20
145.256084945273
 30
0.0
  0
LINE
  5
133
330
1F
100
AcDbEntity
  8
0
  6
Continuous
 62
     7
370
    25
100
AcDbLine
 10
201.3775129583
 20
144.3268509473
 30
0.0
 11
201.3775129583
 21
144.326936629
 31
0.0
  0
LINE
  5
134
330
1F
100
AcDbEntity
  8
0
  6
Continuous
 62
     7
370
    25
100
AcDbLine
 10
198.1065548737
 20
143.2361865307
 30
0.0
 11
198.1065548737
 21
143.2362722124
 31
0.0
  0
LINE
  5
135
330
1F
100
AcDbEntity
  8
0
  6
Continuous
 62
     7
370
    25
100
AcDbLine
 10
199.0893745226
 20
144.366808411
 30
0.0
 11
199.0893745226
 21
144.3668940927
 31
0.0
  0
LINE
  5
136
330
1F
100
AcDbEntity
  8
0
  6
Continuous
 62
     7
370
    25
100
AcDbLine
 10
199.6030382781
 20
145.9960976507
 30
0.0
 11
199.6030382781
 21
145.9961833323
 31
0.0
  0
LINE
  5
137
330
1F
100
AcDbEntity
  8
0
  6
Continuous
 62
     7
370
    25
100
AcDbLine
 10
197.1748097114
 20
144.262645569
 30
0.0
 11
197.1748097114
 21
144.2627349759
 31
0.0
  0
LINE
  5
138
330
1F
100
AcDbEntity
  8
0
  6
Continuous
 62
     7
370
    25
100
AcDbLine
 10
198.949284457
 20
145.9894182052
 30
0.0
 11
198.949284457
 21
145.9895038868
 31
0.0
  0
LINE
  5
139
330
1F
100
AcDbEntity
  8
0
  6
Continuous
 62
     7
370
    25
100
AcDbLine
 10
198.1328217791
 20
145.057305869
 30
0.0
 11
198.1328217791
 21
145.0573915507
 31
0.0
  0
LINE
  5
13A
330
1F
100
AcDbEntity
  8
0
  6
Continuous
 62
     7
370
    25
100
AcDbLine
 10
201.2374229509
 20
145.9809692468
 30
0.0
 11
201.2374229509
 21
145.9810586537
 31
0.0
  0
LINE
  5
13B
330
1F
100
AcDbEntity
  8
0
  6
Continuous
 62
     7
370
    25
100
AcDbLine
 10
198.1116623631
 20
146.5515272583
 30
0.0
 11
198.1116623631
 21
146.5516166653
 31
0.0
  0
LINE
  5
13C
330
1F
100
AcDbEntity
  8
0
  6
Continuous
 62
     7
370
    25
100
AcDbLine
 10
197.5950799663
 20
145.9907779361
 30
0.0
 11
197.5950799663
 21
145.9908673431
 31
0.0
  0
LINE
  5
13D
330
1F
100
AcDbEntity
  8
0
  6
Continuous
 62
     7
370
    25
100
AcDbLine
 10
180.1679139737
 20
150.5266131724
 30
0.0
 11
219.1766021553
 21
150.5266131724
 31
0.0
  0
LINE
  5
13E
330
1F
100
AcDbEntity
  8
0
  6
Continuous
 62
     7
370
    25
100
AcDbLine
 10
197.8752602138
 20
145.007502463
 30
0.0
 11
197.8752602138
 21
145.00759187
 31
0.0
  0
SPLINE
  5
13F
330
1F
100
AcDbEntity
  8
0
  6
Continuous
 62
     7
370
    25
100
AcDbSpline
210
0.0
220
0.0
230
1.0
 70
     8
 71
     3
 72
    10
 73
     6
 74
     0
 42
0.000000001
 43
0.00000001
 40
0.0
 40
0.0
 40
0.0
 40
0.0
 40
0.5
 40
0.5
 40
1.0
 40
1.0
 40
1.0
 40
1.0
 10
202.987712454233
 20
134.5768649688837
 30
0.0
 10
203.27471560765
 20
130.5432158364123
 30
0.0
 10
203.6182838803656
 20
126.5159228643128
 30
0.0
 10
204.4179748987864
 20
118.4749703090549
 30
0.0
 10
204.8741018853574
 20
114.4613049664034
 30
0.0
 10
205.3862153141538
 20
110.4551559043403
 30
0.0
  0
SPLINE
  5
140
330
1F
100
AcDbEntity
  8
0
  6
Continuous
 62
     7
370
    25
100
AcDbSpline
210
0.0
220
0.0
230
1.0
 70
     8
 71
     3
 72
    10
 73
     6
 74
     0
 42
0.000000001
 43
0.00000001
 40
0.0
 40
0.0
 40
0.0
 40
0.0
 40
0.5
 40
0.5
 40
1.0
 40
1.0
 40
1.0
 40
1.0
 10
193.9583008148786
 20
110.4551559043406
 30
0.0
 10
194.470414243675
 20
114.4613049664036
 30
0.0
 10
194.926541230246
 20
118.4749703090551
 30
0.0
 10
195.7262322486668
 20
126.515922864313
 30
0.0
 10
196.0698005213824
 20
130.5432158364125
 30
0.0
 10
196.3568036747994
 20
134.5768649688838
 30
0.0
  0
SPLINE
  5
141
330
1F
100
AcDbEntity
  8
0
  6
Continuous
 62
     7
370
    25
100
AcDbSpline
210
0.0
220
0.0
230
1.0
 70
     8
 71
     3
 72
    18
 73
    14
 74
     0
 42
0.000000001
 43
0.00000001
 40
0.0
 40
0.0
 40
0.0
 40
0.0
 40
0.2500000000000107
 40
0.2500000000000107
 40
0.3750000000000076
 40
0.3750000000000076
 40
0.5000000000000046
 40
0.5000000000000046
 40
0.6250000000000014
 40
0.6250000000000014
 40
0.7499999999999983
 40
0.7499999999999983
 40
1.0
 40
1.0
 40
1.0
 40
1.0
 10
193.9583008148787
 20
110.4551559043406
 30
0.0
 10
193.9328637325497
 20
110.2561672862265
 30
0.0
 10
193.9510528725712
 20
110.0495677908417
 30
0.0
 10
194.0408150190836
 20
109.7623019460765
 30
0.0
 10
194.0815795600793
 20
109.6687534987482
 30
0.0
 10
194.18003429749
 20
109.4957531830176
 30
0.0
 10
194.2382408422124
 20
109.4148081388921
 30
0.0
 10
194.37120963017
 20
109.2661866789278
 30
0.0
 10
194.4442093896849
 20
109.2003359434378
 30
0.0
 10
194.6027087399827
 20
109.0846767749196
 30
0.0
 10
194.6890125201263
 20
109.034709863439
 30
0.0
 10
194.9562776445536
 20
108.9152573782911
 30
0.0
 10
195.1518800761971
 20
108.8731693481575
 30
0.0
 10
195.3477149722644
 20
108.8727502211034
 30
0.0
  0
ELLIPSE
  5
142
330
1F
100
AcDbEntity
  8
0
  6
Continuous
 62
     7
370
    25
100
AcDbEllipse
 10
199.6722580645
 20
109.0266370396
 30
0.0
 11
18.1562230417592
 21
0.0
 31
0.0
210
0.0
220
0.0
230
1.0
 40
0.0087268679
 41
4.47189216663999
 42
4.952885794155764
  0
SPLINE
  5
143
330
1F
100
AcDbEntity
  8
0
  6
Continuous
 62
     7
370
    25
100
AcDbSpline
210
0.0
220
0.0
230
1.0
 70
     8
 71
     3
 72
    16
 73
    12
 74
     0
 42
0.000000001
 43
0.00000001
 40
0.0
 40
0.0
 40
0.0
 40
0.0
 40
0.2499999999999959
 40
0.2499999999999959
 40
0.4999999999999919
 40
0.4999999999999919
 40
0.6249999999999899
 40
0.6249999999999899
 40
0.7499999999999878
 40
0.7499999999999878
 40
1.0
 40
1.0
 40
1.0
 40
1.0
 10
203.9968011567681
 20
108.8727502211034
 30
0.0
 10
204.1922486179872
 20
108.8731685189671
 30
0.0
 10
204.3882202826988
 20
108.9152992200844
 30
0.0
 10
204.7440105231053
 20
109.0742175854859
 30
0.0
 10
204.9072621373379
 20
109.1926024385405
 30
0.0
 10
205.104945242722
 20
109.4132051830991
 30
0.0
 10
205.1642494121165
 20
109.4954055525239
 30
0.0
 10
205.2627501925028
 20
109.6683654975089
 30
0.0
 10
205.3027601854102
 20
109.7597419249473
 30
0.0
 10
205.3936853355803
 20
110.0493883392315
 30
0.0
 10
205.4118867752361
 20
110.2543337935458
 30
0.0
 10
205.3862153141537
 20
110.4551559043403
 30
0.0
  0
LINE
  5
144
330
1F
100
AcDbEntity
  8
0
  6
Continuous
 62
     7
370
    25
100
AcDbLine
 10
219.1722584668
 20
151.8266128267
 30
0.0
 11
180.1722576622
 21
151.8266128267
 31
0.0
  0
SPLINE
  5
145
330
1F
100
AcDbEntity
  8
0
  6
Continuous
 62
     7
370
    25
100
AcDbSpline
210
0.0
220
0.0
230
1.0
 70
     8
 71
     3
 72
    18
 73
    14
 74
     0
 42
0.000000001
 43
0.00000001
 40
0.0
 40
0.0
 40
0.0
 40
0.0
 40
0.1249999999999976
 40
0.1249999999999976
 40
0.2499999999999953
 40
0.2499999999999953
 40
0.4999999999999969
 40
0.4999999999999969
 40
0.7499999999999984
 40
0.7499999999999984
 40
0.8749999999999992
 40
0.8749999999999992
 40
1.0
 40
1.0
 40
1.0
 40
1.0
 10
202.5668196702586
 20
146.923871864613
 30
0.0
 10
202.5226608617605
 20
146.9230370238515
 30
0.0
 10
202.4787939696108
 20
146.9203279109653
 30
0.0
 10
202.392814833077
 20
146.9041729462022
 30
0.0
 10
202.3500542165826
 20
146.8919194536549
 30
0.0
 10
202.2274059579562
 20
146.8406856014858
 30
0.0
 10
202.1535312745911
 20
146.7902439527276
 30
0.0
 10
202.0275333477675
 20
146.6649478769939
 30
0.0
 10
201.9747523958353
 20
146.5904683731373
 30
0.0
 10
201.9240828261021
 20
146.4684765705254
 30
0.0
 10
201.911641950608
 20
146.4262019727621
 30
0.0
 10
201.8949319339267
 20
146.3386965981566
 30
0.0
 10
201.8921127148689
 20
146.2937643502911
 30
0.0
 10
201.8911767434934
 20
146.249013432272
 30
0.0
  0
SPLINE
  5
146
330
1F
100
AcDbEntity
  8
0
  6
Continuous
 62
     7
370
    25
100
AcDbSpline
210
0.0
220
0.0
230
1.0
 70
     8
 71
     3
 72
    18
 73
    14
 74
     0
 42
0.000000001
 43
0.00000001
 40
0.0
 40
0.0
 40
0.0
 40
0.0
 40
0.1249999999999944
 40
0.1249999999999944
 40
0.2499999999999888
 40
0.2499999999999888
 40
0.4999999999999954
 40
0.4999999999999954
 40
0.7500000000000021
 40
0.7500000000000021
 40
0.875000000000001
 40
0.875000000000001
 40
1.0
 40
1.0
 40
1.0
 40
1.0
 10
203.2453811409839
 20
146.2472872280754
 30
0.0
 10
203.2444432338933
 20
146.2921019596123
 30
0.0
 10
203.2416685864101
 20
146.3366062040369
 30
0.0
 10
203.2250928774674
 20
146.4237512127921
 30
0.0
 10
203.2124875400075
 20
146.4671315917132
 30
0.0
 10
203.1607983329155
 20
146.5907069197968
 30
0.0
 10
203.1089299625643
 20
146.6645031574319
 30
0.0
 10
202.9831080195021
 20
146.789719534158
 30
0.0
 10
202.9081108242501
 20
146.8409434364147
 30
0.0
 10
202.7862472149388
 20
146.8915759838161
 30
0.0
 10
202.7436794103229
 20
146.9037279177053
 30
0.0
 10
202.6558631664295
 20
146.920176271675
 30
0.0
 10
202.6114319309912
 20
146.9228939092636
 30
0.0
 10
202.5668196702586
 20
146.923871864613
 30
0.0
  0
SPLINE
  5
147
330
1F
100
AcDbEntity
  8
0
  6
Continuous
 62
     7
370
    25
100
AcDbSpline
210
0.0
220
0.0
230
1.0
 70
     8
 71
     3
 72
    14
 73
    10
 74
     0
 42
0.000000001
 43
0.00000001
 40
0.0
 40
0.0
 40
0.0
 40
0.0
 40
0.25
 40
0.25
 40
0.5
 40
0.5
 40
0.75
 40
0.75
 40
1.0
 40
1.0
 40
1.0
 40
1.0
 10
202.5668196702586
 20
145.5697201230923
 30
0.0
 10
202.6557782888047
 20
145.5714503876427
 30
0.0
 10
202.7442946537935
 20
145.5841768547659
 30
0.0
 10
202.9079183348381
 20
145.6527923575472
 30
0.0
 10
202.9815715159235
 20
145.7040796017976
 30
0.0
 10
203.1075851296118
 20
145.8291919337411
 30
0.0
 10
203.1602422984785
 20
145.9038126628116
 30
0.0
 10
203.2298544515349
 20
146.066606780596
 30
0.0
 10
203.2435125642502
 20
146.1571285356896
 30
0.0
 10
203.2453811409839
 20
146.2472872280754
 30
0.0
  0
SPLINE
  5
148
330
1F
100
AcDbEntity
  8
0
  6
Continuous
 62
     7
370
    25
100
AcDbSpline
210
0.0
220
0.0
230
1.0
 70
     8
 71
     3
 72
    18
 73
    14
 74
     0
 42
0.000000001
 43
0.00000001
 40
0.0
 40
0.0
 40
0.0
 40
0.0
 40
0.1250000000000001
 40
0.1250000000000001
 40
0.2500000000000003
 40
0.2500000000000003
 40
0.5000000000000002
 40
0.5000000000000002
 40
0.7500000000000001
 40
0.7500000000000001
 40
0.8750000000000001
 40
0.8750000000000001
 40
1.0
 40
1.0
 40
1.0
 40
1.0
 10
201.8911767434934
 20
146.249013432272
 30
0.0
 10
201.8920989337717
 20
146.2043211713282
 30
0.0
 10
201.8947910839848
 20
146.1599221088541
 30
0.0
 10
201.9109240677104
 20
146.0729047261197
 30
0.0
 10
201.9231981745039
 20
146.0295882189402
 30
0.0
 10
201.9743652271504
 20
145.9058236481497
 30
0.0
 10
202.0259195674464
 20
145.8319522264727
 30
0.0
 10
202.1513535300826
 20
145.7060545625504
 30
0.0
 10
202.2261696058019
 20
145.6545189413527
 30
0.0
 10
202.3478829266906
 20
145.6029822038006
 30
0.0
 10
202.3902087807854
 20
145.5904426776697
 30
0.0
 10
202.4779461559112
 20
145.5735534271288
 30
0.0
 10
202.5223146742624
 20
145.5706748440986
 30
0.0
 10
202.5668196702586
 20
145.5697201230923
 30
0.0
  0
LINE
  5
149
330
1F
100
AcDbEntity
  8
0
  6
Continuous
 62
     7
370
    25
100
AcDbLine
 10
202.5668195695
 20
145.5696301426
 30
0.0
 11
202.5668195695
 21
145.5697195495
 31
0.0
  0
LINE
  5
14A
330
1F
100
AcDbEntity
  8
0
  6
Continuous
 62
     7
370
    25
100
AcDbLine
 10
201.8911767065
 20
146.2489256526
 30
0.0
 11
201.8911767065
 21
146.2490150596
 31
0.0
  0
LINE
  5
14B
330
1F
100
AcDbEntity
  8
0
  6
Continuous
 62
     7
370
    25
100
AcDbLine
 10
197.2215064581
 20
146.037101921
 30
0.0
 11
197.2215064581
 21
146.0371913279
 31
0.0
  0
LINE
  5
14C
330
1F
100
AcDbEntity
  8
0
  6
Continuous
 62
     7
370
    25
100
AcDbLine
 10
203.2453811973
 20
146.2471971179
 30
0.0
 11
203.2453811973
 21
146.2472865249
 31
0.0
  0
LINE
  5
14D
330
1F
100
AcDbEntity
  8
0
  6
Continuous
 62
     7
370
    25
100
AcDbLine
 10
218.9722588066
 20
97.7891946103
 30
0.0
 11
180.3722573224
 21
97.7891946103
 31
0.0
  0
ELLIPSE
  5
14E
330
1F
100
AcDbEntity
  8
0
  6
Continuous
 62
     7
370
    25
100
AcDbEllipse
 10
199.6722580645
 20
144.4561630718
 30
0.0
 11
20.06297633571182
 21
0.0
 31
0.0
210
0.0
220
0.0
230
1.0
 40
0.0087268678
 41
0.7914886730849896
 42
1.295694806968782
  0
LINE
  5
14F
330
1F
100
AcDbEntity
  8
0
  6
Continuous
 62
     7
370
    25
100
AcDbLine
 10
205.1222581197
 20
144.6246655549
 30
0.0
 11
205.1222581197
 21
145.5246286358
 31
0.0
  0
ELLIPSE
  5
150
330
1F
100
AcDbEntity
  8
0
  6
Continuous
 62
     7
370
    25
100
AcDbEllipse
 10
199.6722580645
 20
145.3561973475
 30
0.0
 11
20.05512185560283
 21
0.0
 31
0.0
210
0.0
220
0.0
230
1.0
 40
0.0087268678
 41
0.7911016963188399
 42
1.295584260337072
  0
LINE
  5
151
330
1F
100
AcDbEntity
  8
0
  6
Continuous
 62
     7
370
    25
100
AcDbLine
 10
213.7722583268
 20
145.4806590344
 30
0.0
 11
213.7722583268
 21
144.5807183052
 31
0.0
  0
LINE
  5
152
330
1F
100
AcDbEntity
  8
0
  6
Continuous
 62
     7
370
    25
100
AcDbLine
 10
185.5722578023
 20
144.580599096
 30
0.0
 11
185.5722578023
 21
144.5807183052
 31
0.0
  0
ELLIPSE
  5
153
330
1F
100
AcDbEntity
  8
0
  6
Continuous
 62
     7
370
    25
100
AcDbEllipse
 10
199.6722580645
 20
144.4561630718
 30
0.0
 11
20.06297633571182
 21
0.0
 31
0.0
210
0.0
220
0.0
230
1.0
 40
0.0087268678
 41
1.845897846621013
 42
2.350103980504802
  0
LINE
  5
154
330
1F
100
AcDbEntity
  8
0
  6
Continuous
 62
     7
370
    25
100
AcDbLine
 10
194.2222580094
 20
144.6245761479
 30
0.0
 11
194.2222580094
 21
144.6246655549
 31
0.0
  0
LINE
  5
155
330
1F
100
AcDbEntity
  8
0
  6
Continuous
 62
     7
370
    25
100
AcDbLine
 10
185.5722578023
 20
144.5807183052
 30
0.0
 11
185.5722578023
 21
145.4806590344
 31
0.0
  0
ELLIPSE
  5
156
330
1F
100
AcDbEntity
  8
0
  6
Continuous
 62
     7
370
    25
100
AcDbEllipse
 10
199.6722580645
 20
145.3561973475
 30
0.0
 11
20.05512185560283
 21
0.0
 31
0.0
210
0.0
220
0.0
230
1.0
 40
0.0087268678
 41
1.846008393252767
 42
2.35049095727107
  0
LINE
  5
157
330
1F
100
AcDbEntity
  8
0
  6
Continuous
 62
     7
370
    25
100
AcDbLine
 10
194.2222580094
 20
145.5246286358
 30
0.0
 11
194.2222580094
 21
144.6246655549
 31
0.0
  0
LINE
  5
158
330
1F
100
AcDbEntity
  8
0
  6
Continuous
 62
     7
370
    25
100
AcDbLine
 10
213.7722583268
 20
144.580599096
 30
0.0
 11
213.7722583268
 21
144.5807183052
 31
0.0
  0
LINE
  5
159
330
1F
100
AcDbEntity
  8
0
  6
Continuous
 62
     7
370
    25
100
AcDbLine
 10
205.1222581197
 20
144.6245761479
 30
0.0
 11
205.1222581197
 21
144.6246655549
 31
0.0
  0
LINE
  5
15A
330
1F
100
AcDbEntity
  8
0
  6
Continuous
 62
     8
370
    18
100
AcDbLine
 10
125.2886565182
 20
154.8873467262
 30
0.0
 11
274.0558596108
 21
154.8873467262
 31
0.0
  0
LINE
  5
15B
330
1F
100
AcDbEntity
  8
0
  6
Continuous
 62
     8
370
    18
100
AcDbLine
 10
211.3378016058
 20
153.3081030364
 30
0.0
 11
188.0067145232
 21
153.3081030364
 31
0.0
  0
SPLINE
  5
15C
330
1F
100
AcDbEntity
  8
0
  6
Continuous
 62
     8
370
    18
100
AcDbSpline
210
0.0
220
0.0
230
1.0
 70
     8
 71
     3
 72
    11
 73
     7
 74
     0
 42
0.000000001
 43
0.00000001
 40
0.0
 40
0.0
 40
0.0
 40
0.0
 40
0.2500136271666651
 40
0.5000020073485225
 40
0.7499893837832665
 40
1.0
 40
1.0
 40
1.0
 40
1.0
 10
199.6722580645185
 20
109.7649386605724
 30
0.0
 10
199.3509546059005
 20
109.7647928575387
 30
0.0
 10
198.7083801346701
 20
109.7645012661947
 30
0.0
 10
197.7446361859585
 20
109.7621053390937
 30
0.0
 10
196.7810564402012
 20
109.7584066118089
 30
0.0
 10
196.138914571944
 20
109.7546480292666
 30
0.0
 10
195.8178287145185
 20
109.7527686506465
 30
0.0
  0
ARC
  5
15D
330
1F
100
AcDbEntity
  8
0
  6
Continuous
 62
     8
370
    18
100
AcDbCircle
 10
206.2411200786
 20
110.6771636486
 30
0.0
 40
10.4642018210867
100
AcDbArc
 50
178.8869584144
 51
185.0680352741
  0
SPLINE
  5
15E
330
1F
100
AcDbEntity
  8
0
  6
Continuous
 62
     8
370
    18
100
AcDbSpline
210
0.0
220
0.0
230
1.0
 70
     8
 71
     3
 72
     8
 73
     4
 74
     0
 42
0.000000001
 43
0.00000001
 40
0.0
 40
0.0
 40
0.0
 40
0.0
 40
1.0
 40
1.0
 40
1.0
 40
1.0
 10
199.6722580645185
 20
110.8925664434363
 30
0.0
 10
198.3741473145185
 20
110.8925664434363
 30
0.0
 10
197.0760212345185
 20
110.8884984834364
 30
0.0
 10
195.7788950845185
 20
110.8804314134363
 30
0.0
  0
LINE
  5
15F
330
1F
100
AcDbEntity
  8
0
  6
Continuous
 62
     8
370
    18
100
AcDbLine
 10
199.6722580645
 20
109.7649374868
 30
0.0
 11
199.6722580645
 21
110.892567959
 31
0.0
  0
SPLINE
  5
160
330
1F
100
AcDbEntity
  8
0
  6
Continuous
 62
     8
370
    18
100
AcDbSpline
210
0.0
220
0.0
230
1.0
 70
     8
 71
     3
 72
    11
 73
     7
 74
     0
 42
0.000000001
 43
0.00000001
 40
0.0
 40
0.0
 40
0.0
 40
0.0
 40
0.2500105803703002
 40
0.4999979449714972
 40
0.7499863371615304
 40
1.0
 40
1.0
 40
1.0
 40
1.0
 10
203.5266727445185
 20
109.7527687428481
 30
0.0
 10
203.2055881542562
 20
109.7546481072804
 30
0.0
 10
202.5634487893726
 20
109.7584066616287
 30
0.0
 10
201.5998727567328
 20
109.7621053607391
 30
0.0
 10
200.6361324310803
 20
109.7645012695759
 30
0.0
 10
199.9935603454701
 20
109.7647928586612
 30
0.0
 10
199.6722580645185
 20
109.7649386605724
 30
0.0
  0
SPLINE
  5
161
330
1F
100
AcDbEntity
  8
0
  6
Continuous
 62
     8
370
    18
100
AcDbSpline
210
0.0
220
0.0
230
1.0
 70
     8
 71
     3
 72
     8
 73
     4
 74
     0
 42
0.000000001
 43
0.00000001
 40
0.0
 40
0.0
 40
0.0
 40
0.0
 40
1.0
 40
1.0
 40
1.0
 40
1.0
 10
203.5656062345185
 20
110.8804315034364
 30
0.0
 10
202.2684850045185
 20
110.8884985134363
 30
0.0
 10
200.9703638745185
 20
110.8925664434363
 30
0.0
 10
199.6722580645185
 20
110.8925664434363
 30
0.0
  0
ARC
  5
162
330
1F
100
AcDbEntity
  8
0
  6
Continuous
 62
     8
370
    18
100
AcDbCircle
 10
193.103226667
 20
110.6771516849
 30
0.0
 40
10.46435417874078
100
AcDbArc
 50
354.9321044703
 51
1.1130908957
  0
SPLINE
  5
163
330
1F
100
AcDbEntity
  8
0
  6
Continuous
 62
     8
370
    18
100
AcDbSpline
210
0.0
220
0.0
230
1.0
 70
     8
 71
     3
 72
     9
 73
     5
 74
     0
 42
0.000000001
 43
0.00000001
 40
0.0
 40
0.0
 40
0.0
 40
0.0
 40
0.5096407334251656
 40
1.0
 40
1.0
 40
1.0
 40
1.0
 10
203.8179393275413
 20
109.7809919330872
 30
0.0
 10
203.7688087948399
 20
109.772636728673
 30
0.0
 10
203.6724065069553
 20
109.7562424260472
 30
0.0
 10
203.574622715549
 20
109.753912978525
 30
0.0
 10
203.5266735273121
 20
109.7527707123464
 30
0.0
  0
SPLINE
  5
164
330
1F
100
AcDbEntity
  8
0
  6
Continuous
 62
     8
370
    18
100
AcDbSpline
210
0.0
220
0.0
230
1.0
 70
     8
 71
     3
 72
    10
 73
     6
 74
     0
 42
0.000000001
 43
0.00000001
 40
0.0
 40
0.0
 40
0.0
 40
0.0
 40
0.5
 40
0.5
 40
1.0
 40
1.0
 40
1.0
 40
1.0
 10
204.0668525845185
 20
111.4353235734364
 30
0.0
 10
204.0851359279138
 20
111.2962468442869
 30
0.0
 10
204.0395638219015
 20
111.1504769615088
 30
0.0
 10
203.8506230543029
 20
110.9413797350167
 30
0.0
 10
203.7084524437212
 20
110.8795456854722
 30
0.0
 10
203.5656085845185
 20
110.8804342534364
 30
0.0
  0
ARC
  5
165
330
1F
100
AcDbEntity
  8
0
  6
Continuous
 62
     8
370
    18
100
AcDbCircle
 10
204.519417038
 20
109.6627113237
 30
0.0
 40
1.829469180084507
100
AcDbArc
 50
74.2976750912
 51
104.3222147925
  0
SPLINE
  5
166
330
1F
100
AcDbEntity
  8
0
  6
Continuous
 62
     8
370
    18
100
AcDbSpline
210
0.0
220
0.0
230
1.0
 70
     8
 71
     3
 72
    26
 73
    22
 74
     0
 42
0.000000001
 43
0.00000001
 40
0.0
 40
0.0
 40
0.0
 40
0.0
 40
0.0473543988687025
 40
0.0962990040174438
 40
0.1467380282327356
 40
0.1985479790575073
 40
0.2515775064579934
 40
0.3056484428648281
 40
0.3605581572682064
 40
0.4160832425019493
 40
0.4719844315452743
 40
0.5280124761860949
 40
0.5839142896173521
 40
0.639440367330007
 40
0.6943512399053946
 40
0.7484232844581299
 40
0.801453665849271
 40
0.8532640468988093
 40
0.9037029613083593
 40
0.9526468669058615
 40
1.0
 40
1.0
 40
1.0
 40
1.0
 10
195.8178279341242
 20
109.7527706184701
 30
0.0
 10
195.7776107460446
 20
109.7536993748823
 30
0.0
 10
195.6958258380113
 20
109.7555880762408
 30
0.0
 10
195.5720198887679
 20
109.7711581518974
 30
0.0
 10
195.4462174661563
 20
109.7970250501203
 30
0.0
 10
195.3198391398553
 20
109.8347694229693
 30
0.0
 10
195.1944802325668
 20
109.8845498579086
 30
0.0
 10
195.0718633465521
 20
109.9465792278267
 30
0.0
 10
194.9537759450421
 20
110.0206619970008
 30
0.0
 10
194.8419958455294
 20
110.1062921058661
 30
0.0
 10
194.7382104350922
 20
110.2026212072296
 30
0.0
 10
194.6439365143756
 20
110.3084893887085
 30
0.0
 10
194.5604489414206
 20
110.4224745004545
 30
0.0
 10
194.4887211886621
 20
110.5429380281378
 30
0.0
 10
194.4293923866007
 20
110.6681151420239
 30
0.0
 10
194.3827453860883
 20
110.7961966299764
 30
0.0
 10
194.3487494941953
 20
110.9254042167971
 30
0.0
 10
194.3269717036531
 20
111.0540759658155
 30
0.0
 10
194.3170497531401
 20
111.1806686179629
 30
0.0
 10
194.317215041994
 20
111.3039916103346
 30
0.0
 10
194.3257591941245
 20
111.3843889647401
 30
0.0
 10
194.3299606979143
 20
111.4239235825778
 30
0.0
  0
ARC
  5
167
330
1F
100
AcDbEntity
  8
0
  6
Continuous
 62
     8
370
    18
100
AcDbCircle
 10
194.8250677434
 20
109.6629198
 30
0.0
 40
1.829278126237911
100
AcDbArc
 50
75.6757709072
 51
105.7034418291
  0
SPLINE
  5
168
330
1F
100
AcDbEntity
  8
0
  6
Continuous
 62
     8
370
    18
100
AcDbSpline
210
0.0
220
0.0
230
1.0
 70
     8
 71
     3
 72
    10
 73
     6
 74
     0
 42
0.000000001
 43
0.00000001
 40
0.0
 40
0.0
 40
0.0
 40
0.0
 40
0.5
 40
0.5
 40
1.0
 40
1.0
 40
1.0
 40
1.0
 10
195.7788927245185
 20
110.8804341634364
 30
0.0
 10
195.6360017102189
 20
110.8795453085767
 30
0.0
 10
195.4940362576914
 20
110.9413209908115
 30
0.0
 10
195.3049234208795
 20
111.150523352985
 30
0.0
 10
195.2593582079755
 20
111.2962079784799
 30
0.0
 10
195.2776495845185
 20
111.4353303834363
 30
0.0
  0
SPLINE
  5
169
330
1F
100
AcDbEntity
  8
0
  6
Continuous
 62
     8
370
    18
100
AcDbSpline
210
0.0
220
0.0
230
1.0
 70
     8
 71
     3
 72
     8
 73
     4
 74
     0
 42
0.000000001
 43
0.00000001
 40
0.0
 40
0.0
 40
0.0
 40
0.0
 40
1.0
 40
1.0
 40
1.0
 40
1.0
 10
195.2776473845185
 20
111.4353302934362
 30
0.0
 10
196.2724526745184
 20
119.0017164134363
 30
0.0
 10
196.9926382045183
 20
126.5979343634367
 30
0.0
 10
197.5468499545183
 20
134.2031760734366
 30
0.0
  0
SPLINE
  5
16A
330
1F
100
AcDbEntity
  8
0
  6
Continuous
 62
     8
370
    18
100
AcDbSpline
210
0.0
220
0.0
230
1.0
 70
     8
 71
     3
 72
    10
 73
     6
 74
     0
 42
0.000000001
 43
0.00000001
 40
0.0
 40
0.0
 40
0.0
 40
0.0
 40
0.4999999999999997
 40
0.4999999999999997
 40
1.0
 40
1.0
 40
1.0
 40
1.0
 10
197.5468499545183
 20
134.2031760734365
 30
0.0
 10
197.5558673403914
 20
134.3269182753421
 30
0.0
 10
197.613418866923
 20
134.447025276667
 30
0.0
 10
197.7977655522461
 20
134.6177238848902
 30
0.0
 10
197.9240673749667
 20
134.6672080704428
 30
0.0
 10
198.0505912445182
 20
134.6672109634366
 30
0.0
  0
SPLINE
  5
16B
330
1F
100
AcDbEntity
  8
0
  6
Continuous
 62
     8
370
    18
100
AcDbSpline
210
0.0
220
0.0
230
1.0
 70
     8
 71
     3
 72
     9
 73
     5
 74
     0
 42
0.000000001
 43
0.00000001
 40
0.0
 40
0.0
 40
0.0
 40
0.0
 40
0.4999625163143239
 40
0.9999999999999999
 40
0.9999999999999999
 40
0.9999999999999999
 40
0.9999999999999999
 10
199.6722580645182
 20
134.6672294527567
 30
0.0
 10
199.401986932309
 20
134.6672287127113
 30
0.0
 10
198.8614041418199
 20
134.6672272325096
 30
0.0
 10
198.3208757175792
 20
134.6672163870614
 30
0.0
 10
198.0505912444612
 20
134.6672109639308
 30
0.0
  0
LINE
  5
16C
330
1F
100
AcDbEntity
  8
0
  6
Continuous
 62
     8
370
    18
100
AcDbLine
 10
199.6722580645
 20
110.892567959
 30
0.0
 11
199.6722580645
 21
134.6672290827
 31
0.0
  0
SPLINE
  5
16D
330
1F
100
AcDbEntity
  8
0
  6
Continuous
 62
     8
370
    18
100
AcDbSpline
210
0.0
220
0.0
230
1.0
 70
     8
 71
     3
 72
     9
 73
     5
 74
     0
 42
0.000000001
 43
0.00000001
 40
0.0
 40
0.0
 40
0.0
 40
0.0
 40
0.5000374843371999
 40
1.0
 40
1.0
 40
1.0
 40
1.0
 10
201.2939725545605
 20
134.6672109638027
 30
0.0
 10
201.0236801366963
 20
134.6672163869728
 30
0.0
 10
200.4831358248584
 20
134.6672272325
 30
0.0
 10
199.9425371419761
 20
134.6672287127081
 30
0.0
 10
199.6722580645182
 20
134.6672294527567
 30
0.0
  0
SPLINE
  5
16E
330
1F
100
AcDbEntity
  8
0
  6
Continuous
 62
     8
370
    18
100
AcDbSpline
210
0.0
220
0.0
230
1.0
 70
     8
 71
     3
 72
    16
 73
    12
 74
     0
 42
0.000000001
 43
0.00000001
 40
0.0
 40
0.0
 40
0.0
 40
0.0
 40
0.0837776881711954
 40
0.1663524683196993
 40
0.2489933221635123
 40
0.3735038823454822
 40
0.4985053876448916
 40
0.6237520303031721
 40
0.748933158060648
 40
0.8744729492801314
 40
1.0
 40
1.0
 40
1.0
 40
1.0
 10
201.7977140145226
 20
134.203173783465
 30
0.0
 10
201.7953960266817
 20
134.2239654519574
 30
0.0
 10
201.7907933334433
 20
134.265250255223
 30
0.0
 10
201.7743308186521
 20
134.3254450829039
 30
0.0
 10
201.7470974121901
 20
134.3926654255421
 30
0.0
 10
201.7039966164647
 20
134.464393666277
 30
0.0
 10
201.6407586078367
 20
134.534592595031
 30
0.0
 10
201.5655869364549
 20
134.5925202590996
 30
0.0
 10
201.4804814392933
 20
134.6347591443629
 30
0.0
 10
201.388954720944
 20
134.6621972251592
 30
0.0
 10
201.3256322055785
 20
134.6655397741279
 30
0.0
 10
201.2939725545605
 20
134.6672109638027
 30
0.0
  0
SPLINE
  5
16F
330
1F
100
AcDbEntity
  8
0
  6
Continuous
 62
     8
370
    18
100
AcDbSpline
210
0.0
220
0.0
230
1.0
 70
     8
 71
     3
 72
     8
 73
     4
 74
     0
 42
0.000000001
 43
0.00000001
 40
0.0
 40
0.0
 40
0.0
 40
0.0
 40
1.0
 40
1.0
 40
1.0
 40
1.0
 10
201.7977140145182
 20
134.2031737834366
 30
0.0
 10
202.3518905045183
 20
126.5979300934364
 30
0.0
 10
203.0721585545184
 20
119.0017223934364
 30
0.0
 10
204.0668547645185
 20
111.4353235734371
 30
0.0
  0
ARC
  5
170
330
1F
100
AcDbEntity
  8
0
  6
Continuous
 62
     8
370
    18
100
AcDbCircle
 10
197.1836183713
 20
132.3930677109
 30
0.0
 40
1.846194278400428
100
AcDbArc
 50
78.6532517707
 51
109.3897350154
  0
ARC
  5
171
330
1F
100
AcDbEntity
  8
0
  6
Continuous
 62
     8
370
    18
100
AcDbCircle
 10
202.1609400122
 20
132.3930793974
 30
0.0
 40
1.846178044683982
100
AcDbArc
 50
70.6099075075
 51
101.34666863
  0
SPLINE
  5
172
330
1F
100
AcDbEntity
  8
0
  6
Continuous
 62
     8
370
    18
100
AcDbSpline
210
0.0
220
0.0
230
1.0
 70
     8
 71
     3
 72
    13
 73
     9
 74
     0
 42
0.000000001
 43
0.00000001
 40
0.0
 40
0.0
 40
0.0
 40
0.0
 40
0.1111764386531311
 40
0.2223536618352352
 40
0.3335316994375148
 40
0.4447105813505154
 40
0.722352335266272
 40
0.9999999999999999
 40
0.9999999999999999
 40
0.9999999999999999
 40
0.9999999999999999
 10
203.627955047459
 20
108.9557290912004
 30
0.0
 10
203.6247292858399
 20
108.9767359036143
 30
0.0
 10
203.6182777398389
 20
109.0187496766792
 30
0.0
 10
203.6081228864145
 20
109.0895081672718
 30
0.0
 10
203.5976215763294
 20
109.1658742204241
 30
0.0
 10
203.5812895259655
 20
109.2898899108568
 30
0.0
 10
203.5583435436845
 20
109.4742107589053
 30
0.0
 10
203.5372301305976
 20
109.6599151623357
 30
0.0
 10
203.5266733116826
 20
109.7527683524228
 30
0.0
  0
ARC
  5
173
330
1F
100
AcDbEntity
  8
0
  6
Continuous
 62
     8
370
    18
100
AcDbCircle
 10
210.4801239797
 20
134.8625230486
 30
0.0
 40
12.43106718157595
100
AcDbArc
 50
176.9377006779
 51
180.9002483476
  0
ARC
  5
174
330
1F
100
AcDbEntity
  8
0
  6
Continuous
 62
     8
370
    18
100
AcDbCircle
 10
188.8649261643
 20
134.862525501
 30
0.0
 40
12.43058087906853
100
AcDbArc
 50
359.0997051252
 51
3.0624079179
  0
LINE
  5
175
330
1F
100
AcDbEntity
  8
0
  6
Continuous
 62
     8
370
    18
100
AcDbLine
 10
199.6722580645
 20
135.5266125764
 30
0.0
 11
199.6722580645
 21
134.6672290827
 31
0.0
  0
SPLINE
  5
176
330
1F
100
AcDbEntity
  8
0
  6
Continuous
 62
     8
370
    18
100
AcDbSpline
210
0.0
220
0.0
230
1.0
 70
     8
 71
     3
 72
    20
 73
    16
 74
     0
 42
0.000000001
 43
0.00000001
 40
0.0358876567521815
 40
0.0358876567521815
 40
0.0358876567521815
 40
0.0358876567521815
 40
0.0488040726267431
 40
0.0854251663767431
 40
0.1440189163767431
 40
0.2416751663767431
 40
0.4760501663767431
 40
0.616675166376743
 40
0.733862666376743
 40
0.804175166376743
 40
0.862768916376743
 40
0.897925166376743
 40
0.936377314814243
 40
0.951758174189243
 40
0.9557875096245616
 40
0.9557875096245616
 40
0.9557875096245616
 40
0.9557875096245616
 10
209.8572517732964
 20
110.5180993201167
 30
0.0
 10
209.8367627058419
 20
110.5176837765967
 30
0.0
 10
209.7581671274866
 20
110.5160710868865
 30
0.0
 10
209.5864806088454
 20
110.5123920449027
 30
0.0
 10
209.2798126025913
 20
110.5052851901955
 30
0.0
 10
208.6572673072029
 20
110.4890814644108
 30
0.0
 10
207.9002706420958
 20
110.4648207174008
 30
0.0
 10
207.1076218021132
 20
110.4340837043099
 30
0.0
 10
206.5771857151678
 20
110.4110835513918
 30
0.0
 10
206.1782658266982
 20
110.3924650064701
 30
0.0
 10
205.9118183362311
 20
110.3794254199199
 30
0.0
 10
205.6968205032641
 20
110.3685505627041
 30
0.0
 10
205.5519437231662
 20
110.3610359679685
 30
0.0
 10
205.457668771022
 20
110.3560577097837
 30
0.0
 10
205.4260347271914
 20
110.3543763743398
 30
0.0
 10
205.4194674776993
 20
110.3540268696774
 30
0.0
  0
SPLINE
  5
177
330
1F
100
AcDbEntity
  8
0
  6
Continuous
 62
     8
370
    18
100
AcDbSpline
210
0.0
220
0.0
230
1.0
 70
     8
 71
     3
 72
    34
 73
    30
 74
     0
 42
0.000000001
 43
0.00000001
 40
0.0
 40
0.0
 40
0.0
 40
0.0
 40
0.0624999999999999
 40
0.0624999999999999
 40
0.1249999999999999
 40
0.1249999999999999
 40
0.2500000000000006
 40
0.2500000000000006
 40
0.3750000000000013
 40
0.3750000000000013
 40
0.4375000000000009
 40
0.4375000000000009
 40
0.5000000000000004
 40
0.5000000000000004
 40
0.5624999999999999
 40
0.5624999999999999
 40
0.6249999999999994
 40
0.6249999999999994
 40
0.6874999999999989
 40
0.6874999999999989
 40
0.7499999999999984
 40
0.7499999999999984
 40
0.8749999999999973
 40
0.8749999999999973
 40
0.9374999999999987
 40
0.9374999999999987
 40
0.9687499999999992
 40
0.9687499999999992
 40
1.0
 40
1.0
 40
1.0
 40
1.0
 10
204.0563571884678
 20
103.1469451667393
 30
0.0
 10
204.2881544607491
 20
103.1750157523503
 30
0.0
 10
204.5188223723879
 20
103.2075880918349
 30
0.0
 10
204.9757453506436
 20
103.277824018994
 30
0.0
 10
205.2021205722822
 20
103.3161457992314
 30
0.0
 10
205.8741443633021
 20
103.4457890179699
 30
0.0
 10
206.3130054996441
 20
103.5518843597869
 30
0.0
 10
207.16630502762
 20
103.8347780191745
 30
0.0
 10
207.5836138088712
 20
104.0114218813662
 30
0.0
 10
208.1581654129719
 20
104.3497878788758
 30
0.0
 10
208.3419624563205
 20
104.4748718078491
 30
0.0
 10
208.6910368937799
 20
104.7582110198583
 30
0.0
 10
208.853258377855
 20
104.9144516247094
 30
0.0
 10
209.14786244689
 20
105.2567000596781
 30
0.0
 10
209.2818324144833
 20
105.4451931952591
 30
0.0
 10
209.5112629588646
 20
105.8450715625738
 30
0.0
 10
209.6079351168998
 20
106.0555749560611
 30
0.0
 10
209.7696824061407
 20
106.4956232801666
 30
0.0
 10
209.8347663945763
 20
106.7262272127079
 30
0.0
 10
209.9345500462546
 20
107.1891523679574
 30
0.0
 10
209.9700796339189
 20
107.4232679681815
 30
0.0
 10
210.0415724397499
 20
108.1321387209843
 30
0.0
 10
210.0415258078563
 20
108.6158495425649
 30
0.0
 10
209.9965314882543
 20
109.3316696561593
 30
0.0
 10
209.9742308928853
 20
109.5695137127265
 30
0.0
 10
209.9341392484949
 20
109.9256215246706
 30
0.0
 10
209.9196459560809
 20
110.044209535327
 30
0.0
 10
209.8892690785861
 20
110.2812392641609
 30
0.0
 10
209.8731945186078
 20
110.4009294860431
 30
0.0
 10
209.8573235066861
 20
110.5181007749383
 30
0.0
  0
SPLINE
  5
178
330
1F
100
AcDbEntity
  8
0
  6
Continuous
 62
     8
370
    18
100
AcDbSpline
210
0.0
220
0.0
230
1.0
 70
     8
 71
     3
 72
    10
 73
     6
 74
     0
 42
0.000000001
 43
0.00000001
 40
0.0
 40
0.0
 40
0.0
 40
0.0
 40
0.5
 40
0.5
 40
1.0
 40
1.0
 40
1.0
 40
1.0
 10
199.6722621374394
 20
102.8984048553598
 30
0.0
 10
200.4095680179848
 20
102.8984048681291
 30
0.0
 10
201.1475441050224
 20
102.9184858099397
 30
0.0
 10
202.6134176335129
 20
102.9985830519911
 30
0.0
 10
203.3402120142489
 20
103.0602201840811
 30
0.0
 10
204.056357188479
 20
103.1469451667459
 30
0.0
  0
SPLINE
  5
179
330
1F
100
AcDbEntity
  8
0
  6
Continuous
 62
     8
370
    18
100
AcDbSpline
210
0.0
220
0.0
230
1.0
 70
     8
 71
     3
 72
    10
 73
     6
 74
     0
 42
0.000000001
 43
0.00000001
 40
0.0
 40
0.0
 40
0.0
 40
0.0
 40
0.5
 40
0.5
 40
1.0
 40
1.0
 40
1.0
 40
1.0
 10
195.2881594819196
 20
103.1469451051772
 30
0.0
 10
196.0043011487404
 20
103.0602207481218
 30
0.0
 10
196.731162601395
 20
102.9979733913063
 30
0.0
 10
198.1970209510719
 20
102.9177128087077
 30
0.0
 10
198.9337907600643
 20
102.8984044394024
 30
0.0
 10
199.6722621374394
 20
102.8984048553594
 30
0.0
  0
SPLINE
  5
17A
330
1F
100
AcDbEntity
  8
0
  6
Continuous
 62
     8
370
    18
100
AcDbSpline
210
0.0
220
0.0
230
1.0
 70
     8
 71
     3
 72
    32
 73
    28
 74
     0
 42
0.000000001
 43
0.00000001
 40
0.0
 40
0.0
 40
0.0
 40
0.0
 40
0.1249999999999972
 40
0.1249999999999972
 40
0.2499999999999944
 40
0.2499999999999944
 40
0.3124999999999949
 40
0.3124999999999949
 40
0.3749999999999953
 40
0.3749999999999953
 40
0.4374999999999958
 40
0.4374999999999958
 40
0.4999999999999962
 40
0.4999999999999962
 40
0.5624999999999966
 40
0.5624999999999966
 40
0.624999999999997
 40
0.624999999999997
 40
0.6874999999999973
 40
0.6874999999999973
 40
0.7499999999999978
 40
0.7499999999999978
 40
0.8749999999999989
 40
0.8749999999999989
 40
0.9374999999999993
 40
0.9374999999999993
 40
1.0
 40
1.0
 40
1.0
 40
1.0
 10
189.4795998180578
 20
110.4619722412693
 30
0.0
 10
189.41590978338
 20
109.990557288249
 30
0.0
 10
189.3577923783389
 20
109.5185674545422
 30
0.0
 10
189.3021701776086
 20
108.5684725378354
 30
0.0
 10
189.3047493188872
 20
108.0873800660701
 30
0.0
 10
189.3800585877518
 20
107.3829100982923
 30
0.0
 10
189.4168593284609
 20
107.1502595906461
 30
0.0
 10
189.5192652972534
 20
106.6902797713312
 30
0.0
 10
189.5856679066717
 20
106.4614202035683
 30
0.0
 10
189.7496728138049
 20
106.0254758137814
 30
0.0
 10
189.8474042457823
 20
105.8169629206562
 30
0.0
 10
190.0788346583402
 20
105.421000502037
 30
0.0
 10
190.2134274646842
 20
105.2349266405443
 30
0.0
 10
190.508733554798
 20
104.8967389135143
 30
0.0
 10
190.6713875062062
 20
104.7421571817045
 30
0.0
 10
191.0197588696549
 20
104.4626003524085
 30
0.0
 10
191.2026559527839
 20
104.3393516616918
 30
0.0
 10
191.5829029614002
 20
104.1171601115225
 30
0.0
 10
191.7803290783798
 20
104.0183979906087
 30
0.0
 10
192.1877850728159
 20
103.8407451839936
 30
0.0
 10
192.3986100618848
 20
103.7615011555606
 30
0.0
 10
193.0384904510985
 20
103.5500008817738
 30
0.0
 10
193.476618769258
 20
103.4444256502683
 30
0.0
 10
194.146804078813
 20
103.31537674781
 30
0.0
 10
194.3724413454493
 20
103.277231536039
 30
0.0
 10
194.8276767941265
 20
103.2073124179891
 30
0.0
 10
195.0573958709529
 20
103.1748904499698
 30
0.0
 10
195.2881594819316
 20
103.1469451051808
 30
0.0
  0
SPLINE
  5
17B
330
1F
100
AcDbEntity
  8
0
  6
Continuous
 62
     8
370
    18
100
AcDbSpline
210
0.0
220
0.0
230
1.0
 70
     8
 71
     3
 72
    11
 73
     7
 74
     0
 42
0.000000001
 43
0.00000001
 40
-0.00000006
 40
-0.00000006
 40
-0.00000006
 40
-0.00000006
 40
0.0
 40
0.0
 40
0.0
 40
0.0000567126826241
 40
0.0000567126826241
 40
0.0000567126826241
 40
0.0000567126826241
 10
189.4872035624672
 20
110.5181005530648
 30
0.0
 10
189.4872008766586
 20
110.5180807815267
 30
0.0
 10
189.4871981908551
 20
110.5180610099887
 30
0.0
 10
189.4871955050606
 20
110.5180412384483
 30
0.0
 10
189.4846568614828
 20
110.4993529534867
 30
0.0
 10
189.4821250445702
 20
110.4806632271336
 30
0.0
 10
189.479599818059
 20
110.4619722412787
 30
0.0
  0
SPLINE
  5
17C
330
1F
100
AcDbEntity
  8
0
  6
Continuous
 62
     8
370
    18
100
AcDbSpline
210
0.0
220
0.0
230
1.0
 70
     8
 71
     3
 72
    11
 73
     7
 74
     0
 42
0.000000001
 43
0.00000001
 40
0.044219734686687
 40
0.044219734686687
 40
0.044219734686687
 40
0.044219734686687
 40
0.47938232421875
 40
0.712042236328125
 40
0.9447021484375
 40
0.9641244587562938
 40
0.9641244587562938
 40
0.9641244587562938
 40
0.9641244587562938
 10
189.4873004825902
 20
110.518096551912
 30
0.0
 10
190.1775978717283
 20
110.5040876480482
 30
0.0
 10
191.2438344853842
 20
110.4739845848935
 30
0.0
 10
192.6957726040011
 20
110.415563062154
 30
0.0
 10
193.4827162235256
 20
110.3774206366182
 30
0.0
 10
193.8934604460631
 20
110.3556981576122
 30
0.0
 10
193.9251157957922
 20
110.3540138186858
 30
0.0
  0
SPLINE
  5
17D
330
1F
100
AcDbEntity
  8
0
  6
Continuous
 62
     8
370
    18
100
AcDbSpline
210
0.0
220
0.0
230
1.0
 70
     8
 71
     3
 72
    16
 73
    12
 74
     0
 42
0.000000001
 43
0.00000001
 40
0.0
 40
0.0
 40
0.0
 40
0.0
 40
0.1249999999999997
 40
0.1249999999999997
 40
0.2499999999999994
 40
0.2499999999999994
 40
0.4999999999999997
 40
0.4999999999999997
 40
0.7499999999999999
 40
0.7499999999999999
 40
1.0
 40
1.0
 40
1.0
 40
1.0
 10
194.5684521960323
 20
135.2771295298125
 30
0.0
 10
194.2668230070717
 20
134.2664460430436
 30
0.0
 10
193.9877497029609
 20
133.2486635306427
 30
0.0
 10
193.4512982221822
 20
131.2083133656705
 30
0.0
 10
193.1945783045647
 20
130.1856035997854
 30
0.0
 10
192.4522521794855
 20
127.1119713561984
 30
0.0
 10
191.9969635692131
 20
125.0545646296296
 30
0.0
 10
191.1648102478279
 20
120.9228086202927
 30
0.0
 10
190.7857423948879
 20
118.8495398682941
 30
0.0
 10
190.0874343181626
 20
114.6920950702219
 30
0.0
 10
189.7679367668713
 20
112.6083659876519
 30
0.0
 10
189.4873667661154
 20
110.5180952067363
 30
0.0
  0
SPLINE
  5
17E
330
1F
100
AcDbEntity
  8
0
  6
Continuous
 62
     8
370
    18
100
AcDbSpline
210
0.0
220
0.0
230
1.0
 70
     8
 71
     3
 72
    11
 73
     7
 74
     0
 42
0.000000001
 43
0.00000001
 40
-0.0980497121990119
 40
-0.0980497121990119
 40
-0.0980497121990119
 40
-0.0980497121990119
 40
0.0
 40
0.0
 40
0.0
 40
0.8094990553115612
 40
0.8094990553115612
 40
0.8094990553115612
 40
0.8094990553115612
 10
196.3530851494662
 20
134.6802902060332
 30
0.0
 10
196.2900068953602
 20
134.7017182320655
 30
0.0
 10
196.2269286412543
 20
134.7231462580977
 30
0.0
 10
196.1638503871483
 20
134.74457428413
 30
0.0
 10
195.6430759150537
 20
134.9214842050391
 30
0.0
 10
195.1112853035751
 20
135.0989997373003
 30
0.0
 10
194.5684785527126
 20
135.2771208809135
 30
0.0
  0
SPLINE
  5
17F
330
1F
100
AcDbEntity
  8
0
  6
Continuous
 62
     8
370
    18
100
AcDbSpline
210
0.0
220
0.0
230
1.0
 70
     8
 71
     3
 72
    16
 73
    12
 74
     0
 42
0.000000001
 43
0.00000001
 40
0.0
 40
0.0
 40
0.0
 40
0.0
 40
0.25
 40
0.25
 40
0.5
 40
0.5
 40
0.75
 40
0.75
 40
0.875
 40
0.875
 40
1.0
 40
1.0
 40
1.0
 40
1.0
 10
209.8571493829966
 20
110.5180952071438
 30
0.0
 10
209.5766169144416
 20
112.6080733368749
 30
0.0
 10
209.2571020985521
 20
114.6919139096344
 30
0.0
 10
208.5588580611884
 20
118.8489997201635
 30
0.0
 10
208.1797033727745
 20
120.9227729697475
 30
0.0
 10
207.3475523583443
 20
125.0546721392871
 30
0.0
 10
206.8922197515514
 20
127.1124831073165
 30
0.0
 10
206.149834884148
 20
130.1864319412323
 30
0.0
 10
205.8931286182564
 20
131.2090563894236
 30
0.0
 10
205.3567997809156
 20
133.2488000461163
 30
0.0
 10
205.0776926022368
 20
134.2666003303953
 30
0.0
 10
204.7760636740548
 20
135.2771294448401
 30
0.0
  0
SPLINE
  5
180
330
1F
100
AcDbEntity
  8
0
  6
Continuous
 62
     8
370
    18
100
AcDbSpline
210
0.0
220
0.0
230
1.0
 70
     8
 71
     3
 72
     8
 73
     4
 74
     0
 42
0.000000001
 43
0.00000001
 40
0.0
 40
0.0
 40
0.0
 40
0.0
 40
1.0
 40
1.0
 40
1.0
 40
1.0
 10
209.8572909925982
 20
110.5181120120274
 30
0.0
 10
209.9536060429512
 20
110.5229754953597
 30
0.0
 10
210.021255499711
 20
110.5254571202308
 30
0.0
 10
210.053391593852
 20
110.5236312277979
 30
0.0
  0
SPLINE
  5
181
330
1F
100
AcDbEntity
  8
0
  6
Continuous
 62
     8
370
    18
100
AcDbSpline
210
0.0
220
0.0
230
1.0
 70
     8
 71
     3
 72
    30
 73
    26
 74
     0
 42
0.000000001
 43
0.00000001
 40
0.0
 40
0.0
 40
0.0
 40
0.0
 40
0.1249999999999981
 40
0.1249999999999981
 40
0.2499999999999961
 40
0.2499999999999961
 40
0.3749999999999942
 40
0.3749999999999942
 40
0.4374999999999943
 40
0.4374999999999943
 40
0.4999999999999946
 40
0.4999999999999946
 40
0.5624999999999948
 40
0.5624999999999948
 40
0.624999999999995
 40
0.624999999999995
 40
0.6874999999999953
 40
0.6874999999999953
 40
0.7499999999999956
 40
0.7499999999999956
 40
0.8124999999999958
 40
0.8124999999999958
 40
0.874999999999996
 40
0.874999999999996
 40
1.0
 40
1.0
 40
1.0
 40
1.0
 10
204.0490711676856
 20
102.708220578717
 30
0.0
 10
204.5339878850876
 20
102.7716913840536
 30
0.0
 10
205.0146625091105
 20
102.8463208050194
 30
0.0
 10
205.9531456682207
 20
103.0412590353519
 30
0.0
 10
206.4090114968731
 20
103.1606606036441
 30
0.0
 10
207.2866895661561
 20
103.4698634628651
 30
0.0
 10
207.7087354209155
 20
103.6587269025942
 30
0.0
 10
208.3066999150039
 20
104.0301525760672
 30
0.0
 10
208.4973704556126
 20
104.1675747019372
 30
0.0
 10
208.8528432672493
 20
104.4707571065962
 30
0.0
 10
209.0185881474237
 20
104.6370984900114
 30
0.0
 10
209.3227580208618
 20
105.005136818531
 30
0.0
 10
209.4586011232546
 20
105.2044536583831
 30
0.0
 10
209.6931158612685
 20
105.6236324988782
 30
0.0
 10
209.7929697339509
 20
105.8448068018989
 30
0.0
 10
209.9610993103259
 20
106.3087504123378
 30
0.0
 10
210.0283809666866
 20
106.5493949073544
 30
0.0
 10
210.1322459558141
 20
107.0336870145942
 30
0.0
 10
210.1694853376763
 20
107.2792006976495
 30
0.0
 10
210.2195423686577
 20
107.775883336634
 30
0.0
 10
210.2322945267821
 20
108.0281990101287
 30
0.0
 10
210.2371467489369
 20
108.5309572175872
 30
0.0
 10
210.2293596554323
 20
108.7814065201389
 30
0.0
 10
210.1829988141439
 20
109.5306669316202
 30
0.0
 10
210.1199899768576
 20
110.0272717214548
 30
0.0
 10
210.0534082102388
 20
110.5235809997642
 30
0.0
  0
ARC
  5
182
330
1F
100
AcDbEntity
  8
0
  6
Continuous
 62
     8
370
    18
100
AcDbCircle
 10
201.4919611812
 20
102.970105851
 30
0.0
 40
2.570486007401426
100
AcDbArc
 50
354.1523855835
 51
3.9448221662
  0
SPLINE
  5
183
330
1F
100
AcDbEntity
  8
0
  6
Continuous
 62
     8
370
    18
100
AcDbSpline
210
0.0
220
0.0
230
1.0
 70
     8
 71
     3
 72
    10
 73
     6
 74
     0
 42
0.000000001
 43
0.00000001
 40
0.0
 40
0.0
 40
0.0
 40
0.0
 40
0.4999999999999999
 40
0.4999999999999999
 40
1.0
 40
1.0
 40
1.0
 40
1.0
 10
199.6722580394967
 20
102.4315887305444
 30
0.0
 10
200.4107844843234
 20
102.4315887310299
 30
0.0
 10
201.1494704126148
 20
102.4538700354138
 30
0.0
 10
202.6103421277502
 20
102.5454325975946
 30
0.0
 10
203.3335338891797
 20
102.6145638214134
 30
0.0
 10
204.0490711676856
 20
102.708220578717
 30
0.0
  0
LWPOLYLINE
  5
184
330
1F
100
AcDbEntity
  8
0
  6
Continuous
 62
     8
370
    18
100
AcDbPolyline
 90
        9
 70
   128
 43
0.0
 10
199.6722578906
 20
102.8984079028
 10
199.6722579071
 20
102.8322169448
 10
199.6722579245
 20
102.7676800157
 10
199.6722579425
 20
102.7050876881
 10
199.6722579611
 20
102.6447454358
 10
199.6722579801
 20
102.5869587327
 10
199.6722579996
 20
102.5319957997
 10
199.6722580195
 20
102.480117407
 10
199.6722580395
 20
102.4315917755
  0
SPLINE
  5
185
330
1F
100
AcDbEntity
  8
0
  6
Continuous
 62
     8
370
    18
100
AcDbSpline
210
0.0
220
0.0
230
1.0
 70
     8
 71
     3
 72
    10
 73
     6
 74
     0
 42
0.000000001
 43
0.00000001
 40
0.0
 40
0.0
 40
0.0
 40
0.0
 40
0.5
 40
0.5
 40
1.0
 40
1.0
 40
1.0
 40
1.0
 10
195.2954450435863
 20
102.7082205678485
 30
0.0
 10
196.0109347354949
 20
102.6145700442716
 30
0.0
 10
196.7384007707452
 20
102.54507698423
 30
0.0
 10
198.1992784470315
 20
102.4536935967138
 30
0.0
 10
198.9337621585715
 20
102.4315887300436
 30
0.0
 10
199.6722580394967
 20
102.4315887305443
 30
0.0
  0
ARC
  5
186
330
1F
100
AcDbEntity
  8
0
  6
Continuous
 62
     8
370
    18
100
AcDbCircle
 10
197.8525035466
 20
102.9701049897
 30
0.0
 40
2.570434322633687
100
AcDbArc
 50
176.0550791432
 51
185.8477131071
  0
SPLINE
  5
187
330
1F
100
AcDbEntity
  8
0
  6
Continuous
 62
     8
370
    18
100
AcDbSpline
210
0.0
220
0.0
230
1.0
 70
     8
 71
     3
 72
    23
 73
    19
 74
     0
 42
0.000000001
 43
0.00000001
 40
0.0
 40
0.0
 40
0.0
 40
0.0
 40
0.0370777178750392
 40
0.0835496893268625
 40
0.1253181408264684
 40
0.2491263647981219
 40
0.3342776555467301
 40
0.4180830742058367
 40
0.4994989494999761
 40
0.5722014660818505
 40
0.6248348399975927
 40
0.6753286161325271
 40
0.7499750304734784
 40
0.772465677638418
 40
0.8090822320962543
 40
0.8594266072259672
 40
0.9232082392972747
 40
1.0
 40
1.0
 40
1.0
 40
1.0
 10
189.2899442012985
 20
110.5149064055731
 30
0.0
 10
189.270410606536
 20
110.3684409284635
 30
0.0
 10
189.2263942574353
 20
110.0384005211531
 30
0.0
 10
189.1692183217956
 20
109.5417967484803
 30
0.0
 10
189.0998790508275
 20
108.6984144939541
 30
0.0
 10
189.1001672600314
 20
107.6899929315169
 30
0.0
 10
189.2939304782261
 20
106.5376231932691
 30
0.0
 10
189.6267017671613
 20
105.6076342324564
 30
0.0
 10
190.1203314772281
 20
104.8340755765192
 30
0.0
 10
190.6761958408013
 20
104.2885012478915
 30
0.0
 10
191.2107903803435
 20
103.9101444400494
 30
0.0
 10
191.790662431011
 20
103.5902391167114
 30
0.0
 10
192.3026341273748
 20
103.3792631812025
 30
0.0
 10
192.7803967074696
 20
103.2185960417905
 30
0.0
 10
193.1778808462614
 20
103.1011088459908
 30
0.0
 10
193.736206543831
 20
102.9647268520887
 30
0.0
 10
194.4570038525536
 20
102.8250472319894
 30
0.0
 10
194.9992366850924
 20
102.7494936288384
 30
0.0
 10
195.295445043586
 20
102.7082205678494
 30
0.0
  0
ARC
  5
188
330
1F
100
AcDbEntity
  8
0
  6
Continuous
 62
     8
370
    18
100
AcDbCircle
 10
189.6845843995
 20
111.5625820299
 30
0.0
 40
1.119538885824865
100
AcDbArc
 50
249.3595282609
 51
259.4497993601
  0
SPLINE
  5
189
330
1F
100
AcDbEntity
  8
0
  6
Continuous
 62
     8
370
    18
100
AcDbSpline
210
0.0
220
0.0
230
1.0
 70
     8
 71
     3
 72
     8
 73
     4
 74
     0
 42
0.000000001
 43
0.00000001
 40
0.0
 40
0.0
 40
0.0
 40
0.0
 40
1.0
 40
1.0
 40
1.0
 40
1.0
 10
204.0528954820188
 20
102.5554285481998
 30
0.0
 10
202.6217980482417
 20
102.3670945867347
 30
0.0
 10
201.1498060154766
 20
102.2818567177477
 30
0.0
 10
199.6722580347845
 20
102.2818567658403
 30
0.0
  0
LINE
  5
18A
330
1F
100
AcDbEntity
  8
0
  6
Continuous
 62
     8
370
    18
100
AcDbLine
 10
199.6722580395
 20
102.4315917755
 30
0.0
 11
199.6722580348
 21
102.2818574573
 31
0.0
  0
ARC
  5
18B
330
1F
100
AcDbEntity
  8
0
  6
Continuous
 62
     8
370
    18
100
AcDbCircle
 10
204.6931162052
 20
102.6478937295
 30
0.0
 40
0.6468636956657875
100
AcDbArc
 50
174.6491135756
 51
188.21828984
  0
SPLINE
  5
18C
330
1F
100
AcDbEntity
  8
0
  6
Continuous
 62
     8
370
    18
100
AcDbSpline
210
0.0
220
0.0
230
1.0
 70
     8
 71
     3
 72
     8
 73
     4
 74
     0
 42
0.000000001
 43
0.00000001
 40
0.0
 40
0.0
 40
0.0
 40
0.0
 40
1.0
 40
1.0
 40
1.0
 40
1.0
 10
199.6722580347839
 20
102.2818567658496
 30
0.0
 10
198.1947250093538
 20
102.2818568139182
 30
0.0
 10
196.7226995407038
 20
102.3670971854621
 30
0.0
 10
195.2916207453074
 20
102.5554285320293
 30
0.0
  0
ARC
  5
18D
330
1F
100
AcDbEntity
  8
0
  6
Continuous
 62
     8
370
    18
100
AcDbCircle
 10
194.6513569343
 20
102.6478967684
 30
0.0
 40
0.6469066781305743
100
AcDbArc
 50
351.7819880346
 51
5.3502595233
  0
SPLINE
  5
18E
330
1F
100
AcDbEntity
  8
0
  6
Continuous
 62
     8
370
    18
100
AcDbSpline
210
0.0
220
0.0
230
1.0
 70
     8
 71
     3
 72
    28
 73
    24
 74
     0
 42
0.000000001
 43
0.00000001
 40
0.0
 40
0.0
 40
0.0
 40
0.0
 40
0.1250000000000025
 40
0.1250000000000025
 40
0.2500000000000049
 40
0.2500000000000049
 40
0.3125000000000044
 40
0.3125000000000044
 40
0.3750000000000039
 40
0.3750000000000039
 40
0.4375000000000035
 40
0.4375000000000035
 40
0.500000000000003
 40
0.500000000000003
 40
0.5625000000000024
 40
0.5625000000000024
 40
0.6250000000000019
 40
0.6250000000000019
 40
0.7500000000000012
 40
0.7500000000000012
 40
0.8750000000000007
 40
0.8750000000000007
 40
1.0
 40
1.0
 40
1.0
 40
1.0
 10
210.1449062579593
 20
110.5450774859676
 30
0.0
 10
210.2119960156078
 20
110.0407649400118
 30
0.0
 10
210.2752611884804
 20
109.5361072977761
 30
0.0
 10
210.336300969291
 20
108.5205124883327
 30
0.0
 10
210.3350762980696
 20
108.00513325603
 30
0.0
 10
210.2585685830746
 20
107.2496560425279
 30
0.0
 10
210.220830693965
 20
107.0004170938221
 30
0.0
 10
210.1158862403634
 20
106.5080939454103
 30
0.0
 10
210.0479045926965
 20
106.262939563761
 30
0.0
 10
209.8794591812099
 20
105.7921089320817
 30
0.0
 10
209.7794157938437
 20
105.5667030893327
 30
0.0
 10
209.5439854338585
 20
105.1376642741772
 30
0.0
 10
209.4069520880527
 20
104.9322025781942
 30
0.0
 10
209.1037717896787
 20
104.5560069427278
 30
0.0
 10
208.9379468032892
 20
104.3847015464976
 30
0.0
 10
208.5805653247046
 20
104.0709017502425
 30
0.0
 10
208.3875533075486
 20
103.9275970322098
 30
0.0
 10
207.7878818978444
 20
103.5437010234261
 30
0.0
 10
207.3594395735084
 20
103.3453645770575
 30
0.0
 10
206.4595906603286
 20
103.0206790517321
 30
0.0
 10
205.9887262475623
 20
102.8956724945561
 30
0.0
 10
205.0341431505098
 20
102.6954330041763
 30
0.0
 10
204.5470825616816
 20
102.6204640993948
 30
0.0
 10
204.0528954820188
 20
102.5554285481997
 30
0.0
  0
SPLINE
  5
18F
330
1F
100
AcDbEntity
  8
0
  6
Continuous
 62
     8
370
    18
100
AcDbSpline
210
0.0
220
0.0
230
1.0
 70
     8
 71
     3
 72
     8
 73
     4
 74
     0
 42
0.000000001
 43
0.00000001
 40
0.0
 40
0.0
 40
0.0
 40
0.0
 40
1.0
 40
1.0
 40
1.0
 40
1.0
 10
210.0533983376222
 20
110.5235809213348
 30
0.0
 10
210.0640788804146
 20
110.5288155189379
 30
0.0
 10
210.0981059777179
 20
110.536808631458
 30
0.0
 10
210.1448912141175
 20
110.5450748298435
 30
0.0
  0
LINE
  5
190
330
1F
100
AcDbEntity
  8
0
  6
Continuous
 62
     8
370
    18
100
AcDbLine
 10
179.2210196856
 20
98.819855776
 30
0.0
 11
220.1234964434
 21
98.819855776
 31
0.0
  0
SPLINE
  5
191
330
1F
100
AcDbEntity
  8
0
  6
Continuous
 62
     8
370
    18
100
AcDbSpline
210
0.0
220
0.0
230
1.0
 70
     8
 71
     3
 72
    14
 73
    10
 74
     0
 42
0.000000001
 43
0.00000001
 40
0.0
 40
0.0
 40
0.0
 40
0.0
 40
0.25
 40
0.25
 40
0.5
 40
0.5
 40
0.75
 40
0.75
 40
1.0
 40
1.0
 40
1.0
 40
1.0
 10
205.2454785543845
 20
135.4311464002615
 30
0.0
 10
205.8177311625277
 20
133.3933310310212
 30
0.0
 10
206.3246670659174
 20
131.3384532660712
 30
0.0
 10
207.2623618068337
 20
127.2141900650474
 30
0.0
 10
207.6915177456593
 20
125.1432178284109
 30
0.0
 10
208.4922360129747
 20
120.9898826003494
 30
0.0
 10
208.8636724742118
 20
118.9083127479792
 30
0.0
 10
209.5503556481773
 20
114.7348939809471
 30
0.0
 10
209.8660160809192
 20
112.6429800132693
 30
0.0
 10
210.1448868004932
 20
110.5451080324084
 30
0.0
  0
SPLINE
  5
192
330
1F
100
AcDbEntity
  8
0
  6
Continuous
 62
     8
370
    18
100
AcDbSpline
210
0.0
220
0.0
230
1.0
 70
     8
 71
     3
 72
    18
 73
    14
 74
     0
 42
0.000000001
 43
0.00000001
 40
0.0
 40
0.0
 40
0.0
 40
0.0
 40
0.2500000000000012
 40
0.2500000000000012
 40
0.3750000000000014
 40
0.3750000000000014
 40
0.5000000000000016
 40
0.5000000000000016
 40
0.625000000000002
 40
0.625000000000002
 40
0.7500000000000026
 40
0.7500000000000026
 40
1.0
 40
1.0
 40
1.0
 40
1.0
 10
201.8720672542283
 20
138.3668556546646
 30
0.0
 10
202.2762609971078
 20
138.3115589362734
 30
0.0
 10
202.6760202252006
 20
138.244323289129
 30
0.0
 10
203.2550393872969
 20
138.0611014761
 30
0.0
 10
203.4449886879401
 20
137.9855052874749
 30
0.0
 10
203.8009884301382
 20
137.7984932749296
 30
0.0
 10
203.9694842748935
 20
137.6856948066472
 30
0.0
 10
204.2764870184007
 20
137.4184525468916
 30
0.0
 10
204.4107672261229
 20
137.2682064420152
 30
0.0
 10
204.6481052089384
 20
136.9404228520715
 30
0.0
 10
204.7515120457657
 20
136.7618639797172
 30
0.0
 10
205.0167154253394
 20
136.2136590460517
 30
0.0
 10
205.1350288893905
 20
135.8240425104372
 30
0.0
 10
205.2454670307649
 20
135.4311874144685
 30
0.0
  0
SPLINE
  5
193
330
1F
100
AcDbEntity
  8
0
  6
Continuous
 62
     8
370
    18
100
AcDbSpline
210
0.0
220
0.0
230
1.0
 70
     8
 71
     3
 72
     8
 73
     4
 74
     0
 42
0.000000001
 43
0.00000001
 40
0.0
 40
0.0
 40
0.0
 40
0.0
 40
1.0
 40
1.0
 40
1.0
 40
1.0
 10
199.6722579172528
 20
138.5135256285
 30
0.0
 10
200.4109484625164
 20
138.5135257617105
 30
0.0
 10
201.1443161184249
 20
138.466417437398
 30
0.0
 10
201.8720672542269
 20
138.3668556546641
 30
0.0
  0
SPLINE
  5
194
330
1F
100
AcDbEntity
  8
0
  6
Continuous
 62
     8
370
    18
100
AcDbSpline
210
0.0
220
0.0
230
1.0
 70
     8
 71
     3
 72
     8
 73
     4
 74
     0
 42
0.000000001
 43
0.00000001
 40
0.0
 40
0.0
 40
0.0
 40
0.0
 40
1.0
 40
1.0
 40
1.0
 40
1.0
 10
197.4724496763304
 20
138.3668556501821
 30
0.0
 10
198.200200497501
 20
138.4664166775347
 30
0.0
 10
198.9335677558562
 20
138.5135254952904
 30
0.0
 10
199.6722579172503
 20
138.5135256285
 30
0.0
  0
SPLINE
  5
195
330
1F
100
AcDbEntity
  8
0
  6
Continuous
 62
     8
370
    18
100
AcDbSpline
210
0.0
220
0.0
230
1.0
 70
     8
 71
     3
 72
    18
 73
    14
 74
     0
 42
0.000000001
 43
0.00000001
 40
0.0
 40
0.0
 40
0.0
 40
0.0
 40
0.2500000000000032
 40
0.2500000000000032
 40
0.3750000000000027
 40
0.3750000000000027
 40
0.5000000000000023
 40
0.5000000000000023
 40
0.6250000000000019
 40
0.6250000000000019
 40
0.7500000000000012
 40
0.7500000000000012
 40
1.0
 40
1.0
 40
1.0
 40
1.0
 10
194.0990490590545
 20
135.4311872692368
 30
0.0
 10
194.2096452298753
 20
135.8246056778878
 30
0.0
 10
194.328111553581
 20
136.214875093353
 30
0.0
 10
194.5944943592323
 20
136.764658909199
 30
0.0
 10
194.6979219234723
 20
136.9428153770428
 30
0.0
 10
194.9353417643766
 20
137.2700988996198
 30
0.0
 10
195.0709279383433
 20
137.4214317161878
 30
0.0
 10
195.3785266868465
 20
137.6882720211324
 30
0.0
 10
195.5456009660205
 20
137.7997889455622
 30
0.0
 10
195.9021436885951
 20
137.9866674215576
 30
0.0
 10
196.0925770547334
 20
138.0622099263851
 30
0.0
 10
196.6698304196678
 20
138.2444802788281
 30
0.0
 10
197.0688499890096
 20
138.3116405980811
 30
0.0
 10
197.4724496763295
 20
138.366855650184
 30
0.0
  0
SPLINE
  5
196
330
1F
100
AcDbEntity
  8
0
  6
Continuous
 62
     8
370
    18
100
AcDbSpline
210
0.0
220
0.0
230
1.0
 70
     8
 71
     3
 72
    14
 73
    10
 74
     0
 42
0.000000001
 43
0.00000001
 40
0.0
 40
0.0
 40
0.0
 40
0.0
 40
0.2499999999999994
 40
0.2499999999999994
 40
0.4999999999999997
 40
0.4999999999999997
 40
0.7499999999999999
 40
0.7499999999999999
 40
1.0
 40
1.0
 40
1.0
 40
1.0
 10
189.2060656442904
 20
110.5934800464054
 30
0.0
 10
189.4849264976991
 20
112.6872371623409
 30
0.0
 10
189.8004182766435
 20
114.7749547505201
 30
0.0
 10
190.4864069129385
 20
118.9400278098024
 30
0.0
 10
190.8574440858464
 20
121.017864967348
 30
0.0
 10
191.6570556396751
 20
125.1630549371626
 30
0.0
 10
192.0854996285418
 20
127.2296231662956
 30
0.0
 10
193.0217933402693
 20
131.3463004865084
 30
0.0
 10
193.5279055837552
 20
133.3972962182248
 30
0.0
 10
194.0990381680707
 20
135.4311457482609
 30
0.0
  0
SPLINE
  5
197
330
1F
100
AcDbEntity
  8
0
  6
Continuous
 62
     8
370
    18
100
AcDbSpline
210
0.0
220
0.0
230
1.0
 70
     8
 71
     3
 72
     8
 73
     4
 74
     0
 42
0.000000001
 43
0.00000001
 40
0.0
 40
0.0
 40
0.0
 40
0.0
 40
0.000057756153491
 40
0.000057756153491
 40
0.000057756153491
 40
0.000057756153491
 10
189.1984558077837
 20
110.5364022689185
 30
0.0
 10
189.2009884652725
 20
110.5554408373423
 30
0.0
 10
189.2035243178047
 20
110.5744788957948
 30
0.0
 10
189.2060631389293
 20
110.5935164825345
 30
0.0
  0
SPLINE
  5
198
330
1F
100
AcDbEntity
  8
0
  6
Continuous
 62
     8
370
    18
100
AcDbSpline
210
0.0
220
0.0
230
1.0
 70
     8
 71
     3
 72
    26
 73
    22
 74
     0
 42
0.000000001
 43
0.00000001
 40
0.0
 40
0.0
 40
0.0
 40
0.0
 40
0.2500000000000029
 40
0.2500000000000029
 40
0.3750000000000036
 40
0.3750000000000036
 40
0.4375000000000039
 40
0.4375000000000039
 40
0.5000000000000042
 40
0.5000000000000042
 40
0.5625000000000044
 40
0.5625000000000044
 40
0.6250000000000048
 40
0.6250000000000048
 40
0.687500000000005
 40
0.687500000000005
 40
0.7500000000000053
 40
0.7500000000000053
 40
0.8750000000000027
 40
0.8750000000000027
 40
1.0
 40
1.0
 40
1.0
 40
1.0
 10
195.2916207453076
 20
102.5554285320293
 30
0.0
 10
194.3031927473045
 20
102.6855066077053
 30
0.0
 10
193.3450327946571
 20
102.8551517753484
 30
0.0
 10
191.9854316225345
 20
103.3449936655109
 30
0.0
 10
191.5551871932582
 20
103.5446304694275
 30
0.0
 10
190.9577143567257
 20
103.9271157867662
 30
0.0
 10
190.7651320702992
 20
104.0698687129267
 30
0.0
 10
190.4054494807862
 20
104.3856832767738
 30
0.0
 10
190.2396464349706
 20
104.5573295941498
 30
0.0
 10
189.9381153282503
 20
104.93156146566
 30
0.0
 10
189.8013816273336
 20
105.1360686331836
 30
0.0
 10
189.5638696504512
 20
105.5689947434103
 30
0.0
 10
189.4639211810837
 20
105.7949964244242
 30
0.0
 10
189.2963906436457
 20
106.2638516227084
 30
0.0
 10
189.2284672933886
 20
106.5084264149806
 30
0.0
 10
189.1229116355018
 20
107.0044888667718
 30
0.0
 10
189.0854369779308
 20
107.2538206344522
 30
0.0
 10
189.0096374292189
 20
108.004970249002
 30
0.0
 10
189.0080234995959
 20
108.5099551285696
 30
0.0
 10
189.068178923352
 20
109.5254109695808
 30
0.0
 10
189.1313558213486
 20
110.0319962493494
 30
0.0
 10
189.1984558077838
 20
110.5364022689197
 30
0.0
  0
LINE
  5
199
330
1F
100
AcDbEntity
  8
0
  6
Continuous
 62
     8
370
    18
100
AcDbLine
 10
219.6765826795
 20
150.0309763367
 30
0.0
 11
179.6679334495
 21
150.0309763367
 31
0.0
  0
SPLINE
  5
19A
330
1F
100
AcDbEntity
  8
0
  6
Continuous
 62
     8
370
    18
100
AcDbSpline
210
0.0
220
0.0
230
1.0
 70
     8
 71
     3
 72
    20
 73
    16
 74
     0
 42
0.000000001
 43
0.00000001
 40
0.0
 40
0.0
 40
0.0
 40
0.0
 40
0.125
 40
0.125
 40
0.2500000000000001
 40
0.2500000000000001
 40
0.3750000000000001
 40
0.3750000000000001
 40
0.5000000000000001
 40
0.5000000000000001
 40
0.6250000000000001
 40
0.6250000000000001
 40
0.7500000000000002
 40
0.7500000000000002
 40
1.0
 40
1.0
 40
1.0
 40
1.0
 10
197.5449832790531
 20
137.7299225576793
 30
0.0
 10
197.3698556535699
 20
137.7086574261344
 30
0.0
 10
197.1954979432193
 20
137.6823313078626
 30
0.0
 10
196.8490566236258
 20
137.6224310295619
 30
0.0
 10
196.6773558397433
 20
137.5869050115324
 30
0.0
 10
196.338607585372
 20
137.4951608237004
 30
0.0
 10
196.1715438722277
 20
137.4384849635521
 30
0.0
 10
195.8554272732484
 20
137.2924244096599
 30
0.0
 10
195.7033618697784
 20
137.2008240595697
 30
0.0
 10
195.4315849450502
 20
136.9814805041479
 30
0.0
 10
195.3136157943185
 20
136.8546525473851
 30
0.0
 10
195.1044704976937
 20
136.5753009022324
 30
0.0
 10
195.0132840683428
 20
136.4223992245329
 30
0.0
 10
194.777854810028
 20
135.9520423701307
 30
0.0
 10
194.6689162091157
 20
135.6150264172555
 30
0.0
 10
194.5684785527126
 20
135.2771208809135
 30
0.0
  0
SPLINE
  5
19B
330
1F
100
AcDbEntity
  8
0
  6
Continuous
 62
     8
370
    18
100
AcDbSpline
210
0.0
220
0.0
230
1.0
 70
     8
 71
     3
 72
    10
 73
     6
 74
     0
 42
0.000000001
 43
0.00000001
 40
0.0
 40
0.0
 40
0.0
 40
0.0
 40
0.5
 40
0.5
 40
1.0
 40
1.0
 40
1.0
 40
1.0
 10
199.6722576336011
 20
137.8606922465197
 30
0.0
 10
199.3163991816158
 20
137.8606919368085
 30
0.0
 10
198.9604629018121
 20
137.8496839410826
 30
0.0
 10
198.2504005175435
 20
137.8059373003223
 30
0.0
 10
197.8970383017057
 20
137.7726713607141
 30
0.0
 10
197.5449832790472
 20
137.7299225576786
 30
0.0
  0
SPLINE
  5
19C
330
1F
100
AcDbEntity
  8
0
  6
Continuous
 62
     8
370
    18
100
AcDbSpline
210
0.0
220
0.0
230
1.0
 70
     8
 71
     3
 72
    10
 73
     6
 74
     0
 42
0.000000001
 43
0.00000001
 40
0.0
 40
0.0
 40
0.0
 40
0.0
 40
0.5
 40
0.5
 40
1.0
 40
1.0
 40
1.0
 40
1.0
 10
201.7995385370311
 20
137.7299236850354
 30
0.0
 10
201.4474823649959
 20
137.7726703840393
 30
0.0
 10
201.0941224676559
 20
137.8060257505249
 30
0.0
 10
200.3840566871206
 20
137.8497699199188
 30
0.0
 10
200.0280348016546
 20
137.8606923559899
 30
0.0
 10
199.6722576336011
 20
137.8606922465198
 30
0.0
  0
SPLINE
  5
19D
330
1F
100
AcDbEntity
  8
0
  6
Continuous
 62
     8
370
    18
100
AcDbSpline
210
0.0
220
0.0
230
1.0
 70
     8
 71
     3
 72
    20
 73
    16
 74
     0
 42
0.000000001
 43
0.00000001
 40
0.0
 40
0.0
 40
0.0
 40
0.0
 40
0.2499999999999967
 40
0.2499999999999967
 40
0.3749999999999972
 40
0.3749999999999972
 40
0.4999999999999978
 40
0.4999999999999978
 40
0.6249999999999983
 40
0.6249999999999983
 40
0.7499999999999989
 40
0.7499999999999989
 40
0.8749999999999994
 40
0.8749999999999994
 40
1.0
 40
1.0
 40
1.0
 40
1.0
 10
204.7760374990245
 20
135.2771208555492
 30
0.0
 10
204.6755234023272
 20
135.6152676789311
 30
0.0
 10
204.5659538439118
 20
135.9535221539454
 30
0.0
 10
204.3312975358024
 20
136.4222137387264
 30
0.0
 10
204.2421192916781
 20
136.5722710255417
 30
0.0
 10
204.0314297173674
 20
136.8542033000121
 30
0.0
 10
203.9111800655129
 20
136.9832226772653
 30
0.0
 10
203.6385114437249
 20
137.2026277071245
 30
0.0
 10
203.4853890101008
 20
137.2945154699743
 30
0.0
 10
203.1677977554485
 20
137.4404969612845
 30
0.0
 10
203.0032749481539
 20
137.4959429801158
 30
0.0
 10
202.6671593419217
 20
137.5868505773462
 30
0.0
 10
202.4952253958693
 20
137.6224703097182
 30
0.0
 10
202.1486031941045
 20
137.682389817782
 30
0.0
 10
201.9743708641861
 20
137.7086955247098
 30
0.0
 10
201.7995385370394
 20
137.7299236850361
 30
0.0
  0
ARC
  5
19E
330
1F
100
AcDbEntity
  8
0
  6
Continuous
 62
     8
370
    18
100
AcDbCircle
 10
193.5324594149
 20
138.9797750251
 30
0.0
 40
8.361024082120574
100
AcDbArc
 50
351.4028965153
 51
354.8685438839
  0
SPLINE
  5
19F
330
1F
100
AcDbEntity
  8
0
  6
Continuous
 62
     8
370
    18
100
AcDbSpline
210
0.0
220
0.0
230
1.0
 70
     8
 71
     3
 72
    18
 73
    14
 74
     0
 42
0.000000001
 43
0.00000001
 40
0.0
 40
0.0
 40
0.0
 40
0.0
 40
0.2500000000000003
 40
0.2500000000000003
 40
0.3750000000000004
 40
0.3750000000000004
 40
0.5000000000000006
 40
0.5000000000000006
 40
0.6250000000000007
 40
0.6250000000000007
 40
0.7500000000000006
 40
0.7500000000000006
 40
1.0
 40
1.0
 40
1.0
 40
1.0
 10
205.1278861623823
 20
135.3904536129447
 30
0.0
 10
205.0202846729255
 20
135.7721781830151
 30
0.0
 10
204.9057994800521
 20
136.1513194253944
 30
0.0
 10
204.6473817805889
 20
136.6872292897805
 30
0.0
 10
204.5484303440095
 20
136.8583710977287
 30
0.0
 10
204.3186591664235
 20
137.1755866787153
 30
0.0
 10
204.1849674252561
 20
137.3240199477693
 30
0.0
 10
203.888179081383
 20
137.5787870351876
 30
0.0
 10
203.7260572352351
 20
137.6854919607218
 30
0.0
 10
203.3784624071856
 20
137.8644716217077
 30
0.0
 10
203.1939122959285
 20
137.9361402599617
 30
0.0
 10
202.6358166755101
 20
138.1100070464738
 30
0.0
 10
202.2501485467914
 20
138.1774011234924
 30
0.0
 10
201.8599734410333
 20
138.2319538110258
 30
0.0
  0
SPLINE
  5
1A0
330
1F
100
AcDbEntity
  8
0
  6
Continuous
 62
     8
370
    18
100
AcDbSpline
210
0.0
220
0.0
230
1.0
 70
     8
 71
     3
 72
     8
 73
     4
 74
     0
 42
0.000000001
 43
0.00000001
 40
0.0
 40
0.0
 40
0.0
 40
0.0
 40
1.0
 40
1.0
 40
1.0
 40
1.0
 10
204.7760637575373
 20
135.2771291651526
 30
0.0
 10
204.9259882210874
 20
135.321934357583
 30
0.0
 10
205.0491890584712
 20
135.3616559857249
 30
0.0
 10
205.1278865794403
 20
135.3904537655588
 30
0.0
  0
SPLINE
  5
1A1
330
1F
100
AcDbEntity
  8
0
  6
Continuous
 62
     8
370
    18
100
AcDbSpline
210
0.0
220
0.0
230
1.0
 70
     8
 71
     3
 72
     8
 73
     4
 74
     0
 42
0.000000001
 43
0.00000001
 40
0.0
 40
0.0
 40
0.0
 40
0.0
 40
1.0
 40
1.0
 40
1.0
 40
1.0
 10
194.5684521120468
 20
135.2771292483919
 30
0.0
 10
194.418527450076
 20
135.3219343197477
 30
0.0
 10
194.2953265597617
 20
135.36165604708
 30
0.0
 10
194.2166291154429
 20
135.3904538901781
 30
0.0
  0
SPLINE
  5
1A2
330
1F
100
AcDbEntity
  8
0
  6
Continuous
 62
     8
370
    18
100
AcDbSpline
210
0.0
220
0.0
230
1.0
 70
     8
 71
     3
 72
    18
 73
    14
 74
     0
 42
0.000000001
 43
0.00000001
 40
0.0
 40
0.0
 40
0.0
 40
0.0
 40
0.2500000000000022
 40
0.2500000000000022
 40
0.3750000000000026
 40
0.3750000000000026
 40
0.5000000000000029
 40
0.5000000000000029
 40
0.6250000000000032
 40
0.6250000000000032
 40
0.7500000000000036
 40
0.7500000000000036
 40
1.0
 40
1.0
 40
1.0
 40
1.0
 10
197.4845433605897
 20
138.2319539199312
 30
0.0
 10
197.0929525123247
 20
138.177203176633
 30
0.0
 10
196.7053902865821
 20
138.1096281638769
 30
0.0
 10
196.1425086411094
 20
137.9332839766646
 30
0.0
 10
195.959377179357
 20
137.8615282456333
 30
0.0
 10
195.6137192947346
 20
137.6825404402708
 30
0.0
 10
195.448274832586
 20
137.5729523345587
 30
0.0
 10
195.1522159722478
 20
137.316581562029
 30
0.0
 10
195.022441632247
 20
137.1715223788953
 30
0.0
 10
194.7929306046101
 20
136.8533457715334
 30
0.0
 10
194.6935205863361
 20
136.6803690987157
 30
0.0
 10
194.4385555423144
 20
136.1496907657454
 30
0.0
 10
194.3239695396234
 20
135.7712493150327
 30
0.0
 10
194.2166299572465
 20
135.3904535821368
 30
0.0
  0
ARC
  5
1A3
330
1F
100
AcDbEntity
  8
0
  6
Continuous
 62
     8
370
    18
100
AcDbCircle
 10
205.8128113327
 20
138.9799463056
 30
0.0
 40
8.36179030068309
100
AcDbArc
 50
185.132162996
 51
188.5974967052
  0
ARC
  5
1A4
330
1F
100
AcDbEntity
  8
0
  6
Continuous
 62
     8
370
    18
100
AcDbCircle
 10
189.1291881679
 20
110.0361317309
 30
0.0
 40
0.5050412774559203
100
AcDbArc
 50
71.439727689
 51
82.1169460006
  0
LINE
  5
1A5
330
1F
100
AcDbEntity
  8
0
  6
Continuous
 62
     8
370
    18
100
AcDbLine
 10
219.2300898734
 20
97.8168288137
 30
0.0
 11
180.1144262556
 21
97.8168288137
 31
0.0
  0
LWPOLYLINE
  5
1A6
330
1F
100
AcDbEntity
  8
0
  6
Continuous
 62
     8
370
    18
100
AcDbPolyline
 90
        9
 70
   128
 43
0.0
 10
199.6722579406
 20
138.3812429274
 10
199.6722578172
 20
138.325300243
 10
199.6722576952
 20
138.2660793032
 10
199.6722575752
 20
138.2039042081
 10
199.6722574577
 20
138.139099058
 10
199.6722573435
 20
138.0720140304
 10
199.6722572331
 20
138.0030030276
 10
199.6722571272
 20
137.9324385787
 10
199.6722570263
 20
137.8606932129
  0
SPLINE
  5
1A7
330
1F
100
AcDbEntity
  8
0
  6
Continuous
 62
     8
370
    18
100
AcDbSpline
210
0.0
220
0.0
230
1.0
 70
     8
 71
     3
 72
     8
 73
     4
 74
     0
 42
0.000000001
 43
0.00000001
 40
0.0
 40
0.0
 40
0.0
 40
0.0
 40
1.0
 40
1.0
 40
1.0
 40
1.0
 10
201.8599734410336
 20
138.2319538110265
 30
0.0
 10
201.1375573134682
 20
138.3329590794049
 30
0.0
 10
200.4055920599648
 20
138.3812425657415
 30
0.0
 10
199.6722579405777
 20
138.3812425877369
 30
0.0
  0
SPLINE
  5
1A8
330
1F
100
AcDbEntity
  8
0
  6
Continuous
 62
     8
370
    18
100
AcDbSpline
210
0.0
220
0.0
230
1.0
 70
     8
 71
     3
 72
     8
 73
     4
 74
     0
 42
0.000000001
 43
0.00000001
 40
0.0
 40
0.0
 40
0.0
 40
0.0
 40
1.0
 40
1.0
 40
1.0
 40
1.0
 10
199.6722579405777
 20
138.3812425877371
 30
0.0
 10
198.9389366550634
 20
138.3812426097358
 30
0.0
 10
198.2069469095424
 20
138.3329576370554
 30
0.0
 10
197.4845433605897
 20
138.2319539199312
 30
0.0
  0
ARC
  5
1A9
330
1F
100
AcDbEntity
  8
0
  6
Continuous
 62
     8
370
    18
100
AcDbCircle
 10
193.7506441246
 20
134.2340897892
 30
0.0
 40
1.24674622026599
100
AcDbArc
 50
68.0519283118
 51
73.7727773127
  0
SPLINE
  5
1AA
330
1F
100
AcDbEntity
  8
0
  6
Continuous
 62
     8
370
    18
100
AcDbSpline
210
0.0
220
0.0
230
1.0
 70
     8
 71
     3
 72
    14
 73
    10
 74
     0
 42
0.000000001
 43
0.00000001
 40
0.0
 40
0.0
 40
0.0
 40
0.0
 40
0.25
 40
0.25
 40
0.5
 40
0.5
 40
0.75
 40
0.75
 40
1.0
 40
1.0
 40
1.0
 40
1.0
 10
194.216629115443
 20
135.3904538901787
 30
0.0
 10
193.6436868720202
 20
133.3573235096043
 30
0.0
 10
193.1373051538146
 20
131.306684654494
 30
0.0
 10
192.1970739009495
 20
127.189931869545
 30
0.0
 10
191.7659523710343
 20
125.1250530408045
 30
0.0
 10
190.9612963959357
 20
120.9852928521335
 30
0.0
 10
190.587793569872
 20
118.910389516039
 30
0.0
 10
189.8968116310878
 20
114.7501042998678
 30
0.0
 10
189.5788532053545
 20
112.6648527695794
 30
0.0
 10
189.2976123076116
 20
110.5719594254796
 30
0.0
  0
SPLINE
  5
1AB
330
1F
100
AcDbEntity
  8
0
  6
Continuous
 62
     8
370
    18
100
AcDbSpline
210
0.0
220
0.0
230
1.0
 70
     8
 71
     3
 72
     8
 73
     4
 74
     0
 42
0.000000001
 43
0.00000001
 40
0.0
 40
0.0
 40
0.0
 40
0.0
 40
1.0
 40
1.0
 40
1.0
 40
1.0
 10
189.297605702718
 20
110.5719450629055
 30
0.0
 10
189.2869208350121
 20
110.5771910577007
 30
0.0
 10
189.2528714884816
 20
110.5852065994943
 30
0.0
 10
189.2060603687382
 20
110.5934957099896
 30
0.0
  0
SPLINE
  5
1AC
330
1F
100
AcDbEntity
  8
0
  6
Continuous
 62
     8
370
    18
100
AcDbSpline
210
0.0
220
0.0
230
1.0
 70
     8
 71
     3
 72
     8
 73
     4
 74
     0
 42
0.000000001
 43
0.00000001
 40
0.0
 40
0.0
 40
0.0
 40
0.0
 40
1.0
 40
1.0
 40
1.0
 40
1.0
 10
189.2976137816827
 20
110.5719587198764
 30
0.0
 10
189.3276086265957
 20
110.5576010968424
 30
0.0
 10
189.3931417815292
 20
110.538998775712
 30
0.0
 10
189.4873667661154
 20
110.5180952067363
 30
0.0
  0
ARC
  5
1AD
330
1F
100
AcDbEntity
  8
0
  6
Continuous
 62
     8
370
    18
100
AcDbCircle
 10
205.5930423317
 20
134.2364865324
 30
0.0
 40
1.244190094601605
100
AcDbArc
 50
106.2214214501
 51
111.9540131602
  0
ARC
  5
1AE
330
1F
100
AcDbEntity
  8
0
  6
Continuous
 62
     8
370
    18
100
AcDbCircle
 10
203.2555011421
 20
138.1748375856
 30
0.0
 40
1.396696113622889
100
AcDbArc
 50
172.0979289154
 51
177.6562284856
  0
SPLINE
  5
1AF
330
1F
100
AcDbEntity
  8
0
  6
Continuous
 62
     8
370
    18
100
AcDbSpline
210
0.0
220
0.0
230
1.0
 70
     8
 71
     3
 72
    14
 73
    10
 74
     0
 42
0.000000001
 43
0.00000001
 40
0.0
 40
0.0
 40
0.0
 40
0.0
 40
0.2499999999999993
 40
0.2499999999999993
 40
0.4999999999999996
 40
0.4999999999999996
 40
0.7499999999999998
 40
0.7499999999999998
 40
1.0
 40
1.0
 40
1.0
 40
1.0
 10
210.053391591069
 20
110.523631227956
 30
0.0
 10
209.7722286971754
 20
112.6201596231978
 30
0.0
 10
209.4539178853038
 20
114.7107309135494
 30
0.0
 10
208.7618684607753
 20
118.8813586367463
 30
0.0
 10
208.3877797855644
 20
120.9607908363118
 30
0.0
 10
207.5820152531175
 20
125.1083257377628
 30
0.0
 10
207.1503701656181
 20
127.1764498882333
 30
0.0
 10
206.2093449974387
 20
131.2979906043497
 30
0.0
 10
205.7019993265274
 20
133.3531748435006
 30
0.0
 10
205.1278863157942
 20
135.3904537349927
 30
0.0
  0
LINE
  5
1B0
330
1F
100
AcDbEntity
  8
0
  6
Continuous
 62
     8
370
    18
100
AcDbLine
 10
199.6722579406
 20
138.3812429274
 30
0.0
 11
199.6722579173
 21
138.5135242607
 31
0.0
  0
ARC
  5
1B1
330
1F
100
AcDbEntity
  8
0
  6
Continuous
 62
     8
370
    18
100
AcDbCircle
 10
196.088994043
 20
138.1748380331
 30
0.0
 40
1.396717719627486
100
AcDbArc
 50
2.3437168651
 51
7.9019295318
  0
LINE
  5
1B2
330
1F
100
AcDbEntity
  8
0
  6
Continuous
 62
     8
370
    18
100
AcDbLine
 10
179.6722585116
 20
152.3266119774
 30
0.0
 11
219.6722576175
 21
152.3266119774
 31
0.0
  0
LINE
  5
1B3
330
1F
100
AcDbEntity
  8
0
  6
Continuous
 62
     8
370
    18
100
AcDbLine
 10
218.6826398376
 20
97.7684074904
 30
0.0
 11
180.6618762914
 21
97.7684074904
 31
0.0
  0
SPLINE
  5
1B4
330
1F
100
AcDbEntity
  8
0
  6
Continuous
 62
     8
370
    18
100
AcDbSpline
210
0.0
220
0.0
230
1.0
 70
     8
 71
     3
 72
     8
 73
     4
 74
     0
 42
0.000000001
 43
0.00000001
 40
0.0
 40
0.0
 40
0.0
 40
0.0
 40
0.0000577096167922
 40
0.0000577096167922
 40
0.0000577096167922
 40
0.0000577096167922
 10
189.2976084939249
 20
110.5719658172047
 30
0.0
 10
189.2950506235469
 20
110.5529465234492
 30
0.0
 10
189.2924958077905
 20
110.5339267205077
 30
0.0
 10
189.2899442012985
 20
110.5149064055728
 30
0.0
  0
LINE
  5
1B5
330
1F
100
AcDbEntity
  8
0
  6
Continuous
 62
     7
370
    25
100
AcDbLine
 10
362.6520967358
 20
261.0864745556
 30
0.0
 11
383.7013629512
 21
261.6376685082
 31
0.0
  0
LINE
  5
1B6
330
1F
100
AcDbEntity
  8
0
  6
Continuous
 62
     7
370
    25
100
AcDbLine
 10
383.7013629512
 20
410.4048716008
 30
0.0
 11
360.1620967744
 21
411.0212730347
 31
0.0
  0
ARC
  5
1B7
330
1F
100
AcDbEntity
  8
0
  6
Continuous
 62
     7
370
    25
100
AcDbCircle
 10
383.6620967744
 20
263.137152841
 30
0.0
 40
1.500000000000008
100
AcDbArc
 50
271.5
 51
0.0
  0
ARC
  5
1B8
330
1F
100
AcDbEntity
  8
0
  6
Continuous
 62
     7
370
    25
100
AcDbCircle
 10
383.6620967744
 20
408.9053861498
 30
0.0
 40
1.500000000000057
100
AcDbArc
 50
0.0
 51
88.5
  0
ARC
  5
1B9
330
1F
100
AcDbEntity
  8
0
  6
Continuous
 62
     7
370
    25
100
AcDbCircle
 10
439.7775768225
 20
355.4725455741
 30
0.0
 40
1.000000000000007
100
AcDbArc
 50
6.1168276045
 51
90.5
  0
ARC
  5
1BA
330
1F
100
AcDbEntity
  8
0
  6
Continuous
 62
     7
370
    25
100
AcDbCircle
 10
439.7775768225
 20
316.5699934167
 30
0.0
 40
1.000000000000022
100
AcDbArc
 50
269.5
 51
353.8831723955
  0
LINE
  5
1BB
330
1F
100
AcDbEntity
  8
0
  6
Continuous
 62
     7
370
    25
100
AcDbLine
 10
392.2193118618
 20
356.057548347
 30
0.0
 11
388.5577333407
 21
356.0255946695
 31
0.0
  0
LINE
  5
1BC
330
1F
100
AcDbEntity
  8
0
  6
Continuous
 62
     7
370
    25
100
AcDbLine
 10
393.5925805257
 20
356.0695326059
 30
0.0
 11
392.9604285644
 21
356.0640173136
 31
0.0
  0
LINE
  5
1BD
330
1F
100
AcDbEntity
  8
0
  6
Continuous
 62
     7
370
    25
100
AcDbLine
 10
400.0751854168
 20
356.126106727
 30
0.0
 11
394.9666054235
 21
356.0815243154
 31
0.0
  0
LINE
  5
1BE
330
1F
100
AcDbEntity
  8
0
  6
Continuous
 62
     7
370
    25
100
AcDbLine
 10
439.7688539015
 20
356.4725065707
 30
0.0
 11
436.3068522201
 21
356.4422944664
 31
0.0
  0
LINE
  5
1BF
330
1F
100
AcDbEntity
  8
0
  6
Continuous
 62
     7
370
    25
100
AcDbLine
 10
388.5577333407
 20
316.0169435768
 30
0.0
 11
439.7688539015
 21
315.5700316756
 31
0.0
  0
ARC
  5
1C0
330
1F
100
AcDbEntity
  8
0
  6
Continuous
 62
     7
370
    25
100
AcDbCircle
 10
388.562096774
 20
355.5256138901
 30
0.0
 40
0.5
100
AcDbArc
 50
90.5
 51
180.0
  0
ARC
  5
1C1
330
1F
100
AcDbEntity
  8
0
  6
Continuous
 62
     7
370
    25
100
AcDbCircle
 10
388.562096774
 20
316.5169251007
 30
0.0
 40
0.5
100
AcDbArc
 50
180.0
 51
269.5
  0
LINE
  5
1C2
330
1F
100
AcDbEntity
  8
0
  6
Continuous
 62
     7
370
    25
100
AcDbLine
 10
386.2620977001
 20
356.0212696074
 30
0.0
 11
385.1620958434
 21
356.0212696074
 31
0.0
  0
LINE
  5
1C3
330
1F
100
AcDbEntity
  8
0
  6
Continuous
 62
     7
370
    25
100
AcDbLine
 10
385.1620958434
 20
316.0212686389
 30
0.0
 11
386.2620977001
 21
316.0212686389
 31
0.0
  0
ARC
  5
1C4
330
1F
100
AcDbEntity
  8
0
  6
Continuous
 62
     7
370
    25
100
AcDbCircle
 10
386.262096774
 20
316.5212694954
 30
0.0
 40
0.5
100
AcDbArc
 50
270.0
 51
0.0
  0
ARC
  5
1C5
330
1F
100
AcDbEntity
  8
0
  6
Continuous
 62
     7
370
    25
100
AcDbCircle
 10
386.262096774
 20
355.5212694954
 30
0.0
 40
0.5
100
AcDbArc
 50
0.0
 51
90.0
  0
LINE
  5
1C6
330
1F
100
AcDbEntity
  8
0
  6
Continuous
 62
     7
370
    25
100
AcDbLine
 10
440.7718808637
 20
316.4634382456
 30
0.0
 11
440.7995150672
 21
316.7212693124
 31
0.0
  0
LINE
  5
1C7
330
1F
100
AcDbEntity
  8
0
  6
Continuous
 62
     7
370
    25
100
AcDbLine
 10
440.7995150672
 20
355.3212689339
 30
0.0
 11
440.7718808637
 21
355.5791018634
 31
0.0
  0
ARC
  5
1C8
330
1F
100
AcDbEntity
  8
0
  6
Continuous
 62
     7
370
    25
100
AcDbCircle
 10
440.621475704
 20
355.0100041119
 30
0.0
 40
0.1999999999999801
100
AcDbArc
 50
6.2134057155
 51
27.1024195339
  0
ARC
  5
1C9
330
1F
100
AcDbEntity
  8
0
  6
Continuous
 62
     7
370
    25
100
AcDbCircle
 10
266.2072933164
 20
336.0212694954
 30
0.0
 40
175.6448034575514
100
AcDbArc
 50
354.2856559195
 51
0.0
  0
ARC
  5
1CA
330
1F
100
AcDbEntity
  8
0
  6
Continuous
 62
     7
370
    25
100
AcDbCircle
 10
266.2072933164
 20
336.0212694954
 30
0.0
 40
175.6448034575514
100
AcDbArc
 50
0.0
 51
6.2134057154
  0
LINE
  5
1CB
330
1F
100
AcDbEntity
  8
0
  6
Continuous
 62
     7
370
    25
100
AcDbLine
 10
388.062096505
 20
353.521270129
 30
0.0
 11
386.7620968507
 21
353.521270129
 31
0.0
  0
LINE
  5
1CC
330
1F
100
AcDbEntity
  8
0
  6
Continuous
 62
     7
370
    25
100
AcDbLine
 10
386.7620968507
 20
318.52126998
 30
0.0
 11
388.062096505
 21
318.52126998
 31
0.0
  0
ARC
  5
1CD
330
1F
100
AcDbEntity
  8
0
  6
Continuous
 62
     7
370
    25
100
AcDbCircle
 10
384.7808483138
 20
362.3712803972
 30
0.0
 40
0.5000000000000195
100
AcDbArc
 50
319.6848181752
 51
358.217348702
  0
ARC
  5
1CE
330
1F
100
AcDbEntity
  8
0
  6
Continuous
 62
     7
370
    25
100
AcDbCircle
 10
384.7808483138
 20
385.6712585936
 30
0.0
 40
0.4999999999999762
100
AcDbArc
 50
1.782651298
 51
40.3151818248
  0
ARC
  5
1CF
330
1F
100
AcDbEntity
  8
0
  6
Continuous
 62
     7
370
    25
100
AcDbCircle
 10
10.4620967744
 20
374.0212694954
 30
0.0
 40
375.0000000000001
100
AcDbArc
 50
358.217348702
 51
0.0
  0
ARC
  5
1D0
330
1F
100
AcDbEntity
  8
0
  6
Continuous
 62
     7
370
    25
100
AcDbCircle
 10
10.4620967744
 20
374.0212694954
 30
0.0
 40
375.0000000000001
100
AcDbArc
 50
0.0
 51
1.782651298
  0
SPLINE
  5
1D1
330
1F
100
AcDbEntity
  8
0
  6
Continuous
 62
     7
370
    25
100
AcDbSpline
210
0.0
220
0.0
230
1.0
 70
     8
 71
     3
 72
     9
 73
     5
 74
     0
 42
0.000000001
 43
0.00000001
 40
0.0
 40
0.0
 40
0.0
 40
0.0
 40
0.4969185217960684
 40
1.0
 40
1.0
 40
1.0
 40
1.0
 10
435.6865168796262
 20
356.7800106584066
 30
0.0
 10
434.7020196880574
 20
357.0384965116968
 30
0.0
 10
432.7208152281987
 20
357.5586740497689
 30
0.0
 10
430.6730166173083
 20
357.6109755728571
 30
0.0
 10
429.6428070650776
 20
357.6372875004047
 30
0.0
  0
LINE
  5
1D2
330
1F
100
AcDbEntity
  8
0
  6
Continuous
 62
     7
370
    25
100
AcDbLine
 10
428.8024784313
 20
360.2079352467
 30
0.0
 11
428.7910492407
 21
360.3880101918
 31
0.0
  0
SPLINE
  5
1D3
330
1F
100
AcDbEntity
  8
0
  6
Continuous
 62
     7
370
    25
100
AcDbSpline
210
0.0
220
0.0
230
1.0
 70
     8
 71
     3
 72
     9
 73
     5
 74
     0
 42
0.000000001
 43
0.00000001
 40
0.0
 40
0.0
 40
0.0
 40
0.0
 40
0.4727405847782597
 40
1.0
 40
1.0
 40
1.0
 40
1.0
 10
402.6876011179169
 20
356.5861521392101
 30
0.0
 10
402.3773760212912
 20
356.5783011073303
 30
0.0
 10
401.7211491040038
 20
356.5616936229456
 30
0.0
 10
401.0711438901366
 20
356.4694578160276
 30
0.0
 10
400.7284225211819
 20
356.4208256184095
 30
0.0
  0
ARC
  5
1D4
330
1F
100
AcDbEntity
  8
0
  6
Continuous
 62
     7
370
    25
100
AcDbCircle
 10
440.621475704
 20
317.1969620656
 30
0.0
 40
0.2000000000000063
100
AcDbArc
 50
332.8975804661
 51
353.3465317609
  0
SPLINE
  5
1D5
330
1F
100
AcDbEntity
  8
0
  6
Continuous
 62
     7
370
    25
100
AcDbSpline
210
0.0
220
0.0
230
1.0
 70
     8
 71
     3
 72
    10
 73
     6
 74
     0
 42
0.000000001
 43
0.00000001
 40
0.0
 40
0.0
 40
0.0
 40
0.0
 40
0.342128245087133
 40
0.8100585687735584
 40
1.0
 40
1.0
 40
1.0
 40
1.0
 10
440.9256981001576
 20
318.0767273633712
 30
0.0
 10
440.9372364724155
 20
318.1754225147992
 30
0.0
 10
440.9645559277701
 20
318.4091034641468
 30
0.0
 10
440.9788443284869
 20
318.5314624241943
 30
0.0
 10
440.9803465263496
 20
318.5442912580524
 30
0.0
 10
440.9807802425107
 20
318.5479952125781
 30
0.0
  0
SPLINE
  5
1D6
330
1F
100
AcDbEntity
  8
0
  6
Continuous
 62
     7
370
    25
100
AcDbSpline
210
0.0
220
0.0
230
1.0
 70
     8
 71
     3
 72
    10
 73
     6
 74
     0
 42
0.000000001
 43
0.00000001
 40
0.0
 40
0.0
 40
0.0
 40
0.0
 40
0.1627190847180499
 40
0.8206503618820453
 40
1.0
 40
1.0
 40
1.0
 40
1.0
 10
440.8317313776692
 20
317.2730965643161
 30
0.0
 10
440.8382014089578
 20
317.3283958754764
 30
0.0
 10
440.8708320836423
 20
317.6072900186815
 30
0.0
 10
440.9040868819565
 20
317.8917839736366
 30
0.0
 10
440.9218855409632
 20
318.0441004371881
 30
0.0
 10
440.9256981001576
 20
318.0767273633712
 30
0.0
  0
LINE
  5
1D7
330
1F
100
AcDbEntity
  8
0
  6
Continuous
 62
     7
370
    25
100
AcDbLine
 10
392.9603391574
 20
356.0740159928
 30
0.0
 11
392.2192261801
 21
356.0675488888
 31
0.0
  0
LINE
  5
1D8
330
1F
100
AcDbEntity
  8
0
  6
Continuous
 62
     7
370
    25
100
AcDbLine
 10
394.9458890842
 20
356.0913441806
 30
0.0
 11
393.592494844
 21
356.0795331477
 31
0.0
  0
ELLIPSE
  5
1D9
330
1F
100
AcDbEntity
  8
0
  6
Continuous
 62
     7
370
    25
100
AcDbEllipse
 10
-336.7134166036
 20
336.0212694954
 30
0.0
 11
1779.284083631739
 21
-6.309619493549690E-12
 31
0.0
210
0.0
220
0.0
230
1.0
 40
0.0453968373
 41
5.114824691439262
 42
5.116346132876854
  0
LINE
  5
1DA
330
1F
100
AcDbEntity
  8
0
  6
Continuous
 62
     7
370
    25
100
AcDbLine
 10
362.6520967358
 20
261.7486598073
 30
0.0
 11
362.6520967358
 21
261.0864745556
 31
0.0
  0
LINE
  5
1DB
330
1F
100
AcDbEntity
  8
0
  6
Continuous
 62
     7
370
    25
100
AcDbLine
 10
360.1620967744
 20
261.7004471003
 30
0.0
 11
360.1620967744
 21
411.0212730347
 31
0.0
  0
LINE
  5
1DC
330
1F
100
AcDbEntity
  8
0
  6
Continuous
 62
     7
370
    25
100
AcDbLine
 10
385.1620958434
 20
408.905382651
 30
0.0
 11
385.1620958434
 21
263.1371500074
 31
0.0
  0
LWPOLYLINE
  5
1DD
330
1F
100
AcDbEntity
  8
0
  6
Continuous
 62
     7
370
    25
100
AcDbPolyline
 90
        3
 70
   128
 43
0.0
 10
394.0081105815
 20
350.2784887432
 10
393.6958940016
 20
350.2746563508
 10
393.1081735776
 20
350.2674404635
  0
SPLINE
  5
1DE
330
1F
100
AcDbEntity
  8
0
  6
Continuous
 62
     7
370
    25
100
AcDbSpline
210
0.0
220
0.0
230
1.0
 70
     8
 71
     3
 72
    14
 73
    10
 74
     0
 42
0.000000001
 43
0.00000001
 40
0.0
 40
0.0
 40
0.0
 40
0.0
 40
0.2499999999999994
 40
0.2499999999999994
 40
0.4999999999999997
 40
0.4999999999999997
 40
0.7499999999999999
 40
0.7499999999999999
 40
1.0
 40
1.0
 40
1.0
 40
1.0
 10
427.9952296310138
 20
353.4717683179308
 30
0.0
 10
425.9014725150782
 20
353.6177128513855
 30
0.0
 10
423.813754926899
 20
353.7770467286878
 30
0.0
 10
419.6486818676167
 20
354.1006971108405
 30
0.0
 10
417.5708447100711
 20
354.2655063414492
 30
0.0
 10
413.4256547402566
 20
354.5912816120968
 30
0.0
 10
411.3590865111236
 20
354.752483648475
 30
0.0
 10
407.2424091909107
 20
355.0669582669706
 30
0.0
 10
405.1914134591943
 20
355.2201211218182
 30
0.0
 10
403.1575639291582
 20
355.3661918328429
 30
0.0
  0
SPLINE
  5
1DF
330
1F
100
AcDbEntity
  8
0
  6
Continuous
 62
     7
370
    25
100
AcDbSpline
210
0.0
220
0.0
230
1.0
 70
     8
 71
     3
 72
    16
 73
    12
 74
     0
 42
0.000000001
 43
0.00000001
 40
0.0
 40
0.0
 40
0.0
 40
0.0
 40
0.1249999999999998
 40
0.1249999999999998
 40
0.2499999999999997
 40
0.2499999999999997
 40
0.4999999999999998
 40
0.4999999999999998
 40
0.7499999999999999
 40
0.7499999999999999
 40
1.0
 40
1.0
 40
1.0
 40
1.0
 10
391.6636297055493
 20
355.9910152577285
 30
0.0
 10
391.6652275682893
 20
355.9865025697962
 30
0.0
 10
391.6685984566128
 20
355.9817775073424
 30
0.0
 10
391.6898616529695
 20
355.9721899912502
 30
0.0
 10
391.7068598694152
 20
355.9672411896385
 30
0.0
 10
391.7745790400864
 20
355.9526834151613
 30
0.0
 10
391.8430221402941
 20
355.9433713215257
 30
0.0
 10
392.0107485311684
 20
355.9277226702312
 30
0.0
 10
392.1129716346246
 20
355.9218238080784
 30
0.0
 10
392.3248701189183
 20
355.9135093337954
 30
0.0
 10
392.4377774758545
 20
355.9114321407006
 30
0.0
 10
392.551607660501
 20
355.9100232536224
 30
0.0
  0
ELLIPSE
  5
1E0
330
1F
100
AcDbEntity
  8
0
  6
Continuous
 62
     7
370
    25
100
AcDbEllipse
 10
393.0342763997
 20
336.0197430263
 30
0.0
 11
-0.1776924696274023
 21
20.04336732158328
 31
0.0
210
0.0
220
0.0
230
1.0
 40
0.1249951633
 41
0.103809121193401
 42
0.1225700517412412
  0
SPLINE
  5
1E1
330
1F
100
AcDbEntity
  8
0
  6
Continuous
 62
     7
370
    25
100
AcDbSpline
210
0.0
220
0.0
230
1.0
 70
     8
 71
     3
 72
    16
 73
    12
 74
     0
 42
0.000000001
 43
0.00000001
 40
0.0
 40
0.0
 40
0.0
 40
0.0
 40
0.1249999999999997
 40
0.1249999999999997
 40
0.2499999999999993
 40
0.2499999999999993
 40
0.4999999999999996
 40
0.4999999999999996
 40
0.7499999999999998
 40
0.7499999999999998
 40
1.0
 40
1.0
 40
1.0
 40
1.0
 10
392.0371820326317
 20
355.9950860071753
 30
0.0
 10
392.0390422571925
 20
355.9976834761981
 30
0.0
 10
392.0409421439028
 20
356.0001969982329
 30
0.0
 10
392.0541382374108
 20
356.0050000725884
 30
0.0
 10
392.0651161718656
 20
356.0073042022275
 30
0.0
 10
392.109534264973
 20
356.0138760158686
 30
0.0
 10
392.1525998590377
 20
356.0175234235131
 30
0.0
 10
392.2556890089098
 20
356.0235468909567
 30
0.0
 10
392.3162867686649
 20
356.0258392289802
 30
0.0
 10
392.4436963490979
 20
356.0290653107286
 30
0.0
 10
392.5112991596778
 20
356.0299151877016
 30
0.0
 10
392.578282121455
 20
356.0306578799144
 30
0.0
  0
SPLINE
  5
1E2
330
1F
100
AcDbEntity
  8
0
  6
Continuous
 62
     7
370
    25
100
AcDbSpline
210
0.0
220
0.0
230
1.0
 70
     8
 71
     3
 72
    12
 73
     8
 74
     0
 42
0.000000001
 43
0.00000001
 40
0.0
 40
0.0
 40
0.0
 40
0.0
 40
0.2674511063948683
 40
0.4626266273539856
 40
0.6571305388004215
 40
0.861894978779378
 40
1.0
 40
1.0
 40
1.0
 40
1.0
 10
392.5782808349808
 20
356.0306573390001
 30
0.0
 10
392.6587381661127
 20
356.0310268349463
 30
0.0
 10
392.7979101600116
 20
356.0316659748091
 30
0.0
 10
392.9690307392421
 20
356.0271185735405
 30
0.0
 10
393.0855418851506
 20
356.0194864369289
 30
0.0
 10
393.1485489626922
 20
356.0093820951165
 30
0.0
 10
393.1552300263394
 20
356.0010966215279
 30
0.0
 10
393.1579211042603
 20
355.9977593003744
 30
0.0
  0
ELLIPSE
  5
1E3
330
1F
100
AcDbEntity
  8
0
  6
Continuous
 62
     7
370
    25
100
AcDbEllipse
 10
391.8287753864
 20
336.0197438275
 30
0.0
 11
181.5548934226617
 21
-0.01952645293062005
 31
0.0
210
0.0
220
0.0
230
1.0
 40
0.109994876
 41
1.561155661206941
 42
1.563486769769055
  0
SPLINE
  5
1E4
330
1F
100
AcDbEntity
  8
0
  6
Continuous
 62
     7
370
    25
100
AcDbSpline
210
0.0
220
0.0
230
1.0
 70
     8
 71
     3
 72
    12
 73
     8
 74
     0
 42
0.000000001
 43
0.00000001
 40
0.0
 40
0.0
 40
0.0
 40
0.0
 40
0.1560166749638116
 40
0.359597717458227
 40
0.5851509804272524
 40
0.8090307208945905
 40
1.0
 40
1.0
 40
1.0
 40
1.0
 10
393.5390630052765
 20
356.0130423038238
 30
0.0
 10
393.5442526240099
 20
356.0168108360531
 30
0.0
 10
393.5562140060316
 20
356.025496802397
 30
0.0
 10
393.6646165557121
 20
356.0363840821109
 30
0.0
 10
393.831324164056
 20
356.0450574888231
 30
0.0
 10
394.0307893789143
 20
356.050139074667
 30
0.0
 10
394.1647420968524
 20
356.0515801548412
 30
0.0
 10
394.2264051423749
 20
356.0522435336345
 30
0.0
  0
SPLINE
  5
1E5
330
1F
100
AcDbEntity
  8
0
  6
Continuous
 62
     7
370
    25
100
AcDbSpline
210
0.0
220
0.0
230
1.0
 70
     8
 71
     3
 72
    18
 73
    14
 74
     0
 42
0.000000001
 43
0.00000001
 40
0.0
 40
0.0
 40
0.0
 40
0.0
 40
0.1249999999999999
 40
0.1249999999999999
 40
0.2499999999999999
 40
0.2499999999999999
 40
0.4999999999999998
 40
0.4999999999999998
 40
0.7499999999999997
 40
0.7499999999999997
 40
0.8749999999999998
 40
0.8749999999999998
 40
1.0
 40
1.0
 40
1.0
 40
1.0
 10
394.2264042176774
 20
356.0522426988197
 30
0.0
 10
394.27107051932
 20
356.0525837441803
 30
0.0
 10
394.3157021464164
 20
356.0529151246232
 30
0.0
 10
394.4036453521935
 20
356.0531843272177
 30
0.0
 10
394.4469434193574
 20
356.0531171095466
 30
0.0
 10
394.5758354090188
 20
356.0525812763004
 30
0.0
 10
394.6587617673757
 20
356.0513528855607
 30
0.0
 10
394.8020812395249
 20
356.0466983411636
 30
0.0
 10
394.8656677661646
 20
356.0434325661831
 30
0.0
 10
394.932631533625
 20
356.0364116279769
 30
0.0
 10
394.95077839143
 20
356.0337186266863
 30
0.0
 10
394.9730779788318
 20
356.0277448887223
 30
0.0
 10
394.978065952256
 20
356.0244286797945
 30
0.0
 10
394.9789611475994
 20
356.0208935864479
 30
0.0
  0
ELLIPSE
  5
1E6
330
1F
100
AcDbEntity
  8
0
  6
Continuous
 62
     7
370
    25
100
AcDbEllipse
 10
394.1902715243
 20
336.019742258
 30
0.0
 11
-0.1777819055953955
 21
20.05345552600591
 31
0.0
210
0.0
220
0.0
230
1.0
 40
0.1249951633
 41
6.158312871441129
 42
6.177064558794869
  0
SPLINE
  5
1E7
330
1F
100
AcDbEntity
  8
0
  6
Continuous
 62
     7
370
    25
100
AcDbSpline
210
0.0
220
0.0
230
1.0
 70
     8
 71
     3
 72
    20
 73
    16
 74
     0
 42
0.000000001
 43
0.00000001
 40
0.0
 40
0.0
 40
0.0
 40
0.0
 40
0.1249999999999974
 40
0.1249999999999974
 40
0.2499999999999947
 40
0.2499999999999947
 40
0.3749999999999921
 40
0.3749999999999921
 40
0.4999999999999895
 40
0.4999999999999895
 40
0.7499999999999946
 40
0.7499999999999946
 40
0.8749999999999973
 40
0.8749999999999973
 40
1.0
 40
1.0
 40
1.0
 40
1.0
 10
394.326064457984
 20
355.9198205140324
 30
0.0
 10
394.3901215921973
 20
355.9211345560494
 30
0.0
 10
394.4539734882289
 20
355.9225499541453
 30
0.0
 10
394.578902198711
 20
355.9267243239346
 30
0.0
 10
394.6402980154446
 20
355.9293249775336
 30
0.0
 10
394.7610060782286
 20
355.9354635045935
 30
0.0
 10
394.8209201881087
 20
355.9390813517492
 30
0.0
 10
394.9325666217677
 20
355.9474469063799
 30
0.0
 10
394.9848698301336
 20
355.9521279455234
 30
0.0
 10
395.1327532081446
 20
355.9671892418204
 30
0.0
 10
395.214777846906
 20
355.9786067924314
 30
0.0
 10
395.2994468567548
 20
355.996227224429
 30
0.0
 10
395.319172385487
 20
356.0020532626218
 30
0.0
 10
395.3463889945007
 20
356.013214100876
 30
0.0
 10
395.3508466332869
 20
356.0186323110591
 30
0.0
 10
395.3525244431126
 20
356.0237074782125
 30
0.0
  0
SPLINE
  5
1E8
330
1F
100
AcDbEntity
  8
0
  6
Continuous
 62
     7
370
    25
100
AcDbSpline
210
0.0
220
0.0
230
1.0
 70
     8
 71
     3
 72
     9
 73
     5
 74
     0
 42
0.000000001
 43
0.00000001
 40
0.0
 40
0.0
 40
0.0
 40
0.0
 40
0.2942905542038212
 40
1.0
 40
1.0
 40
1.0
 40
1.0
 10
392.2193155871113
 20
356.0574850170844
 30
0.0
 10
392.2539348678047
 20
356.0577969470412
 30
0.0
 10
392.3715712655716
 20
356.058856885773
 30
0.0
 10
392.501160019232
 20
356.059929763881
 30
0.0
 10
392.592612026759
 20
356.060686904096
 30
0.0
  0
SPLINE
  5
1E9
330
1F
100
AcDbEntity
  8
0
  6
Continuous
 62
     7
370
    25
100
AcDbSpline
210
0.0
220
0.0
230
1.0
 70
     8
 71
     3
 72
     9
 73
     5
 74
     0
 42
0.000000001
 43
0.00000001
 40
0.0
 40
0.0
 40
0.0
 40
0.0
 40
0.9360851750507606
 40
1.0
 40
1.0
 40
1.0
 40
1.0
 10
392.592612026759
 20
356.060686904096
 30
0.0
 10
392.7150253721593
 20
356.0618722304939
 30
0.0
 10
392.8457969607529
 20
356.0631384896224
 30
0.0
 10
392.9535420555072
 20
356.0639347554634
 30
0.0
 10
392.9604285643777
 20
356.0639856486553
 30
0.0
  0
SPLINE
  5
1EA
330
1F
100
AcDbEntity
  8
0
  6
Continuous
 62
     7
370
    25
100
AcDbSpline
210
0.0
220
0.0
230
1.0
 70
     8
 71
     3
 72
     9
 73
     5
 74
     0
 42
0.000000001
 43
0.00000001
 40
0.0
 40
0.0
 40
0.0
 40
0.0
 40
0.4054075245394288
 40
1.0
 40
1.0
 40
1.0
 40
1.0
 10
394.6111456738194
 20
356.0778642176622
 30
0.0
 10
394.6618377287833
 20
356.0783863526253
 30
0.0
 10
394.7868774774203
 20
356.079674278802
 30
0.0
 10
394.8866528220074
 20
356.0806113654733
 30
0.0
 10
394.9459784911355
 20
356.0811685501569
 30
0.0
  0
LINE
  5
1EB
330
1F
100
AcDbEntity
  8
0
  6
Continuous
 62
     7
370
    25
100
AcDbLine
 10
388.062096505
 20
316.5169259637
 30
0.0
 11
388.062096505
 21
355.5256141453
 31
0.0
  0
LINE
  5
1EC
330
1F
100
AcDbEntity
  8
0
  6
Continuous
 62
     7
370
    25
100
AcDbLine
 10
386.7620968507
 20
355.5212685942
 30
0.0
 11
386.7620968507
 21
316.5212696522
 31
0.0
  0
LINE
  5
1ED
330
1F
100
AcDbEntity
  8
0
  6
Continuous
 62
     7
370
    25
100
AcDbLine
 10
440.7995150672
 20
355.3212689339
 30
0.0
 11
440.7995150672
 21
316.7212693124
 31
0.0
  0
SPLINE
  5
1EE
330
1F
100
AcDbEntity
  8
0
  6
Continuous
 62
     7
370
    25
100
AcDbSpline
210
0.0
220
0.0
230
1.0
 70
     8
 71
     3
 72
     8
 73
     4
 74
     0
 42
0.000000001
 43
0.00000001
 40
0.0
 40
0.0
 40
0.0
 40
0.0
 40
1.0
 40
1.0
 40
1.0
 40
1.0
 10
440.820230497607
 20
317.1748720201038
 30
0.0
 10
440.8202542840859
 20
317.1751003474012
 30
0.0
 10
440.8202777307275
 20
317.1753287130131
 30
0.0
 10
440.8203008375365
 20
317.1755571169388
 30
0.0
  0
LWPOLYLINE
  5
1EF
330
1F
100
AcDbEntity
  8
0
  6
Continuous
 62
     7
370
    25
100
AcDbPolyline
 90
        5
 70
   128
 43
0.0
 10
393.9640441225
 20
355.328302282
 10
393.9713605927
 20
354.4899461894
 10
393.981232612
 20
353.3585047453
 10
393.9935074435
 20
351.9519319861
 10
394.0079913722
 20
350.2925489201
  0
LWPOLYLINE
  5
1F0
330
1F
100
AcDbEntity
  8
0
  6
Continuous
 62
     7
370
    25
100
AcDbPolyline
 90
        3
 70
   128
 43
0.0
 10
394.0079913722
 20
350.2925489201
 10
393.7000327991
 20
350.2887705444
 10
393.108050643
 20
350.2815062284
  0
LWPOLYLINE
  5
1F1
330
1F
100
AcDbEntity
  8
0
  6
Continuous
 62
     7
370
    25
100
AcDbPolyline
 90
        3
 70
   128
 43
0.0
 10
393.0640810416
 20
355.3201420336
 10
393.1640678333
 20
355.3210472791
 10
393.9640441225
 20
355.328302282
  0
LWPOLYLINE
  5
1F2
330
1F
100
AcDbEntity
  8
0
  6
Continuous
 62
     7
370
    25
100
AcDbPolyline
 90
        5
 70
   128
 43
0.0
 10
393.108050643
 20
350.2815062284
 10
393.0935629891
 20
351.9418196856
 10
393.081280707
 20
353.3492064207
 10
393.0714012371
 20
354.4813072412
 10
393.0640810416
 20
355.3201420336
  0
LINE
  5
1F3
330
1F
100
AcDbEntity
  8
0
  6
Continuous
 62
     7
370
    25
100
AcDbLine
 10
394.0081105815
 20
350.2784887432
 30
0.0
 11
394.0079913722
 21
350.2925489201
 31
0.0
  0
LINE
  5
1F4
330
1F
100
AcDbEntity
  8
0
  6
Continuous
 62
     7
370
    25
100
AcDbLine
 10
393.1081735776
 20
350.2674404635
 30
0.0
 11
393.108050643
 21
350.2815062284
 31
0.0
  0
SPLINE
  5
1F5
330
1F
100
AcDbEntity
  8
0
  6
Continuous
 62
     7
370
    25
100
AcDbSpline
210
0.0
220
0.0
230
1.0
 70
    24
 71
     3
 72
    10
 73
     6
 74
     0
 42
0.000000001
 43
0.00000001
 40
0.0
 40
0.0
 40
0.0
 40
0.0
 40
0.3375452022730292
 40
0.6750670167190472
 40
1.0
 40
1.0
 40
1.0
 40
1.0
 10
429.7366322265347
 20
357.5199985980028
 30
0.0
 10
429.7366322265348
 20
357.5441814560837
 30
0.0
 10
429.7366322265347
 20
357.5925454966641
 30
0.0
 10
429.7366322265347
 20
357.6311003567968
 30
0.0
 10
429.7366322265347
 20
357.6358337644261
 30
0.0
 10
429.7366322265347
 20
357.6381554930442
 30
0.0
  0
SPLINE
  5
1F6
330
1F
100
AcDbEntity
  8
0
  6
Continuous
 62
     7
370
    25
100
AcDbSpline
210
0.0
220
0.0
230
1.0
 70
     8
 71
     3
 72
    20
 73
    16
 74
     0
 42
0.000000001
 43
0.00000001
 40
0.0
 40
0.0
 40
0.0
 40
0.0
 40
0.1250000000000007
 40
0.1250000000000007
 40
0.2500000000000015
 40
0.2500000000000015
 40
0.3750000000000022
 40
0.3750000000000022
 40
0.500000000000003
 40
0.500000000000003
 40
0.7500000000000044
 40
0.7500000000000044
 40
0.8750000000000022
 40
0.8750000000000022
 40
1.0
 40
1.0
 40
1.0
 40
1.0
 10
428.2346846061915
 20
357.3370978931053
 30
0.0
 10
428.3321258443842
 20
357.340979957634
 30
0.0
 10
428.4283590851148
 20
357.3459397841991
 30
0.0
 10
428.618548535668
 20
357.3573013112095
 30
0.0
 10
428.7135557624533
 20
357.3637256541246
 30
0.0
 10
428.8946130528396
 20
357.3782964659295
 30
0.0
 10
428.9808306296567
 20
357.3864046045143
 30
0.0
 10
429.1446703737955
 20
357.4041760200438
 30
0.0
 10
429.2220376477676
 20
357.4137137558145
 30
0.0
 10
429.4308586275122
 20
357.4414150976652
 30
0.0
 10
429.5441269159476
 20
357.4592655079724
 30
0.0
 10
429.6581484785629
 20
357.4842084802915
 30
0.0
 10
429.6876376392863
 20
357.4924759623975
 30
0.0
 10
429.7267338915655
 20
357.5074874189075
 30
0.0
 10
429.7366341295243
 20
357.5140601500764
 30
0.0
 10
429.7366341295252
 20
357.5199980994528
 30
0.0
  0
SPLINE
  5
1F7
330
1F
100
AcDbEntity
  8
0
  6
Continuous
 62
     7
370
    25
100
AcDbSpline
210
0.0
220
0.0
230
1.0
 70
     8
 71
     3
 72
     8
 73
     4
 74
     0
 42
0.000000001
 43
0.00000001
 40
0.0
 40
0.0
 40
0.0
 40
0.0
 40
0.0001029845837661
 40
0.0001029845837661
 40
0.0001029845837661
 40
0.0001029845837661
 10
403.908419471386
 20
356.5496573132759
 30
0.0
 10
403.9423912695735
 20
356.5501239495571
 30
0.0
 10
403.9765605784991
 20
356.5508051882253
 30
0.0
 10
404.010790547191
 20
356.5516755762964
 30
0.0
  0
SPLINE
  5
1F8
330
1F
100
AcDbEntity
  8
0
  6
Continuous
 62
     7
370
    25
100
AcDbSpline
210
0.0
220
0.0
230
1.0
 70
     8
 71
     3
 72
    14
 73
    10
 74
     0
 42
0.000000001
 43
0.00000001
 40
0.0
 40
0.0
 40
0.0
 40
0.0
 40
0.2499999999999998
 40
0.2499999999999998
 40
0.4999999999999996
 40
0.4999999999999996
 40
0.7499999999999993
 40
0.7499999999999993
 40
1.0
 40
1.0
 40
1.0
 40
1.0
 10
404.0107905471907
 20
356.5516755762956
 30
0.0
 10
406.0264412262787
 20
356.6029288602954
 30
0.0
 10
408.0409782357054
 20
356.6578891234617
 30
0.0
 10
412.0665323820241
 20
356.7929565034721
 30
0.0
 10
414.0777521479599
 20
356.8691977956552
 30
0.0
 10
418.0977408204429
 20
357.0195999956429
 30
0.0
 10
420.1062285470859
 20
357.093870910922
 30
0.0
 10
424.1203293826375
 20
357.2284967591483
 30
0.0
 10
426.1259619847376
 20
357.2894812339816
 30
0.0
 10
428.130509238601
 20
357.3335851820424
 30
0.0
  0
SPLINE
  5
1F9
330
1F
100
AcDbEntity
  8
0
  6
Continuous
 62
     7
370
    25
100
AcDbSpline
210
0.0
220
0.0
230
1.0
 70
     8
 71
     3
 72
     8
 73
     4
 74
     0
 42
0.000000001
 43
0.00000001
 40
0.0
 40
0.0
 40
0.0
 40
0.0
 40
0.0001046666746584
 40
0.0001046666746584
 40
0.0001046666746584
 40
0.0001046666746584
 10
428.1305092385998
 20
357.3335851820399
 30
0.0
 10
428.1651059508204
 20
357.3343463771656
 30
0.0
 10
428.1998839373827
 20
357.3354182984654
 30
0.0
 10
428.234694056861
 20
357.336804237615
 30
0.0
  0
SPLINE
  5
1FA
330
1F
100
AcDbEntity
  8
0
  6
Continuous
 62
     7
370
    25
100
AcDbSpline
210
0.0
220
0.0
230
1.0
 70
     8
 71
     3
 72
    23
 73
    19
 74
     0
 42
0.000000001
 43
0.00000001
 40
0.0
 40
0.0
 40
0.0
 40
0.0
 40
0.0556380103744568
 40
0.113211840908202
 40
0.1725980198404328
 40
0.2336365369358382
 40
0.2961307888244474
 40
0.3598492440844833
 40
0.4245289884687465
 40
0.4898811474669657
 40
0.5555979912692723
 40
0.6213611449314925
 40
0.6868504567760727
 40
0.7517540445754601
 40
0.815776588563569
 40
0.878646855417723
 40
0.9401236632002768
 40
1.0
 40
1.0
 40
1.0
 40
1.0
 10
428.8359390589491
 20
360.2129881598896
 30
0.0
 10
428.8349350199122
 20
360.2128557399702
 30
0.0
 10
428.8328920081843
 20
360.2125862928289
 30
0.0
 10
428.8160363473001
 20
360.2100146851354
 30
0.0
 10
428.7880049244602
 20
360.2056980265606
 30
0.0
 10
428.7470835719379
 20
360.1993684247029
 30
0.0
 10
428.6931251946947
 20
360.1910025869919
 30
0.0
 10
428.625953845461
 20
360.180570874593
 30
0.0
 10
428.5458682874298
 20
360.1681183549542
 30
0.0
 10
428.4535327996697
 20
360.1537505305767
 30
0.0
 10
428.3500058327625
 20
360.1376357447497
 30
0.0
 10
428.2366916311587
 20
360.1200146992579
 30
0.0
 10
428.115283203205
 20
360.1011784709321
 30
0.0
 10
427.9876867890688
 20
360.0813863955512
 30
0.0
 10
427.8559204200865
 20
360.0609402675689
 30
0.0
 10
427.7219841208275
 20
360.0401435032106
 30
0.0
 10
427.5878936548033
 20
360.0193098477452
 30
0.0
 10
427.498129199467
 20
360.005360466606
 30
0.0
 10
427.4538389029207
 20
359.9984777620323
 30
0.0
  0
LINE
  5
1FB
330
1F
100
AcDbEntity
  8
0
  6
Continuous
 62
     7
370
    25
100
AcDbLine
 10
429.2283089147
 20
357.4164429783
 30
0.0
 11
428.8359389888
 21
360.2129904657
 31
0.0
  0
SPLINE
  5
1FC
330
1F
100
AcDbEntity
  8
0
  6
Continuous
 62
     7
370
    25
100
AcDbSpline
210
0.0
220
0.0
230
1.0
 70
    24
 71
     3
 72
     9
 73
     5
 74
     0
 42
0.000000001
 43
0.00000001
 40
0.0
 40
0.0
 40
0.0
 40
0.0
 40
0.4175389900174605
 40
1.0
 40
1.0
 40
1.0
 40
1.0
 10
402.6875601397236
 20
356.5870704232686
 30
0.0
 10
402.6875601397236
 20
356.5869771883791
 30
0.0
 10
402.6875601397236
 20
356.5867538921318
 30
0.0
 10
402.6875601397236
 20
356.5680810016153
 30
0.0
 10
402.6875601397236
 20
356.5572047709459
 30
0.0
  0
SPLINE
  5
1FD
330
1F
100
AcDbEntity
  8
0
  6
Continuous
 62
     7
370
    25
100
AcDbSpline
210
0.0
220
0.0
230
1.0
 70
     8
 71
     3
 72
    14
 73
    10
 74
     0
 42
0.000000001
 43
0.00000001
 40
0.0
 40
0.0
 40
0.0
 40
0.0
 40
0.25
 40
0.25
 40
0.5
 40
0.5
 40
0.75
 40
0.75
 40
1.0
 40
1.0
 40
1.0
 40
1.0
 10
402.6875594191459
 20
356.5572047645468
 30
0.0
 10
402.687559419143
 20
356.5516508901256
 30
0.0
 10
402.7177280309713
 20
356.5462051072493
 30
0.0
 10
402.836739954007
 20
356.5358340234904
 30
0.0
 10
402.9237303898721
 20
356.5326530765406
 30
0.0
 10
403.1462899775485
 20
356.5320084287203
 30
0.0
 10
403.2796612452515
 20
356.5344962219157
 30
0.0
 10
403.5772231492667
 20
356.541543020158
 30
0.0
 10
403.7392247133996
 20
356.5444828442601
 30
0.0
 10
403.908419471386
 20
356.5496573132759
 30
0.0
  0
LINE
  5
1FE
330
1F
100
AcDbEntity
  8
0
  6
Continuous
 62
     7
370
    25
100
AcDbLine
 10
427.6961417185
 20
361.1173847794
 30
0.0
 11
403.9214805947
 21
357.7407239108
 31
0.0
  0
ARC
  5
1FF
330
1F
100
AcDbEntity
  8
0
  6
Continuous
 62
     7
370
    25
100
AcDbCircle
 10
435.4171876589
 20
355.835071179
 30
0.0
 40
1.000000000000006
100
AcDbArc
 50
42.2742669599
 51
74.1501592464
  0
ARC
  5
200
330
1F
100
AcDbEntity
  8
0
  6
Continuous
 62
     7
370
    25
100
AcDbCircle
 10
436.3051076045
 20
356.6422874884
 30
0.0
 40
0.2000000000000574
100
AcDbArc
 50
222.2742669599
 51
270.5
  0
ARC
  5
201
330
1F
100
AcDbEntity
  8
0
  6
Continuous
 62
     7
370
    25
100
AcDbCircle
 10
427.8367597805
 20
360.1273213876
 30
0.0
 40
0.9999999972190101
100
AcDbArc
 50
9.2446989907
 51
98.0835247369
  0
LINE
  5
202
330
1F
100
AcDbEntity
  8
0
  6
Continuous
 62
     7
370
    25
100
AcDbLine
 10
428.829859315
 20
360.2504743366
 30
0.0
 11
428.8359389888
 21
360.212994191
 31
0.0
  0
LINE
  5
203
330
1F
100
AcDbEntity
  8
0
  6
Continuous
 62
     7
370
    25
100
AcDbLine
 10
403.062097101
 20
356.737510684
 30
0.0
 11
403.062097101
 21
356.5331934123
 31
0.0
  0
LINE
  5
204
330
1F
100
AcDbEntity
  8
0
  6
Continuous
 62
     7
370
    25
100
AcDbLine
 10
395.3525231467
 20
356.0237078099
 30
0.0
 11
395.352437465
 21
356.0337381541
 31
0.0
  0
LINE
  5
205
330
1F
100
AcDbEntity
  8
0
  6
Continuous
 62
     7
370
    25
100
AcDbLine
 10
394.3260641084
 20
355.9198206394
 30
0.0
 11
394.3259747015
 21
355.9298994123
 31
0.0
  0
SPLINE
  5
206
330
1F
100
AcDbEntity
  8
0
  6
Continuous
 62
     7
370
    25
100
AcDbSpline
210
0.0
220
0.0
230
1.0
 70
     8
 71
     3
 72
    20
 73
    16
 74
     0
 42
0.000000001
 43
0.00000001
 40
0.0
 40
0.0
 40
0.0
 40
0.0
 40
0.1249999999999973
 40
0.1249999999999973
 40
0.2499999999999946
 40
0.2499999999999946
 40
0.3749999999999918
 40
0.3749999999999918
 40
0.4999999999999891
 40
0.4999999999999891
 40
0.7499999999999946
 40
0.7499999999999946
 40
0.8749999999999972
 40
0.8749999999999972
 40
1.0
 40
1.0
 40
1.0
 40
1.0
 10
394.3259765083876
 20
355.9298985395565
 30
0.0
 10
394.3900335048628
 20
355.9312121943042
 30
0.0
 10
394.453885269038
 20
355.932627151821
 30
0.0
 10
394.5788137718339
 20
355.9367999448856
 30
0.0
 10
394.6402095050002
 20
355.9393995449328
 30
0.0
 10
394.7609174389996
 20
355.9455354810352
 30
0.0
 10
394.8208315076791
 20
355.9491517515024
 30
0.0
 10
394.9324779819435
 20
355.9575135551855
 30
0.0
 10
394.9847812396035
 20
355.9621924563452
 30
0.0
 10
395.1326648315837
 20
355.9772467968203
 30
0.0
 10
395.2146897233293
 20
355.9886589642708
 30
0.0
 10
395.299359063475
 20
356.0062709332984
 30
0.0
 10
395.319084674432
 20
356.0120941405689
 30
0.0
 10
395.346301403085
 20
356.0232495120391
 30
0.0
 10
395.350759077668
 20
356.02866503212
 30
0.0
 10
395.3524369109792
 20
356.0337376672152
 30
0.0
  0
SPLINE
  5
207
330
1F
100
AcDbEntity
  8
0
  6
Continuous
 62
     7
370
    25
100
AcDbSpline
210
0.0
220
0.0
230
1.0
 70
     8
 71
     3
 72
    18
 73
    14
 74
     0
 42
0.000000001
 43
0.00000001
 40
0.0
 40
0.0
 40
0.0
 40
0.0
 40
0.1249999999999986
 40
0.1249999999999986
 40
0.2499999999999971
 40
0.2499999999999971
 40
0.4999999999999942
 40
0.4999999999999942
 40
0.7499999999999911
 40
0.7499999999999911
 40
0.8749999999999956
 40
0.8749999999999956
 40
1.0
 40
1.0
 40
1.0
 40
1.0
 10
395.3524369109792
 20
356.0337376672152
 30
0.0
 10
395.3502351900116
 20
356.0391726132239
 30
0.0
 10
395.3454248570213
 20
356.0441810373883
 30
0.0
 10
395.3146248693027
 20
356.0530771875926
 30
0.0
 10
395.291434577219
 20
356.0570751524506
 30
0.0
 10
395.1966678724984
 20
356.0669644202059
 30
0.0
 10
395.1056357190649
 20
356.071372023187
 30
0.0
 10
394.8935376030863
 20
356.0769828233929
 30
0.0
 10
394.7681235344043
 20
356.078191765561
 30
0.0
 10
394.5691601046051
 20
356.0784373401606
 30
0.0
 10
394.5002313888833
 20
356.0782804671768
 30
0.0
 10
394.3617746686426
 20
356.0776656390731
 30
0.0
 10
394.2918624809246
 20
356.0771315923514
 30
0.0
 10
394.2218140535625
 20
356.0765562875742
 30
0.0
  0
ELLIPSE
  5
208
330
1F
100
AcDbEntity
  8
0
  6
Continuous
 62
     7
370
    25
100
AcDbEllipse
 10
394.1902728947
 20
336.0197414964
 30
0.0
 11
-0.1778705629704973
 21
20.06345590665836
 31
0.0
210
0.0
220
0.0
230
1.0
 40
0.1249951633
 41
6.158375424790888
 42
6.177117640854349
  0
SPLINE
  5
209
330
1F
100
AcDbEntity
  8
0
  6
Continuous
 62
     7
370
    25
100
AcDbSpline
210
0.0
220
0.0
230
1.0
 70
     8
 71
     3
 72
    16
 73
    12
 74
     0
 42
0.000000001
 43
0.00000001
 40
0.0
 40
0.0
 40
0.0
 40
0.0
 40
0.1249999999999959
 40
0.1249999999999959
 40
0.2499999999999918
 40
0.2499999999999918
 40
0.4999999999999946
 40
0.4999999999999946
 40
0.7499999999999973
 40
0.7499999999999973
 40
1.0
 40
1.0
 40
1.0
 40
1.0
 10
394.9788736173741
 20
356.03092355681
 30
0.0
 10
394.9775423081266
 20
356.0276865235159
 30
0.0
 10
394.974741053124
 20
356.0243260127178
 30
0.0
 10
394.954515168663
 20
356.0174457688386
 30
0.0
 10
394.9392138802519
 20
356.0138821393826
 30
0.0
 10
394.8765313826841
 20
356.003809879667
 30
0.0
 10
394.814622923015
 20
355.9977193170153
 30
0.0
 10
394.6748655889557
 20
355.9877220660046
 30
0.0
 10
394.5984580130946
 20
355.98390597188
 30
0.0
 10
394.441509442072
 20
355.9774749656359
 30
0.0
 10
394.3602927700755
 20
355.974987705992
 30
0.0
 10
394.2789036620326
 20
355.9727965033152
 30
0.0
  0
SPLINE
  5
20A
330
1F
100
AcDbEntity
  8
0
  6
Continuous
 62
     7
370
    25
100
AcDbSpline
210
0.0
220
0.0
230
1.0
 70
     8
 71
     3
 72
    18
 73
    14
 74
     0
 42
0.000000001
 43
0.00000001
 40
0.0
 40
0.0
 40
0.0
 40
0.0
 40
0.125
 40
0.125
 40
0.2499999999999999
 40
0.2499999999999999
 40
0.5
 40
0.5
 40
0.75
 40
0.75
 40
0.875
 40
0.875
 40
1.0
 40
1.0
 40
1.0
 40
1.0
 10
394.2263168529556
 20
356.0622537043625
 30
0.0
 10
394.2709831145228
 20
356.0625947735481
 30
0.0
 10
394.3156147017448
 20
356.0629261825384
 30
0.0
 10
394.4035578322145
 20
356.0631956339755
 30
0.0
 10
394.4468558627597
 20
356.0631286387024
 30
0.0
 10
394.5757477476201
 20
356.0625936365281
 30
0.0
 10
394.6586740611696
 20
356.0613662239803
 30
0.0
 10
394.8019935088179
 20
356.0567146386471
 30
0.0
 10
394.8655800765299
 20
356.0534507769462
 30
0.0
 10
394.9325439134186
 20
356.0464336455036
 30
0.0
 10
394.9506908244402
 20
356.0437420695599
 30
0.0
 10
394.9729904519398
 20
356.0377714131231
 30
0.0
 10
394.9779784355743
 20
356.0344568821087
 30
0.0
 10
394.9788736173741
 20
356.03092355681
 30
0.0
  0
SPLINE
  5
20B
330
1F
100
AcDbEntity
  8
0
  6
Continuous
 62
     7
370
    25
100
AcDbSpline
210
0.0
220
0.0
230
1.0
 70
     8
 71
     3
 72
    16
 73
    12
 74
     0
 42
0.000000001
 43
0.00000001
 40
0.0
 40
0.0
 40
0.0
 40
0.0
 40
0.1250000000000005
 40
0.1250000000000005
 40
0.2500000000000009
 40
0.2500000000000009
 40
0.5000000000000007
 40
0.5000000000000007
 40
0.7500000000000003
 40
0.7500000000000003
 40
1.0
 40
1.0
 40
1.0
 40
1.0
 10
393.5313174531928
 20
356.0198357045983
 30
0.0
 10
393.5324384923753
 20
356.0231014713208
 30
0.0
 10
393.5350834183018
 20
356.0262240648865
 30
0.0
 10
393.5538592466112
 20
356.0321670177903
 30
0.0
 10
393.5688136485873
 20
356.0350251374202
 30
0.0
 10
393.6250727137769
 20
356.0428315800777
 30
0.0
 10
393.6828168947888
 20
356.0471221050844
 30
0.0
 10
393.8152327828053
 20
356.054010859984
 30
0.0
 10
393.8933297326254
 20
356.0565706819516
 30
0.0
 10
394.0553915140026
 20
356.0603586780727
 30
0.0
 10
394.141270765867
 20
356.0614055694287
 30
0.0
 10
394.2263168529556
 20
356.0622537043625
 30
0.0
  0
SPLINE
  5
20C
330
1F
100
AcDbEntity
  8
0
  6
Continuous
 62
     7
370
    25
100
AcDbSpline
210
0.0
220
0.0
230
1.0
 70
     8
 71
     3
 72
    17
 73
    13
 74
     0
 42
0.000000001
 43
0.00000001
 40
0.0
 40
0.0
 40
0.0
 40
0.0
 40
0.0000659635110405
 40
0.0000659635110405
 40
0.0000659635110405
 40
0.0001319891988649
 40
0.0001319891988649
 40
0.0001319891988649
 40
0.0001977916797926
 40
0.0001977916797926
 40
0.0001977916797926
 40
0.0002642477030735
 40
0.0002642477030735
 40
0.0002642477030735
 40
0.0002642477030735
 10
393.5811183789934
 20
355.998775547086
 30
0.0
 10
393.5745419357555
 20
356.0005980809336
 30
0.0
 10
393.5679620297245
 20
356.0023886745902
 30
0.0
 10
393.5620943194612
 20
356.0041696251925
 30
0.0
 10
393.5562232904038
 20
356.0059515831057
 30
0.0
 10
393.5511895929397
 20
356.0077279083519
 30
0.0
 10
393.5467462428876
 20
356.0094833428467
 30
0.0
 10
393.5423180182873
 20
356.0112328017289
 30
0.0
 10
393.5382206265345
 20
356.0129596952053
 30
0.0
 10
393.5355338179141
 20
356.0146780771892
 30
0.0
 10
393.5328219117506
 20
356.0164125106201
 30
0.0
 10
393.5320263126119
 20
356.0181442459887
 30
0.0
 10
393.5313174531928
 20
356.0198357045983
 30
0.0
  0
ELLIPSE
  5
20D
330
1F
100
AcDbEntity
  8
0
  6
Continuous
 62
     7
370
    25
100
AcDbEllipse
 10
391.8359886136
 20
336.0197430611
 30
0.0
 11
181.6460958627263
 21
-0.01953626186559632
 31
0.0
210
0.0
220
0.0
230
1.0
 40
0.109994876
 41
1.56120070231753
 42
1.563530639479785
  0
ELLIPSE
  5
20E
330
1F
100
AcDbEntity
  8
0
  6
Continuous
 62
     7
370
    25
100
AcDbEllipse
 10
393.4928388236
 20
336.01974196
 30
0.0
 11
-0.1764968743965483
 21
20.05738101876437
 31
0.0
210
0.0
220
0.0
230
1.0
 40
0.0909056
 41
0.0845605864133296
 42
0.0873722246796353
  0
SPLINE
  5
20F
330
1F
100
AcDbEntity
  8
0
  6
Continuous
 62
     7
370
    25
100
AcDbSpline
210
0.0
220
0.0
230
1.0
 70
     8
 71
     3
 72
    16
 73
    12
 74
     0
 42
0.000000001
 43
0.00000001
 40
0.0
 40
0.0
 40
0.0
 40
0.0
 40
0.1250000000000001
 40
0.1250000000000001
 40
0.2500000000000003
 40
0.2500000000000003
 40
0.5000000000000002
 40
0.5000000000000002
 40
0.7500000000000001
 40
0.7500000000000001
 40
1.0
 40
1.0
 40
1.0
 40
1.0
 10
392.5781947252352
 20
356.0406724947701
 30
0.0
 10
392.6174141926216
 20
356.0409482200792
 30
0.0
 10
392.6565873612245
 20
356.0412093250653
 30
0.0
 10
392.7334197781046
 20
356.0412240428378
 30
0.0
 10
392.7711776877379
 20
356.0410103441699
 30
0.0
 10
392.8825009150978
 20
356.0396633739849
 30
0.0
 10
392.9488983111279
 20
356.0376493361922
 30
0.0
 10
393.0575402763156
 20
356.0314771130808
 30
0.0
 10
393.0994358436641
 20
356.0272529676071
 30
0.0
 10
393.1522907699229
 20
356.0169493088175
 30
0.0
 10
393.1620130255745
 20
356.0107855279027
 30
0.0
 10
393.16297456669
 20
356.0041004991026
 30
0.0
  0
SPLINE
  5
210
330
1F
100
AcDbEntity
  8
0
  6
Continuous
 62
     7
370
    25
100
AcDbSpline
210
0.0
220
0.0
230
1.0
 70
     8
 71
     3
 72
    16
 73
    12
 74
     0
 42
0.000000001
 43
0.00000001
 40
0.0
 40
0.0
 40
0.0
 40
0.0
 40
0.1249999999999999
 40
0.1249999999999999
 40
0.2499999999999999
 40
0.2499999999999999
 40
0.4999999999999999
 40
0.4999999999999999
 40
0.7499999999999999
 40
0.7499999999999999
 40
1.0
 40
1.0
 40
1.0
 40
1.0
 10
392.0370945014745
 20
356.0051160843112
 30
0.0
 10
392.0389547409341
 20
356.0077122628774
 30
0.0
 10
392.0408546445406
 20
356.0102245364257
 30
0.0
 10
392.0540508053277
 20
356.0150252652503
 30
0.0
 10
392.0650287759861
 20
356.0173282888029
 30
0.0
 10
392.1094469961814
 20
356.023897006701
 30
0.0
 10
392.1525126658098
 20
356.0275427739215
 30
0.0
 10
392.2556018581337
 20
356.0335636688308
 30
0.0
 10
392.316199604119
 20
356.0358551200692
 30
0.0
 10
392.4436090921665
 20
356.0390801376628
 30
0.0
 10
392.5112118327596
 20
356.0399298828744
 30
0.0
 10
392.5781947252352
 20
356.0406724947701
 30
0.0
  0
SPLINE
  5
211
330
1F
100
AcDbEntity
  8
0
  6
Continuous
 62
     7
370
    25
100
AcDbSpline
210
0.0
220
0.0
230
1.0
 70
     8
 71
     3
 72
    16
 73
    12
 74
     0
 42
0.000000001
 43
0.00000001
 40
0.0
 40
0.0
 40
0.0
 40
0.0
 40
0.2499999999999972
 40
0.2499999999999972
 40
0.4999999999999944
 40
0.4999999999999944
 40
0.7499999999999921
 40
0.7499999999999921
 40
0.874999999999996
 40
0.874999999999996
 40
1.0
 40
1.0
 40
1.0
 40
1.0
 10
392.5978441481988
 20
355.962962499418
 30
0.0
 10
392.5280554341322
 20
355.9633849929304
 30
0.0
 10
392.4591015725217
 20
355.9641308130913
 30
0.0
 10
392.3272140800797
 20
355.9678314205334
 30
0.0
 10
392.263454695236
 20
355.9705232781438
 30
0.0
 10
392.1543586260132
 20
355.9781500535091
 30
0.0
 10
392.1102786294447
 20
355.9830440525412
 30
0.0
 10
392.0660117075216
 20
355.9911409911855
 30
0.0
 10
392.0545457514576
 20
355.9938813209508
 30
0.0
 10
392.0405452833523
 20
355.9994915248607
 30
0.0
 10
392.0387687570351
 20
356.0023655306787
 30
0.0
 10
392.0370945014745
 20
356.0051160843112
 30
0.0
  0
ELLIPSE
  5
212
330
1F
100
AcDbEntity
  8
0
  6
Continuous
 62
     7
370
    25
100
AcDbEllipse
 10
393.0342777701
 20
336.0197422647
 30
0.0
 11
-0.1777811270025609
 21
20.05336770223556
 31
0.0
210
0.0
220
0.0
230
1.0
 40
0.1249951633
 41
0.1037571544842479
 42
0.122508606860418
  0
SPLINE
  5
213
330
1F
100
AcDbEntity
  8
0
  6
Continuous
 62
     7
370
    25
100
AcDbSpline
210
0.0
220
0.0
230
1.0
 70
     8
 71
     3
 72
    16
 73
    12
 74
     0
 42
0.000000001
 43
0.00000001
 40
0.0
 40
0.0
 40
0.0
 40
0.0
 40
0.1250000000000001
 40
0.1250000000000001
 40
0.2500000000000002
 40
0.2500000000000002
 40
0.5000000000000001
 40
0.5000000000000001
 40
0.75
 40
0.75
 40
1.0
 40
1.0
 40
1.0
 40
1.0
 10
391.663542170797
 20
356.0010457468377
 30
0.0
 10
391.6651400147145
 20
355.9965353283803
 30
0.0
 10
391.6685108871978
 20
355.9918126494088
 30
0.0
 10
391.6897740908613
 20
355.9822300330884
 30
0.0
 10
391.706772338698
 20
355.9772837859029
 30
0.0
 10
391.774491602363
 20
355.9627336212511
 30
0.0
 10
391.8429348614573
 20
355.9534265085449
 30
0.0
 10
392.0106613716255
 20
355.9377865055433
 30
0.0
 10
392.1128844535455
 20
355.9318910866432
 30
0.0
 10
392.3247826313362
 20
355.9235817713512
 30
0.0
 10
392.4376898165432
 20
355.9215061309955
 30
0.0
 10
392.5515197355111
 20
355.9200984595252
 30
0.0
  0
SPLINE
  5
214
330
1F
100
AcDbEntity
  8
0
  6
Continuous
 62
     7
370
    25
100
AcDbSpline
210
0.0
220
0.0
230
1.0
 70
     8
 71
     3
 72
    20
 73
    16
 74
     0
 42
0.000000001
 43
0.00000001
 40
0.0
 40
0.0
 40
0.0
 40
0.0
 40
0.1249999999999992
 40
0.1249999999999992
 40
0.2499999999999983
 40
0.2499999999999983
 40
0.3749999999999975
 40
0.3749999999999975
 40
0.4999999999999967
 40
0.4999999999999967
 40
0.7499999999999952
 40
0.7499999999999952
 40
0.8749999999999976
 40
0.8749999999999976
 40
1.0
 40
1.0
 40
1.0
 40
1.0
 10
392.5992052832311
 20
356.0578254339398
 30
0.0
 10
392.5401964389523
 20
356.0572710437133
 30
0.0
 10
392.4814481119146
 20
356.0566723227186
 30
0.0
 10
392.3664624006038
 20
356.0550173552938
 30
0.0
 10
392.3098757008789
 20
356.05402312802
 30
0.0
 10
392.1986712958649
 20
356.0516127171114
 30
0.0
 10
392.1437085637853
 20
356.0501779779672
 30
0.0
 10
392.0425172723373
 20
356.0467837605988
 30
0.0
 10
391.9948466526518
 20
356.0448603478414
 30
0.0
 10
391.8611834517394
 20
356.0381660178171
 30
0.0
 10
391.7868527042717
 20
356.0326366170345
 30
0.0
 10
391.7115558647903
 20
356.0221310651352
 30
0.0
 10
391.6932992017909
 20
356.0183521916563
 30
0.0
 10
391.6695346273846
 20
356.0101542555312
 30
0.0
 10
391.6652447319139
 20
356.0057159765124
 30
0.0
 10
391.663542170797
 20
356.0010457468377
 30
0.0
  0
SPLINE
  5
215
330
1F
100
AcDbEntity
  8
0
  6
Continuous
 62
     7
370
    25
100
AcDbSpline
210
0.0
220
0.0
230
1.0
 70
     8
 71
     3
 72
    16
 73
    12
 74
     0
 42
0.000000001
 43
0.00000001
 40
0.0
 40
0.0
 40
0.0
 40
0.0
 40
0.1250000000000063
 40
0.1250000000000063
 40
0.2500000000000127
 40
0.2500000000000127
 40
0.5000000000000084
 40
0.5000000000000084
 40
0.7500000000000042
 40
0.7500000000000042
 40
1.0
 40
1.0
 40
1.0
 40
1.0
 10
393.3326247321462
 20
356.04552357916
 30
0.0
 10
393.3134162070414
 20
356.0471229739307
 30
0.0
 10
393.2941945140308
 20
356.0486446544914
 30
0.0
 10
393.2505572381615
 20
356.0512861303612
 30
0.0
 10
393.2262367908888
 20
356.0524149971114
 30
0.0
 10
393.1478395160868
 20
356.0553950117105
 30
0.0
 10
393.0876395967602
 20
356.0567711974133
 30
0.0
 10
392.9592785022633
 20
356.058489523585
 30
0.0
 10
392.88923819414
 20
356.0588609010704
 30
0.0
 10
392.7466089874098
 20
356.0588675026635
 30
0.0
 10
392.6730639948226
 20
356.0583954903423
 30
0.0
 10
392.5992052832311
 20
356.0578254339398
 30
0.0
  0
SPLINE
  5
216
330
1F
100
AcDbEntity
  8
0
  6
Continuous
 62
     7
370
    25
100
AcDbSpline
210
0.0
220
0.0
230
1.0
 70
     8
 71
     3
 72
    16
 73
    12
 74
     0
 42
0.000000001
 43
0.00000001
 40
0.0
 40
0.0
 40
0.0
 40
0.0
 40
0.2500000000000029
 40
0.2500000000000029
 40
0.5000000000000059
 40
0.5000000000000059
 40
0.7500000000000089
 40
0.7500000000000089
 40
0.8750000000000044
 40
0.8750000000000044
 40
1.0
 40
1.0
 40
1.0
 40
1.0
 10
394.2218140535625
 20
356.0765562875742
 30
0.0
 10
394.1279784183528
 20
356.0756781988779
 30
0.0
 10
394.0347935154891
 20
356.0746987848617
 30
0.0
 10
393.8530965021389
 20
356.0718755276415
 30
0.0
 10
393.7631957168786
 20
356.0701071931501
 30
0.0
 10
393.5962749162051
 20
356.0656544807681
 30
0.0
 10
393.5189639171895
 20
356.0628441562489
 30
0.0
 10
393.4297684355699
 20
356.0572948844879
 30
0.0
 10
393.4042180004826
 20
356.0551937314631
 30
0.0
 10
393.361490763783
 20
356.0506714075576
 30
0.0
 10
393.3464840424208
 20
356.0481860573099
 30
0.0
 10
393.3326247321462
 20
356.04552357916
 30
0.0
  0
LINE
  5
217
330
1F
100
AcDbEntity
  8
0
  6
Continuous
 62
     7
370
    25
100
AcDbLine
 10
392.5516077564
 20
355.9100231259
 30
0.0
 11
392.5515183495
 21
355.9200981735
 31
0.0
  0
LINE
  5
218
330
1F
100
AcDbEntity
  8
0
  6
Continuous
 62
     7
370
    25
100
AcDbLine
 10
391.6636289345
 20
355.9910146623
 30
0.0
 11
391.6635432528
 21
356.0010450064
 31
0.0
  0
LINE
  5
219
330
1F
100
AcDbEntity
  8
0
  6
Continuous
 62
     7
370
    25
100
AcDbLine
 10
394.2789913402
 20
355.9627397089
 30
0.0
 11
394.2789019333
 21
355.9727961301
 31
0.0
  0
LINE
  5
21A
330
1F
100
AcDbEntity
  8
0
  6
Continuous
 62
     7
370
    25
100
AcDbLine
 10
392.5979317413
 20
355.9529086678
 30
0.0
 11
392.5978423343
 21
355.9629632263
 31
0.0
  0
ARC
  5
21B
330
1F
100
AcDbEntity
  8
0
  6
Continuous
 62
     7
370
    25
100
AcDbCircle
 10
400.0734387418
 20
356.3260985044
 30
0.0
 40
0.200000000000002
100
AcDbArc
 50
270.5
 51
312.0780052523
  0
ARC
  5
21C
330
1F
100
AcDbEntity
  8
0
  6
Continuous
 62
     7
370
    25
100
AcDbCircle
 10
400.877608829
 20
355.4354187242
 30
0.0
 40
0.9999999999999919
100
AcDbArc
 50
98.6032482307
 51
132.0780052524
  0
LINE
  5
21D
330
1F
100
AcDbEntity
  8
0
  6
Continuous
 62
     7
370
    25
100
AcDbLine
 10
393.5812072144
 20
355.9887347846
 30
0.0
 11
393.5811178075
 21
355.9987763046
 31
0.0
  0
LINE
  5
21E
330
1F
100
AcDbEntity
  8
0
  6
Continuous
 62
     7
370
    25
100
AcDbLine
 10
393.1579956101
 20
355.9891762315
 30
0.0
 11
393.1579099284
 21
355.9992140262
 31
0.0
  0
LINE
  5
21F
330
1F
100
AcDbEntity
  8
0
  6
Continuous
 62
     7
370
    25
100
AcDbLine
 10
392.578280835
 20
356.030657339
 30
0.0
 11
392.5781951533
 21
356.040672782
 31
0.0
  0
LINE
  5
220
330
1F
100
AcDbEntity
  8
0
  6
Continuous
 62
     7
370
    25
100
AcDbLine
 10
394.2264051424
 20
356.0522435336
 30
0.0
 11
394.2263157354
 21
356.0622533887
 31
0.0
  0
ARC
  5
221
330
1F
100
AcDbEntity
  8
0
  6
Continuous
 62
     7
370
    25
100
AcDbCircle
 10
404.0620967856
 20
356.7506601754
 30
0.0
 40
1.000000010547051
100
AcDbArc
 50
98.0835249352
 51
180.0
  0
SPLINE
  5
222
330
1F
100
AcDbEntity
  8
0
  6
Continuous
 62
     7
370
    25
100
AcDbSpline
210
0.0
220
0.0
230
1.0
 70
     8
 71
     3
 72
    12
 73
     8
 74
     0
 42
0.000000001
 43
0.00000001
 40
0.0
 40
0.0
 40
0.0
 40
0.0
 40
0.3428393231989077
 40
0.5640379196979285
 40
0.7854638458407445
 40
0.9951236075812384
 40
0.9999999999999999
 40
0.9999999999999999
 40
0.9999999999999999
 40
0.9999999999999999
 10
394.2487457082947
 20
356.0841674088472
 30
0.0
 10
394.4239642563815
 20
356.0859039115659
 30
0.0
 10
394.7122331294885
 20
356.0887607990778
 30
0.0
 10
395.0555562016887
 20
356.0927193302708
 30
0.0
 10
395.2647879276872
 20
356.0923393791717
 30
0.0
 10
395.3384319488321
 20
356.0885825556114
 30
0.0
 10
395.344761067591
 20
356.0849084350981
 30
0.0
 10
395.3449049280366
 20
356.0848249225849
 30
0.0
  0
SPLINE
  5
223
330
1F
100
AcDbEntity
  8
0
  6
Continuous
 62
     7
370
    25
100
AcDbSpline
210
0.0
220
0.0
230
1.0
 70
     8
 71
     3
 72
    14
 73
    10
 74
     0
 42
0.000000001
 43
0.00000001
 40
0.0
 40
0.0
 40
0.0
 40
0.0
 40
0.25
 40
0.25
 40
0.5
 40
0.5
 40
0.75
 40
0.75
 40
1.0
 40
1.0
 40
1.0
 40
1.0
 10
392.5925260694385
 20
356.0706868447981
 30
0.0
 10
392.6687846517282
 20
356.0713583403133
 30
0.0
 10
392.7446504842338
 20
356.0720402414826
 30
0.0
 10
392.8924423137605
 20
356.0734058637938
 30
0.0
 10
392.9662217773443
 20
356.0741006745389
 30
0.0
 10
393.0989014303388
 20
356.0751446633458
 30
0.0
 10
393.1593710661644
 20
356.0754914859497
 30
0.0
 10
393.2596182997022
 20
356.0753721196405
 30
0.0
 10
393.2977952048676
 20
356.0748496769153
 30
0.0
 10
393.3323771859497
 20
356.0738895636637
 30
0.0
  0
SPLINE
  5
224
330
1F
100
AcDbEntity
  8
0
  6
Continuous
 62
     7
370
    25
100
AcDbSpline
210
0.0
220
0.0
230
1.0
 70
     8
 71
     3
 72
    12
 73
     8
 74
     0
 42
0.000000001
 43
0.00000001
 40
0.0
 40
0.0
 40
0.0
 40
0.0
 40
0.1239394599396395
 40
0.3530845073888679
 40
0.5548816983114813
 40
0.7839248651675452
 40
1.0
 40
1.0
 40
1.0
 40
1.0
 10
391.6849338696679
 20
356.052886146211
 30
0.0
 10
391.6907374441141
 20
356.0545965852651
 30
0.0
 10
391.7072709373651
 20
356.0594693637259
 30
0.0
 10
391.8459254092963
 20
356.0633056484357
 30
0.0
 10
392.059226757287
 20
356.0662902487307
 30
0.0
 10
392.316704691104
 20
356.068334511887
 30
0.0
 10
392.5023890300679
 20
356.0699185173156
 30
0.0
 10
392.5925263450821
 20
356.0706874459022
 30
0.0
  0
SPLINE
  5
225
330
1F
100
AcDbEntity
  8
0
  6
Continuous
 62
     7
370
    25
100
AcDbSpline
210
0.0
220
0.0
230
1.0
 70
     8
 71
     3
 72
    16
 73
    12
 74
     0
 42
0.000000001
 43
0.00000001
 40
0.0
 40
0.0
 40
0.0
 40
0.0
 40
0.1250000000000041
 40
0.1250000000000041
 40
0.2500000000000083
 40
0.2500000000000083
 40
0.5000000000000056
 40
0.5000000000000056
 40
0.7500000000000028
 40
0.7500000000000028
 40
1.0
 40
1.0
 40
1.0
 40
1.0
 10
393.3323771859497
 20
356.0738895636637
 30
0.0
 10
393.3479489707182
 20
356.0748736738042
 30
0.0
 10
393.3650297459656
 20
356.0756932271626
 30
0.0
 10
393.4089300183151
 20
356.0770760350734
 30
0.0
 10
393.4355899486467
 20
356.0776451422798
 30
0.0
 10
393.5274023636711
 20
356.0790811558384
 30
0.0
 10
393.6019111227417
 20
356.079654339989
 30
0.0
 10
393.7710706989509
 20
356.080750600176
 30
0.0
 10
393.8636370224922
 20
356.0812748543291
 30
0.0
 10
394.0541826772758
 20
356.0825675187404
 30
0.0
 10
394.151086491931
 20
356.0833280520819
 30
0.0
 10
394.2487451855781
 20
356.0841681365603
 30
0.0
  0
LINE
  5
226
330
1F
100
AcDbEntity
  8
0
  6
Continuous
 62
     7
370
    25
100
AcDbLine
 10
393.3324360536
 20
356.0672639041
 30
0.0
 11
393.3323764489
 21
356.0738893329
 31
0.0
  0
LINE
  5
227
330
1F
100
AcDbEntity
  8
0
  6
Continuous
 62
     7
370
    25
100
AcDbLine
 10
392.5926120268
 20
356.0606869041
 30
0.0
 11
392.5925263451
 21
356.0706874459
 31
0.0
  0
LINE
  5
228
330
1F
100
AcDbEntity
  8
0
  6
Continuous
 62
     8
370
    18
100
AcDbLine
 10
383.7013629512
 20
261.6376685082
 30
0.0
 11
383.7013629512
 21
410.4048716008
 31
0.0
  0
LINE
  5
229
330
1F
100
AcDbEntity
  8
0
  6
Continuous
 62
     8
370
    18
100
AcDbLine
 10
439.7688539015
 20
336.0212694954
 30
0.0
 11
439.7688539015
 21
356.4725065707
 31
0.0
  0
LINE
  5
22A
330
1F
100
AcDbEntity
  8
0
  6
Continuous
 62
     8
370
    18
100
AcDbLine
 10
439.7688539015
 20
315.5700316756
 30
0.0
 11
439.7688539015
 21
336.0212694954
 31
0.0
  0
LINE
  5
22B
330
1F
100
AcDbEntity
  8
0
  6
Continuous
 62
     8
370
    18
100
AcDbLine
 10
440.7718808637
 20
355.5791018634
 30
0.0
 11
440.7718808637
 21
316.4634382456
 31
0.0
  0
SPLINE
  5
22C
330
1F
100
AcDbEntity
  8
0
  6
Continuous
 62
     8
370
    18
100
AcDbSpline
210
0.0
220
0.0
230
1.0
 70
     8
 71
     3
 72
     8
 73
     4
 74
     0
 42
0.000000001
 43
0.00000001
 40
0.0
 40
0.0
 40
0.0
 40
0.0
 40
1.0
 40
1.0
 40
1.0
 40
1.0
 10
400.221854027237
 20
356.006683365094
 30
0.0
 10
400.1222929998845
 20
356.0859133001234
 30
0.0
 10
400.0751841821287
 20
356.1261061155466
 30
0.0
 10
400.0751840489192
 20
356.1261061197949
 30
0.0
  0
SPLINE
  5
22D
330
1F
100
AcDbEntity
  8
0
  6
Continuous
 62
     8
370
    18
100
AcDbSpline
210
0.0
220
0.0
230
1.0
 70
     8
 71
     3
 72
    18
 73
    14
 74
     0
 42
0.000000001
 43
0.00000001
 40
0.0
 40
0.0
 40
0.0
 40
0.0
 40
0.2500000000000032
 40
0.2500000000000032
 40
0.3750000000000027
 40
0.3750000000000027
 40
0.5000000000000023
 40
0.5000000000000023
 40
0.6250000000000019
 40
0.6250000000000019
 40
0.7500000000000012
 40
0.7500000000000012
 40
1.0
 40
1.0
 40
1.0
 40
1.0
 10
403.1575224081823
 20
355.3661945934169
 30
0.0
 10
402.7641039995314
 20
355.3944840323161
 30
0.0
 10
402.3738345840662
 20
355.4244912664899
 30
0.0
 10
401.8240507682202
 20
355.4902975300091
 30
0.0
 10
401.6458943003763
 20
355.5155422410473
 30
0.0
 10
401.3186107777993
 20
355.571650527143
 30
0.0
 10
401.1672779612314
 20
355.6029015872525
 30
0.0
 10
400.9004376562867
 20
355.6702580377702
 30
0.0
 10
400.788920731857
 20
355.70523872515
 30
0.0
 10
400.6020422558615
 20
355.7749675512984
 30
0.0
 10
400.5264997510341
 20
355.8098215978817
 30
0.0
 10
400.344229398591
 20
355.9068567579067
 30
0.0
 10
400.2770690793381
 20
355.9627436317758
 30
0.0
 10
400.2218540272352
 20
356.0066833650939
 30
0.0
  0
SPLINE
  5
22E
330
1F
100
AcDbEntity
  8
0
  6
Continuous
 62
     8
370
    18
100
AcDbSpline
210
0.0
220
0.0
230
1.0
 70
     8
 71
     3
 72
     8
 73
     4
 74
     0
 42
0.000000001
 43
0.00000001
 40
0.0
 40
0.0
 40
0.0
 40
0.0
 40
0.000057756153491
 40
0.000057756153491
 40
0.000057756153491
 40
0.000057756153491
 10
428.0523074085007
 20
353.4677829307561
 30
0.0
 10
428.0332688400769
 20
353.4691095928924
 30
0.0
 10
428.0142307816244
 20
353.4704374778458
 30
0.0
 10
427.9951931948847
 20
353.4717664445246
 30
0.0
  0
SPLINE
  5
22F
330
1F
100
AcDbEntity
  8
0
  6
Continuous
 62
     8
370
    18
100
AcDbSpline
210
0.0
220
0.0
230
1.0
 70
     8
 71
     3
 72
    26
 73
    22
 74
     0
 42
0.000000001
 43
0.00000001
 40
0.0
 40
0.0
 40
0.0
 40
0.0
 40
0.2500000000000029
 40
0.2500000000000029
 40
0.3750000000000036
 40
0.3750000000000036
 40
0.4375000000000039
 40
0.4375000000000039
 40
0.5000000000000042
 40
0.5000000000000042
 40
0.5625000000000044
 40
0.5625000000000044
 40
0.6250000000000048
 40
0.6250000000000048
 40
0.687500000000005
 40
0.687500000000005
 40
0.7500000000000053
 40
0.7500000000000053
 40
0.8750000000000027
 40
0.8750000000000027
 40
1.0
 40
1.0
 40
1.0
 40
1.0
 10
436.0332811453898
 20
355.9644588581121
 30
0.0
 10
435.9032030697138
 20
355.7461826733526
 30
0.0
 10
435.7335579020707
 20
355.4563366046478
 30
0.0
 10
435.2437160119082
 20
354.9365425520314
 30
0.0
 10
435.0440792079917
 20
354.7529134413522
 30
0.0
 10
434.661593890653
 20
354.4749158029013
 30
0.0
 10
434.5188409644924
 20
354.381143367589
 30
0.0
 10
434.2030264006453
 20
354.1991585567441
 30
0.0
 10
434.0313800832693
 20
354.1116800159641
 30
0.0
 10
433.6571482117591
 20
353.9475166097257
 30
0.0
 10
433.4526410442355
 20
353.8702538791825
 30
0.0
 10
433.0197149340088
 20
353.732475733974
 30
0.0
 10
432.793713252995
 20
353.6725178994797
 30
0.0
 10
432.3248580547108
 20
353.5698091549122
 30
0.0
 10
432.0802832624385
 20
353.526822530171
 30
0.0
 10
431.5842208106474
 20
353.4583556218641
 30
0.0
 10
431.3348890429669
 20
353.4329960722116
 30
0.0
 10
430.5837394284171
 20
353.3790711749816
 30
0.0
 10
430.0787545488496
 20
353.3728274494854
 30
0.0
 10
429.0632987078383
 20
353.3992750682697
 30
0.0
 10
428.5567134280697
 20
353.4326344703975
 30
0.0
 10
428.0523074084995
 20
353.4677829307562
 30
0.0
  0
SPLINE
  5
230
330
1F
100
AcDbEntity
  8
0
  6
Continuous
 62
     8
370
    18
100
AcDbSpline
210
0.0
220
0.0
230
1.0
 70
     8
 71
     3
 72
     8
 73
     4
 74
     0
 42
0.000000001
 43
0.00000001
 40
0.0
 40
0.0
 40
0.0
 40
0.0
 40
1.0
 40
1.0
 40
1.0
 40
1.0
 10
436.3068529115696
 20
356.4422951037978
 30
0.0
 10
436.3068528635009
 20
356.442295101227
 30
0.0
 10
436.221612491957
 20
356.2804863484104
 30
0.0
 10
436.0332811453898
 20
355.964458858112
 30
0.0
  0
LINE
  5
231
330
1F
100
AcDbEntity
  8
0
  6
Continuous
 62
     8
370
    18
100
AcDbLine
 10
388.5577333407
 20
356.0255946695
 30
0.0
 11
388.5577333407
 21
316.0169435768
 31
0.0
  0
LINE
  5
232
330
1F
100
AcDbEntity
  8
0
  6
Continuous
 62
     8
370
    18
100
AcDbLine
 10
386.2620977001
 20
316.0212686389
 30
0.0
 11
386.2620977001
 21
356.0212696074
 31
0.0
  0
LINE
  5
233
330
1F
100
AcDbEntity
  8
0
  6
Continuous
 62
     8
370
    18
100
AcDbLine
 10
440.820302187
 20
355.031649965
 30
0.0
 11
440.820302187
 21
317.1755572884
 31
0.0
  0
ARC
  5
234
330
1F
100
AcDbEntity
  8
0
  6
Continuous
 62
     8
370
    18
100
AcDbCircle
 10
440.6246717712
 20
317.1969673701
 30
0.0
 40
0.1968002201074268
100
AcDbArc
 50
332.676668113
 51
353.5535853826
  0
SPLINE
  5
235
330
1F
100
AcDbEntity
  8
0
  6
Continuous
 62
     8
370
    18
100
AcDbSpline
210
0.0
220
0.0
230
1.0
 70
     8
 71
     3
 72
    11
 73
     7
 74
     0
 42
0.000000001
 43
0.00000001
 40
0.0
 40
0.0
 40
0.0
 40
0.0
 40
0.0489813218201323
 40
0.386150081887858
 40
0.7217620661146699
 40
1.0
 40
1.0
 40
1.0
 40
1.0
 10
440.8203021870335
 20
317.1755572884315
 30
0.0
 10
440.8250200078724
 20
317.2159043191257
 30
0.0
 10
440.8622135101211
 20
317.533984938994
 30
0.0
 10
440.9216532117687
 20
318.0423015903279
 30
0.0
 10
440.9732904265623
 20
318.4841343221567
 30
0.0
 10
440.9771625097058
 20
318.5172815890282
 30
0.0
 10
440.9789175973614
 20
318.5323061524862
 30
0.0
  0
LINE
  5
236
330
1F
100
AcDbEntity
  8
0
  6
Continuous
 62
     8
370
    18
100
AcDbLine
 10
385.280606641
 20
385.6868142365
 30
0.0
 11
385.280606641
 21
362.3557271539
 31
0.0
  0
ARC
  5
237
330
1F
100
AcDbEntity
  8
0
  6
Continuous
 62
     8
370
    18
100
AcDbCircle
 10
427.2894453142
 20
353.6603394386
 30
0.0
 40
0.7867907148851556
100
AcDbArc
 50
345.8336910505
 51
355.4940474406
  0
SPLINE
  5
238
330
1F
100
AcDbEntity
  8
0
  6
Continuous
 62
     8
370
    18
100
AcDbSpline
210
0.0
220
0.0
230
1.0
 70
     8
 71
     3
 72
    23
 73
    19
 74
     0
 42
0.000000001
 43
0.00000001
 40
0.0
 40
0.0
 40
0.0
 40
0.0
 40
0.0370777178750392
 40
0.0835496893268625
 40
0.1253181408264684
 40
0.2491263647981219
 40
0.3342776555467301
 40
0.4180830742058367
 40
0.4994989494999761
 40
0.5722014660818505
 40
0.6248348399975927
 40
0.6753286161325271
 40
0.7499750304734784
 40
0.772465677638418
 40
0.8090822320962543
 40
0.8594266072259672
 40
0.9232082392972747
 40
1.0
 40
1.0
 40
1.0
 40
1.0
 10
428.0738032718461
 20
353.5985272710593
 30
0.0
 10
428.2202687489556
 20
353.5883416968124
 30
0.0
 10
428.550309156266
 20
353.5653898644802
 30
0.0
 10
429.0469129289389
 20
353.5357634440236
 30
0.0
 10
429.890295183465
 20
353.5009632380531
 30
0.0
 10
430.8987167459022
 20
353.5103532784686
 30
0.0
 10
432.05108648415
 20
353.6376496225536
 30
0.0
 10
432.9810754449627
 20
353.8409918593285
 30
0.0
 10
433.7546341008999
 20
354.1224236944395
 30
0.0
 10
434.3002084295276
 20
354.4127025082593
 30
0.0
 10
434.6785652373698
 20
354.670352686205
 30
0.0
 10
434.9984705607077
 20
354.9294731545158
 30
0.0
 10
435.2094464962167
 20
355.1367314883174
 30
0.0
 10
435.3701136356286
 20
355.3139945041809
 30
0.0
 10
435.4876008314283
 20
355.4537397991088
 30
0.0
 10
435.6239828253304
 20
355.6342052504517
 30
0.0
 10
435.7636624454298
 20
355.842919198862
 30
0.0
 10
435.8392160485807
 20
355.9686382121031
 30
0.0
 10
435.8804891095697
 20
356.0373153933966
 30
0.0
  0
ARC
  5
239
330
1F
100
AcDbEntity
  8
0
  6
Continuous
 62
     8
370
    18
100
AcDbCircle
 10
436.0375427388
 20
356.1700300518
 30
0.0
 40
0.2056152755143163
100
AcDbArc
 50
220.1991959433
 51
268.8125824626
  0
SPLINE
  5
23A
330
1F
100
AcDbEntity
  8
0
  6
Continuous
 62
     8
370
    18
100
AcDbSpline
210
0.0
220
0.0
230
1.0
 70
     8
 71
     3
 72
    32
 73
    28
 74
     0
 42
0.000000001
 43
0.00000001
 40
0.0
 40
0.0
 40
0.0
 40
0.0
 40
0.1249999999999972
 40
0.1249999999999972
 40
0.2499999999999944
 40
0.2499999999999944
 40
0.3124999999999949
 40
0.3124999999999949
 40
0.3749999999999953
 40
0.3749999999999953
 40
0.4374999999999958
 40
0.4374999999999958
 40
0.4999999999999962
 40
0.4999999999999962
 40
0.5624999999999966
 40
0.5624999999999966
 40
0.624999999999997
 40
0.624999999999997
 40
0.6874999999999973
 40
0.6874999999999973
 40
0.7499999999999978
 40
0.7499999999999978
 40
0.8749999999999989
 40
0.8749999999999989
 40
0.9374999999999993
 40
0.9374999999999993
 40
1.0
 40
1.0
 40
1.0
 40
1.0
 10
428.1267374361498
 20
354.0143750028333
 30
0.0
 10
428.5981523891702
 20
353.9820747431009
 30
0.0
 10
429.070142222877
 20
353.9530805910637
 30
0.0
 10
430.0202371395837
 20
353.9274494475502
 30
0.0
 10
430.5013296113491
 20
353.9330842537851
 30
0.0
 10
431.2057995791268
 20
353.9835721652233
 30
0.0
 10
431.438450086773
 20
354.007154538686
 30
0.0
 10
431.8984299060879
 20
354.0706147874042
 30
0.0
 10
432.1272894738508
 20
354.1110443077122
 30
0.0
 10
432.5632338636378
 20
354.2086582682555
 30
0.0
 10
432.7717467567629
 20
354.2658920555344
 30
0.0
 10
433.1677091753822
 20
354.3975031955757
 30
0.0
 10
433.3537830368748
 20
354.4737491254779
 30
0.0
 10
433.6919707639049
 20
354.6331856500606
 30
0.0
 10
433.8465524957146
 20
354.7176976163453
 30
0.0
 10
434.1261093250106
 20
354.8919095127798
 30
0.0
 10
434.2493580157273
 20
354.9800724492266
 30
0.0
 10
434.4715495658966
 20
355.1542638739045
 30
0.0
 10
434.5703116868105
 20
355.2403467030913
 30
0.0
 10
434.7479644934256
 20
355.4089991744739
 30
0.0
 10
434.8272085218585
 20
355.4917505173871
 30
0.0
 10
435.0387087956454
 20
355.727869558396
 30
0.0
 10
435.1442840271508
 20
355.8722973320992
 30
0.0
 10
435.2733329296092
 20
356.0665972480426
 30
0.0
 10
435.3114781413801
 20
356.1273712538141
 30
0.0
 10
435.3813972594301
 20
356.2402331438134
 30
0.0
 10
435.4138192274494
 20
356.2914400180268
 30
0.0
 10
435.4417645722382
 20
356.3424004938033
 30
0.0
  0
ARC
  5
23B
330
1F
100
AcDbEntity
  8
0
  6
Continuous
 62
     8
370
    18
100
AcDbCircle
 10
435.0930087316
 20
355.372871939
 30
0.0
 40
1.030348181386088
100
AcDbArc
 50
40.1562002161
 51
70.2154500364
  0
ARC
  5
23C
330
1F
100
AcDbEntity
  8
0
  6
Continuous
 62
     8
370
    18
100
AcDbCircle
 10
433.6759905097
 20
353.0966778155
 30
0.0
 40
5.624619465652123
100
AcDbArc
 50
170.609794106
 51
174.8810524554
  0
SPLINE
  5
23D
330
1F
100
AcDbEntity
  8
0
  6
Continuous
 62
     8
370
    18
100
AcDbSpline
210
0.0
220
0.0
230
1.0
 70
     8
 71
     3
 72
     8
 73
     4
 74
     0
 42
0.000000001
 43
0.00000001
 40
0.0
 40
0.0
 40
0.0
 40
0.0
 40
1.0
 40
1.0
 40
1.0
 40
1.0
 10
428.0167646145136
 20
353.6025110468759
 30
0.0
 10
428.0115186197185
 20
353.5485546712197
 30
0.0
 10
428.0035030779248
 20
353.4999250201696
 30
0.0
 10
427.9952139674295
 20
353.4717649944452
 30
0.0
  0
SPLINE
  5
23E
330
1F
100
AcDbEntity
  8
0
  6
Continuous
 62
     8
370
    18
100
AcDbSpline
210
0.0
220
0.0
230
1.0
 70
     8
 71
     3
 72
     8
 73
     4
 74
     0
 42
0.000000001
 43
0.00000001
 40
0.0
 40
0.0
 40
0.0
 40
0.0
 40
0.0000577096167922
 40
0.0000577096167922
 40
0.0000577096167922
 40
0.0000577096167922
 10
428.0167438602145
 20
353.6025124979129
 30
0.0
 10
428.03576315397
 20
353.601182763275
 30
0.0
 10
428.0547829569115
 20
353.599854431232
 30
0.0
 10
428.0738032718463
 20
353.598527271059
 30
0.0
  0
ARC
  5
23F
330
1F
100
AcDbEntity
  8
0
  6
Continuous
 62
     8
370
    18
100
AcDbCircle
 10
402.9840188319
 20
355.4947595635
 30
0.0
 40
0.2159621274491459
100
AcDbArc
 50
323.4649098734
 51
352.7076120478
  0
SPLINE
  5
240
330
1F
100
AcDbEntity
  8
0
  6
Continuous
 62
     8
370
    18
100
AcDbSpline
210
0.0
220
0.0
230
1.0
 70
     8
 71
     3
 72
    14
 73
    10
 74
     0
 42
0.000000001
 43
0.00000001
 40
0.0
 40
0.0
 40
0.0
 40
0.0
 40
0.25
 40
0.25
 40
0.5
 40
0.5
 40
0.75
 40
0.75
 40
1.0
 40
1.0
 40
1.0
 40
1.0
 10
403.1982557872404
 20
355.4673461040386
 30
0.0
 10
405.2313861678148
 20
355.3265692087702
 30
0.0
 10
407.2820250229252
 20
355.1821905048
 30
0.0
 10
411.3987778078741
 20
354.8785640010958
 30
0.0
 10
413.4636566366147
 20
354.719636517654
 30
0.0
 10
417.6034168252856
 20
354.39650336434
 30
0.0
 10
419.6783201613802
 20
354.2325104508391
 30
0.0
 10
423.8386053775513
 20
353.9091697436251
 30
0.0
 10
425.9238569078397
 20
353.7492497453933
 30
0.0
 10
428.0167502519395
 20
353.6025033442302
 30
0.0
  0
SPLINE
  5
241
330
1F
100
AcDbEntity
  8
0
  6
Continuous
 62
     8
370
    18
100
AcDbSpline
210
0.0
220
0.0
230
1.0
 70
     8
 71
     3
 72
    10
 73
     6
 74
     0
 42
0.000000001
 43
0.00000001
 40
0.0
 40
0.0
 40
0.0
 40
0.0
 40
0.5
 40
0.5
 40
1.0
 40
1.0
 40
1.0
 40
1.0
 10
435.441764572242
 20
356.3424004938025
 30
0.0
 10
435.5284889292973
 20
356.50054899872
 30
0.0
 10
435.5907362861128
 20
356.6112388231814
 30
0.0
 10
435.6709968687115
 20
356.7601675968197
 30
0.0
 10
435.6903052380167
 20
356.7970515770139
 30
0.0
 10
435.6903048220597
 20
356.797051955883
 30
0.0
  0
SPLINE
  5
242
330
1F
100
AcDbEntity
  8
0
  6
Continuous
 62
     8
370
    18
100
AcDbSpline
210
0.0
220
0.0
230
1.0
 70
     8
 71
     3
 72
    11
 73
     7
 74
     0
 42
0.000000001
 43
0.00000001
 40
-0.00000006
 40
-0.00000006
 40
-0.00000006
 40
-0.00000006
 40
0.0
 40
0.0
 40
0.0
 40
0.0000567126826241
 40
0.0000567126826241
 40
0.0000567126826241
 40
0.0000567126826241
 10
428.0706091243543
 20
354.0182393499281
 30
0.0
 10
428.0706288958924
 20
354.0182379814559
 30
0.0
 10
428.0706486674304
 20
354.0182366129734
 30
0.0
 10
428.0706684389709
 20
354.0182352445084
 30
0.0
 10
428.0893567239324
 20
354.0169417558481
 30
0.0
 10
428.1080464502855
 20
354.0156556658543
 30
0.0
 10
428.1267374361405
 20
354.0143750028338
 30
0.0
  0
SPLINE
  5
243
330
1F
100
AcDbEntity
  8
0
  6
Continuous
 62
     8
370
    18
100
AcDbSpline
210
0.0
220
0.0
230
1.0
 70
     8
 71
     3
 72
    11
 73
     7
 74
     0
 42
0.000000001
 43
0.00000001
 40
0.044219734686687
 40
0.044219734686687
 40
0.044219734686687
 40
0.044219734686687
 40
0.47938232421875
 40
0.712042236328125
 40
0.9447021484375
 40
0.9641244587562938
 40
0.9641244587562938
 40
0.9641244587562938
 40
0.9641244587562938
 10
428.0706131255072
 20
354.0182988904126
 30
0.0
 10
428.084622029371
 20
354.8910750354478
 30
0.0
 10
428.1147250925257
 20
355.9770154061956
 30
0.0
 10
428.1731466152651
 20
356.9160154349861
 30
0.0
 10
428.211289040801
 20
357.2243199298566
 30
0.0
 10
428.233011519807
 20
357.3290572696097
 30
0.0
 10
428.2346958587333
 20
357.3368125341819
 30
0.0
  0
SPLINE
  5
244
330
1F
100
AcDbEntity
  8
0
  6
Continuous
 62
     8
370
    18
100
AcDbSpline
210
0.0
220
0.0
230
1.0
 70
     8
 71
     3
 72
    16
 73
    12
 74
     0
 42
0.000000001
 43
0.00000001
 40
0.0
 40
0.0
 40
0.0
 40
0.0
 40
0.1249999999999997
 40
0.1249999999999997
 40
0.2499999999999994
 40
0.2499999999999994
 40
0.4999999999999997
 40
0.4999999999999997
 40
0.7499999999999999
 40
0.7499999999999999
 40
1.0
 40
1.0
 40
1.0
 40
1.0
 10
403.3115801476067
 20
355.8649433985667
 30
0.0
 10
404.3222636343755
 20
355.796582406079
 30
0.0
 10
405.3400461467765
 20
355.7334318965388
 30
0.0
 10
407.3803963117487
 20
355.6009697516991
 30
0.0
 10
408.4031060776338
 20
355.5317023946205
 30
0.0
 10
411.4767383212208
 20
355.3079758859153
 30
0.0
 10
413.5341450477897
 20
355.1372716964397
 30
0.0
 10
417.6659010571264
 20
354.8032923206131
 30
0.0
 10
419.7391698091251
 20
354.6405774080298
 30
0.0
 10
423.8966146071973
 20
354.3204134806007
 30
0.0
 10
425.9803436897672
 20
354.1618628352225
 30
0.0
 10
428.0706144706828
 20
354.0183826953321
 30
0.0
  0
SPLINE
  5
245
330
1F
100
AcDbEntity
  8
0
  6
Continuous
 62
     8
370
    18
100
AcDbSpline
210
0.0
220
0.0
230
1.0
 70
     8
 71
     3
 72
     8
 73
     4
 74
     0
 42
0.000000001
 43
0.00000001
 40
0.0
 40
0.0
 40
0.0
 40
0.0
 40
1.0
 40
1.0
 40
1.0
 40
1.0
 10
428.0167509575427
 20
353.6025107749928
 30
0.0
 10
428.0311085805768
 20
353.7537111978824
 30
0.0
 10
428.0497109017071
 20
353.8973368650597
 30
0.0
 10
428.0706144706829
 20
354.0183826953321
 30
0.0
  0
SPLINE
  5
246
330
1F
100
AcDbEntity
  8
0
  6
Continuous
 62
     8
370
    18
100
AcDbSpline
210
0.0
220
0.0
230
1.0
 70
     8
 71
     3
 72
     8
 73
     4
 74
     0
 42
0.000000001
 43
0.00000001
 40
0.0
 40
0.0
 40
0.0
 40
0.0
 40
1.0
 40
1.0
 40
1.0
 40
1.0
 10
403.3115804290273
 20
355.8649433795329
 30
0.0
 10
403.2667753576714
 20
355.769555824119
 30
0.0
 10
403.2270536303392
 20
355.6303140290428
 30
0.0
 10
403.1982557872411
 20
355.4673461040385
 30
0.0
  0
SPLINE
  5
247
330
1F
100
AcDbEntity
  8
0
  6
Continuous
 62
     8
370
    18
100
AcDbSpline
210
0.0
220
0.0
230
1.0
 70
     8
 71
     3
 72
    11
 73
     7
 74
     0
 42
0.000000001
 43
0.00000001
 40
-0.0980497121990119
 40
-0.0980497121990119
 40
-0.0980497121990119
 40
-0.0980497121990119
 40
0.0
 40
0.0
 40
0.0
 40
0.8094990553115612
 40
0.8094990553115612
 40
0.8094990553115612
 40
0.8094990553115612
 10
403.908419471386
 20
356.5496573132759
 30
0.0
 10
403.8869914453537
 20
356.5389977258001
 30
0.0
 10
403.8655634193215
 20
356.5283381383243
 30
0.0
 10
403.8441353932892
 20
356.5176785508486
 30
0.0
 10
403.66722547238
 20
356.4296729280059
 30
0.0
 10
403.4897099401188
 20
356.2121001625523
 30
0.0
 10
403.3115887965056
 20
355.8649602544879
 30
0.0
  0
SPLINE
  5
248
330
1F
100
AcDbEntity
  8
0
  6
Continuous
 62
     8
370
    18
100
AcDbSpline
210
0.0
220
0.0
230
1.0
 70
     8
 71
     3
 72
     9
 73
     5
 74
     0
 42
0.000000001
 43
0.00000001
 40
0.0
 40
0.0
 40
0.0
 40
0.0
 40
0.5096443701644262
 40
1.0
 40
1.0
 40
1.0
 40
1.0
 10
427.4538389029207
 20
359.9984777620323
 30
0.0
 10
427.4046238771311
 20
359.9908302634834
 30
0.0
 10
427.3080564888292
 20
359.975824704712
 30
0.0
 10
427.2119248064845
 20
359.9609174882021
 30
0.0
 10
427.1647860948414
 20
359.9536076506614
 30
0.0
  0
LINE
  5
249
330
1F
100
AcDbEntity
  8
0
  6
Continuous
 62
     8
370
    18
100
AcDbLine
 10
427.4851263748
 20
357.3128296166
 30
0.0
 11
427.164788662
 21
359.9536078154
 31
0.0
  0
ARC
  5
24A
330
1F
100
AcDbEntity
  8
0
  6
Continuous
 62
     8
370
    18
100
AcDbCircle
 10
400.2167832727
 20
356.2074251845
 30
0.0
 40
0.2008059796235756
100
AcDbArc
 50
271.4469285423
 51
314.1903848389
  0
SPLINE
  5
24B
330
1F
100
AcDbEntity
  8
0
  6
Continuous
 62
     8
370
    18
100
AcDbSpline
210
0.0
220
0.0
230
1.0
 70
     8
 71
     3
 72
    18
 73
    14
 74
     0
 42
0.000000001
 43
0.00000001
 40
0.0
 40
0.0
 40
0.0
 40
0.0
 40
0.2500000000000022
 40
0.2500000000000022
 40
0.3750000000000026
 40
0.3750000000000026
 40
0.5000000000000029
 40
0.5000000000000029
 40
0.6250000000000032
 40
0.6250000000000032
 40
0.7500000000000036
 40
0.7500000000000036
 40
1.0
 40
1.0
 40
1.0
 40
1.0
 10
400.3567557574879
 20
356.0634424032999
 30
0.0
 10
400.4115065007861
 20
356.0224468768442
 30
0.0
 10
400.4790815135422
 20
355.9722038922905
 30
0.0
 10
400.6554257007545
 20
355.8806299388697
 30
0.0
 10
400.7271814317859
 20
355.8480119907391
 30
0.0
 10
400.9061692371484
 20
355.7822170990181
 30
0.0
 10
401.0157573428604
 20
355.7484593186188
 30
0.0
 10
401.2721281153901
 20
355.6853736226506
 30
0.0
 10
401.4171872985238
 20
355.6564245639443
 30
0.0
 10
401.7353639058858
 20
355.6042816581037
 30
0.0
 10
401.9083405787035
 20
355.5811088841603
 30
0.0
 10
402.4390189116737
 20
355.5211905166581
 30
0.0
 10
402.8174603623864
 20
355.4935846968294
 30
0.0
 10
403.1982560952824
 20
355.4673478472543
 30
0.0
  0
SPLINE
  5
24C
330
1F
100
AcDbEntity
  8
0
  6
Continuous
 62
     8
370
    18
100
AcDbSpline
210
0.0
220
0.0
230
1.0
 70
     8
 71
     3
 72
    20
 73
    16
 74
     0
 42
0.000000001
 43
0.00000001
 40
0.0
 40
0.0
 40
0.0
 40
0.0
 40
0.125
 40
0.125
 40
0.2500000000000001
 40
0.2500000000000001
 40
0.3750000000000001
 40
0.3750000000000001
 40
0.5000000000000001
 40
0.5000000000000001
 40
0.6250000000000001
 40
0.6250000000000001
 40
0.7500000000000002
 40
0.7500000000000002
 40
1.0
 40
1.0
 40
1.0
 40
1.0
 10
400.8587871197398
 20
356.3306166004134
 30
0.0
 10
400.8800522512848
 20
356.3149499237443
 30
0.0
 10
400.9063783695565
 20
356.3013231341831
 30
0.0
 10
400.9662786478573
 20
356.2664187323161
 30
0.0
 10
401.0018046658868
 20
356.2451526680003
 30
0.0
 10
401.0935488537187
 20
356.1973743162537
 30
0.0
 10
401.1502247138671
 20
356.1709165009511
 30
0.0
 10
401.2962852677592
 20
356.1175070952114
 30
0.0
 10
401.3878856178494
 20
356.0900525588582
 30
0.0
 10
401.6072291732713
 20
356.0387370275935
 30
0.0
 10
401.734057130034
 20
356.0161293377822
 30
0.0
 10
402.0134087751867
 20
355.9757215911847
 30
0.0
 10
402.1663104528863
 20
355.9577633681088
 30
0.0
 10
402.6366673072885
 20
355.9108531960071
 30
0.0
 10
402.9736832601636
 20
355.886944628716
 30
0.0
 10
403.3115887965056
 20
355.8649602544879
 30
0.0
  0
ARC
  5
24D
330
1F
100
AcDbEntity
  8
0
  6
Continuous
 62
     8
370
    18
100
AcDbCircle
 10
401.0578726933
 20
355.3512664232
 30
0.0
 40
0.9993803481717729
100
AcDbArc
 50
101.490812848
 51
134.5517650381
  0
SPLINE
  5
24E
330
1F
100
AcDbEntity
  8
0
  6
Continuous
 62
     8
370
    18
100
AcDbSpline
210
0.0
220
0.0
230
1.0
 70
     8
 71
     3
 72
    20
 73
    16
 74
     0
 42
0.000000001
 43
0.00000001
 40
0.0
 40
0.0
 40
0.0
 40
0.0
 40
0.0768964513735296
 40
0.1537908397933005
 40
0.2306858677068644
 40
0.3075840550066447
 40
0.384487713042149
 40
0.4613989522343199
 40
0.5383196897083213
 40
0.6152513436769103
 40
0.6921926613813442
 40
0.7691410331285753
 40
0.8460936855164413
 40
0.9230476960071847
 40
1.0
 40
1.0
 40
1.0
 40
1.0
 10
427.1647855937958
 20
359.9536110928932
 30
0.0
 10
426.5843220063176
 20
359.8742143029588
 30
0.0
 10
425.4234104038552
 20
359.7154228531219
 30
0.0
 10
423.6807211801495
 20
359.4759428328804
 30
0.0
 10
421.9371350275948
 20
359.2356028287653
 30
0.0
 10
420.1925712708937
 20
358.9943663730626
 30
0.0
 10
418.4470721578992
 20
358.7523210127086
 30
0.0
 10
416.7006468998358
 20
358.5095211634786
 30
0.0
 10
414.9533158648936
 20
358.2660300382901
 30
0.0
 10
413.2051184078905
 20
358.0219130852603
 30
0.0
 10
411.4561247095651
 20
357.7772285186152
 30
0.0
 10
409.706436078138
 20
357.5320375815106
 30
0.0
 10
407.9561511783697
 20
357.2863949945045
 30
0.0
 10
406.205412331075
 20
357.0403873784787
 30
0.0
 10
405.0379076377683
 20
356.8761127455176
 30
0.0
 10
404.4541617637029
 20
356.7939763397673
 30
0.0
  0
LINE
  5
24F
330
1F
100
AcDbEntity
  8
0
  6
Continuous
 62
     8
370
    18
100
AcDbLine
 10
404.4541635798
 20
356.7939767717
 30
0.0
 11
404.4541635798
 21
356.5632583677
 31
0.0
  0
ARC
  5
250
330
1F
100
AcDbEntity
  8
0
  6
Continuous
 62
     8
370
    18
100
AcDbCircle
 10
429.3200474468
 20
360.4730864523
 30
0.0
 40
2.2169787128669
100
AcDbArc
 50
167.7701216176
 51
193.5513420463
  0
SPLINE
  5
251
330
1F
100
AcDbEntity
  8
0
  6
Continuous
 62
     8
370
    18
100
AcDbSpline
210
0.0
220
0.0
230
1.0
 70
     8
 71
     3
 72
    10
 73
     6
 74
     0
 42
0.000000001
 43
0.00000001
 40
0.0
 40
0.0
 40
0.0
 40
0.0
 40
0.5
 40
0.5
 40
1.0
 40
1.0
 40
1.0
 40
1.0
 10
427.7082755139828
 20
361.0425275253866
 30
0.0
 10
427.7091643688425
 20
361.037030392692
 30
0.0
 10
427.6473886866076
 20
361.0223043075796
 30
0.0
 10
427.4381863244341
 20
360.9844220080566
 30
0.0
 10
427.2925016989392
 20
360.9616654323195
 30
0.0
 10
427.1533792939828
 20
360.9427188653866
 30
0.0
  0
ARC
  5
252
330
1F
100
AcDbEntity
  8
0
  6
Continuous
 62
     8
370
    18
100
AcDbCircle
 10
427.8492372827
 20
360.0529133616
 30
0.0
 40
0.9996020906196559
100
AcDbArc
 50
9.2149621725
 51
98.1065656232
  0
ARC
  5
253
330
1F
100
AcDbEntity
  8
0
  6
Continuous
 62
     8
370
    18
100
AcDbCircle
 10
408.0744505519
 20
357.5422765953
 30
0.0
 40
3.696817193203375
100
AcDbArc
 50
176.2537867013
 51
191.6783529566
  0
SPLINE
  5
254
330
1F
100
AcDbEntity
  8
0
  6
Continuous
 62
     8
370
    18
100
AcDbSpline
210
0.0
220
0.0
230
1.0
 70
     8
 71
     3
 72
     8
 73
     4
 74
     0
 42
0.000000001
 43
0.00000001
 40
0.0
 40
0.0
 40
0.0
 40
0.0
 40
1.0
 40
1.0
 40
1.0
 40
1.0
 10
427.153379383983
 20
360.9427187853865
 30
0.0
 10
419.5869932639828
 20
359.9122814653867
 30
0.0
 10
411.9907753139825
 20
358.8520716953868
 30
0.0
 10
404.3855336039825
 20
357.7838167053869
 30
0.0
  0
SPLINE
  5
255
330
1F
100
AcDbEntity
  8
0
  6
Continuous
 62
     8
370
    18
100
AcDbSpline
210
0.0
220
0.0
230
1.0
 70
     8
 71
     3
 72
    10
 73
     6
 74
     0
 42
0.000000001
 43
0.00000001
 40
0.0
 40
0.0
 40
0.0
 40
0.0
 40
0.5
 40
0.5
 40
1.0
 40
1.0
 40
1.0
 40
1.0
 10
400.7280174308995
 20
356.4241666261422
 30
0.0
 10
400.7280177406107
 20
356.4241663873191
 30
0.0
 10
400.7390257363365
 20
356.4167152877447
 30
0.0
 10
400.7827723770968
 20
356.3867795055993
 30
0.0
 10
400.816038316705
 20
356.3621109588531
 30
0.0
 10
400.8587871197406
 20
356.3306166004129
 30
0.0
  0
SPLINE
  5
256
330
1F
100
AcDbEntity
  8
0
  6
Continuous
 62
     8
370
    18
100
AcDbSpline
210
0.0
220
0.0
230
1.0
 70
     8
 71
     3
 72
    10
 73
     6
 74
     0
 42
0.000000001
 43
0.00000001
 40
0.0
 40
0.0
 40
0.0
 40
0.0
 40
0.4999999999999997
 40
0.4999999999999997
 40
1.0
 40
1.0
 40
1.0
 40
1.0
 10
404.3855336039826
 20
357.7838167053869
 30
0.0
 10
404.2617914020771
 20
357.766435508124
 30
0.0
 10
404.1416844007521
 20
357.7506336040228
 30
0.0
 10
403.9709857925289
 20
357.7300516458201
 30
0.0
 10
403.9215016069763
 20
357.7253728377623
 30
0.0
 10
403.9214987139826
 20
357.7274450853868
 30
0.0
  0
SPLINE
  5
257
330
1F
100
AcDbEntity
  8
0
  6
Continuous
 62
     8
370
    18
100
AcDbSpline
210
0.0
220
0.0
230
1.0
 70
     8
 71
     3
 72
     9
 73
     5
 74
     0
 42
0.000000001
 43
0.00000001
 40
0.0
 40
0.0
 40
0.0
 40
0.0
 40
0.4999625163143239
 40
0.9999999999999999
 40
0.9999999999999999
 40
0.9999999999999999
 40
0.9999999999999999
 10
403.9214802246624
 20
357.7407243106003
 30
0.0
 10
403.9214809647078
 20
357.7401710589178
 30
0.0
 10
403.9214824449095
 20
357.7390644725948
 30
0.0
 10
403.9214932903578
 20
357.7313184103436
 30
0.0
 10
403.9214987134883
 20
357.7274450888671
 30
0.0
  0
SPLINE
  5
258
330
1F
100
AcDbEntity
  8
0
  6
Continuous
 62
     8
370
    18
100
AcDbSpline
210
0.0
220
0.0
230
1.0
 70
     8
 71
     3
 72
     8
 73
     4
 74
     0
 42
0.000000001
 43
0.00000001
 40
0.0
 40
0.0
 40
0.0
 40
0.0
 40
1.0
 40
1.0
 40
1.0
 40
1.0
 10
427.6961432339828
 20
361.1173855153866
 30
0.0
 10
427.6961432339828
 20
361.1173855153866
 30
0.0
 10
427.7002111939828
 20
361.0924296053865
 30
0.0
 10
427.7082782639828
 20
361.0425280053865
 30
0.0
  0
SPLINE
  5
259
330
1F
100
AcDbEntity
  8
0
  6
Continuous
 62
     8
370
    18
100
AcDbSpline
210
0.0
220
0.0
230
1.0
 70
     8
 71
     3
 72
    10
 73
     6
 74
     0
 42
0.000000001
 43
0.00000001
 40
0.0
 40
0.0
 40
0.0
 40
0.0
 40
0.5
 40
0.5
 40
1.0
 40
1.0
 40
1.0
 40
1.0
 10
435.8804891095706
 20
356.0373153933958
 30
0.0
 10
435.9741396331475
 20
356.1948106337618
 30
0.0
 10
436.0436326931892
 20
356.3120903195386
 30
0.0
 10
436.1350160807054
 20
356.4684437832057
 30
0.0
 10
436.1571209473755
 20
356.5077514088317
 30
0.0
 10
436.1571209468748
 20
356.5077514368339
 30
0.0
  0
SPLINE
  5
25A
330
1F
100
AcDbEntity
  8
0
  6
Continuous
 62
     8
370
    18
100
AcDbSpline
210
0.0
220
0.0
230
1.0
 70
     8
 71
     3
 72
    23
 73
    19
 74
     0
 42
0.000000001
 43
0.00000001
 40
0.0
 40
0.0
 40
0.0
 40
0.0
 40
0.0527836491918513
 40
0.1040762268835839
 40
0.1538777585846903
 40
0.2021882798893083
 40
0.2490078375264903
 40
0.294336490583093
 40
0.3381743119344097
 40
0.3805213899264076
 40
0.421377830364521
 40
0.4607437588785421
 40
0.498619323752226
 40
0.6011776034110465
 40
0.7025905967316781
 40
0.802862444074616
 40
0.9019974321062154
 40
1.0
 40
1.0
 40
1.0
 40
1.0
 10
404.4541616341654
 20
356.7939762253869
 30
0.0
 10
404.4148107244729
 20
356.792144136741
 30
0.0
 10
404.3372205186434
 20
356.7885317136422
 30
0.0
 10
404.2240236156893
 20
356.7833747760798
 30
0.0
 10
404.1159812172912
 20
356.7785098754675
 30
0.0
 10
404.0135556158689
 20
356.7739491279801
 30
0.0
 10
403.917027131952
 20
356.7696894149032
 30
0.0
 10
403.826593847519
 20
356.7657315039296
 30
0.0
 10
403.7423579080376
 20
356.7620752140976
 30
0.0
 10
403.6643407233992
 20
356.7587204329499
 30
0.0
 10
403.5924923605198
 20
356.7556676310178
 30
0.0
 10
403.5266967764841
 20
356.7529149906393
 30
0.0
 10
403.4319131816508
 20
356.7490442141627
 30
0.0
 10
403.3182180463111
 20
356.7446250823292
 30
0.0
 10
403.2039815764965
 20
356.7405011216111
 30
0.0
 10
403.1224856726128
 20
356.7379256023361
 30
0.0
 10
403.0715145356126
 20
356.7367514799297
 30
0.0
 10
403.0652239815303
 20
356.7372589018315
 30
0.0
 10
403.0620967719501
 20
356.7375111553869
 30
0.0
  0
ARC
  5
25B
330
1F
100
AcDbEntity
  8
0
  6
Continuous
 62
     8
370
    18
100
AcDbCircle
 10
404.0620071807
 20
356.7374563845
 30
0.0
 40
0.9999100810930819
100
AcDbArc
 50
98.0779719446
 51
179.9968885884
  0
SPLINE
  5
25C
330
1F
100
AcDbEntity
  8
0
  6
Continuous
 62
     8
370
    18
100
AcDbSpline
210
0.0
220
0.0
230
1.0
 70
     8
 71
     3
 72
     8
 73
     4
 74
     0
 42
0.000000001
 43
0.00000001
 40
0.0
 40
0.0
 40
0.0
 40
0.0
 40
1.0
 40
1.0
 40
1.0
 40
1.0
 10
400.207467089682
 20
356.1776518743712
 30
0.0
 10
400.2074670676834
 20
356.1776517320639
 30
0.0
 10
400.2557520403637
 20
356.1390706104805
 30
0.0
 10
400.3567557574879
 20
356.0634424032999
 30
0.0
  0
SPLINE
  5
25D
330
1F
100
AcDbEntity
  8
0
  6
Continuous
 62
     8
370
    18
100
AcDbSpline
210
0.0
220
0.0
230
1.0
 70
     8
 71
     3
 72
    24
 73
    20
 74
     0
 42
0.000000001
 43
0.00000001
 40
0.0
 40
0.0
 40
0.0
 40
0.0
 40
0.0563078919421673
 40
0.1140436929913012
 40
0.1730374109628642
 40
0.2330919259966801
 40
0.2939858252149867
 40
0.3554775418500002
 40
0.4173106587430708
 40
0.4792199817607372
 40
0.5409381682515589
 40
0.6022032238135002
 40
0.6627646122635021
 40
0.7223890572143665
 40
0.7808653464553922
 40
0.838007899050744
 40
0.8936590096304184
 40
0.947689799626778
 40
1.0
 40
1.0
 40
1.0
 40
1.0
 10
427.4538574307564
 20
359.9984834465106
 30
0.0
 10
427.4955121512405
 20
360.0049576419852
 30
0.0
 10
427.5798779122499
 20
360.0180702117443
 30
0.0
 10
427.7060198980744
 20
360.0376728744084
 30
0.0
 10
427.8322216078778
 20
360.0572730551048
 30
0.0
 10
427.9568137047513
 20
360.0766097388166
 30
0.0
 10
428.0781371009447
 20
360.095428459388
 30
0.0
 10
428.1944975279224
 20
360.1134761465752
 30
0.0
 10
428.3042685115573
 20
360.1305166591236
 30
0.0
 10
428.4059550214743
 20
360.1463433584295
 30
0.0
 10
428.4982756878783
 20
360.1607101049228
 30
0.0
 10
428.580197352159
 20
360.173454246268
 30
0.0
 10
428.6509775463238
 20
360.184455314867
 30
0.0
 10
428.7101886423089
 20
360.1936469304994
 30
0.0
 10
428.7576847983627
 20
360.2010075970088
 30
0.0
 10
428.7936943429248
 20
360.2065746046115
 30
0.0
 10
428.8183794618886
 20
360.2103730046906
 30
0.0
 10
428.8332470939177
 20
360.2126379004421
 30
0.0
 10
428.8350514059007
 20
360.2128730640674
 30
0.0
 10
428.8359389650727
 20
360.2129887434148
 30
0.0
  0
ENDSEC
  0
SECTION
  2
OBJECTS
  0
DICTIONARY
  5
C
330
0
100
AcDbDictionary
281
     1
  3
ACAD_GROUP
350
D
  3
ACAD_LAYOUT
350
1A
  3
ACAD_MLINESTYLE
350
17
  3
ACAD_PLOTSETTINGS
350
19
  3
ACAD_PLOTSTYLENAME
350
E
  3
ACAD_SCALELIST
350
47
  0
DICTIONARY
  5
D
102
{ACAD_REACTORS
330
C
102
}
330
C
100
AcDbDictionary
281
     1
  0
DICTIONARY
  5
1A
102
{ACAD_REACTORS
330
C
102
}
330
C
100
AcDbDictionary
281
     1
  3
Layout1
350
1E
  3
Layout2
350
26
  3
Model
350
22
  0
DICTIONARY
  5
17
102
{ACAD_REACTORS
330
C
102
}
330
C
100
AcDbDictionary
281
     1
  3
Standard
350
18
  0
DICTIONARY
  5
19
102
{ACAD_REACTORS
330
C
102
}
330
C
100
AcDbDictionary
281
     1
  0
ACDBDICTIONARYWDFLT
  5
E
102
{ACAD_REACTORS
330
C
102
}
330
C
100
AcDbDictionary
281
     1
  3
Normal
350
F
100
AcDbDictionaryWithDefault
340
F
  0
DICTIONARY
  5
47
102
{ACAD_REACTORS
330
C
102
}
330
C
100
AcDbDictionary
281
     1
  3
A0
350
48
  3
A1
350
49
  3
A2
350
4A
  3
A3
350
4B
  3
A4
350
4C
  3
A5
350
4D
  3
A6
350
4E
  3
A7
350
4F
  3
A8
350
50
  3
A9
350
51
  3
B0
350
52
  3
B1
350
53
  3
B2
350
54
  3
B3
350
55
  3
B4
350
56
  3
B5
350
57
  3
B6
350
58
  3
B7
350
59
  3
B8
350
5A
  3
B9
350
5B
  3
C0
350
5C
  3
C1
350
5D
  3
C2
350
5E
  3
C3
350
5F
  3
C4
350
60
  3
C5
350
61
  3
C6
350
62
  3
C7
350
63
  3
C8
350
64
  3
C9
350
65
  3
D0
350
66
  3
D1
350
67
  3
D2
350
68
  0
LAYOUT
  5
1E
102
{ACAD_REACTORS
330
1A
102
}
330
1A
100
AcDbPlotSettings
  1

  2
none_device
  4

  6

 40
0.0
 41
0.0
 42
0.0
 43
0.0
 44
0.0
 45
0.0
 46
0.0
 47
0.0
 48
0.0
 49
0.0
140
0.0
141
0.0
142
1.0
143
1.0
 70
   688
 72
     1
 73
     0
 74
     5
  7

 75
    16
147
1.0
148
0.0
149
0.0
100
AcDbLayout
  1
Layout1
 70
     1
 71
     1
 10
0.0
 20
0.0
 11
420.0
 21
297.0
 12
0.0
 22
0.0
 32
0.0
 14
1.0000000000E+20
 24
1.0000000000E+20
 34
1.0000000000E+20
 15
-1.0000000000E+20
 25
-1.0000000000E+20
 35
-1.0000000000E+20
146
0.0
 13
0.0
 23
0.0
 33
0.0
 16
1.0
 26
0.0
 36
0.0
 17
0.0
 27
1.0
 37
0.0
 76
     0
330
1B
  0
LAYOUT
  5
26
102
{ACAD_REACTORS
330
1A
102
}
330
1A
100
AcDbPlotSettings
  1

  2
none_device
  4

  6

 40
0.0
 41
0.0
 42
0.0
 43
0.0
 44
0.0
 45
0.0
 46
0.0
 47
0.0
 48
0.0
 49
0.0
140
0.0
141
0.0
142
1.0
143
1.0
 70
   688
 72
     1
 73
     0
 74
     5
  7

 75
    16
147
1.0
148
0.0
149
0.0
100
AcDbLayout
  1
Layout2
 70
     1
 71
     2
 10
0.0
 20
0.0
 11
0.0
 21
0.0
 12
0.0
 22
0.0
 32
0.0
 14
0.0
 24
0.0
 34
0.0
 15
0.0
 25
0.0
 35
0.0
146
0.0
 13
0.0
 23
0.0
 33
0.0
 16
1.0
 26
0.0
 36
0.0
 17
0.0
 27
1.0
 37
0.0
 76
     0
330
23
  0
LAYOUT
  5
22
102
{ACAD_REACTORS
330
1A
102
}
330
1A
100
AcDbPlotSettings
  1

  2
none_device
  4
Letter_(8.50_x_11.00_Inches)
  6

 40
6.35
 41
6.35
 42
6.35000508
 43
6.35000508
 44
215.9
 45
279.4
 46
0.0
 47
0.0
 48
0.0
 49
0.0
140
0.0
141
0.0
142
1.0
143
1.0
 70
  1712
 72
     1
 73
     0
 74
     0
  7

 75
     0
147
1.0
148
0.0
149
0.0
100
AcDbLayout
  1
Model
 70
     1
 71
     0
 10
0.0
 20
0.0
 11
594.0
 21
841.0
 12
0.0
 22
0.0
 32
0.0
 14
0.0
 24
0.0
 34
0.0
 15
594.0
 25
841.0
 35
0.0
146
0.0
 13
0.0
 23
0.0
 33
0.0
 16
1.0
 26
0.0
 36
0.0
 17
0.0
 27
1.0
 37
0.0
 76
     0
330
1F
331
29
  0
MLINESTYLE
  5
18
102
{ACAD_REACTORS
330
17
102
}
330
17
100
AcDbMlineStyle
  2
Standard
 70
     0
  3

 62
   256
 51
90.0
 52
90.0
 71
     2
 49
0.5
 62
   256
  6
BYLAYER
 49
-0.5
 62
   256
  6
BYLAYER
  0
ACDBPLACEHOLDER
  5
F
102
{ACAD_REACTORS
330
E
102
}
330
E
  0
SCALE
  5
48
102
{ACAD_REACTORS
330
47
102
}
330
47
100
AcDbScale
 70
     0
300
1:1
140
1.0
141
1.0
290
     1
  0
SCALE
  5
49
102
{ACAD_REACTORS
330
47
102
}
330
47
100
AcDbScale
 70
     0
300
1:2
140
1.0
141
2.0
290
     0
  0
SCALE
  5
4A
102
{ACAD_REACTORS
330
47
102
}
330
47
100
AcDbScale
 70
     0
300
1:4
140
1.0
141
4.0
290
     0
  0
SCALE
  5
4B
102
{ACAD_REACTORS
330
47
102
}
330
47
100
AcDbScale
 70
     0
300
1:5
140
1.0
141
5.0
290
     0
  0
SCALE
  5
4C
102
{ACAD_REACTORS
330
47
102
}
330
47
100
AcDbScale
 70
     0
300
1:8
140
1.0
141
8.0
290
     0
  0
SCALE
  5
4D
102
{ACAD_REACTORS
330
47
102
}
330
47
100
AcDbScale
 70
     0
300
1:10
140
1.0
141
10.0
290
     0
  0
SCALE
  5
4E
102
{ACAD_REACTORS
330
47
102
}
330
47
100
AcDbScale
 70
     0
300
1:16
140
1.0
141
16.0
290
     0
  0
SCALE
  5
4F
102
{ACAD_REACTORS
330
47
102
}
330
47
100
AcDbScale
 70
     0
300
1:20
140
1.0
141
20.0
290
     0
  0
SCALE
  5
50
102
{ACAD_REACTORS
330
47
102
}
330
47
100
AcDbScale
 70
     0
300
1:30
140
1.0
141
30.0
290
     0
  0
SCALE
  5
51
102
{ACAD_REACTORS
330
47
102
}
330
47
100
AcDbScale
 70
     0
300
1:40
140
1.0
141
40.0
290
     0
  0
SCALE
  5
52
102
{ACAD_REACTORS
330
47
102
}
330
47
100
AcDbScale
 70
     0
300
1:50
140
1.0
141
50.0
290
     0
  0
SCALE
  5
53
102
{ACAD_REACTORS
330
47
102
}
330
47
100
AcDbScale
 70
     0
300
1:100
140
1.0
141
100.0
290
     0
  0
SCALE
  5
54
102
{ACAD_REACTORS
330
47
102
}
330
47
100
AcDbScale
 70
     0
300
2:1
140
2.0
141
1.0
290
     0
  0
SCALE
  5
55
102
{ACAD_REACTORS
330
47
102
}
330
47
100
AcDbScale
 70
     0
300
4:1
140
4.0
141
1.0
290
     0
  0
SCALE
  5
56
102
{ACAD_REACTORS
330
47
102
}
330
47
100
AcDbScale
 70
     0
300
8:1
140
8.0
141
1.0
290
     0
  0
SCALE
  5
57
102
{ACAD_REACTORS
330
47
102
}
330
47
100
AcDbScale
 70
     0
300
10:1
140
10.0
141
1.0
290
     0
  0
SCALE
  5
58
102
{ACAD_REACTORS
330
47
102
}
330
47
100
AcDbScale
 70
     0
300
100:1
140
100.0
141
1.0
290
     0
  0
SCALE
  5
59
102
{ACAD_REACTORS
330
47
102
}
330
47
100
AcDbScale
 70
     0
300
1/128" = 1'-0"
140
0.0078125
141
12.0
290
     0
  0
SCALE
  5
5A
102
{ACAD_REACTORS
330
47
102
}
330
47
100
AcDbScale
 70
     0
300
1/64" = 1'-0"
140
0.015625
141
12.0
290
     0
  0
SCALE
  5
5B
102
{ACAD_REACTORS
330
47
102
}
330
47
100
AcDbScale
 70
     0
300
1/32" = 1'-0"
140
0.03125
141
12.0
290
     0
  0
SCALE
  5
5C
102
{ACAD_REACTORS
330
47
102
}
330
47
100
AcDbScale
 70
     0
300
1/16" = 1'-0"
140
0.0625
141
12.0
290
     0
  0
SCALE
  5
5D
102
{ACAD_REACTORS
330
47
102
}
330
47
100
AcDbScale
 70
     0
300
3/32" = 1'-0"
140
0.09375
141
12.0
290
     0
  0
SCALE
  5
5E
102
{ACAD_REACTORS
330
47
102
}
330
47
100
AcDbScale
 70
     0
300
1/8" = 1'-0"
140
0.125
141
12.0
290
     0
  0
SCALE
  5
5F
102
{ACAD_REACTORS
330
47
102
}
330
47
100
AcDbScale
 70
     0
300
3/16" = 1'-0"
140
0.1875
141
12.0
290
     0
  0
SCALE
  5
60
102
{ACAD_REACTORS
330
47
102
}
330
47
100
AcDbScale
 70
     0
300
1/4" = 1'-0"
140
0.25
141
12.0
290
     0
  0
SCALE
  5
61
102
{ACAD_REACTORS
330
47
102
}
330
47
100
AcDbScale
 70
     0
300
3/8" = 1'-0"
140
0.375
141
12.0
290
     0
  0
SCALE
  5
62
102
{ACAD_REACTORS
330
47
102
}
330
47
100
AcDbScale
 70
     0
300
1/2" = 1'-0"
140
0.5
141
12.0
290
     0
  0
SCALE
  5
63
102
{ACAD_REACTORS
330
47
102
}
330
47
100
AcDbScale
 70
     0
300
3/4" = 1'-0"
140
0.75
141
12.0
290
     0
  0
SCALE
  5
64
102
{ACAD_REACTORS
330
47
102
}
330
47
100
AcDbScale
 70
     0
300
1" = 1'-0"
140
1.0
141
12.0
290
     0
  0
SCALE
  5
65
102
{ACAD_REACTORS
330
47
102
}
330
47
100
AcDbScale
 70
     0
300
1-1/2" = 1'-0"
140
1.5
141
12.0
290
     0
  0
SCALE
  5
66
102
{ACAD_REACTORS
330
47
102
}
330
47
100
AcDbScale
 70
     0
300
3" = 1'-0"
140
3.0
141
12.0
290
     0
  0
SCALE
  5
67
102
{ACAD_REACTORS
330
47
102
}
330
47
100
AcDbScale
 70
     0
300
6" = 1'-0"
140
6.0
141
12.0
290
     0
  0
SCALE
  5
68
102
{ACAD_REACTORS
330
47
102
}
330
47
100
AcDbScale
 70
     0
300
1'-0" = 1'-0"
140
12.0
141
12.0
290
     0
  0
ENDSEC
  0
EOF
