  0
SECTION
  2
HEADER
  9
$ACADVER
  1
AC1032
  9
$ACADMAINTVER
 90
        4
  9
$DWGCODEPAGE
  3
ANSI_1252
  9
$LASTSAVEDBY
  1
MKramer
  9
$REQUIREDVERSIONS
160
                 0
  9
$INSBASE
 10
0.0
 20
0.0
 30
0.0
  9
$EXTMIN
 10
33.76143973320001
 20
37.46023423129998
 30
0.0
  9
$EXTMAX
 10
541.751504687928
 20
473.2066591577
 30
0.0
  9
$LIMMIN
 10
0.0
 20
0.0
  9
$LIMMAX
 10
594.0
 20
841.0
  9
$ORTHOMODE
 70
     0
  9
$REGENMODE
 70
     1
  9
$FILLMODE
 70
     1
  9
$QTEXTMODE
 70
     0
  9
$MIRRTEXT
 70
     1
  9
$LTSCALE
 40
1.0
  9
$ATTMODE
 70
     1
  9
$TEXTSIZE
 40
10.0
  9
$TRACEWID
 40
1.0
  9
$TEXTSTYLE
  7
STANDARD
  9
$CLAYER
  8
0
  9
$CELTYPE
  6
ByLayer
  9
$CECOLOR
 62
   256
  9
$CELTSCALE
 40
1.0
  9
$DISPSILH
 70
     0
  9
$DIMSCALE
 40
1.0
  9
$DIMASZ
 40
2.5
  9
$DIMEXO
 40
0.0
  9
$DIMDLI
 40
3.75
  9
$DIMRND
 40
0.0
  9
$DIMDLE
 40
0.0
  9
$DIMEXE
 40
1.0
  9
$DIMTP
 40
0.0
  9
$DIMTM
 40
0.0
  9
$DIMTXT
 40
3.5
  9
$DIMCEN
 40
2.5
  9
$DIMTSZ
 40
0.0
  9
$DIMTOL
 70
     0
  9
$DIMLIM
 70
     0
  9
$DIMTIH
 70
     1
  9
$DIMTOH
 70
     1
  9
$DIMSE1
 70
     0
  9
$DIMSE2
 70
     0
  9
$DIMTAD
 70
     1
  9
$DIMZIN
 70
     0
  9
$DIMBLK
  1

  9
$DIMASO
 70
     1
  9
$DIMSHO
 70
     1
  9
$DIMPOST
  1

  9
$DIMAPOST
  1

  9
$DIMALT
 70
     0
  9
$DIMALTD
 70
     3
  9
$DIMALTF
 40
0.0393700787
  9
$DIMLFAC
 40
2.0
  9
$DIMTOFL
 70
     1
  9
$DIMTVP
 40
0.0
  9
$DIMTIX
 70
     0
  9
$DIMSOXD
 70
     0
  9
$DIMSAH
 70
     0
  9
$DIMBLK1
  1

  9
$DIMBLK2
  1

  9
$DIMSTYLE
  2
ISO-25
  9
$DIMCLRD
 70
     0
  9
$DIMCLRE
 70
     0
  9
$DIMCLRT
 70
     0
  9
$DIMTFAC
 40
1.0
  9
$DIMGAP
 40
1.5
  9
$DIMJUST
 70
     0
  9
$DIMSD1
 70
     0
  9
$DIMSD2
 70
     0
  9
$DIMTOLJ
 70
     1
  9
$DIMTZIN
 70
     0
  9
$DIMALTZ
 70
     0
  9
$DIMALTTZ
 70
     0
  9
$DIMUPT
 70
     0
  9
$DIMDEC
 70
     2
  9
$DIMTDEC
 70
     2
  9
$DIMALTU
 70
     2
  9
$DIMALTTD
 70
     2
  9
$DIMTXSTY
  7
STANDARD
  9
$DIMAUNIT
 70
     0
  9
$DIMADEC
 70
     0
  9
$DIMALTRND
 40
0.0
  9
$DIMAZIN
 70
     0
  9
$DIMDSEP
 70
    46
  9
$DIMATFIT
 70
     3
  9
$DIMFRAC
 70
     0
  9
$DIMLDRBLK
  1

  9
$DIMLUNIT
 70
     2
  9
$DIMLWD
 70
    -2
  9
$DIMLWE
 70
    -2
  9
$DIMTMOVE
 70
     2
  9
$DIMFXL
 40
1.0
  9
$DIMFXLON
 70
     0
  9
$DIMJOGANG
 40
0.7853981633974483
  9
$DIMTFILL
 70
     0
  9
$DIMTFILLCLR
 70
     0
  9
$DIMARCSYM
 70
     0
  9
$DIMLTYPE
  6

  9
$DIMLTEX1
  6

  9
$DIMLTEX2
  6

  9
$DIMTXTDIRECTION
 70
     0
  9
$LUNITS
 70
     2
  9
$LUPREC
 70
     2
  9
$SKETCHINC
 40
1.0
  9
$FILLETRAD
 40
10.0
  9
$AUNITS
 70
     0
  9
$AUPREC
 70
     2
  9
$MENU
  1
.
  9
$ELEVATION
 40
0.0
  9
$PELEVATION
 40
0.0
  9
$THICKNESS
 40
0.0
  9
$LIMCHECK
 70
     0
  9
$CHAMFERA
 40
0.0
  9
$CHAMFERB
 40
0.0
  9
$CHAMFERC
 40
0.0
  9
$CHAMFERD
 40
0.0
  9
$SKPOLY
 70
     0
  9
$TDCREATE
 40
2458443.552235949
  9
$TDUCREATE
 40
2458443.510569282
  9
$TDUPDATE
 40
2459915.346820544
  9
$TDUUPDATE
 40
2459915.305153877
  9
$TDINDWG
 40
0.0004596528
  9
$TDUSRTIMER
 40
0.0004596412
  9
$USRTIMER
 70
     1
  9
$ANGBASE
 50
0.0
  9
$ANGDIR
 70
     0
  9
$PDMODE
 70
     0
  9
$PDSIZE
 40
-1.0
  9
$PLINEWID
 40
0.0
  9
$SPLFRAME
 70
     0
  9
$SPLINETYPE
 70
     6
  9
$SPLINESEGS
 70
     8
  9
$HANDSEED
  5
70A
  9
$SURFTAB1
 70
     6
  9
$SURFTAB2
 70
     6
  9
$SURFTYPE
 70
     6
  9
$SURFU
 70
     6
  9
$SURFV
 70
     6
  9
$UCSBASE
  2

  9
$UCSNAME
  2

  9
$UCSORG
 10
0.0
 20
0.0
 30
0.0
  9
$UCSXDIR
 10
1.0
 20
0.0
 30
0.0
  9
$UCSYDIR
 10
0.0
 20
1.0
 30
0.0
  9
$UCSORTHOREF
  2

  9
$UCSORTHOVIEW
 70
     0
  9
$UCSORGTOP
 10
0.0
 20
0.0
 30
0.0
  9
$UCSORGBOTTOM
 10
0.0
 20
0.0
 30
0.0
  9
$UCSORGLEFT
 10
0.0
 20
0.0
 30
0.0
  9
$UCSORGRIGHT
 10
0.0
 20
0.0
 30
0.0
  9
$UCSORGFRONT
 10
0.0
 20
0.0
 30
0.0
  9
$UCSORGBACK
 10
0.0
 20
0.0
 30
0.0
  9
$PUCSBASE
  2

  9
$PUCSNAME
  2

  9
$PUCSORG
 10
0.0
 20
0.0
 30
0.0
  9
$PUCSXDIR
 10
1.0
 20
0.0
 30
0.0
  9
$PUCSYDIR
 10
0.0
 20
1.0
 30
0.0
  9
$PUCSORTHOREF
  2

  9
$PUCSORTHOVIEW
 70
     0
  9
$PUCSORGTOP
 10
0.0
 20
0.0
 30
0.0
  9
$PUCSORGBOTTOM
 10
0.0
 20
0.0
 30
0.0
  9
$PUCSORGLEFT
 10
0.0
 20
0.0
 30
0.0
  9
$PUCSORGRIGHT
 10
0.0
 20
0.0
 30
0.0
  9
$PUCSORGFRONT
 10
0.0
 20
0.0
 30
0.0
  9
$PUCSORGBACK
 10
0.0
 20
0.0
 30
0.0
  9
$USERI1
 70
     0
  9
$USERI2
 70
     0
  9
$USERI3
 70
     0
  9
$USERI4
 70
     0
  9
$USERI5
 70
     0
  9
$USERR1
 40
0.0
  9
$USERR2
 40
0.0
  9
$USERR3
 40
0.0
  9
$USERR4
 40
0.0
  9
$USERR5
 40
0.0
  9
$WORLDVIEW
 70
     1
  9
$SHADEDGE
 70
     3
  9
$SHADEDIF
 70
    70
  9
$TILEMODE
 70
     1
  9
$MAXACTVP
 70
    64
  9
$PINSBASE
 10
0.0
 20
0.0
 30
0.0
  9
$PLIMCHECK
 70
     0
  9
$PEXTMIN
 10
1.000000000000000E+20
 20
1.000000000000000E+20
 30
1.000000000000000E+20
  9
$PEXTMAX
 10
-1.000000000000000E+20
 20
-1.000000000000000E+20
 30
-1.000000000000000E+20
  9
$PLIMMIN
 10
0.0
 20
0.0
  9
$PLIMMAX
 10
0.0
 20
0.0
  9
$UNITMODE
 70
     0
  9
$VISRETAIN
 70
     1
  9
$PLINEGEN
 70
     0
  9
$PSLTSCALE
 70
     1
  9
$TREEDEPTH
 70
  3020
  9
$CMLSTYLE
  2
Standard
  9
$CMLJUST
 70
     0
  9
$CMLSCALE
 40
1.0
  9
$PROXYGRAPHICS
 70
     1
  9
$MEASUREMENT
 70
     0
  9
$CELWEIGHT
370
    -1
  9
$ENDCAPS
280
     0
  9
$JOINSTYLE
280
     0
  9
$LWDISPLAY
290
     0
  9
$INSUNITS
 70
     0
  9
$HYPERLINKBASE
  1

  9
$STYLESHEET
  1

  9
$XEDIT
290
     1
  9
$CEPSNTYPE
380
     0
  9
$PSTYLEMODE
290
     1
  9
$FINGERPRINTGUID
  2
{9c531ffa-e561-46aa-894b-44a2454982e2}
  9
$VERSIONGUID
  2
{FAEB1C32-E019-11D5-929B-00C0DF256EC4}
  9
$EXTNAMES
290
     1
  9
$PSVPSCALE
 40
0.0
  9
$OLESTARTUP
290
     0
  9
$SORTENTS
280
   127
  9
$INDEXCTL
280
     0
  9
$HIDETEXT
280
     1
  9
$XCLIPFRAME
280
     2
  9
$HALOGAP
280
     0
  9
$OBSCOLOR
 70
   257
  9
$OBSLTYPE
280
     0
  9
$INTERSECTIONDISPLAY
280
     0
  9
$INTERSECTIONCOLOR
 70
   257
  9
$DIMASSOC
280
     2
  9
$PROJECTNAME
  1

  9
$CAMERADISPLAY
290
     0
  9
$LENSLENGTH
 40
50.0
  9
$CAMERAHEIGHT
 40
0.0
  9
$STEPSPERSEC
 40
2.0
  9
$STEPSIZE
 40
6.0
  9
$3DDWFPREC
 40
2.0
  9
$PSOLWIDTH
 40
0.25
  9
$PSOLHEIGHT
 40
4.0
  9
$LOFTANG1
 40
1.570796326794897
  9
$LOFTANG2
 40
1.570796326794897
  9
$LOFTMAG1
 40
0.0
  9
$LOFTMAG2
 40
0.0
  9
$LOFTPARAM
 70
     7
  9
$LOFTNORMALS
280
     1
  9
$LATITUDE
 40
37.795
  9
$LONGITUDE
 40
-122.394
  9
$NORTHDIRECTION
 40
0.0
  9
$TIMEZONE
 70
 -8000
  9
$LIGHTGLYPHDISPLAY
280
     1
  9
$TILEMODELIGHTSYNCH
280
     1
  9
$SOLIDHIST
280
     0
  9
$SHOWHIST
280
     1
  9
$DWFFRAME
280
     2
  9
$DGNFRAME
280
     2
  9
$REALWORLDSCALE
290
     1
  9
$INTERFERECOLOR
 62
   256
  9
$CSHADOW
280
     0
  9
$SHADOWPLANELOCATION
 40
0.0
  0
ENDSEC
  0
SECTION
  2
CLASSES
  0
CLASS
  1
ACDBDICTIONARYWDFLT
  2
AcDbDictionaryWithDefault
  3
ObjectDBX Classes
 90
        0
 91
        3
280
     0
281
     0
  0
CLASS
  1
MATERIAL
  2
AcDbMaterial
  3
ObjectDBX Classes
 90
     1153
 91
        3
280
     0
281
     0
  0
CLASS
  1
SCALE
  2
AcDbScale
  3
ObjectDBX Classes
 90
     1153
 91
        3
280
     0
281
     0
  0
CLASS
  1
VISUALSTYLE
  2
AcDbVisualStyle
  3
ObjectDBX Classes
 90
     4095
 91
        3
280
     0
281
     0
  0
CLASS
  1
TABLESTYLE
  2
AcDbTableStyle
  3
ObjectDBX Classes
 90
     4095
 91
        3
280
     0
281
     0
  0
CLASS
  1
MLEADERSTYLE
  2
AcDbMLeaderStyle
  3
ACDB_MLEADERSTYLE_CLASS
 90
     4095
 91
        3
280
     0
281
     0
  0
CLASS
  1
DICTIONARYVAR
  2
AcDbDictionaryVar
  3
ObjectDBX Classes
 90
        0
 91
        3
280
     0
281
     0
  0
CLASS
  1
CELLSTYLEMAP
  2
AcDbCellStyleMap
  3
ObjectDBX Classes
 90
     1152
 91
        3
280
     0
281
     0
  0
ENDSEC
  0
SECTION
  2
TABLES
  0
TABLE
  2
VPORT
  5
691
330
0
100
AcDbSymbolTable
 70
     1
  0
VPORT
  5
6A8
330
691
100
AcDbSymbolTableRecord
100
AcDbViewportTableRecord
  2
*ACTIVE
 70
     0
 10
0.0
 20
0.0
 11
1.0
 21
1.0
 12
292.0008648854962
 22
227.6850213740457
 13
0.0
 23
0.0
 14
10.0
 24
10.0
 15
10.0
 25
10.0
 16
0.0
 26
0.0
 36
1.0
 17
0.0
 27
0.0
 37
0.0
 40
430.592
 41
1.757251908396947
 42
50.0
 43
0.0
 44
0.0
 50
0.0
 51
0.0
 71
    16
 72
  2000
 73
     1
 74
     3
 75
     0
 76
     0
 77
     0
 78
     0
281
     0
 65
     0
110
0.0
120
0.0
130
0.0
111
1.0
121
0.0
131
0.0
112
0.0
122
1.0
132
0.0
 79
     0
146
0.0
348
6E5
 60
     3
 61
     5
292
     1
282
     1
141
0.0
142
0.0
 63
   256
  0
ENDTAB
  0
TABLE
  2
LTYPE
  5
68E
330
0
100
AcDbSymbolTable
 70
     6
  0
LTYPE
  5
69C
330
68E
100
AcDbSymbolTableRecord
100
AcDbLinetypeTableRecord
  2
ByBlock
 70
     0
  3

 72
    65
 73
     0
 40
0.0
  0
LTYPE
  5
69D
330
68E
100
AcDbSymbolTableRecord
100
AcDbLinetypeTableRecord
  2
ByLayer
 70
     0
  3

 72
    65
 73
     0
 40
0.0
  0
LTYPE
  5
69E
330
68E
100
AcDbSymbolTableRecord
100
AcDbLinetypeTableRecord
  2
CONTINUOUS
 70
     0
  3
Solid line
 72
    65
 73
     0
 40
0.0
  0
LTYPE
  5
6AA
330
68E
100
AcDbSymbolTableRecord
100
AcDbLinetypeTableRecord
  2
HIDDEN
 70
     0
  3
Hidden __ __ __ __ __ __ __ __ __ __ __ __ __ __
 72
    65
 73
     2
 40
1.905
 49
1.27
 74
     0
 49
-0.635
 74
     0
  0
LTYPE
  5
6AB
330
68E
100
AcDbSymbolTableRecord
100
AcDbLinetypeTableRecord
  2
PHANTOM
 70
     0
  3
Phantom ______  __  __  ______  __  __  ______
 72
    65
 73
     6
 40
12.7
 49
6.35
 74
     0
 49
-1.27
 74
     0
 49
1.27
 74
     0
 49
-1.27
 74
     0
 49
1.27
 74
     0
 49
-1.27
 74
     0
  0
LTYPE
  5
6AC
330
68E
100
AcDbSymbolTableRecord
100
AcDbLinetypeTableRecord
  2
CENTER
 70
     0
  3
Center ____ _ ____ _ ____ _ ____ _ ____ _ ____
 72
    65
 73
     4
 40
10.16
 49
6.35
 74
     0
 49
-1.27
 74
     0
 49
1.27
 74
     0
 49
-1.27
 74
     0
  0
LTYPE
  5
6AD
330
68E
100
AcDbSymbolTableRecord
100
AcDbLinetypeTableRecord
  2
CENTERX2
 70
     0
  3
Center (2x) ________  __  ________  __  _____
 72
    65
 73
     4
 40
20.32
 49
12.7
 74
     0
 49
-2.54
 74
     0
 49
2.54
 74
     0
 49
-2.54
 74
     0
  0
LTYPE
  5
6AE
330
68E
100
AcDbSymbolTableRecord
100
AcDbLinetypeTableRecord
  2
DOT2
 70
     0
  3
Dot (.5x) ........................................
 72
    65
 73
     2
 40
0.635
 49
0.0
 74
     0
 49
-0.635
 74
     0
  0
ENDTAB
  0
TABLE
  2
LAYER
  5
68C
330
0
100
AcDbSymbolTable
 70
     1
  0
LAYER
  5
699
330
68C
100
AcDbSymbolTableRecord
100
AcDbLayerTableRecord
  2
0
 70
     0
 62
     7
  6
CONTINUOUS
370
    -3
390
698
347
6B3
348
0
  0
ENDTAB
  0
TABLE
  2
STYLE
  5
68D
330
0
100
AcDbSymbolTable
 70
     1
  0
STYLE
  5
69A
330
68D
100
AcDbSymbolTableRecord
100
AcDbTextStyleTableRecord
  2
STANDARD
 70
     0
 40
0.0
 41
1.0
 50
0.0
 71
     0
 42
10.0
  3
txt
  4

  0
ENDTAB
  0
TABLE
  2
VIEW
  5
68F
330
0
100
AcDbSymbolTable
 70
     0
  0
ENDTAB
  0
TABLE
  2
UCS
  5
690
330
0
100
AcDbSymbolTable
 70
     0
  0
ENDTAB
  0
TABLE
  2
APPID
  5
692
330
0
100
AcDbSymbolTable
 70
     1
  0
APPID
  5
69B
330
692
100
AcDbSymbolTableRecord
100
AcDbRegAppTableRecord
  2
ACAD
 70
     0
  0
ENDTAB
  0
TABLE
  2
DIMSTYLE
  5
693
330
0
100
AcDbSymbolTable
 70
     2
100
AcDbDimStyleTable
  0
DIMSTYLE
105
6B6
330
693
100
AcDbSymbolTableRecord
100
AcDbDimStyleTableRecord
  2
ISO-25
 70
     0
 41
2.5
 42
0.625
 43
3.75
 44
1.25
 73
     0
 74
     0
 77
     1
 78
     8
140
2.5
141
2.5
143
0.0393700787
147
0.625
171
     3
172
     1
178
     0
340
69A
  0
DIMSTYLE
105
6B7
330
693
100
AcDbSymbolTableRecord
100
AcDbDimStyleTableRecord
  2
SLDDIMSTYLE0
 70
     0
 41
2.5
 44
0.0
 45
0.000000001
 73
     0
 74
     0
 77
     1
 78
    12
140
6.0
144
2.0
147
1.5
173
     1
178
     0
340
69A
  0
ENDTAB
  0
TABLE
  2
BLOCK_RECORD
  5
68B
330
0
100
AcDbSymbolTable
 70
     2
  0
BLOCK_RECORD
  5
6A5
102
{ACAD_XDICTIONARY
360
6FE
102
}
330
68B
100
AcDbSymbolTableRecord
100
AcDbBlockTableRecord
  2
*Model_Space
340
6A6
 70
     0
280
     1
281
     0
  0
BLOCK_RECORD
  5
6A3
330
68B
100
AcDbSymbolTableRecord
100
AcDbBlockTableRecord
  2
*Paper_Space
340
6A4
 70
     0
280
     1
281
     0
  0
BLOCK_RECORD
  5
6BB
330
68B
100
AcDbSymbolTableRecord
100
AcDbBlockTableRecord
  2
_D
340
0
 70
     0
280
     1
281
     0
  0
BLOCK_RECORD
  5
6BD
330
68B
100
AcDbSymbolTableRecord
100
AcDbBlockTableRecord
  2
_D_1
340
0
 70
     0
280
     1
281
     0
  0
ENDTAB
  0
ENDSEC
  0
SECTION
  2
BLOCKS
  0
BLOCK
  5
6B8
330
6A5
100
AcDbEntity
  8
0
100
AcDbBlockBegin
  2
*Model_Space
 70
     0
 10
0.0
 20
0.0
 30
0.0
  3
*Model_Space
  1

  0
ENDBLK
  5
21
330
6A5
100
AcDbEntity
  8
0
100
AcDbBlockEnd
  0
BLOCK
  5
6B9
330
6A3
100
AcDbEntity
 67
     1
  8
0
100
AcDbBlockBegin
  2
*Paper_Space
 70
     0
 10
0.0
 20
0.0
 30
0.0
  3
*Paper_Space
  1

  0
ENDBLK
  5
1D
330
6A3
100
AcDbEntity
 67
     1
  8
0
100
AcDbBlockEnd
  0
BLOCK
  5
6BA
330
6BB
100
AcDbEntity
  8
0
100
AcDbBlockBegin
  2
_D
 70
     0
 10
0.0
 20
0.0
 30
0.0
  3
_D
  1

  0
SOLID
  5
7A
330
6BB
100
AcDbEntity
  8
0
  6
Continuous
 62
     7
100
AcDbTrace
 10
42.7614395004
 20
152.0299240879
 30
0.0
 11
42.4614395004
 21
149.5299240879
 31
0.0
 12
43.0614395004
 22
149.5299240879
 32
0.0
 13
43.0614395004
 23
149.5299240879
 33
0.0
  0
SOLID
  5
7B
330
6BB
100
AcDbEntity
  8
0
  6
Continuous
 62
     7
100
AcDbTrace
 10
42.7614395004
 20
52.0299240879
 30
0.0
 11
43.0614395004
 21
54.5299240879
 31
0.0
 12
42.4614395004
 22
54.5299240879
 32
0.0
 13
42.4614395004
 23
54.5299240879
 33
0.0
  0
LINE
  5
7C
330
6BB
100
AcDbEntity
  8
0
  6
Continuous
 62
     7
100
AcDbLine
 10
56.6850079902
 20
152.0299240879
 30
0.0
 11
41.7614395004
 21
152.0299240879
 31
0.0
  0
LINE
  5
7D
330
6BB
100
AcDbEntity
  8
0
  6
Continuous
 62
     7
100
AcDbLine
 10
56.6850079902
 20
52.0299240879
 30
0.0
 11
41.7614395004
 21
52.0299240879
 31
0.0
  0
LINE
  5
7E
330
6BB
100
AcDbEntity
  8
0
  6
Continuous
 62
     7
100
AcDbLine
 10
42.7614395004
 20
152.0299240879
 30
0.0
 11
42.7614395004
 21
52.0299240879
 31
0.0
  0
TEXT
  5
7F
330
6BB
100
AcDbEntity
  8
0
  6
Continuous
 62
     7
100
AcDbText
 10
39.7614397332
 20
94.3680541463
 30
0.0
 40
6.0
  1
100
 50
90.0
 41
0.7
 11
42.7614397332
 21
94.3680541463
 31
0.0
100
AcDbText
 73
     1
  0
TEXT
  5
80
330
6BB
100
AcDbEntity
  8
0
  6
Continuous
 62
     7
100
AcDbText
 10
39.7614397332
 20
105.7430548466
 30
0.0
 40
6.0
  1
mm
 50
90.0
 41
0.7
 11
42.7614397332
 21
105.7430548466
 31
0.0
100
AcDbText
 73
     1
  0
ENDBLK
  5
79
330
6BB
100
AcDbEntity
  8
0
100
AcDbBlockEnd
  0
BLOCK
  5
6BC
330
6BD
100
AcDbEntity
  8
0
100
AcDbBlockBegin
  2
_D_1
 70
     0
 10
0.0
 20
0.0
 30
0.0
  3
_D_1
  1

  0
SOLID
  5
85
330
6BD
100
AcDbEntity
  8
0
  6
Continuous
 62
     7
100
AcDbTrace
 10
56.6850079902
 20
38.4602342313
 30
0.0
 11
59.1850079902
 21
38.1602342313
 31
0.0
 12
59.1850079902
 22
38.7602342313
 32
0.0
 13
59.1850079902
 23
38.7602342313
 33
0.0
  0
SOLID
  5
86
330
6BD
100
AcDbEntity
  8
0
  6
Continuous
 62
     7
100
AcDbTrace
 10
156.6850079902
 20
38.4602342313
 30
0.0
 11
154.1850079902
 21
38.7602342313
 31
0.0
 12
154.1850079902
 22
38.1602342313
 32
0.0
 13
154.1850079902
 23
38.1602342313
 33
0.0
  0
LINE
  5
87
330
6BD
100
AcDbEntity
  8
0
  6
Continuous
 62
     7
100
AcDbLine
 10
56.6850079902
 20
52.0299240879
 30
0.0
 11
56.6850079902
 21
37.4602342313
 31
0.0
  0
LINE
  5
88
330
6BD
100
AcDbEntity
  8
0
  6
Continuous
 62
     7
100
AcDbLine
 10
156.6850079902
 20
52.0299240879
 30
0.0
 11
156.6850079902
 21
37.4602342313
 31
0.0
  0
LINE
  5
89
330
6BD
100
AcDbEntity
  8
0
  6
Continuous
 62
     7
100
AcDbLine
 10
56.6850079902
 20
38.4602342313
 30
0.0
 11
156.6850079902
 21
38.4602342313
 31
0.0
  0
TEXT
  5
8A
330
6BD
100
AcDbEntity
  8
0
  6
Continuous
 62
     7
100
AcDbText
 10
93.9626484861
 20
41.4602339984
 30
0.0
 40
6.0
  1
100
 41
0.7
 11
93.9626484861
 21
38.4602339984
 31
0.0
100
AcDbText
 73
     1
  0
TEXT
  5
8B
330
6BD
100
AcDbEntity
  8
0
  6
Continuous
 62
     7
100
AcDbText
 10
105.3376491864
 20
41.4602339984
 30
0.0
 40
6.0
  1
mm
 41
0.7
 11
105.3376491864
 21
38.4602339984
 31
0.0
100
AcDbText
 73
     1
  0
ENDBLK
  5
84
330
6BD
100
AcDbEntity
  8
0
100
AcDbBlockEnd
  0
ENDSEC
  0
SECTION
  2
ENTITIES
  0
LINE
  5
73
330
6A5
100
AcDbEntity
  8
0
  6
Continuous
 62
     7
100
AcDbLine
 10
56.6850079902
 20
152.0299240879
 30
0.0
 11
56.6850079902
 21
52.0299240879
 31
0.0
  0
LINE
  5
74
330
6A5
100
AcDbEntity
  8
0
  6
Continuous
 62
     7
100
AcDbLine
 10
56.6850079902
 20
52.0299240879
 30
0.0
 11
156.6850079902
 21
52.0299240879
 31
0.0
  0
DIMENSION
  5
75
330
6A5
100
AcDbEntity
  8
0
  6
Continuous
 62
     7
100
AcDbDimension
280
     0
  2
_D
 10
42.7614395004
 20
52.0299240879
 30
0.0
 11
42.7614395004
 21
105.4472211621
 31
0.0
 70
   160
  1
<>mm
 71
     5
 42
-1.0
 73
     0
 74
     0
 75
     0
  3
SLDDIMSTYLE0
100
AcDbAlignedDimension
 13
56.6850079902
 23
152.0299240879
 33
0.0
 14
56.6850079902
 24
52.0299240879
 34
0.0
 50
90.0
100
AcDbRotatedDimension
  0
DIMENSION
  5
81
330
6A5
100
AcDbEntity
  8
0
  6
Continuous
 62
     7
100
AcDbDimension
280
     0
  2
_D_1
 10
156.6850079902
 20
38.4602342313
 30
0.0
 11
105.0418155019
 21
38.4602342313
 31
0.0
 70
   160
  1
<>mm
 71
     5
 42
-1.0
 73
     0
 74
     0
 75
     0
  3
SLDDIMSTYLE0
100
AcDbAlignedDimension
 13
56.6850079902
 23
52.0299240879
 33
0.0
 14
156.6850079902
 24
52.0299240879
 34
0.0
100
AcDbRotatedDimension
  0
TEXT
  5
8C
330
6A5
100
AcDbEntity
  8
0
  6
Continuous
 62
     7
100
AcDbText
 10
412.8252631579
 20
40.5435675522
 30
0.0
 40
10.0
  1
KLUDI GmbH & Co KG
 41
0.6222222222
 11
412.8252631579
 21
35.5435675522
 31
0.0
100
AcDbText
 73
     1
  0
TEXT
  5
8D
330
6A5
100
AcDbEntity
  8
0
  6
Continuous
 62
     7
100
AcDbText
 10
210.0873490389
 20
40.5435675522
 30
0.0
 40
10.0
  1
48 247 .. 65
 41
0.6125
 11
210.0873490389
 21
35.5435675522
 31
0.0
100
AcDbText
 73
     1
  0
LINE
  5
8E
330
6A5
100
AcDbEntity
  8
0
  6
Continuous
 62
     7
100
AcDbLine
 10
134.4250894488
 20
429.9820646019
 30
0.0
 11
134.4250894488
 21
433.1830514901
 31
0.0
  0
LINE
  5
8F
330
6A5
100
AcDbEntity
  8
0
  6
Continuous
 62
     7
100
AcDbLine
 10
110.4250892402
 20
433.1830514901
 30
0.0
 11
110.4250892402
 21
429.9820646019
 31
0.0
  0
LINE
  5
90
330
6A5
100
AcDbEntity
  8
0
  6
Continuous
 62
     7
100
AcDbLine
 10
111.4250912667
 20
425.7440113769
 30
0.0
 11
111.9506477714
 21
425.4594662533
 31
0.0
  0
LINE
  5
91
330
6A5
100
AcDbEntity
  8
0
  6
Continuous
 62
     7
100
AcDbLine
 10
132.8995309175
 20
425.4594662533
 30
0.0
 11
133.4250911475
 21
425.7440113769
 31
0.0
  0
LWPOLYLINE
  5
92
330
6A5
100
AcDbEntity
  8
0
  6
Continuous
 62
     7
100
AcDbPolyline
 90
       10
 70
   128
 43
0.0
 10
134.3336335719
 20
432.5435588443
 10
135.1913183332
 20
432.9307408378
 10
136.3762772978
 20
433.5519288041
 10
137.4658613802
 20
434.1702115097
 10
138.4268409909
 20
434.7399841835
 10
139.9769417346
 20
435.6991183785
 10
141.0413391293
 20
436.3924294784
 10
141.3752257229
 20
436.6217910618
 10
141.4843767286
 20
436.7145003824
 10
141.4815976621
 20
436.7132660308
  0
LWPOLYLINE
  5
93
330
6A5
100
AcDbEntity
  8
0
  6
Continuous
 62
     7
100
AcDbPolyline
 90
       10
 70
   128
 43
0.0
 10
103.3685847522
 20
436.7132660308
 10
103.3658056856
 20
436.7145003824
 10
103.4749566914
 20
436.6217910618
 10
103.8088470102
 20
436.3924294784
 10
104.8732369543
 20
435.6991183785
 10
106.4233376981
 20
434.7399841835
 10
107.384321034
 20
434.1702115097
 10
108.4739013911
 20
433.5519288041
 10
109.658864081
 20
432.9307408378
 10
110.5165525676
 20
432.5435588443
  0
LWPOLYLINE
  5
94
330
6A5
100
AcDbEntity
  8
0
  6
Continuous
 62
     7
100
AcDbPolyline
 90
        9
 70
   128
 43
0.0
 10
109.9250882269
 20
433.1830440395
 10
110.1385920645
 20
433.5821460307
 10
110.7681139708
 20
433.967713111
 10
112.1244772674
 20
434.4124273238
 10
113.5466217399
 20
434.7103806984
 10
115.2354485691
 20
434.9584296186
 10
117.0529320241
 20
435.1429730494
 10
119.0224334002
 20
435.272124906
 10
122.4250912071
 20
435.3536538155
  0
LWPOLYLINE
  5
95
330
6A5
100
AcDbEntity
  8
0
  6
Continuous
 62
     7
100
AcDbPolyline
 90
        9
 70
   128
 43
0.0
 10
134.9250904621
 20
433.1830440395
 10
134.7115866245
 20
433.5821460307
 10
134.0820684434
 20
433.967713111
 10
132.7257051469
 20
434.4124273238
 10
131.3035643996
 20
434.7103806984
 10
129.6147338451
 20
434.9584296186
 10
127.7972503901
 20
435.1429730494
 10
125.827749014
 20
435.272124906
 10
122.4250912071
 20
435.3536538155
  0
ARC
  5
96
330
6A5
100
AcDbEntity
  8
0
  6
Continuous
 62
     7
100
AcDbCircle
 10
122.3563794574
 20
113.0625539624
 30
0.0
 40
338.3418665330848
100
AcDbArc
 50
89.98836415569998
 51
93.490715952
  0
ARC
  5
97
330
6A5
100
AcDbEntity
  8
0
  6
Continuous
 62
     7
100
AcDbCircle
 10
122.4939672347
 20
113.0679631721
 30
0.0
 40
338.3364573569409
100
AcDbArc
 50
86.5092560422
 51
90.0116638501
  0
LWPOLYLINE
  5
98
330
6A5
100
AcDbEntity
  8
0
  6
Continuous
 62
     7
100
AcDbPolyline
 90
       10
 70
   128
 43
0.0
 10
122.4250912071
 20
435.2668296386
 10
124.5088695885
 20
435.2351723545
 10
126.5293329359
 20
435.1411625583
 10
128.4250921906
 20
434.9876563837
 10
130.1385431887
 20
434.7793181267
 10
131.6176249982
 20
434.5224782199
 10
132.817395717
 20
434.2249406808
 10
133.7014033795
 20
433.8957456247
 10
134.2427849174
 20
433.5448959217
 10
134.4250894488
 20
433.1830514901
  0
LWPOLYLINE
  5
99
330
6A5
100
AcDbEntity
  8
0
  6
Continuous
 62
     7
100
AcDbPolyline
 90
       10
 70
   128
 43
0.0
 10
110.4250892402
 20
433.1830514901
 10
110.6073974968
 20
433.5448959217
 10
111.1487790347
 20
433.8957456247
 10
112.0327829719
 20
434.2249406808
 10
113.232557416
 20
434.5224782199
 10
114.7116392256
 20
434.7793181267
 10
116.4250902236
 20
434.9876563837
 10
118.3208494783
 20
435.1411625583
 10
120.3413128258
 20
435.2351723545
 10
122.4250912071
 20
435.2668296386
  0
LINE
  5
9A
330
6A5
100
AcDbEntity
  8
0
  6
Continuous
 62
     7
100
AcDbLine
 10
133.4250911475
 20
427.4442003415
 30
0.0
 11
133.4250911475
 21
430.8148523168
 31
0.0
  0
LWPOLYLINE
  5
9B
330
6A5
100
AcDbEntity
  8
0
  6
Continuous
 62
     7
100
AcDbPolyline
 90
       15
 70
   128
 43
0.0
 10
133.4250911475
 20
427.4442003415
 10
132.4836134315
 20
427.7477956683
 10
131.2667101026
 20
428.0202736453
 10
129.8077038825
 20
428.2541743786
 10
128.1465410591
 20
428.4430922315
 10
126.3287148775
 20
428.5818546385
 10
124.403995216
 20
428.6666618035
 10
122.4250912071
 20
428.6951910079
 10
120.4461871982
 20
428.6666618035
 10
118.5214675368
 20
428.5818546385
 10
116.7036413551
 20
428.4430922315
 10
115.0424785317
 20
428.2541743786
 10
113.5834723116
 20
428.0202736453
 10
112.3665689827
 20
427.7477956683
 10
111.4250912667
 20
427.4442003415
  0
LINE
  5
9C
330
6A5
100
AcDbEntity
  8
0
  6
Continuous
 62
     7
100
AcDbLine
 10
111.4250912667
 20
427.4442003415
 30
0.0
 11
111.4250912667
 21
430.8148523168
 31
0.0
  0
LWPOLYLINE
  5
9D
330
6A5
100
AcDbEntity
  8
0
  6
Continuous
 62
     7
100
AcDbPolyline
 90
        9
 70
   128
 43
0.0
 10
111.4250912667
 20
429.1492778183
 10
110.9910725952
 20
429.3496583895
 10
110.6777533294
 20
429.5567156122
 10
110.4884266258
 20
429.7682618097
 10
110.4250892402
 20
429.9820646019
 10
110.4884266258
 20
430.1958683253
 10
110.6777533294
 20
430.4074140572
 10
110.9910725952
 20
430.6144708142
 10
111.4250912667
 20
430.8148523168
  0
LWPOLYLINE
  5
9E
330
6A5
100
AcDbEntity
  8
0
  6
Continuous
 62
     7
100
AcDbPolyline
 90
        9
 70
   128
 43
0.0
 10
133.4250911475
 20
430.8148523168
 10
133.8591060937
 20
430.6144708142
 10
134.1724328102
 20
430.4074140572
 10
134.3617595137
 20
430.1958683253
 10
134.4250894488
 20
429.9820646019
 10
134.3617595137
 20
429.7682618097
 10
134.1724328102
 20
429.5567156122
 10
133.8591060937
 20
429.3496583895
 10
133.4250911475
 20
429.1492778183
  0
LINE
  5
9F
330
6A5
100
AcDbEntity
  8
0
  6
Continuous
 62
     7
100
AcDbLine
 10
133.4250911475
 20
426.0428336755
 30
0.0
 11
133.4250911475
 21
427.4442003415
 31
0.0
  0
LWPOLYLINE
  5
A0
330
6A5
100
AcDbEntity
  8
0
  6
Continuous
 62
     7
100
AcDbPolyline
 90
       19
 70
   128
 43
0.0
 10
133.4250911475
 20
426.0428336755
 10
133.2579746247
 20
426.3745242105
 10
132.7617100776
 20
426.6961369038
 10
131.9513700307
 20
426.9978984565
 10
130.8515786529
 20
427.2706418604
 10
129.4957555235
 20
427.5060783447
 10
127.9250911773
 20
427.6970544205
 10
126.1873140336
 20
427.8377688796
 10
124.3352226318
 20
427.9239441574
 10
122.4250912071
 20
427.9529641689
 10
120.5149597824
 20
427.9239441574
 10
118.6628683806
 20
427.8377688796
 10
116.9250912369
 20
427.6970544205
 10
115.3544268907
 20
427.5060783447
 10
113.9986037613
 20
427.2706418604
 10
112.8988086582
 20
426.9978984565
 10
112.0884686113
 20
426.6961369038
 10
111.5922077895
 20
426.3745242105
 10
111.4250912667
 20
426.0428336755
  0
LINE
  5
A1
330
6A5
100
AcDbEntity
  8
0
  6
Continuous
 62
     7
100
AcDbLine
 10
111.4250912667
 20
426.0428336755
 30
0.0
 11
111.4250912667
 21
427.4442003415
 31
0.0
  0
LWPOLYLINE
  5
A2
330
6A5
100
AcDbEntity
  8
0
  6
Continuous
 62
     7
100
AcDbPolyline
 90
       19
 70
   128
 43
0.0
 10
111.4250912667
 20
426.0428336755
 10
111.5922077895
 20
425.7111431406
 10
112.0884686113
 20
425.3895304472
 10
112.8988086582
 20
425.0877688945
 10
113.9986037613
 20
424.8150254906
 10
115.3544268907
 20
424.5795890064
 10
116.9250912369
 20
424.3886129306
 10
118.6628683806
 20
424.2478984714
 10
120.5149597824
 20
424.1617231936
 10
122.4250912071
 20
424.1327041135
 10
124.3352226318
 20
424.1617231936
 10
126.1873140336
 20
424.2478984714
 10
127.9250911773
 20
424.3886129306
 10
129.4957555235
 20
424.5795890064
 10
130.8515786529
 20
424.8150254906
 10
131.9513700307
 20
425.0877688945
 10
132.7617100776
 20
425.3895304472
 10
133.2579746247
 20
425.7111431406
 10
133.4250911475
 20
426.0428336755
  0
LWPOLYLINE
  5
A3
330
6A5
100
AcDbEntity
  8
0
  6
Continuous
 62
     7
100
AcDbPolyline
 90
        3
 70
   128
 43
0.0
 10
134.9261111916
 20
433.1830426426
 10
134.7384832204
 20
432.8141802297
 10
134.4250894488
 20
432.6046941177
  0
LWPOLYLINE
  5
A4
330
6A5
100
AcDbEntity
  8
0
  6
Continuous
 62
     7
100
AcDbPolyline
 90
        3
 70
   128
 43
0.0
 10
109.9240674973
 20
433.1830426426
 10
110.1116954685
 20
432.8141802297
 10
110.4250892402
 20
432.6046941177
  0
LINE
  5
A5
330
6A5
100
AcDbEntity
  8
0
  6
Continuous
 62
     7
100
AcDbLine
 10
144.122627318
 20
449.6831394107
 30
0.0
 11
144.122627318
 21
438.0591805719
 31
0.0
  0
LINE
  5
A6
330
6A5
100
AcDbEntity
  8
0
  6
Continuous
 62
     7
100
AcDbLine
 10
100.7275550962
 20
449.6831394107
 30
0.0
 11
100.7275550962
 21
438.0595080992
 31
0.0
  0
ARC
  5
A7
330
6A5
100
AcDbEntity
  8
0
  6
Continuous
 62
     7
100
AcDbCircle
 10
69.4965796427
 20
521.2026728957
 30
0.0
 40
112.2036276543832
100
AcDbArc
 50
304.7331016869
 51
311.3472937649
  0
ARC
  5
A8
330
6A5
100
AcDbEntity
  8
0
  6
Continuous
 62
     7
100
AcDbCircle
 10
175.3498290505
 20
521.1976749398
 30
0.0
 40
112.1973701652951
100
AcDbArc
 50
228.6530365112
 51
235.2670278664
  0
ARC
  5
A9
330
6A5
100
AcDbEntity
  8
0
  6
Continuous
 62
     7
100
AcDbCircle
 10
102.162462615
 20
438.059159891
 30
0.0
 40
1.434907561047834
100
AcDbArc
 50
179.9860960671
 51
229.4797282855
  0
ARC
  5
AA
330
6A5
100
AcDbEntity
  8
0
  6
Continuous
 62
     7
100
AcDbCircle
 10
142.6876763253
 20
438.0591810395
 30
0.0
 40
1.434950992686131
100
AcDbArc
 50
310.5657019242
 51
359.9999813311
  0
ARC
  5
AB
330
6A5
100
AcDbEntity
  8
0
  6
Continuous
 62
     7
100
AcDbCircle
 10
143.0279769048
 20
449.6843442526
 30
0.0
 40
1.094651076213971
100
AcDbArc
 50
359.9369366433999
 51
86.52240914670001
  0
ARC
  5
AC
330
6A5
100
AcDbEntity
  8
0
  6
Continuous
 62
     7
100
AcDbCircle
 10
101.822214334
 20
449.6843361833
 30
0.0
 40
1.094659891973513
100
AcDbArc
 50
93.47822090119999
 51
180.062640492
  0
ARC
  5
AD
330
6A5
100
AcDbEntity
  8
0
  6
Continuous
 62
     7
100
AcDbCircle
 10
129.5495441235
 20
398.9560951344
 30
0.0
 40
87.10687304766964
100
AcDbArc
 50
1.1095101786
 51
21.3416430745
  0
ARC
  5
AE
330
6A5
100
AcDbEntity
  8
0
  6
Continuous
 62
     7
100
AcDbCircle
 10
335.300911112
 20
398.956061631
 30
0.0
 40
87.10714393381515
100
AcDbArc
 50
158.658402884
 51
178.8904712308
  0
ARC
  5
AF
330
6A5
100
AcDbEntity
  8
0
  6
Continuous
 62
     7
100
AcDbCircle
 10
245.6826546822
 20
354.4137374507
 30
0.0
 40
2.297413529153055
100
AcDbArc
 50
258.8704057777
 51
10.8296709513
  0
ARC
  5
B0
330
6A5
100
AcDbEntity
  8
0
  6
Continuous
 62
     7
100
AcDbCircle
 10
219.1675263068
 20
354.4137409612
 30
0.0
 40
2.297416299530029
100
AcDbArc
 50
169.1704314017
 51
281.1294918693
  0
LWPOLYLINE
  5
B1
330
6A5
100
AcDbEntity
  8
0
  6
Continuous
 62
     7
100
AcDbPolyline
 90
        3
 70
   128
 43
0.0
 10
248.21009928
 20
400.6427799658
 10
248.1657310725
 20
397.6430048541
 10
248.1512396932
 20
395.3498316304
  0
LWPOLYLINE
  5
B2
330
6A5
100
AcDbEntity
  8
0
  6
Continuous
 62
     7
100
AcDbPolyline
 90
        3
 70
   128
 43
0.0
 10
216.6400856675
 20
400.6427799658
 10
216.6844538749
 20
397.6430048541
 10
216.6989452542
 20
395.3498316304
  0
LINE
  5
B3
330
6A5
100
AcDbEntity
  8
0
  6
Continuous
 62
     7
100
AcDbLine
 10
216.6989452542
 20
395.3498316304
 30
0.0
 11
216.9110260309
 21
354.8453984157
 31
0.0
  0
LINE
  5
B4
330
6A5
100
AcDbEntity
  8
0
  6
Continuous
 62
     7
100
AcDbLine
 10
248.1512396932
 20
395.3498316304
 30
0.0
 11
247.939151466
 21
354.8453984157
 31
0.0
  0
LINE
  5
B5
330
6A5
100
AcDbEntity
  8
0
  6
Continuous
 62
     7
100
AcDbLine
 10
245.2391877175
 20
352.1595311657
 30
0.0
 11
219.6109897793
 21
352.1595311657
 31
0.0
  0
ARC
  5
B6
330
6A5
100
AcDbEntity
  8
0
  6
Continuous
 62
     7
100
AcDbCircle
 10
232.4250909091
 20
438.1595340864
 30
0.0
 40
23.00000000000002
100
AcDbArc
 50
340.9612250535999
 51
199.0387749463999
  0
LINE
  5
B7
330
6A5
100
AcDbEntity
  8
0
  6
Continuous
 62
     7
100
AcDbLine
 10
216.6400856675
 20
400.6427799658
 30
0.0
 11
216.6989452542
 21
395.3498316304
 31
0.0
  0
LINE
  5
B8
330
6A5
100
AcDbEntity
  8
0
  6
Continuous
 62
     7
100
AcDbLine
 10
248.21009928
 20
400.6427799658
 30
0.0
 11
248.1512396932
 21
395.3498316304
 31
0.0
  0
LWPOLYLINE
  5
B9
330
6A5
100
AcDbEntity
  8
0
  6
Continuous
 62
     7
100
AcDbPolyline
 90
        7
 70
   128
 43
0.0
 10
80.1779299379
 20
403.1124090151
 10
78.9245932699
 20
403.2273006932
 10
78.3228098751
 20
403.4717803196
 10
77.8351768256
 20
403.9106120662
 10
77.5709643365
 20
404.4081208602
 10
77.3879482747
 20
405.384474744
 10
77.3779644967
 20
405.912370731
  0
LWPOLYLINE
  5
BA
330
6A5
100
AcDbEntity
  8
0
  6
Continuous
 62
     7
100
AcDbPolyline
 90
        7
 70
   128
 43
0.0
 10
77.3779644967
 20
470.4066974417
 10
77.4928599001
 20
471.6600266591
 10
77.7373358012
 20
472.2618137793
 10
78.1761675478
 20
472.749450554
 10
78.6736800671
 20
473.0136593179
 10
79.6500339509
 20
473.1966791049
 10
80.1779299379
 20
473.2066591577
  0
LWPOLYLINE
  5
BB
330
6A5
100
AcDbEntity
  8
0
  6
Continuous
 62
     7
100
AcDbPolyline
 90
        7
 70
   128
 43
0.0
 10
277.4722173215
 20
405.912370731
 10
277.3573219181
 20
404.6590415136
 10
277.112846017
 20
404.0572543935
 10
276.6740142704
 20
403.5696176187
 10
276.176501751
 20
403.3054088549
 10
275.2001478673
 20
403.1223890678
 10
274.6722518803
 20
403.1124090151
  0
LWPOLYLINE
  5
BC
330
6A5
100
AcDbEntity
  8
0
  6
Continuous
 62
     7
100
AcDbPolyline
 90
        7
 70
   128
 43
0.0
 10
274.6722518803
 20
473.2066591577
 10
275.9255885483
 20
473.0917674796
 10
276.5273719431
 20
472.8472878531
 10
277.0150049926
 20
472.4084561066
 10
277.2792174817
 20
471.9109473125
 10
277.4622335435
 20
470.9345934287
 10
277.4722173215
 20
470.4066974417
  0
LINE
  5
BD
330
6A5
100
AcDbEntity
  8
0
  6
Continuous
 62
     7
100
AcDbLine
 10
274.6722518803
 20
473.2066591577
 30
0.0
 11
80.1779299379
 21
473.2066591577
 31
0.0
  0
LINE
  5
BE
330
6A5
100
AcDbEntity
  8
0
  6
Continuous
 62
     7
100
AcDbLine
 10
80.1779299379
 20
403.1124090151
 30
0.0
 11
216.528923005
 21
403.1124090151
 31
0.0
  0
LINE
  5
BF
330
6A5
100
AcDbEntity
  8
0
  6
Continuous
 62
     7
100
AcDbLine
 10
248.3212544919
 20
403.1124090151
 30
0.0
 11
274.6722518803
 21
403.1124090151
 31
0.0
  0
LINE
  5
C0
330
6A5
100
AcDbEntity
  8
0
  6
Continuous
 62
     7
100
AcDbLine
 10
277.4722173215
 20
405.912370731
 30
0.0
 11
277.4722173215
 21
470.4066974417
 31
0.0
  0
LINE
  5
C1
330
6A5
100
AcDbEntity
  8
0
  6
Continuous
 62
     7
100
AcDbLine
 10
77.3779644967
 20
470.4066974417
 30
0.0
 11
77.3779644967
 21
405.912370731
 31
0.0
  0
LINE
  5
C2
330
6A5
100
AcDbEntity
  8
0
  6
Continuous
 62
     8
100
AcDbLine
 10
104.2773171664
 20
439.1526776207
 30
0.0
 11
122.4250912071
 21
439.1437586936
 31
0.0
  0
LINE
  5
C3
330
6A5
100
AcDbEntity
  8
0
  6
Continuous
 62
     8
100
AcDbLine
 10
104.2773171664
 20
449.6485575409
 30
0.0
 11
104.2773171664
 21
439.1526776207
 31
0.0
  0
LINE
  5
C4
330
6A5
100
AcDbEntity
  8
0
  6
Continuous
 62
     8
100
AcDbLine
 10
122.4250912071
 20
449.6562959001
 30
0.0
 11
104.2773171664
 21
449.6532029779
 31
0.0
  0
LINE
  5
C5
330
6A5
100
AcDbEntity
  8
0
  6
Continuous
 62
     8
100
AcDbLine
 10
122.4250912071
 20
449.6562959001
 30
0.0
 11
122.4250912071
 21
439.1437586936
 31
0.0
  0
ARC
  5
C6
330
6A5
100
AcDbEntity
  8
0
  6
Continuous
 62
     8
100
AcDbCircle
 10
102.8713935705
 20
395.4178699338
 30
0.0
 40
43.757399654974
100
AcDbArc
 50
88.1587718848
 51
92.74302325029998
  0
LINE
  5
C7
330
6A5
100
AcDbEntity
  8
0
  6
Continuous
 62
     8
100
AcDbLine
 10
100.777317524
 20
439.1298364688
 30
0.0
 11
100.777317524
 21
449.6467870966
 31
0.0
  0
LWPOLYLINE
  5
C8
330
6A5
100
AcDbEntity
  8
0
  6
Continuous
 62
     8
100
AcDbPolyline
 90
        7
 70
   128
 43
0.0
 10
104.2773171664
 20
449.6532029779
 10
102.7954413892
 20
449.6534590916
 10
102.1089299918
 20
449.6535876141
 10
101.5466346742
 20
449.6537152053
 10
101.1442735196
 20
449.6538437278
 10
100.9005426765
 20
449.6539722503
 10
100.777317524
 20
449.654228364
  0
ARC
  5
C9
330
6A5
100
AcDbEntity
  8
0
  6
Continuous
 62
     8
100
AcDbCircle
 10
141.9787863179
 20
395.4180223554
 30
0.0
 40
43.75724735060022
100
AcDbArc
 50
87.2569687674
 51
91.8412360976
  0
LINE
  5
CA
330
6A5
100
AcDbEntity
  8
0
  6
Continuous
 62
     8
100
AcDbLine
 10
140.5728615225
 20
449.6525771291
 30
0.0
 11
140.5728615225
 21
439.1526776207
 31
0.0
  0
LWPOLYLINE
  5
CB
330
6A5
100
AcDbEntity
  8
0
  6
Continuous
 62
     8
100
AcDbPolyline
 90
        7
 70
   128
 43
0.0
 10
144.0728611649
 20
449.6542274327
 10
143.9496397377
 20
449.653971319
 10
143.7059051693
 20
449.6538427965
 10
143.3035440148
 20
449.6537152053
 10
142.7412486971
 20
449.6535866828
 10
142.0547410251
 20
449.6534590916
 10
140.5728615225
 20
449.6532020465
  0
LINE
  5
CC
330
6A5
100
AcDbEntity
  8
0
  6
Continuous
 62
     8
100
AcDbLine
 10
144.0728611649
 20
439.1298364688
 30
0.0
 11
144.0728611649
 21
449.6542739988
 31
0.0
  0
LINE
  5
CD
330
6A5
100
AcDbEntity
  8
0
  6
Continuous
 62
     8
100
AcDbLine
 10
140.5728615225
 20
439.1526776207
 30
0.0
 11
122.4250912071
 21
439.1437586936
 31
0.0
  0
LINE
  5
CE
330
6A5
100
AcDbEntity
  8
0
  6
Continuous
 62
     8
100
AcDbLine
 10
140.5728615225
 20
449.6532020465
 30
0.0
 11
122.4250912071
 21
449.6562959001
 31
0.0
  0
ARC
  5
CF
330
6A5
100
AcDbEntity
  8
0
  6
Continuous
 62
     8
100
AcDbCircle
 10
101.8396857301
 20
449.6542196788
 30
0.0
 40
1.062368206126163
100
AcDbArc
 50
90.1834927716
 51
179.999531589
  0
ARC
  5
D0
330
6A5
100
AcDbEntity
  8
0
  6
Continuous
 62
     8
100
AcDbCircle
 10
103.18551533
 20
748.5694103007
 30
0.0
 40
297.8558837644512
100
AcDbArc
 50
269.7404598628
 51
270.2098081694
  0
LWPOLYLINE
  5
D1
330
6A5
100
AcDbEntity
  8
0
  6
Continuous
 62
     8
100
AcDbPolyline
 90
        9
 70
   128
 43
0.0
 10
104.2762144805
 20
450.7155235232
 10
104.2762368322
 20
450.6945436195
 10
104.2763038875
 20
450.6337049723
 10
104.2764081956
 20
450.5353368194
 10
104.276542306
 20
450.4032026351
 10
104.2767062188
 20
450.2423604325
 10
104.2768999339
 20
450.0589681164
 10
104.2771085502
 20
449.8600441337
 10
104.2773171664
 20
449.6532029779
  0
ARC
  5
D2
330
6A5
100
AcDbEntity
  8
0
  6
Continuous
 62
     8
100
AcDbCircle
 10
103.0195125051
 20
425.337153871
 30
0.0
 40
12.91169681480173
100
AcDbArc
 50
84.4772790589
 51
96.8191381161
  0
ARC
  5
D3
330
6A5
100
AcDbEntity
  8
0
  6
Continuous
 62
     8
100
AcDbCircle
 10
101.7922820776
 20
439.1252982319
 30
0.0
 40
1.014964566951736
100
AcDbArc
 50
180.0093111479
 51
252.4619742055
  0
LWPOLYLINE
  5
D4
330
6A5
100
AcDbEntity
  8
0
  6
Continuous
 62
     8
100
AcDbPolyline
 90
        9
 70
   128
 43
0.0
 10
104.2773171664
 20
439.1526776207
 10
104.2747988702
 20
438.9926939228
 10
104.2723476292
 20
438.8367727705
 10
104.2700155974
 20
438.6888735652
 10
104.2678698302
 20
438.5527520106
 10
104.2659699322
 20
438.4318647689
 10
104.2643531562
 20
438.3292815227
 10
104.2630642057
 20
438.2476072832
 10
104.2621403337
 20
438.1889160348
  0
ARC
  5
D5
330
6A5
100
AcDbEntity
  8
0
  6
Continuous
 62
     8
100
AcDbCircle
 10
143.0579146533
 20
439.1252838326
 30
0.0
 40
1.014946522802157
100
AcDbArc
 50
287.53750011
 51
359.9915015597001
  0
ARC
  5
D6
330
6A5
100
AcDbEntity
  8
0
  6
Continuous
 62
     8
100
AcDbCircle
 10
141.8306677227
 20
425.3371080246
 30
0.0
 40
12.91174259648175
100
AcDbArc
 50
83.1808764062
 51
95.52270815860001
  0
LWPOLYLINE
  5
D7
330
6A5
100
AcDbEntity
  8
0
  6
Continuous
 62
     8
100
AcDbPolyline
 90
        9
 70
   128
 43
0.0
 10
140.5728615225
 20
439.1526776207
 10
140.5753798188
 20
438.9926939228
 10
140.5778347851
 20
438.8367727705
 10
140.5801668168
 20
438.6888735652
 10
140.5823088587
 20
438.5527520106
 10
140.5842124821
 20
438.4318647689
 10
140.5858292581
 20
438.3292815227
 10
140.5871144832
 20
438.2476072832
 10
140.5880383552
 20
438.1889160348
  0
LINE
  5
D8
330
6A5
100
AcDbEntity
  8
0
  6
Continuous
 62
     8
100
AcDbLine
 10
104.2762144805
 20
450.7155235232
 30
0.0
 11
122.4250912071
 21
450.7217168183
 31
0.0
  0
LINE
  5
D9
330
6A5
100
AcDbEntity
  8
0
  6
Continuous
 62
     8
100
AcDbLine
 10
122.4250912071
 20
450.7217168183
 30
0.0
 11
122.4250912071
 21
449.6562959001
 31
0.0
  0
LWPOLYLINE
  5
DA
330
6A5
100
AcDbEntity
  8
0
  6
Continuous
 62
     8
100
AcDbPolyline
 90
        9
 70
   128
 43
0.0
 10
140.5739642084
 20
450.7155225918
 10
140.5739418567
 20
450.6945436195
 10
140.5738785268
 20
450.6337049723
 10
140.5737779439
 20
450.535335888
 10
140.5736401082
 20
450.4032017038
 10
140.5734724701
 20
450.2423604325
 10
140.5732824803
 20
450.0589681164
 10
140.5730775894
 20
449.8600441337
 10
140.5728615225
 20
449.6532020465
  0
ARC
  5
DB
330
6A5
100
AcDbEntity
  8
0
  6
Continuous
 62
     8
100
AcDbCircle
 10
141.73103254
 20
595.6471879802
 30
0.0
 40
144.9362840677361
100
AcDbArc
 50
269.5425863396
 51
270.5071455524
  0
ARC
  5
DC
330
6A5
100
AcDbEntity
  8
0
  6
Continuous
 62
     8
100
AcDbCircle
 10
143.0105004626
 20
449.6542262393
 30
0.0
 40
1.062360702263208
100
AcDbArc
 50
0.0000643624
 51
89.8167097194
  0
LINE
  5
DD
330
6A5
100
AcDbEntity
  8
0
  6
Continuous
 62
     8
100
AcDbLine
 10
122.4250912071
 20
450.7217168183
 30
0.0
 11
140.5739642084
 21
450.7155225918
 31
0.0
  0
LINE
  5
DE
330
6A5
100
AcDbEntity
  8
0
  6
Continuous
 62
     8
100
AcDbLine
 10
122.4250912071
 20
438.1624152064
 30
0.0
 11
122.4250912071
 21
439.1437586936
 31
0.0
  0
LINE
  5
DF
330
6A5
100
AcDbEntity
  8
0
  6
Continuous
 62
     8
100
AcDbLine
 10
122.4250912071
 20
438.1624152064
 30
0.0
 11
104.2621403337
 21
438.1889160348
 31
0.0
  0
LINE
  5
E0
330
6A5
100
AcDbEntity
  8
0
  6
Continuous
 62
     8
100
AcDbLine
 10
122.4250912071
 20
438.1624152064
 30
0.0
 11
140.5880383552
 21
438.1889160348
 31
0.0
  0
LINE
  5
E1
330
6A5
100
AcDbEntity
  8
0
  6
Continuous
 62
     8
100
AcDbLine
 10
122.4250912071
 20
435.3536538155
 30
0.0
 11
122.4250912071
 21
438.1624152064
 31
0.0
  0
LINE
  5
E2
330
6A5
100
AcDbEntity
  8
0
  6
Continuous
 62
     8
100
AcDbLine
 10
101.3636037112
 20
437.9349720592
 30
0.0
 11
109.9250882269
 21
433.1830514901
 31
0.0
  0
LWPOLYLINE
  5
E3
330
6A5
100
AcDbEntity
  8
0
  6
Continuous
 62
     8
100
AcDbPolyline
 90
        3
 70
   128
 43
0.0
 10
101.4864339829
 20
438.1575120907
 10
101.4162048102
 20
438.036081371
 10
101.3600646854
 20
437.9372616867
  0
LWPOLYLINE
  5
E4
330
6A5
100
AcDbEntity
  8
0
  6
Continuous
 62
     8
100
AcDbPolyline
 90
        3
 70
   128
 43
0.0
 10
143.3637484313
 20
438.1575120907
 10
143.4339738787
 20
438.036081371
 10
143.4901177288
 20
437.9372616867
  0
LINE
  5
E5
330
6A5
100
AcDbEntity
  8
0
  6
Continuous
 62
     8
100
AcDbLine
 10
143.4865749777
 20
437.9349720592
 30
0.0
 11
134.9250904621
 21
433.1830514901
 31
0.0
  0
LWPOLYLINE
  5
E6
330
6A5
100
AcDbEntity
  8
0
  6
Continuous
 62
     8
100
AcDbPolyline
 90
        6
 70
   128
 43
0.0
 10
143.0147855879
 20
450.7179701076
 10
140.1582292617
 20
450.7359306634
 10
137.1417723001
 20
450.7553245247
 10
133.924786687
 20
450.7736510903
 10
128.2533749343
 20
450.7961509124
 10
122.4250912071
 20
450.8039814726
  0
LINE
  5
E7
330
6A5
100
AcDbEntity
  8
0
  6
Continuous
 62
     8
100
AcDbLine
 10
143.0138989688
 20
450.7165815056
 30
0.0
 11
143.0144205094
 21
450.7183007271
 31
0.0
  0
LINE
  5
E8
330
6A5
100
AcDbEntity
  8
0
  6
Continuous
 62
     8
100
AcDbLine
 10
101.8357619048
 20
450.7183007271
 30
0.0
 11
101.8362834454
 21
450.7165824369
 31
0.0
  0
LWPOLYLINE
  5
E9
330
6A5
100
AcDbEntity
  8
0
  6
Continuous
 62
     8
100
AcDbPolyline
 90
        6
 70
   128
 43
0.0
 10
122.4250912071
 20
450.8039814726
 10
116.5815524162
 20
450.7961099342
 10
110.9089001418
 20
450.77356634
 10
107.7171906234
 20
450.7553785414
 10
104.7113432885
 20
450.7360582546
 10
101.8368794919
 20
450.7179784895
  0
LINE
  5
EA
330
6A5
100
AcDbEntity
  8
0
  6
Continuous
 62
     8
100
AcDbLine
 10
122.4250912071
 20
450.8039814726
 30
0.0
 11
122.4250912071
 21
451.4044135184
 31
0.0
  0
LINE
  5
EB
330
6A5
100
AcDbEntity
  8
0
  6
Continuous
 62
     8
100
AcDbLine
 10
101.8272235394
 20
450.7244958849
 30
0.0
 11
101.8350391985
 21
450.7179682449
 31
0.0
  0
LWPOLYLINE
  5
EC
330
6A5
100
AcDbEntity
  8
0
  6
Continuous
 62
     8
100
AcDbPolyline
 90
        3
 70
   128
 43
0.0
 10
101.8156006337
 20
450.7331702233
 10
101.8196686507
 20
450.7287566856
 10
101.8272235394
 20
450.7244958849
  0
LWPOLYLINE
  5
ED
330
6A5
100
AcDbEntity
  8
0
  6
Continuous
 62
     8
100
AcDbPolyline
 90
        3
 70
   128
 43
0.0
 10
101.7558246256
 20
450.7766872019
 10
101.7809554339
 20
450.7566423462
 10
101.8156006337
 20
450.7331702233
  0
LWPOLYLINE
  5
EE
330
6A5
100
AcDbEntity
  8
0
  6
Continuous
 62
     8
100
AcDbPolyline
 90
        3
 70
   128
 43
0.0
 10
143.0345817805
 20
450.7331702233
 10
143.0692269803
 20
450.7566423462
 10
143.0943577886
 20
450.7766872019
  0
LWPOLYLINE
  5
EF
330
6A5
100
AcDbEntity
  8
0
  6
Continuous
 62
     8
100
AcDbPolyline
 90
        3
 70
   128
 43
0.0
 10
143.0229588748
 20
450.7244958849
 10
143.0305137635
 20
450.7287566856
 10
143.0345817805
 20
450.7331702233
  0
LINE
  5
F0
330
6A5
100
AcDbEntity
  8
0
  6
Continuous
 62
     8
100
AcDbLine
 10
143.0151394905
 20
450.7179682449
 30
0.0
 11
143.0229588748
 21
450.7244958849
 31
0.0
  0
LINE
  5
F1
330
6A5
100
AcDbEntity
  8
0
  6
Continuous
 62
     8
100
AcDbLine
 10
100.7724969984
 20
438.9835109076
 30
0.0
 11
100.777317524
 21
439.1251332898
 31
0.0
  0
LINE
  5
F2
330
6A5
100
AcDbEntity
  8
0
  6
Continuous
 62
     8
100
AcDbLine
 10
100.7724969984
 20
449.6579313026
 30
0.0
 11
100.7724969984
 21
438.9860445125
 31
0.0
  0
LINE
  5
F3
330
6A5
100
AcDbEntity
  8
0
  6
Continuous
 62
     8
100
AcDbLine
 10
100.7771014572
 20
449.6545971677
 30
0.0
 11
100.7724969984
 21
449.6579313026
 31
0.0
  0
LINE
  5
F4
330
6A5
100
AcDbEntity
  8
0
  6
Continuous
 62
     8
100
AcDbLine
 10
100.777317524
 20
449.654228364
 30
0.0
 11
100.7771014572
 21
449.6556486309
 31
0.0
  0
LINE
  5
F5
330
6A5
100
AcDbEntity
  8
0
  6
Continuous
 62
     8
100
AcDbLine
 10
144.0776816905
 20
449.6579313026
 30
0.0
 11
144.0776816905
 21
438.9860445125
 31
0.0
  0
LINE
  5
F6
330
6A5
100
AcDbEntity
  8
0
  6
Continuous
 62
     8
100
AcDbLine
 10
144.0776816905
 20
438.9835109076
 30
0.0
 11
144.0728611649
 21
439.1251332898
 31
0.0
  0
LINE
  5
F7
330
6A5
100
AcDbEntity
  8
0
  6
Continuous
 62
     8
100
AcDbLine
 10
144.073080957
 20
449.6556476996
 30
0.0
 11
144.0728611649
 21
449.6542274327
 31
0.0
  0
LINE
  5
F8
330
6A5
100
AcDbEntity
  8
0
  6
Continuous
 62
     8
100
AcDbLine
 10
144.0776816905
 20
449.6579313026
 30
0.0
 11
144.073080957
 21
449.6545971677
 31
0.0
  0
ARC
  5
F9
330
6A5
100
AcDbEntity
  8
0
  6
Continuous
 62
     8
100
AcDbCircle
 10
101.9978312307
 20
438.9835397642
 30
0.0
 40
1.225334232685046
100
AcDbArc
 50
180.001349312
 51
238.6352945228
  0
ARC
  5
FA
330
6A5
100
AcDbEntity
  8
0
  6
Continuous
 62
     8
100
AcDbCircle
 10
142.8522408728
 20
438.9833183247
 30
0.0
 40
1.225444543154633
100
AcDbArc
 50
301.3706618278001
 51
359.9992313109
  0
ARC
  5
FB
330
6A5
100
AcDbEntity
  8
0
  6
Continuous
 62
     8
100
AcDbCircle
 10
101.8397566346
 20
449.655651775
 30
0.0
 40
1.062655697899838
100
AcDbArc
 50
90.25435337690001
 51
180.0567111915
  0
ARC
  5
FC
330
6A5
100
AcDbEntity
  8
0
  6
Continuous
 62
     8
100
AcDbCircle
 10
143.0096970619
 20
449.6545980311
 30
0.0
 40
1.063384413144911
100
AcDbArc
 50
0.0565567665
 51
89.745697749
  0
ARC
  5
FD
330
6A5
100
AcDbEntity
  8
0
  6
Continuous
 62
     8
100
AcDbCircle
 10
101.8391304824
 20
449.6579288621
 30
0.0
 40
1.066633484034843
100
AcDbArc
 50
90.63961216319998
 51
179.9998689082
  0
ARC
  5
FE
330
6A5
100
AcDbEntity
  8
0
  6
Continuous
 62
     8
100
AcDbCircle
 10
143.0110502953
 20
449.6579309693
 30
0.0
 40
1.066631395254899
100
AcDbArc
 50
0.0000179016
 51
89.3602986708
  0
LINE
  5
FF
330
6A5
100
AcDbEntity
  8
0
  6
Continuous
 62
     8
100
AcDbLine
 10
134.4250894488
 20
433.1830514901
 30
0.0
 11
134.9250904621
 21
433.1830514901
 31
0.0
  0
LINE
  5
100
330
6A5
100
AcDbEntity
  8
0
  6
Continuous
 62
     8
100
AcDbLine
 10
122.4250912071
 20
435.2668296386
 30
0.0
 11
122.4250912071
 21
435.3536538155
 31
0.0
  0
LINE
  5
101
330
6A5
100
AcDbEntity
  8
0
  6
Continuous
 62
     8
100
AcDbLine
 10
110.4250892402
 20
433.1830514901
 30
0.0
 11
109.9250882269
 21
433.1830514901
 31
0.0
  0
LINE
  5
102
330
6A5
100
AcDbEntity
  8
0
  6
Continuous
 62
     8
100
AcDbLine
 10
143.4901736081
 20
437.9370123687
 30
0.0
 11
143.4639959932
 21
437.8261595456
 31
0.0
  0
LINE
  5
103
330
6A5
100
AcDbEntity
  8
0
  6
Continuous
 62
     8
100
AcDbLine
 10
141.4455927313
 20
436.792125537
 30
0.0
 11
143.4686414302
 21
437.8287305198
 31
0.0
  0
LINE
  5
104
330
6A5
100
AcDbEntity
  8
0
  6
Continuous
 62
     8
100
AcDbLine
 10
103.6398156882
 20
436.6715980767
 30
0.0
 11
101.3815372587
 21
437.8287305198
 31
0.0
  0
LINE
  5
105
330
6A5
100
AcDbEntity
  8
0
  6
Continuous
 62
     8
100
AcDbLine
 10
101.3600050808
 20
437.9370123687
 30
0.0
 11
101.386186421
 21
437.8261595456
 31
0.0
  0
LINE
  5
106
330
6A5
100
AcDbEntity
  8
0
  6
Continuous
 62
     8
100
AcDbLine
 10
144.0849683584
 20
438.8529837205
 30
0.0
 11
144.0776854158
 21
438.9833018839
 31
0.0
  0
LINE
  5
107
330
6A5
100
AcDbEntity
  8
0
  6
Continuous
 62
     8
100
AcDbLine
 10
144.0849832595
 20
449.6623467029
 30
0.0
 11
144.0776816905
 21
449.6579313026
 31
0.0
  0
LINE
  5
108
330
6A5
100
AcDbEntity
  8
0
  6
Continuous
 62
     8
100
AcDbLine
 10
144.0849683584
 20
438.8530308687
 30
0.0
 11
144.0849832595
 21
449.6623467029
 31
0.0
  0
LINE
  5
109
330
6A5
100
AcDbEntity
  8
0
  6
Continuous
 62
     8
100
AcDbLine
 10
100.7652177812
 20
438.8529837205
 30
0.0
 11
100.7724969984
 21
438.9833018839
 31
0.0
  0
LINE
  5
10A
330
6A5
100
AcDbEntity
  8
0
  6
Continuous
 62
     8
100
AcDbLine
 10
100.7652177812
 20
438.8530308687
 30
0.0
 11
100.76520288
 21
449.662283373
 31
0.0
  0
LINE
  5
10B
330
6A5
100
AcDbEntity
  8
0
  6
Continuous
 62
     8
100
AcDbLine
 10
100.7724969984
 20
449.6579313026
 30
0.0
 11
100.76520288
 21
449.6623467029
 31
0.0
  0
ARC
  5
10C
330
6A5
100
AcDbEntity
  8
0
  6
Continuous
 62
     8
100
AcDbCircle
 10
142.9255836147
 20
438.8530898314
 30
0.0
 40
1.159384743689767
100
AcDbArc
 50
297.668990222
 51
359.9994132631
  0
ARC
  5
10D
330
6A5
100
AcDbEntity
  8
0
  6
Continuous
 62
     8
100
AcDbCircle
 10
101.9246629774
 20
438.852983465
 30
0.0
 40
1.159445200122736
100
AcDbArc
 50
179.9953246933
 51
242.3256693581
  0
ARC
  5
10E
330
6A5
100
AcDbEntity
  8
0
  6
Continuous
 62
     8
100
AcDbCircle
 10
101.8362228858
 20
449.6623487744
 30
0.0
 40
1.071020005787888
100
AcDbArc
 50
91.10328567520001
 51
180.0001108168
  0
ARC
  5
10F
330
6A5
100
AcDbEntity
  8
0
  6
Continuous
 62
     8
100
AcDbCircle
 10
143.0139556571
 20
449.6623412508
 30
0.0
 40
1.071027602463229
100
AcDbArc
 50
0.0002916629
 51
88.8965150096
  0
LINE
  5
110
330
6A5
100
AcDbEntity
  8
0
  6
Continuous
 62
     8
100
AcDbLine
 10
144.122627318
 20
438.0595080919
 30
0.0
 11
144.0849683584
 21
438.8530779587
 31
0.0
  0
LINE
  5
111
330
6A5
100
AcDbEntity
  8
0
  6
Continuous
 62
     8
100
AcDbLine
 10
144.122627318
 20
449.6831394107
 30
0.0
 11
144.0849832595
 21
449.6623467029
 31
0.0
  0
LINE
  5
112
330
6A5
100
AcDbEntity
  8
0
  6
Continuous
 62
     8
100
AcDbLine
 10
100.7275550962
 20
438.0595080992
 30
0.0
 11
100.7652177812
 21
438.8530779587
 31
0.0
  0
LINE
  5
113
330
6A5
100
AcDbEntity
  8
0
  6
Continuous
 62
     8
100
AcDbLine
 10
100.76520288
 20
449.6623467029
 30
0.0
 11
100.7275550962
 21
449.6831394107
 31
0.0
  0
LINE
  5
114
330
6A5
100
AcDbEntity
  8
0
  6
Continuous
 62
     8
100
AcDbLine
 10
143.4639624656
 20
437.8262765139
 30
0.0
 11
143.6208530665
 21
436.9691051151
 31
0.0
  0
LINE
  5
115
330
6A5
100
AcDbEntity
  8
0
  6
Continuous
 62
     8
100
AcDbLine
 10
101.3862236739
 20
437.8262765139
 30
0.0
 11
101.2293293477
 21
436.9691051151
 31
0.0
  0
ARC
  5
116
330
6A5
100
AcDbEntity
  8
0
  6
Continuous
 62
     8
100
AcDbCircle
 10
129.7882925687
 20
399.0000987747
 30
0.0
 40
88.31731303577872
100
AcDbArc
 50
1.0874027673
 51
21.3336226241
  0
LWPOLYLINE
  5
117
330
6A5
100
AcDbEntity
  8
0
  6
Continuous
 62
     8
100
AcDbPolyline
 90
        9
 70
   128
 43
0.0
 10
218.0897004307
 20
400.6761511163
 10
217.8043543697
 20
400.6695797042
 10
217.5313539208
 20
400.6632951394
 10
217.2807536424
 20
400.6575283901
 10
217.0617810787
 20
400.6524880723
 10
216.8824940325
 20
400.6483604506
 10
216.7495011688
 20
400.645298262
 10
216.6676937939
 20
400.6434169904
 10
216.6400856675
 20
400.6427799658
  0
LWPOLYLINE
  5
118
330
6A5
100
AcDbEntity
  8
0
  6
Continuous
 62
     8
100
AcDbPolyline
 90
        9
 70
   128
 43
0.0
 10
212.0539180339
 20
431.1297525027
 10
211.7841101588
 20
431.0366453909
 10
211.5259736181
 20
430.9475671806
 10
211.2890190781
 20
430.8657979899
 10
211.0819711686
 20
430.7943478533
 10
210.9124481083
 20
430.7358482227
 10
210.7866934837
 20
430.6924527817
 10
210.7093415559
 20
430.6657592141
 10
210.6832347215
 20
430.6567509965
  0
LWPOLYLINE
  5
119
330
6A5
100
AcDbEntity
  8
0
  6
Continuous
 62
     8
100
AcDbPolyline
 90
        9
 70
   128
 43
0.0
 10
246.7604845167
 20
400.6761511163
 10
247.0458268524
 20
400.6695797042
 10
247.3188235761
 20
400.6632951394
 10
247.5694238544
 20
400.6575283901
 10
247.7884038688
 20
400.6524880723
 10
247.9676871897
 20
400.6483604506
 10
248.1006800533
 20
400.645298262
 10
248.1824874283
 20
400.6434169904
 10
248.21009928
 20
400.6427799658
  0
ARC
  5
11A
330
6A5
100
AcDbEntity
  8
0
  6
Continuous
 62
     8
100
AcDbCircle
 10
335.0618179217
 20
399.0001135317
 30
0.0
 40
88.317238312127
100
AcDbArc
 50
158.6663687206
 51
178.9126058879
  0
LWPOLYLINE
  5
11B
330
6A5
100
AcDbEntity
  8
0
  6
Continuous
 62
     8
100
AcDbPolyline
 90
        9
 70
   128
 43
0.0
 10
252.7962669135
 20
431.1297525027
 10
253.0660747887
 20
431.0366453909
 10
253.324207604
 20
430.9475671806
 10
253.5611584187
 20
430.8657979899
 10
253.7682100535
 20
430.7943478533
 10
253.9377331139
 20
430.7358482227
 10
254.0634914637
 20
430.6924527817
 10
254.1408433915
 20
430.6657592141
 10
254.1669427753
 20
430.6567509965
  0
LINE
  5
11C
330
6A5
100
AcDbEntity
  8
0
  6
Continuous
 62
     8
100
AcDbLine
 10
232.4250906111
 20
459.7095338003
 30
0.0
 11
232.4250906111
 21
353.6095855133
 31
0.0
  0
LINE
  5
11D
330
6A5
100
AcDbEntity
  8
0
  6
Continuous
 62
     8
100
AcDbLine
 10
219.6109897793
 20
353.6095333592
 30
0.0
 11
232.4250906111
 21
353.6095333592
 31
0.0
  0
LWPOLYLINE
  5
11E
330
6A5
100
AcDbEntity
  8
0
  6
Continuous
 62
     8
100
AcDbPolyline
 90
        9
 70
   128
 43
0.0
 10
218.3610095979
 20
354.8529905573
 10
218.3802693487
 20
354.301632692
 10
218.4251255692
 20
354.0288594858
 10
218.4665284456
 20
353.8966116802
 10
218.4951237739
 20
353.8334978119
 10
218.5345038176
 20
353.7763146058
 10
218.5912995935
 20
353.7371320025
 10
219.0577469171
 20
353.6260736481
 10
219.6109897793
 20
353.6095333592
  0
LINE
  5
11F
330
6A5
100
AcDbEntity
  8
0
  6
Continuous
 62
     8
100
AcDbLine
 10
218.1489250959
 20
395.357423772
 30
0.0
 11
218.3610095979
 21
354.8529905573
 31
0.0
  0
LWPOLYLINE
  5
120
330
6A5
100
AcDbEntity
  8
0
  6
Continuous
 62
     8
100
AcDbPolyline
 90
        3
 70
   128
 43
0.0
 10
218.0897004307
 20
400.6761511163
 10
218.1311256588
 20
398.0169271425
 10
218.1489250959
 20
395.357423772
  0
ARC
  5
121
330
6A5
100
AcDbEntity
  8
0
  6
Continuous
 62
     8
100
AcDbCircle
 10
232.4250901242
 20
438.1595341952
 30
0.0
 40
21.54999960502443
100
AcDbArc
 50
89.99999870550002
 51
199.0387757431
  0
LWPOLYLINE
  5
122
330
6A5
100
AcDbEntity
  8
0
  6
Continuous
 62
     8
100
AcDbPolyline
 90
        3
 70
   128
 43
0.0
 10
246.7604845167
 20
400.6761511163
 10
246.719051838
 20
398.0169271425
 10
246.7012598515
 20
395.357423772
  0
LINE
  5
123
330
6A5
100
AcDbEntity
  8
0
  6
Continuous
 62
     8
100
AcDbLine
 10
246.7012598515
 20
395.357423772
 30
0.0
 11
246.4891716243
 21
354.8529905573
 31
0.0
  0
LWPOLYLINE
  5
124
330
6A5
100
AcDbEntity
  8
0
  6
Continuous
 62
     8
100
AcDbPolyline
 90
        9
 70
   128
 43
0.0
 10
246.4891716243
 20
354.8529905573
 10
246.4699118734
 20
354.301632692
 10
246.4250519277
 20
354.0288594858
 10
246.3836565019
 20
353.8966116802
 10
246.3550611735
 20
353.8334978119
 10
246.3156774045
 20
353.7763146058
 10
246.2588816286
 20
353.7371320025
 10
245.7924380303
 20
353.6260736481
 10
245.2391877175
 20
353.6095333592
  0
LINE
  5
125
330
6A5
100
AcDbEntity
  8
0
  6
Continuous
 62
     8
100
AcDbLine
 10
245.2391877175
 20
353.6095333592
 30
0.0
 11
232.4250906111
 21
353.6095333592
 31
0.0
  0
ARC
  5
126
330
6A5
100
AcDbEntity
  8
0
  6
Continuous
 62
     8
100
AcDbCircle
 10
232.425086153
 20
438.1595280153
 30
0.0
 40
21.55000578498733
100
AcDbArc
 50
340.9612473085999
 51
89.9999881473
  0
LINE
  5
127
330
6A5
100
AcDbEntity
  8
0
  6
Continuous
 62
     8
100
AcDbLine
 10
245.2391877175
 20
352.1595311657
 30
0.0
 11
245.2391877175
 21
353.6095333592
 31
0.0
  0
LWPOLYLINE
  5
128
330
6A5
100
AcDbEntity
  8
0
  6
Continuous
 62
     8
100
AcDbPolyline
 90
        9
 70
   128
 43
0.0
 10
247.939151466
 20
354.8453984157
 10
247.9115396143
 20
354.8455399767
 10
247.8297098876
 20
354.8459721104
 10
247.696679771
 20
354.8466650144
 10
247.5173517466
 20
354.8476037876
 10
247.2983270288
 20
354.848751177
 10
247.0476596952
 20
354.8500624792
 10
246.7745959164
 20
354.8514929906
 10
246.4891716243
 20
354.8529905573
  0
LINE
  5
129
330
6A5
100
AcDbEntity
  8
0
  6
Continuous
 62
     8
100
AcDbLine
 10
219.6109897793
 20
352.1595311657
 30
0.0
 11
219.6109897793
 21
353.6095333592
 31
0.0
  0
LWPOLYLINE
  5
12A
330
6A5
100
AcDbEntity
  8
0
  6
Continuous
 62
     8
100
AcDbPolyline
 90
        9
 70
   128
 43
0.0
 10
216.9110260309
 20
354.8453984157
 10
216.9386416078
 20
354.8455399767
 10
217.0204713345
 20
354.8459721104
 10
217.1534977258
 20
354.8466650144
 10
217.3328294755
 20
354.8476037876
 10
217.5518579186
 20
354.848751177
 10
217.8025215269
 20
354.8500624792
 10
218.0755890311
 20
354.8514929906
 10
218.3610095979
 20
354.8529905573
  0
LWPOLYLINE
  5
12B
330
6A5
100
AcDbEntity
  8
0
  6
Continuous
 62
     8
100
AcDbPolyline
 90
        9
 70
   128
 43
0.0
 10
246.7012598515
 20
395.357423772
 10
246.986676693
 20
395.3559299306
 10
247.2597404719
 20
395.3544994191
 10
247.5104078055
 20
395.3531881169
 10
247.7294325233
 20
395.3520407275
 10
247.9087679983
 20
395.3511019544
 10
248.0417906643
 20
395.3504053251
 10
248.123620391
 20
395.3499769167
 10
248.1512396932
 20
395.3498316304
  0
LWPOLYLINE
  5
12C
330
6A5
100
AcDbEntity
  8
0
  6
Continuous
 62
     8
100
AcDbPolyline
 90
        9
 70
   128
 43
0.0
 10
218.1489250959
 20
395.357423772
 10
217.8635082544
 20
395.3559299306
 10
217.5904370249
 20
395.3544994191
 10
217.3397771419
 20
395.3531881169
 10
217.1207449735
 20
395.3520407275
 10
216.9414169491
 20
395.3511019544
 10
216.8083868326
 20
395.3504053251
 10
216.7265608312
 20
395.3499769167
 10
216.6989452542
 20
395.3498316304
  0
LWPOLYLINE
  5
12D
330
6A5
100
AcDbEntity
  8
0
  6
Continuous
 62
     8
100
AcDbPolyline
 90
        8
 70
   128
 43
0.0
 10
78.7183015943
 20
405.9527230755
 10
78.7424340249
 20
405.3004694477
 10
78.8043185473
 20
404.9793158964
 10
78.870479703
 20
404.8058589295
 10
78.9511769415
 20
404.6885011093
 10
79.0675103069
 20
404.6069284276
 10
79.5641585589
 20
404.4770908848
 10
80.2182822824
 20
404.4527461127
  0
LINE
  5
12E
330
6A5
100
AcDbEntity
  8
0
  6
Continuous
 62
     8
100
AcDbLine
 10
78.7183015943
 20
470.3663450972
 30
0.0
 11
78.7183015943
 21
405.9527230755
 31
0.0
  0
LWPOLYLINE
  5
12F
330
6A5
100
AcDbEntity
  8
0
  6
Continuous
 62
     8
100
AcDbPolyline
 90
        8
 70
   128
 43
0.0
 10
80.2182822824
 20
471.86632206
 10
79.5660286547
 20
471.8421896295
 10
79.244871378
 20
471.7803088323
 10
79.0714144112
 20
471.7141476766
 10
78.9540603162
 20
471.6334504382
 10
78.8724839092
 20
471.5171133474
 10
78.7426500917
 20
471.0204650954
 10
78.7183015943
 20
470.3663450972
  0
LINE
  5
130
330
6A5
100
AcDbEntity
  8
0
  6
Continuous
 62
     8
100
AcDbLine
 10
274.6318995357
 20
471.86632206
 30
0.0
 11
80.2182822824
 21
471.86632206
 31
0.0
  0
LWPOLYLINE
  5
131
330
6A5
100
AcDbEntity
  8
0
  6
Continuous
 62
     8
100
AcDbPolyline
 90
        8
 70
   128
 43
0.0
 10
276.1318802238
 20
470.3663450972
 10
276.1077477933
 20
471.018598725
 10
276.0458632708
 20
471.3397522763
 10
275.9797021151
 20
471.5132092432
 10
275.8990048767
 20
471.6305670635
 10
275.7826715113
 20
471.7121397451
 10
275.2860232592
 20
471.8419772879
 10
274.6318995357
 20
471.86632206
  0
LINE
  5
132
330
6A5
100
AcDbEntity
  8
0
  6
Continuous
 62
     8
100
AcDbLine
 10
276.1318802238
 20
405.9527230755
 30
0.0
 11
276.1318802238
 21
470.3663450972
 31
0.0
  0
LWPOLYLINE
  5
133
330
6A5
100
AcDbEntity
  8
0
  6
Continuous
 62
     8
100
AcDbPolyline
 90
        8
 70
   128
 43
0.0
 10
274.6318995357
 20
404.4527461127
 10
275.2841531635
 20
404.4768785433
 10
275.6053104401
 20
404.5387593404
 10
275.778767407
 20
404.6049204961
 10
275.896121502
 20
404.6856177346
 10
275.977697909
 20
404.8019548253
 10
276.1075317264
 20
405.2986030773
 10
276.1318802238
 20
405.9527230755
  0
LINE
  5
134
330
6A5
100
AcDbEntity
  8
0
  6
Continuous
 62
     8
100
AcDbLine
 10
80.2182822824
 20
404.4527461127
 30
0.0
 11
216.4685919286
 21
404.4527461127
 31
0.0
  0
LINE
  5
135
330
6A5
100
AcDbEntity
  8
0
  6
Continuous
 62
     8
100
AcDbLine
 10
248.3815892936
 20
404.4527461127
 30
0.0
 11
274.6318995357
 21
404.4527461127
 31
0.0
  0
LINE
  5
136
330
6A5
100
AcDbEntity
  8
0
  6
Continuous
 62
     8
100
AcDbLine
 10
277.431864977
 20
470.3663450972
 30
0.0
 11
277.431864977
 21
405.9527230755
 31
0.0
  0
LINE
  5
137
330
6A5
100
AcDbEntity
  8
0
  6
Continuous
 62
     8
100
AcDbLine
 10
276.1318802238
 20
405.9527230755
 30
0.0
 11
277.431864977
 21
405.9527230755
 31
0.0
  0
LINE
  5
138
330
6A5
100
AcDbEntity
  8
0
  6
Continuous
 62
     8
100
AcDbLine
 10
276.1318802238
 20
470.3663450972
 30
0.0
 11
277.431864977
 21
470.3663450972
 31
0.0
  0
LINE
  5
139
330
6A5
100
AcDbEntity
  8
0
  6
Continuous
 62
     8
100
AcDbLine
 10
77.4183168412
 20
405.9527230755
 30
0.0
 11
77.4183168412
 21
470.3663450972
 31
0.0
  0
LINE
  5
13A
330
6A5
100
AcDbEntity
  8
0
  6
Continuous
 62
     8
100
AcDbLine
 10
78.7183015943
 20
470.3663450972
 30
0.0
 11
77.4183168412
 21
470.3663450972
 31
0.0
  0
LINE
  5
13B
330
6A5
100
AcDbEntity
  8
0
  6
Continuous
 62
     8
100
AcDbLine
 10
78.7183015943
 20
405.9527230755
 30
0.0
 11
77.4183168412
 21
405.9527230755
 31
0.0
  0
LINE
  5
13C
330
6A5
100
AcDbEntity
  8
0
  6
Continuous
 62
     8
100
AcDbLine
 10
274.6318995357
 20
403.1527613596
 30
0.0
 11
248.3230724336
 21
403.1527613596
 31
0.0
  0
LINE
  5
13D
330
6A5
100
AcDbEntity
  8
0
  6
Continuous
 62
     8
100
AcDbLine
 10
216.5271087886
 20
403.1527613596
 30
0.0
 11
80.2182822824
 21
403.1527613596
 31
0.0
  0
LINE
  5
13E
330
6A5
100
AcDbEntity
  8
0
  6
Continuous
 62
     8
100
AcDbLine
 10
80.2182822824
 20
404.4527461127
 30
0.0
 11
80.2182822824
 21
403.1527613596
 31
0.0
  0
LINE
  5
13F
330
6A5
100
AcDbEntity
  8
0
  6
Continuous
 62
     8
100
AcDbLine
 10
274.6318995357
 20
404.4527461127
 30
0.0
 11
274.6318995357
 21
403.1527613596
 31
0.0
  0
LINE
  5
140
330
6A5
100
AcDbEntity
  8
0
  6
Continuous
 62
     8
100
AcDbLine
 10
80.2182822824
 20
473.1663068131
 30
0.0
 11
274.6318995357
 21
473.1663068131
 31
0.0
  0
LINE
  5
141
330
6A5
100
AcDbEntity
  8
0
  6
Continuous
 62
     8
100
AcDbLine
 10
274.6318995357
 20
471.86632206
 30
0.0
 11
274.6318995357
 21
473.1663068131
 31
0.0
  0
LINE
  5
142
330
6A5
100
AcDbEntity
  8
0
  6
Continuous
 62
     8
100
AcDbLine
 10
80.2182822824
 20
471.86632206
 30
0.0
 11
80.2182822824
 21
473.1663068131
 31
0.0
  0
LWPOLYLINE
  5
143
330
6A5
100
AcDbEntity
  8
0
  6
Continuous
 62
     8
100
AcDbPolyline
 90
        8
 70
   128
 43
0.0
 10
80.2182822824
 20
403.1527613596
 10
79.4148042203
 20
403.1857227281
 10
78.5301744343
 20
403.4229790167
 10
78.0261277557
 20
403.7751605109
 10
77.6841014028
 20
404.2740104095
 10
77.5566964746
 20
404.6141219632
 10
77.4509578348
 20
405.1520203546
 10
77.4183168412
 20
405.9527230755
  0
LWPOLYLINE
  5
144
330
6A5
100
AcDbEntity
  8
0
  6
Continuous
 62
     8
100
AcDbPolyline
 90
        8
 70
   128
 43
0.0
 10
77.4183168412
 20
470.3663450972
 10
77.4512782098
 20
471.1698194341
 10
77.6885344983
 20
472.0544529454
 10
78.0407159925
 20
472.5584996239
 10
78.5395696164
 20
472.9005222515
 10
78.8796811701
 20
473.027930905
 10
79.4175758363
 20
473.1336658195
 10
80.2182822824
 20
473.1663068131
  0
LWPOLYLINE
  5
145
330
6A5
100
AcDbEntity
  8
0
  6
Continuous
 62
     8
100
AcDbPolyline
 90
        8
 70
   128
 43
0.0
 10
277.431864977
 20
405.9527230755
 10
277.3989036084
 20
405.1492487387
 10
277.1616473199
 20
404.2646152274
 10
276.8094658256
 20
403.7605685488
 10
276.3106122018
 20
403.4185459212
 10
275.9705006481
 20
403.2911372677
 10
275.4326059819
 20
403.1854023532
 10
274.6318995357
 20
403.1527613596
  0
LWPOLYLINE
  5
146
330
6A5
100
AcDbEntity
  8
0
  6
Continuous
 62
     8
100
AcDbPolyline
 90
        8
 70
   128
 43
0.0
 10
274.6318995357
 20
473.1663068131
 10
275.4353775979
 20
473.1333454446
 10
276.3200073839
 20
472.896089156
 10
276.8240540625
 20
472.5439076618
 10
277.1660804153
 20
472.0450577632
 10
277.2934853435
 20
471.7049462096
 10
277.3992239834
 20
471.1670478181
 10
277.431864977
 20
470.3663450972
  0
LINE
  5
147
330
6A5
100
AcDbEntity
  8
0
  6
Continuous
 62
     8
100
AcDbLine
 10
77.3779644967
 20
405.912370731
 30
0.0
 11
77.4183168412
 21
405.9527230755
 31
0.0
  0
LINE
  5
148
330
6A5
100
AcDbEntity
  8
0
  6
Continuous
 62
     8
100
AcDbLine
 10
80.2182822824
 20
403.1527613596
 30
0.0
 11
80.1779299379
 21
403.1124090151
 31
0.0
  0
LINE
  5
149
330
6A5
100
AcDbEntity
  8
0
  6
Continuous
 62
     8
100
AcDbLine
 10
80.1779299379
 20
473.2066591577
 30
0.0
 11
80.2182822824
 21
473.1663068131
 31
0.0
  0
LINE
  5
14A
330
6A5
100
AcDbEntity
  8
0
  6
Continuous
 62
     8
100
AcDbLine
 10
77.4183168412
 20
470.3663450972
 30
0.0
 11
77.3779644967
 21
470.4066974417
 31
0.0
  0
LINE
  5
14B
330
6A5
100
AcDbEntity
  8
0
  6
Continuous
 62
     8
100
AcDbLine
 10
274.6722518803
 20
403.1124090151
 30
0.0
 11
274.6318995357
 21
403.1527613596
 31
0.0
  0
LINE
  5
14C
330
6A5
100
AcDbEntity
  8
0
  6
Continuous
 62
     8
100
AcDbLine
 10
277.431864977
 20
405.9527230755
 30
0.0
 11
277.4722173215
 21
405.912370731
 31
0.0
  0
LINE
  5
14D
330
6A5
100
AcDbEntity
  8
0
  6
Continuous
 62
     8
100
AcDbLine
 10
277.4722173215
 20
470.4066974417
 30
0.0
 11
277.431864977
 21
470.3663450972
 31
0.0
  0
LINE
  5
14E
330
6A5
100
AcDbEntity
  8
0
  6
Continuous
 62
     8
100
AcDbLine
 10
274.6318995357
 20
473.1663068131
 30
0.0
 11
274.6722518803
 21
473.2066591577
 31
0.0
  0
LWPOLYLINE
  5
14F
330
6A5
100
AcDbEntity
  8
0
  6
Continuous
 62
     7
100
AcDbPolyline
 90
        4
 70
   128
 43
0.0
 10
502.1562285706
 20
430.7744366423
 10
502.7079291626
 20
430.7983301886
 10
506.2784858032
 20
430.9721731887
 10
507.7049143597
 20
431.0250900061
  0
LINE
  5
150
330
6A5
100
AcDbEntity
  8
0
  6
Continuous
 62
     7
100
AcDbLine
 10
540.7570607945
 20
450.7211636127
 30
0.0
 11
530.3960151955
 21
450.8046808959
 31
0.0
  0
LWPOLYLINE
  5
151
330
6A5
100
AcDbEntity
  8
0
  6
Continuous
 62
     7
100
AcDbPolyline
 90
        7
 70
   128
 43
0.0
 10
530.6752480551
 20
450.801499498
 10
529.0648646637
 20
450.8076238752
 10
524.2183513924
 20
450.8238093302
 10
519.6121938511
 20
450.838833426
 10
515.0452114626
 20
450.8537187547
 10
503.3125884815
 20
450.8927495525
 10
491.3965769097
 20
450.932870929
  0
LWPOLYLINE
  5
152
330
6A5
100
AcDbEntity
  8
0
  6
Continuous
 62
     7
100
AcDbPolyline
 90
        3
 70
   128
 43
0.0
 10
361.5957906454
 20
451.3709538922
 10
354.3119917608
 20
451.3891137511
 10
348.1616801491
 20
451.3952725873
  0
LWPOLYLINE
  5
153
330
6A5
100
AcDbEntity
  8
0
  6
Continuous
 62
     7
100
AcDbPolyline
 90
        4
 70
   128
 43
0.0
 10
541.7515046879
 20
449.6442781136
 10
541.7114652678
 20
449.9456717939
 10
541.6502214953
 20
450.1097363726
 10
541.6629768892
 20
450.0789505736
  0
LINE
  5
154
330
6A5
100
AcDbEntity
  8
0
  6
Continuous
 62
     7
100
AcDbLine
 10
532.8162319943
 20
428.6951910079
 30
0.0
 11
531.6574729963
 21
435.2668296386
 31
0.0
  0
LINE
  5
155
330
6A5
100
AcDbEntity
  8
0
  6
Continuous
 62
     7
100
AcDbLine
 10
508.0221004769
 20
431.0992735744
 30
0.0
 11
509.1808445736
 21
424.5276342452
 31
0.0
  0
LINE
  5
156
330
6A5
100
AcDbEntity
  8
0
  6
Continuous
 62
     7
100
AcDbLine
 10
509.1808445736
 20
424.5276342452
 30
0.0
 11
510.2659173294
 21
424.1327041135
 31
0.0
  0
LINE
  5
157
330
6A5
100
AcDbEntity
  8
0
  6
Continuous
 62
     7
100
AcDbLine
 10
531.9316841646
 20
427.9529641689
 30
0.0
 11
532.8162319943
 21
428.6951910079
 31
0.0
  0
LINE
  5
158
330
6A5
100
AcDbEntity
  8
0
  6
Continuous
 62
     7
100
AcDbLine
 10
413.5616652652
 20
461.1595341311
 30
0.0
 11
392.689172922
 21
461.1595341311
 31
0.0
  0
ARC
  5
159
330
6A5
100
AcDbEntity
  8
0
  6
Continuous
 62
     7
100
AcDbCircle
 10
413.5616683289
 20
459.6595340864
 30
0.0
 40
1.5
100
AcDbArc
 50
0.0
 51
90.0
  0
ARC
  5
15A
330
6A5
100
AcDbEntity
  8
0
  6
Continuous
 62
     7
100
AcDbCircle
 10
392.6891732265
 20
460.9595340864
 30
0.0
 40
0.2000000000000347
100
AcDbArc
 50
110.9791853433
 51
158.0
  0
ARC
  5
15B
330
6A5
100
AcDbEntity
  8
0
  6
Continuous
 62
     7
100
AcDbCircle
 10
374.6849477506
 20
460.0095340864
 30
0.0
 40
0.6999999999999886
100
AcDbArc
 50
40.99999999999999
 51
90.0
  0
ARC
  5
15C
330
6A5
100
AcDbEntity
  8
0
  6
Continuous
 62
     7
100
AcDbCircle
 10
374.6849477506
 20
416.3095340864
 30
0.0
 40
0.7000000000000455
100
AcDbArc
 50
270.0
 51
319.0
  0
LINE
  5
15D
330
6A5
100
AcDbEntity
  8
0
  6
Continuous
 62
     7
100
AcDbLine
 10
374.684947355
 20
460.7095339642
 30
0.0
 11
348.1616683289
 21
460.7095339642
 31
0.0
  0
LINE
  5
15E
330
6A5
100
AcDbEntity
  8
0
  6
Continuous
 62
     7
100
AcDbLine
 10
348.1616683289
 20
415.6095342086
 30
0.0
 11
374.684947355
 21
415.6095342086
 31
0.0
  0
LINE
  5
15F
330
6A5
100
AcDbEntity
  8
0
  6
Continuous
 62
     7
100
AcDbLine
 10
375.2132438108
 20
415.85029227
 30
0.0
 11
375.2747483536
 21
415.921044846
 31
0.0
  0
LINE
  5
160
330
6A5
100
AcDbEntity
  8
0
  6
Continuous
 62
     7
100
AcDbLine
 10
375.2747483536
 20
460.3980233268
 30
0.0
 11
375.2132438108
 21
460.4687759028
 31
0.0
  0
ARC
  5
161
330
6A5
100
AcDbEntity
  8
0
  6
Continuous
 62
     7
100
AcDbCircle
 10
375.8030450371
 20
460.8572646132
 30
0.0
 40
0.6999999999999874
100
AcDbArc
 50
221.0
 51
269.1898025956999
  0
ARC
  5
162
330
6A5
100
AcDbEntity
  8
0
  6
Continuous
 62
     7
100
AcDbCircle
 10
375.8030450371
 20
415.4618035595
 30
0.0
 40
0.7000000000000247
100
AcDbArc
 50
90.8101974043
 51
139.0
  0
ARC
  5
163
330
6A5
100
AcDbEntity
  8
0
  6
Continuous
 62
     7
100
AcDbCircle
 10
375.4820638353
 20
438.1595340864
 30
0.0
 40
22.00000000000004
100
AcDbArc
 50
270.8101974043001
 51
290.7087921947
  0
ARC
  5
164
330
6A5
100
AcDbEntity
  8
0
  6
Continuous
 62
     7
100
AcDbCircle
 10
375.4820638353
 20
438.1595340864
 30
0.0
 40
22.00000000000004
100
AcDbArc
 50
48.8605009388
 51
89.18980259570002
  0
LWPOLYLINE
  5
165
330
6A5
100
AcDbEntity
  8
0
  6
Continuous
 62
     7
100
AcDbPolyline
 90
        6
 70
   128
 43
0.0
 10
415.06083384
 20
355.1031288997
 10
415.1961214825
 20
367.862389733
 10
415.2516879126
 20
382.3327248291
 10
415.2814976855
 20
396.3836034135
 10
415.299662201
 20
410.0150459752
 10
415.392749755
 20
426.9241181508
  0
LINE
  5
166
330
6A5
100
AcDbEntity
  8
0
  6
Continuous
 62
     7
100
AcDbLine
 10
415.2436189338
 20
451.1856663347
 30
0.0
 11
415.06083384
 21
459.155976151
 31
0.0
  0
LINE
  5
167
330
6A5
100
AcDbEntity
  8
0
  6
Continuous
 62
     7
100
AcDbLine
 10
383.4616698309
 20
415.1595340417
 30
0.0
 11
387.725707887
 21
415.1595340417
 31
0.0
  0
ARC
  5
168
330
6A5
100
AcDbEntity
  8
0
  6
Continuous
 62
     7
100
AcDbCircle
 10
383.4616683289
 20
415.3595340864
 30
0.0
 40
0.1999999999999886
100
AcDbArc
 50
180.0
 51
270.0
  0
LINE
  5
169
330
6A5
100
AcDbEntity
  8
0
  6
Continuous
 62
     7
100
AcDbLine
 10
390.2616694554
 20
415.1608527944
 30
0.0
 11
390.2616694554
 21
415.0095333651
 31
0.0
  0
LINE
  5
16A
330
6A5
100
AcDbEntity
  8
0
  6
Continuous
 62
     7
100
AcDbLine
 10
390.2616694554
 20
415.0095333651
 30
0.0
 11
390.4802508637
 21
414.4089867667
 31
0.0
  0
ARC
  5
16B
330
6A5
100
AcDbEntity
  8
0
  6
Continuous
 62
     7
100
AcDbCircle
 10
390.6681882199
 20
414.4773907451
 30
0.0
 40
0.2000000000000455
100
AcDbArc
 50
200.0
 51
270.0
  0
LINE
  5
16C
330
6A5
100
AcDbEntity
  8
0
  6
Continuous
 62
     7
100
AcDbLine
 10
390.6681880339
 20
414.2773908869
 30
0.0
 11
397.6975686833
 21
414.2773908869
 31
0.0
  0
LWPOLYLINE
  5
16D
330
6A5
100
AcDbEntity
  8
0
  6
Continuous
 62
     7
100
AcDbPolyline
 90
        3
 70
   128
 43
0.0
 10
397.5884437545
 20
414.2579579101
 10
397.9983337208
 20
414.1526383654
 10
399.21267405
 20
413.6934069292
  0
LINE
  5
16E
330
6A5
100
AcDbEntity
  8
0
  6
Continuous
 62
     7
100
AcDbLine
 10
410.1205810889
 20
397.3757413522
 30
0.0
 11
410.0746482595
 21
398.1628393129
 31
0.0
  0
ARC
  5
16F
330
6A5
100
AcDbEntity
  8
0
  6
Continuous
 62
     7
100
AcDbCircle
 10
393.078742197
 20
397.8905828914
 30
0.0
 40
16.91666265954176
100
AcDbArc
 50
6.660297712299999
 51
67.9685853453
  0
LWPOLYLINE
  5
170
330
6A5
100
AcDbEntity
  8
0
  6
Continuous
 62
     7
100
AcDbPolyline
 90
        3
 70
   128
 43
0.0
 10
409.5693014547
 20
401.4871989683
 10
409.8797559723
 20
399.8617654041
 10
410.0786305948
 20
398.1114899115
  0
LINE
  5
171
330
6A5
100
AcDbEntity
  8
0
  6
Continuous
 62
     7
100
AcDbLine
 10
339.1616687163
 20
473.2066591577
 30
0.0
 11
346.8684751292
 21
473.1663068131
 31
0.0
  0
LINE
  5
172
330
6A5
100
AcDbEntity
  8
0
  6
Continuous
 62
     7
100
AcDbLine
 10
339.1616687163
 20
470.4066974417
 30
0.0
 11
339.1616687163
 21
473.2066591577
 31
0.0
  0
LINE
  5
173
330
6A5
100
AcDbEntity
  8
0
  6
Continuous
 62
     7
100
AcDbLine
 10
346.8684751292
 20
403.1527613596
 30
0.0
 11
339.1616687163
 21
403.1124090151
 31
0.0
  0
LINE
  5
174
330
6A5
100
AcDbEntity
  8
0
  6
Continuous
 62
     7
100
AcDbLine
 10
339.1616687163
 20
403.1124090151
 30
0.0
 11
339.1616687163
 21
405.912370731
 31
0.0
  0
LINE
  5
175
330
6A5
100
AcDbEntity
  8
0
  6
Continuous
 62
     7
100
AcDbLine
 10
339.1616687163
 20
470.4066974417
 30
0.0
 11
339.1616687163
 21
405.912370731
 31
0.0
  0
LINE
  5
176
330
6A5
100
AcDbEntity
  8
0
  6
Continuous
 62
     7
100
AcDbLine
 10
348.1616683289
 20
470.3663450972
 30
0.0
 11
348.1616683289
 21
405.9527230755
 31
0.0
  0
ARC
  5
177
330
6A5
100
AcDbEntity
  8
0
  6
Continuous
 62
     7
100
AcDbCircle
 10
347.0690531651
 20
472.0726260222
 30
0.0
 40
1.111921409543224
100
AcDbArc
 50
349.3074843359
 51
100.3924001556
  0
LINE
  5
178
330
6A5
100
AcDbEntity
  8
0
  6
Continuous
 62
     7
100
AcDbLine
 10
348.1616683289
 20
471.86632206
 30
0.0
 11
348.1616683289
 21
470.3663450972
 31
0.0
  0
LINE
  5
179
330
6A5
100
AcDbEntity
  8
0
  6
Continuous
 62
     7
100
AcDbLine
 10
348.1616683289
 20
405.9527230755
 30
0.0
 11
348.1616683289
 21
404.4527461127
 31
0.0
  0
ARC
  5
17A
330
6A5
100
AcDbEntity
  8
0
  6
Continuous
 62
     7
100
AcDbCircle
 10
347.0690531651
 20
404.2464421506
 30
0.0
 40
1.111921409543063
100
AcDbArc
 50
259.6075998444
 51
10.6925156641
  0
LINE
  5
17B
330
6A5
100
AcDbEntity
  8
0
  6
Continuous
 62
     7
100
AcDbLine
 10
541.7515046879
 20
449.6485575409
 30
0.0
 11
541.7515046879
 21
439.1526776207
 31
0.0
  0
LWPOLYLINE
  5
17C
330
6A5
100
AcDbEntity
  8
0
  6
Continuous
 62
     7
100
AcDbPolyline
 90
        5
 70
   128
 43
0.0
 10
348.1616683289
 20
424.9124492825
 10
375.0420108422
 20
425.1912993685
 10
401.900467275
 20
426.3254332662
 10
428.7563420817
 20
427.5170912341
 10
492.0591719433
 20
430.3259861962
  0
LWPOLYLINE
  5
17D
330
6A5
100
AcDbEntity
  8
0
  6
Continuous
 62
     7
100
AcDbPolyline
 90
        3
 70
   128
 43
0.0
 10
532.149881868
 20
435.3536538155
 10
537.1674902722
 20
436.8410666547
 10
541.06088057
 20
438.1624152064
  0
LWPOLYLINE
  5
17E
330
6A5
100
AcDbEntity
  8
0
  6
Continuous
 62
     7
100
AcDbPolyline
 90
        9
 70
   128
 43
0.0
 10
519.8397494837
 20
433.1830440395
 10
522.0647908732
 20
433.5753785753
 10
524.2898173615
 20
433.967713111
 10
526.8119283005
 20
434.4124273238
 10
528.5017050787
 20
434.7103806984
 10
529.9084492012
 20
434.9584296186
 10
530.9433050438
 20
435.1409006239
 10
531.6875137373
 20
435.272124906
 10
532.149881868
 20
435.3536538155
  0
LWPOLYLINE
  5
17F
330
6A5
100
AcDbEntity
  8
0
  6
Continuous
 62
     7
100
AcDbPolyline
 90
       10
 70
   128
 43
0.0
 10
519.8397345825
 20
433.1830426426
 10
517.7767284199
 20
432.8192778238
 10
515.7164193674
 20
432.4559903079
 10
513.8296939417
 20
432.123311174
 10
512.0652474447
 20
431.8121898294
 10
510.5934597536
 20
431.5526749314
 10
509.3444593235
 20
431.3324418225
 10
508.4241785093
 20
431.1701705054
 10
507.8050054594
 20
431.060995751
 10
507.7043332144
 20
431.0432447427
  0
LWPOLYLINE
  5
180
330
6A5
100
AcDbEntity
  8
0
  6
Continuous
 62
     7
100
AcDbPolyline
 90
        3
 70
   128
 43
0.0
 10
492.0591719433
 20
430.3257924811
 10
499.7944392248
 20
430.6692437575
 10
502.5156445786
 20
430.7900027678
  0
LINE
  5
181
330
6A5
100
AcDbEntity
  8
0
  6
Continuous
 62
     7
100
AcDbLine
 10
502.755568175
 20
430.8006496475
 30
0.0
 11
507.5296916052
 21
431.0125110977
 31
0.0
  0
LINE
  5
182
330
6A5
100
AcDbEntity
  8
0
  6
Continuous
 62
     7
100
AcDbLine
 10
530.4574675842
 20
450.8039814726
 30
0.0
 11
530.6752480551
 21
450.8005979777
 31
0.0
  0
LWPOLYLINE
  5
183
330
6A5
100
AcDbEntity
  8
0
  6
Continuous
 62
     7
100
AcDbPolyline
 90
        6
 70
   128
 43
0.0
 10
530.4574675842
 20
450.8039814726
 10
520.7355774923
 20
450.8360562221
 10
511.4598132654
 20
450.8660066248
 10
501.8963374182
 20
450.8976576225
 10
492.2449596211
 20
450.930018288
 10
491.7107827946
 20
450.9318129466
  0
LWPOLYLINE
  5
184
330
6A5
100
AcDbEntity
  8
0
  6
Continuous
 62
     7
100
AcDbPolyline
 90
        6
 70
   128
 43
0.0
 10
491.3965769097
 20
450.9328681351
 10
482.6967127606
 20
450.9620874495
 10
473.2313312575
 20
450.9936443836
 10
450.807654111
 20
451.0667150215
 10
428.3252961918
 20
451.1430089668
 10
361.5955131113
 20
451.3606078298
  0
ARC
  5
185
330
6A5
100
AcDbEntity
  8
0
  6
Continuous
 62
     7
100
AcDbCircle
 10
540.7089721072
 20
439.1437587506
 30
0.0
 40
1.042531797086139
100
AcDbArc
 50
289.7276052245
 51
359.9999999314999
  0
ARC
  5
186
330
6A5
100
AcDbEntity
  8
0
  6
Continuous
 62
     7
100
AcDbCircle
 10
540.6860397237
 20
449.6562955395
 30
0.0
 40
1.065464180575834
100
AcDbArc
 50
19.8483732141
 51
73.38063626629999
  0
LINE
  5
187
330
6A5
100
AcDbEntity
  8
0
  6
Continuous
 62
     7
100
AcDbLine
 10
541.7515046879
 20
449.6555256964
 30
0.0
 11
541.7515046879
 21
449.6532029779
 31
0.0
  0
LWPOLYLINE
  5
188
330
6A5
100
AcDbEntity
  8
0
  6
Continuous
 62
     7
100
AcDbPolyline
 90
        8
 70
   128
 43
0.0
 10
532.8162319943
 20
428.6951910079
 10
532.654435186
 20
428.6666618035
 10
532.1734704062
 20
428.5818546385
 10
531.3865102812
 20
428.4430922315
 10
530.3151167914
 20
428.2541743786
 10
528.9886005207
 20
428.0202736453
 10
527.4432905003
 20
427.7477956683
 10
525.721520929
 20
427.4442003415
  0
LINE
  5
189
330
6A5
100
AcDbEntity
  8
0
  6
Continuous
 62
     7
100
AcDbLine
 10
525.721520929
 20
427.4442003415
 30
0.0
 11
525.1271732136
 21
430.8148523168
 31
0.0
  0
LWPOLYLINE
  5
18A
330
6A5
100
AcDbEntity
  8
0
  6
Continuous
 62
     7
100
AcDbPolyline
 90
        9
 70
   128
 43
0.0
 10
515.6812377258
 20
429.1492778183
 10
516.8176598831
 20
429.3496583895
 10
517.9919309899
 20
429.5567156122
 10
519.1916681811
 20
429.7682618097
 10
520.4042054697
 20
429.9820646019
 10
521.6167427584
 20
430.1958683253
 10
522.8164799496
 20
430.4074140572
 10
523.9907659575
 20
430.6144708142
 10
525.1271732136
 20
430.8148523168
  0
LINE
  5
18B
330
6A5
100
AcDbEntity
  8
0
  6
Continuous
 62
     7
100
AcDbLine
 10
515.6812377258
 20
429.1492778183
 30
0.0
 11
516.2755705401
 21
425.778625843
 31
0.0
  0
LWPOLYLINE
  5
18C
330
6A5
100
AcDbEntity
  8
0
  6
Continuous
 62
     7
100
AcDbPolyline
 90
        8
 70
   128
 43
0.0
 10
516.2755705401
 20
425.778625843
 10
514.5538009688
 20
425.4750305162
 10
513.0084909483
 20
425.2025516079
 10
511.6819746777
 20
424.9686508746
 10
510.6105662867
 20
424.7797330216
 10
509.8236061617
 20
424.6409706146
 10
509.342656283
 20
424.556164381
 10
509.1808445736
 20
424.5276342452
  0
LWPOLYLINE
  5
18D
330
6A5
100
AcDbEntity
  8
0
  6
Continuous
 62
     7
100
AcDbPolyline
 90
        3
 70
   128
 43
0.0
 10
516.2755705401
 20
425.778625843
 10
518.6799176022
 20
425.7717005283
 10
521.0987932964
 20
426.0428336755
  0
LWPOLYLINE
  5
18E
330
6A5
100
AcDbEntity
  8
0
  6
Continuous
 62
     7
100
AcDbPolyline
 90
       10
 70
   128
 43
0.0
 10
521.0987932964
 20
426.0428336755
 10
519.2176856085
 20
425.7111431406
 10
517.3937387749
 20
425.3895304472
 10
515.6823553129
 20
425.0877688945
 10
514.1355551764
 20
424.8150254906
 10
512.8003217264
 20
424.5795890064
 10
511.7172457262
 20
424.3886129306
 10
510.9192140385
 20
424.2478984714
 10
510.4304857536
 20
424.1617231936
 10
510.2659173294
 20
424.1327041135
  0
LWPOLYLINE
  5
18F
330
6A5
100
AcDbEntity
  8
0
  6
Continuous
 62
     7
100
AcDbPolyline
 90
        3
 70
   128
 43
0.0
 10
521.0987932964
 20
426.0428336755
 10
522.2845382973
 20
426.2908616409
 10
525.721520929
 20
427.4442003415
  0
LWPOLYLINE
  5
190
330
6A5
100
AcDbEntity
  8
0
  6
Continuous
 62
     7
100
AcDbPolyline
 90
       10
 70
   128
 43
0.0
 10
531.9316841646
 20
427.9529641689
 10
531.7671157404
 20
427.9239441574
 10
531.2783874556
 20
427.8377688796
 10
530.4803557678
 20
427.6970544205
 10
529.3972648665
 20
427.5060783447
 10
528.0620463177
 20
427.2706418604
 10
526.5152461811
 20
426.9978984565
 10
524.8038627192
 20
426.6961369038
 10
522.9799158856
 20
426.3745242105
 10
521.0987932964
 20
426.0428336755
  0
LINE
  5
191
330
6A5
100
AcDbEntity
  8
0
  6
Continuous
 62
     7
100
AcDbLine
 10
541.7515046879
 20
449.6555191771
 30
0.0
 11
541.7515046879
 21
449.6562959001
 31
0.0
  0
LWPOLYLINE
  5
192
330
6A5
100
AcDbEntity
  8
0
  6
Continuous
 62
     7
100
AcDbPolyline
 90
       10
 70
   128
 43
0.0
 10
392.689172922
 20
461.1595341311
 10
392.6744133218
 20
461.1226835594
 10
392.5566270932
 20
460.8285923795
 10
392.3225596532
 20
460.2441744254
 10
391.9752098604
 20
459.3769138054
 10
391.5190294369
 20
458.2379211978
 10
390.9598559126
 20
456.8417811141
 10
390.3048567458
 20
455.2063749478
 10
389.5624138399
 20
453.3526472122
 10
388.7612491831
 20
451.3522967071
  0
LINE
  5
193
330
6A5
100
AcDbEntity
  8
0
  6
Continuous
 62
     7
100
AcDbLine
 10
415.06083384
 20
459.7095338003
 30
0.0
 11
415.06083384
 21
451.1862623812
 31
0.0
  0
LWPOLYLINE
  5
194
330
6A5
100
AcDbEntity
  8
0
  6
Continuous
 62
     7
100
AcDbPolyline
 90
       10
 70
   128
 43
0.0
 10
388.5625310227
 20
451.2796284006
 10
389.3769763395
 20
453.2954546929
 10
390.1194192454
 20
455.1330630974
 10
390.7744221374
 20
456.754247968
 10
391.3335919365
 20
458.1382473306
 10
391.78977236
 20
459.2673362539
 10
392.1371221527
 20
460.1270550237
 10
392.3711895927
 20
460.7063916818
 10
392.4889758214
 20
460.99792545
 10
392.5037354215
 20
461.0344556467
  0
LINE
  5
195
330
6A5
100
AcDbEntity
  8
0
  6
Continuous
 62
     7
100
AcDbLine
 10
383.2616701707
 20
425.485519071
 30
0.0
 11
383.2616701707
 21
424.2812733472
 31
0.0
  0
LWPOLYLINE
  5
196
330
6A5
100
AcDbEntity
  8
0
  6
Continuous
 62
     7
100
AcDbPolyline
 90
        6
 70
   128
 43
0.0
 10
415.0607295319
 20
426.909385559
 10
415.0607369825
 20
426.2153732897
 10
415.0608636423
 20
421.2320925043
 10
415.0609157964
 20
416.107791786
 10
415.060744433
 20
408.3890480296
 10
415.0609455987
 20
400.6761511163
  0
LINE
  5
197
330
6A5
100
AcDbEntity
  8
0
  6
Continuous
 62
     7
100
AcDbLine
 10
415.0608412906
 20
459.7095338003
 30
0.0
 11
415.1019535943
 21
457.3629287378
 31
0.0
  0
LWPOLYLINE
  5
198
330
6A5
100
AcDbEntity
  8
0
  6
Continuous
 62
     7
100
AcDbPolyline
 90
        5
 70
   128
 43
0.0
 10
415.3314240261
 20
415.7841553286
 10
415.2699045821
 20
384.3979102866
 10
415.2066342517
 20
369.0036175147
 10
415.1908166691
 20
361.3055435316
 10
415.060744433
 20
353.6095855133
  0
LINE
  5
199
330
6A5
100
AcDbEntity
  8
0
  6
Continuous
 62
     7
100
AcDbLine
 10
396.2237171813
 20
414.9066874132
 30
0.0
 11
395.893786846
 21
415.0095333651
 31
0.0
  0
ARC
  5
19A
330
6A5
100
AcDbEntity
  8
0
  6
Continuous
 62
     7
100
AcDbCircle
 10
392.854216282
 20
403.8240587307
 30
0.0
 40
11.59111004223753
100
AcDbArc
 50
74.7974032849
 51
93.2362199838
  0
LINE
  5
19B
330
6A5
100
AcDbEntity
  8
0
  6
Continuous
 62
     7
100
AcDbLine
 10
383.2616701707
 20
415.3595337019
 30
0.0
 11
383.2616701707
 21
424.2812733472
 31
0.0
  0
LINE
  5
19C
330
6A5
100
AcDbEntity
  8
0
  6
Continuous
 62
     7
100
AcDbLine
 10
410.1601548477
 20
395.3472127513
 30
0.0
 11
410.1283185168
 21
399.9074672655
 31
0.0
  0
LINE
  5
19D
330
6A5
100
AcDbEntity
  8
0
  6
Continuous
 62
     7
100
AcDbLine
 10
410.4429341837
 20
354.8427758113
 30
0.0
 11
410.1601548477
 21
395.3472127513
 31
0.0
  0
ARC
  5
19E
330
6A5
100
AcDbEntity
  8
0
  6
Continuous
 62
     7
100
AcDbCircle
 10
411.9512327381
 20
353.6595340864
 30
0.0
 40
1.500000000000097
100
AcDbArc
 50
180.4
 51
270.0
  0
LWPOLYLINE
  5
19F
330
6A5
100
AcDbEntity
  8
0
  6
Continuous
 62
     7
100
AcDbPolyline
 90
        8
 70
   128
 43
0.0
 10
410.4512676581
 20
353.6490586893
 10
410.4511186465
 20
353.6704269544
 10
410.4507088646
 20
353.7292567388
 10
410.4503922149
 20
353.7746903793
 10
410.4502022251
 20
353.8020265595
 10
410.4499153777
 20
353.8427961365
 10
410.448507218
 20
354.0446696178
 10
410.4429341837
 20
354.8427758113
  0
LINE
  5
1A0
330
6A5
100
AcDbEntity
  8
0
  6
Continuous
 62
     7
100
AcDbLine
 10
413.5616652652
 20
352.1595311657
 30
0.0
 11
411.9512297197
 21
352.1595311657
 31
0.0
  0
ARC
  5
1A1
330
6A5
100
AcDbEntity
  8
0
  6
Continuous
 62
     7
100
AcDbCircle
 10
413.5616683289
 20
353.6595340864
 30
0.0
 40
1.5
100
AcDbArc
 50
270.0
 51
358.0897868283
  0
ARC
  5
1A2
330
6A5
100
AcDbEntity
  8
0
  6
Continuous
 62
     7
100
AcDbCircle
 10
393.3019526494
 20
398.2367861577
 30
0.0
 40
17.19498047173823
100
AcDbArc
 50
93.6708221057
 51
100.1841371678
  0
LINE
  5
1A3
330
6A5
100
AcDbEntity
  8
0
  6
Continuous
 62
     7
100
AcDbLine
 10
390.2616694554
 20
415.0095333651
 30
0.0
 11
395.893786846
 21
415.0095333651
 31
0.0
  0
LWPOLYLINE
  5
1A4
330
6A5
100
AcDbEntity
  8
0
  6
Continuous
 62
     7
100
AcDbPolyline
 90
        3
 70
   128
 43
0.0
 10
396.2240152045
 20
414.9067302541
 10
397.1907764658
 20
414.5365202174
 10
397.4710784837
 20
414.4089867667
  0
LWPOLYLINE
  5
1A5
330
6A5
100
AcDbEntity
  8
0
  6
Continuous
 62
     7
100
AcDbPolyline
 90
        5
 70
   128
 43
0.0
 10
397.4710784837
 20
414.4089867667
 10
397.6183652862
 20
414.3340786294
 10
397.6789757594
 20
414.2963470266
 10
397.686452417
 20
414.2774076507
 10
397.6755335911
 20
414.2788120852
  0
LINE
  5
1A6
330
6A5
100
AcDbEntity
  8
0
  6
Continuous
 62
     7
100
AcDbLine
 10
399.5116695746
 20
413.5968269155
 30
0.0
 11
399.9329067751
 21
413.3789141969
 31
0.0
  0
LINE
  5
1A7
330
6A5
100
AcDbEntity
  8
0
  6
Continuous
 62
     7
100
AcDbLine
 10
409.8104506715
 20
400.1184304551
 30
0.0
 11
410.0506089612
 21
398.1382412211
 31
0.0
  0
LINE
  5
1A8
330
6A5
100
AcDbEntity
  8
0
  6
Continuous
 62
     7
100
AcDbLine
 10
387.725424765
 20
415.1596290366
 30
0.0
 11
390.2616694554
 21
415.1608527944
 31
0.0
  0
ARC
  5
1A9
330
6A5
100
AcDbEntity
  8
0
  6
Continuous
 62
     8
100
AcDbCircle
 10
137.9908838963
 20
471.7663259552
 30
0.0
 40
208.882282795071
100
AcDbArc
 50
359.6159866025001
 51
0.3840133975
  0
LINE
  5
1AA
330
6A5
100
AcDbEntity
  8
0
  6
Continuous
 62
     8
100
AcDbLine
 10
346.8684751292
 20
470.3663450972
 30
0.0
 11
339.1616687163
 21
470.4066974417
 31
0.0
  0
LINE
  5
1AB
330
6A5
100
AcDbEntity
  8
0
  6
Continuous
 62
     8
100
AcDbLine
 10
339.1616687163
 20
405.912370731
 30
0.0
 11
346.8684751292
 21
405.9527230755
 31
0.0
  0
LWPOLYLINE
  5
1AC
330
6A5
100
AcDbEntity
  8
0
  6
Continuous
 62
     8
100
AcDbPolyline
 90
        8
 70
   128
 43
0.0
 10
346.8684751292
 20
403.1527613596
 10
346.8692120382
 20
403.1857227281
 10
346.8707364968
 20
403.4229790167
 10
346.8712942426
 20
403.7751605109
 10
346.8707203151
 20
404.2740104095
 10
346.8701130928
 20
404.6141219632
 10
346.8692078472
 20
405.1520203546
 10
346.8684751292
 20
405.9527230755
  0
LINE
  5
1AD
330
6A5
100
AcDbEntity
  8
0
  6
Continuous
 62
     8
100
AcDbLine
 10
346.8684751292
 20
405.9527230755
 30
0.0
 11
346.8684751292
 21
470.3663450972
 31
0.0
  0
LINE
  5
1AE
330
6A5
100
AcDbEntity
  8
0
  6
Continuous
 62
     8
100
AcDbLine
 10
348.1616683289
 20
470.3663450972
 30
0.0
 11
346.8684751292
 21
470.3663450972
 31
0.0
  0
LINE
  5
1AF
330
6A5
100
AcDbEntity
  8
0
  6
Continuous
 62
     8
100
AcDbLine
 10
348.1616683289
 20
405.9527230755
 30
0.0
 11
346.8684751292
 21
405.9527230755
 31
0.0
  0
LINE
  5
1B0
330
6A5
100
AcDbEntity
  8
0
  6
Continuous
 62
     8
100
AcDbLine
 10
348.1616683289
 20
438.0595080992
 30
0.0
 11
492.0145280644
 21
438.8530779587
 31
0.0
  0
LINE
  5
1B1
330
6A5
100
AcDbEntity
  8
0
  6
Continuous
 62
     8
100
AcDbLine
 10
491.9579334541
 20
449.6623467029
 30
0.0
 11
348.1616683289
 21
449.6831394107
 31
0.0
  0
LINE
  5
1B2
330
6A5
100
AcDbEntity
  8
0
  6
Continuous
 62
     8
100
AcDbLine
 10
492.0145280644
 20
438.8530308687
 30
0.0
 11
491.9579334541
 21
449.662283373
 31
0.0
  0
LINE
  5
1B3
330
6A5
100
AcDbEntity
  8
0
  6
Continuous
 62
     8
100
AcDbLine
 10
538.2524140164
 20
439.1298364688
 30
0.0
 11
538.2524140164
 21
449.6467870966
 31
0.0
  0
LINE
  5
1B4
330
6A5
100
AcDbEntity
  8
0
  6
Continuous
 62
     8
100
AcDbLine
 10
519.8397941872
 20
438.9835109076
 30
0.0
 11
538.2524140164
 21
439.1251332898
 31
0.0
  0
LINE
  5
1B5
330
6A5
100
AcDbEntity
  8
0
  6
Continuous
 62
     8
100
AcDbLine
 10
519.839779286
 20
449.6579313026
 30
0.0
 11
519.8397941872
 21
438.9860445125
 31
0.0
  0
LINE
  5
1B6
330
6A5
100
AcDbEntity
  8
0
  6
Continuous
 62
     8
100
AcDbLine
 10
537.411526589
 20
449.6545971677
 30
0.0
 11
519.839779286
 21
449.6579313026
 31
0.0
  0
LINE
  5
1B7
330
6A5
100
AcDbEntity
  8
0
  6
Continuous
 62
     8
100
AcDbLine
 10
538.2524140164
 20
449.654228364
 30
0.0
 11
537.4095149323
 21
449.6556486309
 31
0.0
  0
ARC
  5
1B8
330
6A5
100
AcDbEntity
  8
0
  6
Continuous
 62
     8
100
AcDbCircle
 10
540.2549802754
 20
406.9964236325
 30
0.0
 40
32.19105863233968
100
AcDbArc
 50
87.3354263007
 51
93.5666030871
  0
LWPOLYLINE
  5
1B9
330
6A5
100
AcDbEntity
  8
0
  6
Continuous
 62
     8
100
AcDbPolyline
 90
        7
 70
   128
 43
0.0
 10
541.7515046879
 20
449.6532029779
 10
541.6286744162
 20
449.6534590916
 10
541.3851149365
 20
449.6535876141
 10
540.9829027935
 20
449.6537152053
 10
540.420711784
 20
449.6538437278
 10
539.7342599913
 20
449.6539722503
 10
538.2524140164
 20
449.654228364
  0
LINE
  5
1BA
330
6A5
100
AcDbEntity
  8
0
  6
Continuous
 62
     8
100
AcDbLine
 10
492.0145280644
 20
438.8529837205
 30
0.0
 11
519.829333572
 21
438.9833018839
 31
0.0
  0
LINE
  5
1BB
330
6A5
100
AcDbEntity
  8
0
  6
Continuous
 62
     8
100
AcDbLine
 10
519.839779286
 20
449.6579313026
 30
0.0
 11
491.9579334541
 21
449.6623467029
 31
0.0
  0
LINE
  5
1BC
330
6A5
100
AcDbEntity
  8
0
  6
Continuous
 62
     8
100
AcDbLine
 10
492.0198924824
 20
437.8262765139
 30
0.0
 11
348.16166555
 21
436.9691051151
 31
0.0
  0
LWPOLYLINE
  5
1BD
330
6A5
100
AcDbEntity
  8
0
  6
Continuous
 62
     8
100
AcDbPolyline
 90
        5
 70
   128
 43
0.0
 10
492.0145429655
 20
438.8530780751
 10
492.0165397211
 20
438.5473470219
 10
492.0184172674
 20
438.253049925
 10
492.0199967905
 20
438.0045181359
 10
492.0210845753
 20
437.8261767168
  0
LWPOLYLINE
  5
1BE
330
6A5
100
AcDbEntity
  8
0
  6
Continuous
 62
     8
100
AcDbPolyline
 90
        3
 70
   128
 43
0.0
 10
348.1616683289
 20
450.7766872019
 10
415.3563909217
 20
450.7566423462
 10
491.9579930588
 20
450.7331702233
  0
LWPOLYLINE
  5
1BF
330
6A5
100
AcDbEntity
  8
0
  6
Continuous
 62
     8
100
AcDbPolyline
 90
        9
 70
   128
 43
0.0
 10
491.9579930588
 20
450.7331702233
 10
491.9580377623
 20
450.7091197491
 10
491.9580675646
 20
450.6458196164
 10
491.9580824658
 20
450.545642835
 10
491.9580824658
 20
450.4123463602
 10
491.9580675646
 20
450.2509286002
 10
491.9580377623
 20
450.0674403579
 10
491.9579930588
 20
449.8687631757
 10
491.9579334541
 20
449.6623467029
  0
LINE
  5
1C0
330
6A5
100
AcDbEntity
  8
0
  6
Continuous
 62
     8
100
AcDbLine
 10
519.8397941872
 20
437.9370123687
 30
0.0
 11
492.0199073836
 21
437.8261595456
 31
0.0
  0
LWPOLYLINE
  5
1C1
330
6A5
100
AcDbEntity
  8
0
  6
Continuous
 62
     8
100
AcDbPolyline
 90
        5
 70
   128
 43
0.0
 10
519.8397941872
 20
438.9835109076
 10
519.8431767508
 20
438.6784848365
 10
519.8464252039
 20
438.3835480447
 10
519.8492117211
 20
438.1289686543
 10
519.8512680813
 20
437.9372616867
  0
LWPOLYLINE
  5
1C2
330
6A5
100
AcDbEntity
  8
0
  6
Continuous
 62
     8
100
AcDbPolyline
 90
        3
 70
   128
 43
0.0
 10
491.9579930588
 20
450.7331702233
 10
505.9078790232
 20
450.7287566856
 10
519.8398388907
 20
450.7244958849
  0
LWPOLYLINE
  5
1C3
330
6A5
100
AcDbEntity
  8
0
  6
Continuous
 62
     8
100
AcDbPolyline
 90
        9
 70
   128
 43
0.0
 10
519.8398388907
 20
450.7244958849
 10
519.8398835941
 20
450.7019848869
 10
519.8399133965
 20
450.6399178252
 10
519.8399282976
 20
450.5406462894
 10
519.8399282976
 20
450.4079309598
 10
519.8399133965
 20
450.2468019099
 10
519.8398835941
 20
450.063361165
 10
519.8398388907
 20
449.8645610482
 10
519.839779286
 20
449.6579313026
  0
LWPOLYLINE
  5
1C4
330
6A5
100
AcDbEntity
  8
0
  6
Continuous
 62
     8
100
AcDbPolyline
 90
        9
 70
   128
 43
0.0
 10
538.2542021557
 20
450.7165824369
 10
538.2542170569
 20
450.6955904261
 10
538.2541574522
 20
450.6347415344
 10
538.2540084406
 20
450.5363659308
 10
538.2537998243
 20
450.40422709
 10
538.2535167023
 20
450.2433830247
 10
538.2531888767
 20
450.0599907086
 10
538.2528163477
 20
449.8610676572
 10
538.2524140164
 20
449.654228364
  0
ARC
  5
1C5
330
6A5
100
AcDbEntity
  8
0
  6
Continuous
 62
     8
100
AcDbCircle
 10
539.560453907
 20
651.2729814955
 30
0.0
 40
200.5606529131744
100
AcDbArc
 50
269.6268298872
 51
270.323405017
  0
ARC
  5
1C6
330
6A5
100
AcDbEntity
  8
0
  6
Continuous
 62
     8
100
AcDbCircle
 10
540.689180521
 20
449.6532045705
 30
0.0
 40
1.062324166927969
100
AcDbArc
 50
359.9999140992
 51
89.8204822353
  0
LWPOLYLINE
  5
1C7
330
6A5
100
AcDbEntity
  8
0
  6
Continuous
 62
     8
100
AcDbPolyline
 90
        3
 70
   128
 43
0.0
 10
538.2819034144
 20
438.1575120907
 10
529.0612436815
 20
438.036081371
 10
519.8512680813
 20
437.9372616867
  0
LWPOLYLINE
  5
1C8
330
6A5
100
AcDbEntity
  8
0
  6
Continuous
 62
     8
100
AcDbPolyline
 90
        9
 70
   128
 43
0.0
 10
538.2524140164
 20
439.1251332898
 10
538.2573164984
 20
438.9653973238
 10
538.26208487
 20
438.8096432275
 10
538.2665999218
 20
438.6617535682
 10
538.2707573458
 20
438.5254149864
 10
538.2744528338
 20
438.4040260528
 10
538.2775820776
 20
438.3006127508
 10
538.2800854727
 20
438.2177529195
 10
538.2819034144
 20
438.1575120907
  0
ARC
  5
1C9
330
6A5
100
AcDbEntity
  8
0
  6
Continuous
 62
     8
100
AcDbCircle
 10
539.8542169701
 20
421.0753926903
 30
0.0
 40
17.15432811648389
100
AcDbArc
 50
86.04731344709998
 51
95.2589379277
  0
ARC
  5
1CA
330
6A5
100
AcDbEntity
  8
0
  6
Continuous
 62
     8
100
AcDbCircle
 10
540.7443295223
 20
439.1527183764
 30
0.0
 40
1.007175166376498
100
AcDbArc
 50
286.8758231183
 51
359.9976815027
  0
LWPOLYLINE
  5
1CB
330
6A5
100
AcDbEntity
  8
0
  6
Continuous
 62
     8
100
AcDbPolyline
 90
        7
 70
   128
 43
0.0
 10
537.4121077343
 20
450.7182970018
 10
537.4120481297
 20
450.6422079474
 10
537.4118842169
 20
450.5431385086
 10
537.4116308972
 20
450.4049125434
 10
537.4113030716
 20
450.2350579322
 10
537.4109156414
 20
450.0449824453
 10
537.4100960776
 20
449.6545999617
  0
LINE
  5
1CC
330
6A5
100
AcDbEntity
  8
0
  6
Continuous
 62
     8
100
AcDbLine
 10
537.4115116879
 20
450.7183007271
 30
0.0
 11
538.2542021557
 21
450.7165824369
 31
0.0
  0
LINE
  5
1CD
330
6A5
100
AcDbEntity
  8
0
  6
Continuous
 62
     8
100
AcDbLine
 10
519.8398388907
 20
450.7244958849
 30
0.0
 11
537.4120481297
 21
450.7179682449
 31
0.0
  0
LWPOLYLINE
  5
1CE
330
6A5
100
AcDbEntity
  8
0
  6
Continuous
 62
     8
100
AcDbPolyline
 90
        6
 70
   128
 43
0.0
 10
492.0591719433
 20
430.3259861962
 10
492.0582480713
 20
430.5017668129
 10
492.0556552693
 20
430.9985379995
 10
492.0463718458
 20
432.7716294982
 10
492.0340336844
 20
435.127388996
 10
492.0198924824
 20
437.8287305198
  0
LINE
  5
1CF
330
6A5
100
AcDbEntity
  8
0
  6
Continuous
 62
     8
100
AcDbLine
 10
541.06088057
 20
438.1624152064
 30
0.0
 11
541.0367108866
 21
438.1889160348
 31
0.0
  0
LINE
  5
1D0
330
6A5
100
AcDbEntity
  8
0
  6
Continuous
 62
     8
100
AcDbLine
 10
519.8397941872
 20
437.9349720592
 30
0.0
 11
519.8397941872
 21
433.1830514901
 31
0.0
  0
LINE
  5
1D1
330
6A5
100
AcDbEntity
  8
0
  6
Continuous
 62
     8
100
AcDbLine
 10
540.6925089642
 20
450.7155235232
 30
0.0
 11
540.6954891964
 21
450.7214430095
 31
0.0
  0
LWPOLYLINE
  5
1D2
330
6A5
100
AcDbEntity
  8
0
  6
Continuous
 62
     8
100
AcDbPolyline
 90
        6
 70
   128
 43
0.0
 10
530.6752480551
 20
450.8005979777
 10
530.964032559
 20
450.7961099342
 10
532.4698992058
 20
450.77356634
 10
533.8079936787
 20
450.7553785414
 10
535.4436792418
 20
450.7360582546
 10
537.4106623217
 20
450.7179784895
  0
LINE
  5
1D3
330
6A5
100
AcDbEntity
  8
0
  6
Continuous
 62
     8
100
AcDbLine
 10
413.5616652652
 20
451.2008822829
 30
0.0
 11
413.5616652652
 21
461.1595341311
 31
0.0
  0
LINE
  5
1D4
330
6A5
100
AcDbEntity
  8
0
  6
Continuous
 62
     8
100
AcDbLine
 10
399.8504698261
 20
426.2388696269
 30
0.0
 11
397.2988992914
 21
424.1595336542
 31
0.0
  0
LINE
  5
1D5
330
6A5
100
AcDbEntity
  8
0
  6
Continuous
 62
     8
100
AcDbLine
 10
383.4616698309
 20
424.1595336542
 30
0.0
 11
397.2988992914
 21
424.1595336542
 31
0.0
  0
LINE
  5
1D6
330
6A5
100
AcDbEntity
  8
0
  6
Continuous
 62
     8
100
AcDbLine
 10
383.4616698309
 20
424.1595336542
 30
0.0
 11
383.4616698309
 21
425.4780051605
 31
0.0
  0
LWPOLYLINE
  5
1D7
330
6A5
100
AcDbEntity
  8
0
  6
Continuous
 62
     8
100
AcDbPolyline
 90
        9
 70
   128
 43
0.0
 10
383.2616701707
 20
424.2812733472
 10
383.265510945
 20
424.2575227589
 10
383.2768917068
 20
424.2346857981
 10
383.295372872
 20
424.2136388392
 10
383.3202466353
 20
424.1951902703
 10
383.3505555972
 20
424.1800506905
 10
383.3851300164
 20
424.1688012452
 10
383.4226511403
 20
424.1618731365
 10
383.4616698309
 20
424.1595336542
  0
LINE
  5
1D8
330
6A5
100
AcDbEntity
  8
0
  6
Continuous
 62
     8
100
AcDbLine
 10
374.684947355
 20
460.7095339642
 30
0.0
 11
374.684947355
 21
451.3249912605
 31
0.0
  0
LINE
  5
1D9
330
6A5
100
AcDbEntity
  8
0
  6
Continuous
 62
     8
100
AcDbLine
 10
374.684947355
 20
425.107576263
 30
0.0
 11
374.684947355
 21
415.6095342086
 31
0.0
  0
LINE
  5
1DA
330
6A5
100
AcDbEntity
  8
0
  6
Continuous
 62
     8
100
AcDbLine
 10
375.2132438108
 20
460.4687759028
 30
0.0
 11
375.2132438108
 21
451.335481678
 31
0.0
  0
LINE
  5
1DB
330
6A5
100
AcDbEntity
  8
0
  6
Continuous
 62
     8
100
AcDbLine
 10
375.2132438108
 20
425.1230036215
 30
0.0
 11
375.2132438108
 21
415.85029227
 31
0.0
  0
ARC
  5
1DC
330
6A5
100
AcDbEntity
  8
0
  6
Continuous
 62
     8
100
AcDbCircle
 10
413.9197594446
 20
418.2468024644
 30
0.0
 40
17.60766422825237
100
AcDbArc
 50
268.8346722481
 51
273.7156885391
  0
LINE
  5
1DD
330
6A5
100
AcDbEntity
  8
0
  6
Continuous
 62
     8
100
AcDbLine
 10
413.5616652652
 20
426.8428686381
 30
0.0
 11
413.5616652652
 21
400.6427799658
 31
0.0
  0
LINE
  5
1DE
330
6A5
100
AcDbEntity
  8
0
  6
Continuous
 62
     8
100
AcDbLine
 10
375.2747483536
 20
460.3980233268
 30
0.0
 11
375.2747483536
 21
451.3432321445
 31
0.0
  0
LINE
  5
1DF
330
6A5
100
AcDbEntity
  8
0
  6
Continuous
 62
     8
100
AcDbLine
 10
375.2747483536
 20
425.1271340371
 30
0.0
 11
375.2747483536
 21
415.921044846
 31
0.0
  0
LINE
  5
1E0
330
6A5
100
AcDbEntity
  8
0
  6
Continuous
 62
     8
100
AcDbLine
 10
375.793146713
 20
460.1573341832
 30
0.0
 11
375.793146713
 21
451.3652756185
 31
0.0
  0
LINE
  5
1E1
330
6A5
100
AcDbEntity
  8
0
  6
Continuous
 62
     8
100
AcDbLine
 10
375.793146713
 20
425.1557926954
 30
0.0
 11
375.793146713
 21
416.1617339895
 31
0.0
  0
LWPOLYLINE
  5
1E2
330
6A5
100
AcDbEntity
  8
0
  6
Continuous
 62
     8
100
AcDbPolyline
 90
       11
 70
   128
 43
0.0
 10
410.1283185168
 20
399.9074672655
 10
409.9987342938
 20
404.4857782618
 10
409.6178531631
 20
408.8929456965
 10
408.9007347807
 20
412.9935701684
 10
407.7624499782
 20
416.6522504137
 10
406.1180584117
 20
419.7335870311
 10
403.8826271876
 20
422.1021806196
 10
402.5167271479
 20
422.9768843696
 10
400.9712196871
 20
423.6226289839
 10
399.2354802772
 20
424.0224867434
 10
397.2988992914
 20
424.1595336542
  0
LWPOLYLINE
  5
1E3
330
6A5
100
AcDbEntity
  8
0
  6
Continuous
 62
     8
100
AcDbPolyline
 90
       25
 70
   128
 43
0.0
 10
411.4379294201
 20
426.7486327634
 10
411.4390470072
 20
426.5903032691
 10
411.4616073652
 20
423.3679401995
 10
411.4616148158
 20
423.3664575339
 10
411.4616222664
 20
423.3652887241
 10
411.4616371676
 20
423.3631932483
 10
411.4616669699
 20
423.3594223232
 10
411.4617116734
 20
423.3525975914
 10
411.4618010803
 20
423.3401188002
 10
411.4619649931
 20
423.3169065163
 10
411.4622853681
 20
423.2724852235
 10
411.462926118
 20
423.183628668
 10
411.4643044754
 20
422.9942237333
 10
411.4675007745
 20
422.5557989747
 10
411.4782892152
 20
421.0584772126
 10
411.4939652368
 20
418.8332402454
 10
411.5145288392
 20
415.9087308989
 10
411.5228436872
 20
414.7353389607
 10
411.5312181398
 20
413.5473606483
 10
411.539652197
 20
412.3495214925
 10
411.5481533095
 20
411.1444198833
 10
411.5567214771
 20
409.9337675915
 10
411.5653492495
 20
408.7185462312
 10
411.5740366265
 20
407.4989346162
 10
411.6229794904
 20
400.6427799658
  0
LWPOLYLINE
  5
1E4
330
6A5
100
AcDbEntity
  8
0
  6
Continuous
 62
     8
100
AcDbPolyline
 90
        6
 70
   128
 43
0.0
 10
410.1285345837
 20
399.9075492219
 10
410.2362215503
 20
400.1739521817
 10
410.5268537983
 20
400.3993694977
 10
410.9830938264
 20
400.5687137441
 10
411.2770043298
 20
400.6217618779
 10
411.6231508537
 20
400.642847021
  0
LWPOLYLINE
  5
1E5
330
6A5
100
AcDbEntity
  8
0
  6
Continuous
 62
     8
100
AcDbPolyline
 90
        9
 70
   128
 43
0.0
 10
415.0611840173
 20
354.8529905573
 10
415.0615490957
 20
354.301632692
 10
415.0611989185
 20
354.0288594858
 10
415.0605805203
 20
353.8966116802
 10
415.0601781889
 20
353.8334978119
 10
415.0599025174
 20
353.7763146058
 10
415.0601334854
 20
353.7371320025
 10
415.0616012498
 20
353.6260736481
 10
415.0610871597
 20
353.6095333592
  0
LINE
  5
1E6
330
6A5
100
AcDbEntity
  8
0
  6
Continuous
 62
     8
100
AcDbLine
 10
415.06083384
 20
395.357423772
 30
0.0
 11
415.06083384
 21
354.8529905573
 31
0.0
  0
LWPOLYLINE
  5
1E7
330
6A5
100
AcDbEntity
  8
0
  6
Continuous
 62
     8
100
AcDbPolyline
 90
        3
 70
   128
 43
0.0
 10
415.0609455987
 20
400.6761511163
 10
415.0607146307
 20
398.0169271425
 10
415.0605954214
 20
395.357423772
  0
LINE
  5
1E8
330
6A5
100
AcDbEntity
  8
0
  6
Continuous
 62
     8
100
AcDbLine
 10
413.5616652652
 20
400.6427799658
 30
0.0
 11
411.6229794904
 21
400.6427799658
 31
0.0
  0
LINE
  5
1E9
330
6A5
100
AcDbEntity
  8
0
  6
Continuous
 62
     8
100
AcDbLine
 10
383.4616698309
 20
424.1595336542
 30
0.0
 11
383.4616698309
 21
415.1595340417
 31
0.0
  0
LWPOLYLINE
  5
1EA
330
6A5
100
AcDbEntity
  8
0
  6
Continuous
 62
     8
100
AcDbPolyline
 90
        9
 70
   128
 43
0.0
 10
397.2988992914
 20
424.1595336542
 10
395.5813914522
 20
422.4532966808
 10
394.1402144715
 20
420.7848825798
 10
392.989006637
 20
419.2232483373
 10
392.1339556559
 20
417.8297122315
 10
391.7378790661
 20
417.0468108103
 10
391.4624348267
 20
416.3865105555
 10
391.2869848295
 20
415.8458219216
 10
391.189706324
 20
415.4164803521
  0
LINE
  5
1EB
330
6A5
100
AcDbEntity
  8
0
  6
Continuous
 62
     8
100
AcDbLine
 10
391.189706324
 20
415.4164896653
 30
0.0
 11
391.1540217682
 21
415.4164896653
 31
0.0
  0
ARC
  5
1EC
330
6A5
100
AcDbEntity
  8
0
  6
Continuous
 62
     8
100
AcDbCircle
 10
391.1701610683
 20
392.2021539392
 30
0.0
 40
23.2143395100398
100
AcDbArc
 50
90.0399624577
 51
98.53283094319998
  0
LINE
  5
1ED
330
6A5
100
AcDbEntity
  8
0
  6
Continuous
 62
     8
100
AcDbLine
 10
391.1880038663
 20
415.4159494982
 30
0.0
 11
392.2004669889
 21
415.3966618077
 31
0.0
  0
ARC
  5
1EE
330
6A5
100
AcDbEntity
  8
0
  6
Continuous
 62
     8
100
AcDbCircle
 10
393.1085957717
 20
398.2253632544
 30
0.0
 40
16.93833662837997
100
AcDbArc
 50
359.9232379527
 51
74.0137208413
  0
LINE
  5
1EF
330
6A5
100
AcDbEntity
  8
0
  6
Continuous
 62
     8
100
AcDbLine
 10
397.7736875399
 20
414.5087798432
 30
0.0
 11
396.2238773688
 21
414.9067600564
 31
0.0
  0
LINE
  5
1F0
330
6A5
100
AcDbEntity
  8
0
  6
Continuous
 62
     8
100
AcDbLine
 10
411.6229794904
 20
400.6427799658
 30
0.0
 11
411.6601206347
 21
395.3498316304
 31
0.0
  0
ARC
  5
1F1
330
6A5
100
AcDbEntity
  8
0
  6
Continuous
 62
     8
100
AcDbCircle
 10
410.7850519921
 20
466.9915184631
 30
0.0
 40
71.64703090409293
100
AcDbArc
 50
269.5002664799
 51
270.6998055046
  0
ARC
  5
1F2
330
6A5
100
AcDbEntity
  8
0
  6
Continuous
 62
     8
100
AcDbCircle
 10
413.9198414182
 20
472.6423301166
 30
0.0
 40
77.2933283821844
100
AcDbArc
 50
269.7344912457
 51
270.8458223513999
  0
LINE
  5
1F3
330
6A5
100
AcDbEntity
  8
0
  6
Continuous
 62
     8
100
AcDbLine
 10
413.5616652652
 20
400.6427799658
 30
0.0
 11
413.5616652652
 21
395.3498316304
 31
0.0
  0
LINE
  5
1F4
330
6A5
100
AcDbEntity
  8
0
  6
Continuous
 62
     8
100
AcDbLine
 10
413.5616652652
 20
395.3498316304
 30
0.0
 11
411.6601206347
 21
395.3498316304
 31
0.0
  0
ARC
  5
1F5
330
6A5
100
AcDbEntity
  8
0
  6
Continuous
 62
     8
100
AcDbCircle
 10
413.9201062887
 20
432.0855947179
 30
0.0
 40
77.24102798883355
100
AcDbArc
 50
269.7341149891
 51
270.8461986079
  0
LINE
  5
1F6
330
6A5
100
AcDbEntity
  8
0
  6
Continuous
 62
     8
100
AcDbLine
 10
413.5616652652
 20
395.3498316304
 30
0.0
 11
413.5616652652
 21
354.8453984157
 31
0.0
  0
LINE
  5
1F7
330
6A5
100
AcDbEntity
  8
0
  6
Continuous
 62
     8
100
AcDbLine
 10
411.9428999706
 20
354.8453984157
 30
0.0
 11
413.5616652652
 21
354.8453984157
 31
0.0
  0
LINE
  5
1F8
330
6A5
100
AcDbEntity
  8
0
  6
Continuous
 62
     8
100
AcDbLine
 10
411.6601206347
 20
395.3498316304
 30
0.0
 11
411.9428999706
 21
354.8453984157
 31
0.0
  0
ARC
  5
1F9
330
6A5
100
AcDbEntity
  8
0
  6
Continuous
 62
     8
100
AcDbCircle
 10
411.0676534674
 20
426.4870429136
 30
0.0
 40
71.64699074495314
100
AcDbArc
 50
269.5004084395
 51
270.6999481418
  0
LWPOLYLINE
  5
1FA
330
6A5
100
AcDbEntity
  8
0
  6
Continuous
 62
     8
100
AcDbPolyline
 90
        8
 70
   128
 43
0.0
 10
411.9428999706
 20
354.8453984157
 10
411.9484730049
 20
353.7092668311
 10
411.9498811647
 20
353.1356466309
 10
411.9501642867
 20
352.7529624597
 10
411.9503580018
 20
352.466234316
 10
411.9506709262
 20
352.3111430303
 10
411.9510807081
 20
352.1905702845
 10
411.9512297197
 20
352.1595311657
  0
LINE
  5
1FB
330
6A5
100
AcDbEntity
  8
0
  6
Continuous
 62
     8
100
AcDbLine
 10
413.5616652652
 20
354.8453984157
 30
0.0
 11
413.5616652652
 21
352.1595311657
 31
0.0
  0
LINE
  5
1FC
330
6A5
100
AcDbEntity
  8
0
  6
Continuous
 62
     8
100
AcDbLine
 10
390.4802508637
 20
414.4089867667
 30
0.0
 11
397.4710784837
 21
414.4089867667
 31
0.0
  0
ARC
  5
1FD
330
6A5
100
AcDbEntity
  8
0
  6
Continuous
 62
     8
100
AcDbCircle
 10
393.2541640717
 20
403.7834572145
 30
0.0
 40
11.63866830905134
100
AcDbArc
 50
57.4763361217
 51
67.1516690383
  0
LWPOLYLINE
  5
1FE
330
6A5
100
AcDbEntity
  8
0
  6
Continuous
 62
     7
100
AcDbPolyline
 90
        3
 70
   128
 43
0.0
 10
277.4240269662
 20
292.8938301824
 10
277.4299203754
 20
293.0313401934
 10
277.4285271169
 20
293.1675993218
  0
LWPOLYLINE
  5
1FF
330
6A5
100
AcDbEntity
  8
0
  6
Continuous
 62
     7
100
AcDbPolyline
 90
        3
 70
   128
 43
0.0
 10
77.4216994048
 20
293.1675976919
 10
77.4202688933
 20
293.0313286683
 10
77.4261623026
 20
292.8938077143
  0
LINE
  5
200
330
6A5
100
AcDbEntity
  8
0
  6
Continuous
 62
     7
100
AcDbLine
 10
209.425092429
 20
256.2759989718
 30
0.0
 11
209.425092429
 21
226.4745892803
 31
0.0
  0
LINE
  5
201
330
6A5
100
AcDbEntity
  8
0
  6
Continuous
 62
     7
100
AcDbLine
 10
255.4250925184
 20
226.4745892803
 30
0.0
 11
255.4250925184
 21
256.2759989718
 31
0.0
  0
ARC
  5
202
330
6A5
100
AcDbEntity
  8
0
  6
Continuous
 62
     7
100
AcDbCircle
 10
253.9250909091
 20
226.4745862166
 30
0.0
 40
1.5
100
AcDbArc
 50
270.0
 51
0.0
  0
ARC
  5
203
330
6A5
100
AcDbEntity
  8
0
  6
Continuous
 62
     7
100
AcDbCircle
 10
210.9250909091
 20
226.4745862166
 30
0.0
 40
1.5
100
AcDbArc
 50
180.0
 51
270.0
  0
LINE
  5
204
330
6A5
100
AcDbEntity
  8
0
  6
Continuous
 62
     7
100
AcDbLine
 10
254.9750923515
 20
265.3513071904
 30
0.0
 11
254.9750923515
 21
291.8745862166
 31
0.0
  0
LINE
  5
205
330
6A5
100
AcDbEntity
  8
0
  6
Continuous
 62
     7
100
AcDbLine
 10
209.8750925959
 20
291.8745862166
 30
0.0
 11
209.8750925959
 21
265.3513071904
 31
0.0
  0
ARC
  5
206
330
6A5
100
AcDbEntity
  8
0
  6
Continuous
 62
     7
100
AcDbCircle
 10
254.2750909091
 20
265.3513067949
 30
0.0
 40
0.7000000000000455
100
AcDbArc
 50
311.0
 51
0.0
  0
ARC
  5
207
330
6A5
100
AcDbEntity
  8
0
  6
Continuous
 62
     7
100
AcDbCircle
 10
210.5750909091
 20
265.3513067949
 30
0.0
 40
0.7000000000000061
100
AcDbArc
 50
180.0
 51
229.0
  0
LINE
  5
208
330
6A5
100
AcDbEntity
  8
0
  6
Continuous
 62
     7
100
AcDbLine
 10
210.1158506573
 20
264.8230107347
 30
0.0
 11
210.1866013707
 21
264.7615061919
 31
0.0
  0
LINE
  5
209
330
6A5
100
AcDbEntity
  8
0
  6
Continuous
 62
     7
100
AcDbLine
 10
254.6635835768
 20
264.7615061919
 30
0.0
 11
254.7343342901
 21
264.8230107347
 31
0.0
  0
LWPOLYLINE
  5
20A
330
6A5
100
AcDbEntity
  8
0
  6
Continuous
 62
     7
100
AcDbPolyline
 90
        3
 70
   128
 43
0.0
 10
211.0040157438
 20
224.9741094033
 10
221.6128154994
 20
224.6945561687
 10
232.5583963991
 20
224.5915742437
  0
LWPOLYLINE
  5
20B
330
6A5
100
AcDbEntity
  8
0
  6
Continuous
 62
     7
100
AcDbPolyline
 90
        3
 70
   128
 43
0.0
 10
232.2917885483
 20
224.5915742437
 10
243.2373657227
 20
224.6945561687
 10
253.8461654783
 20
224.9741094033
  0
ARC
  5
20C
330
6A5
100
AcDbEntity
  8
0
  6
Continuous
 62
     7
100
AcDbCircle
 10
255.1228214359
 20
264.2332095084
 30
0.0
 40
0.7000000000000247
100
AcDbArc
 50
131.0
 51
179.1898025957
  0
ARC
  5
20D
330
6A5
100
AcDbEntity
  8
0
  6
Continuous
 62
     7
100
AcDbCircle
 10
209.7273603823
 20
264.2332095084
 30
0.0
 40
0.7000000000000061
100
AcDbArc
 50
0.8101974042999999
 51
48.99999999999999
  0
ARC
  5
20E
330
6A5
100
AcDbEntity
  8
0
  6
Continuous
 62
     7
100
AcDbCircle
 10
232.4250909091
 20
264.5541907102
 30
0.0
 40
22.00000000000001
100
AcDbArc
 50
338.4578340781
 51
359.1898025956999
  0
ARC
  5
20F
330
6A5
100
AcDbEntity
  8
0
  6
Continuous
 62
     7
100
AcDbCircle
 10
232.4250909091
 20
264.5541907102
 30
0.0
 40
22.00000000000002
100
AcDbArc
 50
180.8101974043
 51
201.5426983435
  0
LINE
  5
210
330
6A5
100
AcDbEntity
  8
0
  6
Continuous
 62
     7
100
AcDbLine
 10
77.4183168412
 20
293.1677794163
 30
0.0
 11
77.4331434966
 21
293.1674479818
 31
0.0
  0
LINE
  5
211
330
6A5
100
AcDbEntity
  8
0
  6
Continuous
 62
     7
100
AcDbLine
 10
77.4183168412
 20
293.1677794163
 30
0.0
 11
77.3779644967
 21
300.8745858292
 31
0.0
  0
LINE
  5
212
330
6A5
100
AcDbEntity
  8
0
  6
Continuous
 62
     7
100
AcDbLine
 10
77.3779644967
 20
300.8745858292
 30
0.0
 11
80.1779299379
 21
300.8745858292
 31
0.0
  0
LINE
  5
213
330
6A5
100
AcDbEntity
  8
0
  6
Continuous
 62
     7
100
AcDbLine
 10
277.4722173215
 20
300.8745858292
 30
0.0
 11
277.431864977
 21
293.1677794163
 31
0.0
  0
LINE
  5
214
330
6A5
100
AcDbEntity
  8
0
  6
Continuous
 62
     7
100
AcDbLine
 10
277.4171947838
 20
293.1674501937
 30
0.0
 11
277.431864977
 21
293.1677794163
 31
0.0
  0
LINE
  5
215
330
6A5
100
AcDbEntity
  8
0
  6
Continuous
 62
     7
100
AcDbLine
 10
274.6722518803
 20
300.8745858292
 30
0.0
 11
277.4722173215
 21
300.8745858292
 31
0.0
  0
LINE
  5
216
330
6A5
100
AcDbEntity
  8
0
  6
Continuous
 62
     7
100
AcDbLine
 10
274.6722518803
 20
300.8745858292
 30
0.0
 11
80.1779299379
 21
300.8745858292
 31
0.0
  0
LINE
  5
217
330
6A5
100
AcDbEntity
  8
0
  6
Continuous
 62
     7
100
AcDbLine
 10
274.6318995357
 20
291.8745862166
 30
0.0
 11
80.2182822824
 21
291.8745862166
 31
0.0
  0
ARC
  5
218
330
6A5
100
AcDbEntity
  8
0
  6
Continuous
 62
     7
100
AcDbCircle
 10
276.3757407
 20
292.8777279292
 30
0.0
 40
1.032357122065877
100
AcDbArc
 50
256.3366184586
 51
0.9981741743
  0
LINE
  5
219
330
6A5
100
AcDbEntity
  8
0
  6
Continuous
 62
     7
100
AcDbLine
 10
276.1318802238
 20
291.8745862166
 30
0.0
 11
274.6318995357
 21
291.8745862166
 31
0.0
  0
LINE
  5
21A
330
6A5
100
AcDbEntity
  8
0
  6
Continuous
 62
     7
100
AcDbLine
 10
80.2182822824
 20
291.8745862166
 30
0.0
 11
78.7183015943
 21
291.8745862166
 31
0.0
  0
ARC
  5
21B
330
6A5
100
AcDbEntity
  8
0
  6
Continuous
 62
     7
100
AcDbCircle
 10
78.4744399368
 20
292.8777259878
 30
0.0
 40
1.032355514630283
100
AcDbArc
 50
179.0031833871
 51
283.6634707041
  0
LWPOLYLINE
  5
21C
330
6A5
100
AcDbEntity
  8
0
  6
Continuous
 62
     7
100
AcDbPolyline
 90
        5
 70
   128
 43
0.0
 10
209.652845502
 20
256.5543414871
 10
209.5012708903
 20
256.5262080947
 10
209.4253979028
 20
256.2601590375
 10
209.5508805812
 20
255.5842498163
 10
209.7023620606
 20
255.1328265885
  0
LWPOLYLINE
  5
21D
330
6A5
100
AcDbEntity
  8
0
  6
Continuous
 62
     7
100
AcDbPolyline
 90
        5
 70
   128
 43
0.0
 10
255.1973357201
 20
256.5543414871
 10
255.3489103318
 20
256.5262080947
 10
255.4247870446
 20
256.2601590375
 10
255.2993043662
 20
255.5842498163
 10
255.1478191615
 20
255.1328265885
  0
LINE
  5
21E
330
6A5
100
AcDbEntity
  8
0
  6
Continuous
 62
     7
100
AcDbLine
 10
232.4250906111
 20
224.9754207054
 30
0.0
 11
253.8293346167
 21
224.9754207054
 31
0.0
  0
LINE
  5
21F
330
6A5
100
AcDbEntity
  8
0
  6
Continuous
 62
     7
100
AcDbLine
 10
232.4250906111
 20
224.9754207054
 30
0.0
 11
211.0208466054
 21
224.9754207054
 31
0.0
  0
LWPOLYLINE
  5
220
330
6A5
100
AcDbEntity
  8
0
  6
Continuous
 62
     7
100
AcDbPolyline
 90
       21
 70
   128
 43
0.0
 10
252.0644634367
 20
255.318264089
 10
251.0747953654
 20
254.4297152976
 10
249.7999414206
 20
253.5937229017
 10
248.2593923212
 20
252.8230609218
 10
246.4767068029
 20
252.1295199016
 10
244.4791539908
 20
251.5237057427
 10
242.2972738148
 20
251.0148795167
 10
239.9644225241
 20
250.6108233551
 10
237.5162921251
 20
250.3177137891
 10
234.9903031588
 20
250.1400397936
 10
232.4250906111
 20
250.0805096547
 10
229.8598780633
 20
250.1400397936
 10
227.3338890971
 20
250.3177137891
 10
224.8857549728
 20
250.6108233551
 10
222.5529111327
 20
251.0148795167
 10
220.3710272313
 20
251.5237057427
 10
218.3734744192
 20
252.1295199016
 10
216.5907926262
 20
252.8230609218
 10
215.0502435268
 20
253.5937229017
 10
213.7753858567
 20
254.4297152976
 10
212.7857177854
 20
255.318264089
  0
LINE
  5
221
330
6A5
100
AcDbEntity
  8
0
  6
Continuous
 62
     7
100
AcDbLine
 10
252.1841346622
 20
255.4514320413
 30
0.0
 11
252.0644634367
 21
255.318264089
 31
0.0
  0
LWPOLYLINE
  5
222
330
6A5
100
AcDbEntity
  8
0
  6
Continuous
 62
     7
100
AcDbPolyline
 90
        3
 70
   128
 43
0.0
 10
212.7857177854
 20
255.318264089
 10
212.236449808
 20
256.0008862833
 10
211.9691937567
 20
256.4767995695
  0
ARC
  5
223
330
6A5
100
AcDbEntity
  8
0
  6
Continuous
 62
     7
100
AcDbCircle
 10
250.4448682411
 20
257.3868612715
 30
0.0
 40
2.602101840575555
100
AcDbArc
 50
311.9443338069
 51
339.6034559903
  0
LINE
  5
224
330
6A5
100
AcDbEntity
  8
0
  6
Continuous
 62
     7
100
AcDbLine
 10
144.122627318
 20
291.8745862166
 30
0.0
 11
144.0849832595
 21
148.0783210913
 31
0.0
  0
LINE
  5
225
330
6A5
100
AcDbEntity
  8
0
  6
Continuous
 62
     7
100
AcDbLine
 10
100.76520288
 20
148.0783210913
 30
0.0
 11
100.7275550962
 21
291.8745862166
 31
0.0
  0
LINE
  5
226
330
6A5
100
AcDbEntity
  8
0
  6
Continuous
 62
     7
100
AcDbLine
 10
100.7724969984
 20
120.1964752594
 30
0.0
 11
100.76520288
 21
148.0783210913
 31
0.0
  0
LINE
  5
227
330
6A5
100
AcDbEntity
  8
0
  6
Continuous
 62
     7
100
AcDbLine
 10
144.0849832595
 20
148.0783210913
 30
0.0
 11
144.0776816905
 21
120.1964752594
 31
0.0
  0
LINE
  5
228
330
6A5
100
AcDbEntity
  8
0
  6
Continuous
 62
     7
100
AcDbLine
 10
122.4250912071
 20
98.2847498576
 30
0.0
 11
104.2773171664
 21
98.2847498576
 31
0.0
  0
LINE
  5
229
330
6A5
100
AcDbEntity
  8
0
  6
Continuous
 62
     7
100
AcDbLine
 10
100.7771014572
 20
102.6247279564
 30
0.0
 11
100.7724969984
 21
120.1964752594
 31
0.0
  0
LINE
  5
22A
330
6A5
100
AcDbEntity
  8
0
  6
Continuous
 62
     7
100
AcDbLine
 10
100.777317524
 20
101.7838405291
 30
0.0
 11
100.7771014572
 21
102.6267396132
 31
0.0
  0
LINE
  5
22B
330
6A5
100
AcDbEntity
  8
0
  6
Continuous
 62
     7
100
AcDbLine
 10
144.0776816905
 20
120.1964752594
 30
0.0
 11
144.073080957
 21
102.6247279564
 31
0.0
  0
ARC
  5
22C
330
6A5
100
AcDbEntity
  8
0
  6
Continuous
 62
     7
100
AcDbCircle
 10
103.7193170659
 20
101.2266045639
 30
0.0
 40
2.994306802133492
100
AcDbArc
 50
169.2748166888
 51
280.7400653
  0
LINE
  5
22D
330
6A5
100
AcDbEntity
  8
0
  6
Continuous
 62
     7
100
AcDbLine
 10
140.5728615225
 20
98.2847498576
 30
0.0
 11
122.4250912071
 21
98.2847498576
 31
0.0
  0
LINE
  5
22E
330
6A5
100
AcDbEntity
  8
0
  6
Continuous
 62
     7
100
AcDbLine
 10
144.073080957
 20
102.6267396132
 30
0.0
 11
144.0728611649
 21
101.7838405291
 31
0.0
  0
ARC
  5
22F
330
6A5
100
AcDbEntity
  8
0
  6
Continuous
 62
     7
100
AcDbCircle
 10
141.130865154
 20
101.226601032
 30
0.0
 40
2.994303990102854
100
AcDbArc
 50
259.2598557237999
 51
10.7252622874
  0
LINE
  5
230
330
6A5
100
AcDbEntity
  8
0
  6
Continuous
 62
     7
100
AcDbLine
 10
253.0036687256
 20
256.7745843748
 30
0.0
 11
254.8912137152
 21
256.7745843748
 31
0.0
  0
LINE
  5
231
330
6A5
100
AcDbEntity
  8
0
  6
Continuous
 62
     7
100
AcDbLine
 10
210.5682312847
 20
256.7745843748
 30
0.0
 11
209.9589712323
 21
256.7745843748
 31
0.0
  0
LINE
  5
232
330
6A5
100
AcDbEntity
  8
0
  6
Continuous
 62
     7
100
AcDbLine
 10
210.5682312847
 20
256.7745843748
 30
0.0
 11
211.8465162218
 21
256.7745843748
 31
0.0
  0
LINE
  5
233
330
6A5
100
AcDbEntity
  8
0
  6
Continuous
 62
     8
100
AcDbLine
 10
80.1779299379
 20
300.8745858292
 30
0.0
 11
80.2182822824
 21
293.1677794163
 31
0.0
  0
LWPOLYLINE
  5
234
330
6A5
100
AcDbEntity
  8
0
  6
Continuous
 62
     8
100
AcDbPolyline
 90
        8
 70
   128
 43
0.0
 10
77.4331434966
 20
293.1674479818
 10
77.4512782098
 20
293.1670425073
 10
77.6885344983
 20
293.1655180486
 10
78.0407159925
 20
293.1649603028
 10
78.5395696164
 20
293.1655342304
 10
78.8796811701
 20
293.1661414527
 10
79.4175758363
 20
293.1670466982
 10
80.2182822824
 20
293.1677794163
  0
ARC
  5
235
330
6A5
100
AcDbEntity
  8
0
  6
Continuous
 62
     8
100
AcDbCircle
 10
276.051102542
 20
517.8320083561
 30
0.0
 40
224.668711444907
100
AcDbArc
 50
269.6380676116
 51
270.3483876401
  0
LINE
  5
236
330
6A5
100
AcDbEntity
  8
0
  6
Continuous
 62
     8
100
AcDbLine
 10
274.6318995357
 20
293.1677794163
 30
0.0
 11
274.6722518803
 21
300.8745858292
 31
0.0
  0
LINE
  5
237
330
6A5
100
AcDbEntity
  8
0
  6
Continuous
 62
     8
100
AcDbLine
 10
80.2182822824
 20
293.1677794163
 30
0.0
 11
274.6318995357
 21
293.1677794163
 31
0.0
  0
LINE
  5
238
330
6A5
100
AcDbEntity
  8
0
  6
Continuous
 62
     8
100
AcDbLine
 10
274.6318995357
 20
291.8745862166
 30
0.0
 11
274.6318995357
 21
293.1677794163
 31
0.0
  0
LINE
  5
239
330
6A5
100
AcDbEntity
  8
0
  6
Continuous
 62
     8
100
AcDbLine
 10
80.2182822824
 20
291.8745862166
 30
0.0
 11
80.2182822824
 21
293.1677794163
 31
0.0
  0
LINE
  5
23A
330
6A5
100
AcDbEntity
  8
0
  6
Continuous
 62
     8
100
AcDbLine
 10
209.425092429
 20
226.4745892803
 30
0.0
 11
255.4250925184
 21
226.4745892803
 31
0.0
  0
LWPOLYLINE
  5
23B
330
6A5
100
AcDbEntity
  8
0
  6
Continuous
 62
     8
100
AcDbPolyline
 90
       26
 70
   128
 43
0.0
 10
255.1478191615
 20
255.1328265885
 10
254.6000152231
 20
254.1136877457
 10
253.7682100535
 20
253.1258674184
 10
252.6630654336
 20
252.1820129672
 10
251.2987225653
 20
251.2942129592
 10
249.6926679612
 20
250.4738407055
 10
247.8654652239
 20
249.7313977996
 10
245.8405166269
 20
249.0763986329
 10
243.6437501908
 20
248.5172251085
 10
241.3033067585
 20
248.061044685
 10
238.849163741
 20
247.7136948923
 10
236.3127402366
 20
247.4796274523
 10
233.7265319527
 20
247.3618412236
 10
231.1236529947
 20
247.3618412236
 10
228.5374409855
 20
247.4796274523
 10
226.0010174812
 20
247.7136948923
 10
223.5468707384
 20
248.061044685
 10
221.206427306
 20
248.5172251085
 10
219.0096645952
 20
249.0763986329
 10
216.9847159983
 20
249.7313977996
 10
215.1575095356
 20
250.4738407055
 10
213.5514549316
 20
251.2942129592
 10
212.1871195138
 20
252.1820129672
 10
211.0819711686
 20
253.1258674184
 10
210.2501697243
 20
254.1136877457
 10
209.7023620606
 20
255.1328265885
  0
ARC
  5
23C
330
6A5
100
AcDbEntity
  8
0
  6
Continuous
 62
     8
100
AcDbCircle
 10
254.9429014693
 20
255.1124680039
 30
0.0
 40
0.2059265221701224
100
AcDbArc
 50
5.673720535299999
 51
87.9605879276
  0
ARC
  5
23D
330
6A5
100
AcDbEntity
  8
0
  6
Continuous
 62
     8
100
AcDbCircle
 10
209.9072816399
 20
255.1124659932
 30
0.0
 40
0.205928598834449
100
AcDbArc
 50
92.0399168832
 51
174.3257746539
  0
LWPOLYLINE
  5
23E
330
6A5
100
AcDbEntity
  8
0
  6
Continuous
 62
     8
100
AcDbPolyline
 90
       26
 70
   128
 43
0.0
 10
209.8999514581
 20
255.318264089
 10
210.4429944754
 20
254.2991252462
 10
211.2675651313
 20
253.3113049189
 10
212.3631022275
 20
252.3674504677
 10
213.715576321
 20
251.4796504597
 10
215.3076648117
 20
250.659278206
 10
217.1189791859
 20
249.9168353001
 10
219.1263220609
 20
249.2618324081
 10
221.3039814831
 20
248.702662609
 10
223.6240736545
 20
248.2464821855
 10
226.0568819345
 20
247.8991323928
 10
228.5712442697
 20
247.6650649527
 10
231.1349667014
 20
247.5472787241
 10
233.7152145208
 20
247.5472787241
 10
236.2789369524
 20
247.6650649527
 10
238.7933030129
 20
247.8991323928
 10
241.2261112929
 20
248.2464821855
 10
243.5461997391
 20
248.702662609
 10
245.7238628865
 20
249.2618324081
 10
247.7312057615
 20
249.9168353001
 10
249.5425164104
 20
250.659278206
 10
251.1346086265
 20
251.4796504597
 10
252.4870827199
 20
252.3674504677
 10
253.5826160909
 20
253.3113049189
 10
254.4071867467
 20
254.2991252462
 10
254.9502297641
 20
255.318264089
  0
LINE
  5
23F
330
6A5
100
AcDbEntity
  8
0
  6
Continuous
 62
     8
100
AcDbLine
 10
254.9502297641
 20
255.318264089
 30
0.0
 11
254.3305128218
 21
255.318264089
 31
0.0
  0
LINE
  5
240
330
6A5
100
AcDbEntity
  8
0
  6
Continuous
 62
     8
100
AcDbLine
 10
209.8999514581
 20
255.318264089
 30
0.0
 11
212.7857177854
 21
255.318264089
 31
0.0
  0
LINE
  5
241
330
6A5
100
AcDbEntity
  8
0
  6
Continuous
 62
     8
100
AcDbLine
 10
252.0644634367
 20
255.318264089
 30
0.0
 11
254.3304681183
 21
255.318264089
 31
0.0
  0
LINE
  5
242
330
6A5
100
AcDbEntity
  8
0
  6
Continuous
 62
     8
100
AcDbLine
 10
246.9544380308
 20
265.3513071904
 30
0.0
 11
209.8750925959
 21
265.3513071904
 31
0.0
  0
LINE
  5
243
330
6A5
100
AcDbEntity
  8
0
  6
Continuous
 62
     8
100
AcDbLine
 10
254.9750923515
 20
265.3513071904
 30
0.0
 11
246.9544380308
 21
265.3513071904
 31
0.0
  0
LINE
  5
244
330
6A5
100
AcDbEntity
  8
0
  6
Continuous
 62
     8
100
AcDbLine
 10
246.7993169428
 20
264.8230107347
 30
0.0
 11
210.1158506573
 21
264.8230107347
 31
0.0
  0
LINE
  5
245
330
6A5
100
AcDbEntity
  8
0
  6
Continuous
 62
     8
100
AcDbLine
 10
254.7343342901
 20
264.8230107347
 30
0.0
 11
246.7993169428
 21
264.8230107347
 31
0.0
  0
LINE
  5
246
330
6A5
100
AcDbEntity
  8
0
  6
Continuous
 62
     8
100
AcDbLine
 10
246.7537268401
 20
264.7615061919
 30
0.0
 11
210.1866013707
 21
264.7615061919
 31
0.0
  0
LINE
  5
247
330
6A5
100
AcDbEntity
  8
0
  6
Continuous
 62
     8
100
AcDbLine
 10
254.6635835768
 20
264.7615061919
 30
0.0
 11
246.7537268401
 21
264.7615061919
 31
0.0
  0
LINE
  5
248
330
6A5
100
AcDbEntity
  8
0
  6
Continuous
 62
     8
100
AcDbLine
 10
232.4250906111
 20
224.9754132549
 30
0.0
 11
232.4250906111
 21
224.5911346594
 31
0.0
  0
LINE
  5
249
330
6A5
100
AcDbEntity
  8
0
  6
Continuous
 62
     8
100
AcDbLine
 10
246.5986504556
 20
264.2431078324
 30
0.0
 11
210.4272886516
 21
264.2431078324
 31
0.0
  0
LINE
  5
24A
330
6A5
100
AcDbEntity
  8
0
  6
Continuous
 62
     8
100
AcDbLine
 10
254.4228925706
 20
264.2431078324
 30
0.0
 11
246.5986504556
 21
264.2431078324
 31
0.0
  0
LINE
  5
24B
330
6A5
100
AcDbEntity
  8
0
  6
Continuous
 62
     8
100
AcDbLine
 10
122.4250912071
 20
109.5787869612
 30
0.0
 11
122.4250912071
 21
291.8745862166
 31
0.0
  0
ARC
  5
24C
330
6A5
100
AcDbEntity
  8
0
  6
Continuous
 62
     8
100
AcDbCircle
 10
122.4248495623
 20
75.6223506432
 30
0.0
 40
33.95643631890447
100
AcDbArc
 50
89.9995922649
 51
127.3228347451
  0
LINE
  5
24D
330
6A5
100
AcDbEntity
  8
0
  6
Continuous
 62
     8
100
AcDbLine
 10
101.8272235394
 20
120.1964156548
 30
0.0
 11
101.8350391985
 21
102.6242064158
 31
0.0
  0
LWPOLYLINE
  5
24E
330
6A5
100
AcDbEntity
  8
0
  6
Continuous
 62
     8
100
AcDbPolyline
 90
        3
 70
   128
 43
0.0
 10
101.8156006337
 20
148.0782614867
 10
101.8196686507
 20
134.1283755223
 10
101.8272235394
 20
120.1964156548
  0
LWPOLYLINE
  5
24F
330
6A5
100
AcDbEntity
  8
0
  6
Continuous
 62
     8
100
AcDbPolyline
 90
        3
 70
   128
 43
0.0
 10
101.7558246256
 20
291.8745862166
 10
101.7809554339
 20
224.6798636238
 10
101.8156006337
 20
148.0782614867
  0
LWPOLYLINE
  5
250
330
6A5
100
AcDbEntity
  8
0
  6
Continuous
 62
     8
100
AcDbPolyline
 90
        3
 70
   128
 43
0.0
 10
143.0345817805
 20
148.0782614867
 10
143.0692269803
 20
224.6798636238
 10
143.0943577886
 20
291.8745862166
  0
LWPOLYLINE
  5
251
330
6A5
100
AcDbEntity
  8
0
  6
Continuous
 62
     8
100
AcDbPolyline
 90
        3
 70
   128
 43
0.0
 10
143.0229588748
 20
120.1964156548
 10
143.0305137635
 20
134.1283755223
 10
143.0345817805
 20
148.0782614867
  0
LINE
  5
252
330
6A5
100
AcDbEntity
  8
0
  6
Continuous
 62
     8
100
AcDbLine
 10
143.0151394905
 20
102.6241915146
 30
0.0
 11
143.0229588748
 21
120.1964156548
 31
0.0
  0
ARC
  5
253
330
6A5
100
AcDbEntity
  8
0
  6
Continuous
 62
     8
100
AcDbCircle
 10
122.4252918326
 20
75.6221791093
 30
0.0
 40
33.95660785248702
100
AcDbArc
 50
52.6741529101
 51
90.00033852000001
  0
LINE
  5
254
330
6A5
100
AcDbEntity
  8
0
  6
Continuous
 62
     8
100
AcDbLine
 10
143.0138989688
 20
101.7820523898
 30
0.0
 11
143.0144205094
 21
102.6247428576
 31
0.0
  0
LWPOLYLINE
  5
255
330
6A5
100
AcDbEntity
  8
0
  6
Continuous
 62
     8
100
AcDbPolyline
 90
        8
 70
   128
 43
0.0
 10
140.5739642084
 20
99.3437455813
 10
141.6094458998
 20
99.3993269125
 10
142.3488079906
 20
99.6436463515
 10
142.555315733
 20
99.8032675902
 10
142.7146091462
 20
100.0100510041
 10
142.8275413216
 20
100.2446399847
 10
142.9579562844
 20
100.7468240181
 10
143.0138989688
 20
101.7820523898
  0
LINE
  5
256
330
6A5
100
AcDbEntity
  8
0
  6
Continuous
 62
     8
100
AcDbLine
 10
122.4250912071
 20
99.3406312386
 30
0.0
 11
140.5739642084
 21
99.3437455813
 31
0.0
  0
LINE
  5
257
330
6A5
100
AcDbEntity
  8
0
  6
Continuous
 62
     8
100
AcDbLine
 10
104.2762144805
 20
99.3437455813
 30
0.0
 11
122.4250912071
 21
99.3406312386
 31
0.0
  0
LWPOLYLINE
  5
258
330
6A5
100
AcDbEntity
  8
0
  6
Continuous
 62
     8
100
AcDbPolyline
 90
        8
 70
   128
 43
0.0
 10
101.8362834454
 20
101.7820523898
 10
101.8922000528
 20
100.7470177332
 10
102.1367877127
 20
100.0080244461
 10
102.2965132595
 20
99.8016284624
 10
102.5034084321
 20
99.6424393574
 10
102.7381166221
 20
99.5295928637
 10
103.2405539752
 20
99.3993567149
 10
104.2762144805
 20
99.3437455813
  0
LINE
  5
259
330
6A5
100
AcDbEntity
  8
0
  6
Continuous
 62
     8
100
AcDbLine
 10
101.8357619048
 20
102.6247428576
 30
0.0
 11
101.8362834454
 21
101.7820523898
 31
0.0
  0
LWPOLYLINE
  5
25A
330
6A5
100
AcDbEntity
  8
0
  6
Continuous
 62
     8
100
AcDbPolyline
 90
        9
 70
   128
 43
0.0
 10
143.0345817805
 20
148.0782614867
 10
143.2405754329
 20
148.0782167832
 10
143.4380679727
 20
148.0781869809
 10
143.6196609736
 20
148.0781720797
 10
143.7785446049
 20
148.0781720797
 10
143.9087546767
 20
148.0781869809
 10
144.005414784
 20
148.0782167832
 10
144.0649002195
 20
148.0782614867
 10
144.0849832595
 20
148.0783210913
  0
LWPOLYLINE
  5
25B
330
6A5
100
AcDbEntity
  8
0
  6
Continuous
 62
     8
100
AcDbPolyline
 90
        9
 70
   128
 43
0.0
 10
101.8156006337
 20
148.0782614867
 10
101.6096069814
 20
148.0782167832
 10
101.4121144415
 20
148.0781869809
 10
101.2305214406
 20
148.0781720797
 10
101.0716378094
 20
148.0781720797
 10
100.9414240123
 20
148.0781869809
 10
100.8447676302
 20
148.0782167832
 10
100.7852821947
 20
148.0782614867
 10
100.76520288
 20
148.0783210913
  0
LWPOLYLINE
  5
25C
330
6A5
100
AcDbEntity
  8
0
  6
Continuous
 62
     8
100
AcDbPolyline
 90
        9
 70
   128
 43
0.0
 10
101.8272235394
 20
120.1964156548
 10
101.6208350063
 20
120.1963709513
 10
101.4227091671
 20
120.196341149
 10
101.2403711081
 20
120.1963262478
 10
101.0807126165
 20
120.1963262478
 10
100.9497835637
 20
120.196341149
 10
100.8525534869
 20
120.1963709513
 10
100.792702973
 20
120.1964156548
 10
100.7724969984
 20
120.1964752594
  0
LWPOLYLINE
  5
25D
330
6A5
100
AcDbEntity
  8
0
  6
Continuous
 62
     8
100
AcDbPolyline
 90
        9
 70
   128
 43
0.0
 10
143.0229588748
 20
120.1964156548
 10
143.2293511332
 20
120.1963709513
 10
143.4274695218
 20
120.196341149
 10
143.6098150314
 20
120.1963262478
 10
143.7694697977
 20
120.1963262478
 10
143.9003951252
 20
120.196341149
 10
143.997625202
 20
120.1963709513
 10
144.057475716
 20
120.1964156548
 10
144.0776816905
 20
120.1964752594
  0
ARC
  5
25E
330
6A5
100
AcDbEntity
  8
0
  6
Continuous
 62
     8
100
AcDbCircle
 10
361.9662083809
 20
99.082568465
 30
0.0
 40
257.6901262561046
100
AcDbArc
 50
179.9419289002
 51
180.177390235
  0
LINE
  5
25F
330
6A5
100
AcDbEntity
  8
0
  6
Continuous
 62
     8
100
AcDbLine
 10
122.4250912071
 20
99.3406312386
 30
0.0
 11
122.4250912071
 21
98.2847498576
 31
0.0
  0
ARC
  5
260
330
6A5
100
AcDbEntity
  8
0
  6
Continuous
 62
     8
100
AcDbCircle
 10
101.5384741855
 20
224.8472021287
 30
0.0
 40
122.2234151133033
100
AcDbArc
 50
269.6430820881001
 51
270.1390236089999
  0
ARC
  5
261
330
6A5
100
AcDbEntity
  8
0
  6
Continuous
 62
     8
100
AcDbCircle
 10
101.533795725
 20
236.2133110086
 30
0.0
 40
134.4315989366166
100
AcDbArc
 50
269.6775814816
 51
270.1289226975
  0
ARC
  5
262
330
6A5
100
AcDbEntity
  8
0
  6
Continuous
 62
     8
100
AcDbCircle
 10
143.372592041
 20
450.0523309253
 30
0.0
 40
347.4280260149416
100
AcDbArc
 50
269.9409318401
 51
270.115520576
  0
ARC
  5
263
330
6A5
100
AcDbEntity
  8
0
  6
Continuous
 62
     8
100
AcDbCircle
 10
-114.5122773848
 20
99.0798572916
 30
0.0
 40
255.0863780902582
100
AcDbArc
 50
359.8214080487
 51
0.059272816
  0
ARC
  5
264
330
6A5
100
AcDbEntity
  8
0
  6
Continuous
 62
     8
100
AcDbCircle
 10
143.3163883436
 20
236.2107552408
 30
0.0
 40
134.4290431790409
100
AcDbArc
 50
269.8710741462999
 51
270.3224223554
  0
LINE
  5
265
330
6A5
100
AcDbEntity
  8
0
  6
Continuous
 62
     8
100
AcDbLine
 10
252.1841346622
 20
255.4514320413
 30
0.0
 11
254.3304681183
 21
255.3182715396
 31
0.0
  0
LWPOLYLINE
  5
266
330
6A5
100
AcDbEntity
  8
0
  6
Continuous
 62
     8
100
AcDbPolyline
 90
        7
 70
   128
 43
0.0
 10
254.9502297641
 20
255.318264089
 10
254.9502372147
 20
255.3182864407
 10
255.1493763328
 20
255.961498789
 10
255.2247911096
 20
256.4558187345
 10
255.1495700479
 20
256.7257607201
 10
254.8912211657
 20
256.7745843748
 10
254.8912137152
 20
256.7745843748
  0
LWPOLYLINE
  5
267
330
6A5
100
AcDbEntity
  8
0
  6
Continuous
 62
     8
100
AcDbPolyline
 90
        7
 70
   128
 43
0.0
 10
209.8999514581
 20
255.318264089
 10
209.8999440075
 20
255.3182864407
 10
209.7008086146
 20
255.961498789
 10
209.6253938378
 20
256.4558187345
 10
209.7006074489
 20
256.7257607201
 10
209.9589600564
 20
256.7745843748
 10
209.9589712323
 20
256.7745843748
  0
LINE
  5
268
330
6A5
100
AcDbEntity
  8
0
  6
Continuous
 62
     8
100
AcDbLine
 10
210.5682312847
 20
256.7745843748
 30
0.0
 11
212.1678821147
 21
256.7744651655
 31
0.0
  0
ENDSEC
  0
SECTION
  2
OBJECTS
  0
DICTIONARY
  5
695
330
0
100
AcDbDictionary
281
     1
  3
ACAD_DETAILVIEWSTYLE
350
708
  3
ACAD_GROUP
350
696
  3
ACAD_LAYOUT
350
6A2
  3
ACAD_MATERIAL
350
6B0
  3
ACAD_MLEADERSTYLE
350
6FB
  3
ACAD_MLINESTYLE
350
69F
  3
ACAD_PLOTSETTINGS
350
6A1
  3
ACAD_PLOTSTYLENAME
350
697
  3
ACAD_SCALELIST
350
6BE
  3
ACAD_SECTIONVIEWSTYLE
350
709
  3
ACAD_TABLESTYLE
350
6F9
  3
ACAD_VISUALSTYLE
350
6E0
  3
ACDB_RECOMPOSE_DATA
350
704
  3
AcDbVariableDictionary
350
700
  3
APPDATA
350
6FD
  0
DICTIONARY
  5
6FE
330
6A5
100
AcDbDictionary
280
     1
281
     1
  3
DIM_BOUNDING_BOXES_V1
360
6FF
  0
DICTIONARY
  5
708
102
{ACAD_REACTORS
330
695
102
}
330
695
100
AcDbDictionary
281
     1
  0
DICTIONARY
  5
696
102
{ACAD_REACTORS
330
695
102
}
330
695
100
AcDbDictionary
281
     1
  0
DICTIONARY
  5
6A2
102
{ACAD_REACTORS
330
695
102
}
330
695
100
AcDbDictionary
281
     1
  3
Blatt1
350
6A4
  3
Model
350
6A6
  0
DICTIONARY
  5
6B0
102
{ACAD_REACTORS
330
695
102
}
330
695
100
AcDbDictionary
281
     1
  3
ByBlock
350
6B2
  3
ByLayer
350
6B1
  3
Global
350
6B3
  0
DICTIONARY
  5
6FB
102
{ACAD_REACTORS
330
695
102
}
330
695
100
AcDbDictionary
281
     1
  3
Standard
350
6FC
  0
DICTIONARY
  5
69F
102
{ACAD_REACTORS
330
695
102
}
330
695
100
AcDbDictionary
281
     1
  3
Standard
350
6A0
  0
DICTIONARY
  5
6A1
102
{ACAD_REACTORS
330
695
102
}
330
695
100
AcDbDictionary
281
     1
  0
ACDBDICTIONARYWDFLT
  5
697
102
{ACAD_REACTORS
330
695
102
}
330
695
100
AcDbDictionary
281
     1
  3
Normal
350
698
100
AcDbDictionaryWithDefault
340
698
  0
DICTIONARY
  5
6BE
102
{ACAD_REACTORS
330
695
102
}
330
695
100
AcDbDictionary
281
     1
  3
A0
350
6BF
  3
A1
350
6C0
  3
A2
350
6C1
  3
A3
350
6C2
  3
A4
350
6C3
  3
A5
350
6C4
  3
A6
350
6C5
  3
A7
350
6C6
  3
A8
350
6C7
  3
A9
350
6C8
  3
B0
350
6C9
  3
B1
350
6CA
  3
B2
350
6CB
  3
B3
350
6CC
  3
B4
350
6CD
  3
B5
350
6CE
  3
B6
350
6CF
  3
B7
350
6D0
  3
B8
350
6D1
  3
B9
350
6D2
  3
C0
350
6D3
  3
C1
350
6D4
  3
C2
350
6D5
  3
C3
350
6D6
  3
C4
350
6D7
  3
C5
350
6D8
  3
C6
350
6D9
  3
C7
350
6DA
  3
C8
350
6DB
  3
C9
350
6DC
  3
D0
350
6DD
  3
D1
350
6DE
  3
D2
350
6DF
  0
DICTIONARY
  5
709
102
{ACAD_REACTORS
330
695
102
}
330
695
100
AcDbDictionary
281
     1
  0
DICTIONARY
  5
6F9
102
{ACAD_REACTORS
330
695
102
}
330
695
100
AcDbDictionary
281
     1
  3
Standard
350
6FA
  0
DICTIONARY
  5
6E0
102
{ACAD_REACTORS
330
695
102
}
330
695
100
AcDbDictionary
281
     1
  3
2dWireframe
350
6E5
  3
Basic
350
6E8
  3
Brighten
350
6EC
  3
ColorChange
350
6F0
  3
Conceptual
350
6EA
  3
Dim
350
6EB
  3
EdgeColorOff
350
6F3
  3
Facepattern
350
6EF
  3
Flat
350
6E1
  3
FlatWithEdges
350
6E2
  3
Gouraud
350
6E3
  3
GouraudWithEdges
350
6E4
  3
Hidden
350
6E7
  3
JitterOff
350
6F1
  3
Linepattern
350
6EE
  3
OverhangOff
350
6F2
  3
Realistic
350
6E9
  3
Shaded
350
6F8
  3
Shaded with edges
350
6F7
  3
Shades of Gray
350
6F4
  3
Sketchy
350
6F5
  3
Thicken
350
6ED
  3
Wireframe
350
6E6
  3
X-Ray
350
6F6
  0
XRECORD
  5
704
102
{ACAD_REACTORS
330
695
102
}
330
695
100
AcDbXrecord
280
     1
 90
        1
330
6FA
  0
DICTIONARY
  5
700
102
{ACAD_REACTORS
330
695
102
}
330
695
100
AcDbDictionary
281
     1
  3
CANNOSCALE
350
701
  3
CMLEADERSTYLE
350
706
  3
CTABLESTYLE
350
705
  3
MSLTSCALE
350
707
  0
DICTIONARY
  5
6FD
102
{ACAD_REACTORS
330
695
102
}
330
695
100
AcDbDictionary
281
     1
  0
DICTIONARY
  5
6FF
102
{ACAD_REACTORS
330
6FE
102
}
330
6FE
100
AcDbDictionary
281
     1
  0
LAYOUT
  5
6A4
102
{ACAD_REACTORS
330
6A2
102
}
330
6A2
100
AcDbPlotSettings
  1

  2
none_device
  4

  6

 40
0.0
 41
0.0
 42
0.0
 43
0.0
 44
0.0
 45
0.0
 46
0.0
 47
0.0
 48
0.0
 49
0.0
140
0.0
141
0.0
142
1.0
143
1.0
 70
   688
 72
     0
 73
     0
 74
     5
  7

 75
    16
 76
     0
 77
     2
 78
   300
147
1.0
148
0.0
149
0.0
100
AcDbLayout
  1
Blatt1
 70
     1
 71
     1
 10
0.0
 20
0.0
 11
0.0
 21
0.0
 12
0.0
 22
0.0
 32
0.0
 14
1.000000000000000E+20
 24
1.000000000000000E+20
 34
1.000000000000000E+20
 15
-1.000000000000000E+20
 25
-1.000000000000000E+20
 35
-1.000000000000000E+20
146
0.0
 13
0.0
 23
0.0
 33
0.0
 16
1.0
 26
0.0
 36
0.0
 17
0.0
 27
1.0
 37
0.0
 76
     0
330
6A3
  0
LAYOUT
  5
6A6
102
{ACAD_REACTORS
330
6A2
102
}
330
6A2
100
AcDbPlotSettings
  1

  2
none_device
  4
Letter_(8.50_x_11.00_Inches)
  6

 40
6.35
 41
6.35
 42
6.35
 43
6.35
 44
215.9
 45
279.4
 46
0.0
 47
0.0
 48
0.0
 49
0.0
140
0.0
141
0.0
142
1.0
143
1.0
 70
  1712
 72
     0
 73
     0
 74
     0
  7

 75
     0
 76
     0
 77
     2
 78
   300
147
1.0
148
0.0
149
0.0
100
AcDbLayout
  1
Model
 70
     1
 71
     0
 10
0.0
 20
0.0
 11
12.0
 21
9.0
 12
0.0
 22
0.0
 32
0.0
 14
33.76143973320001
 24
37.46023423129998
 34
0.0
 15
541.751504687928
 25
473.2066591577
 35
0.0
146
0.0
 13
0.0
 23
0.0
 33
0.0
 16
1.0
 26
0.0
 36
0.0
 17
0.0
 27
1.0
 37
0.0
 76
     0
330
6A5
331
6A8
  0
MATERIAL
  5
6B2
102
{ACAD_REACTORS
330
6B0
102
}
330
6B0
100
AcDbMaterial
  1
ByBlock
 72
     1
 94
      127
  0
MATERIAL
  5
6B1
102
{ACAD_REACTORS
330
6B0
102
}
330
6B0
100
AcDbMaterial
  1
ByLayer
 72
     1
 94
      127
  0
MATERIAL
  5
6B3
102
{ACAD_REACTORS
330
6B0
102
}
330
6B0
100
AcDbMaterial
  1
Global
 72
     1
 94
      127
  0
MLEADERSTYLE
  5
6FC
102
{ACAD_REACTORS
330
6FB
102
}
330
6FB
100
AcDbMLeaderStyle
179
     2
170
     2
171
     1
172
     0
 90
        2
 40
0.0
 41
0.0
173
     1
 91
-1056964608
340
69C
 92
       -2
290
     1
 42
0.09
291
     1
 43
0.36
  3
Standard
341
0
 44
0.18
300

342
69A
174
     1
178
     1
175
     1
176
     0
 93
-1056964608
 45
0.18
292
     0
297
     0
 46
0.18
343
0
 94
-1056964608
 47
1.0
 49
1.0
140
1.0
293
     1
141
0.0
294
     1
177
     0
142
1.0
295
     0
296
     0
143
0.125
271
     0
272
     9
273
     9
298
     0
  0
MLINESTYLE
  5
6A0
102
{ACAD_REACTORS
330
69F
102
}
330
69F
100
AcDbMlineStyle
  2
Standard
 70
     0
  3

 62
   256
 51
90.0
 52
90.0
 71
     2
 49
0.5
 62
   256
  6
BYLAYER
 49
-0.5
 62
   256
  6
BYLAYER
  0
ACDBPLACEHOLDER
  5
698
102
{ACAD_REACTORS
330
697
102
}
330
697
  0
SCALE
  5
6BF
102
{ACAD_REACTORS
330
6BE
102
}
330
6BE
100
AcDbScale
 70
     0
300
1:1
140
1.0
141
1.0
290
     1
  0
SCALE
  5
6C0
102
{ACAD_REACTORS
330
6BE
102
}
330
6BE
100
AcDbScale
 70
     0
300
1:2
140
1.0
141
2.0
290
     0
  0
SCALE
  5
6C1
102
{ACAD_REACTORS
330
6BE
102
}
330
6BE
100
AcDbScale
 70
     0
300
1:4
140
1.0
141
4.0
290
     0
  0
SCALE
  5
6C2
102
{ACAD_REACTORS
330
6BE
102
}
330
6BE
100
AcDbScale
 70
     0
300
1:5
140
1.0
141
5.0
290
     0
  0
SCALE
  5
6C3
102
{ACAD_REACTORS
330
6BE
102
}
330
6BE
100
AcDbScale
 70
     0
300
1:8
140
1.0
141
8.0
290
     0
  0
SCALE
  5
6C4
102
{ACAD_REACTORS
330
6BE
102
}
330
6BE
100
AcDbScale
 70
     0
300
1:10
140
1.0
141
10.0
290
     0
  0
SCALE
  5
6C5
102
{ACAD_REACTORS
330
6BE
102
}
330
6BE
100
AcDbScale
 70
     0
300
1:16
140
1.0
141
16.0
290
     0
  0
SCALE
  5
6C6
102
{ACAD_REACTORS
330
6BE
102
}
330
6BE
100
AcDbScale
 70
     0
300
1:20
140
1.0
141
20.0
290
     0
  0
SCALE
  5
6C7
102
{ACAD_REACTORS
330
6BE
102
}
330
6BE
100
AcDbScale
 70
     0
300
1:30
140
1.0
141
30.0
290
     0
  0
SCALE
  5
6C8
102
{ACAD_REACTORS
330
6BE
102
}
330
6BE
100
AcDbScale
 70
     0
300
1:40
140
1.0
141
40.0
290
     0
  0
SCALE
  5
6C9
102
{ACAD_REACTORS
330
6BE
102
}
330
6BE
100
AcDbScale
 70
     0
300
1:50
140
1.0
141
50.0
290
     0
  0
SCALE
  5
6CA
102
{ACAD_REACTORS
330
6BE
102
}
330
6BE
100
AcDbScale
 70
     0
300
1:100
140
1.0
141
100.0
290
     0
  0
SCALE
  5
6CB
102
{ACAD_REACTORS
330
6BE
102
}
330
6BE
100
AcDbScale
 70
     0
300
2:1
140
2.0
141
1.0
290
     0
  0
SCALE
  5
6CC
102
{ACAD_REACTORS
330
6BE
102
}
330
6BE
100
AcDbScale
 70
     0
300
4:1
140
4.0
141
1.0
290
     0
  0
SCALE
  5
6CD
102
{ACAD_REACTORS
330
6BE
102
}
330
6BE
100
AcDbScale
 70
     0
300
8:1
140
8.0
141
1.0
290
     0
  0
SCALE
  5
6CE
102
{ACAD_REACTORS
330
6BE
102
}
330
6BE
100
AcDbScale
 70
     0
300
10:1
140
10.0
141
1.0
290
     0
  0
SCALE
  5
6CF
102
{ACAD_REACTORS
330
6BE
102
}
330
6BE
100
AcDbScale
 70
     0
300
100:1
140
100.0
141
1.0
290
     0
  0
SCALE
  5
6D0
102
{ACAD_REACTORS
330
6BE
102
}
330
6BE
100
AcDbScale
 70
     0
300
1/128" = 1'-0"
140
0.0078125
141
12.0
290
     0
  0
SCALE
  5
6D1
102
{ACAD_REACTORS
330
6BE
102
}
330
6BE
100
AcDbScale
 70
     0
300
1/64" = 1'-0"
140
0.015625
141
12.0
290
     0
  0
SCALE
  5
6D2
102
{ACAD_REACTORS
330
6BE
102
}
330
6BE
100
AcDbScale
 70
     0
300
1/32" = 1'-0"
140
0.03125
141
12.0
290
     0
  0
SCALE
  5
6D3
102
{ACAD_REACTORS
330
6BE
102
}
330
6BE
100
AcDbScale
 70
     0
300
1/16" = 1'-0"
140
0.0625
141
12.0
290
     0
  0
SCALE
  5
6D4
102
{ACAD_REACTORS
330
6BE
102
}
330
6BE
100
AcDbScale
 70
     0
300
3/32" = 1'-0"
140
0.09375
141
12.0
290
     0
  0
SCALE
  5
6D5
102
{ACAD_REACTORS
330
6BE
102
}
330
6BE
100
AcDbScale
 70
     0
300
1/8" = 1'-0"
140
0.125
141
12.0
290
     0
  0
SCALE
  5
6D6
102
{ACAD_REACTORS
330
6BE
102
}
330
6BE
100
AcDbScale
 70
     0
300
3/16" = 1'-0"
140
0.1875
141
12.0
290
     0
  0
SCALE
  5
6D7
102
{ACAD_REACTORS
330
6BE
102
}
330
6BE
100
AcDbScale
 70
     0
300
1/4" = 1'-0"
140
0.25
141
12.0
290
     0
  0
SCALE
  5
6D8
102
{ACAD_REACTORS
330
6BE
102
}
330
6BE
100
AcDbScale
 70
     0
300
3/8" = 1'-0"
140
0.375
141
12.0
290
     0
  0
SCALE
  5
6D9
102
{ACAD_REACTORS
330
6BE
102
}
330
6BE
100
AcDbScale
 70
     0
300
1/2" = 1'-0"
140
0.5
141
12.0
290
     0
  0
SCALE
  5
6DA
102
{ACAD_REACTORS
330
6BE
102
}
330
6BE
100
AcDbScale
 70
     0
300
3/4" = 1'-0"
140
0.75
141
12.0
290
     0
  0
SCALE
  5
6DB
102
{ACAD_REACTORS
330
6BE
102
}
330
6BE
100
AcDbScale
 70
     0
300
1" = 1'-0"
140
1.0
141
12.0
290
     0
  0
SCALE
  5
6DC
102
{ACAD_REACTORS
330
6BE
102
}
330
6BE
100
AcDbScale
 70
     0
300
1-1/2" = 1'-0"
140
1.5
141
12.0
290
     0
  0
SCALE
  5
6DD
102
{ACAD_REACTORS
330
6BE
102
}
330
6BE
100
AcDbScale
 70
     0
300
3" = 1'-0"
140
3.0
141
12.0
290
     0
  0
SCALE
  5
6DE
102
{ACAD_REACTORS
330
6BE
102
}
330
6BE
100
AcDbScale
 70
     0
300
6" = 1'-0"
140
6.0
141
12.0
290
     0
  0
SCALE
  5
6DF
102
{ACAD_REACTORS
330
6BE
102
}
330
6BE
100
AcDbScale
 70
     0
300
1'-0" = 1'-0"
140
12.0
141
12.0
290
     0
  0
TABLESTYLE
  5
6FA
102
{ACAD_REACTORS
330
6F9
102
}
102
{ACAD_XDICTIONARY
360
702
102
}
330
6F9
100
AcDbTableStyle
  3
Standard
 70
     0
 71
     0
 40
0.06
 41
0.06
280
     0
281
     0
  7
STANDARD
140
0.18
170
     2
 62
     0
 63
   257
283
     0
 90
        4
 91
        0
  1

274
    -2
284
     1
 64
     0
275
    -2
285
     1
 65
     0
276
    -2
286
     1
 66
     0
277
    -2
287
     1
 67
     0
278
    -2
288
     1
 68
     0
279
    -2
289
     1
 69
     0
  7
STANDARD
140
0.25
170
     5
 62
     0
 63
   257
283
     0
 90
        4
 91
        0
  1

274
    -2
284
     1
 64
     0
275
    -2
285
     1
 65
     0
276
    -2
286
     1
 66
     0
277
    -2
287
     1
 67
     0
278
    -2
288
     1
 68
     0
279
    -2
289
     1
 69
     0
  7
STANDARD
140
0.18
170
     5
 62
     0
 63
   257
283
     0
 90
        4
 91
        0
  1

274
    -2
284
     1
 64
     0
275
    -2
285
     1
 65
     0
276
    -2
286
     1
 66
     0
277
    -2
287
     1
 67
     0
278
    -2
288
     1
 68
     0
279
    -2
289
     1
 69
     0
  0
VISUALSTYLE
  5
6E5
102
{ACAD_REACTORS
330
6E0
102
}
330
6E0
100
AcDbVisualStyle
  2
2dWireframe
 70
     4
177
     3
291
     0
 70
    58
 90
        0
176
     1
 90
        2
176
     1
 90
        0
176
     1
 90
        0
176
     1
 40
0.6
176
     1
 40
30.0
176
     1
 62
     7
420
 16777215
176
     1
 90
        1
176
     1
 90
        4
176
     1
 62
     7
176
     1
 62
   257
176
     1
 90
        1
176
     1
 90
        1
176
     1
 40
1.0
176
     1
 90
        0
176
     1
 62
   257
176
     1
 40
1.0
176
     1
 90
        1
176
     1
 90
        6
176
     1
 90
        2
176
     1
 62
     7
176
     1
 90
        5
176
     1
 90
        0
176
     1
 90
        0
176
     1
290
     0
176
     1
 90
        1
176
     1
 40
0.0
176
     1
 90
        0
176
     1
290
     1
176
     1
290
     1
176
     1
290
     0
176
     1
290
     0
176
     1
290
     0
176
     1
290
     0
176
     1
290
     0
176
     1
290
     0
176
     1
290
     0
176
     1
 90
       50
176
     1
 40
0.0
176
     1
 40
1.0
176
     1
 90
        0
176
     1
 62
    18
420
        0
176
     1
 90
       50
176
     1
 90
        3
176
     1
 62
     5
420
      255
176
     1
290
     0
176
     1
 90
       50
176
     1
 90
       50
176
     1
 90
       50
176
     1
290
     0
176
     1
 90
       50
176
     1
 62
   256
176
     0
 40
1.0
176
     0
 90
        2
176
     1
  1
strokes_ogs.tif
176
     1
290
     0
176
     1
 40
1.0
176
     1
 40
1.0
176
     1
  0
VISUALSTYLE
  5
6E8
102
{ACAD_REACTORS
330
6E0
102
}
330
6E0
100
AcDbVisualStyle
  2
Basic
 70
     7
177
     3
291
     1
 70
    58
 90
        1
176
     1
 90
        0
176
     1
 90
        1
176
     1
 90
        0
176
     1
 40
0.6
176
     1
 40
30.0
176
     1
 62
     7
420
 16777215
176
     1
 90
        0
176
     1
 90
        4
176
     1
 62
     7
176
     1
 62
   257
176
     1
 90
        1
176
     1
 90
        1
176
     1
 40
1.0
176
     1
 90
        8
176
     1
 62
     7
176
     1
 40
1.0
176
     1
 90
        1
176
     1
 90
        6
176
     1
 90
        2
176
     1
 62
     7
176
     1
 90
        5
176
     1
 90
        0
176
     1
 90
        0
176
     1
290
     0
176
     1
 90
        1
176
     1
 40
0.0
176
     1
 90
        0
176
     1
290
     0
176
     1
290
     1
176
     1
290
     1
176
     1
290
     0
176
     1
290
     0
176
     1
290
     0
176
     1
290
     0
176
     1
290
     0
176
     1
290
     0
176
     1
 90
       50
176
     1
 40
0.0
176
     1
 40
1.0
176
     1
 90
        0
176
     1
 62
    18
420
        0
176
     1
 90
       50
176
     1
 90
        3
176
     1
 62
     5
420
      255
176
     1
290
     0
176
     1
 90
       50
176
     1
 90
       50
176
     1
 90
       50
176
     1
290
     0
176
     1
 90
       50
176
     1
 62
   256
176
     0
 40
1.0
176
     0
 90
        2
176
     1
  1
strokes_ogs.tif
176
     1
290
     0
176
     1
 40
1.0
176
     1
 40
1.0
176
     1
  0
VISUALSTYLE
  5
6EC
102
{ACAD_REACTORS
330
6E0
102
}
330
6E0
100
AcDbVisualStyle
  2
Brighten
 70
    12
177
     3
291
     1
 70
    58
 90
        2
176
     1
 90
        2
176
     1
 90
        0
176
     1
 90
        0
176
     1
 40
0.6
176
     1
 40
30.0
176
     1
 62
     7
420
 16777215
176
     1
 90
        1
176
     1
 90
        4
176
     1
 62
     7
176
     1
 62
   257
176
     1
 90
        1
176
     1
 90
        1
176
     1
 40
1.0
176
     1
 90
        8
176
     1
 62
     7
176
     1
 40
1.0
176
     1
 90
        1
176
     1
 90
        6
176
     1
 90
        2
176
     1
 62
     7
176
     1
 90
        5
176
     1
 90
        0
176
     1
 90
        0
176
     1
290
     0
176
     1
 90
        1
176
     1
 40
50.0
176
     1
 90
        0
176
     1
290
     0
176
     1
290
     1
176
     1
290
     1
176
     1
290
     0
176
     1
290
     0
176
     1
290
     0
176
     1
290
     0
176
     1
290
     0
176
     1
290
     0
176
     1
 90
       50
176
     1
 40
0.0
176
     1
 40
1.0
176
     1
 90
        0
176
     1
 62
    18
420
        0
176
     1
 90
       50
176
     1
 90
        3
176
     1
 62
     5
420
      255
176
     1
290
     0
176
     1
 90
       50
176
     1
 90
       50
176
     1
 90
       50
176
     1
290
     0
176
     1
 90
       50
176
     1
 62
   256
176
     0
 40
1.0
176
     0
 90
        2
176
     1
  1
strokes_ogs.tif
176
     1
290
     0
176
     1
 40
1.0
176
     1
 40
1.0
176
     1
  0
VISUALSTYLE
  5
6F0
102
{ACAD_REACTORS
330
6E0
102
}
330
6E0
100
AcDbVisualStyle
  2
ColorChange
 70
    16
177
     3
291
     1
 70
    58
 90
        2
176
     1
 90
        2
176
     1
 90
        3
176
     1
 90
        0
176
     1
 40
0.6
176
     1
 40
30.0
176
     1
 62
     8
420
  8421504
176
     1
 90
        1
176
     1
 90
        4
176
     1
 62
     7
176
     1
 62
   257
176
     1
 90
        1
176
     1
 90
        1
176
     1
 40
1.0
176
     1
 90
        8
176
     1
 62
     8
420
  8421504
176
     1
 40
1.0
176
     1
 90
        1
176
     1
 90
        6
176
     1
 90
        2
176
     1
 62
     7
176
     1
 90
        5
176
     1
 90
        0
176
     1
 90
        0
176
     1
290
     0
176
     1
 90
        1
176
     1
 40
0.0
176
     1
 90
        0
176
     1
290
     0
176
     1
290
     1
176
     1
290
     1
176
     1
290
     0
176
     1
290
     0
176
     1
290
     0
176
     1
290
     0
176
     1
290
     0
176
     1
290
     0
176
     1
 90
       50
176
     1
 40
0.0
176
     1
 40
1.0
176
     1
 90
        0
176
     1
 62
    18
420
        0
176
     1
 90
       50
176
     1
 90
        3
176
     1
 62
     5
420
      255
176
     1
290
     0
176
     1
 90
       50
176
     1
 90
       50
176
     1
 90
       50
176
     1
290
     0
176
     1
 90
       50
176
     1
 62
   256
176
     0
 40
1.0
176
     0
 90
        2
176
     1
  1
strokes_ogs.tif
176
     1
290
     0
176
     1
 40
1.0
176
     1
 40
1.0
176
     1
  0
VISUALSTYLE
  5
6EA
102
{ACAD_REACTORS
330
6E0
102
}
330
6E0
100
AcDbVisualStyle
  2
Conceptual
 70
     9
177
     3
291
     0
 70
    58
 90
        3
176
     1
 90
        2
176
     1
 90
        0
176
     1
 90
        0
176
     1
 40
0.6
176
     1
 40
30.0
176
     1
 62
     7
420
 16777215
176
     1
 90
        2
176
     1
 90
        2
176
     1
 62
     7
176
     1
 62
   257
176
     1
 90
        1
176
     1
 90
        1
176
     1
 40
179.0
176
     1
 90
        8
176
     1
 62
     7
176
     1
 40
1.0
176
     1
 90
        1
176
     1
 90
        6
176
     1
 90
        2
176
     1
 62
     7
176
     1
 90
        3
176
     1
 90
        0
176
     1
 90
        0
176
     1
290
     0
176
     1
 90
        1
176
     1
 40
0.0
176
     1
 90
        0
176
     1
290
     0
176
     1
290
     1
176
     1
290
     1
176
     1
290
     0
176
     1
290
     0
176
     1
290
     0
176
     1
290
     0
176
     1
290
     0
176
     1
290
     0
176
     1
 90
       50
176
     1
 40
0.0
176
     1
 40
1.0
176
     1
 90
        0
176
     1
 62
    18
420
        0
176
     1
 90
       50
176
     1
 90
        3
176
     1
 62
     5
420
      255
176
     1
290
     0
176
     1
 90
       50
176
     1
 90
       50
176
     1
 90
       50
176
     1
290
     0
176
     1
 90
       50
176
     1
 62
   256
176
     0
 40
1.0
176
     0
 90
        2
176
     1
  1
strokes_ogs.tif
176
     1
290
     0
176
     1
 40
1.0
176
     1
 40
1.0
176
     1
  0
VISUALSTYLE
  5
6EB
102
{ACAD_REACTORS
330
6E0
102
}
330
6E0
100
AcDbVisualStyle
  2
Dim
 70
    11
177
     3
291
     1
 70
    58
 90
        2
176
     1
 90
        2
176
     1
 90
        0
176
     1
 90
        0
176
     1
 40
0.6
176
     1
 40
30.0
176
     1
 62
     7
420
 16777215
176
     1
 90
        1
176
     1
 90
        4
176
     1
 62
     7
176
     1
 62
   257
176
     1
 90
        1
176
     1
 90
        1
176
     1
 40
1.0
176
     1
 90
        8
176
     1
 62
     7
176
     1
 40
1.0
176
     1
 90
        1
176
     1
 90
        6
176
     1
 90
        2
176
     1
 62
     7
176
     1
 90
        5
176
     1
 90
        0
176
     1
 90
        0
176
     1
290
     0
176
     1
 90
        1
176
     1
 40
-50.0
176
     1
 90
        0
176
     1
290
     0
176
     1
290
     1
176
     1
290
     1
176
     1
290
     0
176
     1
290
     0
176
     1
290
     0
176
     1
290
     0
176
     1
290
     0
176
     1
290
     0
176
     1
 90
       50
176
     1
 40
0.0
176
     1
 40
1.0
176
     1
 90
        0
176
     1
 62
    18
420
        0
176
     1
 90
       50
176
     1
 90
        3
176
     1
 62
     5
420
      255
176
     1
290
     0
176
     1
 90
       50
176
     1
 90
       50
176
     1
 90
       50
176
     1
290
     0
176
     1
 90
       50
176
     1
 62
   256
176
     0
 40
1.0
176
     0
 90
        2
176
     1
  1
strokes_ogs.tif
176
     1
290
     0
176
     1
 40
1.0
176
     1
 40
1.0
176
     1
  0
VISUALSTYLE
  5
6F3
102
{ACAD_REACTORS
330
6E0
102
}
330
6E0
100
AcDbVisualStyle
  2
EdgeColorOff
 70
    22
177
     3
291
     1
 70
    58
 90
        2
176
     0
 90
        2
176
     0
 90
        0
176
     0
 90
        0
176
     0
 40
0.6
176
     0
 40
30.0
176
     0
 62
     7
420
 16777215
176
     0
 90
        1
176
     0
 90
        4
176
     0
 62
     7
176
     0
 62
   257
176
     0
 90
        1
176
     0
 90
        1
176
     0
 40
1.0
176
     0
 90
        8
176
     2
 62
     7
176
     0
 40
1.0
176
     0
 90
        1
176
     0
 90
        6
176
     0
 90
        2
176
     0
 62
     7
176
     0
 90
        5
176
     0
 90
        0
176
     0
 90
        0
176
     0
290
     0
176
     0
 90
        1
176
     0
 40
0.0
176
     0
 90
        0
176
     0
290
     0
176
     0
290
     1
176
     0
290
     1
176
     0
290
     0
176
     0
290
     0
176
     0
290
     0
176
     0
290
     0
176
     0
290
     0
176
     0
290
     0
176
     0
 90
       50
176
     0
 40
0.0
176
     0
 40
1.0
176
     0
 90
        0
176
     0
 62
    18
420
        0
176
     0
 90
       50
176
     0
 90
        3
176
     0
 62
     5
420
      255
176
     0
290
     0
176
     0
 90
       50
176
     0
 90
       50
176
     0
 90
       50
176
     0
290
     0
176
     0
 90
       50
176
     0
 62
   256
176
     0
 40
1.0
176
     0
 90
        2
176
     0
  1
strokes_ogs.tif
176
     0
290
     0
176
     0
 40
1.0
176
     0
 40
1.0
176
     0
  0
VISUALSTYLE
  5
6EF
102
{ACAD_REACTORS
330
6E0
102
}
330
6E0
100
AcDbVisualStyle
  2
Facepattern
 70
    15
177
     3
291
     1
 70
    58
 90
        2
176
     1
 90
        2
176
     1
 90
        0
176
     1
 90
        0
176
     1
 40
0.6
176
     1
 40
30.0
176
     1
 62
     7
420
 16777215
176
     1
 90
        1
176
     1
 90
        4
176
     1
 62
     7
176
     1
 62
   257
176
     1
 90
        1
176
     1
 90
        1
176
     1
 40
1.0
176
     1
 90
        8
176
     1
 62
     7
176
     1
 40
1.0
176
     1
 90
        1
176
     1
 90
        6
176
     1
 90
        2
176
     1
 62
     7
176
     1
 90
        5
176
     1
 90
        0
176
     1
 90
        0
176
     1
290
     0
176
     1
 90
        1
176
     1
 40
0.0
176
     1
 90
        0
176
     1
290
     0
176
     1
290
     1
176
     1
290
     1
176
     1
290
     0
176
     1
290
     0
176
     1
290
     0
176
     1
290
     0
176
     1
290
     0
176
     1
290
     0
176
     1
 90
       50
176
     1
 40
0.0
176
     1
 40
1.0
176
     1
 90
        0
176
     1
 62
    18
420
        0
176
     1
 90
       50
176
     1
 90
        3
176
     1
 62
     5
420
      255
176
     1
290
     0
176
     1
 90
       50
176
     1
 90
       50
176
     1
 90
       50
176
     1
290
     0
176
     1
 90
       50
176
     1
 62
   256
176
     0
 40
1.0
176
     0
 90
        2
176
     1
  1
strokes_ogs.tif
176
     1
290
     0
176
     1
 40
1.0
176
     1
 40
1.0
176
     1
  0
VISUALSTYLE
  5
6E1
102
{ACAD_REACTORS
330
6E0
102
}
330
6E0
100
AcDbVisualStyle
  2
Flat
 70
     0
177
     3
291
     1
 70
    58
 90
        2
176
     1
 90
        1
176
     1
 90
        1
176
     1
 90
        2
176
     1
 40
0.6
176
     1
 40
30.0
176
     1
 62
     7
420
 16777215
176
     1
 90
        0
176
     1
 90
        0
176
     1
 62
     7
176
     1
 62
   257
176
     1
 90
        1
176
     1
 90
        1
176
     1
 40
1.0
176
     1
 90
        8
176
     1
 62
     7
176
     1
 40
1.0
176
     1
 90
        1
176
     1
 90
        6
176
     1
 90
        2
176
     1
 62
     7
176
     1
 90
        5
176
     1
 90
        0
176
     1
 90
        0
176
     1
290
     0
176
     1
 90
       13
176
     1
 40
0.0
176
     1
 90
        0
176
     1
290
     0
176
     1
290
     1
176
     1
290
     1
176
     1
290
     0
176
     1
290
     0
176
     1
290
     0
176
     1
290
     0
176
     1
290
     0
176
     1
290
     0
176
     1
 90
       50
176
     1
 40
0.0
176
     1
 40
1.0
176
     1
 90
        0
176
     1
 62
    18
420
        0
176
     1
 90
       50
176
     1
 90
        3
176
     1
 62
     5
420
      255
176
     1
290
     0
176
     1
 90
       50
176
     1
 90
       50
176
     1
 90
       50
176
     1
290
     0
176
     1
 90
       50
176
     1
 62
   256
176
     0
 40
1.0
176
     0
 90
        2
176
     1
  1
strokes_ogs.tif
176
     1
290
     0
176
     1
 40
1.0
176
     1
 40
1.0
176
     1
  0
VISUALSTYLE
  5
6E2
102
{ACAD_REACTORS
330
6E0
102
}
330
6E0
100
AcDbVisualStyle
  2
FlatWithEdges
 70
     1
177
     3
291
     1
 70
    58
 90
        2
176
     1
 90
        1
176
     1
 90
        1
176
     1
 90
        2
176
     1
 40
0.6
176
     1
 40
30.0
176
     1
 62
     7
420
 16777215
176
     1
 90
        1
176
     1
 90
        0
176
     1
 62
     7
176
     1
 62
   257
176
     1
 90
        1
176
     1
 90
        1
176
     1
 40
1.0
176
     1
 90
        0
176
     1
 62
   257
176
     1
 40
1.0
176
     1
 90
        1
176
     1
 90
        6
176
     1
 90
        2
176
     1
 62
     7
176
     1
 90
        5
176
     1
 90
        0
176
     1
 90
        0
176
     1
290
     0
176
     1
 90
       13
176
     1
 40
0.0
176
     1
 90
        0
176
     1
290
     0
176
     1
290
     1
176
     1
290
     1
176
     1
290
     0
176
     1
290
     0
176
     1
290
     0
176
     1
290
     0
176
     1
290
     0
176
     1
290
     0
176
     1
 90
       50
176
     1
 40
0.0
176
     1
 40
1.0
176
     1
 90
        0
176
     1
 62
    18
420
        0
176
     1
 90
       50
176
     1
 90
        3
176
     1
 62
     5
420
      255
176
     1
290
     0
176
     1
 90
       50
176
     1
 90
       50
176
     1
 90
       50
176
     1
290
     0
176
     1
 90
       50
176
     1
 62
   256
176
     0
 40
1.0
176
     0
 90
        2
176
     1
  1
strokes_ogs.tif
176
     1
290
     0
176
     1
 40
1.0
176
     1
 40
1.0
176
     1
  0
VISUALSTYLE
  5
6E3
102
{ACAD_REACTORS
330
6E0
102
}
330
6E0
100
AcDbVisualStyle
  2
Gouraud
 70
     2
177
     3
291
     1
 70
    58
 90
        2
176
     1
 90
        2
176
     1
 90
        1
176
     1
 90
        2
176
     1
 40
0.6
176
     1
 40
30.0
176
     1
 62
     7
420
 16777215
176
     1
 90
        0
176
     1
 90
        0
176
     1
 62
     7
176
     1
 62
   257
176
     1
 90
        1
176
     1
 90
        1
176
     1
 40
1.0
176
     1
 90
        0
176
     1
 62
     7
176
     1
 40
1.0
176
     1
 90
        1
176
     1
 90
        6
176
     1
 90
        2
176
     1
 62
     7
176
     1
 90
        5
176
     1
 90
        0
176
     1
 90
        0
176
     1
290
     0
176
     1
 90
       13
176
     1
 40
0.0
176
     1
 90
        0
176
     1
290
     0
176
     1
290
     1
176
     1
290
     1
176
     1
290
     0
176
     1
290
     0
176
     1
290
     0
176
     1
290
     0
176
     1
290
     0
176
     1
290
     0
176
     1
 90
       50
176
     1
 40
0.0
176
     1
 40
1.0
176
     1
 90
        0
176
     1
 62
    18
420
        0
176
     1
 90
       50
176
     1
 90
        3
176
     1
 62
     5
420
      255
176
     1
290
     0
176
     1
 90
       50
176
     1
 90
       50
176
     1
 90
       50
176
     1
290
     0
176
     1
 90
       50
176
     1
 62
   256
176
     0
 40
1.0
176
     0
 90
        2
176
     1
  1
strokes_ogs.tif
176
     1
290
     0
176
     1
 40
1.0
176
     1
 40
1.0
176
     1
  0
VISUALSTYLE
  5
6E4
102
{ACAD_REACTORS
330
6E0
102
}
330
6E0
100
AcDbVisualStyle
  2
GouraudWithEdges
 70
     3
177
     3
291
     1
 70
    58
 90
        2
176
     1
 90
        2
176
     1
 90
        1
176
     1
 90
        2
176
     1
 40
0.6
176
     1
 40
30.0
176
     1
 62
     7
420
 16777215
176
     1
 90
        1
176
     1
 90
        0
176
     1
 62
     7
176
     1
 62
   257
176
     1
 90
        1
176
     1
 90
        1
176
     1
 40
1.0
176
     1
 90
        0
176
     1
 62
   257
176
     1
 40
1.0
176
     1
 90
        1
176
     1
 90
        6
176
     1
 90
        2
176
     1
 62
     7
176
     1
 90
        5
176
     1
 90
        0
176
     1
 90
        0
176
     1
290
     0
176
     1
 90
       13
176
     1
 40
0.0
176
     1
 90
        0
176
     1
290
     0
176
     1
290
     1
176
     1
290
     1
176
     1
290
     0
176
     1
290
     0
176
     1
290
     0
176
     1
290
     0
176
     1
290
     0
176
     1
290
     0
176
     1
 90
       50
176
     1
 40
0.0
176
     1
 40
1.0
176
     1
 90
        0
176
     1
 62
    18
420
        0
176
     1
 90
       50
176
     1
 90
        3
176
     1
 62
     5
420
      255
176
     1
290
     0
176
     1
 90
       50
176
     1
 90
       50
176
     1
 90
       50
176
     1
290
     0
176
     1
 90
       50
176
     1
 62
   256
176
     0
 40
1.0
176
     0
 90
        2
176
     1
  1
strokes_ogs.tif
176
     1
290
     0
176
     1
 40
1.0
176
     1
 40
1.0
176
     1
  0
VISUALSTYLE
  5
6E7
102
{ACAD_REACTORS
330
6E0
102
}
330
6E0
100
AcDbVisualStyle
  2
Hidden
 70
     6
177
     3
291
     0
 70
    58
 90
        1
176
     1
 90
        2
176
     1
 90
        2
176
     1
 90
        0
176
     1
 40
0.6
176
     1
 40
30.0
176
     1
 62
     7
420
 16777215
176
     1
 90
        2
176
     1
 90
        2
176
     1
 62
     7
176
     1
 62
   257
176
     1
 90
        2
176
     1
 90
        1
176
     1
 40
40.0
176
     1
 90
        0
176
     1
 62
   257
176
     1
 40
1.0
176
     1
 90
        1
176
     1
 90
        6
176
     1
 90
        2
176
     1
 62
     7
176
     1
 90
        3
176
     1
 90
        0
176
     1
 90
        0
176
     1
290
     0
176
     1
 90
        1
176
     1
 40
0.0
176
     1
 90
        0
176
     1
290
     0
176
     1
290
     1
176
     1
290
     1
176
     1
290
     0
176
     1
290
     0
176
     1
290
     0
176
     1
290
     0
176
     1
290
     0
176
     1
290
     0
176
     1
 90
       50
176
     1
 40
0.0
176
     1
 40
1.0
176
     1
 90
        0
176
     1
 62
    18
420
        0
176
     1
 90
       50
176
     1
 90
        3
176
     1
 62
     5
420
      255
176
     1
290
     0
176
     1
 90
       50
176
     1
 90
       50
176
     1
 90
       50
176
     1
290
     0
176
     1
 90
       50
176
     1
 62
   256
176
     0
 40
1.0
176
     0
 90
        2
176
     1
  1
strokes_ogs.tif
176
     1
290
     0
176
     1
 40
1.0
176
     1
 40
1.0
176
     1
  0
VISUALSTYLE
  5
6F1
102
{ACAD_REACTORS
330
6E0
102
}
330
6E0
100
AcDbVisualStyle
  2
JitterOff
 70
    20
177
     3
291
     1
 70
    58
 90
        2
176
     0
 90
        2
176
     0
 90
        0
176
     0
 90
        0
176
     0
 40
0.6
176
     0
 40
30.0
176
     0
 62
     7
420
 16777215
176
     0
 90
        1
176
     0
 90
        4
176
     0
 62
     7
176
     0
 62
   257
176
     0
 90
        1
176
     0
 90
        1
176
     0
 40
1.0
176
     0
 90
       10
176
     2
 62
     7
176
     0
 40
1.0
176
     0
 90
        1
176
     0
 90
        6
176
     0
 90
        2
176
     0
 62
     7
176
     0
 90
        5
176
     0
 90
        0
176
     0
 90
        0
176
     0
290
     0
176
     0
 90
        1
176
     0
 40
0.0
176
     0
 90
        0
176
     0
290
     0
176
     0
290
     1
176
     0
290
     1
176
     0
290
     0
176
     0
290
     0
176
     0
290
     0
176
     0
290
     0
176
     0
290
     0
176
     0
290
     0
176
     0
 90
       50
176
     0
 40
0.0
176
     0
 40
1.0
176
     0
 90
        0
176
     0
 62
    18
420
        0
176
     0
 90
       50
176
     0
 90
        3
176
     0
 62
     5
420
      255
176
     0
290
     0
176
     0
 90
       50
176
     0
 90
       50
176
     0
 90
       50
176
     0
290
     0
176
     0
 90
       50
176
     0
 62
   256
176
     0
 40
1.0
176
     0
 90
        2
176
     0
  1
strokes_ogs.tif
176
     0
290
     0
176
     0
 40
1.0
176
     0
 40
1.0
176
     0
  0
VISUALSTYLE
  5
6EE
102
{ACAD_REACTORS
330
6E0
102
}
330
6E0
100
AcDbVisualStyle
  2
Linepattern
 70
    14
177
     3
291
     1
 70
    58
 90
        2
176
     1
 90
        2
176
     1
 90
        0
176
     1
 90
        0
176
     1
 40
0.6
176
     1
 40
30.0
176
     1
 62
     7
420
 16777215
176
     1
 90
        1
176
     1
 90
        4
176
     1
 62
     7
176
     1
 62
   257
176
     1
 90
        7
176
     1
 90
        7
176
     1
 40
1.0
176
     1
 90
        8
176
     1
 62
     7
176
     1
 40
1.0
176
     1
 90
        1
176
     1
 90
        6
176
     1
 90
        2
176
     1
 62
     7
176
     1
 90
        5
176
     1
 90
        0
176
     1
 90
        0
176
     1
290
     0
176
     1
 90
        1
176
     1
 40
0.0
176
     1
 90
        0
176
     1
290
     0
176
     1
290
     1
176
     1
290
     1
176
     1
290
     0
176
     1
290
     0
176
     1
290
     0
176
     1
290
     0
176
     1
290
     0
176
     1
290
     0
176
     1
 90
       50
176
     1
 40
0.0
176
     1
 40
1.0
176
     1
 90
        0
176
     1
 62
    18
420
        0
176
     1
 90
       50
176
     1
 90
        3
176
     1
 62
     5
420
      255
176
     1
290
     0
176
     1
 90
       50
176
     1
 90
       50
176
     1
 90
       50
176
     1
290
     0
176
     1
 90
       50
176
     1
 62
   256
176
     0
 40
1.0
176
     0
 90
        2
176
     1
  1
strokes_ogs.tif
176
     1
290
     0
176
     1
 40
1.0
176
     1
 40
1.0
176
     1
  0
VISUALSTYLE
  5
6F2
102
{ACAD_REACTORS
330
6E0
102
}
330
6E0
100
AcDbVisualStyle
  2
OverhangOff
 70
    21
177
     3
291
     1
 70
    58
 90
        2
176
     0
 90
        2
176
     0
 90
        0
176
     0
 90
        0
176
     0
 40
0.6
176
     0
 40
30.0
176
     0
 62
     7
420
 16777215
176
     0
 90
        1
176
     0
 90
        4
176
     0
 62
     7
176
     0
 62
   257
176
     0
 90
        1
176
     0
 90
        1
176
     0
 40
1.0
176
     0
 90
        9
176
     2
 62
     7
176
     0
 40
1.0
176
     0
 90
        1
176
     0
 90
        6
176
     0
 90
        2
176
     0
 62
     7
176
     0
 90
        5
176
     0
 90
        0
176
     0
 90
        0
176
     0
290
     0
176
     0
 90
        1
176
     0
 40
0.0
176
     0
 90
        0
176
     0
290
     0
176
     0
290
     1
176
     0
290
     1
176
     0
290
     0
176
     0
290
     0
176
     0
290
     0
176
     0
290
     0
176
     0
290
     0
176
     0
290
     0
176
     0
 90
       50
176
     0
 40
0.0
176
     0
 40
1.0
176
     0
 90
        0
176
     0
 62
    18
420
        0
176
     0
 90
       50
176
     0
 90
        3
176
     0
 62
     5
420
      255
176
     0
290
     0
176
     0
 90
       50
176
     0
 90
       50
176
     0
 90
       50
176
     0
290
     0
176
     0
 90
       50
176
     0
 62
   256
176
     0
 40
1.0
176
     0
 90
        2
176
     0
  1
strokes_ogs.tif
176
     0
290
     0
176
     0
 40
1.0
176
     0
 40
1.0
176
     0
  0
VISUALSTYLE
  5
6E9
102
{ACAD_REACTORS
330
6E0
102
}
330
6E0
100
AcDbVisualStyle
  2
Realistic
 70
     8
177
     3
291
     0
 70
    58
 90
        2
176
     1
 90
        3
176
     1
 90
        0
176
     1
 90
        2
176
     1
 40
0.6
176
     1
 40
30.0
176
     1
 62
     7
420
 16777215
176
     1
 90
        0
176
     1
 90
        0
176
     1
 62
     7
176
     1
 62
   257
176
     1
 90
        1
176
     1
 90
        1
176
     1
 40
1.0
176
     1
 90
        8
176
     1
 62
   257
176
     1
 40
1.0
176
     1
 90
        1
176
     1
 90
        6
176
     1
 90
        2
176
     1
 62
     7
176
     1
 90
        3
176
     1
 90
        0
176
     1
 90
        0
176
     1
290
     0
176
     1
 90
       13
176
     1
 40
0.0
176
     1
 90
        0
176
     1
290
     0
176
     1
290
     1
176
     1
290
     1
176
     1
290
     0
176
     1
290
     0
176
     1
290
     0
176
     1
290
     0
176
     1
290
     0
176
     1
290
     0
176
     1
 90
       50
176
     1
 40
0.0
176
     1
 40
1.0
176
     1
 90
        0
176
     1
 62
    18
420
        0
176
     1
 90
       50
176
     1
 90
        3
176
     1
 62
     5
420
      255
176
     1
290
     0
176
     1
 90
       50
176
     1
 90
       50
176
     1
 90
       50
176
     1
290
     0
176
     1
 90
       50
176
     1
 62
   256
176
     0
 40
1.0
176
     0
 90
        2
176
     1
  1
strokes_ogs.tif
176
     1
290
     0
176
     1
 40
1.0
176
     1
 40
1.0
176
     1
  0
VISUALSTYLE
  5
6F8
102
{ACAD_REACTORS
330
6E0
102
}
330
6E0
100
AcDbVisualStyle
  2
Shaded
 70
    27
177
     3
291
     0
 70
    58
 90
        2
176
     1
 90
        2
176
     1
 90
        1
176
     1
 90
        2
176
     1
 40
0.6
176
     1
 40
30.0
176
     1
 62
     7
420
 16777215
176
     1
 90
        0
176
     1
 90
        4
176
     1
 62
     7
176
     1
 62
   257
176
     1
 90
        1
176
     1
 90
        1
176
     1
 40
1.0
176
     1
 90
        8
176
     1
 62
   257
176
     1
 40
1.0
176
     1
 90
        1
176
     1
 90
        6
176
     1
 90
        2
176
     1
 62
     8
420
  7895160
176
     1
 90
        3
176
     1
 90
        0
176
     1
 90
        0
176
     1
290
     0
176
     1
 90
        5
176
     1
 40
0.0
176
     1
 90
        0
176
     1
290
     0
176
     1
290
     1
176
     1
290
     1
176
     1
290
     0
176
     1
290
     0
176
     1
290
     0
176
     1
290
     0
176
     1
290
     0
176
     1
290
     0
176
     1
 90
       50
176
     1
 40
0.0
176
     1
 40
1.0
176
     1
 90
        0
176
     1
 62
    18
420
        0
176
     1
 90
       50
176
     1
 90
        3
176
     1
 62
     5
420
      255
176
     1
290
     0
176
     1
 90
       50
176
     1
 90
       50
176
     1
 90
       50
176
     1
290
     0
176
     1
 90
       50
176
     1
 62
   256
176
     0
 40
1.0
176
     0
 90
        2
176
     1
  1
strokes_ogs.tif
176
     1
290
     0
176
     1
 40
1.0
176
     1
 40
1.0
176
     1
  0
VISUALSTYLE
  5
6F7
102
{ACAD_REACTORS
330
6E0
102
}
330
6E0
100
AcDbVisualStyle
  2
Shaded with edges
 70
    26
177
     3
291
     0
 70
    58
 90
        2
176
     1
 90
        2
176
     1
 90
        1
176
     1
 90
        2
176
     1
 40
0.6
176
     1
 40
30.0
176
     1
 62
     7
420
 16777215
176
     1
 90
        1
176
     1
 90
       10
176
     1
 62
     7
176
     1
 62
   257
176
     1
 90
        2
176
     1
 90
        1
176
     1
 40
1.0
176
     1
 90
        8
176
     1
 62
   257
176
     1
 40
1.0
176
     1
 90
        1
176
     1
 90
        6
176
     1
 90
        2
176
     1
 62
     7
176
     1
 90
        3
176
     1
 90
        0
176
     1
 90
        0
176
     1
290
     0
176
     1
 90
        5
176
     1
 40
0.0
176
     1
 90
        0
176
     1
290
     0
176
     1
290
     1
176
     1
290
     1
176
     1
290
     0
176
     1
290
     0
176
     1
290
     0
176
     1
290
     0
176
     1
290
     0
176
     1
290
     0
176
     1
 90
       50
176
     1
 40
0.0
176
     1
 40
1.0
176
     1
 90
        0
176
     1
 62
    18
420
        0
176
     1
 90
       50
176
     1
 90
        3
176
     1
 62
     5
420
      255
176
     1
290
     0
176
     1
 90
       50
176
     1
 90
       50
176
     1
 90
       50
176
     1
290
     0
176
     1
 90
       50
176
     1
 62
   256
176
     0
 40
1.0
176
     0
 90
        2
176
     1
  1
strokes_ogs.tif
176
     1
290
     0
176
     1
 40
1.0
176
     1
 40
1.0
176
     1
  0
VISUALSTYLE
  5
6F4
102
{ACAD_REACTORS
330
6E0
102
}
330
6E0
100
AcDbVisualStyle
  2
Shades of Gray
 70
    23
177
     3
291
     0
 70
    58
 90
        2
176
     1
 90
        2
176
     1
 90
        3
176
     1
 90
        0
176
     1
 40
0.6
176
     1
 40
30.0
176
     1
 62
     7
420
 16777215
176
     1
 90
        2
176
     1
 90
        2
176
     1
 62
     7
176
     1
 62
     7
176
     1
 90
        1
176
     1
 90
        1
176
     1
 40
40.0
176
     1
 90
        8
176
     1
 62
     7
176
     1
 40
1.0
176
     1
 90
        1
176
     1
 90
        6
176
     1
 90
        2
176
     1
 62
     7
176
     1
 90
        3
176
     1
 90
        0
176
     1
 90
        0
176
     1
290
     0
176
     1
 90
        1
176
     1
 40
0.0
176
     1
 90
        0
176
     1
290
     0
176
     1
290
     1
176
     1
290
     1
176
     1
290
     0
176
     1
290
     0
176
     1
290
     0
176
     1
290
     0
176
     1
290
     0
176
     1
290
     0
176
     1
 90
       50
176
     1
 40
0.0
176
     1
 40
1.0
176
     1
 90
        0
176
     1
 62
    18
420
        0
176
     1
 90
       50
176
     1
 90
        3
176
     1
 62
     5
420
      255
176
     1
290
     0
176
     1
 90
       50
176
     1
 90
       50
176
     1
 90
       50
176
     1
290
     0
176
     1
 90
       50
176
     1
 62
   256
176
     0
 40
1.0
176
     0
 90
        2
176
     1
  1
strokes_ogs.tif
176
     1
290
     0
176
     1
 40
1.0
176
     1
 40
1.0
176
     1
  0
VISUALSTYLE
  5
6F5
102
{ACAD_REACTORS
330
6E0
102
}
330
6E0
100
AcDbVisualStyle
  2
Sketchy
 70
    24
177
     3
291
     0
 70
    58
 90
        1
176
     1
 90
        2
176
     1
 90
        2
176
     1
 90
        0
176
     1
 40
0.6
176
     1
 40
30.0
176
     1
 62
     7
420
 16777215
176
     1
 90
        2
176
     1
 90
        2
176
     1
 62
     7
176
     1
 62
     7
176
     1
 90
        1
176
     1
 90
        1
176
     1
 40
40.0
176
     1
 90
       11
176
     1
 62
     7
176
     1
 40
1.0
176
     1
 90
        1
176
     1
 90
        6
176
     1
 90
        2
176
     1
 62
     7
176
     1
 90
        6
176
     1
 90
        0
176
     1
 90
        0
176
     1
290
     0
176
     1
 90
        1
176
     1
 40
0.0
176
     1
 90
        0
176
     1
290
     0
176
     1
290
     1
176
     1
290
     1
176
     1
290
     0
176
     1
290
     0
176
     1
290
     0
176
     1
290
     0
176
     1
290
     0
176
     1
290
     0
176
     1
 90
       50
176
     1
 40
0.0
176
     1
 40
1.0
176
     1
 90
        0
176
     1
 62
    18
420
        0
176
     1
 90
       50
176
     1
 90
        3
176
     1
 62
     5
420
      255
176
     1
290
     0
176
     1
 90
       50
176
     1
 90
       50
176
     1
 90
       50
176
     1
290
     0
176
     1
 90
       50
176
     1
 62
   256
176
     0
 40
1.0
176
     0
 90
        2
176
     1
  1
strokes_ogs.tif
176
     1
290
     0
176
     1
 40
1.0
176
     1
 40
1.0
176
     1
  0
VISUALSTYLE
  5
6ED
102
{ACAD_REACTORS
330
6E0
102
}
330
6E0
100
AcDbVisualStyle
  2
Thicken
 70
    13
177
     3
291
     1
 70
    58
 90
        2
176
     1
 90
        2
176
     1
 90
        0
176
     1
 90
        0
176
     1
 40
0.6
176
     1
 40
30.0
176
     1
 62
     7
420
 16777215
176
     1
 90
        1
176
     1
 90
        4
176
     1
 62
     7
176
     1
 62
   257
176
     1
 90
        1
176
     1
 90
        1
176
     1
 40
1.0
176
     1
 90
       12
176
     1
 62
     7
176
     1
 40
1.0
176
     1
 90
        1
176
     1
 90
        6
176
     1
 90
        2
176
     1
 62
     7
176
     1
 90
        5
176
     1
 90
        0
176
     1
 90
        0
176
     1
290
     0
176
     1
 90
        1
176
     1
 40
0.0
176
     1
 90
        0
176
     1
290
     0
176
     1
290
     1
176
     1
290
     1
176
     1
290
     0
176
     1
290
     0
176
     1
290
     0
176
     1
290
     0
176
     1
290
     0
176
     1
290
     0
176
     1
 90
       50
176
     1
 40
0.0
176
     1
 40
1.0
176
     1
 90
        0
176
     1
 62
    18
420
        0
176
     1
 90
       50
176
     1
 90
        3
176
     1
 62
     5
420
      255
176
     1
290
     0
176
     1
 90
       50
176
     1
 90
       50
176
     1
 90
       50
176
     1
290
     0
176
     1
 90
       50
176
     1
 62
   256
176
     0
 40
1.0
176
     0
 90
        2
176
     1
  1
strokes_ogs.tif
176
     1
290
     0
176
     1
 40
1.0
176
     1
 40
1.0
176
     1
  0
VISUALSTYLE
  5
6E6
102
{ACAD_REACTORS
330
6E0
102
}
330
6E0
100
AcDbVisualStyle
  2
Wireframe
 70
     5
177
     3
291
     0
 70
    58
 90
        0
176
     1
 90
        2
176
     1
 90
        0
176
     1
 90
        0
176
     1
 40
0.6
176
     1
 40
30.0
176
     1
 62
     7
420
 16777215
176
     1
 90
        1
176
     1
 90
        4
176
     1
 62
     7
176
     1
 62
   257
176
     1
 90
        1
176
     1
 90
        1
176
     1
 40
1.0
176
     1
 90
        0
176
     1
 62
   257
176
     1
 40
1.0
176
     1
 90
        1
176
     1
 90
        6
176
     1
 90
        2
176
     1
 62
     7
176
     1
 90
        3
176
     1
 90
        0
176
     1
 90
        0
176
     1
290
     0
176
     1
 90
        1
176
     1
 40
0.0
176
     1
 90
        0
176
     1
290
     0
176
     1
290
     1
176
     1
290
     1
176
     1
290
     0
176
     1
290
     0
176
     1
290
     0
176
     1
290
     0
176
     1
290
     0
176
     1
290
     0
176
     1
 90
       50
176
     1
 40
0.0
176
     1
 40
1.0
176
     1
 90
        0
176
     1
 62
    18
420
        0
176
     1
 90
       50
176
     1
 90
        3
176
     1
 62
     5
420
      255
176
     1
290
     0
176
     1
 90
       50
176
     1
 90
       50
176
     1
 90
       50
176
     1
290
     0
176
     1
 90
       50
176
     1
 62
   256
176
     0
 40
1.0
176
     0
 90
        2
176
     1
  1
strokes_ogs.tif
176
     1
290
     0
176
     1
 40
1.0
176
     1
 40
1.0
176
     1
  0
VISUALSTYLE
  5
6F6
102
{ACAD_REACTORS
330
6E0
102
}
330
6E0
100
AcDbVisualStyle
  2
X-Ray
 70
    25
177
     3
291
     0
 70
    58
 90
        2
176
     1
 90
        2
176
     1
 90
        1
176
     1
 90
        1
176
     1
 40
0.5
176
     1
 40
30.0
176
     1
 62
     7
420
 16777215
176
     1
 90
        1
176
     1
 90
        0
176
     1
 62
     7
176
     1
 62
   257
176
     1
 90
        1
176
     1
 90
        1
176
     1
 40
1.0
176
     1
 90
        8
176
     1
 62
     7
176
     1
 40
1.0
176
     1
 90
        1
176
     1
 90
        6
176
     1
 90
        2
176
     1
 62
     7
176
     1
 90
        3
176
     1
 90
        0
176
     1
 90
        0
176
     1
290
     0
176
     1
 90
       13
176
     1
 40
0.0
176
     1
 90
        0
176
     1
290
     0
176
     1
290
     1
176
     1
290
     1
176
     1
290
     0
176
     1
290
     0
176
     1
290
     0
176
     1
290
     0
176
     1
290
     0
176
     1
290
     0
176
     1
 90
       50
176
     1
 40
0.0
176
     1
 40
1.0
176
     1
 90
        0
176
     1
 62
    18
420
        0
176
     1
 90
       50
176
     1
 90
        3
176
     1
 62
     5
420
      255
176
     1
290
     0
176
     1
 90
       50
176
     1
 90
       50
176
     1
 90
       50
176
     1
290
     0
176
     1
 90
       50
176
     1
 62
   256
176
     0
 40
1.0
176
     0
 90
        2
176
     1
  1
strokes_ogs.tif
176
     1
290
     0
176
     1
 40
1.0
176
     1
 40
1.0
176
     1
  0
DICTIONARYVAR
  5
701
102
{ACAD_REACTORS
330
700
102
}
330
700
100
DictionaryVariables
280
     0
  1
1:1
  0
DICTIONARYVAR
  5
706
102
{ACAD_REACTORS
330
700
102
}
330
700
100
DictionaryVariables
280
     0
  1
Standard
  0
DICTIONARYVAR
  5
705
102
{ACAD_REACTORS
330
700
102
}
330
700
100
DictionaryVariables
280
     0
  1
Standard
  0
DICTIONARYVAR
  5
707
102
{ACAD_REACTORS
330
700
102
}
330
700
100
DictionaryVariables
280
     0
  1
0
  0
DICTIONARY
  5
702
330
6FA
100
AcDbDictionary
280
     1
281
     1
  3
ACAD_ROUNDTRIP_2008_TABLESTYLE_CELLSTYLEMAP
360
703
  0
CELLSTYLEMAP
  5
703
102
{ACAD_REACTORS
330
702
102
}
330
702
100
AcDbCellStyleMap
 90
        3
300
CELLSTYLE
  1
TABLEFORMAT_BEGIN
 90
        5
170
     1
 91
        0
 92
    32768
 62
   257
 93
        1
300
CONTENTFORMAT
  1
CONTENTFORMAT_BEGIN
 90
        0
 91
        0
 92
        4
 93
        0
300

 40
0.0
140
1.0
 94
        5
 62
     0
340
69A
144
0.25
309
CONTENTFORMAT_END
171
     1
301
MARGIN
  1
CELLMARGIN_BEGIN
 40
0.06
 40
0.06
 40
0.06
 40
0.06
 40
0.06
 40
0.06
309
CELLMARGIN_END
 94
        6
 95
        1
302
GRIDFORMAT
  1
GRIDFORMAT_BEGIN
 90
        0
 91
        1
 62
     0
 92
       -2
340
69C
 93
        0
 40
0.045
309
GRIDFORMAT_END
 95
        2
302
GRIDFORMAT
  1
GRIDFORMAT_BEGIN
 90
        0
 91
        1
 62
     0
 92
       -2
340
69C
 93
        0
 40
0.045
309
GRIDFORMAT_END
 95
        4
302
GRIDFORMAT
  1
GRIDFORMAT_BEGIN
 90
        0
 91
        1
 62
     0
 92
       -2
340
69C
 93
        0
 40
0.045
309
GRIDFORMAT_END
 95
        8
302
GRIDFORMAT
  1
GRIDFORMAT_BEGIN
 90
        0
 91
        1
 62
     0
 92
       -2
340
69C
 93
        0
 40
0.045
309
GRIDFORMAT_END
 95
       16
302
GRIDFORMAT
  1
GRIDFORMAT_BEGIN
 90
        0
 91
        1
 62
     0
 92
       -2
340
69C
 93
        0
 40
0.045
309
GRIDFORMAT_END
 95
       32
302
GRIDFORMAT
  1
GRIDFORMAT_BEGIN
 90
        0
 91
        1
 62
     0
 92
       -2
340
69C
 93
        0
 40
0.045
309
GRIDFORMAT_END
309
TABLEFORMAT_END
  1
CELLSTYLE_BEGIN
 90
        1
 91
        1
300
_TITLE
309
CELLSTYLE_END
300
CELLSTYLE
  1
TABLEFORMAT_BEGIN
 90
        5
170
     1
 91
        0
 92
        0
 62
   257
 93
        1
300
CONTENTFORMAT
  1
CONTENTFORMAT_BEGIN
 90
        0
 91
        0
 92
        4
 93
        0
300

 40
0.0
140
1.0
 94
        5
 62
     0
340
69A
144
0.18
309
CONTENTFORMAT_END
171
     1
301
MARGIN
  1
CELLMARGIN_BEGIN
 40
0.06
 40
0.06
 40
0.06
 40
0.06
 40
0.06
 40
0.06
309
CELLMARGIN_END
 94
        6
 95
        1
302
GRIDFORMAT
  1
GRIDFORMAT_BEGIN
 90
        0
 91
        1
 62
     0
 92
       -2
340
69C
 93
        0
 40
0.045
309
GRIDFORMAT_END
 95
        2
302
GRIDFORMAT
  1
GRIDFORMAT_BEGIN
 90
        0
 91
        1
 62
     0
 92
       -2
340
69C
 93
        0
 40
0.045
309
GRIDFORMAT_END
 95
        4
302
GRIDFORMAT
  1
GRIDFORMAT_BEGIN
 90
        0
 91
        1
 62
     0
 92
       -2
340
69C
 93
        0
 40
0.045
309
GRIDFORMAT_END
 95
        8
302
GRIDFORMAT
  1
GRIDFORMAT_BEGIN
 90
        0
 91
        1
 62
     0
 92
       -2
340
69C
 93
        0
 40
0.045
309
GRIDFORMAT_END
 95
       16
302
GRIDFORMAT
  1
GRIDFORMAT_BEGIN
 90
        0
 91
        1
 62
     0
 92
       -2
340
69C
 93
        0
 40
0.045
309
GRIDFORMAT_END
 95
       32
302
GRIDFORMAT
  1
GRIDFORMAT_BEGIN
 90
        0
 91
        1
 62
     0
 92
       -2
340
69C
 93
        0
 40
0.045
309
GRIDFORMAT_END
309
TABLEFORMAT_END
  1
CELLSTYLE_BEGIN
 90
        2
 91
        1
300
_HEADER
309
CELLSTYLE_END
300
CELLSTYLE
  1
TABLEFORMAT_BEGIN
 90
        5
170
     1
 91
        0
 92
        0
 62
   257
 93
        1
300
CONTENTFORMAT
  1
CONTENTFORMAT_BEGIN
 90
        0
 91
        0
 92
        4
 93
        0
300

 40
0.0
140
1.0
 94
        2
 62
     0
340
69A
144
0.18
309
CONTENTFORMAT_END
171
     1
301
MARGIN
  1
CELLMARGIN_BEGIN
 40
0.06
 40
0.06
 40
0.06
 40
0.06
 40
0.06
 40
0.06
309
CELLMARGIN_END
 94
        6
 95
        1
302
GRIDFORMAT
  1
GRIDFORMAT_BEGIN
 90
        0
 91
        1
 62
     0
 92
       -2
340
69C
 93
        0
 40
0.045
309
GRIDFORMAT_END
 95
        2
302
GRIDFORMAT
  1
GRIDFORMAT_BEGIN
 90
        0
 91
        1
 62
     0
 92
       -2
340
69C
 93
        0
 40
0.045
309
GRIDFORMAT_END
 95
        4
302
GRIDFORMAT
  1
GRIDFORMAT_BEGIN
 90
        0
 91
        1
 62
     0
 92
       -2
340
69C
 93
        0
 40
0.045
309
GRIDFORMAT_END
 95
        8
302
GRIDFORMAT
  1
GRIDFORMAT_BEGIN
 90
        0
 91
        1
 62
     0
 92
       -2
340
69C
 93
        0
 40
0.045
309
GRIDFORMAT_END
 95
       16
302
GRIDFORMAT
  1
GRIDFORMAT_BEGIN
 90
        0
 91
        1
 62
     0
 92
       -2
340
69C
 93
        0
 40
0.045
309
GRIDFORMAT_END
 95
       32
302
GRIDFORMAT
  1
GRIDFORMAT_BEGIN
 90
        0
 91
        1
 62
     0
 92
       -2
340
69C
 93
        0
 40
0.045
309
GRIDFORMAT_END
309
TABLEFORMAT_END
  1
CELLSTYLE_BEGIN
 90
        3
 91
        2
300
_DATA
309
CELLSTYLE_END
  0
ENDSEC
  0
EOF
