  0
SECTION
  2
HEADER
  9
$ACADVER
  1
AC1024
  9
$ACADMAINTVER
 70
     6
  9
$DWGCODEPAGE
  3
ANSI_1252
  9
$INSBASE
 10
0.0
 20
0.0
 30
0.0
  9
$EXTMIN
 10
0.0
 20
0.0
 30
0.0
  9
$EXTMAX
 10
594.0
 20
841.0
 30
0.0
  9
$LIMMIN
 10
0.0
 20
0.0
  9
$LIMMAX
 10
594.0
 20
841.0
  9
$ORTHOMODE
 70
     0
  9
$REGENMODE
 70
     1
  9
$FILLMODE
 70
     1
  9
$QTEXTMODE
 70
     0
  9
$MIRRTEXT
 70
     1
  9
$LTSCALE
 40
1.0
  9
$ATTMODE
 70
     1
  9
$TEXTSIZE
 40
10.0
  9
$TRACEWID
 40
1.0
  9
$TEXTSTYLE
  7
Standard
  9
$CLAYER
  8
0
  9
$CELTYPE
  6
ByLayer
  9
$CECOLOR
 62
   256
  9
$CELTSCALE
 40
1.0
  9
$DISPSILH
 70
     0
  9
$DIMSCALE
 40
1.0
  9
$DIMASZ
 40
2.5
  9
$DIMEXO
 40
0.0
  9
$DIMDLI
 40
3.75
  9
$DIMRND
 40
0.0
  9
$DIMDLE
 40
0.0
  9
$DIMEXE
 40
1.0
  9
$DIMTP
 40
0.0
  9
$DIMTM
 40
0.0
  9
$DIMTXT
 40
3.5
  9
$DIMCEN
 40
2.5
  9
$DIMTSZ
 40
0.0
  9
$DIMTOL
 70
     0
  9
$DIMLIM
 70
     0
  9
$DIMTIH
 70
     1
  9
$DIMTOH
 70
     1
  9
$DIMSE1
 70
     0
  9
$DIMSE2
 70
     0
  9
$DIMTAD
 70
     1
  9
$DIMZIN
 70
     0
  9
$DIMBLK
  1

  9
$DIMASO
 70
     1
  9
$DIMSHO
 70
     1
  9
$DIMPOST
  1

  9
$DIMAPOST
  1

  9
$DIMALT
 70
     0
  9
$DIMALTD
 70
     3
  9
$DIMALTF
 40
0.0393700787
  9
$DIMLFAC
 40
1.0
  9
$DIMTOFL
 70
     1
  9
$DIMTVP
 40
0.0
  9
$DIMTIX
 70
     0
  9
$DIMSOXD
 70
     0
  9
$DIMSAH
 70
     0
  9
$DIMBLK1
  1

  9
$DIMBLK2
  1

  9
$DIMSTYLE
  2
ISO-25
  9
$DIMCLRD
 70
     0
  9
$DIMCLRE
 70
     0
  9
$DIMCLRT
 70
     0
  9
$DIMTFAC
 40
1.0
  9
$DIMGAP
 40
1.5
  9
$DIMJUST
 70
     0
  9
$DIMSD1
 70
     0
  9
$DIMSD2
 70
     0
  9
$DIMTOLJ
 70
     0
  9
$DIMTZIN
 70
     0
  9
$DIMALTZ
 70
     0
  9
$DIMALTTZ
 70
     0
  9
$DIMUPT
 70
     0
  9
$DIMDEC
 70
     2
  9
$DIMTDEC
 70
     2
  9
$DIMALTU
 70
     2
  9
$DIMALTTD
 70
     3
  9
$DIMTXSTY
  7
Standard
  9
$DIMAUNIT
 70
     0
  9
$DIMADEC
 70
     2
  9
$DIMALTRND
 40
0.0
  9
$DIMAZIN
 70
     0
  9
$DIMDSEP
 70
    44
  9
$DIMATFIT
 70
     3
  9
$DIMFRAC
 70
     0
  9
$DIMLDRBLK
  1

  9
$DIMLUNIT
 70
     2
  9
$DIMLWD
 70
    -2
  9
$DIMLWE
 70
    -2
  9
$DIMTMOVE
 70
     0
  9
$DIMFXL
 40
1.0
  9
$DIMFXLON
 70
     0
  9
$DIMJOGANG
 40
0.7853981634
  9
$DIMTFILL
 70
     0
  9
$DIMTFILLCLR
 70
     0
  9
$DIMARCSYM
 70
     0
  9
$DIMLTYPE
  6

  9
$DIMLTEX1
  6

  9
$DIMLTEX2
  6

  9
$DIMTXTDIRECTION
 70
     0
  9
$LUNITS
 70
     2
  9
$LUPREC
 70
     2
  9
$SKETCHINC
 40
1.0
  9
$FILLETRAD
 40
10.0
  9
$AUNITS
 70
     0
  9
$AUPREC
 70
     2
  9
$MENU
  1
.
  9
$ELEVATION
 40
0.0
  9
$PELEVATION
 40
0.0
  9
$THICKNESS
 40
0.0
  9
$LIMCHECK
 70
     0
  9
$CHAMFERA
 40
10.0
  9
$CHAMFERB
 40
10.0
  9
$CHAMFERC
 40
20.0
  9
$CHAMFERD
 40
0.0
  9
$SKPOLY
 70
     0
  9
$TDCREATE
 40
2456156.551683218
  9
$TDUCREATE
 40
2456156.468349884
  9
$TDUPDATE
 40
2456156.551683229
  9
$TDUUPDATE
 40
2456156.468349896
  9
$TDINDWG
 40
0.0000000116
  9
$TDUSRTIMER
 40
0.0000000116
  9
$USRTIMER
 70
     1
  9
$ANGBASE
 50
0.0
  9
$ANGDIR
 70
     0
  9
$PDMODE
 70
     0
  9
$PDSIZE
 40
-1.0
  9
$PLINEWID
 40
0.0
  9
$SPLFRAME
 70
     0
  9
$SPLINETYPE
 70
     6
  9
$SPLINESEGS
 70
     8
  9
$HANDSEED
  5
C3
  9
$SURFTAB1
 70
     6
  9
$SURFTAB2
 70
     6
  9
$SURFTYPE
 70
     6
  9
$SURFU
 70
     6
  9
$SURFV
 70
     6
  9
$UCSBASE
  2

  9
$UCSNAME
  2

  9
$UCSORG
 10
0.0
 20
0.0
 30
0.0
  9
$UCSXDIR
 10
1.0
 20
0.0
 30
0.0
  9
$UCSYDIR
 10
0.0
 20
1.0
 30
0.0
  9
$UCSORTHOREF
  2

  9
$UCSORTHOVIEW
 70
     0
  9
$UCSORGTOP
 10
0.0
 20
0.0
 30
0.0
  9
$UCSORGBOTTOM
 10
0.0
 20
0.0
 30
0.0
  9
$UCSORGLEFT
 10
0.0
 20
0.0
 30
0.0
  9
$UCSORGRIGHT
 10
0.0
 20
0.0
 30
0.0
  9
$UCSORGFRONT
 10
0.0
 20
0.0
 30
0.0
  9
$UCSORGBACK
 10
0.0
 20
0.0
 30
0.0
  9
$PUCSBASE
  2

  9
$PUCSNAME
  2

  9
$PUCSORG
 10
0.0
 20
0.0
 30
0.0
  9
$PUCSXDIR
 10
1.0
 20
0.0
 30
0.0
  9
$PUCSYDIR
 10
0.0
 20
1.0
 30
0.0
  9
$PUCSORTHOREF
  2

  9
$PUCSORTHOVIEW
 70
     0
  9
$PUCSORGTOP
 10
0.0
 20
0.0
 30
0.0
  9
$PUCSORGBOTTOM
 10
0.0
 20
0.0
 30
0.0
  9
$PUCSORGLEFT
 10
0.0
 20
0.0
 30
0.0
  9
$PUCSORGRIGHT
 10
0.0
 20
0.0
 30
0.0
  9
$PUCSORGFRONT
 10
0.0
 20
0.0
 30
0.0
  9
$PUCSORGBACK
 10
0.0
 20
0.0
 30
0.0
  9
$USERI1
 70
     0
  9
$USERI2
 70
     0
  9
$USERI3
 70
     0
  9
$USERI4
 70
     0
  9
$USERI5
 70
     0
  9
$USERR1
 40
0.0
  9
$USERR2
 40
0.0
  9
$USERR3
 40
0.0
  9
$USERR4
 40
0.0
  9
$USERR5
 40
0.0
  9
$WORLDVIEW
 70
     1
  9
$SHADEDGE
 70
     3
  9
$SHADEDIF
 70
    70
  9
$TILEMODE
 70
     1
  9
$MAXACTVP
 70
    64
  9
$PINSBASE
 10
0.0
 20
0.0
 30
0.0
  9
$PLIMCHECK
 70
     0
  9
$PEXTMIN
 10
1.0000000000E+20
 20
1.0000000000E+20
 30
1.0000000000E+20
  9
$PEXTMAX
 10
-1.0000000000E+20
 20
-1.0000000000E+20
 30
-1.0000000000E+20
  9
$PLIMMIN
 10
0.0
 20
0.0
  9
$PLIMMAX
 10
420.0
 20
297.0
  9
$UNITMODE
 70
     0
  9
$VISRETAIN
 70
     1
  9
$PLINEGEN
 70
     0
  9
$PSLTSCALE
 70
     1
  9
$TREEDEPTH
 70
  3020
  9
$CMLSTYLE
  2
Standard
  9
$CMLJUST
 70
     0
  9
$CMLSCALE
 40
20.0
  9
$PROXYGRAPHICS
 70
     1
  9
$MEASUREMENT
 70
     1
  9
$CELWEIGHT
370
    -1
  9
$ENDCAPS
280
     0
  9
$JOINSTYLE
280
     0
  9
$LWDISPLAY
290
     1
  9
$INSUNITS
 70
     4
  9
$HYPERLINKBASE
  1

  9
$STYLESHEET
  1

  9
$XEDIT
290
     1
  9
$CEPSNTYPE
380
     0
  9
$PSTYLEMODE
290
     1
  9
$FINGERPRINTGUID
  2
{29D9B740-5CF4-4F3F-BE5B-15645F94A49F}
  9
$VERSIONGUID
  2
{FAEB1C32-E019-11D5-929B-00C0DF256EC4}
  9
$EXTNAMES
290
     1
  9
$PSVPSCALE
 40
0.0
  9
$OLESTARTUP
290
     0
  9
$SORTENTS
280
   127
  9
$INDEXCTL
280
     0
  9
$HIDETEXT
280
     1
  9
$XCLIPFRAME
280
     2
  9
$HALOGAP
280
     0
  9
$OBSCOLOR
 70
   257
  9
$OBSLTYPE
280
     0
  9
$INTERSECTIONDISPLAY
280
     0
  9
$INTERSECTIONCOLOR
 70
   257
  9
$DIMASSOC
280
     2
  9
$PROJECTNAME
  1

  9
$CAMERADISPLAY
290
     0
  9
$LENSLENGTH
 40
50.0
  9
$CAMERAHEIGHT
 40
0.0
  9
$STEPSPERSEC
 40
2.0
  9
$STEPSIZE
 40
6.0
  9
$3DDWFPREC
 40
2.0
  9
$PSOLWIDTH
 40
5.0
  9
$PSOLHEIGHT
 40
80.0
  9
$LOFTANG1
 40
1.5707963268
  9
$LOFTANG2
 40
1.5707963268
  9
$LOFTMAG1
 40
0.0
  9
$LOFTMAG2
 40
0.0
  9
$LOFTPARAM
 70
     7
  9
$LOFTNORMALS
280
     1
  9
$LATITUDE
 40
37.795
  9
$LONGITUDE
 40
-122.394
  9
$NORTHDIRECTION
 40
0.0
  9
$TIMEZONE
 70
 -8000
  9
$LIGHTGLYPHDISPLAY
280
     1
  9
$TILEMODELIGHTSYNCH
280
     1
  9
$SOLIDHIST
280
     1
  9
$SHOWHIST
280
     1
  9
$DWFFRAME
280
     2
  9
$DGNFRAME
280
     2
  9
$REALWORLDSCALE
290
     1
  9
$INTERFERECOLOR
 62
   256
  9
$CSHADOW
280
     0
  9
$SHADOWPLANELOCATION
 40
0.0
  0
ENDSEC
  0
SECTION
  2
CLASSES
  0
CLASS
  1
ACDBDICTIONARYWDFLT
  2
AcDbDictionaryWithDefault
  3
ObjectDBX Classes
 90
        0
 91
        4
280
     0
281
     0
  0
CLASS
  1
VISUALSTYLE
  2
AcDbVisualStyle
  3
ObjectDBX Classes
 90
     4095
 91
        4
280
     0
281
     0
  0
CLASS
  1
MATERIAL
  2
AcDbMaterial
  3
ObjectDBX Classes
 90
     1153
 91
        4
280
     0
281
     0
  0
ENDSEC
  0
SECTION
  2
TABLES
  0
TABLE
  2
VPORT
  5
8
330
0
100
AcDbSymbolTable
 70
     1
  0
VPORT
  5
29
330
8
100
AcDbSymbolTableRecord
100
AcDbViewportTableRecord
  2
*Active
 70
     0
 10
0.0
 20
0.0
 11
1.0
 21
1.0
 12
297.0
 22
420.5
 13
0.0
 23
0.0
 14
10.0
 24
10.0
 15
10.0
 25
10.0
 16
0.0
 26
0.0
 36
1.0
 17
0.0
 27
0.0
 37
0.0
 40
841.0
 41
0.7063020214
 42
50.0
 43
0.0
 44
0.0
 50
0.0
 51
0.0
 71
     0
 72
  2000
 73
     1
 74
     3
 75
     0
 76
     0
 77
     0
 78
     0
281
     0
 65
     1
110
0.0
120
0.0
130
0.0
111
1.0
121
0.0
131
0.0
112
0.0
122
1.0
132
0.0
 79
     0
146
0.0
 60
     3
 61
     5
292
     1
282
     1
141
0.0
142
0.0
 63
   250
  0
ENDTAB
  0
TABLE
  2
LTYPE
  5
5
330
0
100
AcDbSymbolTable
 70
     6
  0
LTYPE
  5
14
330
5
100
AcDbSymbolTableRecord
100
AcDbLinetypeTableRecord
  2
ByBlock
 70
     0
  3

 72
    65
 73
     0
 40
0.0
  0
LTYPE
  5
15
330
5
100
AcDbSymbolTableRecord
100
AcDbLinetypeTableRecord
  2
ByLayer
 70
     0
  3

 72
    65
 73
     0
 40
0.0
  0
LTYPE
  5
16
330
5
100
AcDbSymbolTableRecord
100
AcDbLinetypeTableRecord
  2
Continuous
 70
     0
  3
Solid line
 72
    65
 73
     0
 40
0.0
  0
LTYPE
  5
3F
330
5
100
AcDbSymbolTableRecord
100
AcDbLinetypeTableRecord
  2
HIDDEN
 70
     0
  3
Hidden __ __ __ __ __ __ __ __ __ __ __ __ __ __
 72
    65
 73
     2
 40
1.905
 49
1.27
 74
     0
 49
-0.635
 74
     0
  0
LTYPE
  5
40
330
5
100
AcDbSymbolTableRecord
100
AcDbLinetypeTableRecord
  2
PHANTOM
 70
     0
  3
Phantom ______  __  __  ______  __  __  ______
 72
    65
 73
     6
 40
12.7
 49
6.35
 74
     0
 49
-1.27
 74
     0
 49
1.27
 74
     0
 49
-1.27
 74
     0
 49
1.27
 74
     0
 49
-1.27
 74
     0
  0
LTYPE
  5
41
330
5
100
AcDbSymbolTableRecord
100
AcDbLinetypeTableRecord
  2
CENTER
 70
     0
  3
Center ____ _ ____ _ ____ _ ____ _ ____ _ ____
 72
    65
 73
     4
 40
10.16
 49
6.35
 74
     0
 49
-1.27
 74
     0
 49
1.27
 74
     0
 49
-1.27
 74
     0
  0
LTYPE
  5
42
330
5
100
AcDbSymbolTableRecord
100
AcDbLinetypeTableRecord
  2
CENTERX2
 70
     0
  3
Center (2x) ________  __  ________  __  _____
 72
    65
 73
     4
 40
20.32
 49
12.7
 74
     0
 49
-2.54
 74
     0
 49
2.54
 74
     0
 49
-2.54
 74
     0
  0
LTYPE
  5
43
330
5
100
AcDbSymbolTableRecord
100
AcDbLinetypeTableRecord
  2
DOT2
 70
     0
  3
Dot (.5x) ........................................
 72
    65
 73
     2
 40
0.635
 49
0.0
 74
     0
 49
-0.635
 74
     0
  0
ENDTAB
  0
TABLE
  2
LAYER
  5
2
330
0
100
AcDbSymbolTable
 70
     1
  0
LAYER
  5
10
330
2
100
AcDbSymbolTableRecord
100
AcDbLayerTableRecord
  2
0
 70
     0
 62
     7
  6
Continuous
370
    -3
390
F
347
3E
  0
ENDTAB
  0
TABLE
  2
STYLE
  5
3
330
0
100
AcDbSymbolTable
 70
     3
  0
STYLE
  5
11
330
3
100
AcDbSymbolTableRecord
100
AcDbTextStyleTableRecord
  2
Standard
 70
     0
 40
0.0
 41
1.0
 50
0.0
 71
     0
 42
2.5
  3
txt
  4

  0
STYLE
  5
47
330
3
100
AcDbSymbolTableRecord
100
AcDbTextStyleTableRecord
  2
SLDTEXTSTYLE0
 70
     0
 40
0.0
 41
0.96
 50
0.0
 71
     0
 42
0.2
  3
ISOCP3
  4

  0
STYLE
  5
5E
330
3
100
AcDbSymbolTableRecord
100
AcDbTextStyleTableRecord
  2
SLDTEXTSTYLE1
 70
     0
 40
0.0
 41
0.605
 50
0.0
 71
     0
 42
0.2
  3
TXT
  4

  0
ENDTAB
  0
TABLE
  2
VIEW
  5
6
330
0
100
AcDbSymbolTable
 70
     0
  0
ENDTAB
  0
TABLE
  2
UCS
  5
7
330
0
100
AcDbSymbolTable
 70
     0
  0
ENDTAB
  0
TABLE
  2
APPID
  5
9
330
0
100
AcDbSymbolTable
 70
     1
  0
APPID
  5
12
330
9
100
AcDbSymbolTableRecord
100
AcDbRegAppTableRecord
  2
ACAD
 70
     0
  0
ENDTAB
  0
TABLE
  2
DIMSTYLE
  5
A
330
0
100
AcDbSymbolTable
 70
     2
100
AcDbDimStyleTable
  0
DIMSTYLE
105
27
330
A
100
AcDbSymbolTableRecord
100
AcDbDimStyleTableRecord
  2
ISO-25
 70
     0
 41
2.5
 42
0.625
 43
3.75
 44
1.25
 73
     0
 74
     0
 77
     1
 78
     8
140
2.5
141
2.5
143
0.0393700787
147
0.625
171
     3
172
     1
178
     0
271
     2
272
     2
274
     3
278
    44
283
     0
284
     8
340
11
  0
DIMSTYLE
105
48
102
{ACAD_REACTORS
330
46
330
53
102
}
330
A
100
AcDbSymbolTableRecord
100
AcDbDimStyleTableRecord
  2
SLDDIMSTYLE0
 70
     0
 41
2.5
 44
0.0
 45
0.000000001
 73
     0
 74
     0
 77
     1
 78
    12
 79
     3
140
6.0
147
1.5
173
     1
178
     0
271
     2
272
     2
276
     2
284
    12
340
47
  0
ENDTAB
  0
TABLE
  2
BLOCK_RECORD
  5
1
330
0
100
AcDbSymbolTable
 70
     3
  0
BLOCK_RECORD
  5
1F
330
1
100
AcDbSymbolTableRecord
100
AcDbBlockTableRecord
  2
*Model_Space
340
22
 70
     0
280
     1
281
     0
  0
BLOCK_RECORD
  5
1B
330
1
100
AcDbSymbolTableRecord
100
AcDbBlockTableRecord
  2
*Paper_Space
340
1E
 70
     0
280
     1
281
     0
  0
BLOCK_RECORD
  5
23
330
1
100
AcDbSymbolTableRecord
100
AcDbBlockTableRecord
  2
*Paper_Space0
340
26
 70
     0
280
     1
281
     0
  0
BLOCK_RECORD
  5
49
330
1
100
AcDbSymbolTableRecord
100
AcDbBlockTableRecord
  2
*D1
340
0
 70
     0
280
     1
281
     0
  0
BLOCK_RECORD
  5
54
330
1
100
AcDbSymbolTableRecord
100
AcDbBlockTableRecord
  2
*D2
340
0
 70
     0
280
     1
281
     0
  0
ENDTAB
  0
ENDSEC
  0
SECTION
  2
BLOCKS
  0
BLOCK
  5
20
330
1F
100
AcDbEntity
  8
0
100
AcDbBlockBegin
  2
*Model_Space
 70
     0
 10
0.0
 20
0.0
 30
0.0
  3
*Model_Space
  1

  0
ENDBLK
  5
21
330
1F
100
AcDbEntity
  8
0
100
AcDbBlockEnd
  0
BLOCK
  5
1C
330
1B
100
AcDbEntity
 67
     1
  8
0
100
AcDbBlockBegin
  2
*Paper_Space
 70
     0
 10
0.0
 20
0.0
 30
0.0
  3
*Paper_Space
  1

  0
ENDBLK
  5
1D
330
1B
100
AcDbEntity
 67
     1
  8
0
100
AcDbBlockEnd
  0
BLOCK
  5
24
330
23
100
AcDbEntity
  8
0
100
AcDbBlockBegin
  2
*Paper_Space0
 70
     0
 10
0.0
 20
0.0
 30
0.0
  3
*Paper_Space0
  1

  0
ENDBLK
  5
25
330
23
100
AcDbEntity
  8
0
100
AcDbBlockEnd
  0
BLOCK
  5
4A
330
49
100
AcDbEntity
  8
0
100
AcDbBlockBegin
  2
*D1
 70
     1
 10
0.0
 20
0.0
 30
0.0
  3
*D1
  1

  0
SOLID
  5
4C
330
49
100
AcDbEntity
  8
0
  6
Continuous
 62
     7
370
     0
100
AcDbTrace
 10
42.7614395004
 20
152.0299240879
 30
0.0
 11
42.4614395004
 21
149.5299240879
 31
0.0
 12
43.0614395004
 22
149.5299240879
 32
0.0
 13
43.0614395004
 23
149.5299240879
 33
0.0
  0
SOLID
  5
4D
330
49
100
AcDbEntity
  8
0
  6
Continuous
 62
     7
370
     0
100
AcDbTrace
 10
42.7614395004
 20
52.0299240879
 30
0.0
 11
43.0614395004
 21
54.5299240879
 31
0.0
 12
42.4614395004
 22
54.5299240879
 32
0.0
 13
42.4614395004
 23
54.5299240879
 33
0.0
  0
LINE
  5
4E
330
49
100
AcDbEntity
  8
0
  6
Continuous
 62
     7
370
     0
100
AcDbLine
 10
56.6850079902
 20
152.0299240879
 30
0.0
 11
41.7614395004
 21
152.0299240879
 31
0.0
  0
LINE
  5
4F
330
49
100
AcDbEntity
  8
0
  6
Continuous
 62
     7
370
     0
100
AcDbLine
 10
56.6850079902
 20
52.0299240879
 30
0.0
 11
41.7614395004
 21
52.0299240879
 31
0.0
  0
LINE
  5
50
330
49
100
AcDbEntity
  8
0
  6
Continuous
 62
     7
370
     0
100
AcDbLine
 10
42.7614395004
 20
152.0299240879
 30
0.0
 11
42.7614395004
 21
52.0299240879
 31
0.0
  0
MTEXT
  5
51
330
49
100
AcDbEntity
  8
0
  6
Continuous
 62
     7
370
     0
100
AcDbMText
 10
35.0270332946
 20
91.6722208134
 30
0.1
 40
6.0
 41
0.0
 46
0.0
 71
     1
 72
     1
  1
100
  7
SLDTEXTSTYLE0
 11
-7.044195017643634E-15
 21
1.0
 31
0.0
 73
     1
 44
1.0
  0
MTEXT
  5
52
330
49
100
AcDbEntity
  8
0
  6
Continuous
 62
     7
370
     0
100
AcDbMText
 10
35.0270332946
 20
108.4388881795
 30
0.1
 40
6.0
 41
0.0
 46
0.0
 71
     1
 72
     1
  1
mm
  7
SLDTEXTSTYLE0
 11
-7.044195017643634E-15
 21
1.0
 31
0.0
 73
     1
 44
1.0
  0
ENDBLK
  5
4B
330
49
100
AcDbEntity
  8
0
100
AcDbBlockEnd
  0
BLOCK
  5
55
330
54
100
AcDbEntity
  8
0
100
AcDbBlockBegin
  2
*D2
 70
     1
 10
0.0
 20
0.0
 30
0.0
  3
*D2
  1

  0
SOLID
  5
57
330
54
100
AcDbEntity
  8
0
  6
Continuous
 62
     7
370
     0
100
AcDbTrace
 10
56.6850079902
 20
38.4602342313
 30
0.0
 11
59.1850079902
 21
38.1602342313
 31
0.0
 12
59.1850079902
 22
38.7602342313
 32
0.0
 13
59.1850079902
 23
38.7602342313
 33
0.0
  0
SOLID
  5
58
330
54
100
AcDbEntity
  8
0
  6
Continuous
 62
     7
370
     0
100
AcDbTrace
 10
156.6850079902
 20
38.4602342313
 30
0.0
 11
154.1850079902
 21
38.7602342313
 31
0.0
 12
154.1850079902
 22
38.1602342313
 32
0.0
 13
154.1850079902
 23
38.1602342313
 33
0.0
  0
LINE
  5
59
330
54
100
AcDbEntity
  8
0
  6
Continuous
 62
     7
370
     0
100
AcDbLine
 10
56.6850079902
 20
52.0299240879
 30
0.0
 11
56.6850079902
 21
37.4602342313
 31
0.0
  0
LINE
  5
5A
330
54
100
AcDbEntity
  8
0
  6
Continuous
 62
     7
370
     0
100
AcDbLine
 10
156.6850079902
 20
52.0299240879
 30
0.0
 11
156.6850079902
 21
37.4602342313
 31
0.0
  0
LINE
  5
5B
330
54
100
AcDbEntity
  8
0
  6
Continuous
 62
     7
370
     0
100
AcDbLine
 10
56.6850079902
 20
38.4602342313
 30
0.0
 11
156.6850079902
 21
38.4602342313
 31
0.0
  0
MTEXT
  5
5C
330
54
100
AcDbEntity
  8
0
  6
Continuous
 62
     7
370
     0
100
AcDbMText
 10
91.2668151533
 20
46.1946404371
 30
0.1
 40
6.0
 41
0.0
 46
0.0
 71
     1
 72
     1
  1
100
  7
SLDTEXTSTYLE0
 73
     1
 44
1.0
  0
MTEXT
  5
5D
330
54
100
AcDbEntity
  8
0
  6
Continuous
 62
     7
370
     0
100
AcDbMText
 10
108.0334825193
 20
46.1946404371
 30
0.1
 40
6.0
 41
0.0
 46
0.0
 71
     1
 72
     1
  1
mm
  7
SLDTEXTSTYLE0
 73
     1
 44
1.0
  0
ENDBLK
  5
56
330
54
100
AcDbEntity
  8
0
100
AcDbBlockEnd
  0
ENDSEC
  0
SECTION
  2
ENTITIES
  0
LINE
  5
44
330
1F
100
AcDbEntity
  8
0
  6
Continuous
 62
     7
370
     0
100
AcDbLine
 10
56.6850079902
 20
152.0299240879
 30
0.0
 11
56.6850079902
 21
52.0299240879
 31
0.0
  0
LINE
  5
45
330
1F
100
AcDbEntity
  8
0
  6
Continuous
 62
     7
370
     0
100
AcDbLine
 10
56.6850079902
 20
52.0299240879
 30
0.0
 11
156.6850079902
 21
52.0299240879
 31
0.0
  0
DIMENSION
  5
46
330
1F
100
AcDbEntity
  8
0
  6
Continuous
 62
     7
370
     0
100
AcDbDimension
280
     0
  2
*D1
 10
42.7614395004
 20
52.0299240879
 30
0.0
 11
42.7614395004
 21
105.4472211621
 31
0.0
 70
   160
  1
<>mm
 71
     2
 42
-1.0
 73
     0
 74
     0
 75
     0
  3
SLDDIMSTYLE0
100
AcDbAlignedDimension
 13
56.6850079902
 23
152.0299240879
 33
0.0
 14
56.6850079902
 24
52.0299240879
 34
0.0
 50
90.0
100
AcDbRotatedDimension
  0
DIMENSION
  5
53
330
1F
100
AcDbEntity
  8
0
  6
Continuous
 62
     7
370
     0
100
AcDbDimension
280
     0
  2
*D2
 10
156.6850079902
 20
38.4602342313
 30
0.0
 11
105.0418155019
 21
38.4602342313
 31
0.0
 70
   160
  1
<>mm
 71
     2
 42
-1.0
 73
     0
 74
     0
 75
     0
  3
SLDDIMSTYLE0
100
AcDbAlignedDimension
 13
56.6850079902
 23
52.0299240879
 33
0.0
 14
156.6850079902
 24
52.0299240879
 34
0.0
100
AcDbRotatedDimension
  0
MTEXT
  5
5F
330
1F
100
AcDbEntity
  8
0
  6
Continuous
 62
     7
370
     0
100
AcDbMText
 10
274.0988338675
 20
44.7308544873
 30
0.0
 40
10.0
 41
0.0
 46
0.0
 71
     1
 72
     1
  1
32 650 05 75
  7
SLDTEXTSTYLE1
 73
     1
 44
1.0
  0
MTEXT
  5
60
330
1F
100
AcDbEntity
  8
0
  6
Continuous
 62
     7
370
     0
100
AcDbMText
 10
412.8252631579
 20
48.4342449499
 30
0.0
 40
10.0
 41
0.0
 46
0.0
 71
     1
 72
     1
  1
KLUDI GmbH & Co KG
  7
SLDTEXTSTYLE1
 73
     1
 44
1.0
  0
SPLINE
  5
61
330
1F
100
AcDbEntity
  8
0
  6
Continuous
 62
     7
370
    15
100
AcDbSpline
210
0.0
220
0.0
230
1.0
 70
     8
 71
     3
 72
    28
 73
    24
 74
     0
 42
0.00000001
 43
0.00000001
 40
0.0
 40
0.0
 40
0.0
 40
0.0
 40
0.0101495025579573
 40
0.0809700093365715
 40
0.164821264597618
 40
0.2764865529872985
 40
0.4806197733931479
 40
0.5491820164533557
 40
0.5930979276715933
 40
0.6258957005057515
 40
0.655527509265882
 40
0.6828424185244071
 40
0.7090183937461645
 40
0.7369063795096553
 40
0.7651533510117022
 40
0.7941214228361831
 40
0.8234996121182602
 40
0.8531872540538729
 40
0.8830334435949228
 40
0.9128103905016702
 40
0.9423655194815568
 40
0.9711955241554839
 40
1.0
 40
1.0
 40
1.0
 40
1.0
 10
210.9351290421332
 20
338.7113676703411
 30
0.0
 10
210.9551797679436
 20
338.4810985222714
 30
0.0
 10
211.1151390809053
 20
336.6440730165717
 30
0.0
 10
211.2409899441328
 20
332.8903900129283
 30
0.0
 10
211.3651006456615
 20
326.8272288337891
 30
0.0
 10
211.4013101701765
 20
317.7252852101517
 30
0.0
 10
211.7264129866274
 20
308.9763608851359
 30
0.0
 10
211.7660758590822
 20
301.7666398894268
 30
0.0
 10
211.7575569595002
 20
298.4573307794868
 30
0.0
 10
211.9248764414916
 20
296.0388924926809
 30
0.0
 10
212.2375847274446
 20
294.0162499182717
 30
0.0
 10
212.717211861774
 20
292.1812225381856
 30
0.0
 10
213.3876115229392
 20
290.4490498489873
 30
0.0
 10
214.2703240837694
 20
288.7904696092867
 30
0.0
 10
215.3690813714205
 20
287.1891638796495
 30
0.0
 10
216.6649699110816
 20
285.6970678452135
 30
0.0
 10
218.1448941094385
 20
284.3384025086944
 30
0.0
 10
219.7849452761299
 20
283.1435246152465
 30
0.0
 10
221.5581362618074
 20
282.1384589804084
 30
0.0
 10
223.4325702527574
 20
281.344375822766
 30
0.0
 10
225.3649949141049
 20
280.7851076092145
 30
0.0
 10
227.3282219775513
 20
280.449870951121
 30
0.0
 10
228.6410530315396
 20
280.4033610284723
 30
0.0
 10
229.2971778034188
 20
280.3801163677862
 30
0.0
  0
SPLINE
  5
62
330
1F
100
AcDbEntity
  8
0
  6
Continuous
 62
     7
370
    15
100
AcDbSpline
210
0.0
220
0.0
230
1.0
 70
     8
 71
     3
 72
    28
 73
    24
 74
     0
 42
0.00000001
 43
0.00000001
 40
0.0
 40
0.0
 40
0.0
 40
0.0
 40
0.0148035009029011
 40
0.0429878217183649
 40
0.0733342490114698
 40
0.1023643317557968
 40
0.1315824588825986
 40
0.1611695181491419
 40
0.1909831062618582
 40
0.2208216951293883
 40
0.2504979481982244
 40
0.279900157132874
 40
0.308838308718011
 40
0.3358428657651188
 40
0.3637490245560337
 40
0.3941443417822101
 40
0.4288078937820351
 40
0.4717967445310812
 40
0.5478004218529658
 40
0.62672159171981
 40
0.8455911227139049
 40
0.9382217918237123
 40
1.0
 40
1.0
 40
1.0
 40
1.0
 10
229.2986646743331
 20
280.4050297658112
 30
0.0
 10
229.6361132214999
 20
280.4027940491226
 30
0.0
 10
230.6160285861069
 20
280.3963017611797
 30
0.0
 10
232.2799248764195
 20
280.6021039474037
 30
0.0
 10
234.2298316059739
 20
281.0395761102881
 30
0.0
 10
236.1336905001467
 20
281.7255666783498
 30
0.0
 10
237.932141430739
 20
282.6124075124094
 30
0.0
 10
239.6340146361181
 20
283.7069950801551
 30
0.0
 10
241.2119565628769
 20
284.9961382170684
 30
0.0
 10
242.6334355142716
 20
286.4590863352254
 30
0.0
 10
243.869220431036
 20
288.0702584181693
 30
0.0
 10
244.8960900998369
 20
289.7982932270825
 30
0.0
 10
245.6793346193673
 20
291.5839076819772
 30
0.0
 10
246.2246268486133
 20
293.4190689237967
 30
0.0
 10
246.5827721371907
 20
295.3323743129191
 30
0.0
 10
246.7857814672149
 20
297.4429352237668
 30
0.0
 10
246.8546529947229
 20
299.9049325766429
 30
0.0
 10
246.7998406716239
 20
303.4057610054365
 30
0.0
 10
246.9130468683439
 20
307.9144268634354
 30
0.0
 10
247.1221571896238
 20
316.4280981376117
 30
0.0
 10
247.2197530923451
 20
325.3222504561696
 30
0.0
 10
247.3523032137529
 20
333.8279682956542
 30
0.0
 10
247.5736768819441
 20
337.3394142728014
 30
0.0
 10
247.6622473631148
 20
338.744325987651
 30
0.0
  0
SPLINE
  5
63
330
1F
100
AcDbEntity
  8
0
  6
Continuous
 62
     7
370
    15
100
AcDbSpline
210
0.0
220
0.0
230
1.0
 70
     8
 71
     3
 72
    70
 73
    66
 74
     0
 42
0.00000001
 43
0.00000001
 40
0.0
 40
0.0
 40
0.0
 40
0.0
 40
0.0156250000000001
 40
0.0156250000000001
 40
0.0312500000000002
 40
0.0312500000000002
 40
0.0625000000000003
 40
0.0625000000000003
 40
0.0781250000000004
 40
0.0781250000000004
 40
0.0937500000000005
 40
0.0937500000000005
 40
0.1250000000000006
 40
0.1250000000000006
 40
0.1406250000000007
 40
0.1406250000000007
 40
0.1562500000000009
 40
0.1562500000000009
 40
0.187500000000001
 40
0.187500000000001
 40
0.203125000000001
 40
0.203125000000001
 40
0.218750000000001
 40
0.218750000000001
 40
0.2500000000000012
 40
0.2500000000000012
 40
0.2656250000000012
 40
0.2656250000000012
 40
0.2812500000000012
 40
0.2812500000000012
 40
0.2968750000000011
 40
0.2968750000000011
 40
0.3125000000000011
 40
0.3125000000000011
 40
0.375000000000001
 40
0.375000000000001
 40
0.437500000000001
 40
0.437500000000001
 40
0.500000000000001
 40
0.500000000000001
 40
0.5625000000000009
 40
0.5625000000000009
 40
0.6250000000000008
 40
0.6250000000000008
 40
0.6875000000000007
 40
0.6875000000000007
 40
0.7500000000000004
 40
0.7500000000000004
 40
0.7812500000000004
 40
0.7812500000000004
 40
0.8125000000000003
 40
0.8125000000000003
 40
0.8437500000000003
 40
0.8437500000000003
 40
0.8750000000000002
 40
0.8750000000000002
 40
0.8906250000000002
 40
0.8906250000000002
 40
0.9062500000000002
 40
0.9062500000000002
 40
0.9375000000000001
 40
0.9375000000000001
 40
0.9687500000000001
 40
0.9687500000000001
 40
1.0
 40
1.0
 40
1.0
 40
1.0
 10
229.29831246137
 20
280.7959693386669
 30
0.0
 10
228.816043370612
 20
280.7961020590988
 30
0.0
 10
228.3349995539617
 20
280.8143201784646
 30
0.0
 10
227.3755772582115
 20
280.8900595393102
 30
0.0
 10
226.8956924683329
 20
280.94782965184
 30
0.0
 10
225.4726096718568
 20
281.1790239789381
 30
0.0
 10
224.5471476689343
 20
281.4079163828951
 30
0.0
 10
223.1929126724069
 20
281.8604928411492
 30
0.0
 10
222.747240502883
 20
282.029813193449
 30
0.0
 10
221.8678255600645
 20
282.4068487534234
 30
0.0
 10
221.4322109011245
 20
282.6154474015867
 30
0.0
 10
220.1580397011142
 20
283.2915358732123
 30
0.0
 10
219.3552535368852
 20
283.8063320302729
 30
0.0
 10
218.2183970849743
 20
284.6708538664704
 30
0.0
 10
217.8507366762377
 20
284.9745145874829
 30
0.0
 10
217.1384151231548
 20
285.6133719457929
 30
0.0
 10
216.7922970130513
 20
285.9501557537417
 30
0.0
 10
215.8018774722983
 20
286.9972289646033
 30
0.0
 10
215.2069995668458
 20
287.7408970537846
 30
0.0
 10
214.4130846038159
 20
288.9250754033242
 30
0.0
 10
214.1648449391556
 20
289.331245790718
 30
0.0
 10
213.7024015559803
 20
290.1673870273773
 30
0.0
 10
213.4872140524781
 20
290.5996396724642
 30
0.0
 10
212.9041994854854
 20
291.9173371204095
 30
0.0
 10
212.5990559983977
 20
292.8166602403109
 30
0.0
 10
212.281737307994
 20
294.2017600047499
 30
0.0
 10
212.2008205164052
 20
294.6698234601334
 30
0.0
 10
212.0830862886714
 20
295.6167123782967
 30
0.0
 10
212.0451614830376
 20
296.0958474073478
 30
0.0
 10
211.9898770774325
 20
297.0568053565285
 30
0.0
 10
211.9718320412185
 20
297.5376500798923
 30
0.0
 10
211.9406837330481
 20
298.4995571576137
 30
0.0
 10
211.9279548043263
 20
298.9806297095196
 30
0.0
 10
211.8680419140274
 20
301.3861649450685
 30
0.0
 10
211.8289809936902
 20
303.3109532980969
 30
0.0
 10
211.7429756364437
 20
307.1602172387758
 30
0.0
 10
211.6975749696205
 20
309.0847975570689
 30
0.0
 10
211.6050942512397
 20
312.9339048235261
 30
0.0
 10
211.5585005524991
 20
314.8584487521559
 30
0.0
 10
211.4765171252458
 20
318.7078457121355
 30
0.0
 10
211.4397168950175
 20
320.6326611023821
 30
0.0
 10
211.3717796181192
 20
324.4824590935593
 30
0.0
 10
211.3381049678479
 20
326.4073611148758
 30
0.0
 10
211.2479770740377
 20
330.2565046365213
 30
0.0
 10
211.1925578631333
 20
332.1807770444097
 30
0.0
 10
211.040862194625
 20
336.0281416533946
 30
0.0
 10
210.944544516952
 20
337.9520167050434
 30
0.0
 10
210.7401082184979
 20
340.8336106187946
 30
0.0
 10
210.6620185517552
 20
341.7923865747997
 30
0.0
 10
210.4743412054979
 20
343.704370656392
 30
0.0
 10
210.3650347353643
 20
344.6576286909282
 30
0.0
 10
210.0912630566798
 20
346.5543801203422
 30
0.0
 10
209.9260694983787
 20
347.4977341873533
 30
0.0
 10
209.4992896202844
 20
349.3674046678787
 30
0.0
 10
209.237370470677
 20
350.2936667499623
 30
0.0
 10
208.7646258564118
 20
351.6690090371192
 30
0.0
 10
208.5936709054615
 20
352.1258247623473
 30
0.0
 10
208.2327336788531
 20
353.0312634898198
 30
0.0
 10
208.042732683261
 20
353.4801514166049
 30
0.0
 10
207.4618085007906
 20
354.8224326350829
 30
0.0
 10
207.0657014769547
 20
355.7137680178941
 30
0.0
 10
206.3015365260801
 20
357.5077194426628
 30
0.0
 10
205.9327834850164
 20
358.4100571327106
 30
0.0
 10
205.2340342588498
 20
360.2303541101785
 30
0.0
 10
204.9026203740282
 20
361.147744947294
 30
0.0
 10
204.589951555278
 20
362.0726942009334
 30
0.0
  0
SPLINE
  5
64
330
1F
100
AcDbEntity
  8
0
  6
Continuous
 62
     7
370
    15
100
AcDbSpline
210
0.0
220
0.0
230
1.0
 70
     8
 71
     3
 72
    16
 73
    12
 74
     0
 42
0.00000001
 43
0.00000001
 40
0.0
 40
0.0
 40
0.0
 40
0.0
 40
0.130953641922075
 40
0.2621943541203583
 40
0.3392972942960651
 40
0.4164523732873679
 40
0.5749131529455181
 40
0.5919273725780368
 40
0.7525109161036198
 40
0.930139290469507
 40
1.0
 40
1.0
 40
1.0
 40
1.0
 10
254.0066730841021
 20
362.0726933627516
 30
0.0
 10
253.3973907613639
 20
360.3825550621073
 30
0.0
 10
252.1774904764803
 20
356.9985734209157
 30
0.0
 10
250.1552745503834
 20
352.797891777205
 30
0.0
 10
248.9774040850396
 20
349.0534020379388
 30
0.0
 10
248.1756061542893
 20
344.8358720368245
 30
0.0
 10
247.8473284723904
 20
341.3794996653399
 30
0.0
 10
247.6336217782736
 20
336.7763287904529
 30
0.0
 10
247.3435549519961
 20
331.9128213165193
 30
0.0
 10
247.2655616167816
 20
326.3164037423597
 30
0.0
 10
247.1922826872846
 20
322.9234088848179
 30
0.0
 10
247.171597661797
 20
321.9656412756395
 30
0.0
  0
SPLINE
  5
65
330
1F
100
AcDbEntity
  8
0
  6
Continuous
 62
     7
370
    15
100
AcDbSpline
210
0.0
220
0.0
230
1.0
 70
     8
 71
     3
 72
    78
 73
    74
 74
     0
 42
0.00000001
 43
0.00000001
 40
0.0
 40
0.0
 40
0.0
 40
0.0
 40
0.062499999999999
 40
0.062499999999999
 40
0.0781249999999988
 40
0.0781249999999988
 40
0.0937499999999986
 40
0.0937499999999986
 40
0.1249999999999982
 40
0.1249999999999982
 40
0.1562499999999978
 40
0.1562499999999978
 40
0.1718749999999976
 40
0.1718749999999976
 40
0.1874999999999974
 40
0.1874999999999974
 40
0.2499999999999971
 40
0.2499999999999971
 40
0.2812499999999971
 40
0.2812499999999971
 40
0.312499999999997
 40
0.312499999999997
 40
0.343749999999997
 40
0.343749999999997
 40
0.359374999999997
 40
0.359374999999997
 40
0.3749999999999971
 40
0.3749999999999971
 40
0.4374999999999973
 40
0.4374999999999973
 40
0.4531249999999973
 40
0.4531249999999973
 40
0.4687499999999974
 40
0.4687499999999974
 40
0.4999999999999974
 40
0.4999999999999974
 40
0.5312499999999974
 40
0.5312499999999974
 40
0.5468749999999976
 40
0.5468749999999976
 40
0.5624999999999977
 40
0.5624999999999977
 40
0.5937499999999978
 40
0.5937499999999978
 40
0.6093749999999979
 40
0.6093749999999979
 40
0.624999999999998
 40
0.624999999999998
 40
0.6874999999999984
 40
0.6874999999999984
 40
0.7031249999999986
 40
0.7031249999999986
 40
0.7187499999999986
 40
0.7187499999999986
 40
0.7499999999999988
 40
0.7499999999999988
 40
0.7812499999999989
 40
0.7812499999999989
 40
0.796874999999999
 40
0.796874999999999
 40
0.8124999999999991
 40
0.8124999999999991
 40
0.8749999999999993
 40
0.8749999999999993
 40
0.9062499999999994
 40
0.9062499999999994
 40
0.9374999999999997
 40
0.9374999999999997
 40
0.9687499999999998
 40
0.9687499999999998
 40
0.9843749999999999
 40
0.9843749999999999
 40
1.0
 40
1.0
 40
1.0
 40
1.0
 10
204.5901227177781
 20
362.0727518162398
 30
0.0
 10
203.9248903896239
 20
364.043409776199
 30
0.0
 10
203.5054519789544
 20
366.0529485910287
 30
0.0
 10
203.2775529658107
 20
368.6117579179245
 30
0.0
 10
203.2469915855898
 20
369.1258954690328
 30
0.0
 10
203.216433723889
 20
370.1590054727974
 30
0.0
 10
203.2165185094317
 20
370.6797313327439
 30
0.0
 10
203.2633070485961
 20
372.2343797190163
 30
0.0
 10
203.3558080066836
 20
373.2596250087179
 30
0.0
 10
203.6595021133147
 20
375.2884578477149
 30
0.0
 10
203.8707048748626
 20
376.2920436429275
 30
0.0
 10
204.2774032622793
 20
377.7810193507096
 30
0.0
 10
204.427990128576
 20
378.2746037557131
 30
0.0
 10
204.7598347104456
 20
379.2561760619484
 30
0.0
 10
204.9414034908033
 20
379.7446177463063
 30
0.0
 10
205.9140584654038
 20
382.1402333118331
 30
0.0
 10
206.9048868122892
 20
383.9355449398042
 30
0.0
 10
208.7070298710993
 20
386.4485391719924
 30
0.0
 10
209.3654486520823
 20
387.2600587842055
 30
0.0
 10
210.7589095468074
 20
388.7823874425603
 30
0.0
 10
211.4959406233574
 20
389.4971901766436
 30
0.0
 10
213.0490469217023
 20
390.8358637479568
 30
0.0
 10
213.865121305679
 20
391.4597355490077
 30
0.0
 10
215.1498647249155
 20
392.3257927522866
 30
0.0
 10
215.589609482801
 20
392.6036115338691
 30
0.0
 10
216.4830892622935
 20
393.1313256291444
 30
0.0
 10
216.9356108463442
 20
393.3806314156454
 30
0.0
 10
219.2264834896614
 20
394.5560242166645
 30
0.0
 10
221.1484520143112
 20
395.2716643430727
 30
0.0
 10
223.664296496261
 20
395.8808521875625
 30
0.0
 10
224.1743624484053
 20
395.988351384742
 30
0.0
 10
225.1929318845471
 20
396.1714836832672
 30
0.0
 10
225.7028507130147
 20
396.2475302342203
 30
0.0
 10
227.234473367627
 20
396.4299961421542
 30
0.0
 10
228.2580370025272
 20
396.4908974237803
 30
0.0
 10
230.3100951609325
 20
396.4920184608196
 30
0.0
 10
231.3385891788009
 20
396.4322505914871
 30
0.0
 10
232.885161591775
 20
396.2488271435186
 30
0.0
 10
233.3990848176647
 20
396.172193456558
 30
0.0
 10
234.4153139703328
 20
395.9897180940252
 30
0.0
 10
234.9189215115561
 20
395.8837294435213
 30
0.0
 10
236.4164363567812
 20
395.522208776851
 30
0.0
 10
237.3970814509248
 20
395.2232711858817
 30
0.0
 10
238.8415079890489
 20
394.6879990471963
 30
0.0
 10
239.3185485895547
 20
394.4950600811017
 30
0.0
 10
240.2636198957629
 20
394.0796938760652
 30
0.0
 10
240.7327017898829
 20
393.8567218846782
 30
0.0
 10
243.0430475644455
 20
392.6723525315245
 30
0.0
 10
244.7445429789219
 20
391.5251841537033
 30
0.0
 10
246.6933385064176
 20
389.8489821810896
 30
0.0
 10
247.0740753723565
 20
389.5014684393564
 30
0.0
 10
247.8171593284979
 20
388.7814245393745
 30
0.0
 10
248.1805140845466
 20
388.4077017154179
 30
0.0
 10
249.2296502544606
 20
387.2620923423316
 30
0.0
 10
249.8778121554097
 20
386.4633181150737
 30
0.0
 10
251.0745913973525
 20
384.7977369288176
 30
0.0
 10
251.6232028024878
 20
383.9309259130165
 30
0.0
 10
252.3705059392479
 20
382.5790317787727
 30
0.0
 10
252.6069723891888
 20
382.1197654129372
 30
0.0
 10
253.0540667827706
 20
381.1835736131216
 30
0.0
 10
253.2641394705326
 20
380.7075398164984
 30
0.0
 10
254.2362586087786
 20
378.3147322343664
 30
0.0
 10
254.7782810560725
 20
376.3372476936664
 30
0.0
 10
255.2391948476048
 20
373.2765359941998
 30
0.0
 10
255.3329897176641
 20
372.2356845191833
 30
0.0
 10
255.3955908094535
 20
370.1747608123828
 30
0.0
 10
255.3658049855362
 20
369.1489021253507
 30
0.0
 10
255.1860617531442
 20
367.1062402868834
 30
0.0
 10
255.0361081610837
 20
366.089436847862
 30
0.0
 10
254.718724576072
 20
364.5711985044773
 30
0.0
 10
254.5971690164038
 20
364.0652364772218
 30
0.0
 10
254.3241936673156
 20
363.0624497921689
 30
0.0
 10
254.1728102764316
 20
362.5654162198257
 30
0.0
 10
254.0065019219539
 20
362.0727509779325
 30
0.0
  0
SPLINE
  5
66
330
1F
100
AcDbEntity
  8
0
  6
Continuous
 62
     7
370
    15
100
AcDbSpline
210
0.0
220
0.0
230
1.0
 70
     8
 71
     3
 72
    78
 73
    74
 74
     0
 42
0.00000001
 43
0.00000001
 40
0.0
 40
0.0
 40
0.0
 40
0.0
 40
0.0156250000000001
 40
0.0156250000000001
 40
0.0312500000000002
 40
0.0312500000000002
 40
0.0625000000000004
 40
0.0625000000000004
 40
0.0937500000000005
 40
0.0937500000000005
 40
0.1250000000000007
 40
0.1250000000000007
 40
0.187500000000001
 40
0.187500000000001
 40
0.2031250000000011
 40
0.2031250000000011
 40
0.2187500000000011
 40
0.2187500000000011
 40
0.2500000000000013
 40
0.2500000000000013
 40
0.2812500000000014
 40
0.2812500000000014
 40
0.2968750000000016
 40
0.2968750000000016
 40
0.3125000000000016
 40
0.3125000000000016
 40
0.3750000000000016
 40
0.3750000000000016
 40
0.3906250000000017
 40
0.3906250000000017
 40
0.4062500000000017
 40
0.4062500000000017
 40
0.4375000000000017
 40
0.4375000000000017
 40
0.4531250000000017
 40
0.4531250000000017
 40
0.4687500000000017
 40
0.4687500000000017
 40
0.5000000000000016
 40
0.5000000000000016
 40
0.5312500000000017
 40
0.5312500000000017
 40
0.5468750000000016
 40
0.5468750000000016
 40
0.5625000000000016
 40
0.5625000000000016
 40
0.6250000000000016
 40
0.6250000000000016
 40
0.6406250000000016
 40
0.6406250000000016
 40
0.6562500000000016
 40
0.6562500000000016
 40
0.6875000000000013
 40
0.6875000000000013
 40
0.7187500000000011
 40
0.7187500000000011
 40
0.750000000000001
 40
0.750000000000001
 40
0.8125000000000007
 40
0.8125000000000007
 40
0.8281250000000007
 40
0.8281250000000007
 40
0.8437500000000007
 40
0.8437500000000007
 40
0.8750000000000004
 40
0.8750000000000004
 40
0.9062500000000003
 40
0.9062500000000003
 40
0.9218750000000002
 40
0.9218750000000002
 40
0.9375000000000001
 40
0.9375000000000001
 40
1.0
 40
1.0
 40
1.0
 40
1.0
 10
252.9234342280189
 20
362.4380408147943
 30
0.0
 10
253.0824581878458
 20
362.9091092611121
 30
0.0
 10
253.2272114628725
 20
363.3843544821876
 30
0.0
 10
253.4882326358756
 20
364.3431820753587
 30
0.0
 10
253.6044660202178
 20
364.8269653355313
 30
0.0
 10
253.9079556976028
 20
366.2786521258433
 30
0.0
 10
254.0513484538997
 20
367.2508839984482
 30
0.0
 10
254.2232378965678
 20
369.2040051816181
 30
0.0
 10
254.2517309303758
 20
370.1848947673545
 30
0.0
 10
254.1919007915449
 20
372.1554760801156
 30
0.0
 10
254.102231449081
 20
373.150702537972
 30
0.0
 10
253.6615626425827
 20
376.077257737647
 30
0.0
 10
253.1433270224171
 20
377.9680648301517
 30
0.0
 10
252.2138579382932
 20
380.2559908667703
 30
0.0
 10
252.0130017548859
 20
380.7111585498075
 30
0.0
 10
251.5855188976873
 20
381.6063201421711
 30
0.0
 10
251.3594245073107
 20
382.045458409913
 30
0.0
 10
250.6448990954545
 20
383.3381037757966
 30
0.0
 10
250.1203492425551
 20
384.1669257808115
 30
0.0
 10
248.9760578106657
 20
385.7595119292291
 30
0.0
 10
248.3563219031213
 20
386.5232799485655
 30
0.0
 10
247.353196319425
 20
387.6186842965344
 30
0.0
 10
247.0057753034201
 20
387.9760307816299
 30
0.0
 10
246.295275039093
 20
388.6645245178173
 30
0.0
 10
245.9312330690587
 20
388.9968114643434
 30
0.0
 10
244.0678895778703
 20
390.5995696086658
 30
0.0
 10
242.441000788142
 20
391.6964782300786
 30
0.0
 10
240.2319588696699
 20
392.8289674269417
 30
0.0
 10
239.7834406167117
 20
393.0421751583127
 30
0.0
 10
238.8798026900155
 20
393.4393514146632
 30
0.0
 10
238.4236762627546
 20
393.6238417107385
 30
0.0
 10
237.0425755286735
 20
394.1356767542243
 30
0.0
 10
236.1049233509734
 20
394.4215282925259
 30
0.0
 10
234.6730618921307
 20
394.7672293679075
 30
0.0
 10
234.1915333144371
 20
394.8685813708345
 30
0.0
 10
233.2198573580404
 20
395.0430770536556
 30
0.0
 10
232.7284672411319
 20
395.1163611116053
 30
0.0
 10
231.2496887845809
 20
395.2917753293747
 30
0.0
 10
230.2662788216857
 20
395.3489438345155
 30
0.0
 10
228.304172713931
 20
395.3479135611088
 30
0.0
 10
227.3254770528117
 20
395.28970294359
 30
0.0
 10
225.8609931583609
 20
395.1152680662769
 30
0.0
 10
225.3734266468011
 20
395.0425660712242
 30
0.0
 10
224.3995062401802
 20
394.8674839714296
 30
0.0
 10
223.9117974846044
 20
394.7647083096045
 30
0.0
 10
221.5062163174455
 20
394.1822778258997
 30
0.0
 10
219.6684826507848
 20
393.4980500719802
 30
0.0
 10
217.4780107309724
 20
392.3742372593497
 30
0.0
 10
217.0453214247946
 20
392.1358713131015
 30
0.0
 10
216.1909991267675
 20
391.6313131298168
 30
0.0
 10
215.7705217051643
 20
391.3656816223081
 30
0.0
 10
214.5420721226598
 20
390.53761707359
 30
0.0
 10
213.7617552201616
 20
389.9411119813724
 30
0.0
 10
212.2766986502419
 20
388.6611583830332
 30
0.0
 10
211.5719597889169
 20
387.977708950333
 30
0.0
 10
210.2395490729558
 20
386.5221528655419
 30
0.0
 10
209.6099716931525
 20
385.7462235545515
 30
0.0
 10
207.8867594623696
 20
383.3434296339369
 30
0.0
 10
206.9393206210008
 20
381.6268441545479
 30
0.0
 10
206.0092434889264
 20
379.3362783855795
 30
0.0
 10
205.8356214730758
 20
378.869254582204
 30
0.0
 10
205.5182962410765
 20
377.9307159785648
 30
0.0
 10
205.3742969184736
 20
377.4587710426374
 30
0.0
 10
204.9853859260343
 20
376.0350740654936
 30
0.0
 10
204.7834145074292
 20
375.0754866271208
 30
0.0
 10
204.4929784012465
 20
373.1355998416386
 30
0.0
 10
204.4045045306068
 20
372.1553021699602
 30
0.0
 10
204.3597237494822
 20
370.6688107608186
 30
0.0
 10
204.3596279510211
 20
370.1709084454185
 30
0.0
 10
204.3888173230818
 20
369.1830805834925
 30
0.0
 10
204.4180246351328
 20
368.6914780919367
 30
0.0
 10
204.6358616716651
 20
366.2448231013018
 30
0.0
 10
205.0368565728649
 20
364.3233626987943
 30
0.0
 10
205.6728659783438
 20
362.4390772840358
 30
0.0
  0
SPLINE
  5
67
330
1F
100
AcDbEntity
  8
0
  6
Continuous
 62
     7
370
    15
100
AcDbSpline
210
0.0
220
0.0
230
1.0
 70
     8
 71
     3
 72
    59
 73
    55
 74
     0
 42
0.00000001
 43
0.00000001
 40
0.0
 40
0.0
 40
0.0
 40
0.0
 40
0.0092826279190299
 40
0.018627518130405
 40
0.0280379655740993
 40
0.0375153153093889
 40
0.0470589168629943
 40
0.0566660031673599
 40
0.0663323076797203
 40
0.0760534978473597
 40
0.0858256511748187
 40
0.0956350395997775
 40
0.1054588935985701
 40
0.1153069632627238
 40
0.1251822363349387
 40
0.1528496079328427
 40
0.1790451194669301
 40
0.2040088831323717
 40
0.2277473871105903
 40
0.250216228161011
 40
0.2842560442967865
 40
0.3371867075925696
 40
0.4090418021508302
 40
0.4998747112595645
 40
0.5550146186481043
 40
0.6244802086469163
 40
0.665461312900609
 40
0.6866753710090151
 40
0.7013965703963706
 40
0.7166568297338586
 40
0.7325000977579026
 40
0.7490799858980138
 40
0.7669326541521827
 40
0.7803699711814651
 40
0.7961533630743081
 40
0.8119027128680467
 40
0.827003523960446
 40
0.842468961043288
 40
0.8584043231813755
 40
0.8746074158881898
 40
0.8834383386526865
 40
0.8922806254799184
 40
0.9011558432924096
 40
0.9100864089560368
 40
0.9190680959215619
 40
0.9280119184434075
 40
0.9369274038983199
 40
0.9458362838966097
 40
0.9547609417797269
 40
0.9637259405367792
 40
0.9727588750809044
 40
0.9818429097241004
 40
0.9909200211611819
 40
0.9999999999999999
 40
0.9999999999999999
 40
0.9999999999999999
 40
0.9999999999999999
 10
205.6728523853722
 20
362.4390720804904
 30
0.0
 10
205.7644211842609
 20
362.1718493891021
 30
0.0
 10
205.9481729705392
 20
361.6356116370225
 30
0.0
 10
206.2368454094036
 20
360.8326953342931
 30
0.0
 10
206.5362453313103
 20
360.0274081227003
 30
0.0
 10
206.8475939263164
 20
359.2201725026528
 30
0.0
 10
207.170751851481
 20
358.4111475726563
 30
0.0
 10
207.505344052466
 20
357.6005627342594
 30
0.0
 10
207.8500286658542
 20
356.7883509290077
 30
0.0
 10
208.2025345512626
 20
355.9740337727255
 30
0.0
 10
208.5596724875041
 20
355.1569884514365
 30
0.0
 10
208.9180410141672
 20
354.3370687859514
 30
0.0
 10
209.2691917351737
 20
353.5114921398154
 30
0.0
 10
209.6044545767822
 20
352.6770981015555
 30
0.0
 10
210.1057870051728
 20
351.3248034471657
 30
0.0
 10
210.6688260653695
 20
349.4654478247452
 30
0.0
 10
211.1575764771691
 20
347.1147098470139
 30
0.0
 10
211.4825100076275
 20
344.8580017334024
 30
0.0
 10
211.7134790774889
 20
342.7043257781884
 30
0.0
 10
211.916764879314
 20
340.2707092390294
 30
0.0
 10
212.1240277261818
 20
336.9466350475466
 30
0.0
 10
212.3201081529066
 20
332.1171534319046
 30
0.0
 10
212.4711487486986
 20
325.5573883150863
 30
0.0
 10
212.5733121543302
 20
318.9296026715404
 30
0.0
 10
212.7220081158568
 20
312.3754117444732
 30
0.0
 10
212.8432353965444
 20
307.338026837981
 30
0.0
 10
212.9312711536955
 20
303.3325241119327
 30
0.0
 10
212.982765059351
 20
300.9924970517258
 30
0.0
 10
213.0184045304341
 20
299.4350279710904
 30
0.0
 10
213.0554261130766
 20
298.0409912442703
 30
0.0
 10
213.1045590906375
 20
296.5910343671112
 30
0.0
 10
213.2099721178107
 20
295.0629559786022
 30
0.0
 10
213.4898663763939
 20
293.6289683991923
 30
0.0
 10
213.9045606212142
 20
292.2564421847283
 30
0.0
 10
214.4157416619875
 20
290.9847426246377
 30
0.0
 10
215.0648936773722
 20
289.7206764259426
 30
0.0
 10
215.8179225937643
 20
288.527261243252
 30
0.0
 10
216.675285695702
 20
287.3992157194851
 30
0.0
 10
217.6516399375115
 20
286.3265383577767
 30
0.0
 10
218.5713596317269
 20
285.482152734337
 30
0.0
 10
219.3777875782909
 20
284.839432992823
 30
0.0
 10
220.0339486343237
 20
284.3675536387066
 30
0.0
 10
220.7151935962929
 20
283.9270874721075
 30
0.0
 10
221.4211730980082
 20
283.5189029199056
 30
0.0
 10
222.1485437888472
 20
283.1455757912593
 30
0.0
 10
222.8933410451838
 20
282.8094741856875
 30
0.0
 10
223.6519263556148
 20
282.5117997460489
 30
0.0
 10
224.4237782404658
 20
282.2522900807958
 30
0.0
 10
225.2089124645237
 20
282.0306526891576
 30
0.0
 10
226.0076953261313
 20
281.8471608243353
 30
0.0
 10
226.8194842676025
 20
281.7029485757681
 30
0.0
 10
227.6410974982309
 20
281.601607141144
 30
0.0
 10
228.4683407047025
 20
281.5407696808234
 30
0.0
 10
229.0209309152858
 20
281.5341695559817
 30
0.0
 10
229.2972696536185
 20
281.5308689724089
 30
0.0
  0
SPLINE
  5
68
330
1F
100
AcDbEntity
  8
0
  6
Continuous
 62
     7
370
    15
100
AcDbSpline
210
0.0
220
0.0
230
1.0
 70
     8
 71
     3
 72
    68
 73
    64
 74
     0
 42
0.00000001
 43
0.00000001
 40
0.0
 40
0.0
 40
0.0
 40
0.0
 40
0.0049150715163369
 40
0.0098258088822677
 40
0.0147339765417374
 40
0.0196412749394314
 40
0.0245494192736941
 40
0.0294517104835652
 40
0.034327251682388
 40
0.0391790828092106
 40
0.0440118389044893
 40
0.0488298140523357
 40
0.0536370219870767
 40
0.0584372356521797
 40
0.0632340191480941
 40
0.068030781306176
 40
0.0728308817519827
 40
0.0776377818068264
 40
0.0824545399084692
 40
0.0872839247322896
 40
0.0921010740020555
 40
0.0968950194577711
 40
0.1016694851590867
 40
0.1064280400363612
 40
0.1111741299264555
 40
0.1159111118726612
 40
0.1206422885273897
 40
0.1253709416133144
 40
0.1406326232846049
 40
0.1562036652821744
 40
0.1718753384701512
 40
0.1877395426099442
 40
0.2288721957220943
 40
0.2503427722878757
 40
0.2592634308429881
 40
0.2682218056385846
 40
0.2771640644100368
 40
0.2861229407317411
 40
0.3125982400383193
 40
0.3438505244257276
 40
0.3750930410651075
 40
0.4373493728456809
 40
0.5006898300466313
 40
0.5564835551579802
 40
0.6065265982425567
 40
0.6508277556754916
 40
0.689398924122823
 40
0.7222450343462211
 40
0.7493708541941727
 40
0.7799068513515034
 40
0.8076562747651084
 40
0.8326313984514616
 40
0.8549595934293016
 40
0.8747976714163513
 40
0.8843014808652828
 40
0.8948937083494544
 40
0.9065945312162007
 40
0.9194293871626441
 40
0.933368071664372
 40
0.9484026616880312
 40
0.9645232566245925
 40
0.9817200266718983
 40
1.0
 40
1.0
 40
1.0
 40
1.0
 10
229.2972697930173
 20
281.53086917406
 30
0.0
 10
229.4468320141399
 20
281.53175862064
 30
0.0
 10
229.7458245711909
 20
281.5335367294787
 30
0.0
 10
230.1939056404852
 20
281.5505696526469
 30
0.0
 10
230.6411502810737
 20
281.5788586844143
 30
0.0
 10
231.0873540389225
 20
281.6197907333517
 30
0.0
 10
231.5320422830058
 20
281.6732843279026
 30
0.0
 10
231.9740747571391
 20
281.7392584450046
 30
0.0
 10
232.4124014695635
 20
281.8172527700265
 30
0.0
 10
232.8463599564012
 20
281.9067620400224
 30
0.0
 10
233.2760487895618
 20
282.0075031212119
 30
0.0
 10
233.7015897537086
 20
282.1193008070309
 30
0.0
 10
234.1230668558583
 20
282.2420617628393
 30
0.0
 10
234.5405275792914
 20
282.3757558478697
 30
0.0
 10
234.9539870329612
 20
282.5203953081755
 30
0.0
 10
235.3634369630147
 20
282.6760146992285
 30
0.0
 10
235.7688575669596
 20
282.8426604797726
 30
0.0
 10
236.1702136487799
 20
283.0203800461961
 30
0.0
 10
236.5674302579738
 20
283.2092540207519
 30
0.0
 10
236.9596767667541
 20
283.4089327134936
 30
0.0
 10
237.3457870749718
 20
283.6187818820219
 30
0.0
 10
237.7246807263001
 20
283.8380780770501
 30
0.0
 10
238.0960623454174
 20
284.0664823921991
 30
0.0
 10
238.4600125598925
 20
284.3038953095138
 30
0.0
 10
238.8165932666065
 20
284.5502386682949
 30
0.0
 10
239.1658466054084
 20
284.8054516104309
 30
0.0
 10
239.5078115592063
 20
285.0694947670118
 30
0.0
 10
240.0908786489852
 20
285.544851744426
 30
0.0
 10
240.8913057532616
 20
286.2751832074495
 30
0.0
 10
241.8520125718924
 20
287.3164187343932
 30
0.0
 10
242.7288633589061
 20
288.4529991922276
 30
0.0
 10
243.9179243128883
 20
290.3192956890987
 30
0.0
 10
244.8676748036644
 20
292.5407276595947
 30
0.0
 10
245.32351562037
 20
294.6759944886246
 30
0.0
 10
245.4436706235049
 20
295.8679032066774
 30
0.0
 10
245.493496124831
 20
296.6826095916972
 30
0.0
 10
245.5235203798659
 20
297.4993782388398
 30
0.0
 10
245.565726352592
 20
298.8490128503742
 30
0.0
 10
245.6109497170698
 20
300.8776920546609
 30
0.0
 10
245.6712013821339
 20
303.584215099019
 30
0.0
 10
245.7546146707698
 20
307.3792641391935
 30
0.0
 10
245.8687636635021
 20
312.1502426996706
 30
0.0
 10
245.9950844621451
 20
317.6682119656991
 30
0.0
 10
246.0867778504659
 20
322.8151720906427
 30
0.0
 10
246.1654429983479
 20
327.3829398492104
 30
0.0
 10
246.2652714770784
 20
331.4261473731724
 30
0.0
 10
246.3879865366924
 20
334.9451960336032
 30
0.0
 10
246.5327391749503
 20
337.9403172530704
 30
0.0
 10
246.7107177550187
 20
340.6886738789609
 30
0.0
 10
246.9330855677986
 20
343.2783841841165
 30
0.0
 10
247.2328773744658
 20
345.7946897053548
 30
0.0
 10
247.6140374963072
 20
348.0477858498701
 30
0.0
 10
248.0930485564036
 20
350.0356778634849
 30
0.0
 10
248.569614509472
 20
351.5352463651786
 30
0.0
 10
248.9919262336348
 20
352.6747569252321
 30
0.0
 10
249.3529637016383
 20
353.5725217178193
 30
0.0
 10
249.773963176653
 20
354.5550466180979
 30
0.0
 10
250.2442559935526
 20
355.6271345835693
 30
0.0
 10
250.7512491171875
 20
356.7938977882807
 30
0.0
 10
251.2850200550257
 20
358.0580084437794
 30
0.0
 10
251.8324416853281
 20
359.4237198502791
 30
0.0
 10
252.3881199076824
 20
360.8923168417336
 30
0.0
 10
252.7414096970053
 20
361.9124143535878
 30
0.0
 10
252.9234480497812
 20
362.438036311371
 30
0.0
  0
CIRCLE
  5
69
330
1F
100
AcDbEntity
  8
0
  6
Continuous
 62
     7
370
    15
100
AcDbCircle
 10
229.298295658
 20
355.5690618337
 30
0.0
 40
85.50575000000003
  0
SPLINE
  5
6A
330
1F
100
AcDbEntity
  8
0
  6
Continuous
 62
     8
370
    15
100
AcDbSpline
210
0.0
220
0.0
230
1.0
 70
     8
 71
     3
 72
     9
 73
     5
 74
     0
 42
0.00000001
 43
0.00000001
 40
0.0
 40
0.0
 40
0.0
 40
0.0
 40
0.7498783003655701
 40
1.0
 40
1.0
 40
1.0
 40
1.0
 10
204.5999497168318
 20
362.0447286984152
 30
0.0
 10
204.6234044454502
 20
361.9567799747842
 30
0.0
 10
204.6546824923106
 20
361.839495978717
 30
0.0
 10
204.9067848604544
 20
361.2052719576349
 30
0.0
 10
204.9698411332563
 20
361.0466387675328
 30
0.0
  0
SPLINE
  5
6B
330
1F
100
AcDbEntity
  8
0
  6
Continuous
 62
     8
370
    15
100
AcDbSpline
210
0.0
220
0.0
230
1.0
 70
     8
 71
     3
 72
    11
 73
     7
 74
     0
 42
0.00000001
 43
0.00000001
 40
0.0
 40
0.0
 40
0.0
 40
0.0
 40
0.3022345634259711
 40
0.6334391275858356
 40
0.9555964756198104
 40
1.0
 40
1.0
 40
1.0
 40
1.0
 10
253.9985383363553
 20
362.0494639064797
 30
0.0
 10
253.9834497333608
 20
362.0042830610893
 30
0.0
 10
253.9518262439457
 20
361.9095906640212
 30
0.0
 10
253.8100381276779
 20
361.5128681214629
 30
0.0
 10
253.6792450205421
 20
361.1445638899433
 30
0.0
 10
253.5581518019371
 20
360.8495062110742
 30
0.0
 10
253.5434831177178
 20
360.8137642598099
 30
0.0
  0
LWPOLYLINE
  5
6C
330
1F
100
AcDbEntity
  8
0
  6
Continuous
 62
     8
370
    15
100
AcDbPolyline
 90
        7
 70
   128
 43
0.0
 10
229.298671533
 20
280.3876161498
 10
229.2986711416
 20
280.3880724704
 10
229.298619572
 20
280.4479179534
 10
229.2984844846
 20
280.6046414543
 10
229.2982743978
 20
280.848360154
 10
229.2980025594
 20
281.1637054081
 10
229.2976861114
 20
281.530791877
  0
LINE
  5
6D
330
1F
100
AcDbEntity
  8
0
  6
Continuous
 62
     7
370
    15
100
AcDbLine
 10
389.3267223245
 20
270.0633118337
 30
0.0
 11
398.6052907741
 21
270.3062796994
 31
0.0
  0
LINE
  5
6E
330
1F
100
AcDbEntity
  8
0
  6
Continuous
 62
     7
370
    15
100
AcDbLine
 10
398.6052907741
 20
440.831843968
 30
0.0
 11
389.3267223245
 21
441.0748118337
 31
0.0
  0
ARC
  5
6F
330
1F
100
AcDbEntity
  8
0
  6
Continuous
 62
     7
370
    15
100
AcDbCircle
 10
398.5685331033
 20
439.4281251523
 30
0.0
 40
1.404200000000035
100
AcDbArc
 50
9.653305255
 51
88.5
  0
ARC
  5
70
330
1F
100
AcDbEntity
  8
0
  6
Continuous
 62
     7
370
    15
100
AcDbCircle
 10
398.5685331033
 20
271.7099985151
 30
0.0
 40
1.404200000000045
100
AcDbArc
 50
271.5
 51
350.346694745
  0
ARC
  5
71
330
1F
100
AcDbEntity
  8
0
  6
Continuous
 62
     7
370
    15
100
AcDbCircle
 10
-94.4461387646
 20
355.5690618337
 30
0.0
 40
501.4999999999999
100
AcDbArc
 50
357.0534920137
 51
358.8914850972
  0
ARC
  5
72
330
1F
100
AcDbEntity
  8
0
  6
Continuous
 62
     7
370
    15
100
AcDbCircle
 10
-94.4461387646
 20
355.5690618337
 30
0.0
 40
501.5
100
AcDbArc
 50
350.346694745
 51
354.7596447623
  0
ARC
  5
73
330
1F
100
AcDbEntity
  8
0
  6
Continuous
 62
     7
370
    15
100
AcDbCircle
 10
-94.4461387646
 20
355.5690618337
 30
0.0
 40
501.5000000000001
100
AcDbArc
 50
4.5072505175
 51
9.653305255
  0
LINE
  5
74
330
1F
100
AcDbEntity
  8
0
  6
Continuous
 62
     7
370
    15
100
AcDbLine
 10
451.9279482147
 20
342.1070912571
 30
0.0
 11
452.0861710943
 21
342.0392484457
 31
0.0
  0
LINE
  5
75
330
1F
100
AcDbEntity
  8
0
  6
Continuous
 62
     7
370
    15
100
AcDbLine
 10
455.2211775768
 20
339.4662372343
 30
0.0
 11
455.4925414447
 21
339.0947085618
 31
0.0
  0
LINE
  5
76
330
1F
100
AcDbEntity
  8
0
  6
Continuous
 62
     7
370
    15
100
AcDbLine
 10
433.9792631824
 20
344.3354618337
 30
0.0
 11
437.4754793501
 21
344.3354618337
 31
0.0
  0
LINE
  5
77
330
1F
100
AcDbEntity
  8
0
  6
Continuous
 62
     7
370
    15
100
AcDbLine
 10
467.5260384123
 20
396.4914618337
 30
0.0
 11
443.4708789516
 21
396.4914618337
 31
0.0
  0
ARC
  5
78
330
1F
100
AcDbEntity
  8
0
  6
Continuous
 62
     7
370
    15
100
AcDbCircle
 10
467.5260386202
 20
394.8948495783
 30
0.0
 40
1.596612246818523
100
AcDbArc
 50
16.3306853524
 51
90.3373169203
  0
SPLINE
  5
79
330
1F
100
AcDbEntity
  8
0
  6
Continuous
 62
     7
370
    15
100
AcDbSpline
210
0.0
220
0.0
230
1.0
 70
     8
 71
     3
 72
    12
 73
     8
 74
     0
 42
0.00000001
 43
0.00000001
 40
0.0
 40
0.0
 40
0.0
 40
0.0
 40
0.0360313183495179
 40
0.4891545601498246
 40
0.6719817680032243
 40
0.9018151592776301
 40
1.0
 40
1.0
 40
1.0
 40
1.0
 10
451.9283698596836
 20
342.1069104642441
 30
0.0
 10
451.9811774247136
 20
342.0846368018427
 30
0.0
 10
452.6980832285544
 20
341.7822536520187
 30
0.0
 10
453.5255943875571
 20
341.153912221065
 30
0.0
 10
454.5589951432682
 20
340.2282453593998
 30
0.0
 10
455.1082770006452
 20
339.6355444966824
 30
0.0
 10
455.4026116301819
 20
339.2212270436555
 30
0.0
 10
455.4907140461489
 20
339.0972104824837
 30
0.0
  0
SPLINE
  5
7A
330
1F
100
AcDbEntity
  8
0
  6
Continuous
 62
     7
370
    15
100
AcDbSpline
210
0.0
220
0.0
230
1.0
 70
     8
 71
     3
 72
    36
 73
    32
 74
     0
 42
0.00000001
 43
0.00000001
 40
0.0
 40
0.0
 40
0.0
 40
0.0
 40
0.0443264779941614
 40
0.09155058929776
 40
0.1360259554371428
 40
0.1780902471115687
 40
0.2178374042681775
 40
0.2552753188212014
 40
0.3094393260626375
 40
0.3578998436579073
 40
0.4006570615625815
 40
0.4423218369129654
 40
0.4766217751531717
 40
0.5035569862624997
 40
0.5189253289904167
 40
0.530150969434752
 40
0.5372337465080936
 40
0.5420589349946813
 40
0.5516873375651061
 40
0.5652201490092419
 40
0.5828837521922307
 40
0.6061449303494126
 40
0.6352733570690858
 40
0.67027362076395
 40
0.7049402149340148
 40
0.7438941238211163
 40
0.787126124624437
 40
0.8346956652937113
 40
0.8867998568951748
 40
0.9438108369568697
 40
1.0
 40
1.0
 40
1.0
 40
1.0
 10
469.027333026622
 20
281.5386562878836
 30
0.0
 10
469.4809502069746
 20
283.1682775230885
 30
0.0
 10
470.4178376398615
 20
286.5340487543334
 30
0.0
 10
471.169489402076
 20
291.6792156210191
 30
0.0
 10
471.5140579089061
 20
296.7701944049236
 30
0.0
 10
471.5824157836889
 20
301.5864390975048
 30
0.0
 10
471.5687401480114
 20
306.1333395270826
 30
0.0
 10
471.5453231195261
 20
311.1417921504273
 30
0.0
 10
471.5401823534382
 20
316.4824994287752
 30
0.0
 10
471.5534636003425
 20
322.0260290317638
 30
0.0
 10
471.5714290455516
 20
327.0929270812599
 30
0.0
 10
471.5900314740534
 20
331.6198643961568
 30
0.0
 10
471.6096084010879
 20
335.5434839865261
 30
0.0
 10
471.6297626833502
 20
338.4643782020022
 30
0.0
 10
471.6488753581964
 20
340.5054069760255
 30
0.0
 10
471.6636034708211
 20
341.7894486547222
 30
0.0
 10
471.6752827125829
 20
342.6714768612767
 30
0.0
 10
471.6872221659713
 20
343.4925902713306
 30
0.0
 10
471.7045580182395
 20
344.5595972225432
 30
0.0
 10
471.7346940984403
 20
346.1159963231055
 30
0.0
 10
471.7849419729785
 20
348.1919170359688
 30
0.0
 10
471.8686707793901
 20
350.8618289429479
 30
0.0
 10
472.0046548941515
 20
354.191364085643
 30
0.0
 10
472.1918838081282
 20
357.9538841062786
 30
0.0
 10
472.4016526400019
 20
362.0903622352697
 30
0.0
 10
472.5765973262701
 20
366.5428969957495
 30
0.0
 10
472.6290968154518
 20
371.491319541176
 30
0.0
 10
472.4320553594292
 20
376.9401792264023
 30
0.0
 10
471.8270568353311
 20
382.8873323038125
 30
0.0
 10
470.764941350293
 20
389.1108462098028
 30
0.0
 10
469.6075251461048
 20
393.2716302292639
 30
0.0
 10
469.0330183829316
 20
395.3369188874262
 30
0.0
  0
ARC
  5
7B
330
1F
100
AcDbEntity
  8
0
  6
Continuous
 62
     7
370
    15
100
AcDbCircle
 10
434.677505558
 20
370.4134618337
 30
0.0
 40
24.57350000000006
100
AcDbArc
 50
71.5300275506
 51
90.0
  0
LINE
  5
7C
330
1F
100
AcDbEntity
  8
0
  6
Continuous
 62
     7
370
    15
100
AcDbLine
 10
434.677505558
 20
394.9869618337
 30
0.0
 11
405.5025682749
 21
394.9869618337
 31
0.0
  0
LINE
  5
7D
330
1F
100
AcDbEntity
  8
0
  6
Continuous
 62
     7
370
    15
100
AcDbLine
 10
406.958680742
 20
345.8399618337
 30
0.0
 11
433.9792631824
 21
345.8399618337
 31
0.0
  0
ARC
  5
7E
330
1F
100
AcDbEntity
  8
0
  6
Continuous
 62
     7
370
    15
100
AcDbCircle
 10
450.9028709502
 20
331.1565190029
 30
0.0
 40
1.003000000000055
100
AcDbArc
 50
12.1445741039
 51
112.0058180886
  0
ARC
  5
7F
330
1F
100
AcDbEntity
  8
0
  6
Continuous
 62
     7
370
    15
100
AcDbCircle
 10
450.9028709502
 20
308.3674046645
 30
0.0
 40
1.003000000000002
100
AcDbArc
 50
247.9941819114
 51
347.8554258961
  0
ARC
  5
80
330
1F
100
AcDbEntity
  8
0
  6
Continuous
 62
     7
370
    15
100
AcDbCircle
 10
438.7261459913
 20
361.2861618337
 30
0.0
 40
31.49420000000003
100
AcDbArc
 50
270.0
 51
292.0058180886
  0
ARC
  5
81
330
1F
100
AcDbEntity
  8
0
  6
Continuous
 62
     7
370
    15
100
AcDbCircle
 10
438.7261459913
 20
278.2377618337
 30
0.0
 40
31.49420000000003
100
AcDbArc
 50
67.9941819114
 51
90.0
  0
ARC
  5
82
330
1F
100
AcDbEntity
  8
0
  6
Continuous
 62
     7
370
    15
100
AcDbCircle
 10
397.9530238219
 20
319.7619618337
 30
0.0
 40
55.16499999999999
100
AcDbArc
 50
347.8554258961
 51
0.0
  0
ARC
  5
83
330
1F
100
AcDbEntity
  8
0
  6
Continuous
 62
     7
370
    15
100
AcDbCircle
 10
397.9530238219
 20
319.7619618337
 30
0.0
 40
55.16499999999999
100
AcDbArc
 50
0.0
 51
12.1445741039
  0
LINE
  5
84
330
1F
100
AcDbEntity
  8
0
  6
Continuous
 62
     7
370
    15
100
AcDbLine
 10
438.7261459913
 20
329.7919618337
 30
0.0
 11
406.3908375918
 21
329.7919618337
 31
0.0
  0
LINE
  5
85
330
1F
100
AcDbEntity
  8
0
  6
Continuous
 62
     7
370
    15
100
AcDbLine
 10
404.9570884327
 20
309.7319618337
 30
0.0
 11
438.7261459913
 21
309.7319618337
 31
0.0
  0
LINE
  5
86
330
1F
100
AcDbEntity
  8
0
  6
Continuous
 62
     7
370
    15
100
AcDbLine
 10
439.9972631824
 20
344.3069052139
 30
0.0
 11
439.9972631824
 21
344.0847118337
 31
0.0
  0
LINE
  5
87
330
1F
100
AcDbEntity
  8
0
  6
Continuous
 62
     7
370
    15
100
AcDbLine
 10
439.9972631824
 20
344.0847118337
 30
0.0
 11
440.2165002934
 21
343.4823628217
 31
0.0
  0
LINE
  5
88
330
1F
100
AcDbEntity
  8
0
  6
Continuous
 62
     7
370
    15
100
AcDbLine
 10
447.8020260714
 20
343.4823628217
 30
0.0
 11
447.8212601069
 21
343.5352078999
 31
0.0
  0
ARC
  5
89
330
1F
100
AcDbEntity
  8
0
  6
Continuous
 62
     7
370
    15
100
AcDbCircle
 10
447.6135237317
 20
343.5509720624
 30
0.0
 40
0.2006000000000125
100
AcDbArc
 50
270.0
 51
340.0
  0
ARC
  5
8A
330
1F
100
AcDbEntity
  8
0
  6
Continuous
 62
     7
370
    15
100
AcDbCircle
 10
440.4050026332
 20
343.5509720624
 30
0.0
 40
0.2006000000000085
100
AcDbArc
 50
200.0
 51
270.0
  0
LINE
  5
8B
330
1F
100
AcDbEntity
  8
0
  6
Continuous
 62
     7
370
    15
100
AcDbLine
 10
440.4050026332
 20
343.3503720624
 30
0.0
 11
447.6135237317
 21
343.3503720624
 31
0.0
  0
LINE
  5
8C
330
1F
100
AcDbEntity
  8
0
  6
Continuous
 62
     7
370
    15
100
AcDbLine
 10
389.3267223245
 20
441.0748118337
 30
0.0
 11
389.3267223245
 21
270.0633118337
 31
0.0
  0
SPLINE
  5
8D
330
1F
100
AcDbEntity
  8
0
  6
Continuous
 62
     7
370
    15
100
AcDbSpline
210
0.0
220
0.0
230
1.0
 70
     8
 71
     3
 72
    37
 73
    33
 74
     0
 42
0.00000001
 43
0.00000001
 40
0.0
 40
0.0
 40
0.0
 40
0.0
 40
0.001241099557097
 40
0.0541467033433168
 40
0.0810007089487039
 40
0.1082461749740746
 40
0.1611513371272118
 40
0.1880039548683302
 40
0.2152466662193945
 40
0.2682335375901977
 40
0.2951269297968712
 40
0.3224102655675894
 40
0.3755255635338856
 40
0.4024842058976763
 40
0.4298339183083835
 40
0.4830686575513183
 40
0.5100887326903083
 40
0.5375018032522841
 40
0.5639823872842665
 40
0.5906468967499278
 40
0.6178918320054136
 40
0.6453374954285045
 40
0.6986010352909885
 40
0.7256380195141673
 40
0.7530709235920706
 40
0.8062302923789597
 40
0.8332148669907868
 40
0.8605950518225851
 40
0.9136213593937516
 40
0.9405380351824713
 40
0.9678488061213386
 40
1.0
 40
1.0
 40
1.0
 40
1.0
 10
406.3908370840501
 20
329.7903596634718
 30
0.0
 10
406.3908746064092
 20
329.7908844908932
 30
0.0
 10
406.3925116322509
 20
329.8137816666504
 30
0.0
 10
406.3851772608873
 20
329.7111944557748
 30
0.0
 10
406.368627899702
 20
329.4797237199372
 30
0.0
 10
406.344927177924
 20
329.1482392301563
 30
0.0
 10
406.3117480553473
 20
328.68421247061
 30
0.0
 10
406.2697548447322
 20
328.0969713522874
 30
0.0
 10
406.2220793244088
 20
327.430313070714
 30
0.0
 10
406.1663620077452
 20
326.6512888453588
 30
0.0
 10
406.1040133860744
 20
325.7796697055197
 30
0.0
 10
406.0374963972246
 20
324.8498683816953
 30
0.0
 10
405.9654184924426
 20
323.8424865038962
 30
0.0
 10
405.8895716154548
 20
322.7826094277038
 30
0.0
 10
405.8115733196347
 20
321.6927954177269
 30
0.0
 10
405.7311365461442
 20
320.5691092403783
 30
0.0
 10
405.6502617914566
 20
319.4395105300453
 30
0.0
 10
405.5896165401462
 20
318.5925663572548
 30
0.0
 10
405.5298360563524
 20
317.7578000764954
 30
0.0
 10
405.471171434762
 20
316.9387118456324
 30
0.0
 10
405.4132341899359
 20
316.1298740501308
 30
0.0
 10
405.3388753304935
 20
315.0919003900203
 30
0.0
 10
405.2690153264949
 20
314.1168899365321
 30
0.0
 10
405.2052472504979
 20
313.2270306531881
 30
0.0
 10
405.1460152649743
 20
312.4005480364173
 30
0.0
 10
405.0940186588354
 20
311.6751200092853
 30
0.0
 10
405.0505017130058
 20
311.0680553702335
 30
0.0
 10
405.0130235146234
 20
310.5452640138761
 30
0.0
 10
404.98462943016
 20
310.1492224104995
 30
0.0
 10
404.9665462255126
 20
309.8970075644388
 30
0.0
 10
404.95618455891
 20
309.7524922043289
 30
0.0
 10
404.9567717586228
 20
309.7606820094586
 30
0.0
 10
404.9570892585888
 20
309.7651102521741
 30
0.0
  0
SPLINE
  5
8E
330
1F
100
AcDbEntity
  8
0
  6
Continuous
 62
     7
370
    15
100
AcDbSpline
210
0.0
220
0.0
230
1.0
 70
     8
 71
     3
 72
    38
 73
    34
 74
     0
 42
0.00000001
 43
0.00000001
 40
0.0
 40
0.0
 40
0.0
 40
0.0
 40
0.0025948521144794
 40
0.0289592917608407
 40
0.0825839558922807
 40
0.1099082952620849
 40
0.136272874082229
 40
0.1898973908777479
 40
0.2172213551135887
 40
0.2435931174322979
 40
0.2972319872875883
 40
0.3245631001615049
 40
0.3509459320881269
 40
0.4046073443899292
 40
0.4319499858915572
 40
0.4583429142406419
 40
0.5120251625017521
 40
0.5393786515332903
 40
0.5657762760618231
 40
0.5923571972619516
 40
0.6195162853589472
 40
0.6468751842754773
 40
0.6732700527428295
 40
0.7269570772044975
 40
0.7543135833868638
 40
0.7806994641300294
 40
0.8343683735591221
 40
0.8617157461243018
 40
0.8880903549470149
 40
0.9417362084307381
 40
0.969071719104936
 40
0.9954377047197104
 40
1.0
 40
1.0
 40
1.0
 40
1.0
 10
405.5025686925021
 20
394.9791835191417
 30
0.0
 10
405.5024931733309
 20
394.9817269547661
 30
0.0
 10
405.5016503577805
 20
395.0101124237916
 30
0.0
 10
405.5062676735207
 20
394.8546044798768
 30
0.0
 10
405.5197999962587
 20
394.3988423994981
 30
0.0
 10
405.5443818074385
 20
393.5708939902653
 30
0.0
 10
405.5752795861006
 20
392.5301707055715
 30
0.0
 10
405.615695471924
 20
391.1687566211045
 30
0.0
 10
405.6646535585966
 20
389.5194139109622
 30
0.0
 10
405.7189660101344
 20
387.6895463451791
 30
0.0
 10
405.7808401622005
 20
385.6046585191514
 30
0.0
 10
405.8487988379544
 20
383.3143944953054
 30
0.0
 10
405.9203714334325
 20
380.9020858036644
 30
0.0
 10
405.9967486384982
 20
378.3274252947231
 30
0.0
 10
406.0760497663884
 20
375.6537166012856
 30
0.0
 10
406.1568154296048
 20
372.9303033718222
 30
0.0
 10
406.2390870760943
 20
370.1556032253684
 30
0.0
 10
406.3207813666528
 20
367.3998617169825
 30
0.0
 10
406.3812428030099
 20
365.3601061514271
 30
0.0
 10
406.4405034257005
 20
363.3606243858896
 30
0.0
 10
406.4989774035399
 20
361.38745194924
 30
0.0
 10
406.5553803961393
 20
359.4839427696654
 30
0.0
 10
406.6271666009953
 20
357.0610090739163
 30
0.0
 10
406.6937404710479
 20
354.8136394779912
 30
0.0
 10
406.7533361738296
 20
352.8015616663655
 30
0.0
 10
406.8079801174005
 20
350.9565082946966
 30
0.0
 10
406.8547391454427
 20
349.3774951945122
 30
0.0
 10
406.8923662618531
 20
348.1067497186177
 30
0.0
 10
406.9236512819911
 20
347.0501355463649
 30
0.0
 10
406.9457874236526
 20
346.302460719776
 30
0.0
 10
406.9562113686575
 20
345.9503706139766
 30
0.0
 10
406.9608099555674
 20
345.7950425866537
 30
0.0
 10
406.9589509190465
 20
345.8578355348229
 30
0.0
 10
406.9586766886883
 20
345.867098253693
 30
0.0
  0
SPLINE
  5
8F
330
1F
100
AcDbEntity
  8
0
  6
Continuous
 62
     7
370
    15
100
AcDbSpline
210
0.0
220
0.0
230
1.0
 70
     8
 71
     3
 72
    37
 73
    33
 74
     0
 42
0.00000001
 43
0.00000001
 40
0.0
 40
0.0
 40
0.0
 40
0.0
 40
0.0033595568889635
 40
0.0067464321268663
 40
0.0101624734799548
 40
0.0291310445401751
 40
0.0493225148292835
 40
0.07094954887093
 40
0.1043111129924179
 40
0.1415532527736259
 40
0.1799881812515563
 40
0.2225911087445258
 40
0.2653934164615128
 40
0.3126872895132694
 40
0.4095696430370352
 40
0.5105663052055519
 40
0.5361239210242589
 40
0.5616719422832999
 40
0.6119936027375349
 40
0.659981414363645
 40
0.7041241565731762
 40
0.7440419181849309
 40
0.7791363663401776
 40
0.8109921473167521
 40
0.8395743959856176
 40
0.8660128845054665
 40
0.891109757353691
 40
0.9157896557683871
 40
0.9413894742937666
 40
0.9682496672355239
 40
0.9980048131366718
 40
0.9999999999999999
 40
0.9999999999999999
 40
0.9999999999999999
 40
0.9999999999999999
 10
466.4595123124843
 20
280.7959693368761
 30
0.0
 10
466.4019735222939
 20
280.8483327323744
 30
0.0
 10
466.2864280633211
 20
280.9534853180689
 30
0.0
 10
466.1171823892773
 20
281.117042941279
 30
0.0
 10
465.6970570527064
 20
281.5408984437135
 30
0.0
 10
465.0555756735807
 20
282.2930363702413
 30
0.0
 10
464.2635624133459
 20
283.459479237179
 30
0.0
 10
463.4264944488414
 20
284.9885427360627
 30
0.0
 10
462.5947494957816
 20
286.9603006483492
 30
0.0
 10
461.8348532325867
 20
289.3711281661656
 30
0.0
 10
461.2019582846313
 20
292.0377722239368
 30
0.0
 10
460.6998695635301
 20
294.8624549371722
 30
0.0
 10
460.2956471729208
 20
297.9093033991243
 30
0.0
 10
459.8759894451064
 20
302.2193870626886
 30
0.0
 10
459.5539262861918
 20
307.889372515923
 30
0.0
 10
459.4042400914309
 20
313.0613001993385
 30
0.0
 10
459.3233398956567
 20
316.582512675598
 30
0.0
 10
459.2713317998508
 20
318.9306249814011
 30
0.0
 10
459.2000096870388
 20
321.7978625909747
 30
0.0
 10
459.0666460546931
 20
325.0940987475657
 30
0.0
 10
458.8464499373767
 20
328.1447983474443
 30
0.0
 10
458.5058272588057
 20
330.8845324307892
 30
0.0
 10
458.0356454110113
 20
333.3165297611272
 30
0.0
 10
457.4242988487372
 20
335.4464882440981
 30
0.0
 10
456.650494675557
 20
337.3092428228348
 30
0.0
 10
455.7023061377889
 20
338.9122895127373
 30
0.0
 10
454.5620812674836
 20
340.270713694467
 30
0.0
 10
453.2180313998065
 20
341.3978702960355
 30
0.0
 10
451.6697351579695
 20
342.3039858715341
 30
0.0
 10
449.8983927516553
 20
343.0161301565387
 30
0.0
 10
448.5849346042618
 20
343.3696800622729
 30
0.0
 10
447.8664119751635
 20
343.5254211441255
 30
0.0
 10
447.8212601047496
 20
343.535207893855
 30
0.0
  0
SPLINE
  5
90
330
1F
100
AcDbEntity
  8
0
  6
Continuous
 62
     7
370
    15
100
AcDbSpline
210
0.0
220
0.0
230
1.0
 70
     8
 71
     3
 72
    10
 73
     6
 74
     0
 42
0.00000001
 43
0.00000001
 40
0.0
 40
0.0
 40
0.0
 40
0.0
 40
0.3215363408689783
 40
0.6548631821438021
 40
1.0
 40
1.0
 40
1.0
 40
1.0
 10
439.9972631523577
 20
344.3069050787939
 30
0.0
 10
439.727019936699
 20
344.3127457667347
 30
0.0
 10
439.176623886036
 20
344.3246413163341
 30
0.0
 10
438.3359877860586
 20
344.3338616009284
 30
0.0
 10
437.7656249245179
 20
344.334799777113
 30
0.0
 10
437.4754793575355
 20
344.3352770305939
 30
0.0
  0
LINE
  5
91
330
1F
100
AcDbEntity
  8
0
  6
Continuous
 62
     7
370
    15
100
AcDbLine
 10
433.9792631824
 20
344.3354618337
 30
0.0
 11
433.9792631824
 21
363.3392233677
 31
0.0
  0
SPLINE
  5
92
330
1F
100
AcDbEntity
  8
0
  6
Continuous
 62
     7
370
    15
100
AcDbSpline
210
0.0
220
0.0
230
1.0
 70
     8
 71
     3
 72
    16
 73
    12
 74
     0
 42
0.00000001
 43
0.00000001
 40
0.0
 40
0.0
 40
0.0
 40
0.0
 40
0.2499999999999993
 40
0.2499999999999993
 40
0.4999999999999987
 40
0.4999999999999987
 40
0.6249999999999988
 40
0.6249999999999988
 40
0.7499999999999989
 40
0.7499999999999989
 40
1.0
 40
1.0
 40
1.0
 40
1.0
 10
436.3987952364736
 20
377.0610715178923
 30
0.0
 10
436.0040046842444
 20
375.9763933902287
 30
0.0
 10
435.6548809534432
 20
374.8718272325698
 30
0.0
 10
435.0504876328139
 20
372.6217125246197
 30
0.0
 10
434.7951969029409
 20
371.4761766383284
 30
0.0
 10
434.4863028364839
 20
369.7250734512407
 30
0.0
 10
434.3958197769002
 20
369.1356926965116
 30
0.0
 10
434.242546201124
 20
367.965732462916
 30
0.0
 10
434.1792797538669
 20
367.3826777312729
 30
0.0
 10
434.0282716530855
 20
365.6394056122593
 30
0.0
 10
433.9792631824043
 20
364.4850425857807
 30
0.0
 10
433.9792631824043
 20
363.3392233676668
 30
0.0
  0
LINE
  5
93
330
1F
100
AcDbEntity
  8
0
  6
Continuous
 62
     7
370
    15
100
AcDbLine
 10
436.3987952365
 20
377.0610715179
 30
0.0
 11
443.4708789516
 21
396.4914618337
 31
0.0
  0
ARC
  5
94
330
1F
100
AcDbEntity
  8
0
  6
Continuous
 62
     7
370
    15
100
AcDbCircle
 10
467.5259145492
 20
281.9842275524
 30
0.0
 40
1.596612450548969
100
AcDbArc
 50
228.09361315
 51
343.501001551
  0
SPLINE
  5
95
330
1F
100
AcDbEntity
  8
0
  6
Continuous
 62
     7
370
    15
100
AcDbSpline
210
0.0
220
0.0
230
1.0
 70
     8
 71
     3
 72
    16
 73
    12
 74
     0
 42
0.00000001
 43
0.00000001
 40
0.0
 40
0.0
 40
0.0
 40
0.0
 40
0.2499999999999989
 40
0.2499999999999989
 40
0.4999999999999978
 40
0.4999999999999978
 40
0.6249999999999983
 40
0.6249999999999983
 40
0.7499999999999989
 40
0.7499999999999989
 40
1.0
 40
1.0
 40
1.0
 40
1.0
 10
445.9160144343145
 20
344.0847118336901
 30
0.0
 10
446.2115884145892
 20
344.0181252163235
 30
0.0
 10
446.4750028284707
 20
343.9502097689019
 30
0.0
 10
446.9435241395969
 20
343.819944902179
 30
0.0
 10
447.1491997206162
 20
343.7572481411338
 30
0.0
 10
447.3962139064454
 20
343.6787810996767
 30
0.0
 10
447.4691099439611
 20
343.6549799940672
 30
0.0
 10
447.5957937867295
 20
343.6129750144187
 30
0.0
 10
447.649774529854
 20
343.5947029498739
 30
0.0
 10
447.7782231322818
 20
343.550808467436
 30
0.0
 10
447.8213834760969
 20
343.5355429924907
 30
0.0
 10
447.821260105833
 20
343.5352078970711
 30
0.0
  0
SPLINE
  5
96
330
1F
100
AcDbEntity
  8
0
  6
Continuous
 62
     7
370
    15
100
AcDbSpline
210
0.0
220
0.0
230
1.0
 70
     8
 71
     3
 72
    28
 73
    24
 74
     0
 42
0.00000001
 43
0.00000001
 40
0.0
 40
0.0
 40
0.0
 40
0.0
 40
0.1250000000000009
 40
0.1250000000000009
 40
0.1875000000000015
 40
0.1875000000000015
 40
0.250000000000002
 40
0.250000000000002
 40
0.3125000000000026
 40
0.3125000000000026
 40
0.3750000000000031
 40
0.3750000000000031
 40
0.5000000000000024
 40
0.5000000000000024
 40
0.6250000000000018
 40
0.6250000000000018
 40
0.6875000000000016
 40
0.6875000000000016
 40
0.7500000000000012
 40
0.7500000000000012
 40
0.8750000000000006
 40
0.8750000000000006
 40
1.0
 40
1.0
 40
1.0
 40
1.0
 10
439.9972631826966
 20
344.3069053283677
 30
0.0
 10
439.9972673907492
 20
344.3073523176233
 30
0.0
 10
440.0425028064553
 20
344.3129454063402
 30
0.0
 10
440.1751693432096
 20
344.3281441554347
 30
0.0
 10
440.2308193806383
 20
344.3343831676502
 30
0.0
 10
440.3626161084109
 20
344.3484672733615
 30
0.0
 10
440.4383336094255
 20
344.3562669568803
 30
0.0
 10
440.6088766353685
 20
344.3726733781863
 30
0.0
 10
440.703702420305
 20
344.3812819671632
 30
0.0
 10
440.9129230075496
 20
344.3984867112597
 30
0.0
 10
441.027509187309
 20
344.4070763830089
 30
0.0
 10
441.3909406408919
 20
344.4306728487832
 30
0.0
 10
441.6627501663094
 20
344.4438530637722
 30
0.0
 10
442.2636104192405
 20
344.4569463776468
 30
0.0
 10
442.5805744929543
 20
344.4565529559633
 30
0.0
 10
443.0801266890935
 20
344.4410787837107
 30
0.0
 10
443.2518936268715
 20
344.4333387620958
 30
0.0
 10
443.594411205267
 20
344.4126778290403
 30
0.0
 10
443.7659059649072
 20
344.3997674174057
 30
0.0
 10
444.2810448685627
 20
344.3530509764786
 30
0.0
 10
444.6296439357526
 20
344.3104063508727
 30
0.0
 10
445.293412755283
 20
344.2087356344646
 30
0.0
 10
445.6136789117074
 20
344.1492667319966
 30
0.0
 10
445.9160144343145
 20
344.0847118336901
 30
0.0
  0
LINE
  5
97
330
1F
100
AcDbEntity
  8
0
  6
Continuous
 62
     7
370
    15
100
AcDbLine
 10
439.9972631824
 20
344.0847118337
 30
0.0
 11
445.9160144343
 21
344.0847118337
 31
0.0
  0
LINE
  5
98
330
1F
100
AcDbEntity
  8
0
  6
Continuous
 62
     8
370
     0
100
AcDbLine
 10
398.6052907741
 20
440.831843968
 30
0.0
 11
398.6052907741
 21
270.3062796994
 31
0.0
  0
LINE
  5
99
330
1F
100
AcDbEntity
  8
0
  6
Continuous
 62
     8
370
     0
100
AcDbLine
 10
399.9528502726
 20
439.6635898307
 30
0.0
 11
399.9528502726
 21
271.4745338367
 31
0.0
  0
SPLINE
  5
9A
330
1F
100
AcDbEntity
  8
0
  6
Continuous
 62
     8
370
     0
100
AcDbSpline
210
0.0
220
0.0
230
1.0
 70
     8
 71
     3
 72
    25
 73
    21
 74
     0
 42
0.00000001
 43
0.00000001
 40
0.0
 40
0.0
 40
0.0
 40
0.0
 40
0.0439127888520627
 40
0.1325900276543267
 40
0.1778826113712617
 40
0.265915608899615
 40
0.3104789561145289
 40
0.3557731924902957
 40
0.3996841869450387
 40
0.4439030068120707
 40
0.4884463407487795
 40
0.5337405771322707
 40
0.6217735746688949
 40
0.6663369218881283
 40
0.711631158268456
 40
0.7995843151422776
 40
0.8442277104216784
 40
0.8895219468041082
 40
0.960118936657209
 40
0.9999999999999999
 40
0.9999999999999999
 40
0.9999999999999999
 40
0.9999999999999999
 10
467.5260726509746
 20
362.0727518162398
 30
0.0
 10
467.5260746534969
 20
362.764006120986
 30
0.0
 10
467.5260806999013
 20
364.8511754804916
 30
0.0
 10
467.5260766441036
 20
367.7681331427814
 30
0.0
 10
467.5260650006608
 20
371.4248037331699
 30
0.0
 10
467.5260520146326
 20
374.358934038178
 30
0.0
 10
467.5260398155264
 20
377.2205196005019
 30
0.0
 10
467.5260317818044
 20
379.3244529470071
 30
0.0
 10
467.526025475569
 20
381.3590063309579
 30
0.0
 10
467.5260211421124
 20
383.3055981927868
 30
0.0
 10
467.5260187597407
 20
385.1808116644067
 30
0.0
 10
467.5260180267524
 20
387.527106249622
 30
0.0
 10
467.5260202368862
 20
389.6425218038964
 30
0.0
 10
467.5260237800533
 20
391.4752771176238
 30
0.0
 10
467.5260277383588
 20
393.1066178352859
 30
0.0
 10
467.5260316848849
 20
394.4226568284949
 30
0.0
 10
467.5260348502936
 20
395.397112345914
 30
0.0
 10
467.526037057169
 20
396.048168380707
 30
0.0
 10
467.5260385271266
 20
396.4652393355312
 30
0.0
 10
467.5260384427635
 20
396.4412892009956
 30
0.0
 10
467.5260384123096
 20
396.4326435306127
 30
0.0
  0
SPLINE
  5
9B
330
1F
100
AcDbEntity
  8
0
  6
Continuous
 62
     8
370
     0
100
AcDbSpline
210
0.0
220
0.0
230
1.0
 70
     8
 71
     3
 72
    38
 73
    34
 74
     0
 42
0.00000001
 43
0.00000001
 40
0.0
 40
0.0
 40
0.0
 40
0.0
 40
0.0313305677773392
 40
0.0624379767247454
 40
0.0940084089372678
 40
0.1251516710251025
 40
0.1565113661093732
 40
0.1876431248075871
 40
0.2190823827321952
 40
0.2506579012445285
 40
0.2815624159946153
 40
0.3128991092407615
 40
0.3445512095196864
 40
0.3753402551885372
 40
0.4377567339499019
 40
0.4682394603496503
 40
0.4992917054428371
 40
0.5149584155523922
 40
0.5306253522323919
 40
0.5615099151104064
 40
0.5922130042371292
 40
0.6240992124266168
 40
0.6550001880317268
 40
0.686567599693673
 40
0.7180040601295583
 40
0.7488733732782263
 40
0.7795807493026196
 40
0.8113043209450612
 40
0.8423643990509151
 40
0.8736701030749255
 40
0.9359496780783418
 40
0.9980647460553652
 40
1.0
 40
1.0
 40
1.0
 40
1.0
 10
469.0567001870446
 20
362.4390963750799
 30
0.0
 10
469.0565229718021
 20
362.9096367664479
 30
0.0
 10
469.0561698035716
 20
363.8473660222049
 30
0.0
 10
469.0573454108244
 20
365.2897363952259
 30
0.0
 10
469.0567522474187
 20
366.7455606200403
 30
0.0
 10
469.0567541358918
 20
368.2187117021755
 30
0.0
 10
469.0568113768772
 20
369.6925087285109
 30
0.0
 10
469.0569254231158
 20
371.1735439339599
 30
0.0
 10
469.0571209197051
 20
372.6552788421395
 30
0.0
 10
469.0570916419895
 20
374.125551951588
 30
0.0
 10
469.0569973193115
 20
375.5811715480778
 30
0.0
 10
469.0568564000718
 20
377.0199444599641
 30
0.0
 10
469.05693592183
 20
378.4334667470264
 30
0.0
 10
469.0571009677897
 20
380.2774498198085
 30
0.0
 10
469.056715496453
 20
382.0418569010032
 30
0.0
 10
469.0568548625928
 20
383.7240878624227
 30
0.0
 10
469.0569868102793
 20
384.7341725826786
 30
0.0
 10
469.0569887589417
 20
385.5250813050229
 30
0.0
 10
469.0569850048422
 20
386.2962474559375
 30
0.0
 10
469.0570342409197
 20
387.2200100520237
 30
0.0
 10
469.057011557207
 20
388.2798432394251
 30
0.0
 10
469.0570799872496
 20
389.2770633686829
 30
0.0
 10
469.0569291661943
 20
390.2170027832656
 30
0.0
 10
469.0567825874627
 20
391.0828800267919
 30
0.0
 10
469.0568340764684
 20
391.8746289372741
 30
0.0
 10
469.0569509924625
 20
392.5843854746727
 30
0.0
 10
469.0567769805852
 20
393.220821764834
 30
0.0
 10
469.0565910205015
 20
393.7791938812656
 30
0.0
 10
469.0566744043186
 20
394.2566526918587
 30
0.0
 10
469.0568549070301
 20
394.7829064414415
 30
0.0
 10
469.0568421604133
 20
395.1955939882454
 30
0.0
 10
469.0569249872133
 20
395.4025848607243
 30
0.0
 10
469.0569338037553
 20
395.3448451351711
 30
0.0
 10
469.0569340701435
 20
395.3431005532816
 30
0.0
  0
SPLINE
  5
9C
330
1F
100
AcDbEntity
  8
0
  6
Continuous
 62
     8
370
     0
100
AcDbSpline
210
0.0
220
0.0
230
1.0
 70
     8
 71
     3
 72
    70
 73
    66
 74
     0
 42
0.00000001
 43
0.00000001
 40
0.0
 40
0.0
 40
0.0
 40
0.0
 40
0.0156250000000001
 40
0.0156250000000001
 40
0.0312500000000002
 40
0.0312500000000002
 40
0.0625000000000003
 40
0.0625000000000003
 40
0.0781250000000004
 40
0.0781250000000004
 40
0.0937500000000005
 40
0.0937500000000005
 40
0.1250000000000006
 40
0.1250000000000006
 40
0.1406250000000007
 40
0.1406250000000007
 40
0.1562500000000009
 40
0.1562500000000009
 40
0.187500000000001
 40
0.187500000000001
 40
0.203125000000001
 40
0.203125000000001
 40
0.218750000000001
 40
0.218750000000001
 40
0.2500000000000012
 40
0.2500000000000012
 40
0.2656250000000012
 40
0.2656250000000012
 40
0.2812500000000012
 40
0.2812500000000012
 40
0.2968750000000011
 40
0.2968750000000011
 40
0.3125000000000011
 40
0.3125000000000011
 40
0.375000000000001
 40
0.375000000000001
 40
0.437500000000001
 40
0.437500000000001
 40
0.500000000000001
 40
0.500000000000001
 40
0.5625000000000009
 40
0.5625000000000009
 40
0.6250000000000008
 40
0.6250000000000008
 40
0.6875000000000007
 40
0.6875000000000007
 40
0.7500000000000004
 40
0.7500000000000004
 40
0.7812500000000004
 40
0.7812500000000004
 40
0.8125000000000003
 40
0.8125000000000003
 40
0.8437500000000003
 40
0.8437500000000003
 40
0.8750000000000002
 40
0.8750000000000002
 40
0.8906250000000002
 40
0.8906250000000002
 40
0.9062500000000002
 40
0.9062500000000002
 40
0.9375000000000001
 40
0.9375000000000001
 40
0.9687500000000001
 40
0.9687500000000001
 40
1.0
 40
1.0
 40
1.0
 40
1.0
 10
466.4595123037851
 20
280.7959693386669
 30
0.0
 10
466.4589013786242
 20
280.7961020590988
 30
0.0
 10
466.458451920387
 20
280.8143201784646
 30
0.0
 10
466.4599335578288
 20
280.8900595393102
 30
0.0
 10
466.4619439496843
 20
280.94782965184
 30
0.0
 10
466.471437371108
 20
281.1790239789381
 30
0.0
 10
466.4815494856368
 20
281.4079163828951
 30
0.0
 10
466.500016583456
 20
281.8604928411492
 30
0.0
 10
466.5067693096308
 20
282.029813193449
 30
0.0
 10
466.5209372246492
 20
282.4068487534234
 30
0.0
 10
466.5285544975492
 20
282.6154474015867
 30
0.0
 10
466.5537150038948
 20
283.2915358732123
 30
0.0
 10
466.5733378064068
 20
283.8063320302729
 30
0.0
 10
466.6095856216192
 20
284.6708538664704
 30
0.0
 10
466.6227849358396
 20
284.9745145874829
 30
0.0
 10
466.6516464260885
 20
285.6133719457929
 30
0.0
 10
466.6673836496778
 20
285.9501557537417
 30
0.0
 10
466.717959680184
 20
286.9972289646033
 30
0.0
 10
466.7561436965993
 20
287.7408970537846
 30
0.0
 10
466.8194017176466
 20
288.9250754033242
 30
0.0
 10
466.8414962375966
 20
289.331245790718
 30
0.0
 10
466.8868693506299
 20
290.1673870273773
 30
0.0
 10
466.9102745727598
 20
290.5996396724642
 30
0.0
 10
466.9794818597225
 20
291.9173371204095
 30
0.0
 10
467.0258272320658
 20
292.8166602403109
 30
0.0
 10
467.067287776834
 20
294.2017600047499
 30
0.0
 10
467.076955607405
 20
294.6698234601334
 30
0.0
 10
467.1031014406602
 20
295.6167123782967
 30
0.0
 10
467.1198290971559
 20
296.0958474073478
 30
0.0
 10
467.145032805701
 20
297.0568053565285
 30
0.0
 10
467.1528661276961
 20
297.5376500798923
 30
0.0
 10
467.1631380921131
 20
298.4995571576137
 30
0.0
 10
467.1657988931191
 20
298.9806297095196
 30
0.0
 10
467.1742132679615
 20
301.3861649450685
 30
0.0
 10
467.1698861869752
 20
303.3109532980969
 30
0.0
 10
467.1704277326899
 20
307.1602172387758
 30
0.0
 10
467.171108084583
 20
309.0847975570689
 30
0.0
 10
467.1776102937534
 20
312.9339048235261
 30
0.0
 10
467.1807641787786
 20
314.8584487521559
 30
0.0
 10
467.1897779976592
 20
318.7078457121355
 30
0.0
 10
467.1949502668687
 20
320.6326611023821
 30
0.0
 10
467.2036716408884
 20
324.4824590935593
 30
0.0
 10
467.2094896444934
 20
326.4073611148758
 30
0.0
 10
467.2243725443757
 20
330.2565046365213
 30
0.0
 10
467.2330383441741
 20
332.1807770444097
 30
0.0
 10
467.2549536312341
 20
336.0281416533946
 30
0.0
 10
467.269046817623
 20
337.9520167050434
 30
0.0
 10
467.2908309601562
 20
340.8336106187946
 30
0.0
 10
467.2982743723165
 20
341.7923865747997
 30
0.0
 10
467.3143969623514
 20
343.704370656392
 30
0.0
 10
467.323048241188
 20
344.6576286909282
 30
0.0
 10
467.3437243312249
 20
346.5543801203422
 30
0.0
 10
467.3566688919321
 20
347.4977341873533
 30
0.0
 10
467.3862159194143
 20
349.3674046678787
 30
0.0
 10
467.4024521921472
 20
350.2936667499623
 30
0.0
 10
467.4243068327237
 20
351.6690090371192
 30
0.0
 10
467.4311433794227
 20
352.1258247623473
 30
0.0
 10
467.4442657515484
 20
353.0312634898198
 30
0.0
 10
467.4507611962352
 20
353.4801514166049
 30
0.0
 10
467.4694304524522
 20
354.8224326350829
 30
0.0
 10
467.4788834039545
 20
355.7137680178941
 30
0.0
 10
467.4972893483412
 20
357.5077194426628
 30
0.0
 10
467.5061286297869
 20
358.4100571327106
 30
0.0
 10
467.5195045495762
 20
360.2303541101785
 30
0.0
 10
467.5238872497468
 20
361.147744947294
 30
0.0
 10
467.5258851759526
 20
362.0726942009334
 30
0.0
  0
SPLINE
  5
9D
330
1F
100
AcDbEntity
  8
0
  6
Continuous
 62
     8
370
     0
100
AcDbSpline
210
0.0
220
0.0
230
1.0
 70
     8
 71
     3
 72
    59
 73
    55
 74
     0
 42
0.00000001
 43
0.00000001
 40
0.0
 40
0.0
 40
0.0
 40
0.0
 40
0.0092826279190299
 40
0.018627518130405
 40
0.0280379655740993
 40
0.0375153153093889
 40
0.0470589168629943
 40
0.0566660031673599
 40
0.0663323076797203
 40
0.0760534978473597
 40
0.0858256511748187
 40
0.0956350395997775
 40
0.1054588935985701
 40
0.1153069632627238
 40
0.1251822363349387
 40
0.1528496079328427
 40
0.1790451194669301
 40
0.2040088831323717
 40
0.2277473871105903
 40
0.250216228161011
 40
0.2842560442967865
 40
0.3371867075925696
 40
0.4090418021508302
 40
0.4998747112595645
 40
0.5550146186481043
 40
0.6244802086469163
 40
0.665461312900609
 40
0.6866753710090151
 40
0.7013965703963706
 40
0.7166568297338586
 40
0.7325000977579026
 40
0.7490799858980138
 40
0.7669326541521827
 40
0.7803699711814651
 40
0.7961533630743081
 40
0.8119027128680467
 40
0.827003523960446
 40
0.842468961043288
 40
0.8584043231813755
 40
0.8746074158881898
 40
0.8834383386526865
 40
0.8922806254799184
 40
0.9011558432924096
 40
0.9100864089560368
 40
0.9190680959215619
 40
0.9280119184434075
 40
0.9369274038983199
 40
0.9458362838966097
 40
0.9547609417797269
 40
0.9637259405367792
 40
0.9727588750809044
 40
0.9818429097241004
 40
0.9909200211611819
 40
0.9999999999999999
 40
0.9999999999999999
 40
0.9999999999999999
 40
0.9999999999999999
 10
469.0569509302975
 20
362.4390720804904
 30
0.0
 10
469.0569947977405
 20
362.1718493891021
 30
0.0
 10
469.0570828268629
 20
361.6356116370225
 30
0.0
 10
469.057161408633
 20
360.8326953342931
 30
0.0
 10
469.0572032478727
 20
360.0274081227003
 30
0.0
 10
469.0572086433528
 20
359.2201725026528
 30
0.0
 10
469.0571876904363
 20
358.4111475726563
 30
0.0
 10
469.0571581591228
 20
357.6005627342594
 30
0.0
 10
469.0571414256428
 20
356.7883509290077
 30
0.0
 10
469.0571294997663
 20
355.9740337727255
 30
0.0
 10
469.0571168685134
 20
355.1569884514365
 30
0.0
 10
469.0570832165067
 20
354.3370687859514
 30
0.0
 10
469.0570167256717
 20
353.5114921398154
 30
0.0
 10
469.0569936943162
 20
352.6770981015555
 30
0.0
 10
469.0569659474841
 20
351.3248034471657
 30
0.0
 10
469.0567571876024
 20
349.4654478247452
 30
0.0
 10
469.0565101905856
 20
347.1147098470139
 30
0.0
 10
469.0566864517911
 20
344.8580017334024
 30
0.0
 10
469.0569088218884
 20
342.7043257781884
 30
0.0
 10
469.0571417697558
 20
340.2707092390294
 30
0.0
 10
469.0569648578354
 20
336.9466350475466
 30
0.0
 10
469.0566722873357
 20
332.1171534319046
 30
0.0
 10
469.0566984364333
 20
325.5573883150863
 30
0.0
 10
469.0572062482532
 20
318.9296026715404
 30
0.0
 10
469.0572173348961
 20
312.3754117444732
 30
0.0
 10
469.0569188305307
 20
307.338026837981
 30
0.0
 10
469.0569800861724
 20
303.3325241119327
 30
0.0
 10
469.056830630187
 20
300.9924970517258
 30
0.0
 10
469.0568229160335
 20
299.4350279710904
 30
0.0
 10
469.0572224933692
 20
298.0409912442703
 30
0.0
 10
469.057358031075
 20
296.5910343671112
 30
0.0
 10
469.0567019928276
 20
295.0629559786022
 30
0.0
 10
469.0573274182755
 20
293.6289683991923
 30
0.0
 10
469.0569120636561
 20
292.2564421847283
 30
0.0
 10
469.0568542058555
 20
290.9847426246377
 30
0.0
 10
469.0568224533847
 20
289.7206764259426
 30
0.0
 10
469.0569601315193
 20
288.527261243252
 30
0.0
 10
469.0569543375618
 20
287.3992157194851
 30
0.0
 10
469.0569073961932
 20
286.3265383577767
 30
0.0
 10
469.0568432187109
 20
285.482152734337
 30
0.0
 10
469.0568083936087
 20
284.839432992823
 30
0.0
 10
469.0568217166359
 20
284.3675536387066
 30
0.0
 10
469.0568539521416
 20
283.9270874721075
 30
0.0
 10
469.0568938543887
 20
283.5189029199056
 30
0.0
 10
469.0569258198886
 20
283.1455757912593
 30
0.0
 10
469.0569517926891
 20
282.8094741856875
 30
0.0
 10
469.0569334469768
 20
282.5117997460489
 30
0.0
 10
469.0568948197835
 20
282.2522900807958
 30
0.0
 10
469.0568428397289
 20
282.0306526891576
 30
0.0
 10
469.0567841405883
 20
281.8471608243353
 30
0.0
 10
469.0567319290431
 20
281.7029485757681
 30
0.0
 10
469.0567214166344
 20
281.601607141144
 30
0.0
 10
469.0567712405034
 20
281.5407696808234
 30
0.0
 10
469.0567963723194
 20
281.5341695559817
 30
0.0
 10
469.0568089402118
 20
281.5308689724089
 30
0.0
  0
LINE
  5
9E
330
1F
100
AcDbEntity
  8
0
  6
Continuous
 62
     8
370
     0
100
AcDbLine
 10
450.5270461058
 20
319.3292419885
 30
0.0
 11
450.5270461058
 21
307.4374774167
 31
0.0
  0
LINE
  5
9F
330
1F
100
AcDbEntity
  8
0
  6
Continuous
 62
     8
370
     0
100
AcDbLine
 10
450.5270461058
 20
332.0864462507
 30
0.0
 11
450.5270461058
 21
319.3292419885
 31
0.0
  0
LINE
  5
A0
330
1F
100
AcDbEntity
  8
0
  6
Continuous
 62
     8
370
     0
100
AcDbLine
 10
451.8834236748
 20
319.3544835818
 30
0.0
 11
451.8834236748
 21
308.1563943466
 31
0.0
  0
LINE
  5
A1
330
1F
100
AcDbEntity
  8
0
  6
Continuous
 62
     8
370
     0
100
AcDbLine
 10
451.8834236748
 20
331.3675293208
 30
0.0
 11
451.8834236748
 21
319.3544835818
 31
0.0
  0
LINE
  5
A2
330
1F
100
AcDbEntity
  8
0
  6
Continuous
 62
     7
370
    15
100
AcDbLine
 10
143.792545658
 20
229.3778846341
 30
0.0
 11
144.0355135237
 21
220.0993161846
 31
0.0
  0
LINE
  5
A3
330
1F
100
AcDbEntity
  8
0
  6
Continuous
 62
     7
370
    15
100
AcDbLine
 10
314.5610777923
 20
220.0993161846
 30
0.0
 11
314.804045658
 21
229.3778846341
 31
0.0
  0
ARC
  5
A4
330
1F
100
AcDbEntity
  8
0
  6
Continuous
 62
     7
370
    15
100
AcDbCircle
 10
313.1573589766
 20
220.1360738554
 30
0.0
 40
1.404200000000035
100
AcDbArc
 50
279.653305255
 51
358.5
  0
ARC
  5
A5
330
1F
100
AcDbEntity
  8
0
  6
Continuous
 62
     7
370
    15
100
AcDbCircle
 10
145.4392323395
 20
220.1360738554
 30
0.0
 40
1.404200000000035
100
AcDbArc
 50
181.5
 51
260.346694745
  0
ARC
  5
A6
330
1F
100
AcDbEntity
  8
0
  6
Continuous
 62
     7
370
    15
100
AcDbCircle
 10
229.298295658
 20
713.1507457232
 30
0.0
 40
501.5
100
AcDbArc
 50
272.8086178769
 51
279.653305255
  0
ARC
  5
A7
330
1F
100
AcDbEntity
  8
0
  6
Continuous
 62
     7
370
    15
100
AcDbCircle
 10
229.298295658
 20
713.1507457232
 30
0.0
 40
501.4999999999999
100
AcDbArc
 50
260.346694745
 51
267.1913821231
  0
ARC
  5
A8
330
1F
100
AcDbEntity
  8
0
  6
Continuous
 62
     7
370
    15
100
AcDbCircle
 10
253.7796941428
 20
151.1785388853
 30
0.0
 40
1.59661219380992
100
AcDbArc
 50
285.3082594127
 51
0.5527914141
  0
ARC
  5
A9
330
1F
100
AcDbEntity
  8
0
  6
Continuous
 62
     7
370
    15
100
AcDbCircle
 10
204.8169269968
 20
151.1785389317
 30
0.0
 40
1.596612229079273
100
AcDbArc
 50
180.0517634052
 51
253.8536312459
  0
LINE
  5
AA
330
1F
100
AcDbEntity
  8
0
  6
Continuous
 62
     7
370
    15
100
AcDbLine
 10
203.2203124614
 20
184.0944707498
 30
0.0
 11
203.2203124614
 21
151.1785390726
 31
0.0
  0
LINE
  5
AB
330
1F
100
AcDbEntity
  8
0
  6
Continuous
 62
     7
370
    15
100
AcDbLine
 10
255.3763124614
 20
151.1785398322
 30
0.0
 11
255.3763124614
 21
184.0937749381
 31
0.0
  0
SPLINE
  5
AC
330
1F
100
AcDbEntity
  8
0
  6
Continuous
 62
     7
370
    15
100
AcDbSpline
210
0.0
220
0.0
230
1.0
 70
     8
 71
     3
 72
    13
 73
     9
 74
     0
 42
0.00000001
 43
0.00000001
 40
0.0
 40
0.0
 40
0.0
 40
0.0
 40
0.1650651954187013
 40
0.3333029892954185
 40
0.5000729185346859
 40
0.6668427150598661
 40
0.8350802907029371
 40
1.0
 40
1.0
 40
1.0
 40
1.0
 10
204.3782247560823
 20
149.6621263829522
 30
0.0
 10
207.0651695458474
 20
148.9465916043713
 30
0.0
 10
212.4907029432954
 20
147.5017692719534
 30
0.0
 10
220.853229147321
 20
146.3853377058915
 30
0.0
 10
229.2983874253506
 20
145.9738635750246
 30
0.0
 10
237.7435323872076
 20
146.3850857124852
 30
0.0
 10
246.1037343130382
 20
147.5006324089473
 30
0.0
 10
251.5267978351798
 20
148.9452316545287
 30
0.0
 10
254.2113258344154
 20
149.6603379973927
 30
0.0
  0
LINE
  5
AD
330
1F
100
AcDbEntity
  8
0
  6
Continuous
 62
     7
370
    15
100
AcDbLine
 10
253.871795658
 20
184.0892223107
 30
0.0
 11
253.871795658
 21
212.4732288204
 31
0.0
  0
LINE
  5
AE
330
1F
100
AcDbEntity
  8
0
  6
Continuous
 62
     7
370
    15
100
AcDbLine
 10
204.724795658
 20
212.4731660434
 30
0.0
 11
204.724795658
 21
184.0940190101
 31
0.0
  0
LINE
  5
AF
330
1F
100
AcDbEntity
  8
0
  6
Continuous
 62
     7
370
    15
100
AcDbLine
 10
314.804045658
 20
229.3778846341
 30
0.0
 11
143.792545658
 21
229.3778846341
 31
0.0
  0
SPLINE
  5
B0
330
1F
100
AcDbEntity
  8
0
  6
Continuous
 62
     7
370
    15
100
AcDbSpline
210
0.0
220
0.0
230
1.0
 70
     8
 71
     3
 72
    37
 73
    33
 74
     0
 42
0.00000001
 43
0.00000001
 40
0.0
 40
0.0
 40
0.0
 40
0.0
 40
0.0186296064281078
 40
0.0455932729813268
 40
0.0729499549615472
 40
0.0993483131568166
 40
0.1259299961016599
 40
0.1530899574860838
 40
0.1804497774763354
 40
0.2335671861098209
 40
0.2605288795068547
 40
0.2878839817648963
 40
0.3409808498055339
 40
0.3679321518501623
 40
0.3952767347680205
 40
0.4483513496990726
 40
0.4752912529493289
 40
0.5026241329872704
 40
0.5556845682166985
 40
0.5826170780888543
 40
0.6099422185644429
 40
0.663002777743907
 40
0.6899351483782707
 40
0.7172599137088976
 40
0.77033483652014
 40
0.797274378277357
 40
0.8246062924556463
 40
0.8777035033738086
 40
0.9046543733740114
 40
0.931997816518013
 40
0.9851154559690619
 40
1.0
 40
1.0
 40
1.0
 40
1.0
 10
253.7938909955307
 20
212.4732288204455
 30
0.0
 10
253.8172745341644
 20
212.487432087073
 30
0.0
 10
253.874502370099
 20
212.522192532232
 30
0.0
 10
253.6365946546961
 20
212.5775938754702
 30
0.0
 10
253.2666419063442
 20
212.6381508944249
 30
0.0
 10
252.7101368997011
 20
212.6972532670788
 30
0.0
 10
251.9966031825861
 20
212.754656458159
 30
0.0
 10
251.1105180485456
 20
212.8107493367329
 30
0.0
 10
249.7254105002394
 20
212.8819305776918
 30
0.0
 10
248.0439570774054
 20
212.9475509204584
 30
0.0
 10
246.1069379312796
 20
213.0061278405717
 30
0.0
 10
244.0093930808326
 20
213.0596050578
 30
0.0
 10
241.6910886725651
 20
213.1050060547655
 30
0.0
 10
239.2104389570008
 20
213.1412462263799
 30
0.0
 10
236.6353893194758
 20
213.1710943335647
 30
0.0
 10
233.9423135399605
 20
213.1911509321721
 30
0.0
 10
231.1983773409133
 20
213.2009693893631
 30
0.0
 10
228.4365107379083
 20
213.2038311433746
 30
0.0
 10
225.6724340098907
 20
213.1962968895799
 30
0.0
 10
222.9744384887753
 20
213.1786075314365
 30
0.0
 10
220.3367297626332
 20
213.1541794528306
 30
0.0
 10
217.8126670037585
 20
213.1199238226623
 30
0.0
 10
215.4639920263432
 20
213.0767394054255
 30
0.0
 10
213.2470240728679
 20
213.027787345672
 30
0.0
 10
211.2467350767562
 20
212.9706805824711
 30
0.0
 10
209.5114949774433
 20
212.9068726035352
 30
0.0
 10
207.9646359613787
 20
212.8389143947356
 30
0.0
 10
206.7142148834605
 20
212.7653911511219
 30
0.0
 10
205.7861849116109
 20
212.6881464445203
 30
0.0
 10
205.0919166756603
 20
212.6088417739819
 30
0.0
 10
204.7320728470227
 20
212.5363608464975
 30
0.0
 10
204.7439618207421
 20
212.4845143720742
 30
0.0
 10
204.7465641188412
 20
212.4731660433605
 30
0.0
  0
LINE
  5
B1
330
1F
100
AcDbEntity
  8
0
  6
Continuous
 62
     7
370
    15
100
AcDbLine
 10
204.3742433904
 20
149.6477279269
 30
0.0
 11
204.3747019465
 21
149.6476815828
 31
0.0
  0
LINE
  5
B2
330
1F
100
AcDbEntity
  8
0
  6
Continuous
 62
     7
370
    15
100
AcDbLine
 10
254.2144172401
 20
149.6476654629
 30
0.0
 11
254.1991017036
 21
149.647704778
 31
0.0
  0
SPLINE
  5
B3
330
1F
100
AcDbEntity
  8
0
  6
Continuous
 62
     7
370
    15
100
AcDbSpline
210
0.0
220
0.0
230
1.0
 70
     8
 71
     3
 72
    16
 73
    12
 74
     0
 42
0.00000001
 43
0.00000001
 40
0.0
 40
0.0
 40
0.0
 40
0.0
 40
0.2500000000000001
 40
0.2500000000000001
 40
0.5000000000000001
 40
0.5000000000000001
 40
0.6250000000000001
 40
0.6250000000000001
 40
0.7500000000000002
 40
0.7500000000000002
 40
1.0
 40
1.0
 40
1.0
 40
1.0
 10
254.3984565670377
 20
184.7253437762643
 30
0.0
 10
254.7214220150312
 20
184.7253437762643
 30
0.0
 10
254.9617818711436
 20
184.6763231911448
 30
0.0
 10
255.2861207947372
 20
184.4762674694427
 30
0.0
 10
255.3700655813923
 20
184.3252599331665
 30
0.0
 10
255.3789342511215
 20
184.0176100691828
 30
0.0
 10
255.3621030210451
 20
183.9013553122236
 30
0.0
 10
255.2906228850333
 20
183.6455672014714
 30
0.0
 10
255.2360402142988
 20
183.5056376817022
 30
0.0
 10
255.0181266229611
 20
183.0507506285184
 30
0.0
 10
254.8008612864051
 20
182.7007600644108
 30
0.0
 10
254.5148024924182
 20
182.3058117221951
 30
0.0
  0
SPLINE
  5
B4
330
1F
100
AcDbEntity
  8
0
  6
Continuous
 62
     7
370
    15
100
AcDbSpline
210
0.0
220
0.0
230
1.0
 70
     8
 71
     3
 72
    16
 73
    12
 74
     0
 42
0.00000001
 43
0.00000001
 40
0.0
 40
0.0
 40
0.0
 40
0.0
 40
0.2499999999999993
 40
0.2499999999999993
 40
0.4999999999999987
 40
0.4999999999999987
 40
0.6249999999999988
 40
0.6249999999999988
 40
0.7499999999999989
 40
0.7499999999999989
 40
1.0
 40
1.0
 40
1.0
 40
1.0
 10
204.0818224303
 20
182.3058117221949
 30
0.0
 10
203.7958779226855
 20
182.7006022744241
 30
0.0
 10
203.5792176180539
 20
183.0497260052253
 30
0.0
 10
203.2892276932465
 20
183.6541193258546
 30
0.0
 10
203.2158361424279
 20
183.9094100557276
 30
0.0
 10
203.2228658140664
 20
184.2183041221846
 30
0.0
 10
203.2450334601268
 20
184.3087871817683
 30
0.0
 10
203.3288176335534
 20
184.4620607575445
 30
0.0
 10
203.3903850591143
 20
184.5253272048016
 30
0.0
 10
203.6341827582809
 20
184.676335305583
 30
0.0
 10
203.8752300349376
 20
184.7253437762641
 30
0.0
 10
204.1981683556804
 20
184.7253437762641
 30
0.0
  0
ELLIPSE
  5
B5
330
1F
100
AcDbEntity
  8
0
  6
Continuous
 62
     7
370
    15
100
AcDbEllipse
 10
229.2983124614
 20
184.7253437763
 30
0.0
 11
26.07799999999997
 21
0.0
 31
0.0
210
0.0
220
0.0
230
1.0
 40
0.3639702343
 41
3.399349926170796
 42
6.025428034598674
  0
LWPOLYLINE
  5
B6
330
1F
100
AcDbEntity
  8
0
  6
Continuous
 62
     7
370
    15
100
AcDbPolyline
 90
       26
 70
   128
 43
0.0
 10
252.8928575226
 20
182.3058117222
 10
252.0640374097
 20
181.4876622434
 10
250.993417194
 20
180.7030333845
 10
249.6923681754
 20
179.9602588664
 10
248.1747090903
 20
179.2672278657
 10
246.4565593399
 20
178.6313012215
 10
244.556167782
 20
178.0592332551
 10
242.4937189063
 20
177.5571000298
 10
240.2911184495
 20
177.1302348166
 10
237.9717607304
 20
176.7831714475
 10
235.5602801729
 20
176.5195961613
 10
233.0822896587
 20
176.3423084508
 10
230.5641084866
 20
176.2531913289
 10
228.0324828295
 20
176.2531913289
 10
225.5143016573
 20
176.3423084508
 10
223.0363111431
 20
176.5195961613
 10
220.6248305857
 20
176.7831714475
 10
218.3054728666
 20
177.1302348166
 10
216.1028724098
 20
177.5571000298
 10
214.040423534
 20
178.0592332551
 10
212.1400319762
 20
178.6313012215
 10
210.4218822258
 20
179.2672278657
 10
208.9042231407
 20
179.9602588664
 10
207.603174122
 20
180.7030333845
 10
206.5325539063
 20
181.4876622434
 10
205.7037337935
 20
182.3058117222
  0
LINE
  5
B7
330
1F
100
AcDbEntity
  8
0
  6
Continuous
 62
     7
370
    15
100
AcDbLine
 10
204.7277067918
 20
184.0271014007
 30
0.0
 11
204.7290156618
 21
184.0940190101
 31
0.0
  0
LINE
  5
B8
330
1F
100
AcDbEntity
  8
0
  6
Continuous
 62
     7
370
    15
100
AcDbLine
 10
253.8601163201
 20
184.0892223107
 30
0.0
 11
253.8688845243
 21
184.0271014007
 31
0.0
  0
SPLINE
  5
B9
330
1F
100
AcDbEntity
  8
0
  6
Continuous
 62
     7
370
    15
100
AcDbSpline
210
0.0
220
0.0
230
1.0
 70
     8
 71
     3
 72
    10
 73
     6
 74
     0
 42
0.00000001
 43
0.00000001
 40
0.0
 40
0.0
 40
0.0
 40
0.0
 40
0.5
 40
0.5
 40
1.0
 40
1.0
 40
1.0
 40
1.0
 10
253.8688845242689
 20
184.0271014006881
 30
0.0
 10
253.8521080789187
 20
183.8210794491928
 30
0.0
 10
253.7610527493769
 20
183.5727332964119
 30
0.0
 10
253.4357273429866
 20
182.9972686985558
 30
0.0
 10
253.2014388197736
 20
182.6701188323669
 30
0.0
 10
252.89285752256
 20
182.3058117221951
 30
0.0
  0
SPLINE
  5
BA
330
1F
100
AcDbEntity
  8
0
  6
Continuous
 62
     7
370
    15
100
AcDbSpline
210
0.0
220
0.0
230
1.0
 70
     8
 71
     3
 72
    10
 73
     6
 74
     0
 42
0.00000001
 43
0.00000001
 40
0.0
 40
0.0
 40
0.0
 40
0.0
 40
0.5
 40
0.5
 40
1.0
 40
1.0
 40
1.0
 40
1.0
 10
205.7037337934972
 20
182.3058117221949
 30
0.0
 10
205.3951524962836
 20
182.6701188323668
 30
0.0
 10
205.1608639730706
 20
182.9972686985556
 30
0.0
 10
204.8355385666803
 20
183.5727332964117
 30
0.0
 10
204.7444832371385
 20
183.8210794491926
 30
0.0
 10
204.7277067917882
 20
184.027101400688
 30
0.0
  0
LINE
  5
BB
330
1F
100
AcDbEntity
  8
0
  6
Continuous
 62
     7
370
    15
100
AcDbLine
 10
204.1981683557
 20
184.7253437763
 30
0.0
 11
204.724795658
 21
184.7253437763
 31
0.0
  0
LINE
  5
BC
330
1F
100
AcDbEntity
  8
0
  6
Continuous
 62
     7
370
    15
100
AcDbLine
 10
253.871795658
 20
184.7253437763
 30
0.0
 11
254.398456567
 21
184.7253437763
 31
0.0
  0
LINE
  5
BD
330
1F
100
AcDbEntity
  8
0
  6
Continuous
 62
     8
370
     0
100
AcDbLine
 10
314.5610777923
 20
220.0993161846
 30
0.0
 11
144.0355135237
 21
220.0993161846
 31
0.0
  0
LINE
  5
BE
330
1F
100
AcDbEntity
  8
0
  6
Continuous
 62
     8
370
     0
100
AcDbLine
 10
313.392823655
 20
218.7517566861
 30
0.0
 11
145.2037676611
 21
218.7517566861
 31
0.0
  0
SPLINE
  5
BF
330
1F
100
AcDbEntity
  8
0
  6
Continuous
 62
     8
370
     0
100
AcDbSpline
210
0.0
220
0.0
230
1.0
 70
     8
 71
     3
 72
    40
 73
    36
 74
     0
 42
0.00000001
 43
0.00000001
 40
0.0
 40
0.0
 40
0.0
 40
0.0
 40
0.0036259921690288
 40
0.0301323212883198
 40
0.0568243805863659
 40
0.0837305617076062
 40
0.1110780345488471
 40
0.1642421033933216
 40
0.1911362010216944
 40
0.2184836738675992
 40
0.2449900029893641
 40
0.2716820622899456
 40
0.2985882434137938
 40
0.3259357162577886
 40
0.3524181325462379
 40
0.3790857726712182
 40
0.4060402847158763
 40
0.4333877575611403
 40
0.4546641894246285
 40
0.4975114809221344
 40
0.5408019829127755
 40
0.5939690649141549
 40
0.6208601415347034
 40
0.6482076143800195
 40
0.7013716832237434
 40
0.728265780851695
 40
0.7556132536971146
 40
0.8087773225409546
 40
0.835671420168991
 40
0.8630188930145387
 40
0.8895013093019493
 40
0.9161689494258815
 40
0.9431234614694609
 40
0.9704709343135945
 40
1.0
 40
1.0
 40
1.0
 40
1.0
 10
203.2313660233702
 20
151.1785391059738
 30
0.0
 10
203.2278348457201
 20
151.1785394099172
 30
0.0
 10
203.1984904416175
 20
151.1785419357142
 30
0.0
 10
203.319666742252
 20
151.1785486305715
 30
0.0
 10
203.6038077614967
 20
151.1785579031312
 30
0.0
 10
204.0926630484266
 20
151.1785671538412
 30
0.0
 10
204.9755502992879
 20
151.1785778304935
 30
0.0
 10
206.2117712368597
 20
151.1785850516831
 30
0.0
 10
207.7660499579744
 20
151.1785881963513
 30
0.0
 10
209.0898440643066
 20
151.178588750097
 30
0.0
 10
210.5540124101246
 20
151.1785878254519
 30
0.0
 10
212.1413885367205
 20
151.1785858491236
 30
0.0
 10
213.8676755595207
 20
151.1785831781239
 30
0.0
 10
215.7005938218811
 20
151.1785802035985
 30
0.0
 10
217.6246244154783
 20
151.1785772343892
 30
0.0
 10
219.6209492375442
 20
151.1785744961688
 30
0.0
 10
221.7078116564252
 20
151.1785721139194
 30
0.0
 10
223.7072157452509
 20
151.1785703656784
 30
0.0
 10
226.1657285554664
 20
151.1785688468785
 30
0.0
 10
229.0979606782644
 20
151.1785680574801
 30
0.0
 10
232.9026281397483
 20
151.1785688689631
 30
0.0
 10
236.2104964839939
 20
151.1785713410074
 30
0.0
 10
238.9787436468295
 20
151.1785744991851
 30
0.0
 10
241.6545388740959
 20
151.1785781687689
 30
0.0
 10
244.1685520121661
 20
151.1785823075693
 30
0.0
 10
246.4593824601937
 20
151.1785858568698
 30
0.0
 10
248.5865544400671
 20
151.1785885068917
 30
0.0
 10
250.450121788532
 20
151.1785889675331
 30
0.0
 10
252.0052589836352
 20
151.1785858170772
 30
0.0
 10
253.0117105869014
 20
151.1785814360943
 30
0.0
 10
253.8454498965424
 20
151.1785751067441
 30
0.0
 10
254.5069420118574
 20
151.1785671123804
 30
0.0
 10
254.9831022244549
 20
151.178558009967
 30
0.0
 10
255.3338117159187
 20
151.1785477256262
 30
0.0
 10
255.3026670936991
 20
151.1785425714285
 30
0.0
 10
255.2864974810774
 20
151.1785398954808
 30
0.0
  0
SPLINE
  5
C0
330
1F
100
AcDbEntity
  8
0
  6
Continuous
 62
     8
370
     0
100
AcDbSpline
210
0.0
220
0.0
230
1.0
 70
     8
 71
     3
 72
    56
 73
    52
 74
     0
 42
0.00000001
 43
0.00000001
 40
0.0
 40
0.0
 40
0.0
 40
0.0
 40
0.0021175046632571
 40
0.0213833145533225
 40
0.0407326242061658
 40
0.0596707463255769
 40
0.0788737051266813
 40
0.0982699436784107
 40
0.1171373069595373
 40
0.1553857928718758
 40
0.1740654453355797
 40
0.1930940958228035
 40
0.2026945723765839
 40
0.2122951877715265
 40
0.231221083489945
 40
0.250035773059643
 40
0.2695754716926975
 40
0.2885114250429073
 40
0.30785576686099
 40
0.3271198624648584
 40
0.3460364132303149
 40
0.3648537297880842
 40
0.3842937656109007
 40
0.403327216126588
 40
0.422511184897338
 40
0.4606757769156096
 40
0.4987395599038568
 40
0.5370509950822729
 40
0.5753798220244537
 40
0.5945392275477281
 40
0.6139474424620471
 40
0.6526668370869634
 40
0.6718335070282009
 40
0.6915210848682161
 40
0.7107618619740308
 40
0.7300125185025284
 40
0.7491974749644419
 40
0.7682574947926336
 40
0.78762924451095
 40
0.8064989004007412
 40
0.825152564783242
 40
0.8440424215289617
 40
0.8631080346402112
 40
0.8819719381034081
 40
0.9009551121627838
 40
0.9204172433634787
 40
0.9398880456479946
 40
0.9590870613304026
 40
0.9779506443621664
 40
0.997150200755962
 40
1.0
 40
1.0
 40
1.0
 40
1.0
 10
204.3747019465038
 20
149.6476815828139
 30
0.0
 10
204.374601213686
 20
149.6476773628306
 30
0.0
 10
204.3735839778963
 20
149.6476347479393
 30
0.0
 10
204.4553964046172
 20
149.6474814258796
 30
0.0
 10
204.6250526831166
 20
149.6475165251514
 30
0.0
 10
204.8900335858668
 20
149.6476093136105
 30
0.0
 10
205.2382626869978
 20
149.647750647323
 30
0.0
 10
205.6726420420396
 20
149.6476710141877
 30
0.0
 10
206.361025010338
 20
149.6475060041795
 30
0.0
 10
207.2020070788184
 20
149.6478914601283
 30
0.0
 10
208.196149620621
 20
149.6477520964795
 30
0.0
 10
208.8756172991091
 20
149.6476201483383
 30
0.0
 10
209.4596821079908
 20
149.6476181997362
 30
0.0
 10
210.0653266941167
 20
149.6476219538209
 30
0.0
 10
210.8593740093237
 20
149.6475727177512
 30
0.0
 10
211.883457927061
 20
149.6475954014588
 30
0.0
 10
212.9690996938134
 20
149.6475269714276
 30
0.0
 10
214.1222132835897
 20
149.6476777924432
 30
0.0
 10
215.3232927022634
 20
149.6478243713241
 30
0.0
 10
216.5738743594925
 20
149.6477728817643
 30
0.0
 10
217.8572172752262
 20
149.6476559677965
 30
0.0
 10
219.1834259453458
 20
149.6478299720961
 30
0.0
 10
220.5478005646048
 20
149.6480159611363
 30
0.0
 10
221.9521700922152
 20
149.6479324704297
 30
0.0
 10
223.8465688356565
 20
149.6477525000804
 30
0.0
 10
226.2662384736016
 20
149.6477612111707
 30
0.0
 10
229.2125556292999
 20
149.6476553469218
 30
0.0
 10
232.1644276030603
 20
149.647659028277
 30
0.0
 10
234.5967299209413
 20
149.6476015480103
 30
0.0
 10
236.5070831185967
 20
149.6477240376123
 30
0.0
 10
238.3929862520771
 20
149.6479243923258
 30
0.0
 10
240.2183014206831
 20
149.6475377901643
 30
0.0
 10
241.9676662754791
 20
149.6478043704033
 30
0.0
 10
243.2323891058681
 20
149.6479296921667
 30
0.0
 10
244.4481502904672
 20
149.6478907927667
 30
0.0
 10
245.5996004167492
 20
149.6477710771016
 30
0.0
 10
246.6904027487504
 20
149.6478360658541
 30
0.0
 10
247.7222159611538
 20
149.6478137257346
 30
0.0
 10
248.6834737175204
 20
149.6476929778103
 30
0.0
 10
249.5710017355054
 20
149.6477197651709
 30
0.0
 10
250.3827525238407
 20
149.6478152910761
 30
0.0
 10
251.1256763316954
 20
149.6478471328952
 30
0.0
 10
251.7958392495922
 20
149.647738766133
 30
0.0
 10
252.3892657386785
 20
149.6475275992626
 30
0.0
 10
252.9079596186935
 20
149.6476874003971
 30
0.0
 10
253.3483781680934
 20
149.6477539422354
 30
0.0
 10
253.701841884592
 20
149.6476816987428
 30
0.0
 10
253.9694600456033
 20
149.6475171317777
 30
0.0
 10
254.1333021862104
 20
149.6475913053778
 30
0.0
 10
254.2353940718651
 20
149.647619570204
 30
0.0
 10
254.2168181151545
 20
149.6476602102796
 30
0.0
 10
254.2144172401239
 20
149.647665462862
 30
0.0
  0
ENDSEC
  0
SECTION
  2
OBJECTS
  0
DICTIONARY
  5
C
330
0
100
AcDbDictionary
281
     1
  3
ACAD_GROUP
350
D
  3
ACAD_LAYOUT
350
1A
  3
ACAD_MATERIAL
350
3B
  3
ACAD_MLEADERSTYLE
350
C2
  3
ACAD_MLINESTYLE
350
17
  3
ACAD_PLOTSETTINGS
350
19
  3
ACAD_PLOTSTYLENAME
350
E
  3
ACAD_TABLESTYLE
350
C1
  3
ACAD_VISUALSTYLE
350
2A
  0
DICTIONARY
  5
D
102
{ACAD_REACTORS
330
C
102
}
330
C
100
AcDbDictionary
281
     1
  0
DICTIONARY
  5
1A
102
{ACAD_REACTORS
330
C
102
}
330
C
100
AcDbDictionary
281
     1
  3
Layout1
350
1E
  3
Layout2
350
26
  3
Model
350
22
  0
DICTIONARY
  5
3B
102
{ACAD_REACTORS
330
C
102
}
330
C
100
AcDbDictionary
281
     1
  3
ByBlock
350
3D
  3
ByLayer
350
3C
  3
Global
350
3E
  0
DICTIONARY
  5
C2
102
{ACAD_REACTORS
330
C
102
}
330
C
100
AcDbDictionary
281
     1
  0
DICTIONARY
  5
17
102
{ACAD_REACTORS
330
C
102
}
330
C
100
AcDbDictionary
281
     1
  3
Standard
350
18
  0
DICTIONARY
  5
19
102
{ACAD_REACTORS
330
C
102
}
330
C
100
AcDbDictionary
281
     1
  0
ACDBDICTIONARYWDFLT
  5
E
102
{ACAD_REACTORS
330
C
102
}
330
C
100
AcDbDictionary
281
     1
  3
Normal
350
F
100
AcDbDictionaryWithDefault
340
F
  0
DICTIONARY
  5
C1
102
{ACAD_REACTORS
330
C
102
}
330
C
100
AcDbDictionary
281
     1
  0
DICTIONARY
  5
2A
102
{ACAD_REACTORS
330
C
102
}
330
C
100
AcDbDictionary
281
     1
  3
2dWireframe
350
2F
  3
3D Hidden
350
31
  3
3dWireframe
350
30
  3
Basic
350
32
  3
Brighten
350
36
  3
ColorChange
350
3A
  3
Conceptual
350
34
  3
Dim
350
35
  3
Facepattern
350
39
  3
Flat
350
2B
  3
FlatWithEdges
350
2C
  3
Gouraud
350
2D
  3
GouraudWithEdges
350
2E
  3
Linepattern
350
38
  3
Realistic
350
33
  3
Thicken
350
37
  0
LAYOUT
  5
1E
102
{ACAD_REACTORS
330
1A
102
}
330
1A
100
AcDbPlotSettings
  1

  2
none_device
  4

  6

 40
0.0
 41
0.0
 42
0.0
 43
0.0
 44
0.0
 45
0.0
 46
0.0
 47
0.0
 48
0.0
 49
0.0
140
0.0
141
0.0
142
1.0
143
1.0
 70
   688
 72
     0
 73
     0
 74
     5
  7

 75
    16
 76
     0
 77
     2
 78
   300
147
1.0
148
0.0
149
0.0
100
AcDbLayout
  1
Layout1
 70
     1
 71
     1
 10
0.0
 20
0.0
 11
420.0
 21
297.0
 12
0.0
 22
0.0
 32
0.0
 14
1.0000000000E+20
 24
1.0000000000E+20
 34
1.0000000000E+20
 15
-1.0000000000E+20
 25
-1.0000000000E+20
 35
-1.0000000000E+20
146
0.0
 13
0.0
 23
0.0
 33
0.0
 16
1.0
 26
0.0
 36
0.0
 17
0.0
 27
1.0
 37
0.0
 76
     0
330
1B
  0
LAYOUT
  5
26
102
{ACAD_REACTORS
330
1A
102
}
330
1A
100
AcDbPlotSettings
  1

  2
none_device
  4

  6

 40
0.0
 41
0.0
 42
0.0
 43
0.0
 44
0.0
 45
0.0
 46
0.0
 47
0.0
 48
0.0
 49
0.0
140
0.0
141
0.0
142
1.0
143
1.0
 70
   688
 72
     0
 73
     0
 74
     5
  7

 75
    16
 76
     0
 77
     2
 78
   300
147
1.0
148
0.0
149
0.0
100
AcDbLayout
  1
Layout2
 70
     1
 71
     2
 10
0.0
 20
0.0
 11
0.0
 21
0.0
 12
0.0
 22
0.0
 32
0.0
 14
0.0
 24
0.0
 34
0.0
 15
0.0
 25
0.0
 35
0.0
146
0.0
 13
0.0
 23
0.0
 33
0.0
 16
1.0
 26
0.0
 36
0.0
 17
0.0
 27
1.0
 37
0.0
 76
     0
330
23
  0
LAYOUT
  5
22
102
{ACAD_REACTORS
330
1A
102
}
330
1A
100
AcDbPlotSettings
  1

  2
none_device
  4

  6

 40
0.0
 41
0.0
 42
0.0
 43
0.0
 44
0.0
 45
0.0
 46
0.0
 47
0.0
 48
0.0
 49
0.0
140
0.0
141
0.0
142
1.0
143
1.0
 70
  1712
 72
     0
 73
     0
 74
     0
  7

 75
     0
 76
     0
 77
     2
 78
   300
147
1.0
148
0.0
149
0.0
100
AcDbLayout
  1
Model
 70
     1
 71
     0
 10
0.0
 20
0.0
 11
594.0
 21
841.0
 12
0.0
 22
0.0
 32
0.0
 14
0.0
 24
0.0
 34
0.0
 15
594.0
 25
841.0
 35
0.0
146
0.0
 13
0.0
 23
0.0
 33
0.0
 16
1.0
 26
0.0
 36
0.0
 17
0.0
 27
1.0
 37
0.0
 76
     0
330
1F
331
29
  0
MATERIAL
  5
3D
102
{ACAD_REACTORS
330
3B
102
}
330
3B
100
AcDbMaterial
  1
ByBlock
 72
     1
 94
      127
  0
MATERIAL
  5
3C
102
{ACAD_REACTORS
330
3B
102
}
330
3B
100
AcDbMaterial
  1
ByLayer
 72
     1
 94
      127
  0
MATERIAL
  5
3E
102
{ACAD_REACTORS
330
3B
102
}
330
3B
100
AcDbMaterial
  1
Global
 72
     1
 94
      127
  0
MLINESTYLE
  5
18
102
{ACAD_REACTORS
330
17
102
}
330
17
100
AcDbMlineStyle
  2
Standard
 70
     0
  3

 62
   256
 51
90.0
 52
90.0
 71
     2
 49
0.5
 62
   256
  6
BYLAYER
 49
-0.5
 62
   256
  6
BYLAYER
  0
ACDBPLACEHOLDER
  5
F
102
{ACAD_REACTORS
330
E
102
}
330
E
  0
VISUALSTYLE
  5
2F
102
{ACAD_REACTORS
330
2A
102
}
330
2A
100
AcDbVisualStyle
  2
2dWireframe
 70
     4
177
     2
291
     0
 71
     0
176
     1
 72
     2
176
     1
 73
     0
176
     1
 90
        0
176
     1
 40
-0.6
176
     1
 41
-30.0
176
     1
 62
     5
 63
     7
421
 16777215
176
     1
 74
     1
176
     1
 91
        4
176
     1
 64
     7
176
     1
 65
   257
176
     1
 75
     1
176
     1
175
     1
176
     1
 42
1.0
176
     1
 92
        0
176
     1
 66
   257
176
     1
 43
1.0
176
     1
 76
     1
176
     1
 77
     6
176
     1
 78
     2
176
     1
 67
     7
176
     1
 79
     5
176
     1
170
     0
176
     1
171
     0
176
     1
290
     0
176
     1
 93
        1
176
     1
 44
0.0
176
     1
173
     0
176
     1
  0
VISUALSTYLE
  5
31
102
{ACAD_REACTORS
330
2A
102
}
330
2A
100
AcDbVisualStyle
  2
3D Hidden
 70
     6
177
     2
291
     0
 71
     1
176
     1
 72
     2
176
     1
 73
     2
176
     1
 90
        0
176
     1
 40
-0.6
176
     1
 41
-30.0
176
     1
 62
     5
 63
     7
421
 16777215
176
     1
 74
     2
176
     1
 91
        2
176
     1
 64
     7
176
     1
 65
   257
176
     1
 75
     2
176
     1
175
     1
176
     1
 42
40.0
176
     1
 92
        0
176
     1
 66
   257
176
     1
 43
1.0
176
     1
 76
     1
176
     1
 77
     6
176
     1
 78
     2
176
     1
 67
     7
176
     1
 79
     3
176
     1
170
     0
176
     1
171
     0
176
     1
290
     0
176
     1
 93
        1
176
     1
 44
0.0
176
     1
173
     0
176
     1
  0
VISUALSTYLE
  5
30
102
{ACAD_REACTORS
330
2A
102
}
330
2A
100
AcDbVisualStyle
  2
3dWireframe
 70
     5
177
     2
291
     0
 71
     0
176
     1
 72
     2
176
     1
 73
     0
176
     1
 90
        0
176
     1
 40
-0.6
176
     1
 41
-30.0
176
     1
 62
     5
 63
     7
421
 16777215
176
     1
 74
     1
176
     1
 91
        4
176
     1
 64
     7
176
     1
 65
   257
176
     1
 75
     1
176
     1
175
     1
176
     1
 42
1.0
176
     1
 92
        0
176
     1
 66
   257
176
     1
 43
1.0
176
     1
 76
     1
176
     1
 77
     6
176
     1
 78
     2
176
     1
 67
     7
176
     1
 79
     5
176
     1
170
     0
176
     1
171
     0
176
     1
290
     0
176
     1
 93
        1
176
     1
 44
0.0
176
     1
173
     0
176
     1
  0
VISUALSTYLE
  5
32
102
{ACAD_REACTORS
330
2A
102
}
330
2A
100
AcDbVisualStyle
  2
Basic
 70
     7
177
     2
291
     1
 71
     1
176
     1
 72
     0
176
     1
 73
     1
176
     1
 90
        0
176
     1
 40
-0.6
176
     1
 41
-30.0
176
     1
 62
     5
 63
     7
421
 16777215
176
     1
 74
     0
176
     1
 91
        4
176
     1
 64
     7
176
     1
 65
   257
176
     1
 75
     1
176
     1
175
     1
176
     1
 42
1.0
176
     1
 92
        8
176
     1
 66
     7
176
     1
 43
1.0
176
     1
 76
     1
176
     1
 77
     6
176
     1
 78
     2
176
     1
 67
     7
176
     1
 79
     5
176
     1
170
     0
176
     1
171
     0
176
     1
290
     0
176
     1
 93
        1
176
     1
 44
0.0
176
     1
173
     0
176
     1
  0
VISUALSTYLE
  5
36
102
{ACAD_REACTORS
330
2A
102
}
330
2A
100
AcDbVisualStyle
  2
Brighten
 70
    12
177
     2
291
     1
 71
     2
176
     1
 72
     2
176
     1
 73
     0
176
     1
 90
        0
176
     1
 40
-0.6
176
     1
 41
-30.0
176
     1
 62
     5
 63
     7
421
 16777215
176
     1
 74
     1
176
     1
 91
        4
176
     1
 64
     7
176
     1
 65
   257
176
     1
 75
     1
176
     1
175
     1
176
     1
 42
1.0
176
     1
 92
        8
176
     1
 66
     7
176
     1
 43
1.0
176
     1
 76
     1
176
     1
 77
     6
176
     1
 78
     2
176
     1
 67
     7
176
     1
 79
     5
176
     1
170
     0
176
     1
171
     0
176
     1
290
     0
176
     1
 93
        1
176
     1
 44
50.0
176
     1
173
     0
176
     1
  0
VISUALSTYLE
  5
3A
102
{ACAD_REACTORS
330
2A
102
}
330
2A
100
AcDbVisualStyle
  2
ColorChange
 70
    16
177
     2
291
     1
 71
     2
176
     1
 72
     2
176
     1
 73
     3
176
     1
 90
        0
176
     1
 40
-0.6
176
     1
 41
-30.0
176
     1
 62
     5
 63
     8
421
  8421504
176
     1
 74
     1
176
     1
 91
        4
176
     1
 64
     7
176
     1
 65
   257
176
     1
 75
     1
176
     1
175
     1
176
     1
 42
1.0
176
     1
 92
        8
176
     1
 66
     8
424
  8421504
176
     1
 43
1.0
176
     1
 76
     1
176
     1
 77
     6
176
     1
 78
     2
176
     1
 67
     7
176
     1
 79
     5
176
     1
170
     0
176
     1
171
     0
176
     1
290
     0
176
     1
 93
        1
176
     1
 44
0.0
176
     1
173
     0
176
     1
  0
VISUALSTYLE
  5
34
102
{ACAD_REACTORS
330
2A
102
}
330
2A
100
AcDbVisualStyle
  2
Conceptual
 70
     9
177
     2
291
     0
 71
     3
176
     1
 72
     2
176
     1
 73
     0
176
     1
 90
        0
176
     1
 40
-0.6
176
     1
 41
-30.0
176
     1
 62
     5
 63
     7
421
 16777215
176
     1
 74
     2
176
     1
 91
        2
176
     1
 64
     7
176
     1
 65
   257
176
     1
 75
     1
176
     1
175
     1
176
     1
 42
40.0
176
     1
 92
        8
176
     1
 66
     7
176
     1
 43
1.0
176
     1
 76
     1
176
     1
 77
     6
176
     1
 78
     2
176
     1
 67
     7
176
     1
 79
     3
176
     1
170
     0
176
     1
171
     0
176
     1
290
     0
176
     1
 93
        1
176
     1
 44
0.0
176
     1
173
     0
176
     1
  0
VISUALSTYLE
  5
35
102
{ACAD_REACTORS
330
2A
102
}
330
2A
100
AcDbVisualStyle
  2
Dim
 70
    11
177
     2
291
     1
 71
     2
176
     1
 72
     2
176
     1
 73
     0
176
     1
 90
        0
176
     1
 40
-0.6
176
     1
 41
-30.0
176
     1
 62
     5
 63
     7
421
 16777215
176
     1
 74
     1
176
     1
 91
        4
176
     1
 64
     7
176
     1
 65
   257
176
     1
 75
     1
176
     1
175
     1
176
     1
 42
1.0
176
     1
 92
        8
176
     1
 66
     7
176
     1
 43
1.0
176
     1
 76
     1
176
     1
 77
     6
176
     1
 78
     2
176
     1
 67
     7
176
     1
 79
     5
176
     1
170
     0
176
     1
171
     0
176
     1
290
     0
176
     1
 93
        1
176
     1
 44
-50.0
176
     1
173
     0
176
     1
  0
VISUALSTYLE
  5
39
102
{ACAD_REACTORS
330
2A
102
}
330
2A
100
AcDbVisualStyle
  2
Facepattern
 70
    15
177
     2
291
     1
 71
     2
176
     1
 72
     2
176
     1
 73
     0
176
     1
 90
        0
176
     1
 40
-0.6
176
     1
 41
-30.0
176
     1
 62
     5
 63
     7
421
 16777215
176
     1
 74
     1
176
     1
 91
        4
176
     1
 64
     7
176
     1
 65
   257
176
     1
 75
     1
176
     1
175
     1
176
     1
 42
1.0
176
     1
 92
        8
176
     1
 66
     7
176
     1
 43
1.0
176
     1
 76
     1
176
     1
 77
     6
176
     1
 78
     2
176
     1
 67
     7
176
     1
 79
     5
176
     1
170
     0
176
     1
171
     0
176
     1
290
     0
176
     1
 93
        1
176
     1
 44
0.0
176
     1
173
     0
176
     1
  0
VISUALSTYLE
  5
2B
102
{ACAD_REACTORS
330
2A
102
}
330
2A
100
AcDbVisualStyle
  2
Flat
 70
     0
177
     2
291
     1
 71
     2
176
     1
 72
     1
176
     1
 73
     1
176
     1
 90
        2
176
     1
 40
-0.6
176
     1
 41
30.0
176
     1
 62
     5
 63
     7
421
 16777215
176
     1
 74
     0
176
     1
 91
        4
176
     1
 64
     7
176
     1
 65
   257
176
     1
 75
     1
176
     1
175
     1
176
     1
 42
1.0
176
     1
 92
        8
176
     1
 66
     7
176
     1
 43
1.0
176
     1
 76
     1
176
     1
 77
     6
176
     1
 78
     2
176
     1
 67
     7
176
     1
 79
     5
176
     1
170
     0
176
     1
171
     0
176
     1
290
     0
176
     1
 93
       13
176
     1
 44
0.0
176
     1
173
     0
176
     1
  0
VISUALSTYLE
  5
2C
102
{ACAD_REACTORS
330
2A
102
}
330
2A
100
AcDbVisualStyle
  2
FlatWithEdges
 70
     1
177
     2
291
     1
 71
     2
176
     1
 72
     1
176
     1
 73
     1
176
     1
 90
        2
176
     1
 40
-0.6
176
     1
 41
30.0
176
     1
 62
     5
 63
     7
421
 16777215
176
     1
 74
     1
176
     1
 91
        4
176
     1
 64
     7
176
     1
 65
   257
176
     1
 75
     1
176
     1
175
     1
176
     1
 42
1.0
176
     1
 92
        0
176
     1
 66
   257
176
     1
 43
1.0
176
     1
 76
     1
176
     1
 77
     6
176
     1
 78
     2
176
     1
 67
     7
176
     1
 79
     5
176
     1
170
     0
176
     1
171
     0
176
     1
290
     0
176
     1
 93
       13
176
     1
 44
0.0
176
     1
173
     0
176
     1
  0
VISUALSTYLE
  5
2D
102
{ACAD_REACTORS
330
2A
102
}
330
2A
100
AcDbVisualStyle
  2
Gouraud
 70
     2
177
     2
291
     1
 71
     2
176
     1
 72
     2
176
     1
 73
     1
176
     1
 90
        2
176
     1
 40
-0.6
176
     1
 41
30.0
176
     1
 62
     5
 63
     7
421
 16777215
176
     1
 74
     0
176
     1
 91
        4
176
     1
 64
     7
176
     1
 65
   257
176
     1
 75
     1
176
     1
175
     1
176
     1
 42
1.0
176
     1
 92
        0
176
     1
 66
     7
176
     1
 43
1.0
176
     1
 76
     1
176
     1
 77
     6
176
     1
 78
     2
176
     1
 67
     7
176
     1
 79
     5
176
     1
170
     0
176
     1
171
     0
176
     1
290
     0
176
     1
 93
       13
176
     1
 44
0.0
176
     1
173
     0
176
     1
  0
VISUALSTYLE
  5
2E
102
{ACAD_REACTORS
330
2A
102
}
330
2A
100
AcDbVisualStyle
  2
GouraudWithEdges
 70
     3
177
     2
291
     1
 71
     2
176
     1
 72
     2
176
     1
 73
     1
176
     1
 90
        2
176
     1
 40
-0.6
176
     1
 41
30.0
176
     1
 62
     5
 63
     7
421
 16777215
176
     1
 74
     1
176
     1
 91
        4
176
     1
 64
     7
176
     1
 65
   257
176
     1
 75
     1
176
     1
175
     1
176
     1
 42
1.0
176
     1
 92
        0
176
     1
 66
   257
176
     1
 43
1.0
176
     1
 76
     1
176
     1
 77
     6
176
     1
 78
     2
176
     1
 67
     7
176
     1
 79
     5
176
     1
170
     0
176
     1
171
     0
176
     1
290
     0
176
     1
 93
       13
176
     1
 44
0.0
176
     1
173
     0
176
     1
  0
VISUALSTYLE
  5
38
102
{ACAD_REACTORS
330
2A
102
}
330
2A
100
AcDbVisualStyle
  2
Linepattern
 70
    14
177
     2
291
     1
 71
     2
176
     1
 72
     2
176
     1
 73
     0
176
     1
 90
        0
176
     1
 40
-0.6
176
     1
 41
-30.0
176
     1
 62
     5
 63
     7
421
 16777215
176
     1
 74
     1
176
     1
 91
        4
176
     1
 64
     7
176
     1
 65
   257
176
     1
 75
     7
176
     1
175
     7
176
     1
 42
1.0
176
     1
 92
        8
176
     1
 66
     7
176
     1
 43
1.0
176
     1
 76
     1
176
     1
 77
     6
176
     1
 78
     2
176
     1
 67
     7
176
     1
 79
     5
176
     1
170
     0
176
     1
171
     0
176
     1
290
     0
176
     1
 93
        1
176
     1
 44
0.0
176
     1
173
     0
176
     1
  0
VISUALSTYLE
  5
33
102
{ACAD_REACTORS
330
2A
102
}
330
2A
100
AcDbVisualStyle
  2
Realistic
 70
     8
177
     2
291
     0
 71
     2
176
     1
 72
     2
176
     1
 73
     0
176
     1
 90
        0
176
     1
 40
-0.6
176
     1
 41
-30.0
176
     1
 62
     5
 63
     7
421
 16777215
176
     1
 74
     1
176
     1
 91
        0
176
     1
 64
     7
176
     1
 65
   257
176
     1
 75
     1
176
     1
175
     1
176
     1
 42
1.0
176
     1
 92
        8
176
     1
 66
     8
424
  7895160
176
     1
 43
1.0
176
     1
 76
     1
176
     1
 77
     6
176
     1
 78
     2
176
     1
 67
     7
176
     1
 79
     5
176
     1
170
     0
176
     1
171
     0
176
     1
290
     0
176
     1
 93
       13
176
     1
 44
0.0
176
     1
173
     0
176
     1
  0
VISUALSTYLE
  5
37
102
{ACAD_REACTORS
330
2A
102
}
330
2A
100
AcDbVisualStyle
  2
Thicken
 70
    13
177
     2
291
     1
 71
     2
176
     1
 72
     2
176
     1
 73
     0
176
     1
 90
        0
176
     1
 40
-0.6
176
     1
 41
-30.0
176
     1
 62
     5
 63
     7
421
 16777215
176
     1
 74
     1
176
     1
 91
        4
176
     1
 64
     7
176
     1
 65
   257
176
     1
 75
     1
176
     1
175
     1
176
     1
 42
1.0
176
     1
 92
       12
176
     1
 66
     7
176
     1
 43
1.0
176
     1
 76
     1
176
     1
 77
     6
176
     1
 78
     2
176
     1
 67
     7
176
     1
 79
     5
176
     1
170
     0
176
     1
171
     0
176
     1
290
     0
176
     1
 93
        1
176
     1
 44
0.0
176
     1
173
     0
176
     1
  0
ENDSEC
  0
EOF
