  0
SECTION
  2
HEADER
  9
$ACADVER
  1
AC1024
  9
$ACADMAINTVER
 70
     6
  9
$DWGCODEPAGE
  3
ANSI_1252
  9
$INSBASE
 10
0.0
 20
0.0
 30
0.0
  9
$EXTMIN
 10
0.0
 20
0.0
 30
0.0
  9
$EXTMAX
 10
594.0
 20
841.0
 30
0.0
  9
$LIMMIN
 10
0.0
 20
0.0
  9
$LIMMAX
 10
594.0
 20
841.0
  9
$ORTHOMODE
 70
     0
  9
$REGENMODE
 70
     1
  9
$FILLMODE
 70
     1
  9
$QTEXTMODE
 70
     0
  9
$MIRRTEXT
 70
     1
  9
$LTSCALE
 40
1.0
  9
$ATTMODE
 70
     1
  9
$TEXTSIZE
 40
10.0
  9
$TRACEWID
 40
1.0
  9
$TEXTSTYLE
  7
Standard
  9
$CLAYER
  8
0
  9
$CELTYPE
  6
ByLayer
  9
$CECOLOR
 62
   256
  9
$CELTSCALE
 40
1.0
  9
$DISPSILH
 70
     0
  9
$DIMSCALE
 40
1.0
  9
$DIMASZ
 40
2.5
  9
$DIMEXO
 40
0.0
  9
$DIMDLI
 40
3.75
  9
$DIMRND
 40
0.0
  9
$DIMDLE
 40
0.0
  9
$DIMEXE
 40
1.0
  9
$DIMTP
 40
0.0
  9
$DIMTM
 40
0.0
  9
$DIMTXT
 40
3.5
  9
$DIMCEN
 40
2.5
  9
$DIMTSZ
 40
0.0
  9
$DIMTOL
 70
     0
  9
$DIMLIM
 70
     0
  9
$DIMTIH
 70
     1
  9
$DIMTOH
 70
     1
  9
$DIMSE1
 70
     0
  9
$DIMSE2
 70
     0
  9
$DIMTAD
 70
     1
  9
$DIMZIN
 70
     0
  9
$DIMBLK
  1

  9
$DIMASO
 70
     1
  9
$DIMSHO
 70
     1
  9
$DIMPOST
  1

  9
$DIMAPOST
  1

  9
$DIMALT
 70
     0
  9
$DIMALTD
 70
     3
  9
$DIMALTF
 40
0.0393700787
  9
$DIMLFAC
 40
1.0
  9
$DIMTOFL
 70
     1
  9
$DIMTVP
 40
0.0
  9
$DIMTIX
 70
     0
  9
$DIMSOXD
 70
     0
  9
$DIMSAH
 70
     0
  9
$DIMBLK1
  1

  9
$DIMBLK2
  1

  9
$DIMSTYLE
  2
ISO-25
  9
$DIMCLRD
 70
     0
  9
$DIMCLRE
 70
     0
  9
$DIMCLRT
 70
     0
  9
$DIMTFAC
 40
1.0
  9
$DIMGAP
 40
1.5
  9
$DIMJUST
 70
     0
  9
$DIMSD1
 70
     0
  9
$DIMSD2
 70
     0
  9
$DIMTOLJ
 70
     0
  9
$DIMTZIN
 70
     0
  9
$DIMALTZ
 70
     0
  9
$DIMALTTZ
 70
     0
  9
$DIMUPT
 70
     0
  9
$DIMDEC
 70
     2
  9
$DIMTDEC
 70
     2
  9
$DIMALTU
 70
     2
  9
$DIMALTTD
 70
     3
  9
$DIMTXSTY
  7
Standard
  9
$DIMAUNIT
 70
     0
  9
$DIMADEC
 70
     2
  9
$DIMALTRND
 40
0.0
  9
$DIMAZIN
 70
     0
  9
$DIMDSEP
 70
    44
  9
$DIMATFIT
 70
     3
  9
$DIMFRAC
 70
     0
  9
$DIMLDRBLK
  1

  9
$DIMLUNIT
 70
     2
  9
$DIMLWD
 70
    -2
  9
$DIMLWE
 70
    -2
  9
$DIMTMOVE
 70
     0
  9
$DIMFXL
 40
1.0
  9
$DIMFXLON
 70
     0
  9
$DIMJOGANG
 40
0.7853981634
  9
$DIMTFILL
 70
     0
  9
$DIMTFILLCLR
 70
     0
  9
$DIMARCSYM
 70
     0
  9
$DIMLTYPE
  6

  9
$DIMLTEX1
  6

  9
$DIMLTEX2
  6

  9
$DIMTXTDIRECTION
 70
     0
  9
$LUNITS
 70
     2
  9
$LUPREC
 70
     2
  9
$SKETCHINC
 40
1.0
  9
$FILLETRAD
 40
10.0
  9
$AUNITS
 70
     0
  9
$AUPREC
 70
     2
  9
$MENU
  1
.
  9
$ELEVATION
 40
0.0
  9
$PELEVATION
 40
0.0
  9
$THICKNESS
 40
0.0
  9
$LIMCHECK
 70
     0
  9
$CHAMFERA
 40
10.0
  9
$CHAMFERB
 40
10.0
  9
$CHAMFERC
 40
20.0
  9
$CHAMFERD
 40
0.0
  9
$SKPOLY
 70
     0
  9
$TDCREATE
 40
2456241.340444213
  9
$TDUCREATE
 40
2456241.298777546
  9
$TDUPDATE
 40
2456241.340451435
  9
$TDUUPDATE
 40
2456241.298784769
  9
$TDINDWG
 40
0.0000000116
  9
$TDUSRTIMER
 40
0.0000000116
  9
$USRTIMER
 70
     1
  9
$ANGBASE
 50
0.0
  9
$ANGDIR
 70
     0
  9
$PDMODE
 70
     0
  9
$PDSIZE
 40
-1.0
  9
$PLINEWID
 40
0.0
  9
$SPLFRAME
 70
     0
  9
$SPLINETYPE
 70
     6
  9
$SPLINESEGS
 70
     8
  9
$HANDSEED
  5
148
  9
$SURFTAB1
 70
     6
  9
$SURFTAB2
 70
     6
  9
$SURFTYPE
 70
     6
  9
$SURFU
 70
     6
  9
$SURFV
 70
     6
  9
$UCSBASE
  2

  9
$UCSNAME
  2

  9
$UCSORG
 10
0.0
 20
0.0
 30
0.0
  9
$UCSXDIR
 10
1.0
 20
0.0
 30
0.0
  9
$UCSYDIR
 10
0.0
 20
1.0
 30
0.0
  9
$UCSORTHOREF
  2

  9
$UCSORTHOVIEW
 70
     0
  9
$UCSORGTOP
 10
0.0
 20
0.0
 30
0.0
  9
$UCSORGBOTTOM
 10
0.0
 20
0.0
 30
0.0
  9
$UCSORGLEFT
 10
0.0
 20
0.0
 30
0.0
  9
$UCSORGRIGHT
 10
0.0
 20
0.0
 30
0.0
  9
$UCSORGFRONT
 10
0.0
 20
0.0
 30
0.0
  9
$UCSORGBACK
 10
0.0
 20
0.0
 30
0.0
  9
$PUCSBASE
  2

  9
$PUCSNAME
  2

  9
$PUCSORG
 10
0.0
 20
0.0
 30
0.0
  9
$PUCSXDIR
 10
1.0
 20
0.0
 30
0.0
  9
$PUCSYDIR
 10
0.0
 20
1.0
 30
0.0
  9
$PUCSORTHOREF
  2

  9
$PUCSORTHOVIEW
 70
     0
  9
$PUCSORGTOP
 10
0.0
 20
0.0
 30
0.0
  9
$PUCSORGBOTTOM
 10
0.0
 20
0.0
 30
0.0
  9
$PUCSORGLEFT
 10
0.0
 20
0.0
 30
0.0
  9
$PUCSORGRIGHT
 10
0.0
 20
0.0
 30
0.0
  9
$PUCSORGFRONT
 10
0.0
 20
0.0
 30
0.0
  9
$PUCSORGBACK
 10
0.0
 20
0.0
 30
0.0
  9
$USERI1
 70
     0
  9
$USERI2
 70
     0
  9
$USERI3
 70
     0
  9
$USERI4
 70
     0
  9
$USERI5
 70
     0
  9
$USERR1
 40
0.0
  9
$USERR2
 40
0.0
  9
$USERR3
 40
0.0
  9
$USERR4
 40
0.0
  9
$USERR5
 40
0.0
  9
$WORLDVIEW
 70
     1
  9
$SHADEDGE
 70
     3
  9
$SHADEDIF
 70
    70
  9
$TILEMODE
 70
     1
  9
$MAXACTVP
 70
    64
  9
$PINSBASE
 10
0.0
 20
0.0
 30
0.0
  9
$PLIMCHECK
 70
     0
  9
$PEXTMIN
 10
1.0000000000E+20
 20
1.0000000000E+20
 30
1.0000000000E+20
  9
$PEXTMAX
 10
-1.0000000000E+20
 20
-1.0000000000E+20
 30
-1.0000000000E+20
  9
$PLIMMIN
 10
0.0
 20
0.0
  9
$PLIMMAX
 10
420.0
 20
297.0
  9
$UNITMODE
 70
     0
  9
$VISRETAIN
 70
     1
  9
$PLINEGEN
 70
     0
  9
$PSLTSCALE
 70
     1
  9
$TREEDEPTH
 70
  3020
  9
$CMLSTYLE
  2
Standard
  9
$CMLJUST
 70
     0
  9
$CMLSCALE
 40
20.0
  9
$PROXYGRAPHICS
 70
     1
  9
$MEASUREMENT
 70
     1
  9
$CELWEIGHT
370
    -1
  9
$ENDCAPS
280
     0
  9
$JOINSTYLE
280
     0
  9
$LWDISPLAY
290
     1
  9
$INSUNITS
 70
     4
  9
$HYPERLINKBASE
  1

  9
$STYLESHEET
  1

  9
$XEDIT
290
     1
  9
$CEPSNTYPE
380
     0
  9
$PSTYLEMODE
290
     1
  9
$FINGERPRINTGUID
  2
{8F28D695-B600-4F9F-8E47-5A1EC5BDA170}
  9
$VERSIONGUID
  2
{FAEB1C32-E019-11D5-929B-00C0DF256EC4}
  9
$EXTNAMES
290
     1
  9
$PSVPSCALE
 40
0.0
  9
$OLESTARTUP
290
     0
  9
$SORTENTS
280
   127
  9
$INDEXCTL
280
     0
  9
$HIDETEXT
280
     1
  9
$XCLIPFRAME
280
     2
  9
$HALOGAP
280
     0
  9
$OBSCOLOR
 70
   257
  9
$OBSLTYPE
280
     0
  9
$INTERSECTIONDISPLAY
280
     0
  9
$INTERSECTIONCOLOR
 70
   257
  9
$DIMASSOC
280
     2
  9
$PROJECTNAME
  1

  9
$CAMERADISPLAY
290
     0
  9
$LENSLENGTH
 40
50.0
  9
$CAMERAHEIGHT
 40
0.0
  9
$STEPSPERSEC
 40
2.0
  9
$STEPSIZE
 40
6.0
  9
$3DDWFPREC
 40
2.0
  9
$PSOLWIDTH
 40
5.0
  9
$PSOLHEIGHT
 40
80.0
  9
$LOFTANG1
 40
1.5707963268
  9
$LOFTANG2
 40
1.5707963268
  9
$LOFTMAG1
 40
0.0
  9
$LOFTMAG2
 40
0.0
  9
$LOFTPARAM
 70
     7
  9
$LOFTNORMALS
280
     1
  9
$LATITUDE
 40
37.795
  9
$LONGITUDE
 40
-122.394
  9
$NORTHDIRECTION
 40
0.0
  9
$TIMEZONE
 70
 -8000
  9
$LIGHTGLYPHDISPLAY
280
     1
  9
$TILEMODELIGHTSYNCH
280
     1
  9
$SOLIDHIST
280
     1
  9
$SHOWHIST
280
     1
  9
$DWFFRAME
280
     2
  9
$DGNFRAME
280
     2
  9
$REALWORLDSCALE
290
     1
  9
$INTERFERECOLOR
 62
   256
  9
$CSHADOW
280
     0
  9
$SHADOWPLANELOCATION
 40
0.0
  0
ENDSEC
  0
SECTION
  2
CLASSES
  0
CLASS
  1
ACDBDICTIONARYWDFLT
  2
AcDbDictionaryWithDefault
  3
ObjectDBX Classes
 90
        0
 91
        4
280
     0
281
     0
  0
CLASS
  1
VISUALSTYLE
  2
AcDbVisualStyle
  3
ObjectDBX Classes
 90
     4095
 91
        4
280
     0
281
     0
  0
CLASS
  1
MATERIAL
  2
AcDbMaterial
  3
ObjectDBX Classes
 90
     1153
 91
        4
280
     0
281
     0
  0
ENDSEC
  0
SECTION
  2
TABLES
  0
TABLE
  2
VPORT
  5
8
330
0
100
AcDbSymbolTable
 70
     1
  0
VPORT
  5
29
330
8
100
AcDbSymbolTableRecord
100
AcDbViewportTableRecord
  2
*Active
 70
     0
 10
0.0
 20
0.0
 11
1.0
 21
1.0
 12
297.0
 22
420.5
 13
0.0
 23
0.0
 14
10.0
 24
10.0
 15
10.0
 25
10.0
 16
0.0
 26
0.0
 36
1.0
 17
0.0
 27
0.0
 37
0.0
 40
841.0
 41
0.7063020214
 42
50.0
 43
0.0
 44
0.0
 50
0.0
 51
0.0
 71
     0
 72
  2000
 73
     1
 74
     3
 75
     0
 76
     0
 77
     0
 78
     0
281
     0
 65
     1
110
0.0
120
0.0
130
0.0
111
1.0
121
0.0
131
0.0
112
0.0
122
1.0
132
0.0
 79
     0
146
0.0
 60
     3
 61
     5
292
     1
282
     1
141
0.0
142
0.0
 63
   250
  0
ENDTAB
  0
TABLE
  2
LTYPE
  5
5
330
0
100
AcDbSymbolTable
 70
     6
  0
LTYPE
  5
14
330
5
100
AcDbSymbolTableRecord
100
AcDbLinetypeTableRecord
  2
ByBlock
 70
     0
  3

 72
    65
 73
     0
 40
0.0
  0
LTYPE
  5
15
330
5
100
AcDbSymbolTableRecord
100
AcDbLinetypeTableRecord
  2
ByLayer
 70
     0
  3

 72
    65
 73
     0
 40
0.0
  0
LTYPE
  5
16
330
5
100
AcDbSymbolTableRecord
100
AcDbLinetypeTableRecord
  2
Continuous
 70
     0
  3
Solid line
 72
    65
 73
     0
 40
0.0
  0
LTYPE
  5
3F
330
5
100
AcDbSymbolTableRecord
100
AcDbLinetypeTableRecord
  2
HIDDEN
 70
     0
  3
Hidden __ __ __ __ __ __ __ __ __ __ __ __ __ __
 72
    65
 73
     2
 40
1.905
 49
1.27
 74
     0
 49
-0.635
 74
     0
  0
LTYPE
  5
40
330
5
100
AcDbSymbolTableRecord
100
AcDbLinetypeTableRecord
  2
PHANTOM
 70
     0
  3
Phantom ______  __  __  ______  __  __  ______
 72
    65
 73
     6
 40
12.7
 49
6.35
 74
     0
 49
-1.27
 74
     0
 49
1.27
 74
     0
 49
-1.27
 74
     0
 49
1.27
 74
     0
 49
-1.27
 74
     0
  0
LTYPE
  5
41
330
5
100
AcDbSymbolTableRecord
100
AcDbLinetypeTableRecord
  2
CENTER
 70
     0
  3
Center ____ _ ____ _ ____ _ ____ _ ____ _ ____
 72
    65
 73
     4
 40
10.16
 49
6.35
 74
     0
 49
-1.27
 74
     0
 49
1.27
 74
     0
 49
-1.27
 74
     0
  0
LTYPE
  5
42
330
5
100
AcDbSymbolTableRecord
100
AcDbLinetypeTableRecord
  2
CENTERX2
 70
     0
  3
Center (2x) ________  __  ________  __  _____
 72
    65
 73
     4
 40
20.32
 49
12.7
 74
     0
 49
-2.54
 74
     0
 49
2.54
 74
     0
 49
-2.54
 74
     0
  0
LTYPE
  5
43
330
5
100
AcDbSymbolTableRecord
100
AcDbLinetypeTableRecord
  2
DOT2
 70
     0
  3
Dot (.5x) ........................................
 72
    65
 73
     2
 40
0.635
 49
0.0
 74
     0
 49
-0.635
 74
     0
  0
ENDTAB
  0
TABLE
  2
LAYER
  5
2
330
0
100
AcDbSymbolTable
 70
     1
  0
LAYER
  5
10
330
2
100
AcDbSymbolTableRecord
100
AcDbLayerTableRecord
  2
0
 70
     0
 62
     7
  6
Continuous
370
    -3
390
F
347
3E
  0
ENDTAB
  0
TABLE
  2
STYLE
  5
3
330
0
100
AcDbSymbolTable
 70
     3
  0
STYLE
  5
11
330
3
100
AcDbSymbolTableRecord
100
AcDbTextStyleTableRecord
  2
Standard
 70
     0
 40
0.0
 41
1.0
 50
0.0
 71
     0
 42
10.0
  3
txt
  4

  0
STYLE
  5
47
330
3
100
AcDbSymbolTableRecord
100
AcDbTextStyleTableRecord
  2
SLDTEXTSTYLE0
 70
     0
 40
0.0
 41
0.96
 50
0.0
 71
     0
 42
0.2
  3
ISOCP3
  4

  0
STYLE
  5
5E
330
3
100
AcDbSymbolTableRecord
100
AcDbTextStyleTableRecord
  2
SLDTEXTSTYLE1
 70
     0
 40
0.0
 41
0.605
 50
0.0
 71
     0
 42
0.2
  3
TXT
  4

  0
ENDTAB
  0
TABLE
  2
VIEW
  5
6
330
0
100
AcDbSymbolTable
 70
     0
  0
ENDTAB
  0
TABLE
  2
UCS
  5
7
330
0
100
AcDbSymbolTable
 70
     0
  0
ENDTAB
  0
TABLE
  2
APPID
  5
9
330
0
100
AcDbSymbolTable
 70
     1
  0
APPID
  5
12
330
9
100
AcDbSymbolTableRecord
100
AcDbRegAppTableRecord
  2
ACAD
 70
     0
  0
ENDTAB
  0
TABLE
  2
DIMSTYLE
  5
A
330
0
100
AcDbSymbolTable
 70
     2
100
AcDbDimStyleTable
  0
DIMSTYLE
105
27
330
A
100
AcDbSymbolTableRecord
100
AcDbDimStyleTableRecord
  2
ISO-25
 70
     0
 41
2.5
 42
0.625
 43
3.75
 44
1.25
 73
     0
 74
     0
 77
     1
 78
     8
140
2.5
141
2.5
143
0.0393700787
147
0.625
171
     3
172
     1
178
     0
271
     2
272
     2
274
     3
278
    44
283
     0
284
     8
340
11
  0
DIMSTYLE
105
48
102
{ACAD_REACTORS
330
46
330
53
102
}
330
A
100
AcDbSymbolTableRecord
100
AcDbDimStyleTableRecord
  2
SLDDIMSTYLE0
 70
     0
 41
2.5
 44
0.0
 45
0.000000001
 73
     0
 74
     0
 77
     1
 78
    12
 79
     3
140
6.0
147
1.5
173
     1
178
     0
271
     2
272
     2
276
     2
284
    12
340
47
  0
ENDTAB
  0
TABLE
  2
BLOCK_RECORD
  5
1
330
0
100
AcDbSymbolTable
 70
     3
  0
BLOCK_RECORD
  5
1F
330
1
100
AcDbSymbolTableRecord
100
AcDbBlockTableRecord
  2
*Model_Space
340
22
 70
     0
280
     1
281
     0
  0
BLOCK_RECORD
  5
1B
330
1
100
AcDbSymbolTableRecord
100
AcDbBlockTableRecord
  2
*Paper_Space
340
1E
 70
     0
280
     1
281
     0
  0
BLOCK_RECORD
  5
23
330
1
100
AcDbSymbolTableRecord
100
AcDbBlockTableRecord
  2
*Paper_Space0
340
26
 70
     0
280
     1
281
     0
  0
BLOCK_RECORD
  5
49
330
1
100
AcDbSymbolTableRecord
100
AcDbBlockTableRecord
  2
_D
340
0
 70
     0
280
     1
281
     0
  0
BLOCK_RECORD
  5
54
330
1
100
AcDbSymbolTableRecord
100
AcDbBlockTableRecord
  2
_D_1
340
0
 70
     0
280
     1
281
     0
  0
ENDTAB
  0
ENDSEC
  0
SECTION
  2
BLOCKS
  0
BLOCK
  5
20
330
1F
100
AcDbEntity
  8
0
100
AcDbBlockBegin
  2
*Model_Space
 70
     0
 10
0.0
 20
0.0
 30
0.0
  3
*Model_Space
  1

  0
ENDBLK
  5
21
330
1F
100
AcDbEntity
  8
0
100
AcDbBlockEnd
  0
BLOCK
  5
1C
330
1B
100
AcDbEntity
 67
     1
  8
0
100
AcDbBlockBegin
  2
*Paper_Space
 70
     0
 10
0.0
 20
0.0
 30
0.0
  3
*Paper_Space
  1

  0
ENDBLK
  5
1D
330
1B
100
AcDbEntity
 67
     1
  8
0
100
AcDbBlockEnd
  0
BLOCK
  5
24
330
23
100
AcDbEntity
  8
0
100
AcDbBlockBegin
  2
*Paper_Space0
 70
     0
 10
0.0
 20
0.0
 30
0.0
  3
*Paper_Space0
  1

  0
ENDBLK
  5
25
330
23
100
AcDbEntity
  8
0
100
AcDbBlockEnd
  0
BLOCK
  5
4A
330
49
100
AcDbEntity
  8
0
100
AcDbBlockBegin
  2
_D
 70
     0
 10
0.0
 20
0.0
 30
0.0
  3
_D
  1

  0
SOLID
  5
4C
330
49
100
AcDbEntity
  8
0
  6
Continuous
 62
     7
370
     0
100
AcDbTrace
 10
42.7614395004
 20
152.0299240879
 30
0.0
 11
42.4614395004
 21
149.5299240879
 31
0.0
 12
43.0614395004
 22
149.5299240879
 32
0.0
 13
43.0614395004
 23
149.5299240879
 33
0.0
  0
SOLID
  5
4D
330
49
100
AcDbEntity
  8
0
  6
Continuous
 62
     7
370
     0
100
AcDbTrace
 10
42.7614395004
 20
52.0299240879
 30
0.0
 11
43.0614395004
 21
54.5299240879
 31
0.0
 12
42.4614395004
 22
54.5299240879
 32
0.0
 13
42.4614395004
 23
54.5299240879
 33
0.0
  0
LINE
  5
4E
330
49
100
AcDbEntity
  8
0
  6
Continuous
 62
     7
370
     0
100
AcDbLine
 10
56.6850079902
 20
152.0299240879
 30
0.0
 11
41.7614395004
 21
152.0299240879
 31
0.0
  0
LINE
  5
4F
330
49
100
AcDbEntity
  8
0
  6
Continuous
 62
     7
370
     0
100
AcDbLine
 10
56.6850079902
 20
52.0299240879
 30
0.0
 11
41.7614395004
 21
52.0299240879
 31
0.0
  0
LINE
  5
50
330
49
100
AcDbEntity
  8
0
  6
Continuous
 62
     7
370
     0
100
AcDbLine
 10
42.7614395004
 20
152.0299240879
 30
0.0
 11
42.7614395004
 21
52.0299240879
 31
0.0
  0
MTEXT
  5
51
330
49
100
AcDbEntity
  8
0
  6
Continuous
 62
     7
370
     0
100
AcDbMText
 10
35.0270332946
 20
91.6722208134
 30
0.1
 40
6.0
 41
0.0
 46
0.0
 71
     1
 72
     1
  1
100
  7
SLDTEXTSTYLE0
 11
-7.044195017643634E-15
 21
1.0
 31
0.0
 73
     1
 44
1.0
  0
MTEXT
  5
52
330
49
100
AcDbEntity
  8
0
  6
Continuous
 62
     7
370
     0
100
AcDbMText
 10
35.0270332946
 20
108.4388881795
 30
0.1
 40
6.0
 41
0.0
 46
0.0
 71
     1
 72
     1
  1
mm
  7
SLDTEXTSTYLE0
 11
-7.044195017643634E-15
 21
1.0
 31
0.0
 73
     1
 44
1.0
  0
ENDBLK
  5
4B
330
49
100
AcDbEntity
  8
0
100
AcDbBlockEnd
  0
BLOCK
  5
55
330
54
100
AcDbEntity
  8
0
100
AcDbBlockBegin
  2
_D_1
 70
     0
 10
0.0
 20
0.0
 30
0.0
  3
_D_1
  1

  0
SOLID
  5
57
330
54
100
AcDbEntity
  8
0
  6
Continuous
 62
     7
370
     0
100
AcDbTrace
 10
56.6850079902
 20
38.4602342313
 30
0.0
 11
59.1850079902
 21
38.1602342313
 31
0.0
 12
59.1850079902
 22
38.7602342313
 32
0.0
 13
59.1850079902
 23
38.7602342313
 33
0.0
  0
SOLID
  5
58
330
54
100
AcDbEntity
  8
0
  6
Continuous
 62
     7
370
     0
100
AcDbTrace
 10
156.6850079902
 20
38.4602342313
 30
0.0
 11
154.1850079902
 21
38.7602342313
 31
0.0
 12
154.1850079902
 22
38.1602342313
 32
0.0
 13
154.1850079902
 23
38.1602342313
 33
0.0
  0
LINE
  5
59
330
54
100
AcDbEntity
  8
0
  6
Continuous
 62
     7
370
     0
100
AcDbLine
 10
56.6850079902
 20
52.0299240879
 30
0.0
 11
56.6850079902
 21
37.4602342313
 31
0.0
  0
LINE
  5
5A
330
54
100
AcDbEntity
  8
0
  6
Continuous
 62
     7
370
     0
100
AcDbLine
 10
156.6850079902
 20
52.0299240879
 30
0.0
 11
156.6850079902
 21
37.4602342313
 31
0.0
  0
LINE
  5
5B
330
54
100
AcDbEntity
  8
0
  6
Continuous
 62
     7
370
     0
100
AcDbLine
 10
56.6850079902
 20
38.4602342313
 30
0.0
 11
156.6850079902
 21
38.4602342313
 31
0.0
  0
MTEXT
  5
5C
330
54
100
AcDbEntity
  8
0
  6
Continuous
 62
     7
370
     0
100
AcDbMText
 10
91.2668151533
 20
46.1946404371
 30
0.1
 40
6.0
 41
0.0
 46
0.0
 71
     1
 72
     1
  1
100
  7
SLDTEXTSTYLE0
 73
     1
 44
1.0
  0
MTEXT
  5
5D
330
54
100
AcDbEntity
  8
0
  6
Continuous
 62
     7
370
     0
100
AcDbMText
 10
108.0334825193
 20
46.1946404371
 30
0.1
 40
6.0
 41
0.0
 46
0.0
 71
     1
 72
     1
  1
mm
  7
SLDTEXTSTYLE0
 73
     1
 44
1.0
  0
ENDBLK
  5
56
330
54
100
AcDbEntity
  8
0
100
AcDbBlockEnd
  0
ENDSEC
  0
SECTION
  2
ENTITIES
  0
LINE
  5
44
330
1F
100
AcDbEntity
  8
0
  6
Continuous
 62
     7
370
     0
100
AcDbLine
 10
56.6850079902
 20
152.0299240879
 30
0.0
 11
56.6850079902
 21
52.0299240879
 31
0.0
  0
LINE
  5
45
330
1F
100
AcDbEntity
  8
0
  6
Continuous
 62
     7
370
     0
100
AcDbLine
 10
56.6850079902
 20
52.0299240879
 30
0.0
 11
156.6850079902
 21
52.0299240879
 31
0.0
  0
DIMENSION
  5
46
330
1F
100
AcDbEntity
  8
0
  6
Continuous
 62
     7
370
     0
100
AcDbDimension
280
     0
  2
_D
 10
42.7614395004
 20
52.0299240879
 30
0.0
 11
42.7614395004
 21
105.4472211621
 31
0.0
 70
   160
  1
<>mm
 71
     2
 42
-1.0
 73
     0
 74
     0
 75
     0
  3
SLDDIMSTYLE0
100
AcDbAlignedDimension
 13
56.6850079902
 23
152.0299240879
 33
0.0
 14
56.6850079902
 24
52.0299240879
 34
0.0
 50
90.0
100
AcDbRotatedDimension
  0
DIMENSION
  5
53
330
1F
100
AcDbEntity
  8
0
  6
Continuous
 62
     7
370
     0
100
AcDbDimension
280
     0
  2
_D_1
 10
156.6850079902
 20
38.4602342313
 30
0.0
 11
105.0418155019
 21
38.4602342313
 31
0.0
 70
   160
  1
<>mm
 71
     2
 42
-1.0
 73
     0
 74
     0
 75
     0
  3
SLDDIMSTYLE0
100
AcDbAlignedDimension
 13
56.6850079902
 23
52.0299240879
 33
0.0
 14
156.6850079902
 24
52.0299240879
 34
0.0
100
AcDbRotatedDimension
  0
MTEXT
  5
5F
330
1F
100
AcDbEntity
  8
0
  6
Continuous
 62
     7
370
     0
100
AcDbMText
 10
279.0067143019
 20
46.8634116465
 30
0.0
 40
10.0
 41
0.0
 46
0.0
 71
     1
 72
     1
  1
32 233 05 75
  7
SLDTEXTSTYLE1
 73
     1
 44
1.0
  0
MTEXT
  5
60
330
1F
100
AcDbEntity
  8
0
  6
Continuous
 62
     7
370
     0
100
AcDbMText
 10
412.8252631579
 20
48.4342449499
 30
0.0
 40
10.0
 41
0.0
 46
0.0
 71
     1
 72
     1
  1
KLUDI GmbH & Co KG
  7
SLDTEXTSTYLE1
 73
     1
 44
1.0
  0
LINE
  5
61
330
1F
100
AcDbEntity
  8
0
  6
Continuous
 62
     7
370
    15
100
AcDbLine
 10
164.5484509292
 20
397.5746345969
 30
0.0
 11
163.8744241266
 21
397.405696255
 31
0.0
  0
LINE
  5
62
330
1F
100
AcDbEntity
  8
0
  6
Continuous
 62
     7
370
    15
100
AcDbLine
 10
205.9316098558
 20
397.4590159002
 30
0.0
 11
205.470735386
 21
397.5745067683
 31
0.0
  0
SPLINE
  5
63
330
1F
100
AcDbEntity
  8
0
  6
Continuous
 62
     7
370
    15
100
AcDbSpline
210
0.0
220
0.0
230
1.0
 70
     8
 71
     3
 72
    11
 73
     7
 74
     0
 42
0.00000001
 43
0.00000001
 12
1.0
 22
0.0
 32
0.0
 13
1.0
 23
0.0
 33
0.0
 40
0.0
 40
0.0
 40
0.0
 40
0.0
 40
0.0850655691894537
 40
0.3991785941220612
 40
0.7189202716623075
 40
1.0
 40
1.0
 40
1.0
 40
1.0
 10
172.9167326938921
 20
382.7496782218595
 30
0.0
 10
172.9144766624925
 20
382.7641180813575
 30
0.0
 10
172.9038900120892
 20
382.8318785497661
 30
0.0
 10
172.8947377487482
 20
382.7506506914579
 30
0.0
 10
172.9346758513003
 20
382.8182874842589
 30
0.0
 10
173.1300278573036
 20
382.8378257391646
 30
0.0
 10
173.2214185571695
 20
382.8469662380338
 30
0.0
  0
SPLINE
  5
64
330
1F
100
AcDbEntity
  8
0
  6
Continuous
 62
     7
370
    15
100
AcDbSpline
210
0.0
220
0.0
230
1.0
 70
     8
 71
     3
 72
    11
 73
     7
 74
     0
 42
0.00000001
 43
0.00000001
 12
1.0
 22
0.0
 32
0.0
 13
1.0
 23
0.0
 33
0.0
 40
0.0
 40
0.0
 40
0.0
 40
0.0
 40
0.1541027361545922
 40
0.5567676342660355
 40
0.9490531423236047
 40
1.0
 40
1.0
 40
1.0
 40
1.0
 10
196.9494836242126
 20
382.807000372795
 30
0.0
 10
196.9867029971654
 20
382.8014018626238
 30
0.0
 10
197.1211752508376
 20
382.7811746470581
 30
0.0
 10
197.1013603114971
 20
382.7379161505182
 30
0.0
 10
197.1223293991821
 20
382.8060929048217
 30
0.0
 10
197.1050294282462
 20
382.7343548640744
 30
0.0
 10
197.1030409020798
 20
382.7261090137384
 30
0.0
  0
LINE
  5
65
330
1F
100
AcDbEntity
  8
0
  6
Continuous
 62
     7
370
    15
100
AcDbLine
 10
173.2691359785
 20
376.7370947019
 30
0.0
 11
174.2475010476
 21
375.7997464089
 31
0.0
  0
LINE
  5
66
330
1F
100
AcDbEntity
  8
0
  6
Continuous
 62
     7
370
    15
100
AcDbLine
 10
195.7715325687
 20
375.7997464089
 30
0.0
 11
196.7498976378
 21
376.7370947019
 31
0.0
  0
LINE
  5
67
330
1F
100
AcDbEntity
  8
0
  6
Continuous
 62
     7
370
    15
100
AcDbLine
 10
197.0095168082
 20
377.2400649645
 30
0.0
 11
197.0095168082
 21
382.8818465733
 31
0.0
  0
LINE
  5
68
330
1F
100
AcDbEntity
  8
0
  6
Continuous
 62
     7
370
    15
100
AcDbLine
 10
173.0095168082
 20
382.9179224259
 30
0.0
 11
173.0095168082
 21
377.2400649645
 31
0.0
  0
LINE
  5
69
330
1F
100
AcDbEntity
  8
0
  6
Continuous
 62
     7
370
    15
100
AcDbLine
 10
200.1616292249
 20
431.0993619685
 30
0.0
 11
200.4159214222
 21
432.0980291589
 31
0.0
  0
LINE
  5
6A
330
1F
100
AcDbEntity
  8
0
  6
Continuous
 62
     7
370
    15
100
AcDbLine
 10
169.5946035646
 20
432.0964674191
 30
0.0
 11
169.7171738829
 21
431.6132426567
 31
0.0
  0
SPLINE
  5
6B
330
1F
100
AcDbEntity
  8
0
  6
Continuous
 62
     7
370
    15
100
AcDbSpline
210
0.0
220
0.0
230
1.0
 70
     8
 71
     3
 72
    13
 73
     9
 74
     0
 42
0.00000001
 43
0.00000001
 12
1.0
 22
0.0
 32
0.0
 13
1.0
 23
0.0
 33
0.0
 40
0.0
 40
0.0
 40
0.0
 40
0.0
 40
0.1643661324436326
 40
0.3327140022854953
 40
0.4999464186631596
 40
0.6671794399274273
 40
0.8355284209877034
 40
1.0
 40
1.0
 40
1.0
 40
1.0
 10
207.0938178560436
 20
433.4683879441731
 30
0.0
 10
204.7108785122169
 20
434.0207218736694
 30
0.0
 10
199.8872735852103
 20
435.1387699140333
 30
0.0
 10
192.4877084176484
 20
435.995826212741
 30
0.0
 10
185.0099439168435
 20
436.3102725063469
 30
0.0
 10
177.5321806366223
 20
435.9957410099072
 30
0.0
 10
170.1309762684767
 20
435.138922982141
 30
0.0
 10
165.3058569466176
 20
434.0203467343401
 30
0.0
 10
162.9214039139809
 20
433.4675743885411
 30
0.0
  0
LINE
  5
6C
330
1F
100
AcDbEntity
  8
0
  6
Continuous
 62
     7
370
    15
100
AcDbLine
 10
208.0095168082
 20
402.5153403142
 30
0.0
 11
208.0095168082
 21
432.3170957547
 31
0.0
  0
LINE
  5
6D
330
1F
100
AcDbEntity
  8
0
  6
Continuous
 62
     7
370
    15
100
AcDbLine
 10
162.0095168082
 20
432.3170964299
 30
0.0
 11
162.0095168082
 21
402.5258415408
 31
0.0
  0
LINE
  5
6E
330
1F
100
AcDbEntity
  8
0
  6
Continuous
 62
     7
370
    15
100
AcDbLine
 10
208.0095168082
 20
297.9171507435
 30
0.0
 11
208.0095168082
 21
396.0171488121
 31
0.0
  0
LINE
  5
6F
330
1F
100
AcDbEntity
  8
0
  6
Continuous
 62
     7
370
    15
100
AcDbLine
 10
162.0095168082
 20
396.0171432972
 30
0.0
 11
162.0095168082
 21
297.9171507435
 31
0.0
  0
ARC
  5
70
330
1F
100
AcDbEntity
  8
0
  6
Continuous
 62
     7
370
    15
100
AcDbCircle
 10
196.5095168082
 20
399.3482008344
 30
0.0
 40
10.0
100
AcDbArc
 50
0.0
 51
9.0468459803
  0
ARC
  5
71
330
1F
100
AcDbEntity
  8
0
  6
Continuous
 62
     7
370
    15
100
AcDbCircle
 10
173.5095168082
 20
399.3482008344
 30
0.0
 40
10.0
100
AcDbArc
 50
170.9531540197
 51
180.0
  0
ARC
  5
72
330
1F
100
AcDbEntity
  8
0
  6
Continuous
 62
     7
370
    15
100
AcDbCircle
 10
185.0095168082
 20
397.5171400594
 30
0.0
 40
21.64486082191336
100
AcDbArc
 50
169.2768834632
 51
170.9531540197
  0
ARC
  5
73
330
1F
100
AcDbEntity
  8
0
  6
Continuous
 62
     7
370
    15
100
AcDbCircle
 10
185.0095168082
 20
397.5171400594
 30
0.0
 40
21.64486082191336
100
AcDbArc
 50
9.0468459803
 51
10.7024188571
  0
LINE
  5
74
330
1F
100
AcDbEntity
  8
0
  6
Continuous
 62
     7
370
    15
100
AcDbLine
 10
163.5095168082
 20
399.3482008344
 30
0.0
 11
163.5095168082
 21
397.5672787021
 31
0.0
  0
LINE
  5
75
330
1F
100
AcDbEntity
  8
0
  6
Continuous
 62
     7
370
    15
100
AcDbLine
 10
206.5095168082
 20
397.5679767729
 30
0.0
 11
206.5095168082
 21
399.3482008344
 31
0.0
  0
ARC
  5
76
330
1F
100
AcDbEntity
  8
0
  6
Continuous
 62
     7
370
    15
100
AcDbCircle
 10
206.8095115336
 20
432.3170965946
 30
0.0
 40
1.199999940467539
100
AcDbArc
 50
0.656121562
 51
76.8409965854
  0
ARC
  5
77
330
1F
100
AcDbEntity
  8
0
  6
Continuous
 62
     7
370
    15
100
AcDbCircle
 10
163.2095188106
 20
432.3170965544
 30
0.0
 40
1.199999981948795
100
AcDbArc
 50
104.0351851012
 51
180.0662911991
  0
ARC
  5
78
330
1F
100
AcDbEntity
  8
0
  6
Continuous
 62
     7
370
    15
100
AcDbCircle
 10
206.5095168082
 20
396.0171487753
 30
0.0
 40
1.500000000000048
100
AcDbArc
 50
359.9731146596
 51
75.191156091
  0
ARC
  5
79
330
1F
100
AcDbEntity
  8
0
  6
Continuous
 62
     7
370
    15
100
AcDbCircle
 10
163.5095168082
 20
396.0171436182
 30
0.0
 40
1.499999999999998
100
AcDbArc
 50
104.8211685699
 51
179.9549871972
  0
LINE
  5
7A
330
1F
100
AcDbEntity
  8
0
  6
Continuous
 62
     7
370
    15
100
AcDbLine
 10
163.8610571342
 20
397.4590237588
 30
0.0
 11
163.3566638217
 21
397.4587645328
 31
0.0
  0
LINE
  5
7B
330
1F
100
AcDbEntity
  8
0
  6
Continuous
 62
     7
370
    15
100
AcDbLine
 10
206.6625014971
 20
397.4587733029
 30
0.0
 11
206.1175499821
 21
397.4589041765
 31
0.0
  0
SPLINE
  5
7C
330
1F
100
AcDbEntity
  8
0
  6
Continuous
 62
     7
370
    15
100
AcDbSpline
210
0.0
220
0.0
230
1.0
 70
     8
 71
     3
 72
    10
 73
     6
 74
     0
 42
0.00000001
 43
0.00000001
 12
1.0
 22
0.0
 32
0.0
 13
1.0
 23
0.0
 33
0.0
 40
0.0
 40
0.0
 40
0.0
 40
0.0
 40
0.2090293521654626
 40
0.7156400320596628
 40
0.9999999999999999
 40
0.9999999999999999
 40
0.9999999999999999
 40
0.9999999999999999
 10
173.0095168081505
 20
381.4423356665216
 30
0.0
 10
172.9296377678053
 20
381.5344728329736
 30
0.0
 10
172.6561611560219
 20
381.8499167841248
 30
0.0
 10
172.4679849869848
 20
382.2112848004294
 30
0.0
 10
172.4519849769958
 20
382.3932019418597
 30
0.0
 10
172.4462328516294
 20
382.4586025387675
 30
0.0
  0
SPLINE
  5
7D
330
1F
100
AcDbEntity
  8
0
  6
Continuous
 62
     7
370
    15
100
AcDbSpline
210
0.0
220
0.0
230
1.0
 70
     8
 71
     3
 72
    24
 73
    20
 74
     0
 42
0.00000001
 43
0.00000001
 12
1.0
 22
0.0
 32
0.0
 13
1.0
 23
0.0
 33
0.0
 40
0.0
 40
0.0
 40
0.0
 40
0.0
 40
0.0027100931539673
 40
0.0602738046320114
 40
0.1190936540838074
 40
0.1849511985528094
 40
0.2527814151167792
 40
0.3170194846653437
 40
0.3831774296400071
 40
0.4462263657675223
 40
0.5111211683812964
 40
0.5737206860166211
 40
0.6381235557060426
 40
0.700840840372815
 40
0.7653338192364366
 40
0.8286720524446443
 40
0.893744421991785
 40
0.9583301797496235
 40
1.0
 40
1.0
 40
1.0
 40
1.0
 10
173.0031726069209
 20
382.916732482003
 30
0.0
 10
173.0102350901166
 20
382.9181031935398
 30
0.0
 10
173.1673081898846
 20
382.948588492266
 30
0.0
 10
173.7130828191691
 20
382.9179774276569
 30
0.0
 10
174.6962170313431
 20
382.8893248339891
 30
0.0
 10
176.0398163562312
 20
382.8539689370527
 30
0.0
 10
177.6799405486288
 20
382.8426589166771
 30
0.0
 10
179.5434385611418
 20
382.8426663844013
 30
0.0
 10
181.5219595645507
 20
382.846253454247
 30
0.0
 10
183.6078177353095
 20
382.8482434282024
 30
0.0
 10
185.6964519247508
 20
382.8470108480947
 30
0.0
 10
187.7791383211474
 20
382.842534022525
 30
0.0
 10
189.7611746303486
 20
382.8364349832563
 30
0.0
 10
191.6280725273851
 20
382.8322806494618
 30
0.0
 10
193.2997225019685
 20
382.8360575903872
 30
0.0
 10
194.7631958281214
 20
382.8584020096309
 30
0.0
 10
195.9448743098946
 20
382.8917531625574
 30
0.0
 10
196.7771344963232
 20
382.9314458299507
 30
0.0
 10
197.0593289284583
 20
382.880769227365
 30
0.0
 10
197.1699959775031
 20
382.8608955891031
 30
0.0
  0
SPLINE
  5
7E
330
1F
100
AcDbEntity
  8
0
  6
Continuous
 62
     7
370
    15
100
AcDbSpline
210
0.0
220
0.0
230
1.0
 70
     8
 71
     3
 72
    10
 73
     6
 74
     0
 42
0.00000001
 43
0.00000001
 12
1.0
 22
0.0
 32
0.0
 13
1.0
 23
0.0
 33
0.0
 40
0.0
 40
0.0
 40
0.0
 40
0.0
 40
0.2375012351695475
 40
0.7499748652250853
 40
1.0
 40
1.0
 40
1.0
 40
1.0
 10
197.5710371331129
 20
382.4317692484927
 30
0.0
 10
197.5692591569123
 20
382.3792339729483
 30
0.0
 10
197.5636447125895
 20
382.2133395254187
 30
0.0
 10
197.3700713836243
 20
381.8541259117401
 30
0.0
 10
197.098549478255
 20
381.5265290304015
 30
0.0
 10
197.0095168081505
 20
381.4191092440538
 30
0.0
  0
SPLINE
  5
7F
330
1F
100
AcDbEntity
  8
0
  6
Continuous
 62
     7
370
    15
100
AcDbSpline
210
0.0
220
0.0
230
1.0
 70
     8
 71
     3
 72
     9
 73
     5
 74
     0
 42
0.00000001
 43
0.00000001
 12
1.0
 22
0.0
 32
0.0
 13
1.0
 23
0.0
 33
0.0
 40
0.0
 40
0.0
 40
0.0
 40
0.0
 40
0.6992132062023514
 40
1.0
 40
1.0
 40
1.0
 40
1.0
 10
163.3567077259754
 20
397.4592401671739
 30
0.0
 10
163.2482939013807
 20
397.4592402148663
 30
0.0
 10
163.093242732963
 20
397.459240283075
 30
0.0
 10
163.1199488225068
 20
397.4592403743822
 30
0.0
 10
163.1279816615556
 20
397.4592404018462
 30
0.0
  0
SPLINE
  5
80
330
1F
100
AcDbEntity
  8
0
  6
Continuous
 62
     7
370
    15
100
AcDbSpline
210
0.0
220
0.0
230
1.0
 70
     8
 71
     3
 72
     9
 73
     5
 74
     0
 42
0.00000001
 43
0.00000001
 12
1.0
 22
0.0
 32
0.0
 13
1.0
 23
0.0
 33
0.0
 40
0.0
 40
0.0
 40
0.0
 40
0.0
 40
0.3007134452249865
 40
1.0
 40
1.0
 40
1.0
 40
1.0
 10
206.8910725156985
 20
397.4592404238291
 30
0.0
 10
206.8991065767348
 20
397.4592403468795
 30
0.0
 10
206.9258232439271
 20
397.4592400909896
 30
0.0
 10
206.7708014234246
 20
397.459239814602
 30
0.0
 10
206.6623967486505
 20
397.4592396213279
 30
0.0
  0
SPLINE
  5
81
330
1F
100
AcDbEntity
  8
0
  6
Continuous
 62
     7
370
    15
100
AcDbSpline
210
0.0
220
0.0
230
1.0
 70
     8
 71
     3
 72
    10
 73
     6
 74
     0
 42
0.00000001
 43
0.00000001
 12
1.0
 22
0.0
 32
0.0
 13
1.0
 23
0.0
 33
0.0
 40
0.0
 40
0.0
 40
0.0
 40
0.0
 40
0.0387568038087878
 40
0.8509395153954371
 40
1.0
 40
1.0
 40
1.0
 40
1.0
 10
165.5439623833276
 20
397.8068135847937
 30
0.0
 10
165.5279521272789
 20
397.8037715262093
 30
0.0
 10
165.1764329568472
 20
397.7369804701038
 30
0.0
 10
164.7989714174596
 20
397.6672518831709
 30
0.0
 10
164.5688525529127
 20
397.6398547002549
 30
0.0
 10
164.5331679003691
 20
397.6356062047874
 30
0.0
  0
SPLINE
  5
82
330
1F
100
AcDbEntity
  8
0
  6
Continuous
 62
     7
370
    15
100
AcDbSpline
210
0.0
220
0.0
230
1.0
 70
     8
 71
     3
 72
    12
 73
     8
 74
     0
 42
0.00000001
 43
0.00000001
 12
1.0
 22
0.0
 32
0.0
 13
1.0
 23
0.0
 33
0.0
 40
0.0
 40
0.0
 40
0.0
 40
0.0
 40
0.1562138705370544
 40
0.3901208105475826
 40
0.6617462887434044
 40
0.9353133340043182
 40
1.0
 40
1.0
 40
1.0
 40
1.0
 10
163.4893314917936
 20
397.5565763775023
 30
0.0
 10
163.4741446851296
 20
397.556498341087
 30
0.0
 10
163.4362179036918
 20
397.5563034567946
 30
0.0
 10
163.5899399624277
 20
397.5566598772929
 30
0.0
 10
163.8691486191424
 20
397.5562596147202
 30
0.0
 10
164.1768003811606
 20
397.5566295514536
 30
0.0
 10
164.4281228766595
 20
397.5565391425104
 30
0.0
 10
164.4761850672062
 20
397.5565218529644
 30
0.0
  0
SPLINE
  5
83
330
1F
100
AcDbEntity
  8
0
  6
Continuous
 62
     7
370
    15
100
AcDbSpline
210
0.0
220
0.0
230
1.0
 70
     8
 71
     3
 72
    11
 73
     7
 74
     0
 42
0.00000001
 43
0.00000001
 12
1.0
 22
0.0
 32
0.0
 13
1.0
 23
0.0
 33
0.0
 40
0.0
 40
0.0
 40
0.0
 40
0.0
 40
0.2486705577837185
 40
0.5172002402561235
 40
0.7915700238847204
 40
1.0
 40
1.0
 40
1.0
 40
1.0
 10
205.5426255005502
 20
397.5564917723135
 30
0.0
 10
205.7027267116135
 20
397.5565362099301
 30
0.0
 10
206.0357150057052
 20
397.5566286340038
 30
0.0
 10
206.3593943117299
 20
397.5561614022938
 30
0.0
 10
206.5558553536469
 20
397.5568166739269
 30
0.0
 10
206.5620148480442
 20
397.5566321762302
 30
0.0
 10
206.5646739696452
 20
397.5565525265416
 30
0.0
  0
SPLINE
  5
84
330
1F
100
AcDbEntity
  8
0
  6
Continuous
 62
     7
370
    15
100
AcDbSpline
210
0.0
220
0.0
230
1.0
 70
     8
 71
     3
 72
    10
 73
     6
 74
     0
 42
0.00000001
 43
0.00000001
 12
1.0
 22
0.0
 32
0.0
 13
1.0
 23
0.0
 33
0.0
 40
0.0
 40
0.0
 40
0.0
 40
0.0
 40
0.2308029969600204
 40
0.7760168257909249
 40
1.0
 40
1.0
 40
1.0
 40
1.0
 10
205.4860418805488
 20
397.6355839313346
 30
0.0
 10
205.426997225044
 20
397.6433022558933
 30
0.0
 10
205.2284744729644
 20
397.6692531742237
 30
0.0
 10
204.8755524245792
 20
397.7316099367097
 30
0.0
 10
204.5656273681409
 20
397.7898499697549
 30
0.0
 10
204.4753800093582
 20
397.8068089378943
 30
0.0
  0
SPLINE
  5
85
330
1F
100
AcDbEntity
  8
0
  6
Continuous
 62
     7
370
    15
100
AcDbSpline
210
0.0
220
0.0
230
1.0
 70
     8
 71
     3
 72
    48
 73
    44
 74
     0
 42
0.00000001
 43
0.00000001
 12
1.0
 22
0.0
 32
0.0
 13
1.0
 23
0.0
 33
0.0
 40
0.0
 40
0.0
 40
0.0
 40
0.0
 40
0.0624999999999997
 40
0.0624999999999997
 40
0.1249999999999995
 40
0.1249999999999995
 40
0.1562499999999993
 40
0.1562499999999993
 40
0.1874999999999992
 40
0.1874999999999992
 40
0.2499999999999992
 40
0.2499999999999992
 40
0.3124999999999991
 40
0.3124999999999991
 40
0.3437499999999992
 40
0.3437499999999992
 40
0.3749999999999992
 40
0.3749999999999992
 40
0.4374999999999994
 40
0.4374999999999994
 40
0.4687499999999994
 40
0.4687499999999994
 40
0.4999999999999994
 40
0.4999999999999994
 40
0.5624999999999996
 40
0.5624999999999996
 40
0.6249999999999996
 40
0.6249999999999996
 40
0.6874999999999996
 40
0.6874999999999996
 40
0.7187499999999997
 40
0.7187499999999997
 40
0.7499999999999997
 40
0.7499999999999997
 40
0.8124999999999998
 40
0.8124999999999998
 40
0.8749999999999999
 40
0.8749999999999999
 40
0.9062499999999999
 40
0.9062499999999999
 40
0.9374999999999998
 40
0.9374999999999998
 40
1.0
 40
1.0
 40
1.0
 40
1.0
 10
204.4753800093582
 20
397.8068089378943
 30
0.0
 10
204.0289656813335
 20
397.8918832254539
 30
0.0
 10
203.5127892244228
 20
397.9946078852319
 30
0.0
 10
202.3782400135816
 20
398.2234502092148
 30
0.0
 10
201.7581002925088
 20
398.350177212962
 30
0.0
 10
200.7496952904398
 20
398.5530388696899
 30
0.0
 10
200.4004751001384
 20
398.6227435025936
 30
0.0
 10
199.6753991512679
 20
398.7647894373285
 30
0.0
 10
199.2980764354641
 20
398.8373949348116
 30
0.0
 10
198.136762676466
 20
399.0541922333248
 30
0.0
 10
197.3258973206728
 20
399.196808771175
 30
0.0
 10
195.6317535251385
 20
399.4651269016374
 30
0.0
 10
194.7484689606335
 20
399.5908765722874
 30
0.0
 10
193.3667587838542
 20
399.7602225500757
 30
0.0
 10
192.8950556505675
 20
399.8136367571561
 30
0.0
 10
191.943928599866
 20
399.9119261407635
 30
0.0
 10
191.4637825054112
 20
399.9569250999081
 30
0.0
 10
190.0096826055652
 20
400.0786865982457
 30
0.0
 10
189.0221366705169
 20
400.142276178147
 30
0.0
 10
187.5127355746295
 20
400.2072459854164
 30
0.0
 10
187.0049404367361
 20
400.2237638988216
 30
0.0
 10
185.9949383628482
 20
400.2456434918984
 30
0.0
 10
185.4908471485442
 20
400.2511016924191
 30
0.0
 10
183.9812663878107
 20
400.2505624473172
 30
0.0
 10
182.9784560176753
 20
400.2277758570172
 30
0.0
 10
180.9799863098004
 20
400.1410041412217
 30
0.0
 10
179.9785038654297
 20
400.0762543267214
 30
0.0
 10
178.0421594278872
 20
399.9133208392106
 30
0.0
 10
177.1008922912449
 20
399.8150534728658
 30
0.0
 10
175.7282835408454
 20
399.6467570690574
 30
0.0
 10
175.277319563962
 20
399.587166385828
 30
0.0
 10
174.3886306354773
 20
399.46179784747
 30
0.0
 10
173.9492876891275
 20
399.3957487927953
 30
0.0
 10
172.6661840034726
 20
399.1922647575111
 30
0.0
 10
171.8567278689386
 20
399.0494974356757
 30
0.0
 10
170.3254683526087
 20
398.7633859251393
 30
0.0
 10
169.6036530111414
 20
398.6202382993268
 30
0.0
 10
168.5878380046041
 20
398.4158424437479
 30
0.0
 10
168.2599365921872
 20
398.349309686217
 30
0.0
 10
167.6367401854619
 20
398.222869862816
 30
0.0
 10
167.3401419379612
 20
398.1626950705734
 30
0.0
 10
166.4945564826089
 20
397.9921859838403
 30
0.0
 10
165.9895438822344
 20
397.8917144095951
 30
0.0
 10
165.5439623833276
 20
397.8068135847936
 30
0.0
  0
LWPOLYLINE
  5
86
330
1F
100
AcDbEntity
  8
0
  6
Continuous
 62
     7
370
    15
100
AcDbPolyline
 90
       43
 70
   128
 43
0.0
 10
185.0095168082
 20
374.0322504717
 10
186.6489817361
 20
374.0571415564
 10
188.2518237267
 20
374.1312587847
 10
189.7822379384
 20
374.2529465003
 10
191.2060374469
 20
374.4194864007
 10
192.4914169236
 20
374.6271582596
 10
193.6096631153
 20
374.871323031
 10
194.5357962498
 20
375.1465264773
 10
195.2491280432
 20
375.4466210083
 10
195.7337238422
 20
375.7649030081
 10
195.9787585771
 20
376.0942625826
 10
195.9787585771
 20
376.4273423834
 10
195.7337238422
 20
376.7567019579
 10
195.2491280432
 20
377.0749839577
 10
194.5357962498
 20
377.3750784886
 10
193.6096631153
 20
377.6502819349
 10
192.4914169236
 20
377.8944467063
 10
191.2060374469
 20
378.1021185653
 10
189.7822379384
 20
378.2686584657
 10
188.2518237267
 20
378.3903461813
 10
186.6489817361
 20
378.4644634096
 10
185.0095168082
 20
378.4893544943
 10
183.3700518802
 20
378.4644634096
 10
181.7672098896
 20
378.3903461813
 10
180.2367956779
 20
378.2686584657
 10
178.8129961695
 20
378.1021185653
 10
177.5276166927
 20
377.8944467063
 10
176.409370501
 20
377.6502819349
 10
175.4832373665
 20
377.3750784886
 10
174.7699055731
 20
377.0749839577
 10
174.2853097742
 20
376.7567019579
 10
174.0402750392
 20
376.4273423834
 10
174.0402750392
 20
376.0942625826
 10
174.2853097742
 20
375.7649030081
 10
174.7699055731
 20
375.4466210083
 10
175.4832373665
 20
375.1465264773
 10
176.409370501
 20
374.871323031
 10
177.5276166927
 20
374.6271582596
 10
178.8129961695
 20
374.4194864007
 10
180.2367956779
 20
374.2529465003
 10
181.7672098896
 20
374.1312587847
 10
183.3700518802
 20
374.0571415564
 10
185.0095168082
 20
374.0322504717
  0
LWPOLYLINE
  5
87
330
1F
100
AcDbEntity
  8
0
  6
Continuous
 62
     7
370
    15
100
AcDbPolyline
 90
       27
 70
   128
 43
0.0
 10
173.2691359785
 20
376.7370947019
 10
173.1316595056
 20
376.8940765801
 10
173.0095168082
 20
377.2400649645
 10
173.1316595056
 20
377.5860533489
 10
173.4956011248
 20
377.9249984076
 10
174.0939328639
 20
378.2500001966
 10
174.9144744142
 20
378.5544426167
 10
175.9405219159
 20
378.8321280981
 10
177.1511880008
 20
379.0774037652
 10
178.5218269987
 20
379.2852765128
 10
180.0245366521
 20
379.4515146512
 10
181.6287261261
 20
379.5727340512
 10
183.3017387489
 20
379.6464670356
 10
185.0095168082
 20
379.6712126132
 10
186.7172948674
 20
379.6464670356
 10
188.3903074902
 20
379.5727340512
 10
189.9944969642
 20
379.4515146512
 10
191.4972066176
 20
379.2852765128
 10
192.8678456155
 20
379.0774037652
 10
194.0785117004
 20
378.8321280981
 10
195.1045592021
 20
378.5544426167
 10
195.9251007524
 20
378.2500001966
 10
196.5234324915
 20
377.9249984076
 10
196.8873741107
 20
377.5860533489
 10
197.0095168082
 20
377.2400649645
 10
196.8873741107
 20
376.8940765801
 10
196.7498976378
 20
376.7370947019
  0
LINE
  5
88
330
1F
100
AcDbEntity
  8
0
  6
Continuous
 62
     7
370
    15
100
AcDbLine
 10
169.549616488
 20
432.0867767594
 30
0.0
 11
169.5586154791
 21
432.0869189996
 31
0.0
  0
LINE
  5
89
330
1F
100
AcDbEntity
  8
0
  6
Continuous
 62
     7
370
    15
100
AcDbLine
 10
200.4569794998
 20
432.0870854975
 30
0.0
 11
200.4694341525
 21
432.086911976
 31
0.0
  0
LINE
  5
8A
330
1F
100
AcDbEntity
  8
0
  6
Continuous
 62
     7
370
    15
100
AcDbLine
 10
200.4695420554
 20
432.0869112708
 30
0.0
 11
200.1235478783
 21
431.1127500124
 31
0.0
  0
LINE
  5
8B
330
1F
100
AcDbEntity
  8
0
  6
Continuous
 62
     7
370
    15
100
AcDbLine
 10
169.5495184758
 20
432.0867780453
 30
0.0
 11
169.8043876604
 21
431.3669111441
 31
0.0
  0
LINE
  5
8C
330
1F
100
AcDbEntity
  8
0
  6
Continuous
 62
     7
370
    15
100
AcDbLine
 10
162.9192846467
 20
433.4788627228
 30
0.0
 11
162.9190110799
 21
433.4788414949
 31
0.0
  0
SPLINE
  5
8D
330
1F
100
AcDbEntity
  8
0
  6
Continuous
 62
     7
370
    15
100
AcDbSpline
210
0.0
220
0.0
230
1.0
 70
     8
 71
     3
 72
    38
 73
    34
 74
     0
 42
0.00000001
 43
0.00000001
 12
1.0
 22
0.0
 32
0.0
 13
1.0
 23
0.0
 33
0.0
 40
0.0
 40
0.0
 40
0.0
 40
0.0
 40
0.0625
 40
0.0625
 40
0.125
 40
0.125
 40
0.1875
 40
0.1875
 40
0.25
 40
0.25
 40
0.3125
 40
0.3125
 40
0.375
 40
0.375
 40
0.4375
 40
0.4375
 40
0.5
 40
0.5
 40
0.5625
 40
0.5625
 40
0.625
 40
0.625
 40
0.6875
 40
0.6875
 40
0.75
 40
0.75
 40
0.8125
 40
0.8125
 40
0.875
 40
0.875
 40
0.9375
 40
0.9375
 40
1.0
 40
1.0
 40
1.0
 40
1.0
 10
185.0097368929937
 20
415.767150737763
 30
0.0
 10
184.7306302356208
 20
415.767165191209
 30
0.0
 10
184.4467218265864
 20
415.7389722490018
 30
0.0
 10
183.8990294570124
 20
415.629003471719
 30
0.0
 10
183.6337144162202
 20
415.5479280551906
 30
0.0
 10
183.1196758589473
 20
415.3340210772699
 30
0.0
 10
182.8744266849025
 20
415.2021081097108
 30
0.0
 10
182.4190861426499
 20
414.8975633799159
 30
0.0
 10
182.2051032132697
 20
414.7222946693124
 30
0.0
 10
181.8164969107254
 20
414.3353606595641
 30
0.0
 10
181.6432361858695
 20
414.1257934742509
 30
0.0
 10
181.3374541196104
 20
413.6741898567548
 30
0.0
 10
181.2042486826326
 20
413.4296200781189
 30
0.0
 10
180.9901410200417
 20
412.9250650650922
 30
0.0
 10
180.9077194004272
 20
412.6636557064327
 30
0.0
 10
180.7936093642475
 20
412.1215843862765
 30
0.0
 10
180.7627868224226
 20
411.8408757434212
 30
0.0
 10
180.7567496486492
 20
411.2858826428792
 30
0.0
 10
180.7806449461579
 20
411.0083352000319
 30
0.0
 10
180.8851455154685
 20
410.4532842469083
 30
0.0
 10
180.9644286838315
 20
410.1838239447167
 30
0.0
 10
181.1736951145472
 20
409.6659429699687
 30
0.0
 10
181.3057279000329
 20
409.4140163414229
 30
0.0
 10
181.6143645794928
 20
408.945348275702
 30
0.0
 10
181.7899450762284
 20
408.7287437398858
 30
0.0
 10
182.1834810704009
 20
408.3305573016269
 30
0.0
 10
182.4023453337501
 20
408.1492365746979
 30
0.0
 10
182.8645401068825
 20
407.8375768692061
 30
0.0
 10
183.1099301726053
 20
407.7048446535949
 30
0.0
 10
183.6305594802018
 20
407.4871899748593
 30
0.0
 10
183.899040676406
 20
407.4053209333972
 30
0.0
 10
184.4459737861875
 20
407.2954542967111
 30
0.0
 10
184.7283468688787
 20
407.2671476501525
 30
0.0
 10
185.0095635609083
 20
407.2671507437186
 30
0.0
  0
SPLINE
  5
8E
330
1F
100
AcDbEntity
  8
0
  6
Continuous
 62
     7
370
    15
100
AcDbSpline
210
0.0
220
0.0
230
1.0
 70
     8
 71
     3
 72
    38
 73
    34
 74
     0
 42
0.00000001
 43
0.00000001
 12
1.0
 22
0.0
 32
0.0
 13
1.0
 23
0.0
 33
0.0
 40
0.0
 40
0.0
 40
0.0
 40
0.0
 40
0.0625
 40
0.0625
 40
0.125
 40
0.125
 40
0.1874999999999999
 40
0.1874999999999999
 40
0.2499999999999999
 40
0.2499999999999999
 40
0.3124999999999999
 40
0.3124999999999999
 40
0.3749999999999999
 40
0.3749999999999999
 40
0.4374999999999999
 40
0.4374999999999999
 40
0.4999999999999999
 40
0.4999999999999999
 40
0.5624999999999999
 40
0.5624999999999999
 40
0.6249999999999999
 40
0.6249999999999999
 40
0.6874999999999999
 40
0.6874999999999999
 40
0.7499999999999999
 40
0.7499999999999999
 40
0.8124999999999999
 40
0.8124999999999999
 40
0.8749999999999999
 40
0.8749999999999999
 40
0.9375
 40
0.9375
 40
1.0
 40
1.0
 40
1.0
 40
1.0
 10
185.0094700553926
 20
407.2671507437186
 30
0.0
 10
185.2909828437398
 20
407.2671476468952
 30
0.0
 10
185.5688682843547
 20
407.2948418911737
 30
0.0
 10
186.1175195645983
 20
407.4045972775788
 30
0.0
 10
186.3903309468774
 20
407.4880125672393
 30
0.0
 10
186.9060484313947
 20
407.7035212477143
 30
0.0
 10
187.1515750655756
 20
407.8356998587065
 30
0.0
 10
187.6177204188153
 20
408.1498420079308
 30
0.0
 10
187.8350755856256
 20
408.3302471550194
 30
0.0
 10
188.2269740233446
 20
408.7264329226516
 30
0.0
 10
188.4046319822919
 20
408.9451559717888
 30
0.0
 10
188.7145858116518
 20
409.4160967626009
 30
0.0
 10
188.8441672574875
 20
409.6634916973203
 30
0.0
 10
189.0538739133866
 20
410.1815716431204
 30
0.0
 10
189.1342760164095
 20
410.4552377104122
 30
0.0
 10
189.2381116413878
 20
411.0069708220653
 30
0.0
 10
189.2625882155856
 20
411.2871163007775
 30
0.0
 10
189.2558316494807
 20
411.8493291742208
 30
0.0
 10
189.2249085378059
 20
412.1246297189726
 30
0.0
 10
189.1110476428232
 20
412.6643224622395
 30
0.0
 10
189.0267115516137
 20
412.9314437190137
 30
0.0
 10
188.8110265036014
 20
413.4372034153945
 30
0.0
 10
188.6802589267504
 20
413.6765383583647
 30
0.0
 10
188.3732006378721
 20
414.1292253339604
 30
0.0
 10
188.1961466474381
 20
414.3423960078636
 30
0.0
 10
187.8096148223151
 20
414.7258999776236
 30
0.0
 10
187.5986661564983
 20
414.8987453865013
 30
0.0
 10
187.1389262735331
 20
415.2055775092553
 30
0.0
 10
186.8943066564665
 20
415.3363025461513
 30
0.0
 10
186.3856240390078
 20
415.5476199659573
 30
0.0
 10
186.1182531051654
 20
415.6296205680872
 30
0.0
 10
185.5662991839456
 20
415.7399102228516
 30
0.0
 10
185.2886289278524
 20
415.7671652028852
 30
0.0
 10
185.0092967233602
 20
415.767150737763
 30
0.0
  0
ARC
  5
8F
330
1F
100
AcDbEntity
  8
0
  6
Continuous
 62
     7
370
    15
100
AcDbCircle
 10
185.0095168082
 20
411.5171507435
 30
0.0
 40
2.513862238026809
100
AcDbArc
 50
78.5275260255
 51
101.4724739745
  0
LINE
  5
90
330
1F
100
AcDbEntity
  8
0
  6
Continuous
 62
     7
370
    15
100
AcDbLine
 10
184.5095168082
 20
409.0535145382
 30
0.0
 11
184.5095168082
 21
413.9807869487
 31
0.0
  0
ARC
  5
91
330
1F
100
AcDbEntity
  8
0
  6
Continuous
 62
     7
370
    15
100
AcDbCircle
 10
185.0095168082
 20
411.5171507435
 30
0.0
 40
2.513862238026864
100
AcDbArc
 50
258.5275260255
 51
281.4724739745
  0
LINE
  5
92
330
1F
100
AcDbEntity
  8
0
  6
Continuous
 62
     7
370
    15
100
AcDbLine
 10
185.5095168082
 20
409.0535145382
 30
0.0
 11
185.5095168082
 21
413.9807869487
 31
0.0
  0
ARC
  5
93
330
1F
100
AcDbEntity
  8
0
  6
Continuous
 62
     7
370
    15
100
AcDbCircle
 10
185.0095168082
 20
411.5171507435
 30
0.0
 40
2.50000000000005
100
AcDbArc
 50
113.5781784782
 51
246.4218215218
  0
LINE
  5
94
330
1F
100
AcDbEntity
  8
0
  6
Continuous
 62
     7
370
    15
100
AcDbLine
 10
184.0095168082
 20
409.225862896
 30
0.0
 11
184.0095168082
 21
413.8084385909
 31
0.0
  0
ARC
  5
95
330
1F
100
AcDbEntity
  8
0
  6
Continuous
 62
     7
370
    15
100
AcDbCircle
 10
185.0095168082
 20
411.5171507435
 30
0.0
 40
2.50000000000005
100
AcDbArc
 50
293.5781784782
 51
66.4218215218
  0
LINE
  5
96
330
1F
100
AcDbEntity
  8
0
  6
Continuous
 62
     7
370
    15
100
AcDbLine
 10
186.0095168082
 20
413.8084385909
 30
0.0
 11
186.0095168082
 21
409.225862896
 31
0.0
  0
CIRCLE
  5
97
330
1F
100
AcDbEntity
  8
0
  6
Continuous
 62
     7
370
    15
100
AcDbCircle
 10
185.0095168082
 20
411.5171507435
 30
0.0
 40
4.0
  0
SPLINE
  5
98
330
1F
100
AcDbEntity
  8
0
  6
Continuous
 62
     7
370
    15
100
AcDbSpline
210
0.0
220
0.0
230
1.0
 70
     8
 71
     3
 72
    14
 73
    10
 74
     0
 42
0.00000001
 43
0.00000001
 12
1.0
 22
0.0
 32
0.0
 13
1.0
 23
0.0
 33
0.0
 40
0.0
 40
0.0
 40
0.0
 40
0.0
 40
0.1015415398610174
 40
0.3031203333903209
 40
0.5007514370395306
 40
0.695345115671358
 40
0.7970896381676691
 40
0.9988721035227588
 40
1.0
 40
1.0
 40
1.0
 40
1.0
 10
205.7507954547912
 20
401.5171507434615
 30
0.0
 10
205.8977006228984
 20
401.5189624434901
 30
0.0
 10
206.3362398019807
 20
401.5243707041626
 30
0.0
 10
206.9330926249563
 20
401.5881339685232
 30
0.0
 10
207.4714511087829
 20
401.7410159059496
 30
0.0
 10
207.7749247785754
 20
401.9358995338607
 30
0.0
 10
207.956579774171
 20
402.1912041327517
 30
0.0
 10
208.0385671023354
 20
402.3617127384671
 30
0.0
 10
208.0091899904299
 20
402.5144910813326
 30
0.0
 10
208.0090266949692
 20
402.5153403142311
 30
0.0
  0
LINE
  5
99
330
1F
100
AcDbEntity
  8
0
  6
Continuous
 62
     7
370
    15
100
AcDbLine
 10
205.7507954548
 20
401.5171507435
 30
0.0
 11
164.2682381615
 21
401.5171507435
 31
0.0
  0
SPLINE
  5
9A
330
1F
100
AcDbEntity
  8
0
  6
Continuous
 62
     7
370
    15
100
AcDbSpline
210
0.0
220
0.0
230
1.0
 70
     8
 71
     3
 72
    12
 73
     8
 74
     0
 42
0.00000001
 43
0.00000001
 12
1.0
 22
0.0
 32
0.0
 13
1.0
 23
0.0
 33
0.0
 40
0.0
 40
0.0
 40
0.0
 40
0.0
 40
0.0897557709001902
 40
0.2912443458778036
 40
0.4651917308962565
 40
0.8193528610058745
 40
1.0
 40
1.0
 40
1.0
 40
1.0
 10
162.0315204211468
 20
402.5258415408243
 30
0.0
 10
162.0265736468465
 20
402.4620029071815
 30
0.0
 10
162.0105220879235
 20
402.2548558801928
 30
0.0
 10
162.16676992369
 20
402.0097096497281
 30
0.0
 10
162.5776332676458
 20
401.7043614475687
 30
0.0
 10
163.2572769121047
 20
401.5398831391205
 30
0.0
 10
164.0129780079461
 20
401.5228905033288
 30
0.0
 10
164.2682381615097
 20
401.5171507434615
 30
0.0
  0
LINE
  5
9B
330
1F
100
AcDbEntity
  8
0
  6
Continuous
 62
     7
370
    15
100
AcDbLine
 10
185.0095168082
 20
297.9171507435
 30
0.0
 11
208.0095168082
 21
297.9171507435
 31
0.0
  0
LINE
  5
9C
330
1F
100
AcDbEntity
  8
0
  6
Continuous
 62
     7
370
    15
100
AcDbLine
 10
162.0095168082
 20
297.9171507435
 30
0.0
 11
185.0095168082
 21
297.9171507435
 31
0.0
  0
SPLINE
  5
9D
330
1F
100
AcDbEntity
  8
0
  6
Continuous
 62
     7
370
    15
100
AcDbSpline
210
0.0
220
0.0
230
1.0
 70
     8
 71
     3
 72
    11
 73
     7
 74
     0
 42
0.00000001
 43
0.00000001
 12
1.0
 22
0.0
 32
0.0
 13
1.0
 23
0.0
 33
0.0
 40
0.0
 40
0.0
 40
0.0
 40
0.0
 40
0.0359084591123212
 40
0.5358583856135013
 40
0.7896147324945211
 40
1.0
 40
1.0
 40
1.0
 40
1.0
 10
164.6795511856772
 20
397.6393073099863
 30
0.0
 10
164.6482960066762
 20
397.635079397098
 30
0.0
 10
164.1818780601642
 20
397.5719866710136
 30
0.0
 10
163.8181611905572
 20
397.5645804013765
 30
0.0
 10
163.536502869053
 20
397.5690134943589
 30
0.0
 10
163.5258782088078
 20
397.5678197846528
 30
0.0
 10
163.5210622821196
 20
397.5672787020865
 30
0.0
  0
SPLINE
  5
9E
330
1F
100
AcDbEntity
  8
0
  6
Continuous
 62
     7
370
    15
100
AcDbSpline
210
0.0
220
0.0
230
1.0
 70
     8
 71
     3
 72
    10
 73
     6
 74
     0
 42
0.00000001
 43
0.00000001
 12
1.0
 22
0.0
 32
0.0
 13
1.0
 23
0.0
 33
0.0
 40
0.0
 40
0.0
 40
0.0
 40
0.0
 40
0.3700331399025585
 40
0.78797204399602
 40
1.0
 40
1.0
 40
1.0
 40
1.0
 10
206.4354880841784
 20
397.5679767729371
 30
0.0
 10
206.4535017259172
 20
397.5686642383369
 30
0.0
 10
206.4918611174692
 20
397.5701281707738
 30
0.0
 10
206.307714780991
 20
397.5614693260462
 30
0.0
 10
206.1152832826681
 20
397.5730559512426
 30
0.0
 10
206.0505166102532
 20
397.5769556618671
 30
0.0
  0
SPLINE
  5
9F
330
1F
100
AcDbEntity
  8
0
  6
Continuous
 62
     8
370
    15
100
AcDbSpline
210
0.0
220
0.0
230
1.0
 70
     8
 71
     3
 72
    44
 73
    40
 74
     0
 42
0.00000001
 43
0.00000001
 12
1.0
 22
0.0
 32
0.0
 13
1.0
 23
0.0
 33
0.0
 40
0.0
 40
0.0
 40
0.0
 40
0.0
 40
0.0625000000000008
 40
0.0625000000000008
 40
0.1250000000000016
 40
0.1250000000000016
 40
0.1562500000000022
 40
0.1562500000000022
 40
0.1875000000000029
 40
0.1875000000000029
 40
0.2500000000000034
 40
0.2500000000000034
 40
0.2812500000000035
 40
0.2812500000000035
 40
0.3125000000000036
 40
0.3125000000000036
 40
0.3750000000000037
 40
0.3750000000000037
 40
0.4062500000000037
 40
0.4062500000000037
 40
0.4375000000000037
 40
0.4375000000000037
 40
0.5000000000000037
 40
0.5000000000000037
 40
0.5312500000000032
 40
0.5312500000000032
 40
0.5625000000000027
 40
0.5625000000000027
 40
0.5937500000000022
 40
0.5937500000000022
 40
0.6250000000000017
 40
0.6250000000000017
 40
0.6562500000000012
 40
0.6562500000000012
 40
0.6875000000000008
 40
0.6875000000000008
 40
0.7500000000000008
 40
0.7500000000000008
 40
1.0
 40
1.0
 40
1.0
 40
1.0
 10
185.0095099062909
 20
395.2940167733429
 30
0.0
 10
184.022620145507
 20
395.2950357346158
 30
0.0
 10
183.0430307947003
 20
395.298573912107
 30
0.0
 10
181.1117776353796
 20
395.3091576019111
 30
0.0
 10
180.1592219710301
 20
395.3153521698081
 30
0.0
 10
178.7488478866066
 20
395.3254618619521
 30
0.0
 10
178.2813089363563
 20
395.3291032846203
 30
0.0
 10
177.3693307585484
 20
395.3370825528588
 30
0.0
 10
176.9227354865329
 20
395.3414406431779
 30
0.0
 10
175.6108765262287
 20
395.3560210088929
 30
0.0
 10
174.7735755574803
 20
395.3678736103856
 30
0.0
 10
173.5750613421687
 20
395.3887659772176
 30
0.0
 10
173.1834842719052
 20
395.3962405513198
 30
0.0
 10
172.4290014508741
 20
395.4118122010266
 30
0.0
 10
172.0661385377394
 20
395.4199648968774
 30
0.0
 10
171.0196304720792
 20
395.4459573977377
 30
0.0
 10
170.3781944707594
 20
395.4652860964819
 30
0.0
 10
169.5036301486694
 20
395.4990584131627
 30
0.0
 10
169.2263450725854
 20
395.5110592317738
 30
0.0
 10
168.7033531668031
 20
395.536103174565
 30
0.0
 10
168.4603665439413
 20
395.5490058430104
 30
0.0
 10
167.7845158344085
 20
395.5880739199804
 30
0.0
 10
167.4021287355744
 20
395.6148233850444
 30
0.0
 10
166.9454323240896
 20
395.6523120176031
 30
0.0
 10
166.8142847084278
 20
395.6645679604484
 30
0.0
 10
166.5980486867855
 20
395.6878637665961
 30
0.0
 10
166.5132676689377
 20
395.6984188404024
 30
0.0
 10
166.3843045381734
 20
395.7166242882711
 30
0.0
 10
166.3396047412268
 20
395.7243335858159
 30
0.0
 10
166.2750182309762
 20
395.739428250629
 30
0.0
 10
166.2546216844462
 20
395.7465293521823
 30
0.0
 10
166.2226401442785
 20
395.7573036982753
 30
0.0
 10
166.2109802073891
 20
395.7609855834328
 30
0.0
 10
166.1885342571583
 20
395.7650091288194
 30
0.0
 10
166.1780092101694
 20
395.7652569208784
 30
0.0
 10
166.1466721362856
 20
395.7643843410402
 30
0.0
 10
166.1260212141875
 20
395.7619911594788
 30
0.0
 10
166.0209469257593
 20
395.7545546595724
 30
0.0
 10
165.9338722780862
 20
395.7536949427419
 30
0.0
 10
165.8509820262591
 20
395.7557332767356
 30
0.0
  0
SPLINE
  5
A0
330
1F
100
AcDbEntity
  8
0
  6
Continuous
 62
     8
370
    15
100
AcDbSpline
210
0.0
220
0.0
230
1.0
 70
     8
 71
     3
 72
    20
 73
    16
 74
     0
 42
0.00000001
 43
0.00000001
 12
1.0
 22
0.0
 32
0.0
 13
1.0
 23
0.0
 33
0.0
 40
0.0
 40
0.0
 40
0.0
 40
0.0
 40
0.2499999999999999
 40
0.2499999999999999
 40
0.4999999999999999
 40
0.4999999999999999
 40
0.625
 40
0.625
 40
0.75
 40
0.75
 40
0.8125
 40
0.8125
 40
0.875
 40
0.875
 40
1.0
 40
1.0
 40
1.0
 40
1.0
 10
165.8509820262591
 20
395.7557332767356
 30
0.0
 10
165.6822053772839
 20
395.7598836222026
 30
0.0
 10
165.528886780089
 20
395.7759810574766
 30
0.0
 10
165.2693159790138
 20
395.8168897358213
 30
0.0
 10
165.1652270949431
 20
395.8395277568721
 30
0.0
 10
165.0583470498061
 20
395.8706038694963
 30
0.0
 10
165.0323666182647
 20
395.883912321861
 30
0.0
 10
164.9312490100256
 20
395.911932859875
 30
0.0
 10
164.8625477096913
 20
395.9291621760893
 30
0.0
 10
164.6194374516374
 20
395.9562341179676
 30
0.0
 10
164.5134540123512
 20
395.9654977818361
 30
0.0
 10
164.2271403178528
 20
395.9830453074808
 30
0.0
 10
164.0467302867016
 20
395.9907616068616
 30
0.0
 10
163.4063383493421
 20
396.00909211782
 30
0.0
 10
162.8531932359785
 20
396.015089183326
 30
0.0
 10
162.2821105300475
 20
396.0170614061912
 30
0.0
  0
SPLINE
  5
A1
330
1F
100
AcDbEntity
  8
0
  6
Continuous
 62
     8
370
     0
100
AcDbSpline
210
0.0
220
0.0
230
1.0
 70
     8
 71
     3
 72
    10
 73
     6
 74
     0
 42
0.00000001
 43
0.00000001
 12
1.0
 22
0.0
 32
0.0
 13
1.0
 23
0.0
 33
0.0
 40
0.0
 40
0.0
 40
0.0
 40
0.0
 40
0.5
 40
0.5
 40
1.0
 40
1.0
 40
1.0
 40
1.0
 10
163.3567356973925
 20
397.4592961095747
 30
0.0
 10
163.049801088287
 20
397.3704453198758
 30
0.0
 10
162.773051813576
 20
397.1781596164274
 30
0.0
 10
162.3886505760295
 20
396.6622617744079
 30
0.0
 10
162.2820931412286
 20
396.340118581813
 30
0.0
 10
162.2821105300475
 20
396.0170614061911
 30
0.0
  0
SPLINE
  5
A2
330
1F
100
AcDbEntity
  8
0
  6
Continuous
 62
     8
370
     0
100
AcDbSpline
210
0.0
220
0.0
230
1.0
 70
     8
 71
     3
 72
    33
 73
    29
 74
     0
 42
0.00000001
 43
0.00000001
 12
1.0
 22
0.0
 32
0.0
 13
1.0
 23
0.0
 33
0.0
 40
0.0
 40
0.0
 40
0.0
 40
0.0
 40
0.0160575017988177
 40
0.0319222035082343
 40
0.0481097051933797
 40
0.0642388099199016
 40
0.0803456503664822
 40
0.096473223111465
 40
0.1125251291494932
 40
0.1283990437518283
 40
0.1442704587429231
 40
0.1604121935980347
 40
0.1886278184102721
 40
0.2172786665116297
 40
0.2447342813046733
 40
0.2726842327451515
 40
0.3003500794332615
 40
0.3289051885117689
 40
0.3564347872323847
 40
0.4079986357162516
 40
0.4602839979561567
 40
0.5121621514487105
 40
0.5979824457251208
 40
0.6833784748314738
 40
0.7689274328495952
 40
0.8564319903150395
 40
0.9422989499083846
 40
1.0
 40
1.0
 40
1.0
 40
1.0
 10
184.3541274906997
 20
397.4593821006035
 30
0.0
 10
183.6615488861945
 20
397.4592377486304
 30
0.0
 10
182.2847073677903
 20
397.458950777897
 30
0.0
 10
180.249192247605
 20
397.4593526716585
 30
0.0
 10
178.2744126659028
 20
397.4596187418427
 30
0.0
 10
176.383756247079
 20
397.4589017347681
 30
0.0
 10
174.6166519836906
 20
397.4591168106572
 30
0.0
 10
172.9958181459951
 20
397.4598712651718
 30
0.0
 10
171.5453899466652
 20
397.459145705285
 30
0.0
 10
170.2864908004607
 20
397.4585622153932
 30
0.0
 10
169.2259442301912
 20
397.4598944944843
 30
0.0
 10
168.1477666116062
 20
397.4593409292256
 30
0.0
 10
167.3764727589569
 20
397.4593707984054
 30
0.0
 10
167.2775472506108
 20
397.4605842917944
 30
0.0
 10
167.1963952372624
 20
397.4573769186446
 30
0.0
 10
167.1116020648596
 20
397.4609060240848
 30
0.0
 10
167.0263358851046
 20
397.4581609406621
 30
0.0
 10
166.9424528024428
 20
397.4595190634598
 30
0.0
 10
166.837974207314
 20
397.459647879105
 30
0.0
 10
166.7175144439196
 20
397.4587310520558
 30
0.0
 10
166.5846310648837
 20
397.4595441791665
 30
0.0
 10
166.4369529527069
 20
397.4592224420113
 30
0.0
 10
166.2900470343777
 20
397.4592004833304
 30
0.0
 10
166.1644090640476
 20
397.4591390283471
 30
0.0
 10
166.082587842582
 20
397.4590402062854
 30
0.0
 10
165.8809463266759
 20
397.4593050531128
 30
0.0
 10
165.1592798621445
 20
397.4598088139007
 30
0.0
 10
164.2332395984996
 20
397.4592488231968
 30
0.0
 10
163.8610571341981
 20
397.4590237587711
 30
0.0
  0
SPLINE
  5
A3
330
1F
100
AcDbEntity
  8
0
  6
Continuous
 62
     8
370
     0
100
AcDbSpline
210
0.0
220
0.0
230
1.0
 70
     8
 71
     3
 72
     9
 73
     5
 74
     0
 42
0.00000001
 43
0.00000001
 12
1.0
 22
0.0
 32
0.0
 13
1.0
 23
0.0
 33
0.0
 40
0.0
 40
0.0
 40
0.0
 40
0.0
 40
0.4971989490417874
 40
1.0
 40
1.0
 40
1.0
 40
1.0
 10
184.3541285558697
 20
397.4592823375154
 30
0.0
 10
184.462978116949
 20
397.4602784464432
 30
0.0
 10
184.6819036824377
 20
397.4622818877814
 30
0.0
 10
184.9008381464153
 20
397.4626328273801
 30
0.0
 10
185.0109186249942
 20
397.4628092801792
 30
0.0
  0
SPLINE
  5
A4
330
1F
100
AcDbEntity
  8
0
  6
Continuous
 62
     8
370
     0
100
AcDbSpline
210
0.0
220
0.0
230
1.0
 70
     8
 71
     3
 72
    42
 73
    38
 74
     0
 42
0.00000001
 43
0.00000001
 12
1.0
 22
0.0
 32
0.0
 13
1.0
 23
0.0
 33
0.0
 40
0.0
 40
0.0
 40
0.0
 40
0.0
 40
0.0037589125741789
 40
0.0355222863901075
 40
0.0684370651220007
 40
0.1009155260862428
 40
0.1329984541646068
 40
0.1593726518029684
 40
0.1851637964898018
 40
0.210823474933129
 40
0.2357899119809345
 40
0.2610853923638465
 40
0.3067017165709423
 40
0.3520347332007445
 40
0.3971050860051707
 40
0.442358753217532
 40
0.4874019454782841
 40
0.5300475482949143
 40
0.5730234151825003
 40
0.6164128530775795
 40
0.6597476157098378
 40
0.7021593608155994
 40
0.7447644461780814
 40
0.775674221699
 40
0.8077481529354298
 40
0.8238537002420931
 40
0.839769241296557
 40
0.8559919387656204
 40
0.8722060533834196
 40
0.8880659981277754
 40
0.9042184859174464
 40
0.92030349057513
 40
0.9362167231723448
 40
0.9521865210712802
 40
0.9683111565393865
 40
0.984149148541679
 40
1.0
 40
1.0
 40
1.0
 40
1.0
 10
206.1175499821491
 20
397.4589041765301
 30
0.0
 10
206.0931299897587
 20
397.4589090511333
 30
0.0
 10
205.862357406939
 20
397.458955116863
 30
0.0
 10
205.4549707711351
 20
397.4595459405025
 30
0.0
 10
204.9450616708951
 20
397.4595291861125
 30
0.0
 10
204.5555268520748
 20
397.4587612971081
 30
0.0
 10
204.307880507233
 20
397.4591322003951
 30
0.0
 10
204.1548991629694
 20
397.4596064446413
 30
0.0
 10
204.0578668795461
 20
397.459407130631
 30
0.0
 10
203.9922105329785
 20
397.4591258046337
 30
0.0
 10
203.9455826681451
 20
397.4590409386616
 30
0.0
 10
203.8990469737905
 20
397.4596981185142
 30
0.0
 10
203.8611697806291
 20
397.4588010234491
 30
0.0
 10
203.8026345609539
 20
397.4596203174554
 30
0.0
 10
203.7323770106911
 20
397.4590912015137
 30
0.0
 10
203.6496508326252
 20
397.4591843287797
 30
0.0
 10
203.5577292023109
 20
397.4592531375641
 30
0.0
 10
203.4572708128121
 20
397.4596756801525
 30
0.0
 10
203.349788184428
 20
397.4587943911834
 30
0.0
 10
203.2343484436475
 20
397.4593157966014
 30
0.0
 10
203.1127651618406
 20
397.4597256865191
 30
0.0
 10
202.9832943752957
 20
397.4586693769508
 30
0.0
 10
202.8689203326008
 20
397.4588646182137
 30
0.0
 10
202.7521897270562
 20
397.4597271065206
 30
0.0
 10
202.7080489603693
 20
397.459804025689
 30
0.0
 10
202.2632160244408
 20
397.4583529277643
 30
0.0
 10
201.638933131082
 20
397.4596812736431
 30
0.0
 10
200.7740437709864
 20
397.4598372688533
 30
0.0
 10
199.6977513206913
 20
397.4586032946926
 30
0.0
 10
198.4204718765353
 20
397.4591982893091
 30
0.0
 10
196.9616643455571
 20
397.4598533395329
 30
0.0
 10
195.3390892363723
 20
397.4590700643195
 30
0.0
 10
193.5819317897364
 20
397.4589256167293
 30
0.0
 10
191.7050410317389
 20
397.4596342358308
 30
0.0
 10
189.7391698761693
 20
397.459334511291
 30
0.0
 10
187.7154261000178
 20
397.4589589793489
 30
0.0
 10
186.3486080839033
 20
397.4592416130526
 30
0.0
 10
185.6649217458104
 20
397.4593829872513
 30
0.0
  0
SPLINE
  5
A5
330
1F
100
AcDbEntity
  8
0
  6
Continuous
 62
     8
370
     0
100
AcDbSpline
210
0.0
220
0.0
230
1.0
 70
     8
 71
     3
 72
    10
 73
     6
 74
     0
 42
0.00000001
 43
0.00000001
 12
1.0
 22
0.0
 32
0.0
 13
1.0
 23
0.0
 33
0.0
 40
0.0
 40
0.0
 40
0.0
 40
0.0
 40
0.5
 40
0.5
 40
1.0
 40
1.0
 40
1.0
 40
1.0
 10
207.7369230896431
 20
396.0170665037337
 30
0.0
 10
207.7369504689625
 20
396.3401206119772
 30
0.0
 10
207.6304051123076
 20
396.6622607634358
 30
0.0
 10
207.2460306894884
 20
397.1781560587424
 30
0.0
 10
206.9692960924493
 20
397.3704423210833
 30
0.0
 10
206.6623755426174
 20
397.4592960973643
 30
0.0
  0
SPLINE
  5
A6
330
1F
100
AcDbEntity
  8
0
  6
Continuous
 62
     8
370
    15
100
AcDbSpline
210
0.0
220
0.0
230
1.0
 70
     8
 71
     3
 72
    20
 73
    16
 74
     0
 42
0.00000001
 43
0.00000001
 12
1.0
 22
0.0
 32
0.0
 13
1.0
 23
0.0
 33
0.0
 40
0.0
 40
0.0
 40
0.0
 40
0.0
 40
0.1249999999999999
 40
0.1249999999999999
 40
0.1874999999999999
 40
0.1874999999999999
 40
0.2499999999999999
 40
0.2499999999999999
 40
0.3749999999999998
 40
0.3749999999999998
 40
0.4999999999999998
 40
0.4999999999999998
 40
0.7499999999999999
 40
0.7499999999999999
 40
1.0
 40
1.0
 40
1.0
 40
1.0
 10
207.7369230896431
 20
396.0170665037337
 30
0.0
 10
207.1658403880762
 20
396.015094149825
 30
0.0
 10
206.6126952922944
 20
396.0090969717026
 30
0.0
 10
205.9723034101651
 20
395.9907663265514
 30
0.0
 10
205.7918934023766
 20
395.9830499904015
 30
0.0
 10
205.5055797610717
 20
395.9655024090658
 30
0.0
 10
205.3995963498879
 20
395.9562387265995
 30
0.0
 10
205.1564861739964
 20
395.9291667444513
 30
0.0
 10
205.0877849263425
 20
395.9119374239889
 30
0.0
 10
204.9866674037777
 20
395.88391687718
 30
0.0
 10
204.9606870131218
 20
395.8706084230672
 30
0.0
 10
204.8538070611572
 20
395.8395322870126
 30
0.0
 10
204.7497182421919
 20
395.8168942277347
 30
0.0
 10
204.4901475579849
 20
395.775985488384
 30
0.0
 10
204.3368290049627
 20
395.7598880216539
 30
0.0
 10
204.1680523622665
 20
395.7557376391611
 30
0.0
  0
SPLINE
  5
A7
330
1F
100
AcDbEntity
  8
0
  6
Continuous
 62
     8
370
    15
100
AcDbSpline
210
0.0
220
0.0
230
1.0
 70
     8
 71
     3
 72
    44
 73
    40
 74
     0
 42
0.00000001
 43
0.00000001
 12
1.0
 22
0.0
 32
0.0
 13
1.0
 23
0.0
 33
0.0
 40
0.0
 40
0.0
 40
0.0
 40
0.0
 40
0.2500000000000017
 40
0.2500000000000017
 40
0.3125000000000023
 40
0.3125000000000023
 40
0.3437500000000022
 40
0.3437500000000022
 40
0.3750000000000021
 40
0.3750000000000021
 40
0.4062500000000019
 40
0.4062500000000019
 40
0.4375000000000018
 40
0.4375000000000018
 40
0.4687500000000017
 40
0.4687500000000017
 40
0.5000000000000016
 40
0.5000000000000016
 40
0.5625000000000004
 40
0.5625000000000004
 40
0.5937499999999999
 40
0.5937499999999999
 40
0.6249999999999992
 40
0.6249999999999992
 40
0.6874999999999989
 40
0.6874999999999989
 40
0.7187499999999991
 40
0.7187499999999991
 40
0.7499999999999993
 40
0.7499999999999993
 40
0.8124999999999996
 40
0.8124999999999996
 40
0.8437499999999997
 40
0.8437499999999997
 40
0.8749999999999997
 40
0.8749999999999997
 40
0.9374999999999999
 40
0.9374999999999999
 40
1.0
 40
1.0
 40
1.0
 40
1.0
 10
204.1680523622665
 20
395.7557376391612
 30
0.0
 10
204.0851621115134
 20
395.7536992869339
 30
0.0
 10
203.9980874545649
 20
395.754558978532
 30
0.0
 10
203.893013141922
 20
395.7619954820037
 30
0.0
 10
203.872362212863
 20
395.7643886675382
 30
0.0
 10
203.8410251379312
 20
395.7652612595371
 30
0.0
 10
203.8305000923752
 20
395.7650134720035
 30
0.0
 10
203.8080541553752
 20
395.7609899355211
 30
0.0
 10
203.7963942300264
 20
395.757308055984
 30
0.0
 10
203.7644127198354
 20
395.7465337156319
 30
0.0
 10
203.7440161915024
 20
395.7394326128951
 30
0.0
 10
203.6794297163259
 20
395.7243379476287
 30
0.0
 10
203.634729934391
 20
395.7166286432608
 30
0.0
 10
203.5057668386487
 20
395.6984231622476
 30
0.0
 10
203.4209858438084
 20
395.6878680626597
 30
0.0
 10
203.204749852079
 20
395.6645721896141
 30
0.0
 10
203.0736022488166
 20
395.652316209205
 30
0.0
 10
202.6169058769368
 20
395.6148274452822
 30
0.0
 10
202.2345188026494
 20
395.5880778831716
 30
0.0
 10
201.5586681182637
 20
395.5490096444904
 30
0.0
 10
201.315681501833
 20
395.5361069193167
 30
0.0
 10
200.792689603604
 20
395.5110628562521
 30
0.0
 10
200.5154045119828
 20
395.4990619739787
 30
0.0
 10
199.6408401547428
 20
395.4652894586774
 30
0.0
 10
198.9994041163175
 20
395.445960614318
 30
0.0
 10
197.9528959830408
 20
395.4199678737799
 30
0.0
 10
197.5900330451929
 20
395.411815094741
 30
0.0
 10
196.8355501714968
 20
395.3962432722422
 30
0.0
 10
196.4439730671938
 20
395.3887686082168
 30
0.0
 10
195.2454587493144
 20
395.3678759654825
 30
0.0
 10
194.4081577091987
 20
395.3560231716108
 30
0.0
 10
193.0962986422127
 20
395.3414425054649
 30
0.0
 10
192.6497033347129
 20
395.3370843129726
 30
0.0
 10
191.7377250866028
 20
395.3291048360111
 30
0.0
 10
191.2701861006962
 20
395.3254633062876
 30
0.0
 10
189.8598119102506
 20
395.315353290687
 30
0.0
 10
188.9072561833188
 20
395.3091585028469
 30
0.0
 10
186.9760029110156
 20
395.2985743670473
 30
0.0
 10
185.9964135107157
 20
395.2950359633269
 30
0.0
 10
185.0095237100101
 20
395.294016772841
 30
0.0
  0
SPLINE
  5
A8
330
1F
100
AcDbEntity
  8
0
  6
Continuous
 62
     8
370
     0
100
AcDbSpline
210
0.0
220
0.0
230
1.0
 70
     8
 71
     3
 72
     9
 73
     5
 74
     0
 42
0.00000001
 43
0.00000001
 12
1.0
 22
0.0
 32
0.0
 13
1.0
 23
0.0
 33
0.0
 40
0.0
 40
0.0
 40
0.0
 40
0.0
 40
0.5024414162913117
 40
1.0
 40
1.0
 40
1.0
 40
1.0
 10
185.0109579679323
 20
397.4628080980725
 30
0.0
 10
185.1204861770773
 20
397.4626292239678
 30
0.0
 10
185.3384781769275
 20
397.462273214095
 30
0.0
 10
185.55646130823
 20
397.4602760981112
 30
0.0
 10
185.6649206863133
 20
397.4592824159108
 30
0.0
  0
SPLINE
  5
A9
330
1F
100
AcDbEntity
  8
0
  6
Continuous
 62
     8
370
    15
100
AcDbSpline
210
0.0
220
0.0
230
1.0
 70
     8
 71
     3
 72
    14
 73
    10
 74
     0
 42
0.00000001
 43
0.00000001
 12
1.0
 22
0.0
 32
0.0
 13
1.0
 23
0.0
 33
0.0
 40
0.0
 40
0.0
 40
0.0
 40
0.0
 40
0.2119158853830412
 40
0.4085695994856165
 40
0.586450382575284
 40
0.7118763214047171
 40
0.8290758873172127
 40
0.9378295728393069
 40
1.0
 40
1.0
 40
1.0
 40
1.0
 10
204.1680204278285
 20
395.7555763626117
 30
0.0
 10
203.9361576793565
 20
394.5748105125837
 30
0.0
 10
203.4891309257576
 20
392.2983175089553
 30
0.0
 10
202.5422396213875
 20
389.101386222358
 30
0.0
 10
201.4756040156284
 20
386.4656946110813
 30
0.0
 10
200.325990693502
 20
384.3670882504661
 30
0.0
 10
199.1568309593563
 20
382.7481875220996
 30
0.0
 10
198.0557411448273
 20
381.5263286458802
 30
0.0
 10
197.2885633013064
 20
380.9307378426385
 30
0.0
 10
197.0095168081505
 20
380.7141029040722
 30
0.0
  0
SPLINE
  5
AA
330
1F
100
AcDbEntity
  8
0
  6
Continuous
 62
     8
370
    15
100
AcDbSpline
210
0.0
220
0.0
230
1.0
 70
     8
 71
     3
 72
    10
 73
     6
 74
     0
 42
0.00000001
 43
0.00000001
 12
1.0
 22
0.0
 32
0.0
 13
1.0
 23
0.0
 33
0.0
 40
0.0
 40
0.0
 40
0.0
 40
0.0
 40
0.1914701703684024
 40
0.6010396904065382
 40
1.0
 40
1.0
 40
1.0
 40
1.0
 10
172.4462328516294
 20
382.4586025387675
 30
0.0
 10
172.4316337652858
 20
382.5206429227059
 30
0.0
 10
172.3858061028394
 20
382.7153924917029
 30
0.0
 10
172.5560407389585
 20
382.8595417801247
 30
0.0
 10
172.8554381760742
 20
382.8978364104029
 30
0.0
 10
173.0031726069209
 20
382.916732482003
 30
0.0
  0
SPLINE
  5
AB
330
1F
100
AcDbEntity
  8
0
  6
Continuous
 62
     8
370
    15
100
AcDbSpline
210
0.0
220
0.0
230
1.0
 70
     8
 71
     3
 72
    10
 73
     6
 74
     0
 42
0.00000001
 43
0.00000001
 12
1.0
 22
0.0
 32
0.0
 13
1.0
 23
0.0
 33
0.0
 40
0.0
 40
0.0
 40
0.0
 40
0.0
 40
0.2301753116688663
 40
0.7219073894653546
 40
1.0
 40
1.0
 40
1.0
 40
1.0
 10
197.1699959775031
 20
382.8608955891031
 30
0.0
 10
197.2479852462287
 20
382.8536575257727
 30
0.0
 10
197.4925858899023
 20
382.8309565185893
 30
0.0
 10
197.6234629544939
 20
382.7063298056426
 30
0.0
 10
197.5849497133738
 20
382.5046311643808
 30
0.0
 10
197.5710371331129
 20
382.4317692484927
 30
0.0
  0
SPLINE
  5
AC
330
1F
100
AcDbEntity
  8
0
  6
Continuous
 62
     8
370
    15
100
AcDbSpline
210
0.0
220
0.0
230
1.0
 70
     8
 71
     3
 72
    15
 73
    11
 74
     0
 42
0.00000001
 43
0.00000001
 12
1.0
 22
0.0
 32
0.0
 13
1.0
 23
0.0
 33
0.0
 40
0.0
 40
0.0
 40
0.0
 40
0.0
 40
0.2092881879950723
 40
0.4048844018221614
 40
0.5829235287804929
 40
0.7088393094016355
 40
0.826463514770165
 40
0.8997422114238959
 40
0.9719082336572356
 40
1.0
 40
1.0
 40
1.0
 40
1.0
 10
165.8509992102261
 20
395.7556545019211
 30
0.0
 10
166.0799382817343
 20
394.5884275614288
 30
0.0
 10
166.522838857774
 20
392.3303355681862
 30
0.0
 10
167.4611725958962
 20
389.1491471851763
 30
0.0
 10
168.521504558244
 20
386.5098494453678
 30
0.0
 10
169.6725691923904
 20
384.4046374909496
 30
0.0
 10
170.7171594140068
 20
382.9317160564244
 30
0.0
 10
171.7174872604825
 20
381.8204639870697
 30
0.0
 10
172.4280543301004
 20
381.13273045258
 30
0.0
 10
172.882252571973
 20
380.7887207962048
 30
0.0
 10
173.0095168081505
 20
380.6923308895073
 30
0.0
  0
SPLINE
  5
AD
330
1F
100
AcDbEntity
  8
0
  6
Continuous
 62
     8
370
     0
100
AcDbSpline
210
0.0
220
0.0
230
1.0
 70
     8
 71
     3
 72
    10
 73
     6
 74
     0
 42
0.00000001
 43
0.00000001
 12
1.0
 22
0.0
 32
0.0
 13
1.0
 23
0.0
 33
0.0
 40
0.0
 40
0.0
 40
0.0
 40
0.0
 40
0.2555355062675286
 40
0.8921289055674321
 40
1.0
 40
1.0
 40
1.0
 40
1.0
 10
197.0095168081505
 20
382.3945034768141
 30
0.0
 10
197.024696249253
 20
382.4267218692604
 30
0.0
 10
197.0776909127959
 20
382.5392031428496
 30
0.0
 10
197.1178934158704
 20
382.6523689148763
 30
0.0
 10
197.1013482055687
 20
382.7036122726739
 30
0.0
 10
197.0989508448378
 20
382.711037310583
 30
0.0
  0
SPLINE
  5
AE
330
1F
100
AcDbEntity
  8
0
  6
Continuous
 62
     8
370
     0
100
AcDbSpline
210
0.0
220
0.0
230
1.0
 70
     8
 71
     3
 72
     9
 73
     5
 74
     0
 42
0.00000001
 43
0.00000001
 12
1.0
 22
0.0
 32
0.0
 13
1.0
 23
0.0
 33
0.0
 40
0.0
 40
0.0
 40
0.0
 40
0.0
 40
0.2501947024289086
 40
1.0
 40
1.0
 40
1.0
 40
1.0
 10
172.9165605257789
 20
382.749723262916
 30
0.0
 10
172.9151899016302
 20
382.7313286975862
 30
0.0
 10
172.9097116715344
 20
382.6578076951379
 30
0.0
 10
172.9667495241198
 20
382.53937431436
 30
0.0
 10
173.0095168081505
 20
382.4505723380435
 30
0.0
  0
SPLINE
  5
AF
330
1F
100
AcDbEntity
  8
0
  6
Continuous
 62
     8
370
     0
100
AcDbSpline
210
0.0
220
0.0
230
1.0
 70
     8
 71
     3
 72
    31
 73
    27
 74
     0
 42
0.00000001
 43
0.00000001
 12
1.0
 22
0.0
 32
0.0
 13
1.0
 23
0.0
 33
0.0
 40
0.0
 40
0.0
 40
0.0
 40
0.0
 40
0.0233951922253527
 40
0.0451670855444087
 40
0.0785554248312049
 40
0.1100639600066981
 40
0.1767049394124954
 40
0.2433833685311498
 40
0.3106010865542412
 40
0.3803991269672785
 40
0.4506746557942348
 40
0.5210123517544394
 40
0.5883855747459773
 40
0.6527572031836381
 40
0.7126852063590524
 40
0.7695894415153306
 40
0.8237816486992501
 40
0.8515147955893867
 40
0.8789013206991217
 40
0.907038787480467
 40
0.9349135626749133
 40
0.9502632130951678
 40
0.9655027374200283
 40
0.9769254032276604
 40
0.9884203789528454
 40
1.0
 40
1.0
 40
1.0
 40
1.0
 10
207.7367361429734
 20
396.0171076688196
 30
0.0
 10
207.7362806283072
 20
395.4612314277966
 30
0.0
 10
207.7354012053174
 20
394.3880489769518
 30
0.0
 10
207.7320242378196
 20
392.5216461158892
 30
0.0
 10
207.7259330504763
 20
390.4626830759523
 30
0.0
 10
207.7113933043428
 20
387.3385951813025
 30
0.0
 10
207.6809508534027
 20
383.426116995339
 30
0.0
 10
207.6116679679254
 20
378.6765059922076
 30
0.0
 10
207.4869293860878
 20
373.8764131122211
 30
0.0
 10
207.2647218241381
 20
369.0434808164638
 30
0.0
 10
206.8707032856316
 20
364.2417215665108
 30
0.0
 10
206.2067154119762
 20
359.674766392266
 30
0.0
 10
205.1646508581827
 20
355.5014791826627
 30
0.0
 10
203.6864507709639
 20
351.8677927489576
 30
0.0
 10
201.753331104204
 20
348.7915208499936
 30
0.0
 10
199.3966311962087
 20
346.2650408776296
 30
0.0
 10
197.0548161018311
 20
344.5527176667302
 30
0.0
 10
194.9791701654079
 20
343.4356262607593
 30
0.0
 10
193.2867075548307
 20
342.7106566990062
 30
0.0
 10
191.4916641854445
 20
342.1205520075264
 30
0.0
 10
189.8838943509513
 20
341.7410930578359
 30
0.0
 10
188.5343587903199
 20
341.5126655984359
 30
0.0
 10
187.5511784650272
 20
341.3913569596431
 30
0.0
 10
186.6509061423236
 20
341.3168264329331
 30
0.0
 10
185.8331017654079
 20
341.2746101547864
 30
0.0
 10
185.2847898569062
 20
341.2688861942373
 30
0.0
 10
185.0096282071172
 20
341.266013715264
 30
0.0
  0
SPLINE
  5
B0
330
1F
100
AcDbEntity
  8
0
  6
Continuous
 62
     8
370
     0
100
AcDbSpline
210
0.0
220
0.0
230
1.0
 70
     8
 71
     3
 72
    83
 73
    79
 74
     0
 42
0.00000001
 43
0.00000001
 12
1.0
 22
0.0
 32
0.0
 13
1.0
 23
0.0
 33
0.0
 40
0.0
 40
0.0
 40
0.0
 40
0.0
 40
0.0211955901908238
 40
0.0326127290851051
 40
0.0383256436777705
 40
0.0497612102216483
 40
0.0669393216850871
 40
0.0784086407531462
 40
0.0956403090855983
 40
0.1108350574049407
 40
0.1202899596715833
 40
0.1487308736675458
 40
0.1629980347573675
 40
0.1677610840305095
 40
0.177299337521157
 40
0.1934859629918379
 40
0.2097213651615633
 40
0.2341725488120474
 40
0.2565931346336774
 40
0.2601607326351907
 40
0.2673044639878458
 40
0.2780418079595416
 40
0.2852146323640303
 40
0.2959958648771938
 40
0.3028077520810755
 40
0.3060223029546483
 40
0.3189037300276888
 40
0.3285890613756375
 40
0.3318221229024647
 40
0.3382949049745748
 40
0.3572269501771991
 40
0.3631944371428686
 40
0.3751479657227192
 40
0.3901206046488899
 40
0.3931186931467637
 40
0.3991179111595288
 40
0.4104845814478326
 40
0.4218590298701215
 40
0.4332361711429553
 40
0.4501265701982051
 40
0.4556403957045509
 40
0.4666552531387529
 40
0.4886079871097778
 40
0.4940756792682111
 40
0.5104119031178476
 40
0.5428291134104967
 40
0.5482160595907315
 40
0.5642544368557816
 40
0.5961623904605962
 40
0.6066741424225717
 40
0.6280230603545786
 40
0.6442139181866368
 40
0.6495519844159054
 40
0.6601406473217944
 40
0.6830960613582416
 40
0.7055377647965828
 40
0.7181774691153283
 40
0.7368783140657856
 40
0.7430501179164728
 40
0.749193469953442
 40
0.7698668543292674
 40
0.7734873112876574
 40
0.7843078150635038
 40
0.8058016631867061
 40
0.8129381227545557
 40
0.8312712920647164
 40
0.8404402518441866
 40
0.8496228019055055
 40
0.8680677515199863
 40
0.8773558964226069
 40
0.8867043173860082
 40
0.9061150628866291
 40
0.9259885493035734
 40
0.9327479536009128
 40
0.9535359220943794
 40
0.9828716504929339
 40
0.9985101194742232
 40
1.0
 40
1.0
 40
1.0
 40
1.0
 10
162.2821105031863
 20
396.0171018021518
 30
0.0
 10
162.2825666187143
 20
395.5132909194405
 30
0.0
 10
162.2832684237603
 20
394.7380991139722
 30
0.0
 10
162.284769055894
 20
393.8271473200072
 30
0.0
 10
162.2860530626878
 20
393.1481946689041
 30
0.0
 10
162.2878591417505
 20
392.3323380519175
 30
0.0
 10
162.2905087459985
 20
391.379724185941
 30
0.0
 10
162.294288425316
 20
390.2894592605314
 30
0.0
 10
162.2986938106861
 20
389.2464412055032
 30
0.0
 10
162.3038694206027
 20
388.2514592853435
 30
0.0
 10
162.3114584673599
 20
386.990393951115
 30
0.0
 10
162.3205491444186
 20
385.7517148411798
 30
0.0
 10
162.3308583911821
 20
384.6250404184359
 30
0.0
 10
162.3376617145094
 20
383.9471859167946
 30
0.0
 10
162.3454465469628
 20
383.2239559469099
 30
0.0
 10
162.3574975237684
 20
382.2290283956737
 30
0.0
 10
162.3764212014308
 20
380.8814542924951
 30
0.0
 10
162.4014734765314
 20
379.3877686869208
 30
0.0
 10
162.4259942104858
 20
378.1959017667216
 30
0.0
 10
162.4440388596294
 20
377.4139518662394
 30
0.0
 10
162.4562539242654
 20
376.9079985361037
 30
0.0
 10
162.4716185018958
 20
376.3175457788681
 30
0.0
 10
162.4905826939756
 20
375.642074693315
 30
0.0
 10
162.5082022658623
 20
375.0596707740612
 30
0.0
 10
162.5241283085908
 20
374.5709580952927
 30
0.0
 10
162.5424049060224
 20
374.0333262430685
 30
0.0
 10
162.5643464805363
 20
373.4290058021411
 30
0.0
 10
162.5884293518301
 20
372.8254594649188
 30
0.0
 10
162.607522542504
 20
372.3724091572442
 30
0.0
 10
162.6368394362132
 20
371.7039717094981
 30
0.0
 10
162.6723411921113
 20
370.9736655878118
 30
0.0
 10
162.7185398365826
 20
370.118531691646
 30
0.0
 10
162.7628004918881
 20
369.3571075433577
 30
0.0
 10
162.8075810381274
 20
368.6672030207292
 30
0.0
 10
162.8461419360733
 20
368.1162868126477
 30
0.0
 10
162.8800734716667
 20
367.6489883045211
 30
0.0
 10
162.9312915891097
 20
366.9915856202646
 30
0.0
 10
162.9977035204551
 20
366.2147660944546
 30
0.0
 10
163.0819339100099
 20
365.3167579116202
 30
0.0
 10
163.1617943892539
 20
364.5567359115881
 30
0.0
 10
163.2478661378849
 20
363.8095483513029
 30
0.0
 10
163.3532160648177
 20
362.9532877451805
 30
0.0
 10
163.4717294207114
 20
362.1067274168238
 30
0.0
 10
163.6210029904997
 20
361.1526408949713
 30
0.0
 10
163.8205598519087
 20
359.9800714214125
 30
0.0
 10
164.0555730753213
 20
358.8326377196087
 30
0.0
 10
164.3215872542254
 20
357.7134531127101
 30
0.0
 10
164.6037845950524
 20
356.6172938316702
 30
0.0
 10
164.962414285334
 20
355.4480576146696
 30
0.0
 10
165.4073487528917
 20
354.2089745003477
 30
0.0
 10
165.7742870823534
 20
353.2961245005808
 30
0.0
 10
166.1372641299284
 20
352.5054125625458
 30
0.0
 10
166.4251271016871
 20
351.9239052864052
 30
0.0
 10
166.7881399322179
 20
351.2296748200174
 30
0.0
 10
167.3561857689052
 20
350.260530678261
 30
0.0
 10
168.0117263059658
 20
349.3017078135729
 30
0.0
 10
168.668612333368
 20
348.4482951517065
 30
0.0
 10
169.1582198063108
 20
347.8754485304095
 30
0.0
 10
169.5838867341005
 20
347.4174701185229
 30
0.0
 10
170.0476647745014
 20
346.9386935039333
 30
0.0
 10
170.498059534909
 20
346.5137975133144
 30
0.0
 10
171.0408572440324
 20
346.0426094694224
 30
0.0
 10
171.6105514900956
 20
345.5719424356926
 30
0.0
 10
172.2710967516026
 20
345.0843189122891
 30
0.0
 10
173.0931484625071
 20
344.5368295436748
 30
0.0
 10
173.7231563898277
 20
344.1548172655678
 30
0.0
 10
174.4160773620396
 20
343.7767485586104
 30
0.0
 10
175.1279807970111
 20
343.4155341912425
 30
0.0
 10
175.8671904131581
 20
343.0809121314552
 30
0.0
 10
176.6327141749283
 20
342.7742348141978
 30
0.0
 10
177.4335683485856
 20
342.4803672766966
 30
0.0
 10
178.4864108951028
 20
342.1467702736447
 30
0.0
 10
179.5157923521857
 20
341.8874237971691
 30
0.0
 10
180.5940562003042
 20
341.6611416948036
 30
0.0
 10
181.9090350372816
 20
341.4403501786517
 30
0.0
 10
183.4625377133543
 20
341.2969434247731
 30
0.0
 10
184.5668558757509
 20
341.267134723632
 30
0.0
 10
184.973991412347
 20
341.2661034213495
 30
0.0
 10
185.0094054087204
 20
341.2660137152639
 30
0.0
  0
SPLINE
  5
B1
330
1F
100
AcDbEntity
  8
0
  6
Continuous
 62
     8
370
    15
100
AcDbSpline
210
0.0
220
0.0
230
1.0
 70
     8
 71
     3
 72
    18
 73
    14
 74
     0
 42
0.00000001
 43
0.00000001
 12
1.0
 22
0.0
 32
0.0
 13
1.0
 23
0.0
 33
0.0
 40
0.0
 40
0.0
 40
0.0
 40
0.0
 40
0.0700634902569428
 40
0.1560711653187397
 40
0.2432997010360961
 40
0.3087094809996385
 40
0.3738192655049926
 40
0.4387984733961662
 40
0.5029826334003078
 40
0.6292501822038914
 40
0.7543654713924159
 40
0.8781213544846463
 40
0.9999999999999999
 40
0.9999999999999999
 40
0.9999999999999999
 40
0.9999999999999999
 10
169.5586154791163
 20
432.0869189996015
 30
0.0
 10
169.5733170881765
 20
432.0872104567074
 30
0.0
 10
169.6060659171268
 20
432.0878596971318
 30
0.0
 10
169.6563496456087
 20
432.0874886390857
 30
0.0
 10
169.7670377020146
 20
432.0357224722312
 30
0.0
 10
170.2337376855443
 20
431.9836754154056
 30
0.0
 10
170.8835988152941
 20
431.9071577071331
 30
0.0
 10
171.7382362939042
 20
431.8383692333512
 30
0.0
 10
173.1083693538726
 20
431.7560863487325
 30
0.0
 10
175.219110989712
 20
431.6763316793297
 30
0.0
 10
178.2300224324693
 20
431.6203987715371
 30
0.0
 10
181.5500118228913
 20
431.5799947458349
 30
0.0
 10
183.8622381253752
 20
431.5757630732672
 30
0.0
 10
185.0095157962678
 20
431.5736634070528
 30
0.0
  0
SPLINE
  5
B2
330
1F
100
AcDbEntity
  8
0
  6
Continuous
 62
     8
370
    15
100
AcDbSpline
210
0.0
220
0.0
230
1.0
 70
     8
 71
     3
 72
    30
 73
    26
 74
     0
 42
0.00000001
 43
0.00000001
 12
1.0
 22
0.0
 32
0.0
 13
1.0
 23
0.0
 33
0.0
 40
0.0
 40
0.0
 40
0.0
 40
0.0
 40
0.1250000000000002
 40
0.1250000000000002
 40
0.2500000000000004
 40
0.2500000000000004
 40
0.3750000000000006
 40
0.3750000000000006
 40
0.5000000000000008
 40
0.5000000000000008
 40
0.6250000000000006
 40
0.6250000000000006
 40
0.6875000000000004
 40
0.6875000000000004
 40
0.7500000000000002
 40
0.7500000000000002
 40
0.8125000000000001
 40
0.8125000000000001
 40
0.8437500000000002
 40
0.8437500000000002
 40
0.8750000000000001
 40
0.8750000000000001
 40
0.9375000000000001
 40
0.9375000000000001
 40
1.0
 40
1.0
 40
1.0
 40
1.0
 10
169.5494734080629
 20
432.087006379967
 30
0.0
 10
169.5006763998861
 20
432.0858922176507
 30
0.0
 10
169.4505933814786
 20
432.0855334614383
 30
0.0
 10
169.3467075826356
 20
432.0896980580245
 30
0.0
 10
169.2939038432171
 20
432.0928697776399
 30
0.0
 10
169.2060058734292
 20
432.1011695556542
 30
0.0
 10
169.1707885863024
 20
432.1045760207418
 30
0.0
 10
169.0903957125923
 20
432.1138615891879
 30
0.0
 10
169.0417420506159
 20
432.1202416986187
 30
0.0
 10
168.8919916988686
 20
432.1357312366861
 30
0.0
 10
168.7927971415585
 20
432.1465891249572
 30
0.0
 10
168.550351596924
 20
432.1642457418297
 30
0.0
 10
168.4541254650008
 20
432.1701997399602
 30
0.0
 10
168.201873928715
 20
432.1838397701874
 30
0.0
 10
168.0469073723316
 20
432.1915312667032
 30
0.0
 10
167.6067635222689
 20
432.2150402068747
 30
0.0
 10
167.3170580107534
 20
432.22939431601
 30
0.0
 10
166.7597114657063
 20
432.2481137469071
 30
0.0
 10
166.554883350091
 20
432.2539338892864
 30
0.0
 10
166.1241028195592
 20
432.2661746562071
 30
0.0
 10
165.8988406835187
 20
432.2723773934404
 30
0.0
 10
165.2279402732819
 20
432.2873344935983
 30
0.0
 10
164.7856357301418
 20
432.2957645713711
 30
0.0
 10
163.9602459665875
 20
432.3103128025497
 30
0.0
 10
163.5739834531248
 20
432.3152380259593
 30
0.0
 10
163.2151867010999
 20
432.3170187528477
 30
0.0
  0
SPLINE
  5
B3
330
1F
100
AcDbEntity
  8
0
  6
Continuous
 62
     8
370
    15
100
AcDbSpline
210
0.0
220
0.0
230
1.0
 70
     8
 71
     3
 72
    56
 73
    52
 74
     0
 42
0.00000001
 43
0.00000001
 12
1.0
 22
0.0
 32
0.0
 13
1.0
 23
0.0
 33
0.0
 40
0.0
 40
0.0
 40
0.0
 40
0.0
 40
0.0100508658011709
 40
0.0198587145404075
 40
0.0294271369496168
 40
0.0387575930095919
 40
0.0478499830140593
 40
0.0567029588206968
 40
0.0653144926774469
 40
0.0736827090298828
 40
0.0818064480694319
 40
0.0896840983932409
 40
0.0973053774519278
 40
0.1046689181114457
 40
0.1117802298918917
 40
0.1186468703941323
 40
0.1252730563145381
 40
0.14326916413638
 40
0.1646988240028305
 40
0.1896695889604937
 40
0.2183093698920928
 40
0.2506536487375788
 40
0.2856456043358983
 40
0.3386788462168392
 40
0.4097568702853616
 40
0.4989192437073594
 40
0.5361905357956462
 40
0.6240590245070299
 40
0.653717519674491
 40
0.6869552805209103
 40
0.6972559057867825
 40
0.7086305643444696
 40
0.7210895503102716
 40
0.7346813553005995
 40
0.7495207461131591
 40
0.7604705850662925
 40
0.7851402967937564
 40
0.7989135677374223
 40
0.8119294231325472
 40
0.8395257027750839
 40
0.8743842923892379
 40
0.88645527224775
 40
0.8987145838800402
 40
0.9110306947911417
 40
0.9233766959130522
 40
0.935810161499633
 40
0.9483901565808853
 40
0.9611638325602117
 40
0.9740109603623155
 40
0.9869435742281125
 40
0.9999999999999999
 40
0.9999999999999999
 40
0.9999999999999999
 40
0.9999999999999999
 10
164.0680427329932
 20
433.4790322588668
 30
0.0
 10
164.1558414783644
 20
433.4790669577902
 30
0.0
 10
164.3293161078962
 20
433.4791355166616
 30
0.0
 10
164.5981923831488
 20
433.4791930819756
 30
0.0
 10
164.8684726980247
 20
433.4792220486794
 30
0.0
 10
165.1405119488981
 20
433.4792258297358
 30
0.0
 10
165.4133741960947
 20
433.4792131670935
 30
0.0
 10
165.6860347469154
 20
433.4791942334735
 30
0.0
 10
165.956948758758
 20
433.4791784230899
 30
0.0
 10
166.2242650120136
 20
433.479167879071
 30
0.0
 10
166.4859533142451
 20
433.4791518455003
 30
0.0
 10
166.7402813458706
 20
433.4791348315018
 30
0.0
 10
166.9847100174349
 20
433.4790852954243
 30
0.0
 10
167.2158473149491
 20
433.4790537058788
 30
0.0
 10
167.4314736525757
 20
433.4790457419736
 30
0.0
 10
167.6303608901588
 20
433.4790521767954
 30
0.0
 10
167.9184665235695
 20
433.4790862353615
 30
0.0
 10
168.2926497844405
 20
433.4790593839785
 30
0.0
 10
168.703721437691
 20
433.4788978399769
 30
0.0
 10
169.045751862161
 20
433.4788630526426
 30
0.0
 10
169.3197284358047
 20
433.4789913284932
 30
0.0
 10
169.5366588295608
 20
433.4791691534824
 30
0.0
 10
169.7303460307753
 20
433.4791332121815
 30
0.0
 10
169.895693212571
 20
433.4790586254686
 30
0.0
 10
170.0205905277262
 20
433.4790515826333
 30
0.0
 10
170.1011387768918
 20
433.4792507613686
 30
0.0
 10
170.2243003416171
 20
433.4790649667081
 30
0.0
 10
170.3267890617953
 20
433.4790437752376
 30
0.0
 10
170.4168205470299
 20
433.4791043154848
 30
0.0
 10
170.459841944295
 20
433.4789336234981
 30
0.0
 10
170.4938253242794
 20
433.4789233905174
 30
0.0
 10
170.5167507399939
 20
433.4790885093475
 30
0.0
 10
170.5465772959497
 20
433.4793221006165
 30
0.0
 10
170.5886332159489
 20
433.4791162264602
 30
0.0
 10
170.6877461099558
 20
433.4788490775574
 30
0.0
 10
170.9473345181938
 20
433.4793994529011
 30
0.0
 10
171.3400952464103
 20
433.4789573286431
 30
0.0
 10
171.8942982380386
 20
433.4788159456709
 30
0.0
 10
172.5813668539712
 20
433.479015646494
 30
0.0
 10
173.7374671747041
 20
433.4790746215096
 30
0.0
 10
175.1560434909906
 20
433.4789199929589
 30
0.0
 10
176.4138729809431
 20
433.4789356431021
 30
0.0
 10
177.2324176667451
 20
433.478954725972
 30
0.0
 10
178.0933309211568
 20
433.4789877543749
 30
0.0
 10
178.9907741564436
 20
433.4790046418775
 30
0.0
 10
179.9231153917882
 20
433.4789859970165
 30
0.0
 10
180.8907394356955
 20
433.478961765426
 30
0.0
 10
181.8892316505218
 20
433.4789358739997
 30
0.0
 10
182.9127516110788
 20
433.478882992814
 30
0.0
 10
183.9551372724067
 20
433.4788660657255
 30
0.0
 10
184.6560427675342
 20
433.4788979951358
 30
0.0
 10
185.0081650736225
 20
433.4789140358969
 30
0.0
  0
SPLINE
  5
B4
330
1F
100
AcDbEntity
  8
0
  6
Continuous
 62
     8
370
    15
100
AcDbSpline
210
0.0
220
0.0
230
1.0
 70
     8
 71
     3
 72
    30
 73
    26
 74
     0
 42
0.00000001
 43
0.00000001
 12
1.0
 22
0.0
 32
0.0
 13
1.0
 23
0.0
 33
0.0
 40
0.0
 40
0.0
 40
0.0
 40
0.0
 40
0.0624999999999996
 40
0.0624999999999996
 40
0.1249999999999993
 40
0.1249999999999993
 40
0.1562499999999991
 40
0.1562499999999991
 40
0.187499999999999
 40
0.187499999999999
 40
0.2499999999999991
 40
0.2499999999999991
 40
0.3124999999999992
 40
0.3124999999999992
 40
0.3749999999999993
 40
0.3749999999999993
 40
0.4999999999999993
 40
0.4999999999999993
 40
0.6249999999999994
 40
0.6249999999999994
 40
0.7499999999999997
 40
0.7499999999999997
 40
0.8749999999999998
 40
0.8749999999999998
 40
1.0
 40
1.0
 40
1.0
 40
1.0
 10
206.8038469151892
 20
432.3170187516269
 30
0.0
 10
206.4450501631622
 20
432.3152380248666
 30
0.0
 10
206.0587876496947
 20
432.3103128015911
 30
0.0
 10
205.2333978861329
 20
432.2957645706788
 30
0.0
 10
204.7910933429906
 20
432.2873344930393
 30
0.0
 10
204.1201929327544
 20
432.2723773930686
 30
0.0
 10
203.8949307967146
 20
432.2661746558961
 30
0.0
 10
203.4641502661861
 20
432.2539338890871
 30
0.0
 10
203.2593221505733
 20
432.2481137467585
 30
0.0
 10
202.7019756055347
 20
432.2293943159948
 30
0.0
 10
202.4122700940266
 20
432.2150402069218
 30
0.0
 10
201.9721262439771
 20
432.1915312668406
 30
0.0
 10
201.8171596875992
 20
432.1838397703536
 30
0.0
 10
201.5649081513217
 20
432.1701997401663
 30
0.0
 10
201.4686820194016
 20
432.1642457420469
 30
0.0
 10
201.2262364747739
 20
432.1465891251912
 30
0.0
 10
201.1270419174653
 20
432.1357312369101
 30
0.0
 10
200.9772915657152
 20
432.1202416988041
 30
0.0
 10
200.9286379037351
 20
432.1138615893448
 30
0.0
 10
200.8482450300156
 20
432.1045760208382
 30
0.0
 10
200.8130277428832
 20
432.1011695557191
 30
0.0
 10
200.7251297730855
 20
432.0928697776509
 30
0.0
 10
200.6723260336625
 20
432.0896980580125
 30
0.0
 10
200.5684402348136
 20
432.0855334613959
 30
0.0
 10
200.5183572164046
 20
432.0858922176005
 30
0.0
 10
200.469560208228
 20
432.0870063799174
 30
0.0
  0
SPLINE
  5
B5
330
1F
100
AcDbEntity
  8
0
  6
Continuous
 62
     8
370
    15
100
AcDbSpline
210
0.0
220
0.0
230
1.0
 70
     8
 71
     3
 72
    18
 73
    14
 74
     0
 42
0.00000001
 43
0.00000001
 12
1.0
 22
0.0
 32
0.0
 13
1.0
 23
0.0
 33
0.0
 40
0.0
 40
0.0
 40
0.0
 40
0.0
 40
0.1225321815202326
 40
0.2463068471685658
 40
0.3719362007411117
 40
0.4990634354780944
 40
0.5636700103357714
 40
0.6290685513213697
 40
0.694427869279244
 40
0.7602078796749903
 40
0.8482528394846122
 40
0.9348748827040713
 40
0.9999999999999999
 40
0.9999999999999999
 40
0.9999999999999999
 40
0.9999999999999999
 10
185.009507891232
 20
431.5736633763002
 30
0.0
 10
186.1566334887199
 20
431.5757540660111
 30
0.0
 10
188.4625166103465
 20
431.5799566451597
 30
0.0
 10
191.7752307402592
 20
431.6201688456728
 30
0.0
 10
194.7834581931812
 20
431.675873575238
 30
0.0
 10
196.8974398993143
 20
431.7556386978966
 30
0.0
 10
198.2718073017109
 20
431.8375820541118
 30
0.0
 10
199.1282021818095
 20
431.9065283033747
 30
0.0
 10
199.7798755687031
 20
431.9829639523019
 30
0.0
 10
200.2504379645671
 20
432.0355462388989
 30
0.0
 10
200.3625646961805
 20
432.0873405241381
 30
0.0
 10
200.4116357268973
 20
432.0879058079521
 30
0.0
 10
200.4433631050937
 20
432.0873318305956
 30
0.0
 10
200.4569794997565
 20
432.0870854975338
 30
0.0
  0
SPLINE
  5
B6
330
1F
100
AcDbEntity
  8
0
  6
Continuous
 62
     8
370
    15
100
AcDbSpline
210
0.0
220
0.0
230
1.0
 70
     8
 71
     3
 72
    67
 73
    63
 74
     0
 42
0.00000001
 43
0.00000001
 12
1.0
 22
0.0
 32
0.0
 13
1.0
 23
0.0
 33
0.0
 40
0.0
 40
0.0
 40
0.0
 40
0.0
 40
0.0050154881110977
 40
0.0100091262707034
 40
0.0149827575066083
 40
0.0199382714946375
 40
0.0248776239541994
 40
0.0298025748999517
 40
0.0347160338267693
 40
0.0396222513795746
 40
0.044524611230797
 40
0.0494017806581334
 40
0.054245543922353
 40
0.0590598829080112
 40
0.0638484413411891
 40
0.0686146167864584
 40
0.0733616713867108
 40
0.0780928601618822
 40
0.082811533797909
 40
0.0875209013291235
 40
0.0922240334941289
 40
0.0969241775203792
 40
0.1016245769815748
 40
0.106323835370427
 40
0.1109942686177309
 40
0.1156336034266335
 40
0.1202451644394826
 40
0.1248321457372846
 40
0.1565723165329909
 40
0.1875185169420312
 40
0.2034121099167504
 40
0.2185596989243751
 40
0.2364992092368892
 40
0.2500321210048724
 40
0.2615449827549782
 40
0.2725757074889988
 40
0.2831663606951195
 40
0.293368673616648
 40
0.3031971922387115
 40
0.31265664199502
 40
0.3488728435308621
 40
0.3746322103423743
 40
0.4509023037852141
 40
0.4979848772400997
 40
0.56454098653552
 40
0.6212018159740129
 40
0.6679821314397
 40
0.7048958631760928
 40
0.7319508048039393
 40
0.7491382247032802
 40
0.7788502565260664
 40
0.8061787769083875
 40
0.8311369779666227
 40
0.853825049534688
 40
0.8743922543231809
 40
0.8895861239755603
 40
0.9057004886957519
 40
0.9227732955746911
 40
0.9407561396137137
 40
0.9596285317046818
 40
0.9793747687184097
 40
1.0
 40
1.0
 40
1.0
 40
1.0
 10
185.0085860588754
 20
433.4789130751107
 30
0.0
 10
185.1438241764437
 20
433.4789097815188
 30
0.0
 10
185.4137112473268
 20
433.4789032086837
 30
0.0
 10
185.817471161284
 20
433.4788881755084
 30
0.0
 10
186.2190605545245
 20
433.4788790758606
 30
0.0
 10
186.6182958246532
 20
433.4788801345503
 30
0.0
 10
187.014982150684
 20
433.4788951208255
 30
0.0
 10
187.4089760283503
 20
433.4789172668571
 30
0.0
 10
187.8002533626289
 20
433.4789348286847
 30
0.0
 10
188.1888373508866
 20
433.4789505324783
 30
0.0
 10
188.5741142825468
 20
433.478964245179
 30
0.0
 10
188.955155916394
 20
433.4789761521081
 30
0.0
 10
189.3310709967761
 20
433.4789866612692
 30
0.0
 10
189.701627332277
 20
433.4789963763533
 30
0.0
 10
190.0668915700098
 20
433.4790053382092
 30
0.0
 10
190.4269119765445
 20
433.4790129961569
 30
0.0
 10
190.7817306618556
 20
433.4790182150942
 30
0.0
 10
191.131391763932
 20
433.479019652659
 30
0.0
 10
191.4759352479903
 20
433.4790159158462
 30
0.0
 10
191.8153811176047
 20
433.4790067511207
 30
0.0
 10
192.1497454874498
 20
433.4789952386053
 30
0.0
 10
192.4790392991557
 20
433.478982397336
 30
0.0
 10
192.8031574620987
 20
433.4789698040754
 30
0.0
 10
193.1212899265819
 20
433.4789592782525
 30
0.0
 10
193.4325628314391
 20
433.478949455588
 30
0.0
 10
193.7362605272299
 20
433.4789414427126
 30
0.0
 10
194.0323917562266
 20
433.4789356044271
 30
0.0
 10
194.8908463465029
 20
433.4789287311394
 30
0.0
 10
196.1873120537481
 20
433.4789293667932
 30
0.0
 10
197.4150274204245
 20
433.4789436314911
 30
0.0
 10
198.190448819668
 20
433.4789779287642
 30
0.0
 10
198.6980586257416
 20
433.4789770467556
 30
0.0
 10
199.0658474778468
 20
433.4791385516214
 30
0.0
 10
199.2998831219557
 20
433.4789439629398
 30
0.0
 10
199.4082185504088
 20
433.4789290963889
 30
0.0
 10
199.4545070768001
 20
433.4792254304469
 30
0.0
 10
199.4839212923753
 20
433.4791733132007
 30
0.0
 10
199.5067809031212
 20
433.4790294110339
 30
0.0
 10
199.5264083490906
 20
433.4789228499411
 30
0.0
 10
199.5607196563788
 20
433.4789397714048
 30
0.0
 10
199.6028439396585
 20
433.4790510893892
 30
0.0
 10
199.6852427472418
 20
433.4790788652061
 30
0.0
 10
199.7822925254376
 20
433.4791469739752
 30
0.0
 10
199.8954564095937
 20
433.4792203695022
 30
0.0
 10
199.9739175393077
 20
433.479044601043
 30
0.0
 10
200.0532072158344
 20
433.4789473825869
 30
0.0
 10
200.1547899635813
 20
433.4789575769371
 30
0.0
 10
200.2701278894076
 20
433.4790127043735
 30
0.0
 10
200.385271682281
 20
433.4791170046053
 30
0.0
 10
200.5164793817258
 20
433.4791450456072
 30
0.0
 10
200.6819490661132
 20
433.4790402995185
 30
0.0
 10
200.9332101704773
 20
433.4789265168138
 30
0.0
 10
201.2552757828464
 20
433.4788997140602
 30
0.0
 10
201.6698083607697
 20
433.4790431289452
 30
0.0
 10
202.1365151542687
 20
433.4790683228231
 30
0.0
 10
202.6283618354693
 20
433.4790074731148
 30
0.0
 10
203.1351323432718
 20
433.4790903267124
 30
0.0
 10
203.6887491133369
 20
433.4791451492869
 30
0.0
 10
204.263291982798
 20
433.479159978251
 30
0.0
 10
204.8408389605793
 20
433.4792084574423
 30
0.0
 10
205.4119700582505
 20
433.4792007775995
 30
0.0
 10
205.7685960063323
 20
433.4790842450213
 30
0.0
 10
205.9507913281966
 20
433.4790247101201
 30
0.0
  0
SPLINE
  5
B7
330
1F
100
AcDbEntity
  8
0
  6
Continuous
 62
     8
370
    15
100
AcDbSpline
210
0.0
220
0.0
230
1.0
 70
     8
 71
     3
 72
    16
 73
    12
 74
     0
 42
0.00000001
 43
0.00000001
 12
1.0
 22
0.0
 32
0.0
 13
1.0
 23
0.0
 33
0.0
 40
0.0
 40
0.0
 40
0.0
 40
0.0
 40
0.0820305499304696
 40
0.214491912703875
 40
0.3525364495457629
 40
0.4191464504978699
 40
0.4921812322292139
 40
0.6126436696350233
 40
0.7572976533796513
 40
0.8713816033441064
 40
1.0
 40
1.0
 40
1.0
 40
1.0
 10
200.1235478783229
 20
431.1127500123507
 30
0.0
 10
199.9889162407027
 20
430.6528805621249
 30
0.0
 10
199.6368840101727
 20
429.4504227210325
 30
0.0
 10
198.2282498172396
 20
427.8612841181459
 30
0.0
 10
196.526661090224
 20
426.8615934822489
 30
0.0
 10
195.0078059619006
 20
426.3155486151978
 30
0.0
 10
193.5455476784909
 20
425.9361996295936
 30
0.0
 10
191.6047629614002
 20
425.6277412942283
 30
0.0
 10
189.4101773946087
 20
425.4562182555218
 30
0.0
 10
187.164039504391
 20
425.374325318968
 30
0.0
 10
185.7559206376731
 20
425.3673192625479
 30
0.0
 10
185.0096979766228
 20
425.3636064523662
 30
0.0
  0
SPLINE
  5
B8
330
1F
100
AcDbEntity
  8
0
  6
Continuous
 62
     8
370
    15
100
AcDbSpline
210
0.0
220
0.0
230
1.0
 70
     8
 71
     3
 72
    20
 73
    16
 74
     0
 42
0.00000001
 43
0.00000001
 12
1.0
 22
0.0
 32
0.0
 13
1.0
 23
0.0
 33
0.0
 40
0.0
 40
0.0
 40
0.0
 40
0.0
 40
0.0951340695641383
 40
0.1602353872107904
 40
0.2251674450895463
 40
0.2891950891184815
 40
0.3574170243769203
 40
0.4000482150373033
 40
0.4453242292116883
 40
0.4934277897937676
 40
0.5876975634484115
 40
0.6974821078405634
 40
0.8019951553980508
 40
0.896340224052776
 40
1.0
 40
1.0
 40
1.0
 40
1.0
 10
169.8043876604358
 20
431.3669111440598
 30
0.0
 10
169.9570754308305
 20
430.822048966794
 30
0.0
 10
170.2142491659985
 20
429.9043314513897
 30
0.0
 10
170.9886064068088
 20
428.806940686757
 30
0.0
 10
171.7881150368275
 20
427.9835678551768
 30
0.0
 10
172.7373197302589
 20
427.3018508654301
 30
0.0
 10
173.6571672063884
 20
426.8286445750582
 30
0.0
 10
174.514333332907
 20
426.4906873822998
 30
0.0
 10
175.279024446284
 20
426.2467134295077
 30
0.0
 10
176.3519200062415
 20
425.9732927514344
 30
0.0
 10
177.8180187483892
 20
425.7134512032522
 30
0.0
 10
179.628999282093
 20
425.5242533254202
 30
0.0
 10
181.4467030203008
 20
425.421915812418
 30
0.0
 10
183.2302472796351
 20
425.3707290531229
 30
0.0
 10
184.398003310813
 20
425.3660539697477
 30
0.0
 10
185.0093485978249
 20
425.363606463495
 30
0.0
  0
SPLINE
  5
B9
330
1F
100
AcDbEntity
  8
0
  6
Continuous
 62
     8
370
    15
100
AcDbSpline
210
0.0
220
0.0
230
1.0
 70
     8
 71
     3
 72
    13
 73
     9
 74
     0
 42
0.00000001
 43
0.00000001
 12
1.0
 22
0.0
 32
0.0
 13
1.0
 23
0.0
 33
0.0
 40
0.0
 40
0.0
 40
0.0
 40
0.0
 40
0.182073161671511
 40
0.363332206737953
 40
0.5435422429725092
 40
0.7227870396970808
 40
0.9054686786401939
 40
1.0
 40
1.0
 40
1.0
 40
1.0
 10
164.0680678986047
 20
433.4789289245499
 30
0.0
 10
163.9355321574461
 20
433.4785892443376
 30
0.0
 10
163.671053291562
 20
433.4779114027489
 30
0.0
 10
163.3692852416258
 20
433.4792028795015
 30
0.0
 10
163.1384989776266
 20
433.4792383709751
 30
0.0
 10
162.9877816012963
 20
433.4790692884828
 30
0.0
 10
162.9119077104394
 20
433.4788860906536
 30
0.0
 10
162.9174087562862
 20
433.4788686650194
 30
0.0
 10
162.9192846466927
 20
433.4788627227711
 30
0.0
  0
SPLINE
  5
BA
330
1F
100
AcDbEntity
  8
0
  6
Continuous
 62
     8
370
    15
100
AcDbSpline
210
0.0
220
0.0
230
1.0
 70
     8
 71
     3
 72
    12
 73
     8
 74
     0
 42
0.00000001
 43
0.00000001
 12
1.0
 22
0.0
 32
0.0
 13
1.0
 23
0.0
 33
0.0
 40
0.0
 40
0.0
 40
0.0
 40
0.0
 40
0.277093079065226
 40
0.4602433038178937
 40
0.6407361471547707
 40
0.8213821450926214
 40
1.0
 40
1.0
 40
1.0
 40
1.0
 10
207.0810989761598
 20
433.478894664382
 30
0.0
 10
207.0770611808396
 20
433.4789256425443
 30
0.0
 10
207.0703545237676
 20
433.4789770963439
 30
0.0
 10
206.8755738441025
 20
433.4792136721627
 30
0.0
 10
206.6450930052303
 20
433.479221863757
 30
0.0
 10
206.3429207032198
 20
433.477887260575
 30
0.0
 10
206.0809729624259
 20
433.4785025434354
 30
0.0
 10
205.9507384754662
 20
433.4788084481453
 30
0.0
  0
SPLINE
  5
BB
330
1F
100
AcDbEntity
  8
0
  6
Continuous
 62
     8
370
     0
100
AcDbSpline
210
0.0
220
0.0
230
1.0
 70
     8
 71
     3
 72
    38
 73
    34
 74
     0
 42
0.00000001
 43
0.00000001
 12
1.0
 22
0.0
 32
0.0
 13
1.0
 23
0.0
 33
0.0
 40
0.0
 40
0.0
 40
0.0
 40
0.0
 40
0.012948171653683
 40
0.0257833923200524
 40
0.0385090114109699
 40
0.0511274363326413
 40
0.0636406314404264
 40
0.0760505892412285
 40
0.0883592750123096
 40
0.1005685249681048
 40
0.1326639787827261
 40
0.1642076843608427
 40
0.1964422947261079
 40
0.2283422729566561
 40
0.2930470082919617
 40
0.3568687026936183
 40
0.4212711213219957
 40
0.4855650603046008
 40
0.5495792651041598
 40
0.6139489771900847
 40
0.6781230045751434
 40
0.7101454360047434
 40
0.742329655163717
 40
0.7746022158307717
 40
0.8068009823541233
 40
0.8411346162895974
 40
0.8710967283093242
 40
0.904080880817262
 40
0.9355807447347131
 40
0.9514711712364787
 40
0.9674843377118069
 40
0.983651653046109
 40
1.0
 40
1.0
 40
1.0
 40
1.0
 10
163.215186364617
 20
432.3170532209044
 30
0.0
 10
163.2173050133931
 20
432.1277308286544
 30
0.0
 10
163.2215238293034
 20
431.7507375631255
 30
0.0
 10
163.2313696443501
 20
431.1881339985347
 30
0.0
 10
163.2437375517795
 20
430.6308581637934
 30
0.0
 10
163.2589149208194
 20
430.0789561283354
 30
0.0
 10
163.2768914982868
 20
429.5324659505597
 30
0.0
 10
163.2977361307275
 20
428.9914433370333
 30
0.0
 10
163.3214999775001
 20
428.4559417051131
 30
0.0
 10
163.3628376863321
 20
427.6369358021155
 30
0.0
 10
163.4306717063459
 20
426.5449046560283
 30
0.0
 10
163.5416786788388
 20
425.177744412404
 30
0.0
 10
163.680974232571
 20
423.8301504324562
 30
0.0
 10
163.9112816500447
 20
422.0432890543859
 30
0.0
 10
164.2901702391439
 20
419.8807059607699
 30
0.0
 10
164.9297499976431
 20
417.4192938047977
 30
0.0
 10
165.7956922674404
 20
415.1460684405845
 30
0.0
 10
166.9208482409007
 20
413.0806922026269
 30
0.0
 10
168.3347439685708
 20
411.2624625862459
 30
0.0
 10
170.0405551472943
 20
409.7006236204012
 30
0.0
 10
171.701982404844
 20
408.6168295910334
 30
0.0
 10
173.1584179064324
 20
407.8808444048465
 30
0.0
 10
174.313249422584
 20
407.3911105418252
 30
0.0
 10
175.5251203098047
 20
406.9620169150482
 30
0.0
 10
176.8145188992506
 20
406.5860042064195
 30
0.0
 10
178.1179582909249
 20
406.2797836321951
 30
0.0
 10
179.4681102854138
 20
406.0303088857042
 30
0.0
 10
180.8070303757514
 20
405.841755970116
 30
0.0
 10
181.9648105712862
 20
405.7283653584006
 30
0.0
 10
182.8850311339918
 20
405.6650002631548
 30
0.0
 10
183.5855303121979
 20
405.6306699558755
 30
0.0
 10
184.2945992650381
 20
405.6091157802779
 30
0.0
 10
184.7703279706884
 20
405.6065222593152
 30
0.0
 10
185.0095166381977
 20
405.6052182790932
 30
0.0
  0
SPLINE
  5
BC
330
1F
100
AcDbEntity
  8
0
  6
Continuous
 62
     8
370
     0
100
AcDbSpline
210
0.0
220
0.0
230
1.0
 70
     8
 71
     3
 72
    40
 73
    36
 74
     0
 42
0.00000001
 43
0.00000001
 12
1.0
 22
0.0
 32
0.0
 13
1.0
 23
0.0
 33
0.0
 40
0.0
 40
0.0
 40
0.0
 40
0.0
 40
0.0142398288430621
 40
0.028356851933443
 40
0.0423551424530872
 40
0.0562388780818922
 40
0.0700123407345628
 40
0.0836799159638576
 40
0.0972460920085354
 40
0.1107154584656624
 40
0.1240927045687344
 40
0.1373826170553337
 40
0.1505900776107114
 40
0.1637200598768666
 40
0.1767776260202745
 40
0.18976792285542
 40
0.2026961775256742
 40
0.2155676927477319
 40
0.228387841630756
 40
0.3155912057846031
 40
0.4006271635237987
 40
0.4855620819986178
 40
0.5481483349418368
 40
0.6113065042005598
 40
0.6758019487297425
 40
0.7423535990005032
 40
0.8059855456726105
 40
0.8710620280135095
 40
0.8893617180402533
 40
0.907685712024326
 40
0.926043492185499
 40
0.9444444885106814
 40
0.9628980647331911
 40
0.9814135048116456
 40
1.0
 40
1.0
 40
1.0
 40
1.0
 10
206.8035360684511
 20
432.3170665193342
 30
0.0
 10
206.8011643121413
 20
432.108905545544
 30
0.0
 10
206.7964412537926
 20
431.6943787996722
 30
0.0
 10
206.7851336550532
 20
431.0758006452637
 30
0.0
 10
206.7707076433387
 20
430.4630783275439
 30
0.0
 10
206.7528111915776
 20
429.8562402138698
 30
0.0
 10
206.7314531396553
 20
429.2552788984283
 30
0.0
 10
206.7065307286574
 20
428.6601964646812
 30
0.0
 10
206.6779547146999
 20
428.0709925081843
 30
0.0
 10
206.6456163407739
 20
427.4876673071098
 30
0.0
 10
206.60939619347
 20
426.9102209867689
 30
0.0
 10
206.5691619834256
 20
426.338653727474
 30
0.0
 10
206.5247692751581
 20
425.7729657600613
 30
0.0
 10
206.476061465111
 20
425.2131571792289
 30
0.0
 10
206.4228699371481
 20
424.6592286858493
 30
0.0
 10
206.3650143472664
 20
424.1111788215271
 30
0.0
 10
206.3023023226414
 20
423.5690142103206
 30
0.0
 10
206.2345314676802
 20
423.0327115967159
 30
0.0
 10
206.0201383586911
 20
421.4761578690882
 30
0.0
 10
205.5602122895586
 20
418.9949521181017
 30
0.0
 10
204.5631739175143
 20
415.8270380208073
 30
0.0
 10
203.2564041292734
 20
413.2925413568869
 30
0.0
 10
201.7170743852321
 20
411.2979839044679
 30
0.0
 10
200.0416424550253
 20
409.745869693355
 30
0.0
 10
198.0431351111784
 20
408.4281399879679
 30
0.0
 10
195.7707638255484
 20
407.3738901945931
 30
0.0
 10
193.2676684702216
 20
406.5673595520168
 30
0.0
 10
191.2496313144562
 20
406.142763879829
 30
0.0
 10
189.8157060325463
 20
405.9261149612225
 30
0.0
 10
189.0321920262442
 20
405.8271054429725
 30
0.0
 10
188.2403810812608
 20
405.7461367133073
 30
0.0
 10
187.4411355617897
 20
405.6830801187116
 30
0.0
 10
186.6354015814837
 20
405.638371006307
 30
0.0
 10
185.8241400363041
 20
405.6103884123143
 30
0.0
 10
185.281404467619
 20
405.6069438557606
 30
0.0
 10
185.0095169781021
 20
405.6052182790933
 30
0.0
  0
CIRCLE
  5
BD
330
1F
100
AcDbEntity
  8
0
  6
Continuous
 62
     8
370
     0
100
AcDbCircle
 10
185.0095168082
 20
411.5171507435
 30
0.0
 40
3.781418633081842
  0
CIRCLE
  5
BE
330
1F
100
AcDbEntity
  8
0
  6
Continuous
 62
     8
370
     0
100
AcDbCircle
 10
185.0095168082
 20
411.5171507435
 30
0.0
 40
3.569682227408606
  0
SPLINE
  5
BF
330
1F
100
AcDbEntity
  8
0
  6
Continuous
 62
     8
370
    15
100
AcDbSpline
210
0.0
220
0.0
230
1.0
 70
     8
 71
     3
 72
    11
 73
     7
 74
     0
 42
0.00000001
 43
0.00000001
 12
1.0
 22
0.0
 32
0.0
 13
1.0
 23
0.0
 33
0.0
 40
0.0
 40
0.0
 40
0.0
 40
0.0
 40
0.2547025320668117
 40
0.5111735080484195
 40
0.7732220583168216
 40
1.0
 40
1.0
 40
1.0
 40
1.0
 10
163.2154968600369
 20
432.3171007594735
 30
0.0
 10
163.0267168340821
 20
432.3171025775336
 30
0.0
 10
162.6478460496666
 20
432.3171062262769
 30
0.0
 10
162.2750532090069
 20
432.3171059007555
 30
0.0
 10
162.0442931958429
 20
432.3171025903045
 30
0.0
 10
162.0275460902298
 20
432.3170983821838
 30
0.0
 10
162.0197767197013
 20
432.3170964299391
 30
0.0
  0
SPLINE
  5
C0
330
1F
100
AcDbEntity
  8
0
  6
Continuous
 62
     8
370
    15
100
AcDbSpline
210
0.0
220
0.0
230
1.0
 70
     8
 71
     3
 72
    11
 73
     7
 74
     0
 42
0.00000001
 43
0.00000001
 12
1.0
 22
0.0
 32
0.0
 13
1.0
 23
0.0
 33
0.0
 40
0.0
 40
0.0
 40
0.0
 40
0.0
 40
0.2264301884845555
 40
0.4866758617228837
 40
0.7507155694431954
 40
1.0
 40
1.0
 40
1.0
 40
1.0
 10
207.9305946759301
 20
432.3170957546812
 30
0.0
 10
207.9514444335513
 20
432.3170979866809
 30
0.0
 10
207.9962576884664
 20
432.317102784011
 30
0.0
 10
207.7370413422133
 20
432.3171058575178
 30
0.0
 10
207.3708475103355
 20
432.3171062409689
 30
0.0
 10
206.9889812482352
 20
432.3171025504619
 30
0.0
 10
206.8035364062762
 20
432.3171007582493
 30
0.0
  0
SPLINE
  5
C1
330
1F
100
AcDbEntity
  8
0
  6
Continuous
 62
     8
370
    15
100
AcDbSpline
210
0.0
220
0.0
230
1.0
 70
     8
 71
     3
 72
     9
 73
     5
 74
     0
 42
0.00000001
 43
0.00000001
 12
1.0
 22
0.0
 32
0.0
 13
1.0
 23
0.0
 33
0.0
 40
0.0
 40
0.0
 40
0.0
 40
0.0
 40
0.5373696144586677
 40
1.0
 40
1.0
 40
1.0
 40
1.0
 10
162.2822973547013
 20
396.0171427843812
 30
0.0
 10
162.1967171822096
 20
396.0171428711997
 30
0.0
 10
162.0374596243032
 20
396.0171430327615
 30
0.0
 10
162.0251369477623
 20
396.0171432135603
 30
0.0
 10
162.0194361031632
 20
396.0171432972034
 30
0.0
  0
SPLINE
  5
C2
330
1F
100
AcDbEntity
  8
0
  6
Continuous
 62
     8
370
    15
100
AcDbSpline
210
0.0
220
0.0
230
1.0
 70
     8
 71
     3
 72
     9
 73
     5
 74
     0
 42
0.00000001
 43
0.00000001
 12
1.0
 22
0.0
 32
0.0
 13
1.0
 23
0.0
 33
0.0
 40
0.0
 40
0.0
 40
0.0
 40
0.0
 40
0.5055029187083521
 40
1.0
 40
1.0
 40
1.0
 40
1.0
 10
208.0024139369486
 20
396.0171488121146
 30
0.0
 10
207.9937100887039
 20
396.0171487189281
 30
0.0
 10
207.9764918928783
 20
396.017148534584
 30
0.0
 10
207.8160662035726
 20
396.0171483347345
 30
0.0
 10
207.7367361684467
 20
396.0171482359095
 30
0.0
  0
LINE
  5
C3
330
1F
100
AcDbEntity
  8
0
  6
Continuous
 62
     7
370
    15
100
AcDbLine
 10
354.4506349926
 20
401.5171507435
 30
0.0
 11
354.4506349926
 21
405.6052182725
 31
0.0
  0
LINE
  5
C4
330
1F
100
AcDbEntity
  8
0
  6
Continuous
 62
     7
370
    15
100
AcDbLine
 10
308.4506349926
 20
432.3170717894
 30
0.0
 11
308.4506349926
 21
411.952861165
 31
0.0
  0
ARC
  5
C5
330
1F
100
AcDbEntity
  8
0
  6
Continuous
 62
     7
370
    15
100
AcDbCircle
 10
309.6506350001
 20
432.3170720176
 30
0.0
 40
1.199999999999992
100
AcDbArc
 50
104.3827446437
 51
180.475810876
  0
ARC
  5
C6
330
1F
100
AcDbEntity
  8
0
  6
Continuous
 62
     7
370
    15
100
AcDbCircle
 10
309.9506349926
 20
396.0171495102
 30
0.0
 40
1.500000000000052
100
AcDbArc
 50
105.9966887805
 51
179.8917353399
  0
LINE
  5
C7
330
1F
100
AcDbEntity
  8
0
  6
Continuous
 62
     7
370
    15
100
AcDbLine
 10
354.4506349926
 20
297.9171507435
 30
0.0
 11
354.4506349926
 21
341.2660081643
 31
0.0
  0
LINE
  5
C8
330
1F
100
AcDbEntity
  8
0
  6
Continuous
 62
     7
370
    15
100
AcDbLine
 10
308.4506349926
 20
323.9177938261
 30
0.0
 11
308.4506349926
 21
297.9171507435
 31
0.0
  0
LINE
  5
C9
330
1F
100
AcDbEntity
  8
0
  6
Continuous
 62
     7
370
    15
100
AcDbLine
 10
308.4506349926
 20
396.0171495961
 30
0.0
 11
308.4506349926
 21
343.985112993
 31
0.0
  0
SPLINE
  5
CA
330
1F
100
AcDbEntity
  8
0
  6
Continuous
 62
     7
370
    15
100
AcDbSpline
210
0.0
220
0.0
230
1.0
 70
     8
 71
     3
 72
    25
 73
    21
 74
     0
 42
0.00000001
 43
0.00000001
 12
1.0
 22
0.0
 32
0.0
 13
1.0
 23
0.0
 33
0.0
 40
0.0
 40
0.0
 40
0.0
 40
0.0
 40
0.0437902465507294
 40
0.0894773678600539
 40
0.1333045675487495
 40
0.1793290656049737
 40
0.2277258623436376
 40
0.2785036351802067
 40
0.3390720341777418
 40
0.3956718915280623
 40
0.4481425250055052
 40
0.4965176836731323
 40
0.5567286061934377
 40
0.6181228881654428
 40
0.6818659929727392
 40
0.7513829374693902
 40
0.81019805419904
 40
0.8724626552619141
 40
0.9376392023470703
 40
1.0
 40
1.0
 40
1.0
 40
1.0
 10
410.1845361037608
 20
433.4560631039975
 30
0.0
 10
408.7475964254297
 20
433.8041986439794
 30
0.0
 10
405.8114727376632
 20
434.5155500116871
 30
0.0
 10
401.3424047826188
 20
435.0922546544526
 30
0.0
 10
396.7768150412433
 20
435.3821682168146
 30
0.0
 10
392.1112460000107
 20
435.4474180712193
 30
0.0
 10
387.2120876498756
 20
435.4327782211562
 30
0.0
 10
381.8219499701773
 20
435.4150131265316
 30
0.0
 10
376.1550582323707
 20
435.4171465633485
 30
0.0
 10
370.4310472135793
 20
435.4283566080304
 30
0.0
 10
365.1184670919187
 20
435.4392141132168
 30
0.0
 10
359.6840532429533
 20
435.452238407514
 30
0.0
 10
353.9485662470092
 20
435.4910978331554
 30
0.0
 10
347.6956699398481
 20
435.6405740393558
 30
0.0
 10
341.1346663611675
 20
435.9473301395199
 30
0.0
 10
334.6589987349433
 20
436.2236241062405
 30
0.0
 10
328.2243715646848
 20
436.217942953812
 30
0.0
 10
321.949343168259
 20
435.8093874357071
 30
0.0
 10
315.5918346827585
 20
434.9533152613358
 30
0.0
 10
311.4050527503536
 20
433.9485101248355
 30
0.0
 10
309.3578793405588
 20
433.4571995214463
 30
0.0
  0
LINE
  5
CB
330
1F
100
AcDbEntity
  8
0
  6
Continuous
 62
     7
370
    15
100
AcDbLine
 10
309.9019795682
 20
397.5102715281
 30
0.0
 11
309.5476857168
 21
397.4206292141
 31
0.0
  0
SPLINE
  5
CC
330
1F
100
AcDbEntity
  8
0
  6
Continuous
 62
     7
370
    15
100
AcDbSpline
210
0.0
220
0.0
230
1.0
 70
     8
 71
     3
 72
    23
 73
    19
 74
     0
 42
0.00000001
 43
0.00000001
 12
1.0
 22
0.0
 32
0.0
 13
1.0
 23
0.0
 33
0.0
 40
0.0
 40
0.0
 40
0.0
 40
0.0
 40
0.0514803610111359
 40
0.1086976099592573
 40
0.163503624838547
 40
0.2162695391780265
 40
0.267097795161972
 40
0.3159934625459048
 40
0.388923483805098
 40
0.4570804100460782
 40
0.5204643624936386
 40
0.5830791532522492
 40
0.640214735123176
 40
0.6925242121497849
 40
0.7447010795075188
 40
0.797672742276247
 40
0.9126677567131347
 40
1.0
 40
1.0
 40
1.0
 40
1.0
 10
458.3807680547205
 20
397.4281706680459
 30
0.0
 10
456.6295760424236
 20
397.8967645144395
 30
0.0
 10
452.932042020173
 20
398.8861715454738
 30
0.0
 10
447.2187371850993
 20
399.6709725817927
 30
0.0
 10
441.4300267128829
 20
400.0382304250691
 30
0.0
 10
435.855295866533
 20
400.0916231910596
 30
0.0
 10
430.490102095043
 20
400.0708991978155
 30
0.0
 10
424.4150473890315
 20
400.0504170610039
 30
0.0
 10
417.7303223803919
 20
400.0540724720611
 30
0.0
 10
410.5358368636415
 20
400.0786079879762
 30
0.0
 10
403.7043090020003
 20
400.1011631200769
 30
0.0
 10
397.2605625706869
 20
400.1187883288879
 30
0.0
 10
391.2064744534237
 20
400.1322554727588
 30
0.0
 10
385.5196517940931
 20
400.1432334764647
 30
0.0
 10
379.9793306157891
 20
400.1501604987193
 30
0.0
 10
372.2333730856312
 20
400.1570476066437
 30
0.0
 10
363.2502857782093
 20
400.1527675454373
 30
0.0
 10
356.1315673471603
 20
400.2303667690927
 30
0.0
 10
353.0588540760701
 20
400.2638615851417
 30
0.0
  0
ARC
  5
CD
330
1F
100
AcDbEntity
  8
0
  6
Continuous
 62
     7
370
    15
100
AcDbCircle
 10
331.4506349926
 20
397.5171400594
 30
0.0
 40
21.64486082191342
100
AcDbArc
 50
146.3211244969
 51
170.9531540197
  0
ARC
  5
CE
330
1F
100
AcDbEntity
  8
0
  6
Continuous
 62
     7
370
    15
100
AcDbCircle
 10
331.4506349926
 20
397.5171400594
 30
0.0
 40
21.64486082191333
100
AcDbArc
 50
9.0468459803
 51
10.6495810166
  0
ARC
  5
CF
330
1F
100
AcDbEntity
  8
0
  6
Continuous
 62
     7
370
    15
100
AcDbCircle
 10
342.9506349926
 20
399.3482008344
 30
0.0
 40
9.99999999999996
100
AcDbArc
 50
4.9042706883
 51
9.0468459803
  0
ARC
  5
D0
330
1F
100
AcDbEntity
  8
0
  6
Continuous
 62
     7
370
    15
100
AcDbCircle
 10
319.9506349926
 20
399.3482008344
 30
0.0
 40
10.00000000000006
100
AcDbArc
 50
170.9531540197
 51
180.0
  0
LINE
  5
D1
330
1F
100
AcDbEntity
  8
0
  6
Continuous
 62
     7
370
    15
100
AcDbLine
 10
309.9506349926
 20
399.3482008344
 30
0.0
 11
309.9506349926
 21
397.5674218217
 31
0.0
  0
SPLINE
  5
D2
330
1F
100
AcDbEntity
  8
0
  6
Continuous
 62
     7
370
    15
100
AcDbSpline
210
0.0
220
0.0
230
1.0
 70
     8
 71
     3
 72
    15
 73
    11
 74
     0
 42
0.00000001
 43
0.00000001
 12
1.0
 22
0.0
 32
0.0
 13
1.0
 23
0.0
 33
0.0
 40
0.0
 40
0.0
 40
0.0
 40
0.0
 40
0.0511213375252637
 40
0.1390464183774531
 40
0.2512076680559533
 40
0.3899044365035968
 40
0.5136623855699797
 40
0.6570897181330976
 40
0.8236845499939557
 40
1.0
 40
1.0
 40
1.0
 40
1.0
 10
447.7540160232464
 20
382.8476590367635
 30
0.0
 10
448.0041842684162
 20
382.9998077637969
 30
0.0
 10
448.6846241818953
 20
383.4136415283035
 30
0.0
 10
449.8686889746461
 20
384.2325095059948
 30
0.0
 10
451.4067858122863
 20
385.4168174687358
 30
0.0
 10
453.0069752491581
 20
386.8495938378563
 30
0.0
 10
454.6212435923566
 20
388.5247216790792
 30
0.0
 10
456.2069621268834
 20
390.4395668346173
 30
0.0
 10
457.8234382894187
 20
392.713308940549
 30
0.0
 10
458.7946470128656
 20
394.4213707045068
 30
0.0
 10
459.2940170002339
 20
395.2996111495316
 30
0.0
  0
SPLINE
  5
D3
330
1F
100
AcDbEntity
  8
0
  6
Continuous
 62
     7
370
    15
100
AcDbSpline
210
0.0
220
0.0
230
1.0
 70
     8
 71
     3
 72
    16
 73
    12
 74
     0
 42
0.00000001
 43
0.00000001
 12
1.0
 22
0.0
 32
0.0
 13
1.0
 23
0.0
 33
0.0
 40
0.0
 40
0.0
 40
0.0
 40
0.0
 40
0.1605162205947396
 40
0.2970823322078975
 40
0.4060388522629351
 40
0.4863899281876553
 40
0.578216605401407
 40
0.7030663642025395
 40
0.848887654687506
 40
0.9244789188502599
 40
1.0
 40
1.0
 40
1.0
 40
1.0
 10
391.0623825922751
 20
425.3538972229667
 30
0.0
 10
392.1960805810018
 20
425.4454337902479
 30
0.0
 10
394.294321128047
 20
425.6148490480296
 30
0.0
 10
397.1458486389365
 20
426.0049015900349
 30
0.0
 10
399.4184629700691
 20
426.4151009386669
 30
0.0
 10
401.3628788351106
 20
426.8489980385779
 30
0.0
 10
403.3965305299433
 20
427.3924343058265
 30
0.0
 10
405.8353658021014
 20
428.2069336199923
 30
0.0
 10
408.0654481885147
 20
429.2489771656649
 30
0.0
 10
409.8185972620757
 20
430.4396727145623
 30
0.0
 10
410.5315862806398
 20
431.2435675454348
 30
0.0
 10
410.8879152186792
 20
431.6453282793618
 30
0.0
  0
SPLINE
  5
D4
330
1F
100
AcDbEntity
  8
0
  6
Continuous
 62
     7
370
    15
100
AcDbSpline
210
0.0
220
0.0
230
1.0
 70
     8
 71
     3
 72
    13
 73
     9
 74
     0
 42
0.00000001
 43
0.00000001
 12
1.0
 22
0.0
 32
0.0
 13
1.0
 23
0.0
 33
0.0
 40
0.0
 40
0.0
 40
0.0
 40
0.0
 40
0.4103468137085968
 40
0.7449208831717896
 40
0.8282975509082587
 40
0.8643500967055119
 40
0.9080031213084567
 40
1.0
 40
1.0
 40
1.0
 40
1.0
 10
447.5967314002817
 20
382.8028658688239
 30
0.0
 10
447.6032504551
 20
382.8030678148792
 30
0.0
 10
447.6150847862327
 20
382.8034344165657
 30
0.0
 10
447.6191446074767
 20
382.8034846618948
 30
0.0
 10
447.6427319400764
 20
382.8051259730191
 30
0.0
 10
447.6667130795421
 20
382.8088860173406
 30
0.0
 10
447.7043348619632
 20
382.8172877058871
 30
0.0
 10
447.7353616153181
 20
382.8321679627504
 30
0.0
 10
447.756403756855
 20
382.8422596557949
 30
0.0
  0
LINE
  5
D5
330
1F
100
AcDbEntity
  8
0
  6
Continuous
 62
     7
370
    15
100
AcDbLine
 10
447.9106845029
 20
379.6712126132
 30
0.0
 11
447.2538796862
 21
382.8459320835
 31
0.0
  0
LINE
  5
D6
330
1F
100
AcDbEntity
  8
0
  6
Continuous
 62
     7
370
    15
100
AcDbLine
 10
423.865202182
 20
377.4344353609
 30
0.0
 11
424.4083849464
 21
374.8089173158
 31
0.0
  0
LINE
  5
D7
330
1F
100
AcDbEntity
  8
0
  6
Continuous
 62
     7
370
    15
100
AcDbLine
 10
424.4083849464
 20
374.8089173158
 30
0.0
 11
425.5902430653
 21
374.0322504717
 31
0.0
  0
LINE
  5
D8
330
1F
100
AcDbEntity
  8
0
  6
Continuous
 62
     7
370
    15
100
AcDbLine
 10
447.1340176588
 20
378.4893544943
 30
0.0
 11
447.9106845029
 21
379.6712126132
 31
0.0
  0
SPLINE
  5
D9
330
1F
100
AcDbEntity
  8
0
  6
Continuous
 62
     7
370
    15
100
AcDbSpline
210
0.0
220
0.0
230
1.0
 70
     8
 71
     3
 72
     9
 73
     5
 74
     0
 42
0.00000001
 43
0.00000001
 12
1.0
 22
0.0
 32
0.0
 13
1.0
 23
0.0
 33
0.0
 40
0.0
 40
0.0
 40
0.0
 40
0.0
 40
0.61600988040161
 40
0.9999999999999999
 40
0.9999999999999999
 40
0.9999999999999999
 40
0.9999999999999999
 10
308.1813739946724
 20
332.7538613062241
 30
0.0
 10
308.2315603842599
 20
332.8157744526818
 30
0.0
 10
308.313030489179
 20
332.9162811952316
 30
0.0
 10
308.4882207184332
 20
333.1945711795916
 30
0.0
 10
308.5554920355171
 20
333.3014317839691
 30
0.0
  0
SPLINE
  5
DA
330
1F
100
AcDbEntity
  8
0
  6
Continuous
 62
     7
370
    15
100
AcDbSpline
210
0.0
220
0.0
230
1.0
 70
     8
 71
     3
 72
    12
 73
     8
 74
     0
 42
0.00000001
 43
0.00000001
 12
1.0
 22
0.0
 32
0.0
 13
1.0
 23
0.0
 33
0.0
 40
0.0
 40
0.0
 40
0.0
 40
0.0
 40
0.0019549147773144
 40
0.093981680168794
 40
0.2257752696126013
 40
0.582774416676248
 40
1.0
 40
1.0
 40
1.0
 40
1.0
 10
290.7628442321629
 20
339.0499474212583
 30
0.0
 10
290.7628467538578
 20
339.0499988683401
 30
0.0
 10
290.7629679832447
 20
339.0524721644839
 30
0.0
 10
290.7600842888863
 20
338.9883103294389
 30
0.0
 10
290.767372840686
 20
338.7930024491556
 30
0.0
 10
290.8511649806691
 20
338.401011181038
 30
0.0
 10
291.0625868334005
 20
338.1396612763288
 30
0.0
 10
291.176520943706
 20
337.9988212047525
 30
0.0
  0
SPLINE
  5
DB
330
1F
100
AcDbEntity
  8
0
  6
Continuous
 62
     7
370
    15
100
AcDbSpline
210
0.0
220
0.0
230
1.0
 70
     8
 71
     3
 72
    11
 73
     7
 74
     0
 42
0.00000001
 43
0.00000001
 12
1.0
 22
0.0
 32
0.0
 13
1.0
 23
0.0
 33
0.0
 40
0.0
 40
0.0
 40
0.0
 40
0.0
 40
0.2424371145280187
 40
0.492441084490569
 40
0.7457501802157387
 40
1.0
 40
1.0
 40
1.0
 40
1.0
 10
310.2940260467489
 20
340.5108646304963
 30
0.0
 10
310.2931709014245
 20
340.6115574787081
 30
0.0
 10
310.2914339203036
 20
340.8160859621885
 30
0.0
 10
310.2424504103248
 20
341.118819216667
 30
0.0
 10
310.1640308337022
 20
341.3921780608796
 30
0.0
 10
310.0929779253927
 20
341.5221736878131
 30
0.0
 10
310.0573856255023
 20
341.5872919700669
 30
0.0
  0
SPLINE
  5
DC
330
1F
100
AcDbEntity
  8
0
  6
Continuous
 62
     7
370
    15
100
AcDbSpline
210
0.0
220
0.0
230
1.0
 70
     8
 71
     3
 72
     9
 73
     5
 74
     0
 42
0.00000001
 43
0.00000001
 12
1.0
 22
0.0
 32
0.0
 13
1.0
 23
0.0
 33
0.0
 40
0.0
 40
0.0
 40
0.0
 40
0.0
 40
0.4805644150656477
 40
1.0
 40
1.0
 40
1.0
 40
1.0
 10
302.5132034548492
 20
334.4030232127
 30
0.0
 10
302.8038037010654
 20
334.3543269264491
 30
0.0
 10
303.4085098280818
 20
334.2529954821633
 30
0.0
 10
303.9792012744077
 20
334.0283573273315
 30
0.0
 10
304.2756387196471
 20
333.9116722759778
 30
0.0
  0
LINE
  5
DD
330
1F
100
AcDbEntity
  8
0
  6
Continuous
 62
     7
370
    15
100
AcDbLine
 10
301.1430174901
 20
334.6798778917
 30
0.0
 11
302.5132034548
 21
334.4030232127
 31
0.0
  0
SPLINE
  5
DE
330
1F
100
AcDbEntity
  8
0
  6
Continuous
 62
     7
370
    15
100
AcDbSpline
210
0.0
220
0.0
230
1.0
 70
     8
 71
     3
 72
    12
 73
     8
 74
     0
 42
0.00000001
 43
0.00000001
 12
1.0
 22
0.0
 32
0.0
 13
1.0
 23
0.0
 33
0.0
 40
0.0
 40
0.0
 40
0.0
 40
0.0
 40
0.2511631709146686
 40
0.5019700612057235
 40
0.6684262793956707
 40
0.8330384037325136
 40
1.0
 40
1.0
 40
1.0
 40
1.0
 10
310.0542539134022
 20
341.5922879274948
 30
0.0
 10
309.7794162247434
 20
342.0166450672521
 30
0.0
 10
309.2301307108868
 20
342.8647573865914
 30
0.0
 10
308.6726118377501
 20
343.6703176035654
 30
0.0
 10
308.3763389993034
 20
344.0874112075966
 30
0.0
 10
308.0500897652689
 20
344.5716535767713
 30
0.0
 10
307.785045668993
 20
344.6292622193878
 30
0.0
 10
307.651584593384
 20
344.6582706429521
 30
0.0
  0
SPLINE
  5
DF
330
1F
100
AcDbEntity
  8
0
  6
Continuous
 62
     7
370
    15
100
AcDbSpline
210
0.0
220
0.0
230
1.0
 70
     8
 71
     3
 72
     9
 73
     5
 74
     0
 42
0.00000001
 43
0.00000001
 12
1.0
 22
0.0
 32
0.0
 13
1.0
 23
0.0
 33
0.0
 40
0.0
 40
0.0
 40
0.0
 40
0.0
 40
0.9815644506565846
 40
1.0
 40
1.0
 40
1.0
 40
1.0
 10
424.2164362537571
 20
377.5954942470887
 30
0.0
 10
424.2337611248181
 20
377.6030145993778
 30
0.0
 10
424.2514113881803
 20
377.610676197436
 30
0.0
 10
424.28214718275
 20
377.6256583896514
 30
0.0
 10
424.2827138140074
 20
377.6259345945954
 30
0.0
  0
SPLINE
  5
E0
330
1F
100
AcDbEntity
  8
0
  6
Continuous
 62
     7
370
    15
100
AcDbSpline
210
0.0
220
0.0
230
1.0
 70
     8
 71
     3
 72
    12
 73
     8
 74
     0
 42
0.00000001
 43
0.00000001
 12
1.0
 22
0.0
 32
0.0
 13
1.0
 23
0.0
 33
0.0
 40
0.0
 40
0.0
 40
0.0
 40
0.0
 40
0.012953928817006
 40
0.1092379140732564
 40
0.3583143055804399
 40
0.798857591681073
 40
0.9999999999999999
 40
0.9999999999999999
 40
0.9999999999999999
 40
0.9999999999999999
 10
423.5590884941734
 20
377.302911189823
 30
0.0
 10
423.5578741295912
 20
377.3023263854741
 30
0.0
 10
423.5476336337733
 20
377.2973948463153
 30
0.0
 10
423.5642505019295
 20
377.3053699533779
 30
0.0
 10
423.6263262408166
 20
377.3307168429391
 30
0.0
 10
423.7662133767483
 20
377.3883218439093
 30
0.0
 10
423.9650919655501
 20
377.4800676434934
 30
0.0
 10
424.0274323272919
 20
377.5088262261485
 30
0.0
  0
LINE
  5
E1
330
1F
100
AcDbEntity
  8
0
  6
Continuous
 62
     7
370
    15
100
AcDbLine
 10
354.4255109894
 20
407.5171507435
 30
0.0
 11
354.7006349926
 21
407.5171507435
 31
0.0
  0
LINE
  5
E2
330
1F
100
AcDbEntity
  8
0
  6
Continuous
 62
     7
370
    15
100
AcDbLine
 10
354.7006349926
 20
407.5171507435
 30
0.0
 11
355.3011823625
 21
407.7357321104
 31
0.0
  0
ARC
  5
E3
330
1F
100
AcDbEntity
  8
0
  6
Continuous
 62
     7
370
    15
100
AcDbCircle
 10
355.2327783338
 20
415.1106308524
 30
0.0
 40
0.2000000000000164
100
AcDbArc
 50
0.0
 51
70.0
  0
ARC
  5
E4
330
1F
100
AcDbEntity
  8
0
  6
Continuous
 62
     7
370
    15
100
AcDbCircle
 10
355.2327783338
 20
407.9236706345
 30
0.0
 40
0.199999999999963
100
AcDbArc
 50
290.0
 51
0.0
  0
LINE
  5
E5
330
1F
100
AcDbEntity
  8
0
  6
Continuous
 62
     7
370
    15
100
AcDbLine
 10
355.4327783338
 20
407.9236706345
 30
0.0
 11
355.4327783338
 21
415.1106308524
 31
0.0
  0
LINE
  5
E6
330
1F
100
AcDbEntity
  8
0
  6
Continuous
 62
     7
370
    15
100
AcDbLine
 10
304.4087829751
 20
333.9188996647
 30
0.0
 11
308.4496666257
 21
323.9173616906
 31
0.0
  0
SPLINE
  5
E7
330
1F
100
AcDbEntity
  8
0
  6
Continuous
 62
     7
370
    15
100
AcDbSpline
210
0.0
220
0.0
230
1.0
 70
     8
 71
     3
 72
    10
 73
     6
 74
     0
 42
0.00000001
 43
0.00000001
 12
1.0
 22
0.0
 32
0.0
 13
1.0
 23
0.0
 33
0.0
 40
0.0
 40
0.0
 40
0.0
 40
0.0
 40
0.001056329897147
 40
0.4988025200077061
 40
1.0
 40
1.0
 40
1.0
 40
1.0
 10
423.5640532715522
 20
377.3053036173212
 30
0.0
 10
423.5640380210243
 20
377.3052955429685
 30
0.0
 10
423.5568366705928
 20
377.3014828065375
 30
0.0
 10
423.5548862079042
 20
377.3010527814129
 30
0.0
 10
423.5559338405546
 20
377.3014091835755
 30
0.0
 10
423.5564594666334
 20
377.3015880003308
 30
0.0
  0
SPLINE
  5
E8
330
1F
100
AcDbEntity
  8
0
  6
Continuous
 62
     7
370
    15
100
AcDbSpline
210
0.0
220
0.0
230
1.0
 70
     8
 71
     3
 72
     9
 73
     5
 74
     0
 42
0.00000001
 43
0.00000001
 12
1.0
 22
0.0
 32
0.0
 13
1.0
 23
0.0
 33
0.0
 40
0.0
 40
0.0
 40
0.0
 40
0.0
 40
0.4805767456103553
 40
1.0
 40
1.0
 40
1.0
 40
1.0
 10
302.5132034407578
 20
334.4030232163017
 30
0.0
 10
302.8038037490734
 20
334.3543271745355
 30
0.0
 10
303.4084944898759
 20
334.252998838924
 30
0.0
 10
303.9791714237811
 20
334.0283669597834
 30
0.0
 10
304.2755942939952
 20
333.9116879380805
 30
0.0
  0
LINE
  5
E9
330
1F
100
AcDbEntity
  8
0
  6
Continuous
 62
     7
370
    15
100
AcDbLine
 10
301.1430174901
 20
334.6798778916
 30
0.0
 11
302.5132034408
 21
334.4030232163
 31
0.0
  0
SPLINE
  5
EA
330
1F
100
AcDbEntity
  8
0
  6
Continuous
 62
     7
370
    15
100
AcDbSpline
210
0.0
220
0.0
230
1.0
 70
     8
 71
     3
 72
    38
 73
    34
 74
     0
 42
0.00000001
 43
0.00000001
 12
1.0
 22
0.0
 32
0.0
 13
1.0
 23
0.0
 33
0.0
 40
0.0
 40
0.0
 40
0.0
 40
0.0
 40
0.0553152479600001
 40
0.1106578073490602
 40
0.1903736131124796
 40
0.2702739493151977
 40
0.2969519766569395
 40
0.3236385055879377
 40
0.3571777501859175
 40
0.3905561527787578
 40
0.423610117203383
 40
0.4588082922131811
 40
0.49362003769025
 40
0.527717524611149
 40
0.5610806039971441
 40
0.5937105595972626
 40
0.6256827147041204
 40
0.6571444066857315
 40
0.6897396765787258
 40
0.7223363961022671
 40
0.7552817741065743
 40
0.7888841718995019
 40
0.8067794426015175
 40
0.8249306408844054
 40
0.8433505746342116
 40
0.8620438400146045
 40
0.8810082349561893
 40
0.9002370568933447
 40
0.9197220887194106
 40
0.9394526994453845
 40
0.9594165218000444
 40
0.9796043468375645
 40
1.0
 40
1.0
 40
1.0
 40
1.0
 10
423.4401393426677
 20
377.2728698287113
 30
0.0
 10
421.7642249192924
 20
377.2056847626795
 30
0.0
 10
418.4115686041751
 20
377.0712814585661
 30
0.0
 10
412.6435660067262
 20
376.8439708652717
 30
0.0
 10
406.1300036908713
 20
376.6044088119881
 30
0.0
 10
400.4839273762151
 20
376.4283427818632
 30
0.0
 10
396.4445875921484
 20
376.3182569286093
 30
0.0
 10
393.8103661348707
 20
376.2508963962326
 30
0.0
 10
390.9732055770413
 20
376.1717360876444
 30
0.0
 10
387.9441339687818
 20
376.0511056426333
 30
0.0
 10
384.8682589433903
 20
375.8562813891102
 30
0.0
 10
381.7579826561874
 20
375.5404813450312
 30
0.0
 10
378.6377862743242
 20
375.0492491869688
 30
0.0
 10
375.6090861112359
 20
374.3722205162654
 30
0.0
 10
372.7005756007854
 20
373.4941859582291
 30
0.0
 10
369.9378450955789
 20
372.3914536301822
 30
0.0
 10
367.3463164317713
 20
371.0499730691593
 30
0.0
 10
364.9191428656398
 20
369.4298109869425
 30
0.0
 10
362.6926144710536
 20
367.5114928960087
 30
0.0
 10
360.7073981377949
 20
365.2831124515657
 30
0.0
 10
359.0125607285102
 20
362.7904019078447
 30
0.0
 10
357.8416067205908
 20
360.5062766391823
 30
0.0
 10
357.039528076341
 20
358.5517150103228
 30
0.0
 10
356.496121151609
 20
356.991296298949
 30
0.0
 10
356.0252391794951
 20
355.3824331210257
 30
0.0
 10
355.6236086847957
 20
353.7295923455007
 30
0.0
 10
355.287706244796
 20
352.0372325961082
 30
0.0
 10
355.0137771368082
 20
350.3095021068646
 30
0.0
 10
354.798345784343
 20
348.5501675126117
 30
0.0
 10
354.6373954264531
 20
346.7626761957267
 30
0.0
 10
354.5276771007517
 20
344.9500621210756
 30
0.0
 10
354.4618840818451
 20
343.115062278033
 30
0.0
 10
354.4544611348952
 20
341.8844638690154
 30
0.0
 10
354.4507306549523
 20
341.266013715263
 30
0.0
  0
SPLINE
  5
EB
330
1F
100
AcDbEntity
  8
0
  6
Continuous
 62
     7
370
    15
100
AcDbSpline
210
0.0
220
0.0
230
1.0
 70
     8
 71
     3
 72
     9
 73
     5
 74
     0
 42
0.00000001
 43
0.00000001
 12
1.0
 22
0.0
 32
0.0
 13
1.0
 23
0.0
 33
0.0
 40
0.0
 40
0.0
 40
0.0
 40
0.0
 40
0.4971989490417874
 40
1.0
 40
1.0
 40
1.0
 40
1.0
 10
458.3892757218411
 20
397.4592823375154
 30
0.0
 10
458.3892876365686
 20
397.4602784464432
 30
0.0
 10
458.3893116002708
 20
397.4622818877814
 30
0.0
 10
458.3893124633703
 20
397.4626328273801
 30
0.0
 10
458.3893128973377
 20
397.4628092801792
 30
0.0
  0
SPLINE
  5
EC
330
1F
100
AcDbEntity
  8
0
  6
Continuous
 62
     7
370
    15
100
AcDbSpline
210
0.0
220
0.0
230
1.0
 70
     8
 71
     3
 72
    14
 73
    10
 74
     0
 42
0.00000001
 43
0.00000001
 12
1.0
 22
0.0
 32
0.0
 13
1.0
 23
0.0
 33
0.0
 40
0.0
 40
0.0
 40
0.0
 40
0.0
 40
0.25
 40
0.25
 40
0.5
 40
0.5
 40
0.75
 40
0.75
 40
1.0
 40
1.0
 40
1.0
 40
1.0
 10
459.3035058296392
 20
395.2940167733429
 30
0.0
 10
459.4122064189613
 20
395.4915719206935
 30
0.0
 10
459.4755472537743
 20
395.7139096772946
 30
0.0
 10
459.4990087269439
 20
396.1642707410199
 30
0.0
 10
459.4591133478671
 20
396.3919865811618
 30
0.0
 10
459.2839439468195
 20
396.8075478135104
 30
0.0
 10
459.1487895151318
 20
396.9951094970035
 30
0.0
 10
458.8100147138848
 20
397.2927785938431
 30
0.0
 10
458.6066256300076
 20
397.4026827848727
 30
0.0
 10
458.3893048806895
 20
397.4628114982643
 30
0.0
  0
SPLINE
  5
ED
330
1F
100
AcDbEntity
  8
0
  6
Continuous
 62
     7
370
    15
100
AcDbSpline
210
0.0
220
0.0
230
1.0
 70
     8
 71
     3
 72
    30
 73
    26
 74
     0
 42
0.00000001
 43
0.00000001
 12
1.0
 22
0.0
 32
0.0
 13
1.0
 23
0.0
 33
0.0
 40
0.0
 40
0.0
 40
0.0
 40
0.0
 40
0.026847913404154
 40
0.0548356119077012
 40
0.0839642294165239
 40
0.114231977559272
 40
0.1855901544480346
 40
0.2703495781252257
 40
0.3098553270430603
 40
0.3493462451461914
 40
0.4271310783300237
 40
0.5013083588189843
 40
0.5695421135886465
 40
0.6312450941465136
 40
0.6854924254580476
 40
0.7347335787837154
 40
0.7789146617560659
 40
0.8197820220677102
 40
0.8585755761939219
 40
0.8967245912828967
 40
0.9362955750997232
 40
0.9513383918506647
 40
0.9669443203070914
 40
0.9831534675025219
 40
1.0
 40
1.0
 40
1.0
 40
1.0
 10
391.19860986694
 20
425.3636039164992
 30
0.0
 10
390.8447275033796
 20
425.3391016170589
 30
0.0
 10
390.1219392681429
 20
425.2890568123572
 30
0.0
 10
389.0144842462184
 20
425.2235103750437
 30
0.0
 10
387.8615157530506
 20
425.1627770893345
 30
0.0
 10
386.1357387707432
 20
425.0833302928323
 30
0.0
 10
383.6747055548656
 20
424.9935134395373
 30
0.0
 10
381.0909446184033
 20
424.9240241049099
 30
0.0
 10
378.9278888713797
 20
424.8743708800926
 30
0.0
 10
376.8569257306474
 20
424.8284911552899
 30
0.0
 10
374.3281095628437
 20
424.7655921005269
 30
0.0
 10
371.4209299226704
 20
424.6479679813283
 30
0.0
 10
368.7303059790676
 20
424.4537620531675
 30
0.0
 10
366.3139441622628
 20
424.1533432506371
 30
0.0
 10
364.1689967048823
 20
423.7386569624126
 30
0.0
 10
362.2904384922733
 20
423.1994688206645
 30
0.0
 10
360.6475453205717
 20
422.5169943580202
 30
0.0
 10
359.2337086960273
 20
421.6807303266002
 30
0.0
 10
358.0356143689017
 20
420.6750544410332
 30
0.0
 10
357.0415174874353
 20
419.4897625028215
 30
0.0
 10
356.4197380471848
 20
418.4270622198679
 30
0.0
 10
356.0324494717489
 20
417.5837393129681
 30
0.0
 10
355.8031190759313
 20
417.0084054759175
 30
0.0
 10
355.5918096135145
 20
416.4008569910006
 30
0.0
 10
355.4709861221492
 20
415.9810841109181
 30
0.0
 10
355.4094095067944
 20
415.7671506044355
 30
0.0
  0
SPLINE
  5
EE
330
1F
100
AcDbEntity
  8
0
  6
Continuous
 62
     7
370
    15
100
AcDbSpline
210
0.0
220
0.0
230
1.0
 70
     8
 71
     3
 72
     9
 73
     5
 74
     0
 42
0.00000001
 43
0.00000001
 12
1.0
 22
0.0
 32
0.0
 13
1.0
 23
0.0
 33
0.0
 40
0.0
 40
0.0
 40
0.0
 40
0.0
 40
0.4903468548424592
 40
1.0
 40
1.0
 40
1.0
 40
1.0
 10
354.4641164163046
 20
407.2671507332943
 30
0.0
 10
354.4601087925333
 20
406.9955244455028
 30
0.0
 10
354.4519357539347
 20
406.4415772036493
 30
0.0
 10
354.4511820901374
 20
405.8875698627982
 30
0.0
 10
354.4507979830127
 20
405.6052182790931
 30
0.0
  0
LINE
  5
EF
330
1F
100
AcDbEntity
  8
0
  6
Continuous
 62
     7
370
    15
100
AcDbLine
 10
354.4506349926
 20
401.5171507435
 30
0.0
 11
341.3904217158
 21
401.5171507435
 31
0.0
  0
SPLINE
  5
F0
330
1F
100
AcDbEntity
  8
0
  6
Continuous
 62
     7
370
    15
100
AcDbSpline
210
0.0
220
0.0
230
1.0
 70
     8
 71
     3
 72
    20
 73
    16
 74
     0
 42
0.00000001
 43
0.00000001
 12
1.0
 22
0.0
 32
0.0
 13
1.0
 23
0.0
 33
0.0
 40
0.0
 40
0.0
 40
0.0
 40
0.0
 40
0.2500000000000023
 40
0.2500000000000023
 40
0.3125000000000021
 40
0.3125000000000021
 40
0.3750000000000018
 40
0.3750000000000018
 40
0.5000000000000014
 40
0.5000000000000014
 40
0.625000000000001
 40
0.625000000000001
 40
0.7500000000000007
 40
0.7500000000000007
 40
1.0
 40
1.0
 40
1.0
 40
1.0
 10
319.4718643762978
 20
406.577448428503
 30
0.0
 10
321.0355980841169
 20
405.8147645393607
 30
0.0
 10
322.6974840047421
 20
405.1047146342121
 30
0.0
 10
324.9105948856516
 20
404.3087132903287
 30
0.0
 10
325.360087053844
 20
404.1540916922124
 30
0.0
 10
326.2735033620532
 20
403.8546941182257
 30
0.0
 10
326.738790183957
 20
403.709556927063
 30
0.0
 10
328.1372870220678
 20
403.2957887446548
 30
0.0
 10
329.0782317073883
 20
403.0469445184523
 30
0.0
 10
330.9775012178493
 20
402.6037374399379
 30
0.0
 10
331.9358244847197
 20
402.4093716234827
 30
0.0
 10
333.8703737707441
 20
402.0761530006726
 30
0.0
 10
334.8533122182697
 20
401.936894307278
 30
0.0
 10
337.7370492983918
 20
401.6132893155201
 30
0.0
 10
339.5972715531148
 20
401.5171507434615
 30
0.0
 10
341.3904217157514
 20
401.5171507434615
 30
0.0
  0
LINE
  5
F1
330
1F
100
AcDbEntity
  8
0
  6
Continuous
 62
     7
370
    15
100
AcDbLine
 10
308.4506349926
 20
411.952861165
 30
0.0
 11
319.4718643763
 21
406.5774484285
 31
0.0
  0
SPLINE
  5
F2
330
1F
100
AcDbEntity
  8
0
  6
Continuous
 62
     7
370
    15
100
AcDbSpline
210
0.0
220
0.0
230
1.0
 70
     8
 71
     3
 72
    33
 73
    29
 74
     0
 42
0.00000001
 43
0.00000001
 12
1.0
 22
0.0
 32
0.0
 13
1.0
 23
0.0
 33
0.0
 40
0.0
 40
0.0
 40
0.0
 40
0.0
 40
0.0094234046971177
 40
0.023956556621975
 40
0.0407222706394341
 40
0.0579692974102819
 40
0.0842825894269038
 40
0.111278038133222
 40
0.1372385834717091
 40
0.1634016881434575
 40
0.1900032563848453
 40
0.216697597864888
 40
0.2469022454274575
 40
0.2771765259018417
 40
0.3380922363771902
 40
0.3999819598261194
 40
0.4620816348078871
 40
0.5179949770264665
 40
0.5740101487542131
 40
0.6303151932184506
 40
0.686712080953235
 40
0.7443098616940765
 40
0.8020201311619105
 40
0.860143350019279
 40
0.9184516261153942
 40
0.9590702222743817
 40
0.999830967756527
 40
1.0
 40
1.0
 40
1.0
 40
1.0
 10
308.4507351773009
 20
323.9177938261202
 30
0.0
 10
308.4507352716801
 20
323.9177954734439
 30
0.0
 10
308.4507355116145
 20
323.9177996613362
 30
0.0
 10
308.4518583412831
 20
323.9495441627379
 30
0.0
 10
308.4540253474603
 20
324.0114538900751
 30
0.0
 10
308.4577517917403
 20
324.1198130900454
 30
0.0
 10
308.4630726848827
 20
324.2791121270312
 30
0.0
 10
308.4696665930511
 20
324.4859420838977
 30
0.0
 10
308.4764346767165
 20
324.7099030607411
 30
0.0
 10
308.4831207475229
 20
324.9444467827803
 30
0.0
 10
308.4896712804628
 20
325.1895953748387
 30
0.0
 10
308.4962439804206
 20
325.4537075776489
 30
0.0
 10
308.5026855711039
 20
325.7348569637547
 30
0.0
 10
308.5109535700911
 20
326.1322687055702
 30
0.0
 10
308.5199458994595
 20
326.641953274745
 30
0.0
 10
308.528306307958
 20
327.2654574346188
 30
0.0
 10
308.5339427100603
 20
327.8767572007901
 30
0.0
 10
308.5371048092003
 20
328.4703998202731
 30
0.0
 10
308.5380947339904
 20
329.0452487011076
 30
0.0
 10
308.5370544634064
 20
329.6217290958592
 30
0.0
 10
308.534005403975
 20
330.2026719364688
 30
0.0
 10
308.5289642571045
 20
330.7864292956419
 30
0.0
 10
308.5219533958931
 20
331.3728995573537
 30
0.0
 10
308.5130810272909
 20
331.9565891821808
 30
0.0
 10
308.5035688774671
 20
332.4772342455637
 30
0.0
 10
308.4940475125401
 20
332.9297507813989
 30
0.0
 10
308.4881890749332
 20
333.193738637804
 30
0.0
 10
308.4850680535446
 20
333.3189977244768
 30
0.0
 10
308.4850551643164
 20
333.3195150208222
 30
0.0
  0
LINE
  5
F3
330
1F
100
AcDbEntity
  8
0
  6
Continuous
 62
     7
370
    15
100
AcDbLine
 10
308.4506349926
 20
297.9171507435
 30
0.0
 11
354.4506349926
 21
297.9171507435
 31
0.0
  0
SPLINE
  5
F4
330
1F
100
AcDbEntity
  8
0
  6
Continuous
 62
     7
370
    15
100
AcDbSpline
210
0.0
220
0.0
230
1.0
 70
     8
 71
     3
 72
    14
 73
    10
 74
     0
 42
0.00000001
 43
0.00000001
 12
1.0
 22
0.0
 32
0.0
 13
1.0
 23
0.0
 33
0.0
 40
0.0
 40
0.0
 40
0.0
 40
0.0
 40
0.25
 40
0.25
 40
0.5
 40
0.5
 40
0.75
 40
0.75
 40
1.0
 40
1.0
 40
1.0
 40
1.0
 10
410.8320820820909
 20
431.5738416686111
 30
0.0
 10
410.9550709229173
 20
431.7297772820787
 30
0.0
 10
411.0384497834552
 20
431.9167007759537
 30
0.0
 10
411.1061662956674
 20
432.308087117511
 30
0.0
 10
411.0904361638671
 20
432.5121581918239
 30
0.0
 10
410.9635385716705
 20
432.8885433301687
 30
0.0
 10
410.8524981343511
 20
433.0604806368684
 30
0.0
 10
410.5616310767713
 20
433.3309709112188
 30
0.0
 10
410.3820956111966
 20
433.429253121117
 30
0.0
 10
410.1897982524432
 20
433.478890329457
 30
0.0
  0
SPLINE
  5
F5
330
1F
100
AcDbEntity
  8
0
  6
Continuous
 62
     7
370
    15
100
AcDbSpline
210
0.0
220
0.0
230
1.0
 70
     8
 71
     3
 72
    38
 73
    34
 74
     0
 42
0.00000001
 43
0.00000001
 12
1.0
 22
0.0
 32
0.0
 13
1.0
 23
0.0
 33
0.0
 40
0.0
 40
0.0
 40
0.0
 40
0.0
 40
0.0625
 40
0.0625
 40
0.125
 40
0.125
 40
0.1875
 40
0.1875
 40
0.25
 40
0.25
 40
0.3125
 40
0.3125
 40
0.375
 40
0.375
 40
0.4375
 40
0.4375
 40
0.5
 40
0.5
 40
0.5625
 40
0.5625
 40
0.625
 40
0.625
 40
0.6875
 40
0.6875
 40
0.75
 40
0.75
 40
0.8125
 40
0.8125
 40
0.875
 40
0.875
 40
0.9375
 40
0.9375
 40
1.0
 40
1.0
 40
1.0
 40
1.0
 10
355.4094095435306
 20
415.767150737763
 30
0.0
 10
355.4091599698484
 20
415.767165191209
 30
0.0
 10
355.3971177462852
 20
415.7389722490018
 30
0.0
 10
355.3512299420715
 20
415.629003471719
 30
0.0
 10
355.317684342374
 20
415.5479280551906
 30
0.0
 10
355.2324617259014
 20
415.3340210772699
 30
0.0
 10
355.1812227593212
 20
415.2021081097108
 30
0.0
 10
355.0692946455184
 20
414.8975633799159
 30
0.0
 10
355.0076638006586
 20
414.7222946693124
 30
0.0
 10
354.8814782767799
 20
414.3353606595641
 30
0.0
 10
354.8175577995365
 20
414.1257934742509
 30
0.0
 10
354.6925681628571
 20
413.6741898567548
 30
0.0
 10
354.6310104351639
 20
413.4296200781189
 30
0.0
 10
354.519308263577
 20
412.9250650650922
 30
0.0
 10
354.4686408616938
 20
412.6636557064327
 30
0.0
 10
354.3802568700301
 20
412.1215843862765
 30
0.0
 10
354.3428027688191
 20
411.8408757434212
 30
0.0
 10
354.2852730628847
 20
411.2858826428792
 30
0.0
 10
354.2646021022534
 20
411.0083352000319
 30
0.0
 10
354.2386916844425
 20
410.4532842469083
 30
0.0
 10
354.2338478953282
 20
410.1838239447167
 30
0.0
 10
354.2368708330085
 20
409.6659429699687
 30
0.0
 10
354.2448785423851
 20
409.4140163414229
 30
0.0
 10
354.2693530759107
 20
408.945348275702
 30
0.0
 10
354.285639114235
 20
408.7287437398858
 30
0.0
 10
354.3219178141651
 20
408.3305573016269
 30
0.0
 10
354.3419643579833
 20
408.1492365746979
 30
0.0
 10
354.3799882233871
 20
407.8375768692061
 30
0.0
 10
354.398185322032
 20
407.7048446535949
 30
0.0
 10
354.4294346909615
 20
407.4871899748593
 30
0.0
 10
354.4420110344992
 20
407.4053209333972
 30
0.0
 10
354.459139149433
 20
407.2954542967111
 30
0.0
 10
354.4637458826311
 20
407.2671476501525
 30
0.0
 10
354.4641164164849
 20
407.2671507437186
 30
0.0
  0
SPLINE
  5
F6
330
1F
100
AcDbEntity
  8
0
  6
Continuous
 62
     7
370
    15
100
AcDbSpline
210
0.0
220
0.0
230
1.0
 70
     8
 71
     3
 72
    30
 73
    26
 74
     0
 42
0.00000001
 43
0.00000001
 12
1.0
 22
0.0
 32
0.0
 13
1.0
 23
0.0
 33
0.0
 40
0.0
 40
0.0
 40
0.0
 40
0.0
 40
0.0024974535073427
 40
0.0548337754512912
 40
0.1080224494573739
 40
0.1438904907796706
 40
0.1963361487637006
 40
0.2850363785614469
 40
0.3265590440307096
 40
0.3683785117008021
 40
0.4111385403809382
 40
0.4542232242049009
 40
0.4951197833773556
 40
0.536301849219377
 40
0.5783831514144313
 40
0.6207749083191223
 40
0.6615919557207421
 40
0.7446122648253191
 40
0.7869146808488562
 40
0.8277410574921404
 40
0.8688508742065689
 40
0.9108546133672119
 40
0.9531672262013106
 40
0.9939956326663975
 40
1.0
 40
1.0
 40
1.0
 40
1.0
 10
341.0323804448892
 20
397.8068135847937
 30
0.0
 10
340.9998131796926
 20
397.8037656971399
 30
0.0
 10
340.2847703964744
 20
397.7368466587188
 30
0.0
 10
338.8160844817803
 20
397.63631192506
 30
0.0
 10
336.8213228369099
 20
397.5711731204997
 30
0.0
 10
334.7932248808032
 20
397.5516733078538
 30
0.0
 10
332.2259535717299
 20
397.5602836167648
 30
0.0
 10
329.5449837801407
 20
397.55613088877
 30
0.0
 10
327.0666401279555
 20
397.5563979582648
 30
0.0
 10
325.2806739577823
 20
397.5566834831637
 30
0.0
 10
323.5185557468891
 20
397.5562412666362
 30
0.0
 10
321.8279152209983
 20
397.5566530155135
 30
0.0
 10
320.2282769964577
 20
397.5565733255263
 30
0.0
 10
318.7198656182243
 20
397.5565046778898
 30
0.0
 10
317.2845313820388
 20
397.5564909460014
 30
0.0
 10
315.9560411871449
 20
397.5565025225953
 30
0.0
 10
314.3411196571658
 20
397.5564991292583
 30
0.0
 10
312.9602600166721
 20
397.556479124057
 30
0.0
 10
311.850811358788
 20
397.5564729633156
 30
0.0
 10
311.1594035511174
 20
397.5564679986875
 30
0.0
 10
310.6121260930291
 20
397.556462429841
 30
0.0
 10
310.2032397975506
 20
397.5564585699735
 30
0.0
 10
309.9638862727411
 20
397.5564592062291
 30
0.0
 10
309.8638472544231
 20
397.556465496997
 30
0.0
 10
309.8873589272754
 20
397.5564644634944
 30
0.0
 10
309.8903733274269
 20
397.5564643309904
 30
0.0
  0
SPLINE
  5
F7
330
1F
100
AcDbEntity
  8
0
  6
Continuous
 62
     7
370
    15
100
AcDbSpline
210
0.0
220
0.0
230
1.0
 70
     8
 71
     3
 72
    27
 73
    23
 74
     0
 42
0.00000001
 43
0.00000001
 12
1.0
 22
0.0
 32
0.0
 13
1.0
 23
0.0
 33
0.0
 40
0.0
 40
0.0
 40
0.0
 40
0.0
 40
0.0414374201872136
 40
0.0853596281071804
 40
0.1297502727506785
 40
0.1747756602839227
 40
0.2186363658203491
 40
0.262800101862426
 40
0.3074329890129902
 40
0.3527083036043111
 40
0.3968353576124276
 40
0.4412710455638921
 40
0.4861847417734905
 40
0.5317532191085718
 40
0.6202389190780297
 40
0.6651526233207063
 40
0.7107211093477549
 40
0.7988855545918668
 40
0.8441213462917894
 40
0.889689834450709
 40
0.9336575292763991
 40
0.9999999999999999
 40
0.9999999999999999
 40
0.9999999999999999
 40
0.9999999999999999
 10
338.0861267804034
 20
397.6246933628354
 30
0.0
 10
337.5505964017763
 20
397.6088724764362
 30
0.0
 10
336.4474226580156
 20
397.5762820069219
 30
0.0
 10
334.7239396030877
 20
397.563742576038
 30
0.0
 10
332.9337097007813
 20
397.5698932788513
 30
0.0
 10
331.1327447082107
 20
397.5660878615224
 30
0.0
 10
329.3375073432443
 20
397.5682054081025
 30
0.0
 10
327.5620349848937
 20
397.5669779551291
 30
0.0
 10
325.7949810381937
 20
397.5677535678988
 30
0.0
 10
324.0686198495725
 20
397.5672061356794
 30
0.0
 10
322.3971852815346
 20
397.5675630701218
 30
0.0
 10
320.7935394963889
 20
397.5676125663708
 30
0.0
 10
319.2483928085803
 20
397.5675067299882
 30
0.0
 10
317.3160962943056
 20
397.567463640111
 30
0.0
 10
315.574643781805
 20
397.5674853748205
 30
0.0
 10
314.0664914526276
 20
397.5674640142936
 30
0.0
 10
312.726588818419
 20
397.567444618795
 30
0.0
 10
311.6442306286435
 20
397.5674350661099
 30
0.0
 10
310.8442747619541
 20
397.5674251107719
 30
0.0
 10
310.3976344266835
 20
397.5674185962359
 30
0.0
 10
310.0246530318364
 20
397.5674180930257
 30
0.0
 10
310.0149652005548
 20
397.5674204215165
 30
0.0
 10
310.0091387686936
 20
397.5674218219118
 30
0.0
  0
SPLINE
  5
F8
330
1F
100
AcDbEntity
  8
0
  6
Continuous
 62
     7
370
    15
100
AcDbSpline
210
0.0
220
0.0
230
1.0
 70
     8
 71
     3
 72
    22
 73
    18
 74
     0
 42
0.00000001
 43
0.00000001
 12
1.0
 22
0.0
 32
0.0
 13
1.0
 23
0.0
 33
0.0
 40
0.0
 40
0.0
 40
0.0
 40
0.0
 40
0.040055683772126
 40
0.1138430188554106
 40
0.1881759468576784
 40
0.2598099505034915
 40
0.331927084507514
 40
0.4055403402486711
 40
0.4796590159833892
 40
0.5527794375325737
 40
0.6263778791492514
 40
0.7014718180116171
 40
0.7770855600394221
 40
0.8322663431802505
 40
0.8876595040860402
 40
0.9437152794026972
 40
1.0
 40
1.0
 40
1.0
 40
1.0
 10
353.0586826369642
 20
400.2453548819785
 30
0.0
 10
353.0612049389567
 20
400.2461419973029
 30
0.0
 10
353.0683736213071
 20
400.2483790727006
 30
0.0
 10
352.9208974659402
 20
400.2015051275223
 30
0.0
 10
352.6295953739022
 20
400.1119551247624
 30
0.0
 10
352.1946805983977
 20
399.9821645997142
 30
0.0
 10
351.6298950187654
 20
399.8190522721127
 30
0.0
 10
350.9260354922293
 20
399.6229392586594
 30
0.0
 10
350.0898636322727
 20
399.39959310355
 30
0.0
 10
349.1308229788489
 20
399.1566908058926
 30
0.0
 10
348.0505456714598
 20
398.9018634505363
 30
0.0
 10
346.8445577219493
 20
398.643803336742
 30
0.0
 10
345.6380599230679
 20
398.4170712572784
 30
0.0
 10
344.4752429215838
 20
398.2266522095031
 30
0.0
 10
343.3827168394574
 20
398.0703092131965
 30
0.0
 10
342.2379506885539
 20
397.9273934200144
 30
0.0
 10
341.4347828004144
 20
397.8470614342879
 30
0.0
 10
341.0323804448892
 20
397.8068135847937
 30
0.0
  0
LINE
  5
F9
330
1F
100
AcDbEntity
  8
0
  6
Continuous
 62
     7
370
    15
100
AcDbLine
 10
352.9072317253
 20
400.2034790128
 30
0.0
 11
352.9131254126
 21
400.205302768
 31
0.0
  0
SPLINE
  5
FA
330
1F
100
AcDbEntity
  8
0
  6
Continuous
 62
     7
370
    15
100
AcDbSpline
210
0.0
220
0.0
230
1.0
 70
     8
 71
     3
 72
    11
 73
     7
 74
     0
 42
0.00000001
 43
0.00000001
 12
1.0
 22
0.0
 32
0.0
 13
1.0
 23
0.0
 33
0.0
 40
0.0
 40
0.0
 40
0.0
 40
0.0
 40
0.0926473223511677
 40
0.2779944853481047
 40
0.4639032576879871
 40
0.9999999999999999
 40
0.9999999999999999
 40
0.9999999999999999
 40
0.9999999999999999
 10
349.849784461048
 20
399.3482008343639
 30
0.0
 10
349.7458301112827
 20
399.3215395118295
 30
0.0
 10
349.4339081341617
 20
399.2415404309218
 30
0.0
 10
348.8714800749025
 20
399.102728181132
 30
0.0
 10
347.6984392167724
 20
398.8232885880525
 30
0.0
 10
346.5839149089574
 20
398.6065713291747
 30
0.0
 10
345.7563688050536
 20
398.4456564689286
 30
0.0
  0
SPLINE
  5
FB
330
1F
100
AcDbEntity
  8
0
  6
Continuous
 62
     7
370
    15
100
AcDbSpline
210
0.0
220
0.0
230
1.0
 70
     8
 71
     3
 72
    35
 73
    31
 74
     0
 42
0.00000001
 43
0.00000001
 12
1.0
 22
0.0
 32
0.0
 13
1.0
 23
0.0
 33
0.0
 40
0.0
 40
0.0
 40
0.0
 40
0.0
 40
0.0579567912618063
 40
0.0873822718725691
 40
0.1172400689044221
 40
0.1751682516229524
 40
0.2342455747745957
 40
0.2641269412036957
 40
0.2942045980771266
 40
0.3249379937449263
 40
0.3559331370714438
 40
0.3800053253865185
 40
0.4288034309396864
 40
0.453608098517274
 40
0.4777429176700491
 40
0.5266180521519953
 40
0.5513683577198595
 40
0.5778677018708035
 40
0.6314084470538608
 40
0.6584863455646179
 40
0.6887034072797986
 40
0.7191334348318321
 40
0.750247312865516
 40
0.7816025720837012
 40
0.8409281287373066
 40
0.8710537745020811
 40
0.9016337425630949
 40
0.9598567044919691
 40
0.9894136547054828
 40
1.0
 40
1.0
 40
1.0
 40
1.0
 10
424.0899867537779
 20
377.5641395269204
 30
0.0
 10
424.325179848941
 20
377.6777271749439
 30
0.0
 10
424.6797837967555
 20
377.8489848744275
 30
0.0
 10
425.3353313683212
 20
378.1904032819144
 30
0.0
 10
426.0637725872007
 20
378.5807103982988
 30
0.0
 10
427.1210216496975
 20
379.16742978455
 30
0.0
 10
428.3371954735273
 20
379.8509808078248
 30
0.0
 10
429.4096043095249
 20
380.4313381005018
 30
0.0
 10
430.2712357926284
 20
380.8752689909841
 30
0.0
 10
431.1889818831953
 20
381.3115746834653
 30
0.0
 10
432.0897453905118
 20
381.6912325860794
 30
0.0
 10
433.2223496790803
 20
382.1033895488304
 30
0.0
 10
434.3377845388823
 20
382.4171709576838
 30
0.0
 10
435.476627547277
 20
382.6396485892033
 30
0.0
 10
436.6230611275304
 20
382.804563448737
 30
0.0
 10
437.7667545254988
 20
382.8905043467676
 30
0.0
 10
438.9086291578077
 20
382.9245417496853
 30
0.0
 10
440.0776977729163
 20
382.9321502653031
 30
0.0
 10
441.2227084383214
 20
382.9125985353738
 30
0.0
 10
442.3327872895075
 20
382.8888186540465
 30
0.0
 10
443.165494029994
 20
382.8714063314
 30
0.0
 10
443.9786300015919
 20
382.8575166621776
 30
0.0
 10
444.7360329064046
 20
382.8484907564817
 30
0.0
 10
445.6326689218512
 20
382.8425366644873
 30
0.0
 10
446.3740649801881
 20
382.8426662348019
 30
0.0
 10
446.9449052639425
 20
382.844507442819
 30
0.0
 10
447.3983366997599
 20
382.8465864313762
 30
0.0
 10
447.6669298483546
 20
382.8478355067215
 30
0.0
 10
447.7686563468313
 20
382.847774179173
 30
0.0
 10
447.7573331523382
 20
382.8472592270143
 30
0.0
 10
447.7543470684797
 20
382.8471234269686
 30
0.0
  0
LINE
  5
FC
330
1F
100
AcDbEntity
  8
0
  6
Continuous
 62
     7
370
    15
100
AcDbLine
 10
424.4083849464
 20
374.8089173158
 30
0.0
 11
447.9106845029
 21
379.6712126132
 31
0.0
  0
LINE
  5
FD
330
1F
100
AcDbEntity
  8
0
  6
Continuous
 62
     7
370
    15
100
AcDbLine
 10
447.1340176588
 20
378.4893544943
 30
0.0
 11
425.5902430653
 21
374.0322504717
 31
0.0
  0
SPLINE
  5
FE
330
1F
100
AcDbEntity
  8
0
  6
Continuous
 62
     7
370
    15
100
AcDbSpline
210
0.0
220
0.0
230
1.0
 70
     8
 71
     3
 72
    24
 73
    20
 74
     0
 42
0.00000001
 43
0.00000001
 12
1.0
 22
0.0
 32
0.0
 13
1.0
 23
0.0
 33
0.0
 40
0.0
 40
0.0
 40
0.0
 40
0.0
 40
0.0344846613133976
 40
0.0684575623191695
 40
0.1019567685138462
 40
0.1350219813999425
 40
0.1676944845719502
 40
0.2098000509253088
 40
0.2513338181481686
 40
0.335574381590128
 40
0.4197097824436541
 40
0.5024687185122321
 40
0.5850570900701312
 40
0.6691451402722408
 40
0.7306935614793657
 40
0.7942137282242102
 40
0.8600633422087648
 40
0.9285636142569429
 40
1.0
 40
1.0
 40
1.0
 40
1.0
 10
310.2563958711835
 20
340.5258132777275
 30
0.0
 10
310.2529127204671
 20
340.4150213566302
 30
0.0
 10
310.2459981097922
 20
340.1950816920341
 30
0.0
 10
310.2305683289456
 20
339.8688549243723
 30
0.0
 10
310.2115592006164
 20
339.5486365748955
 30
0.0
 10
310.188665704125
 20
339.2344942830198
 30
0.0
 10
310.1594028616661
 20
338.8956799627134
 30
0.0
 10
310.1223355025582
 20
338.534068715163
 30
0.0
 10
310.0598867295821
 20
338.0200555503177
 30
0.0
 10
309.9652492883319
 20
337.3945430520797
 30
0.0
 10
309.826206189979
 20
336.6876072917409
 30
0.0
 10
309.6665686701742
 20
336.0386599206564
 30
0.0
 10
309.4913654514689
 20
335.4544258406247
 30
0.0
 10
309.3238017514245
 20
334.9852564063747
 30
0.0
 10
309.1703325125212
 20
334.6092412505763
 30
0.0
 10
309.0332372274469
 20
334.3065849748804
 30
0.0
 10
308.8975750716521
 20
334.034691003798
 30
0.0
 10
308.7647636319871
 20
333.790401290116
 30
0.0
 10
308.6849249835116
 20
333.6570472730929
 30
0.0
 10
308.6441680826414
 20
333.5889712653419
 30
0.0
  0
SPLINE
  5
FF
330
1F
100
AcDbEntity
  8
0
  6
Continuous
 62
     7
370
    15
100
AcDbSpline
210
0.0
220
0.0
230
1.0
 70
     8
 71
     3
 72
    10
 73
     6
 74
     0
 42
0.00000001
 43
0.00000001
 12
1.0
 22
0.0
 32
0.0
 13
1.0
 23
0.0
 33
0.0
 40
0.0
 40
0.0
 40
0.0
 40
0.0
 40
0.4265288777363925
 40
0.8655357041713992
 40
1.0
 40
1.0
 40
1.0
 40
1.0
 10
308.0372841412316
 20
332.6216284788516
 30
0.0
 10
308.06076959848
 20
332.6372022044427
 30
0.0
 10
308.10842757157
 20
332.6688052593578
 30
0.0
 10
308.155572695109
 20
332.7152457566988
 30
0.0
 10
308.1756346988958
 20
332.747081691614
 30
0.0
 10
308.1803387251447
 20
332.7545464032695
 30
0.0
  0
SPLINE
  5
100
330
1F
100
AcDbEntity
  8
0
  6
Continuous
 62
     7
370
    15
100
AcDbSpline
210
0.0
220
0.0
230
1.0
 70
     8
 71
     3
 72
    10
 73
     6
 74
     0
 42
0.00000001
 43
0.00000001
 12
1.0
 22
0.0
 32
0.0
 13
1.0
 23
0.0
 33
0.0
 40
0.0
 40
0.0
 40
0.0
 40
0.0
 40
0.5
 40
0.5
 40
1.0
 40
1.0
 40
1.0
 40
1.0
 10
307.5468478448981
 20
332.6244816267933
 30
0.0
 10
307.6246010001823
 20
332.5800612263898
 30
0.0
 10
307.7121250838958
 20
332.5576276733653
 30
0.0
 10
307.8830295534302
 20
332.5578555530648
 30
0.0
 10
307.9662737460348
 20
332.580455742798
 30
0.0
 10
308.0372841412316
 20
332.6216284788516
 30
0.0
  0
SPLINE
  5
101
330
1F
100
AcDbEntity
  8
0
  6
Continuous
 62
     7
370
    15
100
AcDbSpline
210
0.0
220
0.0
230
1.0
 70
     8
 71
     3
 72
    10
 73
     6
 74
     0
 42
0.00000001
 43
0.00000001
 12
1.0
 22
0.0
 32
0.0
 13
1.0
 23
0.0
 33
0.0
 40
0.0
 40
0.0
 40
0.0
 40
0.0
 40
0.572172153884213
 40
0.8796886302335577
 40
1.0
 40
1.0
 40
1.0
 40
1.0
 10
291.150286182516
 20
338.0158825815107
 30
0.0
 10
291.0444819325868
 20
338.1546093476021
 30
0.0
 10
290.8818127165802
 20
338.3678954329371
 30
0.0
 10
290.7879482515522
 20
338.661899690112
 30
0.0
 10
290.7794215894251
 20
338.7912126527432
 30
0.0
 10
290.7770237688779
 20
338.8275773255993
 30
0.0
  0
SPLINE
  5
102
330
1F
100
AcDbEntity
  8
0
  6
Continuous
 62
     7
370
    15
100
AcDbSpline
210
0.0
220
0.0
230
1.0
 70
     8
 71
     3
 72
    10
 73
     6
 74
     0
 42
0.00000001
 43
0.00000001
 12
1.0
 22
0.0
 32
0.0
 13
1.0
 23
0.0
 33
0.0
 40
0.0
 40
0.0
 40
0.0
 40
0.0
 40
0.2294685325365509
 40
0.4988264158155586
 40
1.0
 40
1.0
 40
1.0
 40
1.0
 10
290.7668375352102
 20
339.0494858439404
 30
0.0
 10
290.7730305673439
 20
339.1286576684842
 30
0.0
 10
290.7864931889423
 20
339.3007640441783
 30
0.0
 10
290.8962343372809
 20
339.6343487173679
 30
0.0
 10
291.0657574104801
 20
339.8431153710843
 30
0.0
 10
291.176019599352
 20
339.978902599146
 30
0.0
  0
SPLINE
  5
103
330
1F
100
AcDbEntity
  8
0
  6
Continuous
 62
     7
370
    15
100
AcDbSpline
210
0.0
220
0.0
230
1.0
 70
     8
 71
     3
 72
    22
 73
    18
 74
     0
 42
0.00000001
 43
0.00000001
 12
1.0
 22
0.0
 32
0.0
 13
1.0
 23
0.0
 33
0.0
 40
0.0
 40
0.0
 40
0.0
 40
0.0
 40
0.2499999999999993
 40
0.2499999999999993
 40
0.375
 40
0.375
 40
0.5000000000000007
 40
0.5000000000000007
 40
0.6250000000000013
 40
0.6250000000000013
 40
0.750000000000002
 40
0.750000000000002
 40
0.8125000000000017
 40
0.8125000000000017
 40
0.8750000000000014
 40
0.8750000000000014
 40
1.0
 40
1.0
 40
1.0
 40
1.0
 10
307.5468566568093
 20
332.6244978064802
 30
0.0
 10
307.2141166486213
 20
332.8147132416697
 30
0.0
 10
306.875792177936
 20
332.990849309606
 30
0.0
 10
306.3595485779293
 20
333.2320221091217
 30
0.0
 10
306.1845403269703
 20
333.3091692971991
 30
0.0
 10
305.8390853184802
 20
333.4524129351711
 30
0.0
 10
305.6699279585045
 20
333.5180466738585
 30
0.0
 10
305.3415006087582
 20
333.6376907488134
 30
0.0
 10
305.1817167206746
 20
333.6917602625195
 30
0.0
 10
304.8917103437128
 20
333.7840976558576
 30
0.0
 10
304.7577405664841
 20
333.8235895990782
 30
0.0
 10
304.5901444511699
 20
333.8706605188816
 30
0.0
 10
304.5398523442506
 20
333.8843436254371
 30
0.0
 10
304.4513093072565
 20
333.907955349775
 30
0.0
 10
304.4128001339384
 20
333.917948826154
 30
0.0
 10
304.3205947811294
 20
333.9415732384435
 30
0.0
 10
304.2886129979539
 20
333.9493840660637
 30
0.0
 10
304.2885951127086
 20
333.9494283356954
 30
0.0
  0
SPLINE
  5
104
330
1F
100
AcDbEntity
  8
0
  6
Continuous
 62
     7
370
    15
100
AcDbSpline
210
0.0
220
0.0
230
1.0
 70
     8
 71
     3
 72
    15
 73
    11
 74
     0
 42
0.00000001
 43
0.00000001
 12
1.0
 22
0.0
 32
0.0
 13
1.0
 23
0.0
 33
0.0
 40
0.0
 40
0.0
 40
0.0
 40
0.0
 40
0.0554439642283944
 40
0.2518189876012135
 40
0.4474312305435971
 40
0.5652389231215431
 40
0.5653996769565223
 40
0.691105834878727
 40
0.8320679725205898
 40
1.0
 40
1.0
 40
1.0
 40
1.0
 10
302.5132213244585
 20
334.4030931437046
 30
0.0
 10
302.2945292487951
 20
334.4625259292679
 30
0.0
 10
301.301259415796
 20
334.7324616039473
 30
0.0
 10
299.4654631152709
 20
334.8398670186047
 30
0.0
 10
297.3860831062173
 20
334.957905207352
 30
0.0
 10
296.1305863849399
 20
335.2218850873862
 30
0.0
 10
295.1515104723572
 20
335.3989501999662
 30
0.0
 10
294.1229929731866
 20
335.7944489309965
 30
0.0
 10
292.5661643630734
 20
336.6669998113837
 30
0.0
 10
291.6489352891593
 20
337.5408281102684
 30
0.0
 10
291.1502786117663
 20
338.0158897154075
 30
0.0
  0
SPLINE
  5
105
330
1F
100
AcDbEntity
  8
0
  6
Continuous
 62
     7
370
    15
100
AcDbSpline
210
0.0
220
0.0
230
1.0
 70
     8
 71
     3
 72
    19
 73
    15
 74
     0
 42
0.00000001
 43
0.00000001
 12
1.0
 22
0.0
 32
0.0
 13
1.0
 23
0.0
 33
0.0
 40
0.0102326600000002
 40
0.0102326600000002
 40
0.0102326600000002
 40
0.0102326600000002
 40
0.01689803
 40
0.0183246
 40
0.07468107
 40
0.1962853800000001
 40
0.22700065
 40
0.42428381
 40
0.65601259
 40
0.7063996400000001
 40
0.7705286100000001
 40
0.8209156500000001
 40
0.8599745700000001
 40
1.562694789999904
 40
1.562694789999904
 40
1.562694789999904
 40
1.562694789999904
 10
291.1760397838955
 20
339.9789318671122
 30
0.0
 10
291.1976483370325
 20
340.0003409944911
 30
0.0
 10
291.2237824990393
 20
340.0258805361993
 30
0.0
 10
291.430654590744
 20
340.2251993328003
 30
0.0
 10
292.0331373856682
 20
340.7414514000549
 30
0.0
 10
292.7286053277136
 20
341.1906410732193
 30
0.0
 10
293.9389196266513
 20
341.8329966330803
 30
0.0
 10
295.5451785106043
 20
342.4485129236988
 30
0.0
 10
297.2482013320403
 20
342.8775868890234
 30
0.0
 10
298.4834693661822
 20
343.1399123071611
 30
0.0
 10
299.0729423544996
 20
343.2603520628779
 30
0.0
 10
299.6216942330589
 20
343.3653734273353
 30
0.0
 10
302.4530739175323
 20
343.925617391305
 30
0.0
 10
305.1177622616959
 20
344.3413302948546
 30
0.0
 10
307.6515826107098
 20
344.6582882421691
 30
0.0
  0
SPLINE
  5
106
330
1F
100
AcDbEntity
  8
0
  6
Continuous
 62
     7
370
    15
100
AcDbSpline
210
0.0
220
0.0
230
1.0
 70
     8
 71
     3
 72
     9
 73
     5
 74
     0
 42
0.00000001
 43
0.00000001
 12
1.0
 22
0.0
 32
0.0
 13
1.0
 23
0.0
 33
0.0
 40
0.0
 40
0.0
 40
0.0
 40
0.0
 40
0.535197929189288
 40
1.0
 40
1.0
 40
1.0
 40
1.0
 10
423.4401393779401
 20
377.2728698301231
 30
0.0
 10
423.4618623514329
 20
377.2748581421915
 30
0.0
 10
423.5024510239746
 20
377.278573238906
 30
0.0
 10
423.5397047072685
 20
377.294985468465
 30
0.0
 10
423.5570202964089
 20
377.3026139067506
 30
0.0
  0
LINE
  5
107
330
1F
100
AcDbEntity
  8
0
  6
Continuous
 62
     7
370
    15
100
AcDbLine
 10
354.7006349926
 20
411.5171507435
 30
0.0
 11
354.7006349926
 21
413.7318101745
 31
0.0
  0
LINE
  5
108
330
1F
100
AcDbEntity
  8
0
  6
Continuous
 62
     7
370
    15
100
AcDbLine
 10
354.7006349926
 20
407.5171507435
 30
0.0
 11
354.7006349926
 21
411.5171507435
 31
0.0
  0
SPLINE
  5
109
330
1F
100
AcDbEntity
  8
0
  6
Continuous
 62
     7
370
    15
100
AcDbSpline
210
0.0
220
0.0
230
1.0
 70
     8
 71
     3
 72
     8
 73
     4
 74
     0
 42
0.00000001
 43
0.00000001
 12
1.0
 22
0.0
 32
0.0
 13
1.0
 23
0.0
 33
0.0
 40
0.0
 40
0.0
 40
0.0
 40
0.0
 40
1.0
 40
1.0
 40
1.0
 40
1.0
 10
304.2885951134191
 20
333.949428333937
 30
0.0
 10
304.2886042595393
 20
333.9494056931159
 30
0.0
 10
304.2971035441602
 20
333.9472944463991
 30
0.0
 10
304.3136044907602
 20
333.943161043539
 30
0.0
  0
SPLINE
  5
10A
330
1F
100
AcDbEntity
  8
0
  6
Continuous
 62
     8
370
     0
100
AcDbSpline
210
0.0
220
0.0
230
1.0
 70
     8
 71
     3
 72
    10
 73
     6
 74
     0
 42
0.00000001
 43
0.00000001
 12
1.0
 22
0.0
 32
0.0
 13
1.0
 23
0.0
 33
0.0
 40
0.0
 40
0.0
 40
0.0
 40
0.0
 40
0.5
 40
0.5
 40
1.0
 40
1.0
 40
1.0
 40
1.0
 10
334.8157618221249
 20
397.4592961095747
 30
0.0
 10
334.8633288478228
 20
397.3704453198758
 30
0.0
 10
334.9062179023813
 20
397.1781596164274
 30
0.0
 10
334.965790222252
 20
396.6622617744079
 30
0.0
 10
334.9823038638277
 20
396.340118581813
 30
0.0
 10
334.9823011252206
 20
396.0170614061911
 30
0.0
  0
SPLINE
  5
10B
330
1F
100
AcDbEntity
  8
0
  6
Continuous
 62
     8
370
     0
100
AcDbSpline
210
0.0
220
0.0
230
1.0
 70
     8
 71
     3
 72
    67
 73
    63
 74
     0
 42
0.00000001
 43
0.00000001
 12
1.0
 22
0.0
 32
0.0
 13
1.0
 23
0.0
 33
0.0
 40
0.0
 40
0.0
 40
0.0
 40
0.0
 40
0.0224195424734843
 40
0.0448579474914758
 40
0.0673075302703919
 40
0.0897645639048165
 40
0.1122354170759432
 40
0.1347346813837817
 40
0.1572810792137569
 40
0.1798869736117177
 40
0.2025543390214237
 40
0.2252812531207067
 40
0.2480647762140245
 40
0.2709009340179316
 40
0.2937848648001197
 40
0.3167182484246928
 40
0.3396984946980876
 40
0.3627209423770361
 40
0.3857855602089682
 40
0.4088926902959375
 40
0.4320419167409659
 40
0.4552333005965956
 40
0.4784670411795115
 40
0.5017431933188043
 40
0.5801374522899051
 40
0.6477647818940329
 40
0.7046249149699401
 40
0.7507155789011649
 40
0.7690492646054549
 40
0.7854467287191671
 40
0.7999647964254372
 40
0.8126797564920121
 40
0.8144325208391076
 40
0.8196584244284991
 40
0.8284063122410217
 40
0.8405355325574679
 40
0.8560092991865196
 40
0.8750571319296945
 40
0.879151862406926
 40
0.8833326466168085
 40
0.8876028994815431
 40
0.8919663575493734
 40
0.8964274285244067
 40
0.9009911313128425
 40
0.9056632439663279
 40
0.9104505562909554
 40
0.9153566719172842
 40
0.9203442349765532
 40
0.9254075920386616
 40
0.9305530342462819
 40
0.9357874357875444
 40
0.9411184377815809
 40
0.9465546306417064
 40
0.9521057482088741
 40
0.9577828969293148
 40
0.963569269082505
 40
0.9694195500033953
 40
0.9753425924161745
 40
0.9813498151823098
 40
0.9874534839686999
 40
0.9936661027390098
 40
1.0
 40
1.0
 40
1.0
 40
1.0
 10
334.8157936406702
 20
397.4592366592937
 30
0.0
 10
335.7996160349632
 20
397.4593746797183
 30
0.0
 10
337.7680885564847
 20
397.4596508366903
 30
0.0
 10
340.7251411520066
 20
397.4599789916272
 30
0.0
 10
343.688178745601
 20
397.4601753316198
 30
0.0
 10
346.6586097543253
 20
397.4602490829304
 30
0.0
 10
349.6376878496113
 20
397.4601988429147
 30
0.0
 10
352.6264695336342
 20
397.4600291290305
 30
0.0
 10
355.6254196637864
 20
397.4598325678289
 30
0.0
 10
358.6342441505295
 20
397.4596364392675
 30
0.0
 10
361.6523783209346
 20
397.4594481983278
 30
0.0
 10
364.6790561031447
 20
397.4593011468548
 30
0.0
 10
367.7135507672544
 20
397.4592085776566
 30
0.0
 10
370.7551528483877
 20
397.4591544767919
 30
0.0
 10
373.8034950836576
 20
397.4590945711405
 30
0.0
 10
376.8582726932353
 20
397.4590921886582
 30
0.0
 10
379.9191846769691
 20
397.4591434345211
 30
0.0
 10
382.9858798600243
 20
397.459193528555
 30
0.0
 10
386.0581808640719
 20
397.4592181119264
 30
0.0
 10
389.1360672277615
 20
397.4592437162732
 30
0.0
 10
392.219537624656
 20
397.4592622211188
 30
0.0
 10
395.3085853364659
 20
397.4592692240587
 30
0.0
 10
398.4032232421978
 20
397.459268145271
 30
0.0
 10
403.9486992926942
 20
397.4592854811203
 30
0.0
 10
411.4648870202394
 20
397.4592807706369
 30
0.0
 10
420.4716761513313
 20
397.4593628789929
 30
0.0
 10
428.0440225488006
 20
397.4594575202878
 30
0.0
 10
433.4280406190507
 20
397.4592217263609
 30
0.0
 10
437.015860498833
 20
397.4592893100879
 30
0.0
 10
439.2021395120466
 20
397.4596749088407
 30
0.0
 10
441.1388584711546
 20
397.4594494161114
 30
0.0
 10
442.4243957381168
 20
397.4591424870692
 30
0.0
 10
443.2931504955931
 20
397.4593860470665
 30
0.0
 10
443.9849392640272
 20
397.4595054050441
 30
0.0
 10
445.1237409030911
 20
397.4595171361888
 30
0.0
 10
446.6756263847332
 20
397.4594227640035
 30
0.0
 10
448.5890167790022
 20
397.4592108447511
 30
0.0
 10
450.0792857871201
 20
397.4591696133103
 30
0.0
 10
451.0726641836728
 20
397.4592855668516
 30
0.0
 10
451.5186979881408
 20
397.459325314324
 30
0.0
 10
451.9631402078691
 20
397.459367903375
 30
0.0
 10
452.4052171844795
 20
397.4594067862279
 30
0.0
 10
452.8440956536031
 20
397.459441275297
 30
0.0
 10
453.278932129216
 20
397.4594698714939
 30
0.0
 10
453.7088605090211
 20
397.4594913218003
 30
0.0
 10
454.1328391114433
 20
397.4595043557188
 30
0.0
 10
454.5484293113162
 20
397.4595039287382
 30
0.0
 10
454.9527910560172
 20
397.459495542891
 30
0.0
 10
455.3432500904252
 20
397.4594848109793
 30
0.0
 10
455.7182800490431
 20
397.4594748332573
 30
0.0
 10
456.0765570732629
 20
397.4594686990539
 30
0.0
 10
456.4166847789277
 20
397.4594677150659
 30
0.0
 10
456.7372060473332
 20
397.4594712511216
 30
0.0
 10
457.0365877193743
 20
397.4594767664706
 30
0.0
 10
457.3126960678155
 20
397.4594799995034
 30
0.0
 10
457.5625687727668
 20
397.459476852463
 30
0.0
 10
457.7836054162745
 20
397.4594676338787
 30
0.0
 10
457.9738871123498
 20
397.4594368833514
 30
0.0
 10
458.1323341042171
 20
397.4593874283995
 30
0.0
 10
458.2562841726732
 20
397.4593339375309
 30
0.0
 10
458.347093176566
 20
397.4592911101017
 30
0.0
 10
458.3751246114542
 20
397.4592852638342
 30
0.0
 10
458.3892758091426
 20
397.4592823124445
 30
0.0
  0
SPLINE
  5
10C
330
1F
100
AcDbEntity
  8
0
  6
Continuous
 62
     8
370
     0
100
AcDbSpline
210
0.0
220
0.0
230
1.0
 70
     8
 71
     3
 72
    83
 73
    79
 74
     0
 42
0.00000001
 43
0.00000001
 12
1.0
 22
0.0
 32
0.0
 13
1.0
 23
0.0
 33
0.0
 40
0.0
 40
0.0
 40
0.0
 40
0.0
 40
0.0211955901908238
 40
0.0326127290851051
 40
0.0383256436777705
 40
0.0497612102216483
 40
0.0669393216850871
 40
0.0784086407531462
 40
0.0956403090855983
 40
0.1108350574049407
 40
0.1202899596715833
 40
0.1487308736675458
 40
0.1629980347573675
 40
0.1677610840305095
 40
0.177299337521157
 40
0.1934859629918379
 40
0.2097213651615633
 40
0.2341725488120474
 40
0.2565931346336774
 40
0.2601607326351907
 40
0.2673044639878458
 40
0.2780418079595416
 40
0.2852146323640303
 40
0.2959958648771938
 40
0.3028077520810755
 40
0.3060223029546483
 40
0.3189037300276888
 40
0.3285890613756375
 40
0.3318221229024647
 40
0.3382949049745748
 40
0.3572269501771991
 40
0.3631944371428686
 40
0.3751479657227192
 40
0.3901206046488899
 40
0.3931186931467637
 40
0.3991179111595288
 40
0.4104845814478326
 40
0.4218590298701215
 40
0.4332361711429553
 40
0.4501265701982051
 40
0.4556403957045509
 40
0.4666552531387529
 40
0.4886079871097778
 40
0.4940756792682111
 40
0.5104119031178476
 40
0.5428291134104967
 40
0.5482160595907315
 40
0.5642544368557816
 40
0.5961623904605962
 40
0.6066741424225717
 40
0.6280230603545786
 40
0.6442139181866368
 40
0.6495519844159054
 40
0.6601406473217944
 40
0.6830960613582416
 40
0.7055377647965828
 40
0.7181774691153283
 40
0.7368783140657856
 40
0.7430501179164728
 40
0.749193469953442
 40
0.7698668543292674
 40
0.7734873112876574
 40
0.7843078150635038
 40
0.8058016631867061
 40
0.8129381227545557
 40
0.8312712920647164
 40
0.8404402518441866
 40
0.8496228019055055
 40
0.8680677515199863
 40
0.8773558964226069
 40
0.8867043173860082
 40
0.9061150628866291
 40
0.9259885493035734
 40
0.9327479536009128
 40
0.9535359220943794
 40
0.9828716504929339
 40
0.9985101194742232
 40
1.0
 40
1.0
 40
1.0
 40
1.0
 10
334.9823009662659
 20
396.0171018021518
 30
0.0
 10
334.9848445297853
 20
395.5132909194405
 30
0.0
 10
334.9887581999036
 20
394.7380991139722
 30
0.0
 10
334.9977976166586
 20
393.8271473200072
 30
0.0
 10
335.0058196216219
 20
393.1481946689041
 30
0.0
 10
335.0173476887082
 20
392.3323380519175
 30
0.0
 10
335.0345119725237
 20
391.379724185941
 30
0.0
 10
335.0588138340468
 20
390.2894592605314
 30
0.0
 10
335.0867776539567
 20
389.2464412055032
 30
0.0
 10
335.1190819996413
 20
388.2514592853435
 30
0.0
 10
335.1658965144628
 20
386.990393951115
 30
0.0
 10
335.2211940601184
 20
385.7517148411798
 30
0.0
 10
335.282545331072
 20
384.6250404184359
 30
0.0
 10
335.3225729303775
 20
383.9471859167946
 30
0.0
 10
335.3679993928201
 20
383.2239559469099
 30
0.0
 10
335.437217971227
 20
382.2290283956737
 30
0.0
 10
335.5434579129824
 20
380.8814542924951
 30
0.0
 10
335.6799322176212
 20
379.3877686869208
 30
0.0
 10
335.8082084919608
 20
378.1959017667216
 30
0.0
 10
335.9001365924465
 20
377.4139518662394
 30
0.0
 10
335.9617298548121
 20
376.9079985361037
 30
0.0
 10
336.0378477472613
 20
376.3175457788681
 30
0.0
 10
336.1300191100224
 20
375.642074693315
 30
0.0
 10
336.2140172938686
 20
375.0596707740612
 30
0.0
 10
336.2884120825813
 20
374.5709580952927
 30
0.0
 10
336.3727748200257
 20
374.0333262430685
 30
0.0
 10
336.4722007739452
 20
373.4290058021411
 30
0.0
 10
336.5782688738386
 20
372.8254594649188
 30
0.0
 10
336.6609388935338
 20
372.3724091572442
 30
0.0
 10
336.7862918028257
 20
371.7039717094981
 30
0.0
 10
336.9332457334004
 20
370.9736655878118
 30
0.0
 10
337.1175844403371
 20
370.118531691646
 30
0.0
 10
337.2897792611295
 20
369.3571075433577
 30
0.0
 10
337.4572377634281
 20
368.6672030207292
 30
0.0
 10
337.5973604162551
 20
368.1162868126477
 30
0.0
 10
337.7189714115319
 20
367.6489883045211
 30
0.0
 10
337.8976861005535
 20
366.9915856202646
 30
0.0
 10
338.1210722921736
 20
366.2147660944546
 30
0.0
 10
338.3939440350937
 20
365.3167579116202
 30
0.0
 10
338.6408081451435
 20
364.5567359115881
 30
0.0
 10
338.8964119277452
 20
363.8095483513029
 30
0.0
 10
339.2004854381744
 20
362.9532877451805
 30
0.0
 10
339.5236763904775
 20
362.1067274168238
 30
0.0
 10
339.909993552285
 20
361.1526408949713
 30
0.0
 10
340.4066781925887
 20
359.9800714214125
 30
0.0
 10
340.9424224449518
 20
358.8326377196087
 30
0.0
 10
341.503347885056
 20
357.7134531127101
 30
0.0
 10
342.074636614955
 20
356.6172938316702
 30
0.0
 10
342.7370676713089
 20
355.4480576146696
 30
0.0
 10
343.4883644857163
 20
354.2089745003477
 30
0.0
 10
344.0695928742895
 20
353.2961245005808
 30
0.0
 10
344.6009208511485
 20
352.5054125625458
 30
0.0
 10
345.0032091431199
 20
351.9239052864052
 30
0.0
 10
345.4937393040418
 20
351.2296748200174
 30
0.0
 10
346.2086872972113
 20
350.260530678261
 30
0.0
 10
346.9546335499037
 20
349.3017078135729
 30
0.0
 10
347.6438153943117
 20
348.4482951517065
 30
0.0
 10
348.1213997374757
 20
347.8754485304095
 30
0.0
 10
348.5120912378565
 20
347.4174701185229
 30
0.0
 10
348.9250940073058
 20
346.9386935039333
 30
0.0
 10
349.3005179714598
 20
346.5137975133144
 30
0.0
 10
349.7248014223274
 20
346.0426094694224
 30
0.0
 10
350.1534515689636
 20
345.5719424356926
 30
0.0
 10
350.6084741993361
 20
345.0843189122891
 30
0.0
 10
351.1287685461729
 20
344.5368295436748
 30
0.0
 10
351.4977992061691
 20
344.1548172655678
 30
0.0
 10
351.8686187251755
 20
343.7767485586104
 30
0.0
 10
352.2263084281845
 20
343.4155341912425
 30
0.0
 10
352.5624079941006
 20
343.0809121314552
 30
0.0
 10
352.8739987086877
 20
342.7742348141978
 30
0.0
 10
353.1748062564708
 20
342.4803672766966
 30
0.0
 10
353.5201189329497
 20
342.1467702736447
 30
0.0
 10
353.7917477834131
 20
341.8874237971691
 30
0.0
 10
354.0301727137782
 20
341.6611416948036
 30
0.0
 10
354.264270186
 20
341.4403501786517
 30
0.0
 10
354.4176095391506
 20
341.2969434247731
 30
0.0
 10
354.449580206126
 20
341.267134723632
 30
0.0
 10
354.4506385929618
 20
341.2661034213495
 30
0.0
 10
354.4507306549515
 20
341.2660137152639
 30
0.0
  0
SPLINE
  5
10D
330
1F
100
AcDbEntity
  8
0
  6
Continuous
 62
     8
370
     0
100
AcDbSpline
210
0.0
220
0.0
230
1.0
 70
     8
 71
     3
 72
    10
 73
     6
 74
     0
 42
0.00000001
 43
0.00000001
 12
1.0
 22
0.0
 32
0.0
 13
1.0
 23
0.0
 33
0.0
 40
0.0
 40
0.0
 40
0.0
 40
0.0
 40
0.4999999999999998
 40
0.4999999999999998
 40
1.0
 40
1.0
 40
1.0
 40
1.0
 10
423.4401393779402
 20
377.2728698301232
 30
0.0
 10
423.4400629567355
 20
377.2738555888163
 30
0.0
 10
423.4963763892526
 20
377.2958994819851
 30
0.0
 10
423.7140172736615
 20
377.3901383819182
 30
0.0
 10
423.8753832771649
 20
377.4623217361241
 30
0.0
 10
424.0902440985054
 20
377.5641074477756
 30
0.0
  0
SPLINE
  5
10E
330
1F
100
AcDbEntity
  8
0
  6
Continuous
 62
     8
370
     0
100
AcDbSpline
210
0.0
220
0.0
230
1.0
 70
     8
 71
     3
 72
    25
 73
    21
 74
     0
 42
0.00000001
 43
0.00000001
 12
1.0
 22
0.0
 32
0.0
 13
1.0
 23
0.0
 33
0.0
 40
0.0
 40
0.0
 40
0.0
 40
0.0
 40
0.0437094882360272
 40
0.0877224590399842
 40
0.1326925970762255
 40
0.1779934777640053
 40
0.2660393890459503
 40
0.3106092733560556
 40
0.3559101540427445
 40
0.3996196422855081
 40
0.4885236723079059
 40
0.533824553002451
 40
0.6218704642926526
 40
0.6664403486070704
 40
0.7117412292983124
 40
0.7997072882139945
 40
0.844357232331154
 40
0.8896581130246553
 40
0.9333676012669392
 40
1.0
 40
1.0
 40
1.0
 40
1.0
 10
338.8005121684945
 20
432.3171007594735
 30
0.0
 10
338.1937998315287
 20
432.3171025750756
 30
0.0
 10
336.9761626484727
 20
432.3171062188858
 30
0.0
 10
335.0821794889608
 20
432.3171059308294
 30
0.0
 10
333.1429027161888
 20
432.3171023092273
 30
0.0
 10
330.5510216447501
 20
432.3170937601895
 30
0.0
 10
327.9639981069695
 20
432.3170821282041
 30
0.0
 10
325.44025888201
 20
432.3170712166977
 30
0.0
 10
323.5876063672306
 20
432.3170640948901
 30
0.0
 10
321.1959719166734
 20
432.3170566854463
 30
0.0
 10
318.9357501258136
 20
432.3170529244178
 30
0.0
 10
316.3518526111667
 20
432.3170524384134
 30
0.0
 10
314.4863999206655
 20
432.317054682407
 30
0.0
 10
312.8706160309608
 20
432.3170580968176
 30
0.0
 10
311.4325066624988
 20
432.3170618552877
 30
0.0
 10
310.2722706299992
 20
432.317065558274
 30
0.0
 10
309.4141449282841
 20
432.3170685114313
 30
0.0
 10
308.9349499331045
 20
432.3170702284501
 30
0.0
 10
308.5317259890622
 20
432.3170717124688
 30
0.0
 10
308.5194217127609
 20
432.3170717604535
 30
0.0
 10
308.5119915022842
 20
432.3170717894301
 30
0.0
  0
SPLINE
  5
10F
330
1F
100
AcDbEntity
  8
0
  6
Continuous
 62
     8
370
     0
100
AcDbSpline
210
0.0
220
0.0
230
1.0
 70
     8
 71
     3
 72
    36
 73
    32
 74
     0
 42
0.00000001
 43
0.00000001
 12
1.0
 22
0.0
 32
0.0
 13
1.0
 23
0.0
 33
0.0
 40
0.0
 40
0.0
 40
0.0
 40
0.0
 40
0.0312756678897148
 40
0.0624114906735947
 40
0.0933671196741721
 40
0.1241569443899711
 40
0.1555371336319289
 40
0.1869700797070064
 40
0.2180578621657714
 40
0.2497311024492706
 40
0.3121768282997996
 40
0.3436653203369018
 40
0.3748762160560321
 40
0.4370931272407461
 40
0.4681041603364789
 40
0.4991344203288102
 40
0.5305060674432882
 40
0.5613281313835019
 40
0.591910061541586
 40
0.6234675076776666
 40
0.6547904311657707
 40
0.6865737926901269
 40
0.7180078108632282
 40
0.7496600868038732
 40
0.7807844934250323
 40
0.8123721715695426
 40
0.8436336995344776
 40
0.8749956706764647
 40
0.9369569596458988
 40
0.9990211733241923
 40
1.0
 40
1.0
 40
1.0
 40
1.0
 10
338.5122443301892
 20
433.4789289245499
 30
0.0
 10
338.0959749370171
 20
433.4785892727868
 30
0.0
 10
337.2652974454517
 20
433.4779114879695
 30
0.0
 10
335.9958014690986
 20
433.4792025412142
 30
0.0
 10
334.7187691070812
 20
433.4792396286954
 30
0.0
 10
333.4267115453864
 20
433.4790645822313
 30
0.0
 10
332.1212809154906
 20
433.4788685445888
 30
0.0
 10
330.8092816087196
 20
433.4788084841732
 30
0.0
 10
329.4954515117905
 20
433.4789125517048
 30
0.0
 10
327.7584625543655
 20
433.4789509331784
 30
0.0
 10
326.0371501797376
 20
433.4788831608597
 30
0.0
 10
324.3651939301524
 20
433.4789911234027
 30
0.0
 10
322.7296582907496
 20
433.4791556998279
 30
0.0
 10
321.1560846319084
 20
433.4788882937339
 30
0.0
 10
319.6611289893085
 20
433.4790132455534
 30
0.0
 10
318.5780840947111
 20
433.4791428295432
 30
0.0
 10
317.5417467463993
 20
433.4791085028235
 30
0.0
 10
316.5586478077569
 20
433.4791448592914
 30
0.0
 10
315.6243411931951
 20
433.4791117464474
 30
0.0
 10
314.7402154157141
 20
433.479148173769
 30
0.0
 10
313.9038812496715
 20
433.4790284852123
 30
0.0
 10
313.131288962337
 20
433.4789029150824
 30
0.0
 10
312.4223784021369
 20
433.4789422621784
 30
0.0
 10
311.7862753594937
 20
433.4790236531147
 30
0.0
 10
311.2181793275744
 20
433.4788670137191
 30
0.0
 10
310.7235521172867
 20
433.4787113874311
 30
0.0
 10
310.302786425315
 20
433.4787619001185
 30
0.0
 10
309.8407579233748
 20
433.4788643749093
 30
0.0
 10
309.4812768876761
 20
433.4788138803855
 30
0.0
 10
309.3009520013777
 20
433.4788448827687
 30
0.0
 10
309.3522271704584
 20
433.478840786525
 30
0.0
 10
309.3530232853511
 20
433.4788407229254
 30
0.0
  0
SPLINE
  5
110
330
1F
100
AcDbEntity
  8
0
  6
Continuous
 62
     8
370
     0
100
AcDbSpline
210
0.0
220
0.0
230
1.0
 70
     8
 71
     3
 72
    24
 73
    20
 74
     0
 42
0.00000001
 43
0.00000001
 12
1.0
 22
0.0
 32
0.0
 13
1.0
 23
0.0
 33
0.0
 40
0.0
 40
0.0
 40
0.0
 40
0.0
 40
0.0624992577229347
 40
0.1249985172332778
 40
0.1874977785310291
 40
0.2499970416161885
 40
0.3124963064887558
 40
0.3749955731487306
 40
0.4374948415961126
 40
0.4999941118309017
 40
0.5624933838530978
 40
0.6249926576627004
 40
0.6874919332597096
 40
0.7499912106441252
 40
0.8124904898159466
 40
0.8749897707751738
 40
0.9374890535218064
 40
0.9999883380558445
 40
1.0
 40
1.0
 40
1.0
 40
1.0
 10
334.8157697170585
 20
397.4592401671739
 30
0.0
 10
334.0338693450928
 20
397.459240216293
 30
0.0
 10
332.4700685787998
 20
397.4592403145311
 30
0.0
 10
330.1020595543894
 20
397.4592405039651
 30
0.0
 10
327.7525153653924
 20
397.459240718902
 30
0.0
 10
325.4451613385257
 20
397.4592409580571
 30
0.0
 10
323.2077433767835
 20
397.4592412156879
 30
0.0
 10
321.0659863818297
 20
397.4592414869566
 30
0.0
 10
319.0448296349119
 20
397.4592417665671
 30
0.0
 10
317.1677202222295
 20
397.4592420492073
 30
0.0
 10
315.4564746083628
 20
397.4592423295057
 30
0.0
 10
313.9309069386666
 20
397.4592426021349
 30
0.0
 10
312.6089385936408
 20
397.459242861813
 30
0.0
 10
311.5051499219364
 20
397.4592431035642
 30
0.0
 10
310.6352319673002
 20
397.4592433220441
 30
0.0
 10
309.9985603038241
 20
397.4592435143277
 30
0.0
 10
309.6425571067962
 20
397.4592436697754
 30
0.0
 10
309.4954820939079
 20
397.4592437620009
 30
0.0
 10
309.5378989672199
 20
397.4592437899624
 30
0.0
 10
309.5379068804452
 20
397.4592437899676
 30
0.0
  0
SPLINE
  5
111
330
1F
100
AcDbEntity
  8
0
  6
Continuous
 62
     8
370
     0
100
AcDbSpline
210
0.0
220
0.0
230
1.0
 70
     8
 71
     3
 72
    38
 73
    34
 74
     0
 42
0.00000001
 43
0.00000001
 12
1.0
 22
0.0
 32
0.0
 13
1.0
 23
0.0
 33
0.0
 40
0.0
 40
0.0
 40
0.0
 40
0.0
 40
0.0625000000000012
 40
0.0625000000000012
 40
0.1250000000000025
 40
0.1250000000000025
 40
0.2500000000000046
 40
0.2500000000000046
 40
0.3125000000000057
 40
0.3125000000000057
 40
0.3750000000000067
 40
0.3750000000000067
 40
0.4375000000000077
 40
0.4375000000000077
 40
0.4687500000000077
 40
0.4687500000000077
 40
0.5000000000000077
 40
0.5000000000000077
 40
0.625000000000006
 40
0.625000000000006
 40
0.6875000000000053
 40
0.6875000000000053
 40
0.7187500000000042
 40
0.7187500000000042
 40
0.7500000000000032
 40
0.7500000000000032
 40
0.7812500000000022
 40
0.7812500000000022
 40
0.8125000000000011
 40
0.8125000000000011
 40
0.8750000000000004
 40
0.8750000000000004
 40
1.0
 40
1.0
 40
1.0
 40
1.0
 10
410.8320820820909
 20
431.5738416686111
 30
0.0
 10
410.8326277762926
 20
431.5734531835695
 30
0.0
 10
410.8013087106612
 20
431.5733934245392
 30
0.0
 10
410.6653694744898
 20
431.578247218411
 30
0.0
 10
410.5612111246979
 20
431.5823250204785
 30
0.0
 10
410.143313736134
 20
431.5963759002961
 30
0.0
 10
409.7346787509653
 20
431.610151871167
 30
0.0
 10
408.9282187167087
 20
431.6351305455581
 30
0.0
 10
408.6255365925293
 20
431.6443519557226
 30
0.0
 10
407.9586457554818
 20
431.6656518504749
 30
0.0
 10
407.5982576582009
 20
431.6776283165519
 30
0.0
 10
406.8249871902374
 20
431.7047463343997
 30
0.0
 10
406.4121361390102
 20
431.7198572298512
 30
0.0
 10
405.7522303225239
 20
431.7450433750027
 30
0.0
 10
405.5254595176535
 20
431.7538647147774
 30
0.0
 10
405.0577884913303
 20
431.7724067270973
 30
0.0
 10
404.816891385817
 20
431.7821287964162
 30
0.0
 10
403.5929569901186
 20
431.8322794941486
 30
0.0
 10
402.5418765965039
 20
431.8785144028269
 30
0.0
 10
400.8475159895573
 20
431.949812112578
 30
0.0
 10
400.2591551485705
 20
431.9744646744163
 30
0.0
 10
399.3734209393308
 20
432.0053068425873
 30
0.0
 10
399.0756664300379
 20
432.0137352233029
 30
0.0
 10
398.4730686912121
 20
432.0271556904514
 30
0.0
 10
398.1678402472982
 20
432.0322805315975
 30
0.0
 10
397.562564582961
 20
432.04449338949
 30
0.0
 10
397.2642036371847
 20
432.0519235728033
 30
0.0
 10
396.679997601643
 20
432.065607659632
 30
0.0
 10
396.3937647862269
 20
432.0715382744359
 30
0.0
 10
395.5424574673299
 20
432.0832816058744
 30
0.0
 10
394.9819279080835
 20
432.0851993155633
 30
0.0
 10
393.3021229004688
 20
432.0890637099562
 30
0.0
 10
392.1861579323159
 20
432.0875694217759
 30
0.0
 10
391.0693136318774
 20
432.0870063799669
 30
0.0
  0
SPLINE
  5
112
330
1F
100
AcDbEntity
  8
0
  6
Continuous
 62
     8
370
     0
100
AcDbSpline
210
0.0
220
0.0
230
1.0
 70
     8
 71
     3
 72
    30
 73
    26
 74
     0
 42
0.00000001
 43
0.00000001
 12
1.0
 22
0.0
 32
0.0
 13
1.0
 23
0.0
 33
0.0
 40
0.0
 40
0.0
 40
0.0
 40
0.0
 40
0.1250000000000002
 40
0.1250000000000002
 40
0.2500000000000004
 40
0.2500000000000004
 40
0.3750000000000006
 40
0.3750000000000006
 40
0.5000000000000008
 40
0.5000000000000008
 40
0.6250000000000006
 40
0.6250000000000006
 40
0.6875000000000004
 40
0.6875000000000004
 40
0.7500000000000002
 40
0.7500000000000002
 40
0.8125000000000001
 40
0.8125000000000001
 40
0.8437500000000002
 40
0.8437500000000002
 40
0.8750000000000001
 40
0.8750000000000001
 40
0.9375000000000001
 40
0.9375000000000001
 40
1.0
 40
1.0
 40
1.0
 40
1.0
 10
391.0693136318773
 20
432.087006379967
 30
0.0
 10
388.8592720088573
 20
432.0858922176507
 30
0.0
 10
386.6492573081215
 20
432.0855334614383
 30
0.0
 10
382.229320545844
 20
432.0896980580245
 30
0.0
 10
380.0193769610466
 20
432.0928697776399
 30
0.0
 10
375.59903788503
 20
432.1011695556542
 30
0.0
 10
373.3886414537445
 20
432.1045760207418
 30
0.0
 10
368.9681112391066
 20
432.1138615891879
 30
0.0
 10
366.7580683230195
 20
432.1202416986187
 30
0.0
 10
362.3393410771637
 20
432.1357312366861
 30
0.0
 10
360.1280339799259
 20
432.1465891249572
 30
0.0
 10
356.8244324504928
 20
432.1642457418297
 30
0.0
 10
355.7256431503408
 20
432.1701997399602
 30
0.0
 10
353.5374325494525
 20
432.1838397701874
 30
0.0
 10
352.4478456620379
 20
432.1915312667032
 30
0.0
 10
350.2891052783712
 20
432.2150402068747
 30
0.0
 10
349.2206483766604
 20
432.22939431601
 30
0.0
 10
347.6371476591635
 20
432.2481137469071
 30
0.0
 10
347.1150903194944
 20
432.2539338892864
 30
0.0
 10
346.081074376108
 20
432.2661746562071
 30
0.0
 10
345.568007048904
 20
432.2723773934404
 30
0.0
 10
344.0268259580981
 20
432.2873344935983
 30
0.0
 10
342.9973790802311
 20
432.2957645713711
 30
0.0
 10
340.9148317468498
 20
432.3103128025497
 30
0.0
 10
339.8629898994962
 20
432.3152380259593
 30
0.0
 10
338.8001611019545
 20
432.3170187528477
 30
0.0
  0
SPLINE
  5
113
330
1F
100
AcDbEntity
  8
0
  6
Continuous
 62
     8
370
     0
100
AcDbSpline
210
0.0
220
0.0
230
1.0
 70
     8
 71
     3
 72
    56
 73
    52
 74
     0
 42
0.00000001
 43
0.00000001
 12
1.0
 22
0.0
 32
0.0
 13
1.0
 23
0.0
 33
0.0
 40
0.0
 40
0.0
 40
0.0
 40
0.0
 40
0.0100508658011709
 40
0.0198587145404075
 40
0.0294271369496168
 40
0.0387575930095919
 40
0.0478499830140593
 40
0.0567029588206968
 40
0.0653144926774469
 40
0.0736827090298828
 40
0.0818064480694319
 40
0.0896840983932409
 40
0.0973053774519278
 40
0.1046689181114457
 40
0.1117802298918917
 40
0.1186468703941323
 40
0.1252730563145381
 40
0.14326916413638
 40
0.1646988240028305
 40
0.1896695889604937
 40
0.2183093698920928
 40
0.2506536487375788
 40
0.2856456043358983
 40
0.3386788462168392
 40
0.4097568702853616
 40
0.4989192437073594
 40
0.5361905357956462
 40
0.6240590245070299
 40
0.653717519674491
 40
0.6869552805209103
 40
0.6972559057867825
 40
0.7086305643444696
 40
0.7210895503102716
 40
0.7346813553005995
 40
0.7495207461131591
 40
0.7604705850662925
 40
0.7851402967937564
 40
0.7989135677374223
 40
0.8119294231325472
 40
0.8395257027750839
 40
0.8743842923892379
 40
0.88645527224775
 40
0.8987145838800402
 40
0.9110306947911417
 40
0.9233766959130522
 40
0.935810161499633
 40
0.9483901565808853
 40
0.9611638325602117
 40
0.9740109603623155
 40
0.9869435742281125
 40
0.9999999999999999
 40
0.9999999999999999
 40
0.9999999999999999
 40
0.9999999999999999
 10
338.5122531483209
 20
433.4790322588668
 30
0.0
 10
338.7686274094839
 20
433.4790669577902
 30
0.0
 10
339.2751771305391
 20
433.4791355166616
 30
0.0
 10
340.0216643606419
 20
433.4791930819756
 30
0.0
 10
340.7469336568129
 20
433.4792220486794
 30
0.0
 10
341.4509087725195
 20
433.4792258297358
 30
0.0
 10
342.1338305929406
 20
433.4792131670935
 30
0.0
 10
342.7959138049115
 20
433.4791942334735
 30
0.0
 10
343.4375658945789
 20
433.4791784230899
 30
0.0
 10
344.0593749133106
 20
433.479167879071
 30
0.0
 10
344.6620585825262
 20
433.4791518455003
 30
0.0
 10
345.2459815379648
 20
433.4791348315018
 30
0.0
 10
345.8118611355609
 20
433.4790852954243
 30
0.0
 10
346.3609588293846
 20
433.4790537058788
 30
0.0
 10
346.8944575040774
 20
433.4790457419736
 30
0.0
 10
347.413196134812
 20
433.4790521767954
 30
0.0
 10
348.2118522284962
 20
433.4790862353615
 30
0.0
 10
349.3966312399303
 20
433.4790593839785
 30
0.0
 10
351.0849917122017
 20
433.4788978399769
 30
0.0
 10
353.0804056046272
 20
433.4788630526426
 30
0.0
 10
355.3822839426034
 20
433.4789913284932
 30
0.0
 10
357.9611996286609
 20
433.4791691534824
 30
0.0
 10
361.2009911072396
 20
433.4791332121815
 30
0.0
 10
365.4877948998854
 20
433.4790586254686
 30
0.0
 10
371.2367682213097
 20
433.4790515826333
 30
0.0
 10
376.5614024072666
 20
433.4792507613686
 30
0.0
 10
382.3380443590796
 20
433.4790649667081
 30
0.0
 10
386.5104042663227
 20
433.4790437752376
 30
0.0
 10
390.5742740011787
 20
433.4791043154848
 30
0.0
 10
392.5473125304192
 20
433.4789336234981
 30
0.0
 10
394.027470156077
 20
433.4789233905174
 30
0.0
 10
394.9474977074255
 20
433.4790885093475
 30
0.0
 10
395.9561330871756
 20
433.4793221006165
 30
0.0
 10
397.0577411856971
 20
433.4791162264602
 30
0.0
 10
398.1165705206343
 20
433.4788490775574
 30
0.0
 10
399.4531656866757
 20
433.4793994529011
 30
0.0
 10
400.7313546373462
 20
433.4789573286431
 30
0.0
 10
402.0046160782391
 20
433.4788159456709
 30
0.0
 10
403.3013839482944
 20
433.479015646494
 30
0.0
 10
404.9856986112888
 20
433.4790746215096
 30
0.0
 10
406.4292713376545
 20
433.4789199929589
 30
0.0
 10
407.4125980196511
 20
433.4789356431021
 30
0.0
 10
407.9674798053737
 20
433.478954725972
 30
0.0
 10
408.4687650791215
 20
433.4789877543749
 30
0.0
 10
408.9120282625261
 20
433.4790046418775
 30
0.0
 10
409.295379308433
 20
433.4789859970165
 30
0.0
 10
409.616775223964
 20
433.478961765426
 30
0.0
 10
409.8730677685875
 20
433.4789358739997
 30
0.0
 10
410.0586274713364
 20
433.478882992814
 30
0.0
 10
410.1720060570469
 20
433.4788660657255
 30
0.0
 10
410.1837879949068
 20
433.4788979951358
 30
0.0
 10
410.1897070284402
 20
433.4789140358969
 30
0.0
  0
ARC
  5
114
330
1F
100
AcDbEntity
  8
0
  6
Continuous
 62
     8
370
     0
100
AcDbCircle
 10
309.9670344888
 20
342.5030400365
 30
0.0
 40
2.018827557767902
100
AcDbArc
 50
265.139631082
 51
279.321376703
  0
SPLINE
  5
115
330
1F
100
AcDbEntity
  8
0
  6
Continuous
 62
     8
370
     0
100
AcDbSpline
210
0.0
220
0.0
230
1.0
 70
     8
 71
     3
 72
    44
 73
    40
 74
     0
 42
0.00000001
 43
0.00000001
 12
1.0
 22
0.0
 32
0.0
 13
1.0
 23
0.0
 33
0.0
 40
0.0
 40
0.0
 40
0.0
 40
0.0
 40
0.2499999999999984
 40
0.2499999999999984
 40
0.3749999999999976
 40
0.3749999999999976
 40
0.4374999999999972
 40
0.4374999999999972
 40
0.4999999999999969
 40
0.4999999999999969
 40
0.5624999999999966
 40
0.5624999999999966
 40
0.5937499999999963
 40
0.5937499999999963
 40
0.6093749999999962
 40
0.6093749999999962
 40
0.624999999999996
 40
0.624999999999996
 40
0.640624999999996
 40
0.640624999999996
 40
0.6562499999999958
 40
0.6562499999999958
 40
0.687499999999996
 40
0.687499999999996
 40
0.7031249999999962
 40
0.7031249999999962
 40
0.7187499999999964
 40
0.7187499999999964
 40
0.7499999999999969
 40
0.7499999999999969
 40
0.8124999999999977
 40
0.8124999999999977
 40
0.8749999999999984
 40
0.8749999999999984
 40
0.9374999999999992
 40
0.9374999999999992
 40
0.9687499999999996
 40
0.9687499999999996
 40
1.0
 40
1.0
 40
1.0
 40
1.0
 10
309.5826265881336
 20
341.7365684829419
 30
0.0
 10
307.4940011671929
 20
341.4881209444451
 30
0.0
 10
305.4043632634817
 20
341.2439479437679
 30
0.0
 10
302.2668291755277
 20
340.8934387627876
 30
0.0
 10
301.2201097396112
 20
340.7791202381341
 30
0.0
 10
299.6512191455117
 20
340.6049292566543
 30
0.0
 10
299.1282593675494
 20
340.5464652144663
 30
0.0
 10
298.0797851035944
 20
340.4299003005725
 30
0.0
 10
297.5542057968057
 20
340.3717468135949
 30
0.0
 10
296.4984135116217
 20
340.2589512586039
 30
0.0
 10
295.9669227837805
 20
340.203958487583
 30
0.0
 10
295.1678175655024
 20
340.1311813709038
 30
0.0
 10
294.901149745854
 20
340.1086179600641
 30
0.0
 10
294.5019905917222
 20
340.0800450855218
 30
0.0
 10
294.3691394029049
 20
340.0714174123061
 30
0.0
 10
294.1032827580142
 20
340.0565530891748
 30
0.0
 10
293.9697040970757
 20
340.0503220297689
 30
0.0
 10
293.7104395431367
 20
340.0411652483939
 30
0.0
 10
293.5850776654611
 20
340.0382231563807
 30
0.0
 10
293.3422175418805
 20
340.0349671835219
 30
0.0
 10
293.2245127814568
 20
340.0347386538571
 30
0.0
 10
292.8955966489157
 20
340.0372842279074
 30
0.0
 10
292.71182747941
 20
340.0428585132719
 30
0.0
 10
292.4742856770953
 20
340.0505783960176
 30
0.0
 10
292.4017353968953
 20
340.0530539673982
 30
0.0
 10
292.2702158426124
 20
340.0572063916822
 30
0.0
 10
292.2106042942746
 20
340.0589284257549
 30
0.0
 10
292.0458156103737
 20
340.0626556994012
 30
0.0
 10
291.9541058401977
 20
340.0631346081861
 30
0.0
 10
291.7138733172986
 20
340.0597568534316
 30
0.0
 10
291.6002009627545
 20
340.0511748948627
 30
0.0
 10
291.4216499745078
 20
340.0313404813596
 30
0.0
 10
291.3577870071734
 20
340.0199710662042
 30
0.0
 10
291.2608267541862
 20
340.0002891527495
 30
0.0
 10
291.2281233090166
 20
339.9921740618043
 30
0.0
 10
291.1964182352872
 20
339.9842014918213
 30
0.0
 10
291.1887864516271
 20
339.982179066749
 30
0.0
 10
291.1784990486744
 20
339.9794469956096
 30
0.0
 10
291.1759310886607
 20
339.978778629888
 30
0.0
 10
291.176019613299
 20
339.9789026129626
 30
0.0
  0
SPLINE
  5
116
330
1F
100
AcDbEntity
  8
0
  6
Continuous
 62
     8
370
     0
100
AcDbSpline
210
0.0
220
0.0
230
1.0
 70
     8
 71
     3
 72
    27
 73
    23
 74
     0
 42
0.00000001
 43
0.00000001
 12
1.0
 22
0.0
 32
0.0
 13
1.0
 23
0.0
 33
0.0
 40
0.0
 40
0.0
 40
0.0
 40
0.0
 40
0.0703800257120076
 40
0.1342840940927816
 40
0.1937448420095854
 40
0.249934423719259
 40
0.3082794792267131
 40
0.3749003531516283
 40
0.4124081488714424
 40
0.4685741658097879
 40
0.530717576201102
 40
0.5622382183479058
 40
0.6310724145235618
 40
0.687425695293043
 40
0.7505543416662533
 40
0.8125935646680597
 40
0.8518744975957487
 40
0.8919365809051009
 40
0.9377290011186245
 40
0.9579064943313129
 40
0.9794192009519885
 40
1.0
 40
1.0
 40
1.0
 40
1.0
 10
309.7959837741374
 20
340.4914719928249
 30
0.0
 10
309.3031697600619
 20
340.4224837598402
 30
0.0
 10
308.3628875881407
 20
340.2908551865954
 30
0.0
 10
307.0083612790056
 20
340.086605607993
 30
0.0
 10
305.7551626178462
 20
339.8843198013458
 30
0.0
 10
304.5432568376847
 20
339.6743641728447
 30
0.0
 10
303.2847719437208
 20
339.4393468275944
 30
0.0
 10
302.1595035375091
 20
339.2142036495953
 30
0.0
 10
301.0503100120019
 20
338.9904250250394
 30
0.0
 10
299.9722797907322
 20
338.7741241188411
 30
0.0
 10
298.9345499651227
 20
338.5731384653071
 30
0.0
 10
297.8113107864498
 20
338.3510226604164
 30
0.0
 10
296.7324825896972
 20
338.1249319779058
 30
0.0
 10
295.4566988501329
 20
337.8330227358845
 30
0.0
 10
294.2658408050805
 20
337.5659666307102
 30
0.0
 10
293.2898585081949
 20
337.4627617923227
 30
0.0
 10
292.6080640836541
 20
337.5006688186087
 30
0.0
 10
292.1421278449902
 20
337.5876531127287
 30
0.0
 10
291.8691540818946
 20
337.670989185574
 30
0.0
 10
291.6990696372364
 20
337.7331391415288
 30
0.0
 10
291.5963132022421
 20
337.7753319521891
 30
0.0
 10
291.5413156348866
 20
337.8002467791255
 30
0.0
 10
291.5144256464218
 20
337.8124283980795
 30
0.0
  0
SPLINE
  5
117
330
1F
100
AcDbEntity
  8
0
  6
Continuous
 62
     8
370
     0
100
AcDbSpline
210
0.0
220
0.0
230
1.0
 70
     8
 71
     3
 72
     9
 73
     5
 74
     0
 42
0.00000001
 43
0.00000001
 12
1.0
 22
0.0
 32
0.0
 13
1.0
 23
0.0
 33
0.0
 40
0.0
 40
0.0
 40
0.0
 40
0.0
 40
0.7117259745687722
 40
0.9999999999999999
 40
0.9999999999999999
 40
0.9999999999999999
 40
0.9999999999999999
 10
291.5140753525062
 20
337.8126565450266
 30
0.0
 10
291.3897255342288
 20
337.8790891741146
 30
0.0
 10
291.2150096706511
 20
337.9724293520226
 30
0.0
 10
291.1967739430372
 20
337.9858567748205
 30
0.0
 10
291.1915170564312
 20
337.9897275520416
 30
0.0
  0
ARC
  5
118
330
1F
100
AcDbEntity
  8
0
  6
Continuous
 62
     8
370
     0
100
AcDbCircle
 10
309.7223335493
 20
341.3512874335
 30
0.0
 40
0.4098291032596363
100
AcDbArc
 50
35.1652084637
 51
109.9311607896
  0
LINE
  5
119
330
1F
100
AcDbEntity
  8
0
  6
Continuous
 62
     8
370
     0
100
AcDbLine
 10
304.2885951128
 20
333.9494283341
 30
0.0
 11
302.5132213245
 21
334.4030931437
 31
0.0
  0
LINE
  5
11A
330
1F
100
AcDbEntity
  8
0
  6
Continuous
 62
     8
370
     0
100
AcDbLine
 10
355.3011823625
 20
407.7357321104
 30
0.0
 11
355.3011823625
 21
415.2985693765
 31
0.0
  0
SPLINE
  5
11B
330
1F
100
AcDbEntity
  8
0
  6
Continuous
 62
     7
370
    15
100
AcDbSpline
210
0.0
220
0.0
230
1.0
 70
     8
 71
     3
 72
    23
 73
    19
 74
     0
 42
0.00000001
 43
0.00000001
 12
1.0
 22
0.0
 32
0.0
 13
1.0
 23
0.0
 33
0.0
 40
0.0
 40
0.0
 40
0.0
 40
0.0
 40
0.030403598291304
 40
0.138129882178557
 40
0.202109279427976
 40
0.2643227019994289
 40
0.3241773101777356
 40
0.3815878068881231
 40
0.4424011270605544
 40
0.5028048458881229
 40
0.5659137588949843
 40
0.6300413587946379
 40
0.6948857492374305
 40
0.7600178770314898
 40
0.8248745583354479
 40
0.8891554945145754
 40
0.9518198527489112
 40
1.0
 40
1.0
 40
1.0
 40
1.0
 10
169.5362430258946
 20
148.8295458436348
 30
0.0
 10
169.5425493150198
 20
148.5439075418039
 30
0.0
 10
169.5712001005452
 20
147.246193218665
 30
0.0
 10
169.6123839570466
 20
145.3480314926668
 30
0.0
 10
169.7002741717259
 20
143.1496829234335
 30
0.0
 10
169.9710383089925
 20
141.4183413547109
 30
0.0
 10
170.4049931407878
 20
139.7854295280002
 30
0.0
 10
171.0164408158826
 20
138.2235006814321
 30
0.0
 10
171.8192506703752
 20
136.7445520604436
 30
0.0
 10
172.8159966478044
 20
135.3236689503836
 30
0.0
 10
173.989081637994
 20
134.0019835825603
 30
0.0
 10
175.3364632186384
 20
132.7950720547195
 30
0.0
 10
176.8286521890912
 20
131.7390745393654
 30
0.0
 10
178.4388111563176
 20
130.8591620545364
 30
0.0
 10
180.1362939945321
 20
130.1752133689023
 30
0.0
 10
181.8806010773222
 20
129.7072969013142
 30
0.0
 10
183.5148439150962
 20
129.4681145777382
 30
0.0
 10
184.5571322939587
 20
129.4577252273704
 30
0.0
 10
185.0101778224833
 20
129.4532093478654
 30
0.0
  0
LINE
  5
11C
330
1F
100
AcDbEntity
  8
0
  6
Continuous
 62
     7
370
    15
100
AcDbLine
 10
169.5234172297
 20
149.4112165789
 30
0.0
 11
169.5362430259
 21
148.8295458436
 31
0.0
  0
LINE
  5
11D
330
1F
100
AcDbEntity
  8
0
  6
Continuous
 62
     7
370
    15
100
AcDbLine
 10
200.4692626111
 20
148.2605758612
 30
0.0
 11
200.4897086754
 21
149.2171085262
 31
0.0
  0
SPLINE
  5
11E
330
1F
100
AcDbEntity
  8
0
  6
Continuous
 62
     7
370
    15
100
AcDbSpline
210
0.0
220
0.0
230
1.0
 70
     8
 71
     3
 72
    23
 73
    19
 74
     0
 42
0.00000001
 43
0.00000001
 12
1.0
 22
0.0
 32
0.0
 13
1.0
 23
0.0
 33
0.0
 40
0.0
 40
0.0
 40
0.0
 40
0.0
 40
0.0372421984568547
 40
0.0973637698051522
 40
0.1618505050519528
 40
0.2245082054231995
 40
0.2893441525995132
 40
0.3550287881118187
 40
0.4212343977196378
 40
0.4874453166163818
 40
0.5531667578589674
 40
0.6181522912034957
 40
0.6812354454547502
 40
0.7423628603353393
 40
0.8062568133952646
 40
0.8717162300950303
 40
0.9402293613524395
 40
0.9999999999999999
 40
0.9999999999999999
 40
0.9999999999999999
 40
0.9999999999999999
 10
185.0097127805041
 20
129.4612623230299
 30
0.0
 10
185.3527876314953
 20
129.4585605519837
 30
0.0
 10
186.2497019438053
 20
129.4514972038168
 30
0.0
 10
187.7337685398643
 20
129.6350479653215
 30
0.0
 10
189.4155693200727
 20
130.0288510682147
 30
0.0
 10
191.0798822459385
 20
130.6362919898642
 30
0.0
 10
192.6748125780655
 20
131.4318152970997
 30
0.0
 10
194.1960687956486
 20
132.4222221826832
 30
0.0
 10
195.6037748100005
 20
133.588255206628
 30
0.0
 10
196.8674979147108
 20
134.9097526271379
 30
0.0
 10
197.9591141462315
 20
136.3625079324634
 30
0.0
 10
198.8562615418493
 20
137.9101935673176
 30
0.0
 10
199.5285556742537
 20
139.5224633503626
 30
0.0
 10
199.9992988438896
 20
141.1923989643065
 30
0.0
 10
200.2961124351007
 20
142.9251973764607
 30
0.0
 10
200.3868537530015
 20
144.7467195363672
 30
0.0
 10
200.4338453311919
 20
146.529457169489
 30
0.0
 10
200.4580056910917
 20
147.7103623853291
 30
0.0
 10
200.4692626111388
 20
148.260575861167
 30
0.0
  0
LINE
  5
11F
330
1F
100
AcDbEntity
  8
0
  6
Continuous
 62
     7
370
    15
100
AcDbLine
 10
206.3461988818
 20
195.6786898374
 30
0.0
 11
206.4584761336
 21
196.5802349233
 31
0.0
  0
SPLINE
  5
120
330
1F
100
AcDbEntity
  8
0
  6
Continuous
 62
     7
370
    15
100
AcDbSpline
210
0.0
220
0.0
230
1.0
 70
     8
 71
     3
 72
    26
 73
    22
 74
     0
 42
0.00000001
 43
0.00000001
 12
1.0
 22
0.0
 32
0.0
 13
1.0
 23
0.0
 33
0.0
 40
0.0
 40
0.0
 40
0.0
 40
0.0
 40
0.0282872086395789
 40
0.0616616335006857
 40
0.0934839271988086
 40
0.1258788570723743
 40
0.1587230545249496
 40
0.191789088346016
 40
0.2247548757608417
 40
0.2573381590516536
 40
0.2896400299953064
 40
0.3223487270024494
 40
0.3550877606105195
 40
0.3876086897840167
 40
0.4197559640586906
 40
0.4511307069700669
 40
0.4815685134811801
 40
0.5219632178492433
 40
0.5867125328265533
 40
0.7350230950444271
 40
1.0
 40
1.0
 40
1.0
 40
1.0
 10
185.0086470932563
 20
81.05107758893332
 30
0.0
 10
185.5847532324181
 20
81.0606759304163
 30
0.0
 10
186.8405733475492
 20
81.08159879425483
 30
0.0
 10
188.7279252801058
 20
81.3674740090476
 30
0.0
 10
190.6537554641012
 20
81.86497057200698
 30
0.0
 10
192.5072465441343
 20
82.55957131401054
 30
0.0
 10
194.3015970786095
 20
83.4527111334259
 30
0.0
 10
196.0028747820529
 20
84.53464412604086
 30
0.0
 10
197.5765272114188
 20
85.78677039372381
 30
0.0
 10
198.9937303687412
 20
87.19156814738594
 30
0.0
 10
200.2503594863595
 20
88.73458451460861
 30
0.0
 10
201.340068595515
 20
90.40354422892774
 30
0.0
 10
202.2484907162051
 20
92.18297609763736
 30
0.0
 10
202.9543507939326
 20
94.03959396903144
 30
0.0
 10
203.4482198256175
 20
95.93570817913735
 30
0.0
 10
203.7068882383463
 20
97.83397051911818
 30
0.0
 10
203.8285459227666
 20
99.91157680631905
 30
0.0
 10
203.865020070151
 20
102.6711479879101
 30
0.0
 10
203.9948712398986
 20
107.8280499458293
 30
0.0
 10
204.2232814895704
 20
117.5550312833032
 30
0.0
 10
204.3831875828703
 20
125.965240651432
 30
0.0
 10
204.4857104635565
 20
131.3573984723221
 30
0.0
  0
SPLINE
  5
121
330
1F
100
AcDbEntity
  8
0
  6
Continuous
 62
     7
370
    15
100
AcDbSpline
210
0.0
220
0.0
230
1.0
 70
     8
 71
     3
 72
    25
 73
    21
 74
     0
 42
0.00000001
 43
0.00000001
 12
1.0
 22
0.0
 32
0.0
 13
1.0
 23
0.0
 33
0.0
 40
0.0
 40
0.0
 40
0.0
 40
0.0
 40
0.2302303424276618
 40
0.3154663371454973
 40
0.3665480213603141
 40
0.4076900629858827
 40
0.4472997136395479
 40
0.4889161028061482
 40
0.5308128986377899
 40
0.5734169616289883
 40
0.6165645832310708
 40
0.6600201381888173
 40
0.703509001868979
 40
0.7465390374140917
 40
0.789935660864854
 40
0.8337891996236124
 40
0.8777442778326293
 40
0.9213787812488132
 40
0.9643815846289595
 40
1.0
 40
1.0
 40
1.0
 40
1.0
 10
165.8474183598406
 20
116.1968521066807
 30
0.0
 10
165.9232484474227
 20
112.675463675837
 30
0.0
 10
166.0271523886786
 20
107.8503850253381
 30
0.0
 10
166.157274419168
 20
102.2443996741188
 30
0.0
 10
166.2038601679733
 20
99.5296843802574
 30
0.0
 10
166.3421521494646
 20
97.51611848731478
 30
0.0
 10
166.6310270925751
 20
95.66319363357425
 30
0.0
 10
167.1308567622606
 20
93.8429314416385
 30
0.0
 10
167.8355130442758
 20
92.04314824943118
 30
0.0
 10
168.7367771345373
 20
90.30661099041396
 30
0.0
 10
169.8277858121508
 20
88.65397933079177
 30
0.0
 10
171.0948791676049
 20
87.11439346679167
 30
0.0
 10
172.5184596711868
 20
85.72054309627322
 30
0.0
 10
174.0828901406648
 20
84.4887260157547
 30
0.0
 10
175.7712532015458
 20
83.42282245012427
 30
0.0
 10
177.5738667186453
 20
82.53183686390358
 30
0.0
 10
179.4634919193859
 20
81.83222331095385
 30
0.0
 10
181.4042002733078
 20
81.34536107155016
 30
0.0
 10
183.2609565585305
 20
81.07619515351622
 30
0.0
 10
184.4645767119987
 20
81.06188313206836
 30
0.0
 10
185.009862618986
 20
81.055399239643
 30
0.0
  0
SPLINE
  5
122
330
1F
100
AcDbEntity
  8
0
  6
Continuous
 62
     7
370
    15
100
AcDbSpline
210
0.0
220
0.0
230
1.0
 70
     8
 71
     3
 72
    14
 73
    10
 74
     0
 42
0.00000001
 43
0.00000001
 12
1.0
 22
0.0
 32
0.0
 13
1.0
 23
0.0
 33
0.0
 40
0.0
 40
0.0
 40
0.0
 40
0.0
 40
0.3804986282760677
 40
0.5688529785369355
 40
0.7438178360131708
 40
0.8278645307386328
 40
0.9123292858829307
 40
0.9987692069358842
 40
1.0
 40
1.0
 40
1.0
 40
1.0
 10
195.1711440672904
 20
230.3148859766073
 30
0.0
 10
195.2554645864946
 20
230.2835470647379
 30
0.0
 10
195.3815254312299
 20
230.2366947713623
 30
0.0
 10
195.5286855048232
 20
230.2256707785781
 30
0.0
 10
195.629379265973
 20
230.2436510724732
 30
0.0
 10
195.7153567652802
 20
230.2810364917129
 30
0.0
 10
195.7778447845857
 20
230.3216486140221
 30
0.0
 10
195.8196449278133
 20
230.3538768558567
 30
0.0
 10
195.836929979399
 20
230.3742006820301
 30
0.0
 10
195.8371726410657
 20
230.3744860044955
 30
0.0
  0
SPLINE
  5
123
330
1F
100
AcDbEntity
  8
0
  6
Continuous
 62
     7
370
    15
100
AcDbSpline
210
0.0
220
0.0
230
1.0
 70
     8
 71
     3
 72
    15
 73
    11
 74
     0
 42
0.00000001
 43
0.00000001
 12
1.0
 22
0.0
 32
0.0
 13
1.0
 23
0.0
 33
0.0
 40
0.0
 40
0.0
 40
0.0
 40
0.0
 40
0.1082316264130886
 40
0.2225255953799025
 40
0.2812473291298102
 40
0.3415311220477728
 40
0.4687597823541835
 40
0.60423330658986
 40
0.7426706458804196
 40
1.0
 40
1.0
 40
1.0
 40
1.0
 10
174.0338781251464
 20
230.7288870749905
 30
0.0
 10
174.0370515355879
 20
230.6847599968334
 30
0.0
 10
174.043576107668
 20
230.5940341649789
 30
0.0
 10
174.0922550846076
 20
230.4845573258537
 30
0.0
 10
174.1471312179256
 20
230.406806349385
 30
0.0
 10
174.2134617789808
 20
230.3374748106954
 30
0.0
 10
174.3106099690451
 20
230.275027165243
 30
0.0
 10
174.4385106284654
 20
230.2404677345843
 30
0.0
 10
174.6144262697014
 20
230.2370823544924
 30
0.0
 10
174.7559058278382
 20
230.2842319341804
 30
0.0
 10
174.8478964979038
 20
230.3148888113006
 30
0.0
  0
SPLINE
  5
124
330
1F
100
AcDbEntity
  8
0
  6
Continuous
 62
     7
370
    15
100
AcDbSpline
210
0.0
220
0.0
230
1.0
 70
     8
 71
     3
 72
    22
 73
    18
 74
     0
 42
0.00000001
 43
0.00000001
 12
1.0
 22
0.0
 32
0.0
 13
1.0
 23
0.0
 33
0.0
 40
0.0
 40
0.0
 40
0.0
 40
0.0
 40
0.1436541285923811
 40
0.2558863080785621
 40
0.3364202324804136
 40
0.385151258051536
 40
0.4302318247179194
 40
0.4985530031605894
 40
0.5482439609520824
 40
0.5912126015386447
 40
0.6339649225362233
 40
0.6537734616220232
 40
0.6726237067607159
 40
0.7272639831510365
 40
0.7986253831866214
 40
0.8887653324022845
 40
1.0
 40
1.0
 40
1.0
 40
1.0
 10
195.9803482515577
 20
230.5768294081488
 30
0.0
 10
195.9727142928638
 20
231.8959391320155
 30
0.0
 10
195.9591161768517
 20
234.2456252879111
 30
0.0
 10
195.9172367378918
 20
237.3240970620833
 30
0.0
 10
195.8625814569276
 20
239.5299591724227
 30
0.0
 10
195.8168730190134
 20
241.1220569860516
 30
0.0
 10
195.7703242812323
 20
242.6104563648861
 30
0.0
 10
195.7014953368823
 20
244.1122475317092
 30
0.0
 10
195.5355012333904
 20
245.5864064901741
 30
0.0
 10
195.2166399747908
 20
246.8008757716603
 30
0.0
 10
194.7124656510632
 20
247.6575026478444
 30
0.0
 10
194.183802065088
 20
248.1965447876544
 30
0.0
 10
193.4953083003175
 20
248.7202936118737
 30
0.0
 10
192.2421826658276
 20
249.243399783812
 30
0.0
 10
190.2666296995954
 20
249.5742256529569
 30
0.0
 10
187.7487923950331
 20
249.7383092447062
 30
0.0
 10
185.8870213586237
 20
249.7525376220094
 30
0.0
 10
184.8586222204644
 20
249.7603970476154
 30
0.0
  0
SPLINE
  5
125
330
1F
100
AcDbEntity
  8
0
  6
Continuous
 62
     7
370
    15
100
AcDbSpline
210
0.0
220
0.0
230
1.0
 70
     8
 71
     3
 72
    22
 73
    18
 74
     0
 42
0.00000001
 43
0.00000001
 12
1.0
 22
0.0
 32
0.0
 13
1.0
 23
0.0
 33
0.0
 40
0.0
 40
0.0
 40
0.0
 40
0.0
 40
0.1150655052642433
 40
0.2067717435940134
 40
0.2773968816390044
 40
0.3056860224830783
 40
0.3276384736596993
 40
0.3629024003961586
 40
0.4020596015903605
 40
0.4400472881701309
 40
0.4794148989051406
 40
0.5413041680584645
 40
0.6050619587188019
 40
0.665262307588884
 40
0.7476310483385994
 40
0.8592997478583569
 40
0.9999999999999999
 40
0.9999999999999999
 40
0.9999999999999999
 40
0.9999999999999999
 10
185.1604113958366
 20
249.7603970476154
 30
0.0
 10
184.0964391064902
 20
249.7518958028144
 30
0.0
 10
182.1844898659367
 20
249.7366191375254
 30
0.0
 10
179.6256620941958
 20
249.5634237101237
 30
0.0
 10
177.8819298743203
 20
249.2495160716937
 30
0.0
 10
176.8378561776451
 20
248.8475972923097
 30
0.0
 10
176.147402261815
 20
248.4609231947811
 30
0.0
 10
175.4629116611162
 20
247.8740098949157
 30
0.0
 10
174.8928752488974
 20
246.9858188376632
 30
0.0
 10
174.5639011685962
 20
245.9561241500111
 30
0.0
 10
174.3674798047094
 20
244.690106831997
 30
0.0
 10
174.2678089305543
 20
243.1760155324319
 30
0.0
 10
174.2088634434312
 20
241.4682530801517
 30
0.0
 10
174.1577701292238
 20
239.5737271427365
 30
0.0
 10
174.1003457661263
 20
237.2493144346209
 30
0.0
 10
174.0588303978686
 20
234.1850653491824
 30
0.0
 10
174.0458963372965
 20
231.8684078421193
 30
0.0
 10
174.0386853647432
 20
230.5768294081488
 30
0.0
  0
LINE
  5
126
330
1F
100
AcDbEntity
  8
0
  6
Continuous
 62
     7
370
    15
100
AcDbLine
 10
183.0095168082
 20
232.2100509731
 30
0.0
 11
183.0095168082
 21
231.9839553668
 31
0.0
  0
LINE
  5
127
330
1F
100
AcDbEntity
  8
0
  6
Continuous
 62
     7
370
    15
100
AcDbLine
 10
187.0095168082
 20
231.9842837743
 30
0.0
 11
187.0095168082
 21
232.2100509731
 31
0.0
  0
LINE
  5
128
330
1F
100
AcDbEntity
  8
0
  6
Continuous
 62
     7
370
    15
100
AcDbLine
 10
163.2154971969
 20
201.7211823915
 30
0.0
 11
163.2226944294
 21
201.70063119
 31
0.0
  0
SPLINE
  5
129
330
1F
100
AcDbEntity
  8
0
  6
Continuous
 62
     7
370
    15
100
AcDbSpline
210
0.0
220
0.0
230
1.0
 70
     8
 71
     3
 72
    30
 73
    26
 74
     0
 42
0.00000001
 43
0.00000001
 12
1.0
 22
0.0
 32
0.0
 13
1.0
 23
0.0
 33
0.0
 40
0.0
 40
0.0
 40
0.0
 40
0.0
 40
0.1250000000000002
 40
0.1250000000000002
 40
0.2500000000000004
 40
0.2500000000000004
 40
0.3750000000000006
 40
0.3750000000000006
 40
0.5000000000000008
 40
0.5000000000000008
 40
0.6250000000000006
 40
0.6250000000000006
 40
0.6875000000000004
 40
0.6875000000000004
 40
0.7500000000000002
 40
0.7500000000000002
 40
0.8125000000000001
 40
0.8125000000000001
 40
0.8437500000000002
 40
0.8437500000000002
 40
0.8750000000000001
 40
0.8750000000000001
 40
0.9375000000000001
 40
0.9375000000000001
 40
1.0
 40
1.0
 40
1.0
 40
1.0
 10
169.5494734080629
 20
149.4523819269471
 30
0.0
 10
169.5006763998861
 20
151.6624235499672
 30
0.0
 10
169.4505933814786
 20
153.872438250703
 30
0.0
 10
169.3467075826356
 20
158.2923750129805
 30
0.0
 10
169.2939038432171
 20
160.5023185977779
 30
0.0
 10
169.2060058734292
 20
164.9226576737945
 30
0.0
 10
169.1707885863024
 20
167.1330541050799
 30
0.0
 10
169.0903957125923
 20
171.5535843197179
 30
0.0
 10
169.0417420506159
 20
173.763627235805
 30
0.0
 10
168.8919916988686
 20
178.1823544816607
 30
0.0
 10
168.7927971415585
 20
180.3936615788985
 30
0.0
 10
168.550351596924
 20
183.6972631083316
 30
0.0
 10
168.4541254650008
 20
184.7960524084837
 30
0.0
 10
168.201873928715
 20
186.984263009372
 30
0.0
 10
168.0469073723316
 20
188.0738498967865
 30
0.0
 10
167.6067635222689
 20
190.2325902804533
 30
0.0
 10
167.3170580107534
 20
191.301047182164
 30
0.0
 10
166.7597114657063
 20
192.8845478996609
 30
0.0
 10
166.554883350091
 20
193.4066052393301
 30
0.0
 10
166.1241028195592
 20
194.4406211827164
 30
0.0
 10
165.8988406835187
 20
194.9536885099205
 30
0.0
 10
165.2279402732819
 20
196.4948696007263
 30
0.0
 10
164.7856357301418
 20
197.5243164785933
 30
0.0
 10
163.9602459665875
 20
199.6068638119747
 30
0.0
 10
163.5739834531248
 20
200.6587056593282
 30
0.0
 10
163.2151867010999
 20
201.72153445687
 30
0.0
  0
SPLINE
  5
12A
330
1F
100
AcDbEntity
  8
0
  6
Continuous
 62
     7
370
    15
100
AcDbSpline
210
0.0
220
0.0
230
1.0
 70
     8
 71
     3
 72
    30
 73
    26
 74
     0
 42
0.00000001
 43
0.00000001
 12
1.0
 22
0.0
 32
0.0
 13
1.0
 23
0.0
 33
0.0
 40
0.0
 40
0.0
 40
0.0
 40
0.0
 40
0.0624999999999996
 40
0.0624999999999996
 40
0.1249999999999993
 40
0.1249999999999993
 40
0.1562499999999991
 40
0.1562499999999991
 40
0.187499999999999
 40
0.187499999999999
 40
0.2499999999999991
 40
0.2499999999999991
 40
0.3124999999999992
 40
0.3124999999999992
 40
0.3749999999999993
 40
0.3749999999999993
 40
0.4999999999999993
 40
0.4999999999999993
 40
0.6249999999999994
 40
0.6249999999999994
 40
0.7499999999999997
 40
0.7499999999999997
 40
0.8749999999999998
 40
0.8749999999999998
 40
1.0
 40
1.0
 40
1.0
 40
1.0
 10
206.8038469151892
 20
201.7215344568349
 30
0.0
 10
206.4450501631622
 20
200.6587056592947
 30
0.0
 10
206.0587876496947
 20
199.6068638119427
 30
0.0
 10
205.2333978861329
 20
197.5243164785645
 30
0.0
 10
204.7910933429906
 20
196.4948696006983
 30
0.0
 10
204.1201929327544
 20
194.9536885098921
 30
0.0
 10
203.8949307967146
 20
194.4406211826876
 30
0.0
 10
203.4641502661861
 20
193.4066052392996
 30
0.0
 10
203.2593221505733
 20
192.8845478996292
 30
0.0
 10
202.7019756055347
 20
191.3010471821288
 30
0.0
 10
202.4122700940266
 20
190.232590280416
 30
0.0
 10
201.9721262439771
 20
188.0738498967466
 30
0.0
 10
201.8171596875992
 20
186.9842630093315
 30
0.0
 10
201.5649081513217
 20
184.796052408443
 30
0.0
 10
201.4686820194016
 20
183.6972631082912
 30
0.0
 10
201.2262364747739
 20
180.3936615788598
 30
0.0
 10
201.1270419174653
 20
178.1823544816238
 30
0.0
 10
200.9772915657152
 20
173.7636272357711
 30
0.0
 10
200.9286379037351
 20
171.5535843196855
 30
0.0
 10
200.8482450300156
 20
167.1330541050507
 30
0.0
 10
200.8130277428832
 20
164.9226576737668
 30
0.0
 10
200.7251297730855
 20
160.5023185977533
 30
0.0
 10
200.6723260336625
 20
158.2923750129575
 30
0.0
 10
200.5684402348136
 20
153.8724382506828
 30
0.0
 10
200.5183572164046
 20
151.6624235499484
 30
0.0
 10
200.469560208228
 20
149.4523819269298
 30
0.0
  0
SPLINE
  5
12B
330
1F
100
AcDbEntity
  8
0
  6
Continuous
 62
     7
370
    15
100
AcDbSpline
210
0.0
220
0.0
230
1.0
 70
     8
 71
     3
 72
    10
 73
     6
 74
     0
 42
0.00000001
 43
0.00000001
 12
1.0
 22
0.0
 32
0.0
 13
1.0
 23
0.0
 33
0.0
 40
0.0
 40
0.0
 40
0.0
 40
0.0
 40
0.382403856659456
 40
0.8030687917151124
 40
1.0
 40
1.0
 40
1.0
 40
1.0
 10
206.7967134490342
 20
201.7012014332598
 30
0.0
 10
206.783286393965
 20
201.6619690851329
 30
0.0
 10
206.7550888517516
 20
201.5795790311159
 30
0.0
 10
206.6689387043131
 20
201.3260627110624
 30
0.0
 10
206.5673565346813
 20
201.0582309872609
 30
0.0
 10
206.5349653035806
 20
200.9728282114276
 30
0.0
  0
SPLINE
  5
12C
330
1F
100
AcDbEntity
  8
0
  6
Continuous
 62
     7
370
    15
100
AcDbSpline
210
0.0
220
0.0
230
1.0
 70
     8
 71
     3
 72
    73
 73
    69
 74
     0
 42
0.00000001
 43
0.00000001
 12
1.0
 22
0.0
 32
0.0
 13
1.0
 23
0.0
 33
0.0
 40
0.0
 40
0.0
 40
0.0
 40
0.0
 40
0.0624999999999999
 40
0.0624999999999999
 40
0.0781249999999999
 40
0.0781249999999999
 40
0.0937499999999999
 40
0.0937499999999999
 40
0.1249999999999999
 40
0.1249999999999999
 40
0.1562499999999999
 40
0.1562499999999999
 40
0.1718749999999998
 40
0.1718749999999998
 40
0.1874999999999998
 40
0.1874999999999998
 40
0.2499999999999996
 40
0.2499999999999996
 40
0.2812499999999996
 40
0.2812499999999996
 40
0.3124999999999996
 40
0.3437499999999995
 40
0.3437499999999995
 40
0.3593749999999995
 40
0.3593749999999995
 40
0.3749999999999996
 40
0.3749999999999996
 40
0.4374999999999996
 40
0.4374999999999996
 40
0.4531249999999997
 40
0.4531249999999997
 40
0.4687499999999997
 40
0.4687499999999997
 40
0.4999999999999998
 40
0.4999999999999998
 40
0.5312499999999998
 40
0.5312499999999998
 40
0.5468749999999997
 40
0.5468749999999997
 40
0.5624999999999997
 40
0.5624999999999997
 40
0.5937499999999998
 40
0.5937499999999998
 40
0.6249999999999998
 40
0.6249999999999998
 40
0.6875
 40
0.6875
 40
0.7031250000000001
 40
0.7031250000000001
 40
0.7187500000000001
 40
0.7187500000000001
 40
0.7500000000000002
 40
0.7500000000000002
 40
0.7812500000000003
 40
0.7812500000000003
 40
0.7968750000000002
 40
0.7968750000000002
 40
0.8125000000000002
 40
0.8125000000000002
 40
0.8750000000000001
 40
0.8750000000000001
 40
0.9062500000000001
 40
0.9062500000000001
 40
0.9375000000000001
 40
0.9375000000000001
 40
0.96875
 40
0.96875
 40
1.0
 40
1.0
 40
1.0
 40
1.0
 10
163.2154968600369
 20
201.72118339033
 30
0.0
 10
162.629379204876
 20
203.4591525512778
 30
0.0
 10
162.2599905590001
 20
205.2313373233439
 30
0.0
 10
162.0596006888868
 20
207.48782769798
 30
0.0
 10
162.0327649619998
 20
207.941216363271
 30
0.0
 10
162.0060432763707
 20
208.8522483286603
 30
0.0
 10
162.0062291266565
 20
209.3114367541801
 30
0.0
 10
162.0478152479312
 20
210.6823832951345
 30
0.0
 10
162.1295937669798
 20
211.5864673507084
 30
0.0
 10
162.397796760669
 20
213.3755078194454
 30
0.0
 10
162.5842297292311
 20
214.2604626800525
 30
0.0
 10
162.9431324792988
 20
215.5734087089723
 30
0.0
 10
163.076009424085
 20
216.0086368279957
 30
0.0
 10
163.3688029607265
 20
216.8741506418749
 30
0.0
 10
163.5289989368516
 20
217.3048506092006
 30
0.0
 10
164.3871206562623
 20
219.4172637733189
 30
0.0
 10
165.2611366430075
 20
221.0002865593894
 30
0.0
 10
166.8506290496685
 20
223.2160608617831
 30
0.0
 10
167.4313387955145
 20
223.9316028539882
 30
0.0
 10
168.6603385839567
 20
225.273913115204
 30
0.0
 10
169.960383901426
 20
226.5344427755864
 30
0.0
 10
171.3997658276033
 20
227.6345818845266
 30
0.0
 10
172.5327379983981
 20
228.3981762823728
 30
0.0
 10
172.9205183492541
 20
228.6431188916001
 30
0.0
 10
173.7084853655073
 20
229.1084266397264
 30
0.0
 10
174.1075632164973
 20
229.3282477843827
 30
0.0
 10
176.1278560199496
 20
230.3646210792112
 30
0.0
 10
177.8227452613284
 20
230.9955865424957
 30
0.0
 10
180.0412398902972
 20
231.53268633671
 30
0.0
 10
180.4910396070299
 20
231.6274697384653
 30
0.0
 10
181.3892880601103
 20
231.7889428349235
 30
0.0
 10
181.8389672797055
 20
231.8559940273411
 30
0.0
 10
183.1896381891542
 20
232.0168739178339
 30
0.0
 10
184.0922575649871
 20
232.0705661464957
 30
0.0
 10
185.9018113369911
 20
232.0715482117049
 30
0.0
 10
186.8087452942337
 20
232.0188488716181
 30
0.0
 10
188.1724986833472
 20
231.8571330332358
 30
0.0
 10
188.6257425461635
 20
231.7895589847766
 30
0.0
 10
189.521927929943
 20
231.6286624966145
 30
0.0
 10
189.9660423417393
 20
231.5352080013886
 30
0.0
 10
191.2866397155829
 20
231.2164435933048
 30
0.0
 10
192.1514170191981
 20
230.9528641946871
 30
0.0
 10
193.8497407467781
 20
230.3236018113094
 30
0.0
 10
194.6853138873667
 20
229.9568860238114
 30
0.0
 10
197.1303660805319
 20
228.7036872260416
 30
0.0
 10
198.6309064456796
 20
227.6921767346549
 30
0.0
 10
200.3495238896313
 20
226.2142719538164
 30
0.0
 10
200.6852899224766
 20
225.9078730238237
 30
0.0
 10
201.3406038055355
 20
225.2730269267622
 30
0.0
 10
201.6610565614785
 20
224.9435131388043
 30
0.0
 10
202.586406302772
 20
223.9333303455161
 30
0.0
 10
203.1580905099725
 20
223.228993175189
 30
0.0
 10
204.2136695363025
 20
221.7603592530772
 30
0.0
 10
204.6975590235242
 20
220.9960588596342
 30
0.0
 10
205.3567192725248
 20
219.804070373232
 30
0.0
 10
205.5652985821242
 20
219.3991318019422
 30
0.0
 10
205.9596757039127
 20
218.5736950447019
 30
0.0
 10
206.1450222380087
 20
218.153897372022
 30
0.0
 10
207.0027029022552
 20
216.0438643697072
 30
0.0
 10
207.4809993613131
 20
214.3001335802778
 30
0.0
 10
207.8880083309492
 20
211.6013389742567
 30
0.0
 10
207.9709336546603
 20
210.6834881311985
 30
0.0
 10
208.0265656607882
 20
208.8660035823329
 30
0.0
 10
208.0005138388762
 20
207.9613370108439
 30
0.0
 10
207.8424595646526
 20
206.1600202170742
 30
0.0
 10
207.7104603271498
 20
205.2633697515573
 30
0.0
 10
207.337800801945
 20
203.4782902432773
 30
0.0
 10
207.0965952752358
 20
202.5901669190564
 30
0.0
 10
206.8035364062762
 20
201.7211823525383
 30
0.0
  0
SPLINE
  5
12D
330
1F
100
AcDbEntity
  8
0
  6
Continuous
 62
     7
370
    15
100
AcDbSpline
210
0.0
220
0.0
230
1.0
 70
     8
 71
     3
 72
    16
 73
    12
 74
     0
 42
0.00000001
 43
0.00000001
 12
1.0
 22
0.0
 32
0.0
 13
1.0
 23
0.0
 33
0.0
 40
0.0
 40
0.0
 40
0.0
 40
0.0
 40
0.0731958830222239
 40
0.1464103527014683
 40
0.2197661238903637
 40
0.2932199832487405
 40
0.3670656983153028
 40
0.4409336732920741
 40
0.5887103671265771
 40
0.883999204965907
 40
1.0
 40
1.0
 40
1.0
 40
1.0
 10
207.7369230896431
 20
205.5393944536624
 30
0.0
 10
207.4619932711802
 20
203.7466898200026
 30
0.0
 10
206.9120638212264
 20
200.1608253305479
 30
0.0
 10
206.189159017254
 20
194.7630451221163
 30
0.0
 10
205.6446348693233
 20
189.3371887712051
 30
0.0
 10
205.3165323077284
 20
183.8785461477609
 30
0.0
 10
205.1381636537517
 20
178.401079475025
 30
0.0
 10
205.0081895713745
 20
171.0804999740379
 30
0.0
 10
204.9115408115624
 20
158.2722710840962
 30
0.0
 10
204.7399046974577
 20
144.4206025676427
 30
0.0
 10
204.5290087471142
 20
134.2318366061581
 30
0.0
 10
204.4695273112745
 20
131.3581805315051
 30
0.0
  0
SPLINE
  5
12E
330
1F
100
AcDbEntity
  8
0
  6
Continuous
 62
     7
370
    15
100
AcDbSpline
210
0.0
220
0.0
230
1.0
 70
     8
 71
     3
 72
    20
 73
    16
 74
     0
 42
0.00000001
 43
0.00000001
 12
1.0
 22
0.0
 32
0.0
 13
1.0
 23
0.0
 33
0.0
 40
0.0
 40
0.0
 40
0.0
 40
0.0
 40
0.2499999999999999
 40
0.2499999999999999
 40
0.4999999999999999
 40
0.4999999999999999
 40
0.625
 40
0.625
 40
0.75
 40
0.75
 40
0.8125
 40
0.8125
 40
0.875
 40
0.875
 40
1.0
 40
1.0
 40
1.0
 40
1.0
 10
165.8509820262591
 20
116.4317470574129
 30
0.0
 10
165.6822053772839
 20
123.8690542205939
 30
0.0
 10
165.528886780089
 20
131.3066850797031
 30
0.0
 10
165.2693159790138
 20
146.1826172824001
 30
0.0
 10
165.1652270949431
 20
153.6210049345693
 30
0.0
 10
165.0583470498061
 20
164.7794114627447
 30
0.0
 10
165.0323666182647
 20
168.4993669492985
 30
0.0
 10
164.9312490100256
 20
175.9362284082308
 30
0.0
 10
164.8625477096913
 20
179.6534814049543
 30
0.0
 10
164.6194374516374
 20
185.220352534599
 30
0.0
 10
164.5134540123512
 20
187.0743716323335
 30
0.0
 10
164.2271403178528
 20
190.7776337142296
 30
0.0
 10
164.0467302867016
 20
192.6268735787696
 30
0.0
 10
163.4063383493421
 20
198.1682353464308
 30
0.0
 10
162.8531932359785
 20
201.8543843495005
 30
0.0
 10
162.2821105300475
 20
205.5393944336037
 30
0.0
  0
SPLINE
  5
12F
330
1F
100
AcDbEntity
  8
0
  6
Continuous
 62
     7
370
    15
100
AcDbSpline
210
0.0
220
0.0
230
1.0
 70
     8
 71
     3
 72
    21
 73
    17
 74
     0
 42
0.00000001
 43
0.00000001
 12
1.0
 22
0.0
 32
0.0
 13
1.0
 23
0.0
 33
0.0
 40
0.0
 40
0.0
 40
0.0
 40
0.0
 40
0.042232727389793
 40
0.0843068546114926
 40
0.126240427220524
 40
0.1680516727577015
 40
0.2097589791443436
 40
0.2513808720548342
 40
0.3774048538425346
 40
0.5023452746026581
 40
0.6274065330382559
 40
0.7517516850237554
 40
0.8139330124456737
 40
0.8759847475847403
 40
0.9379819806948059
 40
1.0
 40
1.0
 40
1.0
 40
1.0
 10
194.8995578492786
 20
230.4239710931478
 30
0.0
 10
194.7789199085074
 20
230.4710887232378
 30
0.0
 10
194.5380970689273
 20
230.5651470385574
 30
0.0
 10
194.1695380413274
 20
230.7013602226398
 30
0.0
 10
193.796582436947
 20
230.8334347749399
 30
0.0
 10
193.4186907744485
 20
230.9609005940957
 30
0.0
 10
193.0360486681066
 20
231.0836855516092
 30
0.0
 10
192.3866863838223
 20
231.2813593014353
 30
0.0
 10
191.4536590083603
 20
231.5348776273449
 30
0.0
 10
190.2118031271379
 20
231.8105610987232
 30
0.0
 10
188.9398453308839
 20
232.0299568180788
 30
0.0
 10
187.8578611353857
 20
232.1630384435408
 30
0.0
 10
186.9855660568592
 20
232.2380938394487
 30
0.0
 10
186.3284462590405
 20
232.2781789637673
 30
0.0
 10
185.6695222432852
 20
232.303356986467
 30
0.0
 10
185.2295432014895
 20
232.3064750920885
 30
0.0
 10
185.0095168081505
 20
232.3080344062121
 30
0.0
  0
SPLINE
  5
130
330
1F
100
AcDbEntity
  8
0
  6
Continuous
 62
     7
370
    15
100
AcDbSpline
210
0.0
220
0.0
230
1.0
 70
     8
 71
     3
 72
    22
 73
    18
 74
     0
 42
0.00000001
 43
0.00000001
 12
1.0
 22
0.0
 32
0.0
 13
1.0
 23
0.0
 33
0.0
 40
0.0
 40
0.0
 40
0.0
 40
0.0
 40
0.0354463232535993
 40
0.0708756965096088
 40
0.1063021669363755
 40
0.1417397851542166
 40
0.1772025885329602
 40
0.2127045845680547
 40
0.2482597344333549
 40
0.3725996729864574
 40
0.4976649998317654
 40
0.6226001635283893
 40
0.7486282505368583
 40
0.8110878282386251
 40
0.8737616613021194
 40
0.9367119300358974
 40
1.0
 40
1.0
 40
1.0
 40
1.0
 10
185.0095168081505
 20
232.3080344062121
 30
0.0
 10
184.8837669322561
 20
232.307525259891
 30
0.0
 10
184.6323273125176
 20
232.3065072107165
 30
0.0
 10
184.255431659567
 20
232.2982793960684
 30
0.0
 10
183.8790137965499
 20
232.285164363685
 30
0.0
 10
183.5031467238872
 20
232.2666970669108
 30
0.0
 10
183.1279052794194
 20
232.2430243324225
 30
0.0
 10
182.7533553979482
 20
232.2141286307712
 30
0.0
 10
182.0687631434614
 20
232.1516980646713
 30
0.0
 10
181.0791904942857
 20
232.0299476561127
 30
0.0
 10
179.8072693910843
 20
231.810569789163
 30
0.0
 10
178.5653729858823
 20
231.5348827920509
 30
0.0
 10
177.5659589615347
 20
231.2633016678362
 30
0.0
 10
176.7895058153807
 20
231.0237419778151
 30
0.0
 10
176.2209658715241
 20
230.834047102754
 30
0.0
 10
175.6622535934823
 20
230.6346805824173
 30
0.0
 10
175.3007241814174
 20
230.494332775159
 30
0.0
 10
175.1194757670224
 20
230.4239710931478
 30
0.0
  0
LWPOLYLINE
  5
131
330
1F
100
AcDbEntity
  8
0
  6
Continuous
 62
     7
370
    15
100
AcDbPolyline
 90
        3
 70
   128
 43
0.0
 10
195.9817873998
 20
230.7257117454
 10
195.9662819965
 20
230.6046036971
 10
195.9462406186
 20
230.5429264078
  0
LWPOLYLINE
  5
132
330
1F
100
AcDbEntity
  8
0
  6
Continuous
 62
     7
370
    15
100
AcDbPolyline
 90
        3
 70
   128
 43
0.0
 10
195.9307876637
 20
230.5080383523
 10
195.92194566
 20
230.4908166717
 10
195.8523430482
 20
230.3921528929
  0
SPLINE
  5
133
330
1F
100
AcDbEntity
  8
0
  6
Continuous
 62
     7
370
    15
100
AcDbSpline
210
0.0
220
0.0
230
1.0
 70
     8
 71
     3
 72
     9
 73
     5
 74
     0
 42
0.00000001
 43
0.00000001
 12
1.0
 22
0.0
 32
0.0
 13
1.0
 23
0.0
 33
0.0
 40
0.0
 40
0.0
 40
0.0
 40
0.0
 40
0.4601745643622858
 40
0.9999999999999999
 40
0.9999999999999999
 40
0.9999999999999999
 40
0.9999999999999999
 10
195.1841587081079
 20
230.3095277507133
 30
0.0
 10
195.1501742221575
 20
230.3234199405343
 30
0.0
 10
195.0763229305341
 20
230.3536088968496
 30
0.0
 10
194.9615273977649
 20
230.3993038143836
 30
0.0
 10
194.8995578492786
 20
230.4239710931478
 30
0.0
  0
SPLINE
  5
134
330
1F
100
AcDbEntity
  8
0
  6
Continuous
 62
     7
370
    15
100
AcDbSpline
210
0.0
220
0.0
230
1.0
 70
     8
 71
     3
 72
     9
 73
     5
 74
     0
 42
0.00000001
 43
0.00000001
 12
1.0
 22
0.0
 32
0.0
 13
1.0
 23
0.0
 33
0.0
 40
0.0
 40
0.0
 40
0.0
 40
0.0
 40
0.539776505292073
 40
1.0
 40
1.0
 40
1.0
 40
1.0
 10
175.1194757670224
 20
230.4239710931478
 30
0.0
 10
175.0575149738005
 20
230.3993073300731
 30
0.0
 10
174.9427252550661
 20
230.35361478356
 30
0.0
 10
174.8688697488388
 20
230.3234241378306
 30
0.0
 10
174.8348797096595
 20
230.3095296933455
 30
0.0
  0
SPLINE
  5
135
330
1F
100
AcDbEntity
  8
0
  6
Continuous
 62
     8
370
     0
100
AcDbSpline
210
0.0
220
0.0
230
1.0
 70
     8
 71
     3
 72
    10
 73
     6
 74
     0
 42
0.00000001
 43
0.00000001
 12
1.0
 22
0.0
 32
0.0
 13
1.0
 23
0.0
 33
0.0
 40
0.0
 40
0.0
 40
0.0
 40
0.0
 40
0.5
 40
0.5
 40
1.0
 40
1.0
 40
1.0
 40
1.0
 10
205.9507338875281
 20
202.0087792623658
 30
0.0
 10
206.192600310126
 20
201.9272117957377
 30
0.0
 10
206.4124294642503
 20
201.8530765908826
 30
0.0
 10
206.7183684850262
 20
201.7499025089158
 30
0.0
 10
206.8035360848462
 20
201.7211813994269
 30
0.0
 10
206.8035364062762
 20
201.7211823525384
 30
0.0
  0
SPLINE
  5
136
330
1F
100
AcDbEntity
  8
0
  6
Continuous
 62
     8
370
     0
100
AcDbSpline
210
0.0
220
0.0
230
1.0
 70
     8
 71
     3
 72
    73
 73
    69
 74
     0
 42
0.00000001
 43
0.00000001
 12
1.0
 22
0.0
 32
0.0
 13
1.0
 23
0.0
 33
0.0
 40
0.0
 40
0.0
 40
0.0
 40
0.0
 40
0.0312500000000001
 40
0.0312500000000001
 40
0.0625000000000002
 40
0.0625000000000002
 40
0.0937500000000004
 40
0.0937500000000004
 40
0.1250000000000005
 40
0.1250000000000005
 40
0.1875000000000007
 40
0.1875000000000007
 40
0.2031250000000008
 40
0.2031250000000008
 40
0.2187500000000009
 40
0.2187500000000009
 40
0.2500000000000011
 40
0.2500000000000011
 40
0.2812500000000012
 40
0.2812500000000012
 40
0.2968750000000012
 40
0.2968750000000012
 40
0.3125000000000012
 40
0.3125000000000012
 40
0.3750000000000013
 40
0.3750000000000013
 40
0.4062500000000013
 40
0.4062500000000013
 40
0.4375000000000013
 40
0.4375000000000013
 40
0.4531250000000014
 40
0.4531250000000014
 40
0.4687500000000014
 40
0.4687500000000014
 40
0.5000000000000013
 40
0.5000000000000013
 40
0.5312500000000013
 40
0.5312500000000013
 40
0.5468750000000013
 40
0.5468750000000013
 40
0.5625000000000012
 40
0.5625000000000012
 40
0.6250000000000012
 40
0.6250000000000012
 40
0.6406250000000012
 40
0.6406250000000012
 40
0.6562500000000012
 40
0.6562500000000012
 40
0.6875000000000011
 40
0.718750000000001
 40
0.718750000000001
 40
0.7500000000000009
 40
0.7500000000000009
 40
0.8125000000000007
 40
0.8125000000000007
 40
0.8281250000000007
 40
0.8281250000000007
 40
0.8437500000000006
 40
0.8437500000000006
 40
0.8750000000000004
 40
0.8750000000000004
 40
0.9062500000000004
 40
0.9062500000000004
 40
0.9218750000000003
 40
0.9218750000000003
 40
0.9375000000000003
 40
0.9375000000000003
 40
1.0
 40
1.0
 40
1.0
 40
1.0
 10
205.9507806119907
 20
202.0087635049241
 30
0.0
 10
206.2323703717564
 20
202.8437411341437
 30
0.0
 10
206.464136499901
 20
203.6971081722954
 30
0.0
 10
206.822213288937
 20
205.4123291648207
 30
0.0
 10
206.9490478101635
 20
206.2738892430789
 30
0.0
 10
207.1009196654106
 20
208.0047110355295
 30
0.0
 10
207.1259539102031
 20
208.8739729833992
 30
0.0
 10
207.0725040171286
 20
210.6203287523724
 30
0.0
 10
206.9928269975517
 20
211.5022588803319
 30
0.0
 10
206.6017563023888
 20
214.0954359303164
 30
0.0
 10
206.1421861494308
 20
215.7709252798176
 30
0.0
 10
205.3180838999085
 20
217.7983816746928
 30
0.0
 10
205.1399937927968
 20
218.201750274363
 30
0.0
 10
204.7610555882612
 20
218.9948851968952
 30
0.0
 10
204.5606415850601
 20
219.3839773425023
 30
0.0
 10
203.9272854820059
 20
220.529320019269
 30
0.0
 10
203.4623386057496
 20
221.2637114542532
 30
0.0
 10
202.4480817277422
 20
222.6748748027
 30
0.0
 10
201.8987768473171
 20
223.3516502138648
 30
0.0
 10
201.0096512719923
 20
224.3223038138814
 30
0.0
 10
200.7017424919717
 20
224.6389243032238
 30
0.0
 10
200.0720798465966
 20
225.2489308902774
 30
0.0
 10
199.7494568342289
 20
225.5433415595144
 30
0.0
 10
198.0981118962823
 20
226.963422252804
 30
0.0
 10
196.6563077132763
 20
227.9353594963927
 30
0.0
 10
194.3069646461261
 20
229.1395366999976
 30
0.0
 10
193.5040933853356
 20
229.4919117700364
 30
0.0
 10
191.8722424125455
 20
230.0965674648364
 30
0.0
 10
191.0413127662618
 20
230.3498418304466
 30
0.0
 10
189.772404224001
 20
230.6561475720832
 30
0.0
 10
189.3456727071869
 20
230.7459502790955
 30
0.0
 10
188.4845646336391
 20
230.9005615856549
 30
0.0
 10
188.0490622019297
 20
230.9654969805083
 30
0.0
 10
186.7386806458244
 20
231.1209033064958
 30
0.0
 10
185.8672404833991
 20
231.171553270114
 30
0.0
 10
184.1285055041949
 20
231.1706365811726
 30
0.0
 10
183.2612111093419
 20
231.1190595249674
 30
0.0
 10
181.9634001600227
 20
230.9644977081268
 30
0.0
 10
181.5313196207674
 20
230.9000781028484
 30
0.0
 10
180.6682250818793
 20
230.7449398133453
 30
0.0
 10
180.2360276469882
 20
230.6538736129046
 30
0.0
 10
178.1043430807995
 20
230.13783083189
 30
0.0
 10
176.4757746366478
 20
229.5315889284009
 30
0.0
 10
174.5345336764701
 20
228.5358165390115
 30
0.0
 10
174.1510712003614
 20
228.3246067878229
 30
0.0
 10
173.3939360107399
 20
227.8775267635261
 30
0.0
 10
173.0213251979459
 20
227.6421769705742
 30
0.0
 10
171.9326758863108
 20
226.9084883246295
 30
0.0
 10
170.5496026813194
 20
225.8514334538339
 30
0.0
 10
169.3004119042474
 20
224.6402666844143
 30
0.0
 10
168.1194851155037
 20
223.3505213337729
 30
0.0
 10
167.561485923619
 20
222.6629964438373
 30
0.0
 10
166.0341471936004
 20
220.5339730068401
 30
0.0
 10
165.1943014451316
 20
219.0129265724148
 30
0.0
 10
164.3697149099853
 20
216.9832160861802
 30
0.0
 10
164.2157781612223
 20
216.5693777932081
 30
0.0
 10
163.9344208712935
 20
215.7377420672126
 30
0.0
 10
163.8067329747663
 20
215.3195496822027
 30
0.0
 10
163.4618424969915
 20
214.057994996758
 30
0.0
 10
163.282683175452
 20
213.2076789187418
 30
0.0
 10
163.0249302194056
 20
211.4886646812716
 30
0.0
 10
162.9463284308131
 20
210.6199680121187
 30
0.0
 10
162.9063324751501
 20
209.3026826462847
 30
0.0
 10
162.9061411224512
 20
208.8614628789313
 30
0.0
 10
162.931791800086
 20
207.9860814210456
 30
0.0
 10
162.9575646982877
 20
207.550434719891
 30
0.0
 10
163.1500489895224
 20
205.3822448535748
 30
0.0
 10
163.5049302471392
 20
203.6794079908251
 30
0.0
 10
164.0680533816423
 20
202.0094463331741
 30
0.0
  0
SPLINE
  5
137
330
1F
100
AcDbEntity
  8
0
  6
Continuous
 62
     8
370
     0
100
AcDbSpline
210
0.0
220
0.0
230
1.0
 70
     8
 71
     3
 72
    10
 73
     6
 74
     0
 42
0.00000001
 43
0.00000001
 12
1.0
 22
0.0
 32
0.0
 13
1.0
 23
0.0
 33
0.0
 40
0.0
 40
0.0
 40
0.0
 40
0.0
 40
0.5
 40
0.5
 40
1.0
 40
1.0
 40
1.0
 40
1.0
 10
164.0680618242836
 20
202.0094488554438
 30
0.0
 10
163.8261719895958
 20
201.927790386349
 30
0.0
 10
163.6063128360013
 20
201.8535695288417
 30
0.0
 10
163.3003403268293
 20
201.7502790369938
 30
0.0
 10
163.215169949613
 20
201.7215277341891
 30
0.0
 10
163.2151867010999
 20
201.7215344568699
 30
0.0
  0
SPLINE
  5
138
330
1F
100
AcDbEntity
  8
0
  6
Continuous
 62
     8
370
     0
100
AcDbSpline
210
0.0
220
0.0
230
1.0
 70
     8
 71
     3
 72
    56
 73
    52
 74
     0
 42
0.00000001
 43
0.00000001
 12
1.0
 22
0.0
 32
0.0
 13
1.0
 23
0.0
 33
0.0
 40
0.0
 40
0.0
 40
0.0
 40
0.0
 40
0.0100508658011709
 40
0.0198587145404075
 40
0.0294271369496168
 40
0.0387575930095919
 40
0.0478499830140593
 40
0.0567029588206968
 40
0.0653144926774469
 40
0.0736827090298828
 40
0.0818064480694319
 40
0.0896840983932409
 40
0.0973053774519278
 40
0.1046689181114457
 40
0.1117802298918917
 40
0.1186468703941323
 40
0.1252730563145381
 40
0.14326916413638
 40
0.1646988240028305
 40
0.1896695889604937
 40
0.2183093698920928
 40
0.2506536487375788
 40
0.2856456043358983
 40
0.3386788462168392
 40
0.4097568702853616
 40
0.4989192437073594
 40
0.5361905357956462
 40
0.6240590245070299
 40
0.653717519674491
 40
0.6869552805209103
 40
0.6972559057867825
 40
0.7086305643444696
 40
0.7210895503102716
 40
0.7346813553005995
 40
0.7495207461131591
 40
0.7604705850662925
 40
0.7851402967937564
 40
0.7989135677374223
 40
0.8119294231325472
 40
0.8395257027750839
 40
0.8743842923892379
 40
0.88645527224775
 40
0.8987145838800402
 40
0.9110306947911417
 40
0.9233766959130522
 40
0.935810161499633
 40
0.9483901565808853
 40
0.9611638325602117
 40
0.9740109603623155
 40
0.9869435742281125
 40
0.9999999999999999
 40
0.9999999999999999
 40
0.9999999999999999
 40
0.9999999999999999
 10
164.0680427329932
 20
202.0094424105036
 30
0.0
 10
164.1558414783644
 20
201.7530681493405
 30
0.0
 10
164.3293161078962
 20
201.2465184282853
 30
0.0
 10
164.5981923831488
 20
200.5000311981826
 30
0.0
 10
164.8684726980247
 20
199.7747619020115
 30
0.0
 10
165.1405119488981
 20
199.070786786305
 30
0.0
 10
165.4133741960947
 20
198.3878649658839
 30
0.0
 10
165.6860347469154
 20
197.725781753913
 30
0.0
 10
165.956948758758
 20
197.0841296642455
 30
0.0
 10
166.2242650120136
 20
196.4623206455138
 30
0.0
 10
166.4859533142451
 20
195.8596369762982
 30
0.0
 10
166.7402813458706
 20
195.2757140208597
 30
0.0
 10
166.9847100174349
 20
194.7098344232635
 30
0.0
 10
167.2158473149491
 20
194.1607367294398
 30
0.0
 10
167.4314736525757
 20
193.627238054747
 30
0.0
 10
167.6303608901588
 20
193.1084994240124
 30
0.0
 10
167.9184665235695
 20
192.3098433303282
 30
0.0
 10
168.2926497844405
 20
191.1250643188941
 30
0.0
 10
168.703721437691
 20
189.4367038466227
 30
0.0
 10
169.045751862161
 20
187.4412899541972
 30
0.0
 10
169.3197284358047
 20
185.1394116162211
 30
0.0
 10
169.5366588295608
 20
182.5604959301635
 30
0.0
 10
169.7303460307753
 20
179.3207044515849
 30
0.0
 10
169.895693212571
 20
175.033900658939
 30
0.0
 10
170.0205905277262
 20
169.2849273375148
 30
0.0
 10
170.1011387768918
 20
163.9602931515579
 30
0.0
 10
170.2243003416171
 20
158.1836511997449
 30
0.0
 10
170.3267890617953
 20
154.0112912925017
 30
0.0
 10
170.4168205470299
 20
149.9474215576458
 30
0.0
 10
170.459841944295
 20
147.9743830284053
 30
0.0
 10
170.4938253242794
 20
146.4942254027474
 30
0.0
 10
170.5167507399939
 20
145.5741978513989
 30
0.0
 10
170.5465772959497
 20
144.5655624716489
 30
0.0
 10
170.5886332159489
 20
143.4639543731273
 30
0.0
 10
170.6877461099558
 20
142.4051250381901
 30
0.0
 10
170.9473345181938
 20
141.0685298721488
 30
0.0
 10
171.3400952464103
 20
139.7903409214782
 30
0.0
 10
171.8942982380386
 20
138.5170794805853
 30
0.0
 10
172.5813668539712
 20
137.22031161053
 30
0.0
 10
173.7374671747041
 20
135.5359969475356
 30
0.0
 10
175.1560434909906
 20
134.0924242211699
 30
0.0
 10
176.4138729809431
 20
133.1090975391733
 30
0.0
 10
177.2324176667451
 20
132.5542157534508
 30
0.0
 10
178.0933309211568
 20
132.052930479703
 30
0.0
 10
178.9907741564436
 20
131.6096672962984
 30
0.0
 10
179.9231153917882
 20
131.2263162503915
 30
0.0
 10
180.8907394356955
 20
130.9049203348605
 30
0.0
 10
181.8892316505218
 20
130.648627790237
 30
0.0
 10
182.9127516110788
 20
130.463068087488
 30
0.0
 10
183.9551372724067
 20
130.3496895017775
 30
0.0
 10
184.6560427675342
 20
130.3379075639176
 30
0.0
 10
185.0081650736225
 20
130.3319885303842
 30
0.0
  0
SPLINE
  5
139
330
1F
100
AcDbEntity
  8
0
  6
Continuous
 62
     8
370
     0
100
AcDbSpline
210
0.0
220
0.0
230
1.0
 70
     8
 71
     3
 72
    67
 73
    63
 74
     0
 42
0.00000001
 43
0.00000001
 12
1.0
 22
0.0
 32
0.0
 13
1.0
 23
0.0
 33
0.0
 40
0.0
 40
0.0
 40
0.0
 40
0.0
 40
0.0050154881110977
 40
0.0100091262707034
 40
0.0149827575066083
 40
0.0199382714946375
 40
0.0248776239541994
 40
0.0298025748999517
 40
0.0347160338267693
 40
0.0396222513795746
 40
0.044524611230797
 40
0.0494017806581334
 40
0.054245543922353
 40
0.0590598829080112
 40
0.0638484413411891
 40
0.0686146167864584
 40
0.0733616713867108
 40
0.0780928601618822
 40
0.082811533797909
 40
0.0875209013291235
 40
0.0922240334941289
 40
0.0969241775203792
 40
0.1016245769815748
 40
0.106323835370427
 40
0.1109942686177309
 40
0.1156336034266335
 40
0.1202451644394826
 40
0.1248321457372846
 40
0.1565723165329909
 40
0.1875185169420312
 40
0.2034121099167504
 40
0.2185596989243751
 40
0.2364992092368892
 40
0.2500321210048724
 40
0.2615449827549782
 40
0.2725757074889988
 40
0.2831663606951195
 40
0.293368673616648
 40
0.3031971922387115
 40
0.31265664199502
 40
0.3488728435308621
 40
0.3746322103423743
 40
0.4509023037852141
 40
0.4979848772400997
 40
0.56454098653552
 40
0.6212018159740129
 40
0.6679821314397
 40
0.7048958631760928
 40
0.7319508048039393
 40
0.7491382247032802
 40
0.7788502565260664
 40
0.8061787769083875
 40
0.8311369779666227
 40
0.853825049534688
 40
0.8743922543231809
 40
0.8895861239755603
 40
0.9057004886957519
 40
0.9227732955746911
 40
0.9407561396137137
 40
0.9596285317046818
 40
0.9793747687184097
 40
1.0
 40
1.0
 40
1.0
 40
1.0
 10
185.0085860588754
 20
130.3319881374487
 30
0.0
 10
185.1438241764437
 20
130.3327203386236
 30
0.0
 10
185.4137112473268
 20
130.3341815511423
 30
0.0
 10
185.817471161284
 20
130.349521654772
 30
0.0
 10
186.2190605545245
 20
130.3751602209562
 30
0.0
 10
186.6182958246532
 20
130.4123053862996
 30
0.0
 10
187.014982150684
 20
130.4608255585409
 30
0.0
 10
187.4089760283503
 20
130.5206372462932
 30
0.0
 10
187.8002533626289
 20
130.5913234971576
 30
0.0
 10
188.1888373508866
 20
130.6726369468109
 30
0.0
 10
188.5741142825468
 20
130.7642568438492
 30
0.0
 10
188.955155916394
 20
130.8657853200457
 30
0.0
 10
189.3310709967761
 20
130.9767887745344
 30
0.0
 10
189.701627332277
 20
131.0970143918303
 30
0.0
 10
190.0668915700098
 20
131.2263290601181
 30
0.0
 10
190.4269119765445
 20
131.3646134160971
 30
0.0
 10
190.7817306618556
 20
131.5117521693827
 30
0.0
 10
191.131391763932
 20
131.6676383963336
 30
0.0
 10
191.4759352479903
 20
131.8321861868241
 30
0.0
 10
191.8153811176047
 20
132.005349365655
 30
0.0
 10
192.1497454874498
 20
132.1870876716477
 30
0.0
 10
192.4790392991557
 20
132.3773766715211
 30
0.0
 10
192.8031574620987
 20
132.5761540469456
 30
0.0
 10
193.1212899265819
 20
132.7829099393568
 30
0.0
 10
193.4325628314391
 20
132.9969636550136
 30
0.0
 10
193.7362605272299
 20
133.2176287021071
 30
0.0
 10
194.0323917562266
 20
133.4446916182345
 30
0.0
 10
194.8908463465029
 20
134.1385865844756
 30
0.0
 10
196.1873120537481
 20
135.422551968872
 30
0.0
 10
197.4150274204245
 20
137.1630768978578
 30
0.0
 10
198.190448819668
 20
138.6458951800313
 30
0.0
 10
198.6980586257416
 20
139.8669408357764
 30
0.0
 10
199.0658474778468
 20
141.071459482333
 30
0.0
 10
199.2998831219557
 20
142.2081998563266
 30
0.0
 10
199.4082185504088
 20
143.1758911010155
 30
0.0
 10
199.4545070768001
 20
144.0682613528598
 30
0.0
 10
199.4839212923753
 20
144.9258141266843
 30
0.0
 10
199.5067809031212
 20
145.7511530555365
 30
0.0
 10
199.5264083490906
 20
146.5460581047592
 30
0.0
 10
199.5607196563788
 20
148.042227134367
 30
0.0
 10
199.6028439396585
 20
149.9678720115472
 30
0.0
 10
199.6852427472418
 20
153.6944866203927
 30
0.0
 10
199.7822925254376
 20
157.7138298177362
 30
0.0
 10
199.8954564095937
 20
162.8331110932026
 30
0.0
 10
199.9739175393077
 20
167.4242397404271
 30
0.0
 10
200.0532072158344
 20
172.0072182699809
 30
0.0
 10
200.1547899635813
 20
175.790328316994
 30
0.0
 10
200.2701278894076
 20
178.7743131057383
 30
0.0
 10
200.385271682281
 20
180.9595805347371
 30
0.0
 10
200.5164793817258
 20
182.9493200284517
 30
0.0
 10
200.6819490661132
 20
184.9441175186957
 30
0.0
 10
200.9332101704773
 20
187.1412082284679
 30
0.0
 10
201.2552757828464
 20
189.1380587251099
 30
0.0
 10
201.6698083607697
 20
190.9316496898073
 30
0.0
 10
202.1365151542687
 20
192.4383321367687
 30
0.0
 10
202.6283618354693
 20
193.7482139719734
 30
0.0
 10
203.1351323432718
 20
194.9504425167887
 30
0.0
 10
203.6887491133369
 20
196.2141670005014
 30
0.0
 10
204.263291982798
 20
197.5499636657227
 30
0.0
 10
204.8408389605793
 20
198.9627011079583
 30
0.0
 10
205.4119700582505
 20
200.4547789822562
 30
0.0
 10
205.7685960063323
 20
201.4833017034434
 30
0.0
 10
205.9507913281966
 20
202.008759901983
 30
0.0
  0
SPLINE
  5
13A
330
1F
100
AcDbEntity
  8
0
  6
Continuous
 62
     8
370
     0
100
AcDbSpline
210
0.0
220
0.0
230
1.0
 70
     8
 71
     3
 72
    41
 73
    37
 74
     0
 42
0.00000001
 43
0.00000001
 12
1.0
 22
0.0
 32
0.0
 13
1.0
 23
0.0
 33
0.0
 40
0.0
 40
0.0
 40
0.0
 40
0.0
 40
0.0074551505333077
 40
0.0413277778015935
 40
0.0747513900777216
 40
0.1077679591188084
 40
0.1349096687253411
 40
0.1614513580350443
 40
0.1878577553198211
 40
0.2135507372847281
 40
0.2395823380304558
 40
0.2865261367356573
 40
0.3331783833679703
 40
0.3795603224303528
 40
0.4261309105085305
 40
0.4724848986319206
 40
0.516371525384158
 40
0.5605980271775345
 40
0.6052501352525117
 40
0.649845976967219
 40
0.6934919405468861
 40
0.7373368707520068
 40
0.7691461474813067
 40
0.8021534578645755
 40
0.8187276905311239
 40
0.835106387599155
 40
0.8518011795991783
 40
0.8684871389795406
 40
0.884808621836742
 40
0.9014311609949626
 40
0.9179842532036739
 40
0.934360574636353
 40
0.9507951074699688
 40
0.9673889837799714
 40
0.9836878750513237
 40
1.0
 40
1.0
 40
1.0
 40
1.0
 10
205.6031999255024
 20
198.4864863113191
 30
0.0
 10
205.5592971129136
 20
198.1767004432675
 30
0.0
 10
205.3159209831589
 20
196.459396216651
 30
0.0
 10
204.9491505054067
 20
193.3431651329909
 30
0.0
 10
204.554445103969
 20
189.1513023441735
 30
0.0
 10
204.308112521955
 20
185.230993543859
 30
0.0
 10
204.1548436031497
 20
181.5954651571407
 30
0.0
 10
204.0578815536295
 20
178.2355613893744
 30
0.0
 10
203.9922067344189
 20
174.9357610272909
 30
0.0
 10
203.9455836696674
 20
171.6570629042714
 30
0.0
 10
203.8990464550208
 20
167.5163793025447
 30
0.0
 10
203.8611699507488
 20
162.4959520304429
 30
0.0
 10
203.802634515789
 20
156.6216078972953
 30
0.0
 10
203.7323770228214
 20
150.7630562445117
 30
0.0
 10
203.6496508293803
 20
144.9171864562883
 30
0.0
 10
203.5577292031271
 20
139.176191468136
 30
0.0
 10
203.4572708125967
 20
133.533734391522
 30
0.0
 10
203.3497881844865
 20
127.9628394849078
 30
0.0
 10
203.2343484436318
 20
122.3623561781797
 30
0.0
 10
203.1127651618447
 20
116.7862875017066
 30
0.0
 10
202.9832943752946
 20
111.2445923269052
 30
0.0
 10
202.868920332601
 20
106.2382551585502
 30
0.0
 10
202.7521897270562
 20
101.6817148114724
 30
0.0
 10
202.7080489603693
 20
98.25909767856238
 30
0.0
 10
202.2632160244408
 20
95.51847619222201
 30
0.0
 10
201.638933131082
 20
93.5238420192784
 30
0.0
 10
200.7740437709864
 20
91.61797338431346
 30
0.0
 10
199.6977513206913
 20
89.82564906867115
 30
0.0
 10
198.4204718765353
 20
88.17432569079538
 30
0.0
 10
196.9616643455571
 20
86.68872999053548
 30
0.0
 10
195.3390892363723
 20
85.38045522239796
 30
0.0
 10
193.5819317897364
 20
84.27429637452991
 30
0.0
 10
191.705041031739
 20
83.38096493897443
 30
0.0
 10
189.7391698761693
 20
82.72024372680067
 30
0.0
 10
187.7154261000178
 20
82.2758112666982
 30
0.0
 10
186.3486080839033
 20
82.18021082623353
 30
0.0
 10
185.6649217458104
 20
82.13239120848576
 30
0.0
  0
SPLINE
  5
13B
330
1F
100
AcDbEntity
  8
0
  6
Continuous
 62
     8
370
     0
100
AcDbSpline
210
0.0
220
0.0
230
1.0
 70
     8
 71
     3
 72
     9
 73
     5
 74
     0
 42
0.00000001
 43
0.00000001
 12
1.0
 22
0.0
 32
0.0
 13
1.0
 23
0.0
 33
0.0
 40
0.0
 40
0.0
 40
0.0
 40
0.0
 40
0.5024414162913117
 40
1.0
 40
1.0
 40
1.0
 40
1.0
 10
185.0109579679323
 20
82.13238298520301
 30
0.0
 10
185.1204861770773
 20
82.13238561780662
 30
0.0
 10
185.3384781769275
 20
82.13239085742963
 30
0.0
 10
185.55646130823
 20
82.13241036236765
 30
0.0
 10
185.6649206863133
 20
82.13242006721697
 30
0.0
  0
SPLINE
  5
13C
330
1F
100
AcDbEntity
  8
0
  6
Continuous
 62
     8
370
     0
100
AcDbSpline
210
0.0
220
0.0
230
1.0
 70
     8
 71
     3
 72
    33
 73
    29
 74
     0
 42
0.00000001
 43
0.00000001
 12
1.0
 22
0.0
 32
0.0
 13
1.0
 23
0.0
 33
0.0
 40
0.0
 40
0.0
 40
0.0
 40
0.0
 40
0.016501532526588
 40
0.0328049335513869
 40
0.0494400607914967
 40
0.0660151762486871
 40
0.0825674117620209
 40
0.0991409528744897
 40
0.1156367349032832
 40
0.1319496035809002
 40
0.1482599035266746
 40
0.164847998367604
 40
0.1938438569034206
 40
0.2232869737582289
 40
0.2515018060665919
 40
0.2802246446868289
 40
0.3086555223363683
 40
0.3380002527410662
 40
0.3662911148205962
 40
0.4192808347417382
 40
0.4730120201076808
 40
0.5263247363696669
 40
0.6145181798571095
 40
0.7022756261644607
 40
0.7901902302565917
 40
0.8801145110900546
 40
0.9683559103090245
 40
1.0
 40
1.0
 40
1.0
 40
1.0
 10
184.3541274906997
 20
82.13239122416199
 30
0.0
 10
183.6615488861945
 20
82.18111679928968
 30
0.0
 10
182.2847073677903
 20
82.27798290864894
 30
0.0
 10
180.249192247605
 20
82.72851055109945
 30
0.0
 10
178.2744126659028
 20
83.39637264845443
 30
0.0
 10
176.383756247079
 20
84.3027492380094
 30
0.0
 10
174.6166519836906
 20
85.42527567972702
 30
0.0
 10
172.9958181459951
 20
86.74495582618405
 30
0.0
 10
171.5453899466654
 20
88.23585993653037
 30
0.0
 10
170.2864908004601
 20
89.87788355405405
 30
0.0
 10
169.2259442301934
 20
91.65859142746346
 30
0.0
 10
168.1477666115952
 20
94.03144619195619
 30
0.0
 10
167.3764727590336
 20
97.12301410853844
 30
0.0
 10
167.2775472503299
 20
100.7727284763184
 30
0.0
 10
167.196395238268
 20
104.3996425095373
 30
0.0
 10
167.111602061043
 20
107.9869852161315
 30
0.0
 10
167.0263358993713
 20
111.620992766715
 30
0.0
 10
166.9424527481128
 20
115.2370951688444
 30
0.0
 10
166.8379744733095
 20
119.885044023444
 30
0.0
 10
166.7175124343881
 20
125.5577758432601
 30
0.0
 10
166.5846385049331
 20
132.282034587718
 30
0.0
 10
166.4369178844587
 20
140.4857458516447
 30
0.0
 10
166.2902756432744
 20
150.1197085219619
 30
0.0
 10
166.1635735866166
 20
161.2081035828643
 30
0.0
 10
166.08573910229
 20
172.3702607097469
 30
0.0
 10
165.8689831958928
 20
183.5492825566135
 30
0.0
 10
165.2751808316851
 20
192.3598616337684
 30
0.0
 10
164.5398594145026
 20
197.3448941339361
 30
0.0
 10
164.3457693950299
 20
198.6607065561237
 30
0.0
  0
SPLINE
  5
13D
330
1F
100
AcDbEntity
  8
0
  6
Continuous
 62
     8
370
     0
100
AcDbSpline
210
0.0
220
0.0
230
1.0
 70
     8
 71
     3
 72
     9
 73
     5
 74
     0
 42
0.00000001
 43
0.00000001
 12
1.0
 22
0.0
 32
0.0
 13
1.0
 23
0.0
 33
0.0
 40
0.0
 40
0.0
 40
0.0
 40
0.0
 40
0.4971989490417874
 40
1.0
 40
1.0
 40
1.0
 40
1.0
 10
184.3541285558697
 20
82.13241983698333
 30
0.0
 10
184.462978116949
 20
82.13240792225585
 30
0.0
 10
184.6819036824377
 20
82.13238395855363
 30
0.0
 10
184.9008381464153
 20
82.13238309545409
 30
0.0
 10
185.0109186249942
 20
82.13238266148676
 30
0.0
  0
SPLINE
  5
13E
330
1F
100
AcDbEntity
  8
0
  6
Continuous
 62
     8
370
     0
100
AcDbSpline
210
0.0
220
0.0
230
1.0
 70
     8
 71
     3
 72
    44
 73
    40
 74
     0
 42
0.00000001
 43
0.00000001
 12
1.0
 22
0.0
 32
0.0
 13
1.0
 23
0.0
 33
0.0
 40
0.0
 40
0.0
 40
0.0
 40
0.0
 40
0.2499999999999984
 40
0.2499999999999984
 40
0.3749999999999976
 40
0.3749999999999976
 40
0.4374999999999972
 40
0.4374999999999972
 40
0.4999999999999969
 40
0.4999999999999969
 40
0.5624999999999966
 40
0.5624999999999966
 40
0.5937499999999963
 40
0.5937499999999963
 40
0.6093749999999962
 40
0.6093749999999962
 40
0.624999999999996
 40
0.624999999999996
 40
0.640624999999996
 40
0.640624999999996
 40
0.6562499999999958
 40
0.6562499999999958
 40
0.687499999999996
 40
0.687499999999996
 40
0.7031249999999962
 40
0.7031249999999962
 40
0.7187499999999964
 40
0.7187499999999964
 40
0.7499999999999969
 40
0.7499999999999969
 40
0.8124999999999977
 40
0.8124999999999977
 40
0.8749999999999984
 40
0.8749999999999984
 40
0.9374999999999992
 40
0.9374999999999992
 40
0.9687499999999996
 40
0.9687499999999996
 40
1.0
 40
1.0
 40
1.0
 40
1.0
 10
174.6586314565813
 20
230.9390689706908
 30
0.0
 10
174.6658837661539
 20
233.0276943916316
 30
0.0
 10
174.6894218860998
 20
235.1173322953427
 30
0.0
 10
174.7797026015485
 20
238.2548663832967
 30
0.0
 10
174.8198338771404
 20
239.3015858192132
 30
0.0
 10
174.886822477805
 20
240.8704764133127
 30
0.0
 10
174.9100993324381
 20
241.3934361912751
 30
0.0
 10
174.9646565735661
 20
242.4419104552301
 30
0.0
 10
174.9958353176035
 20
242.9674897620188
 30
0.0
 10
175.0845168289072
 20
244.0232820472027
 30
0.0
 10
175.1406689443747
 20
244.5547727750438
 30
0.0
 10
175.2828801107273
 20
245.3538779933221
 30
0.0
 10
175.3403790193379
 20
245.6205458129704
 30
0.0
 10
175.4572479913819
 20
246.0197049671022
 30
0.0
 10
175.5013881958116
 20
246.1525561559195
 30
0.0
 10
175.6050496367587
 20
246.4184128008102
 30
0.0
 10
175.6649766824929
 20
246.5519914617487
 30
0.0
 10
175.8027798686774
 20
246.8112560156878
 30
0.0
 10
175.8802923036162
 20
246.9366178933633
 30
0.0
 10
176.0557456386935
 20
247.1794780169439
 30
0.0
 10
176.1543822690787
 20
247.2971827773676
 30
0.0
 10
176.4743572651423
 20
247.6260989099087
 30
0.0
 10
176.7149002675276
 20
247.8098680794144
 30
0.0
 10
177.1023539616694
 20
248.0474098817292
 30
0.0
 10
177.2356317100378
 20
248.1199601619292
 30
0.0
 10
177.5018192251968
 20
248.251479716212
 30
0.0
 10
177.6356331513587
 20
248.3110912645499
 30
0.0
 10
178.038457542147
 20
248.4758799484507
 30
0.0
 10
178.3087227036542
 20
248.5675897186267
 30
0.0
 10
179.1209046267331
 20
248.8078222415259
 30
0.0
 10
179.6654440642319
 20
248.9214945960699
 30
0.0
 10
180.7464052914453
 20
249.1000455843166
 30
0.0
 10
181.2830005639186
 20
249.163908551651
 30
0.0
 10
182.3521524905845
 20
249.2608688046382
 30
0.0
 10
182.8844842113023
 20
249.2935722498079
 30
0.0
 10
183.6817803879492
 20
249.3252773235373
 30
0.0
 10
183.9473734004455
 20
249.3329091071974
 30
0.0
 10
184.4786726734869
 20
249.34319651015
 30
0.0
 10
184.7456853750744
 20
249.3457644701638
 30
0.0
 10
185.0090536001209
 20
249.3456759455254
 30
0.0
  0
SPLINE
  5
13F
330
1F
100
AcDbEntity
  8
0
  6
Continuous
 62
     8
370
     0
100
AcDbSpline
210
0.0
220
0.0
230
1.0
 70
     8
 71
     3
 72
    44
 73
    40
 74
     0
 42
0.00000001
 43
0.00000001
 12
1.0
 22
0.0
 32
0.0
 13
1.0
 23
0.0
 33
0.0
 40
0.0
 40
0.0
 40
0.0
 40
0.0
 40
0.0312499999999994
 40
0.0312499999999994
 40
0.0624999999999989
 40
0.0624999999999989
 40
0.1249999999999978
 40
0.1249999999999978
 40
0.1874999999999967
 40
0.1874999999999967
 40
0.2499999999999956
 40
0.2499999999999956
 40
0.2812499999999951
 40
0.2812499999999951
 40
0.2968749999999949
 40
0.2968749999999949
 40
0.3124999999999947
 40
0.3124999999999947
 40
0.3437499999999944
 40
0.3437499999999944
 40
0.3593749999999943
 40
0.3593749999999943
 40
0.3749999999999942
 40
0.3749999999999942
 40
0.3906249999999941
 40
0.3906249999999941
 40
0.4062499999999939
 40
0.4062499999999939
 40
0.4374999999999944
 40
0.4374999999999944
 40
0.4999999999999951
 40
0.4999999999999951
 40
0.5624999999999958
 40
0.5624999999999958
 40
0.6249999999999964
 40
0.6249999999999964
 40
0.7499999999999979
 40
0.7499999999999979
 40
1.0
 40
1.0
 40
1.0
 40
1.0
 10
185.0099800161689
 20
249.3456759594723
 30
0.0
 10
185.273348241233
 20
249.3457644841085
 30
0.0
 10
185.540360942838
 20
249.3431965241273
 30
0.0
 10
186.0716602159259
 20
249.332909121301
 30
0.0
 10
186.3372532284549
 20
249.3252773377339
 30
0.0
 10
187.1345494052134
 20
249.2935722643849
 30
0.0
 10
187.666881126022
 20
249.2608688196064
 30
0.0
 10
188.7360330529443
 20
249.1639085676877
 30
0.0
 10
189.2726283256159
 20
249.1000456010304
 30
0.0
 10
190.3535895536907
 20
248.9214946143823
 30
0.0
 10
190.8981289917572
 20
248.8078222607743
 30
0.0
 10
191.7103109166284
 20
248.5675897390387
 30
0.0
 10
191.9805760788926
 20
248.4758799692162
 30
0.0
 10
192.3834004712965
 20
248.3110912855786
 30
0.0
 10
192.5172143980818
 20
248.2514797372797
 30
0.0
 10
192.7834019147219
 20
248.1199601829
 30
0.0
 10
192.916679663938
 20
248.0474099025609
 30
0.0
 10
193.3041333609351
 20
247.8098680993675
 30
0.0
 10
193.5446763657123
 20
247.6260989285865
 30
0.0
 10
193.8646513649476
 20
247.2971827929024
 30
0.0
 10
193.9632879962813
 20
247.1794780312555
 30
0.0
 10
194.1387413328031
 20
246.9366179052707
 30
0.0
 10
194.2162537682833
 20
246.8112560263717
 30
0.0
 10
194.3540569552243
 20
246.5519914700985
 30
0.0
 10
194.4139840011524
 20
246.4184128080968
 30
0.0
 10
194.5176454422555
 20
246.1525561614305
 30
0.0
 10
194.5617856466546
 20
246.0197049718807
 30
0.0
 10
194.6786546184653
 20
245.6205458158981
 30
0.0
 10
194.7361535267499
 20
245.3538779954765
 30
0.0
 10
194.8783646921295
 20
244.554772775539
 30
0.0
 10
194.9345168069297
 20
244.0232820472517
 30
0.0
 10
195.0231983171525
 20
242.9674897615268
 30
0.0
 10
195.0543770607375
 20
242.4419104546295
 30
0.0
 10
195.1089343010237
 20
241.3934361905436
 30
0.0
 10
195.1322111552614
 20
240.87047641256
 30
0.0
 10
195.1991997547059
 20
239.3015858184466
 30
0.0
 10
195.2393310294237
 20
238.2548663824386
 30
0.0
 10
195.3296117428002
 20
235.1173322944055
 30
0.0
 10
195.3531498621148
 20
233.0276943906124
 30
0.0
 10
195.3604021714349
 20
230.93906896981
 30
0.0
  0
LWPOLYLINE
  5
140
330
1F
100
AcDbEntity
  8
0
  6
Continuous
 62
     8
370
     0
100
AcDbPolyline
 90
        9
 70
   128
 43
0.0
 10
194.8995578495
 20
230.4239710937
 10
194.9585872467
 20
230.415290662
 10
195.0244208901
 20
230.4324347048
 10
195.0934694605
 20
230.4744685109
 10
195.1619683578
 20
230.5391003533
 10
195.2261829506
 20
230.6228064364
 10
195.2826121921
 20
230.7210230171
 10
195.3281795011
 20
230.8283952248
 10
195.3604005004
 20
230.9390690146
  0
LWPOLYLINE
  5
141
330
1F
100
AcDbEntity
  8
0
  6
Continuous
 62
     8
370
     0
100
AcDbPolyline
 90
        9
 70
   128
 43
0.0
 10
175.1194757668
 20
230.4239710937
 10
175.0604463696
 20
230.415290662
 10
174.9946127262
 20
230.4324347048
 10
174.9255641558
 20
230.4744685109
 10
174.8570652585
 20
230.5391003533
 10
174.7928506657
 20
230.6228064364
 10
174.7364214242
 20
230.7210230171
 10
174.6908541152
 20
230.8283952248
 10
174.6586331159
 20
230.9390690146
  0
LWPOLYLINE
  5
142
330
1F
100
AcDbEntity
  8
0
  6
Continuous
 62
     8
370
     0
100
AcDbPolyline
 90
        3
 70
   128
 43
0.0
 10
195.4971013975
 20
230.2277609304
 10
195.4092426699
 20
230.2328781398
 10
195.2918493286
 20
230.2652997031
  0
ARC
  5
143
330
1F
100
AcDbEntity
  8
0
  6
Continuous
 62
     8
370
     0
100
AcDbCircle
 10
174.5370052375
 20
230.7252299669
 30
0.0
 40
0.4976986223493963
100
AcDbArc
 50
259.2416360143
 51
292.4648647663
  0
LWPOLYLINE
  5
144
330
1F
100
AcDbEntity
  8
0
  6
Continuous
 62
     8
370
     0
100
AcDbPolyline
 90
        3
 70
   128
 43
0.0
 10
174.0678153793
 20
230.5559530494
 10
174.0527516149
 20
230.6046037162
 10
174.0372462164
 20
230.725711762
  0
SPLINE
  5
145
330
1F
100
AcDbEntity
  8
0
  6
Continuous
 62
     8
370
     0
100
AcDbSpline
210
0.0
220
0.0
230
1.0
 70
     8
 71
     3
 72
    10
 73
     6
 74
     0
 42
0.00000001
 43
0.00000001
 12
1.0
 22
0.0
 32
0.0
 13
1.0
 23
0.0
 33
0.0
 40
0.0
 40
0.0
 40
0.0
 40
0.0
 40
0.0641632791564942
 40
0.5322848487470995
 40
0.9999999999999999
 40
0.9999999999999999
 40
0.9999999999999999
 40
0.9999999999999999
 10
174.8348797096595
 20
230.3095296933455
 30
0.0
 10
174.828830536622
 20
230.3070724826769
 30
0.0
 10
174.7786478901358
 20
230.2866879882076
 30
0.0
 10
174.7315032403404
 20
230.2670388237837
 30
0.0
 10
174.7286235215792
 20
230.2658792423747
 30
0.0
 10
174.7271842875056
 20
230.2652997034637
 30
0.0
  0
ENDSEC
  0
SECTION
  2
OBJECTS
  0
DICTIONARY
  5
C
330
0
100
AcDbDictionary
281
     1
  3
ACAD_GROUP
350
D
  3
ACAD_LAYOUT
350
1A
  3
ACAD_MATERIAL
350
3B
  3
ACAD_MLEADERSTYLE
350
147
  3
ACAD_MLINESTYLE
350
17
  3
ACAD_PLOTSETTINGS
350
19
  3
ACAD_PLOTSTYLENAME
350
E
  3
ACAD_TABLESTYLE
350
146
  3
ACAD_VISUALSTYLE
350
2A
  0
DICTIONARY
  5
D
102
{ACAD_REACTORS
330
C
102
}
330
C
100
AcDbDictionary
281
     1
  0
DICTIONARY
  5
1A
102
{ACAD_REACTORS
330
C
102
}
330
C
100
AcDbDictionary
281
     1
  3
Layout1
350
1E
  3
Layout2
350
26
  3
Model
350
22
  0
DICTIONARY
  5
3B
102
{ACAD_REACTORS
330
C
102
}
330
C
100
AcDbDictionary
281
     1
  3
ByBlock
350
3D
  3
ByLayer
350
3C
  3
Global
350
3E
  0
DICTIONARY
  5
147
102
{ACAD_REACTORS
330
C
102
}
330
C
100
AcDbDictionary
281
     1
  0
DICTIONARY
  5
17
102
{ACAD_REACTORS
330
C
102
}
330
C
100
AcDbDictionary
281
     1
  3
Standard
350
18
  0
DICTIONARY
  5
19
102
{ACAD_REACTORS
330
C
102
}
330
C
100
AcDbDictionary
281
     1
  0
ACDBDICTIONARYWDFLT
  5
E
102
{ACAD_REACTORS
330
C
102
}
330
C
100
AcDbDictionary
281
     1
  3
Normal
350
F
100
AcDbDictionaryWithDefault
340
F
  0
DICTIONARY
  5
146
102
{ACAD_REACTORS
330
C
102
}
330
C
100
AcDbDictionary
281
     1
  0
DICTIONARY
  5
2A
102
{ACAD_REACTORS
330
C
102
}
330
C
100
AcDbDictionary
281
     1
  3
2dWireframe
350
2F
  3
3D Hidden
350
31
  3
3dWireframe
350
30
  3
Basic
350
32
  3
Brighten
350
36
  3
ColorChange
350
3A
  3
Conceptual
350
34
  3
Dim
350
35
  3
Facepattern
350
39
  3
Flat
350
2B
  3
FlatWithEdges
350
2C
  3
Gouraud
350
2D
  3
GouraudWithEdges
350
2E
  3
Linepattern
350
38
  3
Realistic
350
33
  3
Thicken
350
37
  0
LAYOUT
  5
1E
102
{ACAD_REACTORS
330
1A
102
}
330
1A
100
AcDbPlotSettings
  1

  2
none_device
  4

  6

 40
0.0
 41
0.0
 42
0.0
 43
0.0
 44
0.0
 45
0.0
 46
0.0
 47
0.0
 48
0.0
 49
0.0
140
0.0
141
0.0
142
1.0
143
1.0
 70
   688
 72
     0
 73
     0
 74
     5
  7

 75
    16
 76
     0
 77
     2
 78
   300
147
1.0
148
0.0
149
0.0
100
AcDbLayout
  1
Layout1
 70
     1
 71
     1
 10
0.0
 20
0.0
 11
420.0
 21
297.0
 12
0.0
 22
0.0
 32
0.0
 14
1.0000000000E+20
 24
1.0000000000E+20
 34
1.0000000000E+20
 15
-1.0000000000E+20
 25
-1.0000000000E+20
 35
-1.0000000000E+20
146
0.0
 13
0.0
 23
0.0
 33
0.0
 16
1.0
 26
0.0
 36
0.0
 17
0.0
 27
1.0
 37
0.0
 76
     0
330
1B
  0
LAYOUT
  5
26
102
{ACAD_REACTORS
330
1A
102
}
330
1A
100
AcDbPlotSettings
  1

  2
none_device
  4

  6

 40
0.0
 41
0.0
 42
0.0
 43
0.0
 44
0.0
 45
0.0
 46
0.0
 47
0.0
 48
0.0
 49
0.0
140
0.0
141
0.0
142
1.0
143
1.0
 70
   688
 72
     0
 73
     0
 74
     5
  7

 75
    16
 76
     0
 77
     2
 78
   300
147
1.0
148
0.0
149
0.0
100
AcDbLayout
  1
Layout2
 70
     1
 71
     2
 10
0.0
 20
0.0
 11
0.0
 21
0.0
 12
0.0
 22
0.0
 32
0.0
 14
0.0
 24
0.0
 34
0.0
 15
0.0
 25
0.0
 35
0.0
146
0.0
 13
0.0
 23
0.0
 33
0.0
 16
1.0
 26
0.0
 36
0.0
 17
0.0
 27
1.0
 37
0.0
 76
     0
330
23
  0
LAYOUT
  5
22
102
{ACAD_REACTORS
330
1A
102
}
330
1A
100
AcDbPlotSettings
  1

  2
none_device
  4

  6

 40
0.0
 41
0.0
 42
0.0
 43
0.0
 44
0.0
 45
0.0
 46
0.0
 47
0.0
 48
0.0
 49
0.0
140
0.0
141
0.0
142
1.0
143
1.0
 70
  1712
 72
     0
 73
     0
 74
     0
  7

 75
     0
 76
     0
 77
     2
 78
   300
147
1.0
148
0.0
149
0.0
100
AcDbLayout
  1
Model
 70
     1
 71
     0
 10
0.0
 20
0.0
 11
594.0
 21
841.0
 12
0.0
 22
0.0
 32
0.0
 14
0.0
 24
0.0
 34
0.0
 15
594.0
 25
841.0
 35
0.0
146
0.0
 13
0.0
 23
0.0
 33
0.0
 16
1.0
 26
0.0
 36
0.0
 17
0.0
 27
1.0
 37
0.0
 76
     0
330
1F
331
29
  0
MATERIAL
  5
3D
102
{ACAD_REACTORS
330
3B
102
}
330
3B
100
AcDbMaterial
  1
ByBlock
 72
     1
 94
      127
  0
MATERIAL
  5
3C
102
{ACAD_REACTORS
330
3B
102
}
330
3B
100
AcDbMaterial
  1
ByLayer
 72
     1
 94
      127
  0
MATERIAL
  5
3E
102
{ACAD_REACTORS
330
3B
102
}
330
3B
100
AcDbMaterial
  1
Global
 72
     1
 94
      127
  0
MLINESTYLE
  5
18
102
{ACAD_REACTORS
330
17
102
}
330
17
100
AcDbMlineStyle
  2
Standard
 70
     0
  3

 62
   256
 51
90.0
 52
90.0
 71
     2
 49
0.5
 62
   256
  6
BYLAYER
 49
-0.5
 62
   256
  6
BYLAYER
  0
ACDBPLACEHOLDER
  5
F
102
{ACAD_REACTORS
330
E
102
}
330
E
  0
VISUALSTYLE
  5
2F
102
{ACAD_REACTORS
330
2A
102
}
330
2A
100
AcDbVisualStyle
  2
2dWireframe
 70
     4
177
     2
291
     0
 71
     0
176
     1
 72
     2
176
     1
 73
     0
176
     1
 90
        0
176
     1
 40
-0.6
176
     1
 41
-30.0
176
     1
 62
     5
 63
     7
421
 16777215
176
     1
 74
     1
176
     1
 91
        4
176
     1
 64
     7
176
     1
 65
   257
176
     1
 75
     1
176
     1
175
     1
176
     1
 42
1.0
176
     1
 92
        0
176
     1
 66
   257
176
     1
 43
1.0
176
     1
 76
     1
176
     1
 77
     6
176
     1
 78
     2
176
     1
 67
     7
176
     1
 79
     5
176
     1
170
     0
176
     1
171
     0
176
     1
290
     0
176
     1
 93
        1
176
     1
 44
0.0
176
     1
173
     0
176
     1
  0
VISUALSTYLE
  5
31
102
{ACAD_REACTORS
330
2A
102
}
330
2A
100
AcDbVisualStyle
  2
3D Hidden
 70
     6
177
     2
291
     0
 71
     1
176
     1
 72
     2
176
     1
 73
     2
176
     1
 90
        0
176
     1
 40
-0.6
176
     1
 41
-30.0
176
     1
 62
     5
 63
     7
421
 16777215
176
     1
 74
     2
176
     1
 91
        2
176
     1
 64
     7
176
     1
 65
   257
176
     1
 75
     2
176
     1
175
     1
176
     1
 42
40.0
176
     1
 92
        0
176
     1
 66
   257
176
     1
 43
1.0
176
     1
 76
     1
176
     1
 77
     6
176
     1
 78
     2
176
     1
 67
     7
176
     1
 79
     3
176
     1
170
     0
176
     1
171
     0
176
     1
290
     0
176
     1
 93
        1
176
     1
 44
0.0
176
     1
173
     0
176
     1
  0
VISUALSTYLE
  5
30
102
{ACAD_REACTORS
330
2A
102
}
330
2A
100
AcDbVisualStyle
  2
3dWireframe
 70
     5
177
     2
291
     0
 71
     0
176
     1
 72
     2
176
     1
 73
     0
176
     1
 90
        0
176
     1
 40
-0.6
176
     1
 41
-30.0
176
     1
 62
     5
 63
     7
421
 16777215
176
     1
 74
     1
176
     1
 91
        4
176
     1
 64
     7
176
     1
 65
   257
176
     1
 75
     1
176
     1
175
     1
176
     1
 42
1.0
176
     1
 92
        0
176
     1
 66
   257
176
     1
 43
1.0
176
     1
 76
     1
176
     1
 77
     6
176
     1
 78
     2
176
     1
 67
     7
176
     1
 79
     5
176
     1
170
     0
176
     1
171
     0
176
     1
290
     0
176
     1
 93
        1
176
     1
 44
0.0
176
     1
173
     0
176
     1
  0
VISUALSTYLE
  5
32
102
{ACAD_REACTORS
330
2A
102
}
330
2A
100
AcDbVisualStyle
  2
Basic
 70
     7
177
     2
291
     1
 71
     1
176
     1
 72
     0
176
     1
 73
     1
176
     1
 90
        0
176
     1
 40
-0.6
176
     1
 41
-30.0
176
     1
 62
     5
 63
     7
421
 16777215
176
     1
 74
     0
176
     1
 91
        4
176
     1
 64
     7
176
     1
 65
   257
176
     1
 75
     1
176
     1
175
     1
176
     1
 42
1.0
176
     1
 92
        8
176
     1
 66
     7
176
     1
 43
1.0
176
     1
 76
     1
176
     1
 77
     6
176
     1
 78
     2
176
     1
 67
     7
176
     1
 79
     5
176
     1
170
     0
176
     1
171
     0
176
     1
290
     0
176
     1
 93
        1
176
     1
 44
0.0
176
     1
173
     0
176
     1
  0
VISUALSTYLE
  5
36
102
{ACAD_REACTORS
330
2A
102
}
330
2A
100
AcDbVisualStyle
  2
Brighten
 70
    12
177
     2
291
     1
 71
     2
176
     1
 72
     2
176
     1
 73
     0
176
     1
 90
        0
176
     1
 40
-0.6
176
     1
 41
-30.0
176
     1
 62
     5
 63
     7
421
 16777215
176
     1
 74
     1
176
     1
 91
        4
176
     1
 64
     7
176
     1
 65
   257
176
     1
 75
     1
176
     1
175
     1
176
     1
 42
1.0
176
     1
 92
        8
176
     1
 66
     7
176
     1
 43
1.0
176
     1
 76
     1
176
     1
 77
     6
176
     1
 78
     2
176
     1
 67
     7
176
     1
 79
     5
176
     1
170
     0
176
     1
171
     0
176
     1
290
     0
176
     1
 93
        1
176
     1
 44
50.0
176
     1
173
     0
176
     1
  0
VISUALSTYLE
  5
3A
102
{ACAD_REACTORS
330
2A
102
}
330
2A
100
AcDbVisualStyle
  2
ColorChange
 70
    16
177
     2
291
     1
 71
     2
176
     1
 72
     2
176
     1
 73
     3
176
     1
 90
        0
176
     1
 40
-0.6
176
     1
 41
-30.0
176
     1
 62
     5
 63
     8
421
  8421504
176
     1
 74
     1
176
     1
 91
        4
176
     1
 64
     7
176
     1
 65
   257
176
     1
 75
     1
176
     1
175
     1
176
     1
 42
1.0
176
     1
 92
        8
176
     1
 66
     8
424
  8421504
176
     1
 43
1.0
176
     1
 76
     1
176
     1
 77
     6
176
     1
 78
     2
176
     1
 67
     7
176
     1
 79
     5
176
     1
170
     0
176
     1
171
     0
176
     1
290
     0
176
     1
 93
        1
176
     1
 44
0.0
176
     1
173
     0
176
     1
  0
VISUALSTYLE
  5
34
102
{ACAD_REACTORS
330
2A
102
}
330
2A
100
AcDbVisualStyle
  2
Conceptual
 70
     9
177
     2
291
     0
 71
     3
176
     1
 72
     2
176
     1
 73
     0
176
     1
 90
        0
176
     1
 40
-0.6
176
     1
 41
-30.0
176
     1
 62
     5
 63
     7
421
 16777215
176
     1
 74
     2
176
     1
 91
        2
176
     1
 64
     7
176
     1
 65
   257
176
     1
 75
     1
176
     1
175
     1
176
     1
 42
40.0
176
     1
 92
        8
176
     1
 66
     7
176
     1
 43
1.0
176
     1
 76
     1
176
     1
 77
     6
176
     1
 78
     2
176
     1
 67
     7
176
     1
 79
     3
176
     1
170
     0
176
     1
171
     0
176
     1
290
     0
176
     1
 93
        1
176
     1
 44
0.0
176
     1
173
     0
176
     1
  0
VISUALSTYLE
  5
35
102
{ACAD_REACTORS
330
2A
102
}
330
2A
100
AcDbVisualStyle
  2
Dim
 70
    11
177
     2
291
     1
 71
     2
176
     1
 72
     2
176
     1
 73
     0
176
     1
 90
        0
176
     1
 40
-0.6
176
     1
 41
-30.0
176
     1
 62
     5
 63
     7
421
 16777215
176
     1
 74
     1
176
     1
 91
        4
176
     1
 64
     7
176
     1
 65
   257
176
     1
 75
     1
176
     1
175
     1
176
     1
 42
1.0
176
     1
 92
        8
176
     1
 66
     7
176
     1
 43
1.0
176
     1
 76
     1
176
     1
 77
     6
176
     1
 78
     2
176
     1
 67
     7
176
     1
 79
     5
176
     1
170
     0
176
     1
171
     0
176
     1
290
     0
176
     1
 93
        1
176
     1
 44
-50.0
176
     1
173
     0
176
     1
  0
VISUALSTYLE
  5
39
102
{ACAD_REACTORS
330
2A
102
}
330
2A
100
AcDbVisualStyle
  2
Facepattern
 70
    15
177
     2
291
     1
 71
     2
176
     1
 72
     2
176
     1
 73
     0
176
     1
 90
        0
176
     1
 40
-0.6
176
     1
 41
-30.0
176
     1
 62
     5
 63
     7
421
 16777215
176
     1
 74
     1
176
     1
 91
        4
176
     1
 64
     7
176
     1
 65
   257
176
     1
 75
     1
176
     1
175
     1
176
     1
 42
1.0
176
     1
 92
        8
176
     1
 66
     7
176
     1
 43
1.0
176
     1
 76
     1
176
     1
 77
     6
176
     1
 78
     2
176
     1
 67
     7
176
     1
 79
     5
176
     1
170
     0
176
     1
171
     0
176
     1
290
     0
176
     1
 93
        1
176
     1
 44
0.0
176
     1
173
     0
176
     1
  0
VISUALSTYLE
  5
2B
102
{ACAD_REACTORS
330
2A
102
}
330
2A
100
AcDbVisualStyle
  2
Flat
 70
     0
177
     2
291
     1
 71
     2
176
     1
 72
     1
176
     1
 73
     1
176
     1
 90
        2
176
     1
 40
-0.6
176
     1
 41
30.0
176
     1
 62
     5
 63
     7
421
 16777215
176
     1
 74
     0
176
     1
 91
        4
176
     1
 64
     7
176
     1
 65
   257
176
     1
 75
     1
176
     1
175
     1
176
     1
 42
1.0
176
     1
 92
        8
176
     1
 66
     7
176
     1
 43
1.0
176
     1
 76
     1
176
     1
 77
     6
176
     1
 78
     2
176
     1
 67
     7
176
     1
 79
     5
176
     1
170
     0
176
     1
171
     0
176
     1
290
     0
176
     1
 93
       13
176
     1
 44
0.0
176
     1
173
     0
176
     1
  0
VISUALSTYLE
  5
2C
102
{ACAD_REACTORS
330
2A
102
}
330
2A
100
AcDbVisualStyle
  2
FlatWithEdges
 70
     1
177
     2
291
     1
 71
     2
176
     1
 72
     1
176
     1
 73
     1
176
     1
 90
        2
176
     1
 40
-0.6
176
     1
 41
30.0
176
     1
 62
     5
 63
     7
421
 16777215
176
     1
 74
     1
176
     1
 91
        4
176
     1
 64
     7
176
     1
 65
   257
176
     1
 75
     1
176
     1
175
     1
176
     1
 42
1.0
176
     1
 92
        0
176
     1
 66
   257
176
     1
 43
1.0
176
     1
 76
     1
176
     1
 77
     6
176
     1
 78
     2
176
     1
 67
     7
176
     1
 79
     5
176
     1
170
     0
176
     1
171
     0
176
     1
290
     0
176
     1
 93
       13
176
     1
 44
0.0
176
     1
173
     0
176
     1
  0
VISUALSTYLE
  5
2D
102
{ACAD_REACTORS
330
2A
102
}
330
2A
100
AcDbVisualStyle
  2
Gouraud
 70
     2
177
     2
291
     1
 71
     2
176
     1
 72
     2
176
     1
 73
     1
176
     1
 90
        2
176
     1
 40
-0.6
176
     1
 41
30.0
176
     1
 62
     5
 63
     7
421
 16777215
176
     1
 74
     0
176
     1
 91
        4
176
     1
 64
     7
176
     1
 65
   257
176
     1
 75
     1
176
     1
175
     1
176
     1
 42
1.0
176
     1
 92
        0
176
     1
 66
     7
176
     1
 43
1.0
176
     1
 76
     1
176
     1
 77
     6
176
     1
 78
     2
176
     1
 67
     7
176
     1
 79
     5
176
     1
170
     0
176
     1
171
     0
176
     1
290
     0
176
     1
 93
       13
176
     1
 44
0.0
176
     1
173
     0
176
     1
  0
VISUALSTYLE
  5
2E
102
{ACAD_REACTORS
330
2A
102
}
330
2A
100
AcDbVisualStyle
  2
GouraudWithEdges
 70
     3
177
     2
291
     1
 71
     2
176
     1
 72
     2
176
     1
 73
     1
176
     1
 90
        2
176
     1
 40
-0.6
176
     1
 41
30.0
176
     1
 62
     5
 63
     7
421
 16777215
176
     1
 74
     1
176
     1
 91
        4
176
     1
 64
     7
176
     1
 65
   257
176
     1
 75
     1
176
     1
175
     1
176
     1
 42
1.0
176
     1
 92
        0
176
     1
 66
   257
176
     1
 43
1.0
176
     1
 76
     1
176
     1
 77
     6
176
     1
 78
     2
176
     1
 67
     7
176
     1
 79
     5
176
     1
170
     0
176
     1
171
     0
176
     1
290
     0
176
     1
 93
       13
176
     1
 44
0.0
176
     1
173
     0
176
     1
  0
VISUALSTYLE
  5
38
102
{ACAD_REACTORS
330
2A
102
}
330
2A
100
AcDbVisualStyle
  2
Linepattern
 70
    14
177
     2
291
     1
 71
     2
176
     1
 72
     2
176
     1
 73
     0
176
     1
 90
        0
176
     1
 40
-0.6
176
     1
 41
-30.0
176
     1
 62
     5
 63
     7
421
 16777215
176
     1
 74
     1
176
     1
 91
        4
176
     1
 64
     7
176
     1
 65
   257
176
     1
 75
     7
176
     1
175
     7
176
     1
 42
1.0
176
     1
 92
        8
176
     1
 66
     7
176
     1
 43
1.0
176
     1
 76
     1
176
     1
 77
     6
176
     1
 78
     2
176
     1
 67
     7
176
     1
 79
     5
176
     1
170
     0
176
     1
171
     0
176
     1
290
     0
176
     1
 93
        1
176
     1
 44
0.0
176
     1
173
     0
176
     1
  0
VISUALSTYLE
  5
33
102
{ACAD_REACTORS
330
2A
102
}
330
2A
100
AcDbVisualStyle
  2
Realistic
 70
     8
177
     2
291
     0
 71
     2
176
     1
 72
     2
176
     1
 73
     0
176
     1
 90
        0
176
     1
 40
-0.6
176
     1
 41
-30.0
176
     1
 62
     5
 63
     7
421
 16777215
176
     1
 74
     1
176
     1
 91
        0
176
     1
 64
     7
176
     1
 65
   257
176
     1
 75
     1
176
     1
175
     1
176
     1
 42
1.0
176
     1
 92
        8
176
     1
 66
     8
424
  7895160
176
     1
 43
1.0
176
     1
 76
     1
176
     1
 77
     6
176
     1
 78
     2
176
     1
 67
     7
176
     1
 79
     5
176
     1
170
     0
176
     1
171
     0
176
     1
290
     0
176
     1
 93
       13
176
     1
 44
0.0
176
     1
173
     0
176
     1
  0
VISUALSTYLE
  5
37
102
{ACAD_REACTORS
330
2A
102
}
330
2A
100
AcDbVisualStyle
  2
Thicken
 70
    13
177
     2
291
     1
 71
     2
176
     1
 72
     2
176
     1
 73
     0
176
     1
 90
        0
176
     1
 40
-0.6
176
     1
 41
-30.0
176
     1
 62
     5
 63
     7
421
 16777215
176
     1
 74
     1
176
     1
 91
        4
176
     1
 64
     7
176
     1
 65
   257
176
     1
 75
     1
176
     1
175
     1
176
     1
 42
1.0
176
     1
 92
       12
176
     1
 66
     7
176
     1
 43
1.0
176
     1
 76
     1
176
     1
 77
     6
176
     1
 78
     2
176
     1
 67
     7
176
     1
 79
     5
176
     1
170
     0
176
     1
171
     0
176
     1
290
     0
176
     1
 93
        1
176
     1
 44
0.0
176
     1
173
     0
176
     1
  0
ENDSEC
  0
EOF
