  0
SECTION
  2
HEADER
  9
$ACADVER
  1
AC1014
  9
$ACADMAINTVER
 70
     9
  9
$DWGCODEPAGE
  3
ANSI_1252
  9
$INSBASE
 10
0.0
 20
0.0
 30
0.0
  9
$EXTMIN
 10
0.0
 20
0.0
 30
0.0
  9
$EXTMAX
 10
594.0
 20
841.0
 30
0.0
  9
$LIMMIN
 10
0.0
 20
0.0
  9
$LIMMAX
 10
594.0
 20
841.0
  9
$ORTHOMODE
 70
     0
  9
$REGENMODE
 70
     1
  9
$FILLMODE
 70
     1
  9
$QTEXTMODE
 70
     0
  9
$MIRRTEXT
 70
     1
  9
$DRAGMODE
 70
     2
  9
$LTSCALE
 40
1.0
  9
$OSMODE
 70
    37
  9
$ATTMODE
 70
     1
  9
$TEXTSIZE
 40
10.0
  9
$TRACEWID
 40
1.0
  9
$TEXTSTYLE
  7
STANDARD
  9
$CLAYER
  8
0
  9
$CELTYPE
  6
BYLAYER
  9
$CECOLOR
 62
   256
  9
$CELTSCALE
 40
1.0
  9
$DELOBJ
 70
     1
  9
$DISPSILH
 70
     0
  9
$DIMSCALE
 40
1.0
  9
$DIMASZ
 40
2.5
  9
$DIMEXO
 40
0.0
  9
$DIMDLI
 40
3.75
  9
$DIMRND
 40
0.0
  9
$DIMDLE
 40
0.0
  9
$DIMEXE
 40
1.0
  9
$DIMTP
 40
0.0
  9
$DIMTM
 40
0.0
  9
$DIMTXT
 40
3.5
  9
$DIMCEN
 40
2.5
  9
$DIMTSZ
 40
0.0
  9
$DIMTOL
 70
     0
  9
$DIMLIM
 70
     0
  9
$DIMTIH
 70
     1
  9
$DIMTOH
 70
     1
  9
$DIMSE1
 70
     0
  9
$DIMSE2
 70
     0
  9
$DIMTAD
 70
     1
  9
$DIMZIN
 70
     0
  9
$DIMBLK
  1

  9
$DIMASO
 70
     1
  9
$DIMSHO
 70
     1
  9
$DIMPOST
  1

  9
$DIMAPOST
  1

  9
$DIMALT
 70
     0
  9
$DIMALTD
 70
     3
  9
$DIMALTF
 40
0.0393700787
  9
$DIMLFAC
 40
1.0
  9
$DIMTOFL
 70
     1
  9
$DIMTVP
 40
0.0
  9
$DIMTIX
 70
     0
  9
$DIMSOXD
 70
     0
  9
$DIMSAH
 70
     0
  9
$DIMBLK1
  1

  9
$DIMBLK2
  1

  9
$DIMSTYLE
  2
ISO-25
  9
$DIMCLRD
 70
     0
  9
$DIMCLRE
 70
     0
  9
$DIMCLRT
 70
     0
  9
$DIMTFAC
 40
1.0
  9
$DIMGAP
 40
1.5
  9
$DIMJUST
 70
     0
  9
$DIMSD1
 70
     0
  9
$DIMSD2
 70
     0
  9
$DIMTOLJ
 70
     0
  9
$DIMTZIN
 70
     0
  9
$DIMALTZ
 70
     0
  9
$DIMALTTZ
 70
     0
  9
$DIMFIT
 70
     3
  9
$DIMUPT
 70
     0
  9
$DIMUNIT
 70
     2
  9
$DIMDEC
 70
     2
  9
$DIMTDEC
 70
     2
  9
$DIMALTU
 70
     2
  9
$DIMALTTD
 70
     3
  9
$DIMTXSTY
  7
STANDARD
  9
$DIMAUNIT
 70
     0
  9
$LUNITS
 70
     2
  9
$LUPREC
 70
     2
  9
$SKETCHINC
 40
1.0
  9
$FILLETRAD
 40
10.0
  9
$AUNITS
 70
     0
  9
$AUPREC
 70
     2
  9
$MENU
  1
.
  9
$ELEVATION
 40
0.0
  9
$PELEVATION
 40
0.0
  9
$THICKNESS
 40
0.0
  9
$LIMCHECK
 70
     0
  9
$CHAMFERA
 40
0.0
  9
$CHAMFERB
 40
0.0
  9
$CHAMFERC
 40
0.0
  9
$CHAMFERD
 40
0.0
  9
$SKPOLY
 70
     0
  9
$TDCREATE
 40
2457000.483969641
  9
$TDUPDATE
 40
2457000.483971088
  9
$TDINDWG
 40
0.0000000116
  9
$TDUSRTIMER
 40
0.0000000116
  9
$USRTIMER
 70
     1
  9
$ANGBASE
 50
0.0
  9
$ANGDIR
 70
     0
  9
$PDMODE
 70
     0
  9
$PDSIZE
 40
-1.0
  9
$PLINEWID
 40
0.0
  9
$COORDS
 70
     1
  9
$SPLFRAME
 70
     0
  9
$SPLINETYPE
 70
     6
  9
$SPLINESEGS
 70
     8
  9
$ATTDIA
 70
     0
  9
$ATTREQ
 70
     1
  9
$HANDLING
 70
     1
  9
$HANDSEED
  5
14F
  9
$SURFTAB1
 70
     6
  9
$SURFTAB2
 70
     6
  9
$SURFTYPE
 70
     6
  9
$SURFU
 70
     6
  9
$SURFV
 70
     6
  9
$UCSNAME
  2

  9
$UCSORG
 10
0.0
 20
0.0
 30
0.0
  9
$UCSXDIR
 10
1.0
 20
0.0
 30
0.0
  9
$UCSYDIR
 10
0.0
 20
1.0
 30
0.0
  9
$PUCSNAME
  2

  9
$PUCSORG
 10
0.0
 20
0.0
 30
0.0
  9
$PUCSXDIR
 10
1.0
 20
0.0
 30
0.0
  9
$PUCSYDIR
 10
0.0
 20
1.0
 30
0.0
  9
$USERI1
 70
     0
  9
$USERI2
 70
     0
  9
$USERI3
 70
     0
  9
$USERI4
 70
     0
  9
$USERI5
 70
     0
  9
$USERR1
 40
0.0
  9
$USERR2
 40
0.0
  9
$USERR3
 40
0.0
  9
$USERR4
 40
0.0
  9
$USERR5
 40
0.0
  9
$WORLDVIEW
 70
     1
  9
$SHADEDGE
 70
     3
  9
$SHADEDIF
 70
    70
  9
$TILEMODE
 70
     1
  9
$MAXACTVP
 70
    64
  9
$PINSBASE
 10
0.0
 20
0.0
 30
0.0
  9
$PLIMCHECK
 70
     0
  9
$PEXTMIN
 10
1.0000000000E+20
 20
1.0000000000E+20
 30
1.0000000000E+20
  9
$PEXTMAX
 10
-1.0000000000E+20
 20
-1.0000000000E+20
 30
-1.0000000000E+20
  9
$PLIMMIN
 10
0.0
 20
0.0
  9
$PLIMMAX
 10
420.0
 20
297.0
  9
$UNITMODE
 70
     0
  9
$VISRETAIN
 70
     1
  9
$PLINEGEN
 70
     0
  9
$PSLTSCALE
 70
     1
  9
$TREEDEPTH
 70
  3020
  9
$PICKSTYLE
 70
     1
  9
$CMLSTYLE
  2
STANDARD
  9
$CMLJUST
 70
     0
  9
$CMLSCALE
 40
20.0
  9
$PROXYGRAPHICS
 70
     1
  9
$MEASUREMENT
 70
     1
  0
ENDSEC
  0
SECTION
  2
CLASSES
  0
CLASS
  1
ACDBDICTIONARYWDFLT
  2
AcDbDictionaryWithDefault
  3
ObjectDBX Classes
 90
        0
280
     0
281
     0
  0
CLASS
  1
VISUALSTYLE
  2
AcDbVisualStyle
  3
ObjectDBX Classes
 90
     4095
280
     0
281
     0
  0
CLASS
  1
MATERIAL
  2
AcDbMaterial
  3
ObjectDBX Classes
 90
     1153
280
     0
281
     0
  0
CLASS
  1
SCALE
  2
AcDbScale
  3
ObjectDBX Classes
 90
     1153
280
     0
281
     0
  0
CLASS
  1
SUN
  2
AcDbSun
  3
SCENEOE
 90
     1153
280
     0
281
     0
  0
CLASS
  1
XRECORD
  2
AcDbXrecord
  3
ObjectDBX Classes
 90
        0
280
     0
281
     0
  0
CLASS
  1
LWPOLYLINE
  2
AcDbPolyline
  3
ObjectDBX Classes
 90
        0
280
     0
281
     1
  0
CLASS
  1
HATCH
  2
AcDbHatch
  3
ObjectDBX Classes
 90
        0
280
     0
281
     1
  0
ENDSEC
  0
SECTION
  2
TABLES
  0
TABLE
  2
VPORT
  5
8
330
0
100
AcDbSymbolTable
 70
     1
  0
VPORT
  5
29
330
8
100
AcDbSymbolTableRecord
100
AcDbViewportTableRecord
  2
*ACTIVE
 70
     0
 10
0.0
 20
0.0
 11
1.0
 21
1.0
 12
297.0
 22
420.5
 13
0.0
 23
0.0
 14
10.0
 24
10.0
 15
10.0
 25
10.0
 16
0.0
 26
0.0
 36
1.0
 17
0.0
 27
0.0
 37
0.0
 40
841.0
 41
0.7063020214
 42
50.0
 43
0.0
 44
0.0
 50
0.0
 51
0.0
 71
     0
 72
  2000
 73
     1
 74
     3
 75
     0
 76
     0
 77
     0
 78
     0
  0
ENDTAB
  0
TABLE
  2
LTYPE
  5
5
330
0
100
AcDbSymbolTable
 70
     6
  0
LTYPE
  5
14
330
5
100
AcDbSymbolTableRecord
100
AcDbLinetypeTableRecord
  2
BYBLOCK
 70
     0
  3

 72
    65
 73
     0
 40
0.0
  0
LTYPE
  5
15
330
5
100
AcDbSymbolTableRecord
100
AcDbLinetypeTableRecord
  2
BYLAYER
 70
     0
  3

 72
    65
 73
     0
 40
0.0
  0
LTYPE
  5
16
330
5
100
AcDbSymbolTableRecord
100
AcDbLinetypeTableRecord
  2
CONTINUOUS
 70
     0
  3
Solid line
 72
    65
 73
     0
 40
0.0
  0
LTYPE
  5
6A
330
5
100
AcDbSymbolTableRecord
100
AcDbLinetypeTableRecord
  2
HIDDEN
 70
     0
  3
Hidden __ __ __ __ __ __ __ __ __ __ __ __ __ __
 72
    65
 73
     2
 40
1.905
 49
1.27
 74
     0
 49
-0.635
 74
     0
  0
LTYPE
  5
6B
330
5
100
AcDbSymbolTableRecord
100
AcDbLinetypeTableRecord
  2
PHANTOM
 70
     0
  3
Phantom ______  __  __  ______  __  __  ______
 72
    65
 73
     6
 40
12.7
 49
6.35
 74
     0
 49
-1.27
 74
     0
 49
1.27
 74
     0
 49
-1.27
 74
     0
 49
1.27
 74
     0
 49
-1.27
 74
     0
  0
LTYPE
  5
6C
330
5
100
AcDbSymbolTableRecord
100
AcDbLinetypeTableRecord
  2
CENTER
 70
     0
  3
Center ____ _ ____ _ ____ _ ____ _ ____ _ ____
 72
    65
 73
     4
 40
10.16
 49
6.35
 74
     0
 49
-1.27
 74
     0
 49
1.27
 74
     0
 49
-1.27
 74
     0
  0
LTYPE
  5
6D
330
5
100
AcDbSymbolTableRecord
100
AcDbLinetypeTableRecord
  2
CENTERX2
 70
     0
  3
Center (2x) ________  __  ________  __  _____
 72
    65
 73
     4
 40
20.32
 49
12.7
 74
     0
 49
-2.54
 74
     0
 49
2.54
 74
     0
 49
-2.54
 74
     0
  0
LTYPE
  5
6E
330
5
100
AcDbSymbolTableRecord
100
AcDbLinetypeTableRecord
  2
DOT2
 70
     0
  3
Dot (.5x) ........................................
 72
    65
 73
     2
 40
0.635
 49
0.0
 74
     0
 49
-0.635
 74
     0
  0
ENDTAB
  0
TABLE
  2
LAYER
  5
2
330
0
100
AcDbSymbolTable
 70
     1
  0
LAYER
  5
10
330
2
100
AcDbSymbolTableRecord
100
AcDbLayerTableRecord
  2
0
 70
     0
 62
     7
  6
CONTINUOUS
  0
ENDTAB
  0
TABLE
  2
STYLE
  5
3
330
0
100
AcDbSymbolTable
 70
     3
  0
STYLE
  5
11
330
3
100
AcDbSymbolTableRecord
100
AcDbTextStyleTableRecord
  2
STANDARD
 70
     0
 40
0.0
 41
1.0
 50
0.0
 71
     0
 42
10.0
  3
txt
  4

  0
STYLE
  5
72
330
3
100
AcDbSymbolTableRecord
100
AcDbTextStyleTableRecord
  2
SLDTEXTSTYLE0
 70
     0
 40
0.0
 41
0.96
 50
0.0
 71
     0
 42
10.0
  3
ISOCP3
  4

  0
STYLE
  5
89
330
3
100
AcDbSymbolTableRecord
100
AcDbTextStyleTableRecord
  2
SLDTEXTSTYLE1
 70
     0
 40
0.0
 41
0.605
 50
0.0
 71
     0
 42
10.0
  3
TXT
  4

  0
ENDTAB
  0
TABLE
  2
VIEW
  5
6
330
0
100
AcDbSymbolTable
 70
     0
  0
ENDTAB
  0
TABLE
  2
UCS
  5
7
330
0
100
AcDbSymbolTable
 70
     0
  0
ENDTAB
  0
TABLE
  2
APPID
  5
9
330
0
100
AcDbSymbolTable
 70
     1
  0
APPID
  5
12
330
9
100
AcDbSymbolTableRecord
100
AcDbRegAppTableRecord
  2
ACAD
 70
     0
  0
ENDTAB
  0
TABLE
  2
DIMSTYLE
  5
A
330
0
100
AcDbSymbolTable
 70
     2
  0
DIMSTYLE
105
27
330
A
100
AcDbSymbolTableRecord
100
AcDbDimStyleTableRecord
  2
ISO-25
 70
     0
  3

  4

  5

  6

  7

 40
1.0
 41
2.5
 42
0.625
 43
3.75
 44
1.25
 45
0.0
 46
0.0
 47
0.0
 48
0.0
140
2.5
141
2.5
142
0.0
143
0.0393700787
144
1.0
145
0.0
146
1.0
147
0.625
 71
     0
 72
     0
 73
     0
 74
     0
 75
     0
 76
     0
 77
     1
 78
     8
170
     0
171
     3
172
     1
173
     0
174
     0
175
     0
176
     0
177
     0
178
     0
270
     2
271
     2
272
     2
273
     2
274
     3
340
11
275
     0
280
     0
281
     0
282
     0
283
     0
284
     8
285
     0
286
     0
287
     3
288
     0
  0
DIMSTYLE
105
73
102
{ACAD_REACTORS
330
71
330
7E
102
}
330
A
100
AcDbSymbolTableRecord
100
AcDbDimStyleTableRecord
  2
SLDDIMSTYLE0
 70
     0
  3

  4

  5

  6

  7

 40
1.0
 41
2.5
 42
0.0625
 43
0.38
 44
0.0
 45
0.000000001
 46
0.0
 47
0.0
 48
0.0
140
6.0
141
0.09
142
0.0
143
25.4
144
1.0
145
0.0
146
1.0
147
1.5
 71
     0
 72
     0
 73
     0
 74
     0
 75
     0
 76
     0
 77
     1
 78
    12
170
     0
171
     2
172
     0
173
     1
174
     0
175
     0
176
     0
177
     0
178
     0
270
     2
271
     2
272
     2
273
     2
274
     2
340
72
275
     0
280
     0
281
     0
282
     0
283
     1
284
    12
285
     0
286
     0
287
     3
288
     0
  0
ENDTAB
  0
TABLE
  2
BLOCK_RECORD
  5
1
330
0
100
AcDbSymbolTable
 70
     3
  0
BLOCK_RECORD
  5
1F
330
1
100
AcDbSymbolTableRecord
100
AcDbBlockTableRecord
  2
*MODEL_SPACE
  0
BLOCK_RECORD
  5
1B
330
1
100
AcDbSymbolTableRecord
100
AcDbBlockTableRecord
  2
*PAPER_SPACE
  0
BLOCK_RECORD
  5
23
330
1
100
AcDbSymbolTableRecord
100
AcDbBlockTableRecord
  2
*PAPER_SPACE0
  0
BLOCK_RECORD
  5
74
330
1
100
AcDbSymbolTableRecord
100
AcDbBlockTableRecord
  2
_D
  0
BLOCK_RECORD
  5
7F
330
1
100
AcDbSymbolTableRecord
100
AcDbBlockTableRecord
  2
_D_1
  0
ENDTAB
  0
ENDSEC
  0
SECTION
  2
BLOCKS
  0
BLOCK
  5
20
330
1F
100
AcDbEntity
  8
0
100
AcDbBlockBegin
  2
*MODEL_SPACE
 70
     0
 10
0.0
 20
0.0
 30
0.0
  3
*MODEL_SPACE
  1

  0
ENDBLK
  5
21
330
1F
100
AcDbEntity
  8
0
100
AcDbBlockEnd
  0
BLOCK
  5
1C
330
1B
100
AcDbEntity
 67
     1
  8
0
100
AcDbBlockBegin
  2
*PAPER_SPACE
 70
     0
 10
0.0
 20
0.0
 30
0.0
  3
*PAPER_SPACE
  1

  0
ENDBLK
  5
1D
330
1B
100
AcDbEntity
 67
     1
  8
0
100
AcDbBlockEnd
  0
BLOCK
  5
24
330
23
100
AcDbEntity
  8
0
100
AcDbBlockBegin
  2
*PAPER_SPACE0
 70
     0
 10
0.0
 20
0.0
 30
0.0
  3
*PAPER_SPACE0
  1
*PAPER_SPACE0
  0
ENDBLK
  5
25
330
23
100
AcDbEntity
  8
0
100
AcDbBlockEnd
  0
BLOCK
  5
75
330
74
100
AcDbEntity
  8
0
100
AcDbBlockBegin
  2
_D
 70
     0
 10
0.0
 20
0.0
 30
0.0
  3
_D
  1
_D
  0
SOLID
  5
77
330
74
100
AcDbEntity
  8
0
  6
CONTINUOUS
 62
     7
100
AcDbTrace
 10
42.7614395004
 20
152.0299240879
 30
0.0
 11
42.4614395004
 21
149.5299240879
 31
0.0
 12
43.0614395004
 22
149.5299240879
 32
0.0
 13
43.0614395004
 23
149.5299240879
 33
0.0
  0
SOLID
  5
78
330
74
100
AcDbEntity
  8
0
  6
CONTINUOUS
 62
     7
100
AcDbTrace
 10
42.7614395004
 20
52.0299240879
 30
0.0
 11
43.0614395004
 21
54.5299240879
 31
0.0
 12
42.4614395004
 22
54.5299240879
 32
0.0
 13
42.4614395004
 23
54.5299240879
 33
0.0
  0
LINE
  5
79
330
74
100
AcDbEntity
  8
0
  6
CONTINUOUS
 62
     7
100
AcDbLine
 10
56.6850079902
 20
152.0299240879
 30
0.0
 11
41.7614395004
 21
152.0299240879
 31
0.0
  0
LINE
  5
7A
330
74
100
AcDbEntity
  8
0
  6
CONTINUOUS
 62
     7
100
AcDbLine
 10
56.6850079902
 20
52.0299240879
 30
0.0
 11
41.7614395004
 21
52.0299240879
 31
0.0
  0
LINE
  5
7B
330
74
100
AcDbEntity
  8
0
  6
CONTINUOUS
 62
     7
100
AcDbLine
 10
42.7614395004
 20
152.0299240879
 30
0.0
 11
42.7614395004
 21
52.0299240879
 31
0.0
  0
MTEXT
  5
7C
330
74
100
AcDbEntity
  8
0
  6
CONTINUOUS
 62
     7
100
AcDbMText
 10
35.0270332946
 20
94.3680541463
 30
0.0
 40
6.0
 41
0.0
 71
     1
 72
     1
  1
100
  7
SLDTEXTSTYLE0
 11
-7.044195017643634E-15
 21
1.0
 31
0.0
  0
MTEXT
  5
7D
330
74
100
AcDbEntity
  8
0
  6
CONTINUOUS
 62
     7
100
AcDbMText
 10
35.0270332946
 20
105.7430548466
 30
0.0
 40
6.0
 41
0.0
 71
     1
 72
     1
  1
mm
  7
SLDTEXTSTYLE0
 11
-7.044195017643634E-15
 21
1.0
 31
0.0
  0
ENDBLK
  5
76
330
74
100
AcDbEntity
  8
0
100
AcDbBlockEnd
  0
BLOCK
  5
80
330
7F
100
AcDbEntity
  8
0
100
AcDbBlockBegin
  2
_D_1
 70
     0
 10
0.0
 20
0.0
 30
0.0
  3
_D_1
  1
_D_1
  0
SOLID
  5
82
330
7F
100
AcDbEntity
  8
0
  6
CONTINUOUS
 62
     7
100
AcDbTrace
 10
56.6850079902
 20
38.4602342313
 30
0.0
 11
59.1850079902
 21
38.1602342313
 31
0.0
 12
59.1850079902
 22
38.7602342313
 32
0.0
 13
59.1850079902
 23
38.7602342313
 33
0.0
  0
SOLID
  5
83
330
7F
100
AcDbEntity
  8
0
  6
CONTINUOUS
 62
     7
100
AcDbTrace
 10
156.6850079902
 20
38.4602342313
 30
0.0
 11
154.1850079902
 21
38.7602342313
 31
0.0
 12
154.1850079902
 22
38.1602342313
 32
0.0
 13
154.1850079902
 23
38.1602342313
 33
0.0
  0
LINE
  5
84
330
7F
100
AcDbEntity
  8
0
  6
CONTINUOUS
 62
     7
100
AcDbLine
 10
56.6850079902
 20
52.0299240879
 30
0.0
 11
56.6850079902
 21
37.4602342313
 31
0.0
  0
LINE
  5
85
330
7F
100
AcDbEntity
  8
0
  6
CONTINUOUS
 62
     7
100
AcDbLine
 10
156.6850079902
 20
52.0299240879
 30
0.0
 11
156.6850079902
 21
37.4602342313
 31
0.0
  0
LINE
  5
86
330
7F
100
AcDbEntity
  8
0
  6
CONTINUOUS
 62
     7
100
AcDbLine
 10
56.6850079902
 20
38.4602342313
 30
0.0
 11
156.6850079902
 21
38.4602342313
 31
0.0
  0
MTEXT
  5
87
330
7F
100
AcDbEntity
  8
0
  6
CONTINUOUS
 62
     7
100
AcDbMText
 10
93.9626484861
 20
46.1946404371
 30
0.0
 40
6.0
 41
0.0
 71
     1
 72
     1
  1
100
  7
SLDTEXTSTYLE0
  0
MTEXT
  5
88
330
7F
100
AcDbEntity
  8
0
  6
CONTINUOUS
 62
     7
100
AcDbMText
 10
105.3376491864
 20
46.1946404371
 30
0.0
 40
6.0
 41
0.0
 71
     1
 72
     1
  1
mm
  7
SLDTEXTSTYLE0
  0
ENDBLK
  5
81
330
7F
100
AcDbEntity
  8
0
100
AcDbBlockEnd
  0
ENDSEC
  0
SECTION
  2
ENTITIES
  0
LINE
  5
6F
330
1F
100
AcDbEntity
  8
0
  6
CONTINUOUS
 62
     7
100
AcDbLine
 10
56.6850079902
 20
152.0299240879
 30
0.0
 11
56.6850079902
 21
52.0299240879
 31
0.0
  0
LINE
  5
70
330
1F
100
AcDbEntity
  8
0
  6
CONTINUOUS
 62
     7
100
AcDbLine
 10
56.6850079902
 20
52.0299240879
 30
0.0
 11
156.6850079902
 21
52.0299240879
 31
0.0
  0
DIMENSION
  5
71
330
1F
100
AcDbEntity
  8
0
  6
CONTINUOUS
 62
     7
100
AcDbDimension
  2
_D
 10
42.7614395004
 20
52.0299240879
 30
0.0
 11
42.7614395004
 21
105.4472211621
 31
0.0
 70
   160
  1
<>mm
  3
SLDDIMSTYLE0
100
AcDbAlignedDimension
 13
56.6850079902
 23
152.0299240879
 33
0.0
 14
56.6850079902
 24
52.0299240879
 34
0.0
 50
90.0
100
AcDbRotatedDimension
  0
DIMENSION
  5
7E
330
1F
100
AcDbEntity
  8
0
  6
CONTINUOUS
 62
     7
100
AcDbDimension
  2
_D_1
 10
156.6850079902
 20
38.4602342313
 30
0.0
 11
105.0418155019
 21
38.4602342313
 31
0.0
 70
   160
  1
<>mm
  3
SLDDIMSTYLE0
100
AcDbAlignedDimension
 13
56.6850079902
 23
52.0299240879
 33
0.0
 14
156.6850079902
 24
52.0299240879
 34
0.0
100
AcDbRotatedDimension
  0
MTEXT
  5
8A
330
1F
100
AcDbEntity
  8
0
  6
CONTINUOUS
 62
     7
100
AcDbMText
 10
222.8856995391
 20
49.3034557666
 30
0.0
 40
10.0
 41
0.0
 71
     1
 72
     1
  1
65 560 05-00
  7
SLDTEXTSTYLE1
  0
MTEXT
  5
8B
330
1F
100
AcDbEntity
  8
0
  6
CONTINUOUS
 62
     7
100
AcDbMText
 10
412.8252631579
 20
48.4342449499
 30
0.0
 40
10.0
 41
0.0
 71
     1
 72
     1
  1
KLUDI GmbH & Co KG
  7
SLDTEXTSTYLE1
  0
SPLINE
  5
8C
330
1F
100
AcDbEntity
  8
0
  6
CONTINUOUS
 62
     7
100
AcDbSpline
210
0.0
220
0.0
230
1.0
 70
    24
 71
     3
 72
    21
 73
    17
 74
     0
 42
0.000000001
 43
0.00000001
 40
0.0
 40
0.0
 40
0.0
 40
0.0
 40
0.0714264790183704
 40
0.1428514805887958
 40
0.2142754545439304
 40
0.2856988507358434
 40
0.3571221190275217
 40
0.428545709284369
 40
0.4999700713657048
 40
0.5713956551162656
 40
0.6428229103577057
 40
0.714252286880101
 40
0.7856842344334558
 40
0.8571192027192135
 40
0.928557641381771
 40
1.0
 40
1.0
 40
1.0
 40
1.0
 10
254.8502057310887
 20
293.2864802604775
 30
0.0
 10
254.8502057310887
 20
291.9709803006434
 30
0.0
 10
254.8502057310887
 20
289.3400075919301
 30
0.0
 10
254.8502057310887
 20
285.3933852973006
 30
0.0
 10
254.8502057310887
 20
281.4467079840535
 30
0.0
 10
254.8502057310887
 20
277.4999598142614
 30
0.0
 10
254.8502057310887
 20
273.553145031811
 30
0.0
 10
254.8502057310887
 20
269.6062625016189
 30
0.0
 10
254.8502057310887
 20
265.659312522989
 30
0.0
 10
254.8502057310887
 20
261.712295036607
 30
0.0
 10
254.8502057310887
 20
257.7652099832391
 30
0.0
 10
254.8502057310887
 20
253.8180576619657
 30
0.0
 10
254.8502057310887
 20
249.8708369384592
 30
0.0
 10
254.8502057310887
 20
245.9235520540052
 30
0.0
 10
254.8502057310887
 20
241.9761871795654
 30
0.0
 10
254.8502057310887
 20
239.3446743731135
 30
0.0
 10
254.8502057310887
 20
238.0288818719174
 30
0.0
  0
SPLINE
  5
8D
330
1F
100
AcDbEntity
  8
0
  6
CONTINUOUS
 62
     7
100
AcDbSpline
210
0.0
220
0.0
230
1.0
 70
    24
 71
     3
 72
    18
 73
    14
 74
     0
 42
0.000000001
 43
0.00000001
 40
0.0
 40
0.0
 40
0.0
 40
0.0
 40
0.0909246076640845
 40
0.1818449708718511
 40
0.272761469908109
 40
0.3636744851061577
 40
0.454584396843022
 40
0.5454915855346838
 40
0.6363964316313111
 40
0.7272993156124846
 40
0.8182006179824228
 40
0.9091007192652063
 40
1.0
 40
1.0
 40
1.0
 40
1.0
 10
272.1502057310888
 20
238.131853785262
 30
0.0
 10
272.1502057310888
 20
239.8003111793692
 30
0.0
 10
272.1502057310887
 20
243.1371480822378
 30
0.0
 10
272.1502057310888
 20
248.1424186587575
 30
0.0
 10
272.1502057310888
 20
253.1475415323259
 30
0.0
 10
272.1502057310888
 20
258.1525271876579
 30
0.0
 10
272.1502057310887
 20
263.1573728017735
 30
0.0
 10
272.1502057310888
 20
268.1620791809055
 30
0.0
 10
272.1502057310887
 20
273.1666459213879
 30
0.0
 10
272.1502057310888
 20
278.171073830086
 30
0.0
 10
272.1502057310888
 20
283.1753600816911
 30
0.0
 10
272.1502057310888
 20
288.1795151687882
 30
0.0
 10
272.1502057310888
 20
291.5155154214164
 30
0.0
 10
272.1502057310888
 20
293.1835080192442
 30
0.0
  0
SPLINE
  5
8E
330
1F
100
AcDbEntity
  8
0
  6
CONTINUOUS
 62
     7
100
AcDbSpline
210
0.0
220
0.0
230
1.0
 70
    24
 71
     3
 72
    16
 73
    12
 74
     0
 42
0.000000001
 43
0.00000001
 40
0.0
 40
0.0
 40
0.0
 40
0.0
 40
0.0823161724131201
 40
0.165323455349725
 40
0.2503803372988048
 40
0.3746660220818943
 40
0.5002146189376155
 40
0.6228169747317335
 40
0.7495175295729541
 40
0.8746171875382998
 40
1.0
 40
1.0
 40
1.0
 40
1.0
 10
254.8502057310887
 20
293.7776229513338
 30
0.0
 10
254.8502057310887
 20
293.7764652167536
 30
0.0
 10
254.8502057310887
 20
293.7741400274795
 30
0.0
 10
254.8502057310887
 20
293.7600576865527
 30
0.0
 10
254.8502057310887
 20
293.7354112326971
 30
0.0
 10
254.8502057310887
 20
293.6946700557613
 30
0.0
 10
254.8502057310887
 20
293.6338789100035
 30
0.0
 10
254.8502057310887
 20
293.5595833102629
 30
0.0
 10
254.8502057310887
 20
293.4748343793556
 30
0.0
 10
254.8502057310887
 20
293.382618341975
 30
0.0
 10
254.8502057310887
 20
293.3185504292095
 30
0.0
 10
254.8502057310887
 20
293.2864802604772
 30
0.0
  0
SPLINE
  5
8F
330
1F
100
AcDbEntity
  8
0
  6
CONTINUOUS
 62
     7
100
AcDbSpline
210
0.0
220
0.0
230
1.0
 70
    24
 71
     3
 72
    16
 73
    12
 74
     0
 42
0.000000001
 43
0.00000001
 40
0.0
 40
0.0
 40
0.0
 40
0.0
 40
0.0821098299587887
 40
0.1649286795181903
 40
0.2498054197864266
 40
0.3740002037775336
 40
0.4994352449412933
 40
0.6221204959137607
 40
0.7489341634243201
 40
0.874332340813717
 40
1.0
 40
1.0
 40
1.0
 40
1.0
 10
254.8502057310887
 20
238.0288818719177
 30
0.0
 10
254.8502057310887
 20
238.0079011617032
 30
0.0
 10
254.8502057310887
 20
237.9657585725299
 30
0.0
 10
254.8502057310887
 20
237.9032088564227
 30
0.0
 10
254.8502057310887
 20
237.8326490633233
 30
0.0
 10
254.8502057310887
 20
237.7567911987813
 30
0.0
 10
254.8502057310887
 20
237.6827723421383
 30
0.0
 10
254.8502057310887
 20
237.6211969320427
 30
0.0
 10
254.8502057310887
 20
237.5757274351485
 30
0.0
 10
254.8502057310887
 20
237.5446404242192
 30
0.0
 10
254.8502057310887
 20
237.5400399358628
 30
0.0
 10
254.8502057310887
 20
237.5377372227149
 30
0.0
  0
SPLINE
  5
90
330
1F
100
AcDbEntity
  8
0
  6
CONTINUOUS
 62
     7
100
AcDbSpline
210
0.0
220
0.0
230
1.0
 70
    24
 71
     3
 72
    16
 73
    12
 74
     0
 42
0.000000001
 43
0.00000001
 40
0.0
 40
0.0
 40
0.0
 40
0.0
 40
0.0825375983827767
 40
0.1657267320566162
 40
0.250946777137027
 40
0.3751876516718603
 40
0.5007374913830959
 40
0.6232117758456016
 40
0.749746051977517
 40
0.8747141224570604
 40
1.0
 40
1.0
 40
1.0
 40
1.0
 10
272.1502057310888
 20
293.1835080192446
 30
0.0
 10
272.1502057310888
 20
293.2046922203078
 30
0.0
 10
272.1502057310888
 20
293.2472278462798
 30
0.0
 10
272.1502057310888
 20
293.3103936555639
 30
0.0
 10
272.1502057310887
 20
293.3815201644282
 30
0.0
 10
272.1502057310888
 20
293.4579100384757
 30
0.0
 10
272.1502057310887
 20
293.5323172568977
 30
0.0
 10
272.1502057310888
 20
293.594167575945
 30
0.0
 10
272.1502057310888
 20
293.639766975387
 30
0.0
 10
272.1502057310887
 20
293.6709074629287
 30
0.0
 10
272.1502057310888
 20
293.6755113376094
 30
0.0
 10
272.1502057310888
 20
293.6778161982681
 30
0.0
  0
SPLINE
  5
91
330
1F
100
AcDbEntity
  8
0
  6
CONTINUOUS
 62
     7
100
AcDbSpline
210
0.0
220
0.0
230
1.0
 70
    24
 71
     3
 72
    16
 73
    12
 74
     0
 42
0.000000001
 43
0.00000001
 40
0.0
 40
0.0
 40
0.0
 40
0.0
 40
0.0827732855047011
 40
0.1655215217412608
 40
0.2496007640357826
 40
0.3728593462742764
 40
0.4990342665115906
 40
0.6217015712207942
 40
0.7484467311093783
 40
0.8740802438052008
 40
1.0
 40
1.0
 40
1.0
 40
1.0
 10
272.1502057310888
 20
237.6375440005537
 30
0.0
 10
272.1502057310888
 20
237.6386893338012
 30
0.0
 10
272.1502057310888
 20
237.6409796536895
 30
0.0
 10
272.1502057310887
 20
237.6548822234405
 30
0.0
 10
272.1502057310888
 20
237.6793261996933
 30
0.0
 10
272.1502057310887
 20
237.7203648255626
 30
0.0
 10
272.1502057310888
 20
237.7816067362418
 30
0.0
 10
272.1502057310887
 20
237.8564275696864
 30
0.0
 10
272.1502057310888
 20
237.9418237268129
 30
0.0
 10
272.1502057310888
 20
238.0348388592608
 30
0.0
 10
272.1502057310887
 20
238.0994909539664
 30
0.0
 10
272.1502057310888
 20
238.1318537852615
 30
0.0
  0
SPLINE
  5
92
330
1F
100
AcDbEntity
  8
0
  6
CONTINUOUS
 62
     7
100
AcDbSpline
210
0.0
220
0.0
230
1.0
 70
     8
 71
     3
 72
    26
 73
    22
 74
     0
 42
0.000000001
 43
0.00000001
 40
0.0
 40
0.0
 40
0.0
 40
0.0
 40
0.1249999999999988
 40
0.1249999999999988
 40
0.1874999999999987
 40
0.1874999999999987
 40
0.2499999999999987
 40
0.2499999999999987
 40
0.374999999999999
 40
0.374999999999999
 40
0.4999999999999993
 40
0.4999999999999993
 40
0.6249999999999997
 40
0.6249999999999997
 40
0.6874999999999993
 40
0.6874999999999993
 40
0.7499999999999991
 40
0.7499999999999991
 40
0.8749999999999996
 40
0.8749999999999996
 40
1.0
 40
1.0
 40
1.0
 40
1.0
 10
290.9290012081742
 20
248.2344688307917
 30
0.0
 10
290.9225974338657
 20
247.4510042064769
 30
0.0
 10
290.840317469201
 20
246.681099072221
 30
0.0
 10
290.6077380249699
 20
245.5457487698068
 30
0.0
 10
290.5118859865683
 20
245.1705735462287
 30
0.0
 10
290.2827331118327
 20
244.426915404009
 30
0.0
 10
290.1486997711357
 20
244.0571205117259
 30
0.0
 10
289.6981634933857
 20
242.9809964540462
 30
0.0
 10
289.3321215698576
 20
242.3006870476073
 30
0.0
 10
288.4702529686928
 20
241.0133866290989
 30
0.0
 10
287.9691636634791
 20
240.4029553623753
 30
0.0
 10
286.8752828308361
 20
239.3073199461445
 30
0.0
 10
286.2793358000708
 20
238.8154730881334
 30
0.0
 10
285.3106237331625
 20
238.1631228009485
 30
0.0
 10
284.9740860793993
 20
237.959653727921
 30
0.0
 10
284.2900629963946
 20
237.5903331196703
 30
0.0
 10
283.94098552357
 20
237.4232719215426
 30
0.0
 10
282.8729529800203
 20
236.9738951717585
 30
0.0
 10
282.1316603453287
 20
236.742529319937
 30
0.0
 10
280.5985797450778
 20
236.4249987470134
 30
0.0
 10
279.8235902400723
 20
236.3419677873802
 30
0.0
 10
279.0401308593021
 20
236.3348564377553
 30
0.0
  0
SPLINE
  5
93
330
1F
100
AcDbEntity
  8
0
  6
CONTINUOUS
 62
     7
100
AcDbSpline
210
0.0
220
0.0
230
1.0
 70
     8
 71
     3
 72
    26
 73
    22
 74
     0
 42
0.000000001
 43
0.00000001
 40
0.0
 40
0.0
 40
0.0
 40
0.0
 40
0.1250000000000001
 40
0.1250000000000001
 40
0.1875000000000001
 40
0.1875000000000001
 40
0.2500000000000001
 40
0.2500000000000001
 40
0.3749999999999995
 40
0.3749999999999995
 40
0.4999999999999989
 40
0.4999999999999989
 40
0.6249999999999984
 40
0.6249999999999984
 40
0.6874999999999988
 40
0.6874999999999988
 40
0.749999999999999
 40
0.749999999999999
 40
0.8749999999999994
 40
0.8749999999999994
 40
1.0
 40
1.0
 40
1.0
 40
1.0
 10
189.0714102540034
 20
283.0808914827422
 30
0.0
 10
189.0778140283119
 20
283.8643561070569
 30
0.0
 10
189.1600939929764
 20
284.6342612413128
 30
0.0
 10
189.3926734372076
 20
285.769611543727
 30
0.0
 10
189.4885254756094
 20
286.1447867673051
 30
0.0
 10
189.717678350345
 20
286.8884449095248
 30
0.0
 10
189.8517116910418
 20
287.2582398018081
 30
0.0
 10
190.3022479687918
 20
288.3343638594878
 30
0.0
 10
190.6682898923196
 20
289.0146732659269
 30
0.0
 10
191.5301584934844
 20
290.3019736844354
 30
0.0
 10
192.0312477986986
 20
290.9124049511587
 30
0.0
 10
193.1251286313417
 20
292.0080403673894
 30
0.0
 10
193.7210756621078
 20
292.4998872253998
 30
0.0
 10
194.6897877290162
 20
293.1522375125846
 30
0.0
 10
195.0263253827787
 20
293.3557065856129
 30
0.0
 10
195.7103484657834
 20
293.7250271938636
 30
0.0
 10
196.0594259386082
 20
293.8920883919911
 30
0.0
 10
197.1274584821577
 20
294.3414651417752
 30
0.0
 10
197.8687511168494
 20
294.572830993597
 30
0.0
 10
199.4018317171004
 20
294.8903615665205
 30
0.0
 10
200.1768212221058
 20
294.9733925261534
 30
0.0
 10
200.9602806028762
 20
294.9805038757781
 30
0.0
  0
SPLINE
  5
94
330
1F
100
AcDbEntity
  8
0
  6
CONTINUOUS
 62
     7
100
AcDbSpline
210
0.0
220
0.0
230
1.0
 70
     8
 71
     3
 72
    26
 73
    22
 74
     0
 42
0.000000001
 43
0.00000001
 40
0.0
 40
0.0
 40
0.0
 40
0.0
 40
0.1250000000000009
 40
0.1250000000000009
 40
0.1875000000000008
 40
0.1875000000000008
 40
0.2500000000000007
 40
0.2500000000000007
 40
0.3750000000000005
 40
0.3750000000000005
 40
0.5000000000000003
 40
0.5000000000000003
 40
0.6250000000000002
 40
0.6250000000000002
 40
0.6875000000000001
 40
0.6875000000000001
 40
0.75
 40
0.75
 40
0.8750000000000001
 40
0.8750000000000001
 40
1.0
 40
1.0
 40
1.0
 40
1.0
 10
279.0401308593016
 20
294.980503875779
 30
0.0
 10
279.8235893806619
 20
294.973392533955
 30
0.0
 10
280.5934198914613
 20
294.8904172787138
 30
0.0
 10
281.7285596814703
 20
294.6568125608446
 30
0.0
 10
282.1036481852286
 20
294.5606217296746
 30
0.0
 10
282.847099069419
 20
294.3307973286927
 30
0.0
 10
283.2167727614111
 20
294.1964300699344
 30
0.0
 10
284.2924894875578
 20
293.7449220963953
 30
0.0
 10
284.9724680332362
 20
293.3782659145528
 30
0.0
 10
286.2589895476578
 20
292.5152350656896
 30
0.0
 10
286.868968016816
 20
292.0135946662425
 30
0.0
 10
287.9636150699889
 20
290.918724778854
 30
0.0
 10
288.4549235099707
 20
290.3223337896351
 30
0.0
 10
289.1063986585174
 20
289.3530329608891
 30
0.0
 10
289.3095637114298
 20
289.0163116854217
 30
0.0
 10
289.678266407535
 20
288.3319553369893
 30
0.0
 10
289.8450122753175
 20
287.9827271286065
 30
0.0
 10
290.2934242699937
 20
286.9142891751633
 30
0.0
 10
290.5241205441245
 20
286.1727878894233
 30
0.0
 10
290.8402664170477
 20
284.6394211431362
 30
0.0
 10
290.922597426841
 20
283.8643569664717
 30
0.0
 10
290.9290012081741
 20
283.0808914827423
 30
0.0
  0
SPLINE
  5
95
330
1F
100
AcDbEntity
  8
0
  6
CONTINUOUS
 62
     7
100
AcDbSpline
210
0.0
220
0.0
230
1.0
 70
     8
 71
     3
 72
    26
 73
    22
 74
     0
 42
0.000000001
 43
0.00000001
 40
0.0
 40
0.0
 40
0.0
 40
0.0
 40
0.1249999999999999
 40
0.1249999999999999
 40
0.1874999999999999
 40
0.1874999999999999
 40
0.2499999999999998
 40
0.2499999999999998
 40
0.3750000000000002
 40
0.3750000000000002
 40
0.5000000000000006
 40
0.5000000000000006
 40
0.6250000000000009
 40
0.6250000000000009
 40
0.6875000000000011
 40
0.6875000000000011
 40
0.7500000000000012
 40
0.7500000000000012
 40
0.8750000000000007
 40
0.8750000000000007
 40
1.0
 40
1.0
 40
1.0
 40
1.0
 10
200.960280602875
 20
236.3348564377555
 30
0.0
 10
200.1768220815148
 20
236.3419677795796
 30
0.0
 10
199.4069915707155
 20
236.42494303482
 30
0.0
 10
198.2718517807065
 20
236.6585477526894
 30
0.0
 10
197.8967632769482
 20
236.7547385838591
 30
0.0
 10
197.1533123927578
 20
236.9845629848411
 30
0.0
 10
196.7836387007658
 20
237.1189302435995
 30
0.0
 10
195.7079219746192
 20
237.5704382171386
 30
0.0
 10
195.0279434289408
 20
237.937094398981
 30
0.0
 10
193.7414219145192
 20
238.8001252478442
 30
0.0
 10
193.131443445361
 20
239.3017656472913
 30
0.0
 10
192.0367963921882
 20
240.3966355346797
 30
0.0
 10
191.5454879522063
 20
240.9930265238985
 30
0.0
 10
190.8940128036597
 20
241.9623273526446
 30
0.0
 10
190.6908477507472
 20
242.299048628112
 30
0.0
 10
190.3221450546421
 20
242.9834049765444
 30
0.0
 10
190.1553991868597
 20
243.3326331849272
 30
0.0
 10
189.7069871921834
 20
244.4010711383703
 30
0.0
 10
189.4762909180531
 20
245.1425724241105
 30
0.0
 10
189.1601450451299
 20
246.6759391703974
 30
0.0
 10
189.0778140353362
 20
247.4510033470618
 30
0.0
 10
189.0714102540031
 20
248.2344688307912
 30
0.0
  0
ARC
  5
96
330
1F
100
AcDbEntity
  8
0
  6
CONTINUOUS
 62
     7
100
AcDbCircle
 10
240.0002057311
 20
-4006.05898651
 30
0.0
 40
4301.216666666805
100
AcDbArc
 50
89.4799486217
 51
90.5200513783
  0
SPLINE
  5
97
330
1F
100
AcDbEntity
  8
0
  6
CONTINUOUS
 62
     7
100
AcDbSpline
210
0.0
220
0.0
230
1.0
 70
     8
 71
     3
 72
    90
 73
    86
 74
     0
 42
0.000000001
 43
0.00000001
 40
0.0
 40
0.0
 40
0.0
 40
0.0
 40
0.0312499999999994
 40
0.0312499999999994
 40
0.0624999999999988
 40
0.0624999999999988
 40
0.0781249999999986
 40
0.0781249999999986
 40
0.0937499999999985
 40
0.0937499999999985
 40
0.1249999999999982
 40
0.1249999999999982
 40
0.1406249999999979
 40
0.1406249999999979
 40
0.1562499999999976
 40
0.1562499999999976
 40
0.1874999999999973
 40
0.1874999999999973
 40
0.218749999999997
 40
0.218749999999997
 40
0.2499999999999967
 40
0.2499999999999967
 40
0.2656249999999967
 40
0.2656249999999967
 40
0.2812499999999966
 40
0.2812499999999966
 40
0.3124999999999964
 40
0.3124999999999964
 40
0.3281249999999962
 40
0.3281249999999962
 40
0.343749999999996
 40
0.343749999999996
 40
0.3749999999999956
 40
0.3749999999999956
 40
0.4062499999999953
 40
0.4062499999999953
 40
0.4374999999999949
 40
0.4374999999999949
 40
0.4687499999999945
 40
0.4687499999999945
 40
0.4843749999999943
 40
0.4843749999999943
 40
0.4999999999999942
 40
0.4999999999999942
 40
0.5312499999999939
 40
0.5312499999999939
 40
0.5468749999999937
 40
0.5468749999999937
 40
0.5624999999999934
 40
0.5624999999999934
 40
0.5937499999999932
 40
0.5937499999999932
 40
0.6249999999999929
 40
0.6249999999999929
 40
0.656249999999993
 40
0.656249999999993
 40
0.671874999999993
 40
0.671874999999993
 40
0.687499999999993
 40
0.687499999999993
 40
0.7187499999999933
 40
0.7187499999999933
 40
0.7343749999999936
 40
0.7343749999999936
 40
0.7499999999999938
 40
0.7499999999999938
 40
0.7812499999999942
 40
0.7812499999999942
 40
0.8124999999999946
 40
0.8124999999999946
 40
0.8281249999999949
 40
0.8281249999999949
 40
0.8437499999999952
 40
0.8437499999999952
 40
0.8749999999999959
 40
0.8749999999999959
 40
0.8906249999999963
 40
0.8906249999999963
 40
0.9062499999999968
 40
0.9062499999999968
 40
0.9374999999999979
 40
0.9374999999999979
 40
0.9687499999999989
 40
0.9687499999999989
 40
1.0
 40
1.0
 40
1.0
 40
1.0
 10
254.8502057310887
 20
294.3107327553302
 30
0.0
 10
254.2678488372715
 20
294.3206259042477
 30
0.0
 10
253.7283574661949
 20
294.3309400934339
 30
0.0
 10
252.7315240862767
 20
294.3524597370917
 30
0.0
 10
252.2741885585868
 20
294.3636649137027
 30
0.0
 10
251.6516675543741
 20
294.3812248779018
 30
0.0
 10
251.4548418332826
 20
294.3872078286446
 30
0.0
 10
251.0893889935266
 20
294.3992267564047
 30
0.0
 10
250.919799537628
 20
294.4052885301842
 30
0.0
 10
250.4497203715339
 20
294.4236410918971
 30
0.0
 10
250.1876894162951
 20
294.4360985758639
 30
0.0
 10
249.8730024524124
 20
294.455167745993
 30
0.0
 10
249.7809140553288
 20
294.461616592814
 30
0.0
 10
249.6257343979902
 20
294.47449170608
 30
0.0
 10
249.5625591224492
 20
294.4809117888079
 30
0.0
 10
249.4152136515078
 20
294.5001263886589
 30
0.0
 10
249.3729777065407
 20
294.5128763032117
 30
0.0
 10
249.4009998775542
 20
294.5382658877435
 30
0.0
 10
249.4728434414781
 20
294.5509939746927
 30
0.0
 10
249.7268623334176
 20
294.5755118420485
 30
0.0
 10
249.9083277057556
 20
294.5873819740273
 30
0.0
 10
250.2615545254361
 20
294.6045777759358
 30
0.0
 10
250.3928612544585
 20
294.6102075391253
 30
0.0
 10
250.6832369533435
 20
294.6212506020203
 30
0.0
 10
250.8427083493861
 20
294.6266710266202
 30
0.0
 10
251.3546887230962
 20
294.6423111850566
 30
0.0
 10
251.7428291169983
 20
294.6520106093657
 30
0.0
 10
252.3938336684154
 20
294.6654336085905
 30
0.0
 10
252.6223526946098
 20
294.6697193696048
 30
0.0
 10
253.1028132845614
 20
294.6778968144355
 30
0.0
 10
253.3558662105424
 20
294.6818034421784
 30
0.0
 10
254.1427722073334
 20
294.6927775355343
 30
0.0
 10
254.7011674518387
 20
294.6990757551367
 30
0.0
 10
255.8833206915479
 20
294.7096199084782
 30
0.0
 10
256.5070764541991
 20
294.7138662381009
 30
0.0
 10
257.8225465159375
 20
294.7201478127696
 30
0.0
 10
258.5003081604332
 20
294.7221094846971
 30
0.0
 10
259.8843655094864
 20
294.7236745550795
 30
0.0
 10
260.5922898434102
 20
294.7232858235133
 30
0.0
 10
261.6786528299659
 20
294.7208698647665
 30
0.0
 10
262.0458243048064
 20
294.7197518036273
 30
0.0
 10
262.775938570424
 20
294.7169331708449
 30
0.0
 10
263.1403000495692
 20
294.715231020067
 30
0.0
 10
264.2313394358873
 20
294.7092624756969
 30
0.0
 10
264.9559843910645
 20
294.7041382647184
 30
0.0
 10
266.038824479312
 20
294.694720766477
 30
0.0
 10
266.4004288594264
 20
294.6912777055146
 30
0.0
 10
267.1156267574372
 20
294.6838659748392
 30
0.0
 10
267.4677676403736
 20
294.6799149843914
 30
0.0
 10
268.5082481706006
 20
294.6673543606763
 30
0.0
 10
269.1807383269592
 20
294.6580405219675
 30
0.0
 10
270.4833519629831
 20
294.6375907698684
 30
0.0
 10
271.1181313127359
 20
294.6263498408231
 30
0.0
 10
272.3059441983748
 20
294.6027586423734
 30
0.0
 10
272.8623793726014
 20
294.5903758298557
 30
0.0
 10
273.6414730916136
 20
294.570993758265
 30
0.0
 10
273.8918700148635
 20
294.5643978157987
 30
0.0
 10
274.3736620048476
 20
294.5509405024296
 30
0.0
 10
274.6056985107854
 20
294.5440559516575
 30
0.0
 10
275.2615385789823
 20
294.5233573339086
 30
0.0
 10
275.6488994414432
 20
294.5094089532527
 30
0.0
 10
276.1569270957353
 20
294.4883251404406
 30
0.0
 10
276.3140452526319
 20
294.481270060476
 30
0.0
 10
276.6034650577306
 20
294.4671132144007
 30
0.0
 10
276.7361399238123
 20
294.4599888005619
 30
0.0
 10
277.0931025427736
 20
294.4387110801064
 30
0.0
 10
277.2741256089137
 20
294.4248215603255
 30
0.0
 10
277.5263885087962
 20
294.3976533236876
 30
0.0
 10
277.5976274516653
 20
294.3843744912591
 30
0.0
 10
277.6191688025205
 20
294.3649434511842
 30
0.0
 10
277.6119130964338
 20
294.3585777870487
 30
0.0
 10
277.569236913781
 20
294.3462209574399
 30
0.0
 10
277.533855300106
 20
294.340205827152
 30
0.0
 10
277.3862320625472
 20
294.3226396269717
 30
0.0
 10
277.2327621319092
 20
294.3115657009632
 30
0.0
 10
276.9180704106111
 20
294.295905257086
 30
0.0
 10
276.798442685966
 20
294.2908262856193
 30
0.0
 10
276.5343269955709
 20
294.2811435887831
 30
0.0
 10
276.3896638655351
 20
294.2765243591618
 30
0.0
 10
275.918681533307
 20
294.26330686088
 30
0.0
 10
275.5555870499413
 20
294.2553455759556
 30
0.0
 10
274.7301830632153
 20
294.2410666591264
 30
0.0
 10
274.2645826322641
 20
294.2347355444818
 30
0.0
 10
273.2638007545963
 20
294.2240855727499
 30
0.0
 10
272.7257746560741
 20
294.2197008463674
 30
0.0
 10
272.1502057310888
 20
294.2162115551959
 30
0.0
  0
LINE
  5
98
330
1F
100
AcDbEntity
  8
0
  6
CONTINUOUS
 62
     7
100
AcDbLine
 10
230.7502057311
 20
236.6476418776
 30
0.0
 11
230.7502057311
 21
236.7261898514
 31
0.0
  0
SPLINE
  5
99
330
1F
100
AcDbEntity
  8
0
  6
CONTINUOUS
 62
     7
100
AcDbSpline
210
0.0
220
0.0
230
1.0
 70
     8
 71
     3
 72
    51
 73
    47
 74
     0
 42
0.000000001
 43
0.00000001
 40
0.0
 40
0.0
 40
0.0
 40
0.0
 40
0.0625000000000006
 40
0.0625000000000006
 40
0.0937500000000011
 40
0.0937500000000011
 40
0.1250000000000016
 40
0.1250000000000016
 40
0.1875000000000021
 40
0.1875000000000021
 40
0.2187500000000022
 40
0.2187500000000022
 40
0.2500000000000023
 40
0.2500000000000023
 40
0.3125000000000024
 40
0.3125000000000024
 40
0.3437500000000023
 40
0.3437500000000023
 40
0.3750000000000023
 40
0.4062500000000022
 40
0.4062500000000022
 40
0.4375000000000021
 40
0.4375000000000021
 40
0.500000000000002
 40
0.500000000000002
 40
0.5312500000000018
 40
0.5312500000000018
 40
0.5625000000000014
 40
0.5625000000000014
 40
0.6250000000000011
 40
0.6250000000000011
 40
0.6562500000000011
 40
0.6562500000000011
 40
0.687500000000001
 40
0.687500000000001
 40
0.7500000000000007
 40
0.7500000000000007
 40
0.8125000000000002
 40
0.8125000000000002
 40
0.8437500000000002
 40
0.8437500000000002
 40
0.8750000000000002
 40
0.8750000000000002
 40
0.9375000000000001
 40
0.9375000000000001
 40
1.0
 40
1.0
 40
1.0
 40
1.0
 10
204.9502057310887
 20
236.8590718747747
 30
0.0
 10
204.9502057310887
 20
236.8739455742463
 30
0.0
 10
205.0338007121043
 20
236.8878874253712
 30
0.0
 10
205.2794703622572
 20
236.9074803254361
 30
0.0
 10
205.3815554228397
 20
236.9137900695212
 30
0.0
 10
205.6270390625688
 20
236.9259656675901
 30
0.0
 10
205.7711318248861
 20
236.9318453493816
 30
0.0
 10
206.2566384804086
 20
236.9484498128833
 30
0.0
 10
206.6527830655263
 20
236.9582792793448
 30
0.0
 10
207.3547420256691
 20
236.9712697602407
 30
0.0
 10
207.6077450952426
 20
236.9753183495463
 30
0.0
 10
208.1472006350135
 20
236.9827653690571
 30
0.0
 10
208.4310462220394
 20
236.9861319695111
 30
0.0
 10
209.3236137646697
 20
236.995221474967
 30
0.0
 10
209.972978137653
 20
236.9999434309208
 30
0.0
 10
211.030447099215
 20
237.005080121406
 30
0.0
 10
211.3968523750698
 20
237.0064595181301
 30
0.0
 10
212.1415606783257
 20
237.0085188616109
 30
0.0
 10
212.9020723558953
 20
237.00990007789
 30
0.0
 10
213.69371176444
 20
237.0099734072574
 30
0.0
 10
214.5011266534926
 20
237.0093954372552
 30
0.0
 10
214.91493776942
 20
237.0087752117267
 30
0.0
 10
216.1637682712179
 20
237.005951525834
 30
0.0
 10
217.0007302864958
 20
237.0028239491828
 30
0.0
 10
218.2626089135098
 20
236.9963360027782
 30
0.0
 10
218.6843154434768
 20
236.99387131584
 30
0.0
 10
219.529954746521
 20
236.9883177230359
 30
0.0
 10
219.9513037585256
 20
236.9852426665896
 30
0.0
 10
221.1921308405906
 20
236.9752723892334
 30
0.0
 10
221.9962430223511
 20
236.9675917915995
 30
0.0
 10
223.1675623560508
 20
236.9544513116427
 30
0.0
 10
223.5541910514086
 20
236.9497706783628
 30
0.0
 10
224.301626016933
 20
236.9400085617718
 30
0.0
 10
224.6631038186022
 20
236.9349239657211
 30
0.0
 10
225.7117011434326
 20
236.9190504250663
 30
0.0
 10
226.3633342077857
 20
236.9076487946054
 30
0.0
 10
227.5680462259691
 20
236.8829974802831
 30
0.0
 10
228.1031377595289
 20
236.870106981692
 30
0.0
 10
228.8041633273564
 20
236.8499619661506
 30
0.0
 10
229.0210708540812
 20
236.8431053462771
 30
0.0
 10
229.4206468597308
 20
236.8290867144035
 30
0.0
 10
229.6038428860658
 20
236.8218934404323
 30
0.0
 10
230.0900215648165
 20
236.8002762293398
 30
0.0
 10
230.3342244867938
 20
236.7856971875541
 30
0.0
 10
230.6647895532302
 20
236.7561279008831
 30
0.0
 10
230.7502057310888
 20
236.7410631132396
 30
0.0
 10
230.7502057310888
 20
236.7261898514244
 30
0.0
  0
LINE
  5
9A
330
1F
100
AcDbEntity
  8
0
  6
CONTINUOUS
 62
     7
100
AcDbLine
 10
204.9502057311
 20
236.7805214739
 30
0.0
 11
204.9502057311
 21
236.8590718748
 31
0.0
  0
SPLINE
  5
9B
330
1F
100
AcDbEntity
  8
0
  6
CONTINUOUS
 62
     7
100
AcDbSpline
210
0.0
220
0.0
230
1.0
 70
     8
 71
     3
 72
    51
 73
    47
 74
     0
 42
0.000000001
 43
0.00000001
 40
0.0
 40
0.0
 40
0.0
 40
0.0
 40
0.0624999999999997
 40
0.0624999999999997
 40
0.0937499999999995
 40
0.0937499999999995
 40
0.1249999999999993
 40
0.1249999999999993
 40
0.1874999999999991
 40
0.1874999999999991
 40
0.2187499999999991
 40
0.2187499999999991
 40
0.249999999999999
 40
0.249999999999999
 40
0.3124999999999992
 40
0.3124999999999992
 40
0.3437499999999992
 40
0.3437499999999992
 40
0.3749999999999992
 40
0.4062499999999992
 40
0.4062499999999992
 40
0.4374999999999992
 40
0.4374999999999992
 40
0.4999999999999992
 40
0.4999999999999992
 40
0.5312499999999992
 40
0.5312499999999992
 40
0.5624999999999993
 40
0.5624999999999993
 40
0.6249999999999997
 40
0.6249999999999997
 40
0.6562499999999998
 40
0.6562499999999998
 40
0.6875
 40
0.6875
 40
0.7500000000000001
 40
0.7500000000000001
 40
0.8125000000000003
 40
0.8125000000000003
 40
0.8437500000000004
 40
0.8437500000000004
 40
0.8750000000000004
 40
0.8750000000000004
 40
0.9375000000000002
 40
0.9375000000000002
 40
1.0
 40
1.0
 40
1.0
 40
1.0
 10
204.9502057310887
 20
236.7805214738999
 30
0.0
 10
204.9502057310887
 20
236.7656474274103
 30
0.0
 10
205.0338044251776
 20
236.7503384231944
 30
0.0
 10
205.2794642221326
 20
236.7267701343809
 30
0.0
 10
205.3815434692631
 20
236.7188128830479
 30
0.0
 10
205.6270068146689
 20
236.7027001377653
 30
0.0
 10
205.7710865806372
 20
236.6945198502951
 30
0.0
 10
206.2565459848645
 20
236.6702250733462
 30
0.0
 10
206.6526430557685
 20
236.6541903775969
 30
0.0
 10
207.3544951256405
 20
236.6304688340043
 30
0.0
 10
207.6074492589712
 20
236.6225909319508
 30
0.0
 10
208.1468299042365
 20
236.6070862517906
 30
0.0
 10
208.4306348180581
 20
236.5995305790653
 30
0.0
 10
209.3230703006163
 20
236.5774621028752
 30
0.0
 10
209.972333407204
 20
236.5635419626879
 30
0.0
 10
211.0296270239547
 20
236.5439864022032
 30
0.0
 10
211.3959984261637
 20
236.5376983392024
 30
0.0
 10
212.1406364035187
 20
236.5258614890986
 30
0.0
 10
212.9010761218436
 20
236.5146886265693
 30
0.0
 10
213.6926402598713
 20
236.5048513055463
 30
0.0
 10
214.4999778212874
 20
236.4957023800491
 30
0.0
 10
214.9137377172664
 20
236.4914525858558
 30
0.0
 10
216.1625828949728
 20
236.4799467183753
 30
0.0
 10
216.999549771559
 20
236.4739544125579
 30
0.0
 10
218.2614279473934
 20
236.4674368240968
 30
0.0
 10
218.683133027884
 20
236.4656786197357
 30
0.0
 10
219.5287666484501
 20
236.4630141819754
 30
0.0
 10
219.9501865448863
 20
236.4621202620079
 30
0.0
 10
221.1911396566358
 20
236.460757802451
 30
0.0
 10
221.9953176395299
 20
236.4615715808454
 30
0.0
 10
223.1667139212536
 20
236.4653286305087
 30
0.0
 10
223.5533717534782
 20
236.4670199283457
 30
0.0
 10
224.3009254215862
 20
236.4711948824892
 30
0.0
 10
224.6624547038897
 20
236.4736747331571
 30
0.0
 10
225.7111872604654
 20
236.4822391494803
 30
0.0
 10
226.3628849950421
 20
236.4894386257924
 30
0.0
 10
227.5676923275744
 20
236.5067868579514
 30
0.0
 10
228.1029011846747
 20
236.5166851353089
 30
0.0
 10
228.8039998901607
 20
236.5331046335835
 30
0.0
 10
229.0209268448146
 20
236.5388464382536
 30
0.0
 10
229.4205344473064
 20
236.5508623347461
 30
0.0
 10
229.6037487289786
 20
236.557165549265
 30
0.0
 10
230.0899816800413
 20
236.5764701063321
 30
0.0
 10
230.3342019350682
 20
236.5899562977077
 30
0.0
 10
230.6647858302013
 20
236.618065895772
 30
0.0
 10
230.7502057310888
 20
236.6327682656272
 30
0.0
 10
230.7502057310888
 20
236.6476418775658
 30
0.0
  0
ARC
  5
9C
330
1F
100
AcDbEntity
  8
0
  6
CONTINUOUS
 62
     7
100
AcDbCircle
 10
240.0002057311
 20
4537.3743468235
 30
0.0
 40
4301.21666666676
100
AcDbArc
 50
269.4799486217
 51
270.5200513783
  0
SPLINE
  5
9D
330
1F
100
AcDbEntity
  8
0
  6
CONTINUOUS
 62
     7
100
AcDbSpline
210
0.0
220
0.0
230
1.0
 70
     8
 71
     3
 72
    78
 73
    74
 74
     0
 42
0.000000001
 43
0.00000001
 40
0.0
 40
0.0
 40
0.0
 40
0.0
 40
0.0625000000000005
 40
0.0625000000000005
 40
0.0937500000000006
 40
0.0937500000000006
 40
0.1250000000000007
 40
0.1250000000000007
 40
0.1406250000000007
 40
0.1406250000000007
 40
0.1562500000000006
 40
0.1562500000000006
 40
0.1875000000000003
 40
0.1875000000000003
 40
0.21875
 40
0.21875
 40
0.2343749999999999
 40
0.2343749999999999
 40
0.2499999999999997
 40
0.2499999999999997
 40
0.2812499999999994
 40
0.2812499999999994
 40
0.3124999999999991
 40
0.3124999999999991
 40
0.3437499999999988
 40
0.3437499999999988
 40
0.3749999999999986
 40
0.3749999999999986
 40
0.4374999999999981
 40
0.4374999999999981
 40
0.4531249999999979
 40
0.4531249999999979
 40
0.4687499999999977
 40
0.4687499999999977
 40
0.4999999999999976
 40
0.4999999999999976
 40
0.5156249999999973
 40
0.5156249999999973
 40
0.5312499999999971
 40
0.5312499999999971
 40
0.5624999999999969
 40
0.5624999999999969
 40
0.5937499999999966
 40
0.5937499999999966
 40
0.6249999999999962
 40
0.6249999999999962
 40
0.6562499999999961
 40
0.6562499999999961
 40
0.6718749999999961
 40
0.6718749999999961
 40
0.6874999999999961
 40
0.6874999999999961
 40
0.7187499999999966
 40
0.7187499999999966
 40
0.7343749999999967
 40
0.7343749999999967
 40
0.7499999999999968
 40
0.7499999999999968
 40
0.8124999999999973
 40
0.8124999999999973
 40
0.8437499999999976
 40
0.8437499999999976
 40
0.8749999999999978
 40
0.8749999999999978
 40
0.9062499999999981
 40
0.9062499999999981
 40
0.9374999999999983
 40
0.9374999999999983
 40
0.9531249999999988
 40
0.9531249999999988
 40
0.9687499999999993
 40
0.9687499999999993
 40
1.0
 40
1.0
 40
1.0
 40
1.0
 10
254.8502057310886
 20
236.8172506112924
 30
0.0
 10
254.1378952006561
 20
236.8001616607661
 30
0.0
 10
253.5606425096385
 20
236.7823117508627
 30
0.0
 10
252.891208775715
 20
236.7541974923795
 30
0.0
 10
252.7015796180187
 20
236.7445745941831
 30
0.0
 10
252.4012504874988
 20
236.7254466737789
 30
0.0
 10
252.288534576604
 20
236.7158679858745
 30
0.0
 10
252.1752844192038
 20
236.7014648652019
 30
0.0
 10
252.1468727961458
 20
236.6966580469536
 30
0.0
 10
252.1090952471728
 20
236.6870314848921
 30
0.0
 10
252.0997780865193
 20
236.6821950737624
 30
0.0
 10
252.1011067005766
 20
236.6678724544942
 30
0.0
 10
252.1404289964635
 20
236.6585248543264
 30
0.0
 10
252.2938818984317
 20
236.6402266172794
 30
0.0
 10
252.408010149294
 20
236.6312759229257
 30
0.0
 10
252.6372062150581
 20
236.6181712709
 30
0.0
 10
252.72342360543
 20
236.6138570461592
 30
0.0
 10
252.9125679176153
 20
236.6054778271546
 30
0.0
 10
253.0157804174989
 20
236.601394850152
 30
0.0
 10
253.3509018310687
 20
236.5894661096166
 30
0.0
 10
253.6081676039361
 20
236.5819386668091
 30
0.0
 10
254.1911810846791
 20
236.5677800068053
 30
0.0
 10
254.5198944863559
 20
236.5611077484237
 30
0.0
 10
255.2291103920736
 20
236.5491011803334
 30
0.0
 10
255.6103672105848
 20
236.5437284455569
 30
0.0
 10
256.4255619668974
 20
236.53427266654
 30
0.0
 10
256.8605078635636
 20
236.5301818566255
 30
0.0
 10
258.2420334861531
 20
236.5200529822615
 30
0.0
 10
259.22660764837
 20
236.5163769225691
 30
0.0
 10
260.535940074946
 20
236.5157536085884
 30
0.0
 10
260.8029293124706
 20
236.5158328569632
 30
0.0
 10
261.3379485803025
 20
236.5164025955223
 30
0.0
 10
261.6062004772832
 20
236.516890960581
 30
0.0
 10
262.4131333690002
 20
236.5189558512328
 30
0.0
 10
262.9539807140241
 20
236.5211295538981
 30
0.0
 10
263.7695955779901
 20
236.5255920737733
 30
0.0
 10
264.0421938822665
 20
236.5272805605393
 30
0.0
 10
264.5888789798162
 20
236.5310688058362
 30
0.0
 10
264.8627718400356
 20
236.5331693400854
 30
0.0
 10
265.673253067861
 20
236.5399828084667
 30
0.0
 10
266.2032250617816
 20
236.5452348930398
 30
0.0
 10
267.2429228584614
 20
236.5571094816355
 30
0.0
 10
267.7530560061801
 20
236.5637379115061
 30
0.0
 10
268.7506181457401
 20
236.5783666336324
 30
0.0
 10
269.2266786077573
 20
236.5861984921995
 30
0.0
 10
270.135326491952
 20
236.6028158990971
 30
0.0
 10
270.5679078573911
 20
236.6116017102408
 30
0.0
 10
271.1835993704119
 20
236.6254768113819
 30
0.0
 10
271.3840322869854
 20
236.6302380069365
 30
0.0
 10
271.7685614112526
 20
236.6398698005827
 30
0.0
 10
271.952873270624
 20
236.6447428893897
 30
0.0
 10
272.4825341955103
 20
236.6595214272291
 30
0.0
 10
272.8047226484492
 20
236.6695853046302
 30
0.0
 10
273.2417928664004
 20
236.6849663065883
 30
0.0
 10
273.3797522356778
 20
236.6901410567973
 30
0.0
 10
273.6398803546329
 20
236.7005832508759
 30
0.0
 10
273.7619869344721
 20
236.7058521105938
 30
0.0
 10
274.323388663789
 20
236.7320008943852
 30
0.0
 10
274.6268297402077
 20
236.7526299824707
 30
0.0
 10
274.8605856415904
 20
236.7829920064755
 30
0.0
 10
274.8993636402977
 20
236.7928179202991
 30
0.0
 10
274.9010207074194
 20
236.8117682810593
 30
0.0
 10
274.8640623874623
 20
236.820914663701
 30
0.0
 10
274.7133495469079
 20
236.8385451398151
 30
0.0
 10
274.5983592787956
 20
236.8470591625099
 30
0.0
 10
274.2973648130172
 20
236.8629090869992
 30
0.0
 10
274.1111520502707
 20
236.8703132162754
 30
0.0
 10
273.778557203056
 20
236.8806633450917
 30
0.0
 10
273.6587800299291
 20
236.883986969401
 30
0.0
 10
273.4010422236827
 20
236.8903806454612
 30
0.0
 10
273.2624628451521
 20
236.8934623220909
 30
0.0
 10
272.8237843922108
 20
236.9022189569354
 30
0.0
 10
272.5014927177554
 20
236.9074085795692
 30
0.0
 10
272.1502057310888
 20
236.9119889644576
 30
0.0
  0
ARC
  5
9E
330
1F
100
AcDbEntity
  8
0
  6
CONTINUOUS
 62
     7
100
AcDbCircle
 10
-1840.6997942714
 20
265.6576801568
 30
0.0
 40
2131.700000002481
100
AcDbArc
 50
359.5316941456
 51
0.4683058544
  0
ARC
  5
9F
330
1F
100
AcDbEntity
  8
0
  6
CONTINUOUS
 62
     7
100
AcDbCircle
 10
2320.7002057336
 20
265.6576801568
 30
0.0
 40
2131.700000002482
100
AcDbArc
 50
179.5316941456
 51
180.4683058544
  0
SPLINE
  5
A0
330
1F
100
AcDbEntity
  8
0
  6
CONTINUOUS
 62
     7
100
AcDbSpline
210
0.0
220
0.0
230
1.0
 70
    24
 71
     3
 72
    11
 73
     7
 74
     0
 42
0.000000001
 43
0.00000001
 40
0.0
 40
0.0
 40
0.0
 40
0.0
 40
0.1472188312671646
 40
0.4380154739781581
 40
0.7374448019456044
 40
1.0
 40
1.0
 40
1.0
 40
1.0
 10
254.8502057310887
 20
294.2147233756915
 30
0.0
 10
254.8502057310887
 20
294.1824237474933
 30
0.0
 10
254.8502057310887
 20
294.0863236981127
 30
0.0
 10
254.8502057310887
 20
293.9431704954038
 30
0.0
 10
254.8502057310887
 20
293.8128597141376
 30
0.0
 10
254.8502057310887
 20
293.7888432660939
 30
0.0
 10
254.8502057310887
 20
293.777622951333
 30
0.0
  0
SPLINE
  5
A1
330
1F
100
AcDbEntity
  8
0
  6
CONTINUOUS
 62
     7
100
AcDbSpline
210
0.0
220
0.0
230
1.0
 70
    24
 71
     3
 72
    16
 73
    12
 74
     0
 42
0.000000001
 43
0.00000001
 40
0.0
 40
0.0
 40
0.0
 40
0.0
 40
0.075543265715937
 40
0.1541782060832639
 40
0.2359100170462761
 40
0.3207433255117028
 40
0.4086822688318433
 40
0.4997305609877737
 40
0.6177868721354263
 40
0.7498165363678049
 40
0.9999999999999999
 40
0.9999999999999999
 40
0.9999999999999999
 40
0.9999999999999999
 10
254.8502057310887
 20
237.5377372227149
 30
0.0
 10
254.8502057310887
 20
237.5312670674305
 30
0.0
 10
254.8502057310887
 20
237.5180619600608
 30
0.0
 10
254.8502057310887
 20
237.4868954648057
 30
0.0
 10
254.8502057310887
 20
237.4470961878309
 30
0.0
 10
254.8502057310887
 20
237.3977718021946
 30
0.0
 10
254.8502057310887
 20
237.3391861487893
 30
0.0
 10
254.8502057310887
 20
237.2652698187564
 30
0.0
 10
254.8502057310887
 20
237.1710549811427
 30
0.0
 10
254.8502057310887
 20
237.0215439362143
 30
0.0
 10
254.8502057310887
 20
236.8980714321399
 30
0.0
 10
254.8502057310887
 20
236.8172506112925
 30
0.0
  0
SPLINE
  5
A2
330
1F
100
AcDbEntity
  8
0
  6
CONTINUOUS
 62
     7
100
AcDbSpline
210
0.0
220
0.0
230
1.0
 70
    24
 71
     3
 72
    16
 73
    12
 74
     0
 42
0.000000001
 43
0.00000001
 40
0.0
 40
0.0
 40
0.0
 40
0.0
 40
0.0728926011561409
 40
0.1490065308790768
 40
0.2285498574654563
 40
0.3117049103665677
 40
0.3986312950466324
 40
0.4894687399474357
 40
0.6083477018931499
 40
0.7428673596221791
 40
1.0
 40
1.0
 40
1.0
 40
1.0
 10
272.1502057310888
 20
293.6778161982669
 30
0.0
 10
272.1502057310888
 20
293.6795708006758
 30
0.0
 10
272.1502057310888
 20
293.683157546297
 30
0.0
 10
272.1502057310888
 20
293.6997541390053
 30
0.0
 10
272.1502057310888
 20
293.7244972527508
 30
0.0
 10
272.1502057310888
 20
293.7582924694693
 30
0.0
 10
272.1502057310887
 20
293.8008664893314
 30
0.0
 10
272.1502057310888
 20
293.8568667879508
 30
0.0
 10
272.1502057310888
 20
293.9306175466009
 30
0.0
 10
272.1502057310888
 20
294.0503852820347
 30
0.0
 10
272.1502057310887
 20
294.150489703573
 30
0.0
 10
272.1502057310888
 20
294.2162115551952
 30
0.0
  0
SPLINE
  5
A3
330
1F
100
AcDbEntity
  8
0
  6
CONTINUOUS
 62
     7
100
AcDbSpline
210
0.0
220
0.0
230
1.0
 70
    24
 71
     3
 72
    14
 73
    10
 74
     0
 42
0.000000001
 43
0.00000001
 40
0.0
 40
0.0
 40
0.0
 40
0.0
 40
0.0885704341326243
 40
0.1806301285539909
 40
0.291931371668241
 40
0.3943805757655783
 40
0.504104200913486
 40
0.7643858621891954
 40
1.0
 40
1.0
 40
1.0
 40
1.0
 10
272.1502057310888
 20
237.0333895793374
 30
0.0
 10
272.1502057310888
 20
237.0582641149041
 30
0.0
 10
272.1502057310887
 20
237.1089931262398
 30
0.0
 10
272.1502057310888
 20
237.18853094154
 30
0.0
 10
272.1502057310888
 20
237.2682627803585
 30
0.0
 10
272.1502057310888
 20
237.3479244757352
 30
0.0
 10
272.1502057310887
 20
237.4543602805296
 30
0.0
 10
272.1502057310888
 20
237.5700932561858
 30
0.0
 10
272.1502057310887
 20
237.6158185964585
 30
0.0
 10
272.1502057310888
 20
237.6375440005541
 30
0.0
  0
LINE
  5
A4
330
1F
100
AcDbEntity
  8
0
  6
CONTINUOUS
 62
     7
100
AcDbLine
 10
255.0002057292
 20
292.7076801568
 30
0.0
 11
255.000205729
 21
294.1076802068
 31
0.0
  0
LINE
  5
A5
330
1F
100
AcDbEntity
  8
0
  6
CONTINUOUS
 62
     7
100
AcDbLine
 10
272.0002057281
 20
294.1076802068
 30
0.0
 11
272.0002057261
 21
292.7076801568
 31
0.0
  0
LINE
  5
A6
330
1F
100
AcDbEntity
  8
0
  6
CONTINUOUS
 62
     7
100
AcDbLine
 10
272.0002057281
 20
294.1076802068
 30
0.0
 11
272.1622420288
 21
294.1076801568
 31
0.0
  0
LINE
  5
A7
330
1F
100
AcDbEntity
  8
0
  6
CONTINUOUS
 62
     7
100
AcDbLine
 10
254.8402542317
 20
294.1076801568
 30
0.0
 11
255.000205729
 21
294.1076802068
 31
0.0
  0
LINE
  5
A8
330
1F
100
AcDbEntity
  8
0
  6
CONTINUOUS
 62
     7
100
AcDbLine
 10
272.0002278667
 20
292.7076801568
 30
0.0
 11
272.1502057311
 21
292.7076801568
 31
0.0
  0
LINE
  5
A9
330
1F
100
AcDbEntity
  8
0
  6
CONTINUOUS
 62
     7
100
AcDbLine
 10
254.8502057311
 20
292.7076801568
 30
0.0
 11
255.0002057292
 21
292.7076801568
 31
0.0
  0
LINE
  5
AA
330
1F
100
AcDbEntity
  8
0
  6
CONTINUOUS
 62
     7
100
AcDbLine
 10
255.0002057288
 20
264.7735108079
 30
0.0
 11
254.830670204
 21
264.7971612649
 31
0.0
  0
LINE
  5
AB
330
1F
100
AcDbEntity
  8
0
  6
CONTINUOUS
 62
     7
100
AcDbLine
 10
272.1647463477
 20
264.7964491154
 30
0.0
 11
272.0002057288
 21
264.7735109528
 31
0.0
  0
SPLINE
  5
AC
330
1F
100
AcDbEntity
  8
0
  6
CONTINUOUS
 62
     7
100
AcDbSpline
210
0.0
220
0.0
230
1.0
 70
    24
 71
     3
 72
     8
 73
     4
 74
     0
 42
0.000000001
 43
0.00000001
 40
0.0
 40
0.0
 40
0.0
 40
0.0
 40
1.0
 40
1.0
 40
1.0
 40
1.0
 10
255.0002057287587
 20
264.7735108955576
 30
0.0
 10
255.0002057287587
 20
274.0753098600786
 30
0.0
 10
255.0002057287587
 20
283.3884254126321
 30
0.0
 10
255.0002057287587
 20
292.7066419852396
 30
0.0
  0
SPLINE
  5
AD
330
1F
100
AcDbEntity
  8
0
  6
CONTINUOUS
 62
     7
100
AcDbSpline
210
0.0
220
0.0
230
1.0
 70
    24
 71
     3
 72
     8
 73
     4
 74
     0
 42
0.000000001
 43
0.00000001
 40
0.0
 40
0.0
 40
0.0
 40
0.0
 40
1.0
 40
1.0
 40
1.0
 40
1.0
 10
272.0002057287586
 20
292.7076285963625
 30
0.0
 10
272.0002057287586
 20
283.3890783589069
 30
0.0
 10
272.0002057287587
 20
274.0756462819879
 30
0.0
 10
272.0002057287587
 20
264.7735109183994
 30
0.0
  0
ARC
  5
AE
330
1F
100
AcDbEntity
  8
0
  6
CONTINUOUS
 62
     7
100
AcDbCircle
 10
263.5006296254
 20
208.6870181408
 30
0.0
 40
58.31194708117301
100
AcDbArc
 50
81.5890686933
 51
98.4141972956
  0
SPLINE
  5
AF
330
1F
100
AcDbEntity
  8
0
  6
CONTINUOUS
 62
     7
100
AcDbSpline
210
0.0
220
0.0
230
1.0
 70
    24
 71
     3
 72
    18
 73
    14
 74
     0
 42
0.000000001
 43
0.00000001
 40
0.0
 40
0.0
 40
0.0
 40
0.0
 40
0.0297871128030522
 40
0.1331858570491926
 40
0.2329391158763927
 40
0.3356252657734558
 40
0.4346876875335199
 40
0.5366460708376787
 40
0.6353238514291567
 40
0.7368599706625333
 40
0.8356211495174533
 40
0.9372186541530703
 40
1.0
 40
1.0
 40
1.0
 40
1.0
 10
272.0002057280861
 20
294.1076801567669
 30
0.0
 10
271.8799443448078
 20
294.1076801567669
 30
0.0
 10
271.3422247105568
 20
294.1076801567669
 30
0.0
 10
270.1564710135534
 20
294.1076801567669
 30
0.0
 10
268.4759793377697
 20
294.1076801567669
 30
0.0
 10
266.6577523492319
 20
294.1076801567669
 30
0.0
 10
264.7409897310605
 20
294.1076801567669
 30
0.0
 10
262.8118083973229
 20
294.1076801567669
 30
0.0
 10
260.8884960451838
 20
294.1076801567668
 30
0.0
 10
259.055755004862
 20
294.1076801567669
 30
0.0
 10
257.342151928138
 20
294.1076801567669
 30
0.0
 10
255.9679994991634
 20
294.1076801567669
 30
0.0
 10
255.2676795046416
 20
294.1076801567669
 30
0.0
 10
255.0002057289671
 20
294.1076801567669
 30
0.0
  0
LINE
  5
B0
330
1F
100
AcDbEntity
  8
0
  6
CONTINUOUS
 62
     7
100
AcDbLine
 10
272.0002057248
 20
237.0076801568
 30
0.0
 11
272.1502057341
 21
237.0076801568
 31
0.0
  0
LINE
  5
B1
330
1F
100
AcDbEntity
  8
0
  6
CONTINUOUS
 62
     7
100
AcDbLine
 10
254.8502057311
 20
237.0076801568
 30
0.0
 11
255.0002057257
 21
237.0076801568
 31
0.0
  0
LINE
  5
B2
330
1F
100
AcDbEntity
  8
0
  6
CONTINUOUS
 62
     7
100
AcDbLine
 10
255.0002057288
 20
237.0076801068
 30
0.0
 11
255.0002057288
 21
264.7735108079
 31
0.0
  0
LINE
  5
B3
330
1F
100
AcDbEntity
  8
0
  6
CONTINUOUS
 62
     7
100
AcDbLine
 10
272.0002057288
 20
264.7735109528
 30
0.0
 11
272.0002057248
 21
237.0076801568
 31
0.0
  0
LINE
  5
B4
330
1F
100
AcDbEntity
  8
0
  6
CONTINUOUS
 62
     7
100
AcDbLine
 10
272.0002057248
 20
237.0076801568
 30
0.0
 11
255.0002057288
 21
237.0076801568
 31
0.0
  0
SPLINE
  5
B5
330
1F
100
AcDbEntity
  8
0
  6
CONTINUOUS
 62
     8
100
AcDbSpline
210
0.0
220
0.0
230
1.0
 70
     8
 71
     3
 72
    26
 73
    22
 74
     0
 42
0.000000001
 43
0.00000001
 40
0.0
 40
0.0
 40
0.0
 40
0.0
 40
0.1249999999999981
 40
0.1249999999999981
 40
0.1874999999999978
 40
0.1874999999999978
 40
0.2499999999999974
 40
0.2499999999999974
 40
0.3749999999999978
 40
0.3749999999999978
 40
0.4999999999999982
 40
0.4999999999999982
 40
0.6249999999999986
 40
0.6249999999999986
 40
0.6874999999999988
 40
0.6874999999999988
 40
0.749999999999999
 40
0.749999999999999
 40
0.8749999999999996
 40
0.8749999999999996
 40
1.0
 40
1.0
 40
1.0
 40
1.0
 10
201.8195057482217
 20
293.140786000757
 30
0.0
 10
201.1007491216718
 20
293.1340113927544
 30
0.0
 10
200.3945375230536
 20
293.0575519564471
 30
0.0
 10
199.3532523747843
 20
292.8426978574036
 30
0.0
 10
199.0091846009663
 20
292.7542640137375
 30
0.0
 10
198.3272328334443
 20
292.5430468982675
 30
0.0
 10
197.9881621315198
 20
292.4195953210594
 30
0.0
 10
197.0015236937313
 20
292.0048770894492
 30
0.0
 10
196.3778509170328
 20
291.6682087851475
 30
0.0
 10
195.1978240966925
 20
290.8760002049273
 30
0.0
 10
194.6383633545791
 20
290.4156680974228
 30
0.0
 10
193.6342472461505
 20
289.4111090947947
 30
0.0
 10
193.1834948719867
 20
288.8639619934874
 30
0.0
 10
192.5857041304865
 20
287.9747336849173
 30
0.0
 10
192.399281041691
 20
287.6658629795291
 30
0.0
 10
192.0609278409982
 20
287.0381167376858
 30
0.0
 10
191.9078856863326
 20
286.7177706887066
 30
0.0
 10
191.4962790329263
 20
285.7376681675232
 30
0.0
 10
191.2844318176818
 20
285.0573542457551
 30
0.0
 10
190.9941296183707
 20
283.6507524099154
 30
0.0
 10
190.9184926263121
 20
282.9397338567663
 30
0.0
 10
190.9125985320469
 20
282.2209723116581
 30
0.0
  0
ARC
  5
B6
330
1F
100
AcDbEntity
  8
0
  6
CONTINUOUS
 62
     8
100
AcDbCircle
 10
188.2533987303
 20
-29.3263276159
 30
0.0
 40
311.5586484688655
100
AcDbArc
 50
89.5109659892
 51
89.6934194999
  0
SPLINE
  5
B7
330
1F
100
AcDbEntity
  8
0
  6
CONTINUOUS
 62
     8
100
AcDbSpline
210
0.0
220
0.0
230
1.0
 70
     8
 71
     3
 72
    26
 73
    22
 74
     0
 42
0.000000001
 43
0.00000001
 40
0.0
 40
0.0
 40
0.0
 40
0.0
 40
0.1250000000000005
 40
0.1250000000000005
 40
0.2500000000000009
 40
0.2500000000000009
 40
0.3125000000000011
 40
0.3125000000000011
 40
0.3750000000000012
 40
0.3750000000000012
 40
0.5000000000000013
 40
0.5000000000000013
 40
0.6250000000000016
 40
0.6250000000000016
 40
0.7500000000000018
 40
0.7500000000000018
 40
0.8125000000000014
 40
0.8125000000000014
 40
0.875000000000001
 40
0.875000000000001
 40
1.0
 40
1.0
 40
1.0
 40
1.0
 10
189.920490988677
 20
282.2278606710486
 30
0.0
 10
189.9265951526073
 20
283.0116209057248
 30
0.0
 10
190.0086944590313
 20
283.7869773278838
 30
0.0
 10
190.3244826158865
 20
285.3209273440125
 30
0.0
 10
190.5551137590068
 20
286.0628879869551
 30
0.0
 10
191.0034611714297
 20
287.1318081574468
 30
0.0
 10
191.1701960945519
 20
287.4811877496449
 30
0.0
 10
191.5388925629086
 20
288.1658302373533
 30
0.0
 10
191.7420700463275
 20
288.502702422745
 30
0.0
 10
192.3936742072719
 20
289.4725142425967
 30
0.0
 10
192.8851023894225
 20
290.0691915343151
 30
0.0
 10
193.9800264206414
 20
291.1645524420884
 30
0.0
 10
194.5901897536801
 20
291.6664243499917
 30
0.0
 10
195.8771789049858
 20
292.5298555245467
 30
0.0
 10
196.557403779552
 20
292.8966578049016
 30
0.0
 10
197.6335066053338
 20
293.3483075969325
 30
0.0
 10
198.003321259083
 20
293.4827127035549
 30
0.0
 10
198.7470733013069
 20
293.7125864516893
 30
0.0
 10
199.1223117065566
 20
293.8087857755363
 30
0.0
 10
200.2578992981297
 20
294.0423685790102
 30
0.0
 10
201.028025785221
 20
294.1252667015081
 30
0.0
 10
201.8117784092663
 20
294.1322329692804
 30
0.0
  0
ARC
  5
B8
330
1F
100
AcDbEntity
  8
0
  6
CONTINUOUS
 62
     8
100
AcDbCircle
 10
440.7167307116
 20
295.4985048788
 30
0.0
 40
238.9088590519278
100
AcDbArc
 50
180.3276648723
 51
180.5654438029
  0
SPLINE
  5
B9
330
1F
100
AcDbEntity
  8
0
  6
CONTINUOUS
 62
     8
100
AcDbSpline
210
0.0
220
0.0
230
1.0
 70
     8
 71
     3
 72
    26
 73
    22
 74
     0
 42
0.000000001
 43
0.00000001
 40
0.0
 40
0.0
 40
0.0
 40
0.0
 40
0.1250000000000011
 40
0.1250000000000011
 40
0.1875000000000012
 40
0.1875000000000012
 40
0.2500000000000013
 40
0.2500000000000013
 40
0.3750000000000009
 40
0.3750000000000009
 40
0.5000000000000006
 40
0.5000000000000006
 40
0.6250000000000003
 40
0.6250000000000003
 40
0.6875000000000007
 40
0.6875000000000007
 40
0.750000000000001
 40
0.750000000000001
 40
0.8750000000000006
 40
0.8750000000000006
 40
1.0
 40
1.0
 40
1.0
 40
1.0
 10
278.1809056201253
 20
238.1745745041957
 30
0.0
 10
278.8996622521205
 20
238.1813490800861
 30
0.0
 10
279.6058738606664
 20
238.2578084795493
 30
0.0
 10
280.6471590282448
 20
238.4726625279689
 30
0.0
 10
280.991226809251
 20
238.5610963554821
 30
0.0
 10
281.6731785924432
 20
238.7723134414979
 30
0.0
 10
282.0122493026562
 20
238.8957650053408
 30
0.0
 10
282.9988877633421
 20
239.31048320172
 30
0.0
 10
283.622560554434
 20
239.6471514894808
 30
0.0
 10
284.802587403212
 20
240.4393600479924
 30
0.0
 10
285.36204815804
 20
240.8996921493008
 30
0.0
 10
286.3661642941355
 20
241.9042511398208
 30
0.0
 10
286.8169166846794
 20
242.4513982361353
 30
0.0
 10
287.4147074609285
 20
243.3406265333136
 30
0.0
 10
287.6011305624921
 20
243.6494972332363
 30
0.0
 10
287.9394837937243
 20
244.2772434645813
 30
0.0
 10
288.0925259661415
 20
244.5975895085452
 30
0.0
 10
288.5041326798977
 20
245.5776920154535
 30
0.0
 10
288.7159799452321
 20
246.2580059288235
 30
0.0
 10
289.0062822570714
 20
247.6646077516664
 30
0.0
 10
289.0819193108805
 20
248.3756263035251
 30
0.0
 10
289.0878134635605
 20
249.0943878535166
 30
0.0
  0
ARC
  5
BA
330
1F
100
AcDbEntity
  8
0
  6
CONTINUOUS
 62
     8
100
AcDbCircle
 10
291.7465307737
 20
560.5796733234
 30
0.0
 40
311.4966321519467
100
AcDbArc
 50
269.5109573756
 51
269.6934471093
  0
SPLINE
  5
BB
330
1F
100
AcDbEntity
  8
0
  6
CONTINUOUS
 62
     8
100
AcDbSpline
210
0.0
220
0.0
230
1.0
 70
     8
 71
     3
 72
    26
 73
    22
 74
     0
 42
0.000000001
 43
0.00000001
 40
0.0
 40
0.0
 40
0.0
 40
0.0
 40
0.1249999999999991
 40
0.1249999999999991
 40
0.2499999999999982
 40
0.2499999999999982
 40
0.312499999999998
 40
0.312499999999998
 40
0.3749999999999978
 40
0.3749999999999978
 40
0.4999999999999982
 40
0.4999999999999982
 40
0.6249999999999987
 40
0.6249999999999987
 40
0.7499999999999991
 40
0.7499999999999991
 40
0.8124999999999996
 40
0.8124999999999996
 40
0.875
 40
0.875
 40
1.0
 40
1.0
 40
1.0
 40
1.0
 10
290.0799204536378
 20
249.0874996624377
 30
0.0
 10
290.073816291771
 20
248.3037394276212
 30
0.0
 10
289.9917169869623
 20
247.5283830053106
 30
0.0
 10
289.6759288331524
 20
245.9944329887517
 30
0.0
 10
289.4452976911785
 20
245.2524723446565
 30
0.0
 10
288.9969502810249
 20
244.1835521730877
 30
0.0
 10
288.8302153587241
 20
243.8341725805174
 30
0.0
 10
288.4615188922141
 20
243.1495300920101
 30
0.0
 10
288.2583414097844
 20
242.812657906092
 30
0.0
 10
287.6067372514067
 20
241.8428460837373
 30
0.0
 10
287.1153090711159
 20
241.2461687901664
 30
0.0
 10
286.0203850436713
 20
240.150807878562
 30
0.0
 10
285.4102217124184
 20
239.6489359685372
 30
0.0
 10
284.1232325637502
 20
238.7855047899345
 30
0.0
 10
283.4430076902585
 20
238.418702507789
 30
0.0
 10
282.3669048656892
 20
237.9670527134223
 30
0.0
 10
281.9970902122291
 20
237.8326476060542
 30
0.0
 10
281.253338170398
 20
237.6027738565273
 30
0.0
 10
280.8780997653067
 20
237.5065745320451
 30
0.0
 10
279.7425121741153
 20
237.2729917267378
 30
0.0
 10
278.9723856871562
 20
237.1900936031009
 30
0.0
 10
278.1886330631601
 20
237.183127334044
 30
0.0
  0
ARC
  5
BC
330
1F
100
AcDbEntity
  8
0
  6
CONTINUOUS
 62
     8
100
AcDbCircle
 10
39.2609310662
 20
235.8166535116
 30
0.0
 40
238.931609529321
100
AcDbArc
 50
0.327682092
 51
0.5654384304
  0
SPLINE
  5
BD
330
1F
100
AcDbEntity
  8
0
  6
CONTINUOUS
 62
     8
100
AcDbSpline
210
0.0
220
0.0
230
1.0
 70
     8
 71
     3
 72
    26
 73
    22
 74
     0
 42
0.000000001
 43
0.00000001
 40
0.0
 40
0.0
 40
0.0
 40
0.0
 40
0.1250000000000012
 40
0.1250000000000012
 40
0.1875000000000017
 40
0.1875000000000017
 40
0.2500000000000023
 40
0.2500000000000023
 40
0.375000000000003
 40
0.375000000000003
 40
0.5000000000000037
 40
0.5000000000000037
 40
0.6250000000000043
 40
0.6250000000000043
 40
0.6875000000000042
 40
0.6875000000000042
 40
0.750000000000004
 40
0.750000000000004
 40
0.875000000000002
 40
0.875000000000002
 40
1.0
 40
1.0
 40
1.0
 40
1.0
 10
190.9125985947246
 20
249.0943880010995
 30
0.0
 10
190.9184927107643
 20
248.3756238221094
 30
0.0
 10
190.9940830069059
 20
247.669319075074
 30
0.0
 10
191.2076677791406
 20
246.6277743393667
 30
0.0
 10
191.2956841562865
 20
246.2835998901529
 30
0.0
 10
191.5060798032048
 20
245.601393955676
 30
0.0
 10
191.6291261384471
 20
245.2621748300378
 30
0.0
 10
192.0426728030252
 20
244.2750458869648
 30
0.0
 10
192.3786117310482
 20
243.6509819165259
 30
0.0
 10
193.1694572532799
 20
242.4700422906294
 30
0.0
 10
193.6291514763275
 20
241.9100558513074
 30
0.0
 10
194.6325644859589
 20
240.9047949385125
 30
0.0
 10
195.179197901195
 20
240.4534180167114
 30
0.0
 10
196.0677373898356
 20
239.8546007688628
 30
0.0
 10
196.3763906447715
 20
239.6678200103903
 30
0.0
 10
197.0037407696026
 20
239.3287333325196
 30
0.0
 10
197.3239068886661
 20
239.1753137893909
 30
0.0
 10
198.3035229146203
 20
238.7625433819701
 30
0.0
 10
198.9835823627458
 20
238.5498760719626
 30
0.0
 10
200.3898280004793
 20
238.2578610619685
 30
0.0
 10
201.1007525466444
 20
238.1813492016118
 30
0.0
 10
201.8195058469441
 20
238.1745746617285
 30
0.0
  0
ARC
  5
BE
330
1F
100
AcDbEntity
  8
0
  6
CONTINUOUS
 62
     8
100
AcDbCircle
 10
440.7408803546
 20
235.8166411706
 30
0.0
 40
238.9330095381842
100
AcDbArc
 50
179.4345618856
 51
179.6723168693
  0
SPLINE
  5
BF
330
1F
100
AcDbEntity
  8
0
  6
CONTINUOUS
 62
     8
100
AcDbSpline
210
0.0
220
0.0
230
1.0
 70
     8
 71
     3
 72
    26
 73
    22
 74
     0
 42
0.000000001
 43
0.00000001
 40
0.0
 40
0.0
 40
0.0
 40
0.0
 40
0.1249999999999997
 40
0.1249999999999997
 40
0.2499999999999994
 40
0.2499999999999994
 40
0.3124999999999987
 40
0.3124999999999987
 40
0.374999999999998
 40
0.374999999999998
 40
0.4999999999999982
 40
0.4999999999999982
 40
0.6249999999999983
 40
0.6249999999999983
 40
0.7499999999999986
 40
0.7499999999999986
 40
0.812499999999999
 40
0.812499999999999
 40
0.8749999999999994
 40
0.8749999999999994
 40
1.0
 40
1.0
 40
1.0
 40
1.0
 10
201.8117783964073
 20
237.1831273314443
 30
0.0
 10
201.0280252341444
 20
237.1900936053623
 30
0.0
 10
200.2527596268916
 20
237.2730462899695
 30
0.0
 10
198.7191581553912
 20
237.5905228016734
 30
0.0
 10
197.977451356126
 20
237.8219707332854
 30
0.0
 10
196.9090249624669
 20
238.2714940850531
 30
0.0
 10
196.559828970348
 20
238.4386132501787
 30
0.0
 10
195.8755923974174
 20
238.8080623720338
 30
0.0
 10
195.5389438116509
 20
239.011610053835
 30
0.0
 10
194.5698483418586
 20
239.6642800087973
 30
0.0
 10
193.9737110900076
 20
240.1563635324818
 30
0.0
 10
192.8795535383837
 20
241.252490320593
 30
0.0
 10
192.3783522862466
 20
241.8632046013886
 30
0.0
 10
191.5163364308308
 20
243.1511416935673
 30
0.0
 10
191.1502825492647
 20
243.831769327808
 30
0.0
 10
190.6998171795229
 20
244.9083681998578
 30
0.0
 10
190.5658191797457
 20
245.2783305031107
 30
0.0
 10
190.3367642681898
 20
246.0223349931208
 30
0.0
 10
190.2409780994451
 20
246.3976790082102
 30
0.0
 10
190.0086455334955
 20
247.5335228678613
 30
0.0
 10
189.9265951466913
 20
248.3037400338827
 30
0.0
 10
189.9204909876477
 20
249.0874996414512
 30
0.0
  0
ARC
  5
C0
330
1F
100
AcDbEntity
  8
0
  6
CONTINUOUS
 62
     8
100
AcDbCircle
 10
188.2533992555
 20
560.6416250771
 30
0.0
 40
311.5585856156092
100
AcDbArc
 50
270.3065804652
 51
270.4890340244
  0
SPLINE
  5
C1
330
1F
100
AcDbEntity
  8
0
  6
CONTINUOUS
 62
     8
100
AcDbSpline
210
0.0
220
0.0
230
1.0
 70
     8
 71
     3
 72
    26
 73
    22
 74
     0
 42
0.000000001
 43
0.00000001
 40
0.0
 40
0.0
 40
0.0
 40
0.0
 40
0.1249999999999999
 40
0.1249999999999999
 40
0.1874999999999998
 40
0.1874999999999998
 40
0.2499999999999998
 40
0.2499999999999998
 40
0.3749999999999997
 40
0.3749999999999997
 40
0.4999999999999996
 40
0.4999999999999996
 40
0.6249999999999994
 40
0.6249999999999994
 40
0.6874999999999999
 40
0.6874999999999999
 40
0.7500000000000004
 40
0.7500000000000004
 40
0.8750000000000002
 40
0.8750000000000002
 40
1.0
 40
1.0
 40
1.0
 40
1.0
 10
289.0878150835202
 20
282.220972405545
 30
0.0
 10
289.0819209126587
 20
282.939736690711
 30
0.0
 10
289.0063305254232
 20
283.646041529827
 30
0.0
 10
288.7927455847595
 20
284.6875863870742
 30
0.0
 10
288.7047291461777
 20
285.0317608740257
 30
0.0
 10
288.4943333701084
 20
285.7139668791261
 30
0.0
 10
288.371286967713
 20
286.0531860352824
 30
0.0
 10
287.9577401058523
 20
287.0403150610128
 30
0.0
 10
287.6218010480901
 20
287.6643790814229
 30
0.0
 10
286.8309553023701
 20
288.845318815663
 30
0.0
 10
286.3712609925951
 20
289.4053053075353
 30
0.0
 10
285.3678478438374
 20
290.4105663811738
 30
0.0
 10
284.8212143751698
 20
290.8619434083068
 30
0.0
 10
283.9326748273116
 20
291.4607608479681
 30
0.0
 10
283.6240215567864
 20
291.6475416759999
 30
0.0
 10
282.9966713958672
 20
291.9866285047316
 30
0.0
 10
282.6765052574586
 20
292.1400481285012
 30
0.0
 10
281.6968891665004
 20
292.5528187854715
 30
0.0
 10
281.0168296675811
 20
292.7654862723842
 30
0.0
 10
279.6105838829863
 20
293.0575016108554
 30
0.0
 10
278.8996592491341
 20
293.1340136169321
 30
0.0
 10
278.1809058443716
 20
293.1407882614839
 30
0.0
  0
ARC
  5
C2
330
1F
100
AcDbEntity
  8
0
  6
CONTINUOUS
 62
     8
100
AcDbCircle
 10
39.3265354128
 20
295.4981255964
 30
0.0
 40
238.8660028417474
100
AcDbArc
 50
359.4345462682
 51
359.6723672982
  0
SPLINE
  5
C3
330
1F
100
AcDbEntity
  8
0
  6
CONTINUOUS
 62
     8
100
AcDbSpline
210
0.0
220
0.0
230
1.0
 70
     8
 71
     3
 72
    26
 73
    22
 74
     0
 42
0.000000001
 43
0.00000001
 40
0.0
 40
0.0
 40
0.0
 40
0.0
 40
0.1249999999999987
 40
0.1249999999999987
 40
0.2499999999999974
 40
0.2499999999999974
 40
0.3124999999999972
 40
0.3124999999999972
 40
0.3749999999999971
 40
0.3749999999999971
 40
0.4999999999999977
 40
0.4999999999999977
 40
0.6249999999999983
 40
0.6249999999999983
 40
0.749999999999999
 40
0.749999999999999
 40
0.8124999999999993
 40
0.8124999999999993
 40
0.8749999999999996
 40
0.8749999999999996
 40
1.0
 40
1.0
 40
1.0
 40
1.0
 10
278.1886329726386
 20
294.1322328893202
 30
0.0
 10
278.9723861346869
 20
294.1252666191631
 30
0.0
 10
279.7476517412113
 20
294.0423139358846
 30
0.0
 10
281.2812532104412
 20
293.7248374228874
 30
0.0
 10
282.0229600092287
 20
293.4933894882694
 30
0.0
 10
283.0913863988333
 20
293.0438661327983
 30
0.0
 10
283.4405823893545
 20
292.87674696651
 30
0.0
 10
284.1248189588362
 20
292.5072978430093
 30
0.0
 10
284.461467543228
 20
292.3037501605016
 30
0.0
 10
285.4305630123437
 20
291.6510802023527
 30
0.0
 10
286.0267002636955
 20
291.1589966781619
 30
0.0
 10
287.1208578157879
 20
290.0628698939885
 30
0.0
 10
287.6220590701129
 20
289.4521556167075
 30
0.0
 10
288.484074934196
 20
288.1642185290731
 30
0.0
 10
288.8501288205871
 20
287.4835908979802
 30
0.0
 10
289.3005941968032
 20
286.4069920309315
 30
0.0
 10
289.4345921987904
 20
286.0370297289803
 30
0.0
 10
289.6636471142995
 20
285.2930252403231
 30
0.0
 10
289.7594332846203
 20
284.917681225852
 30
0.0
 10
289.9917658538415
 20
283.7818373677949
 30
0.0
 10
290.0738162408333
 20
283.0116202024773
 30
0.0
 10
290.0799203979374
 20
282.2278605951413
 30
0.0
  0
ARC
  5
C4
330
1F
100
AcDbEntity
  8
0
  6
CONTINUOUS
 62
     8
100
AcDbCircle
 10
291.7465601225
 20
-29.2679684516
 30
0.0
 40
311.5002876426599
100
AcDbArc
 50
90.3065547018
 51
90.4890419857
  0
SPLINE
  5
C5
330
1F
100
AcDbEntity
  8
0
  6
CONTINUOUS
 62
     8
100
AcDbSpline
210
0.0
220
0.0
230
1.0
 70
     8
 71
     3
 72
     8
 73
     4
 74
     0
 42
0.000000001
 43
0.00000001
 40
0.0
 40
0.0
 40
0.0
 40
0.0
 40
1.0
 40
1.0
 40
1.0
 40
1.0
 10
190.912598532047
 20
282.2209723116581
 30
0.0
 10
190.8220502208998
 20
271.1789629545836
 30
0.0
 10
190.8220502809974
 20
260.1363973434271
 30
0.0
 10
190.912598594725
 20
249.0943880010995
 30
0.0
  0
SPLINE
  5
C6
330
1F
100
AcDbEntity
  8
0
  6
CONTINUOUS
 62
     8
100
AcDbSpline
210
0.0
220
0.0
230
1.0
 70
     8
 71
     3
 72
     8
 73
     4
 74
     0
 42
0.000000001
 43
0.00000001
 40
0.0
 40
0.0
 40
0.0
 40
0.0
 40
1.0
 40
1.0
 40
1.0
 40
1.0
 10
254.3504345418802
 20
293.2952634278125
 30
0.0
 10
236.8399748791666
 20
293.357260624429
 30
0.0
 10
219.3292950536155
 20
293.3058237261429
 30
0.0
 10
201.8195057482217
 20
293.1407860007561
 30
0.0
  0
SPLINE
  5
C7
330
1F
100
AcDbEntity
  8
0
  6
CONTINUOUS
 62
     8
100
AcDbSpline
210
0.0
220
0.0
230
1.0
 70
     8
 71
     3
 72
    21
 73
    17
 74
     0
 42
0.000000001
 43
0.00000001
 40
0.0
 40
0.0
 40
0.0
 40
0.0
 40
0.0714291947191139
 40
0.1428581274897612
 40
0.2142868372285685
 40
0.2857153643812295
 40
0.3571437506296933
 40
0.4285720385999237
 40
0.5000002715700824
 40
0.5714284931789858
 40
0.6428567471346854
 40
0.7142850769230177
 40
0.7857135255159734
 40
0.8571421350797326
 40
0.9285709466822154
 40
1.0
 40
1.0
 40
1.0
 40
1.0
 10
254.3504345492301
 20
238.0201006629533
 30
0.0
 10
254.3505630779502
 20
239.3360688973693
 30
0.0
 10
254.3508201349191
 20
241.9680005402214
 30
0.0
 10
254.3511081867495
 20
245.9160869404184
 30
0.0
 10
254.3513367622594
 20
249.8642728589307
 30
0.0
 10
254.3515055009975
 20
253.8125515667994
 30
0.0
 10
254.3516222494565
 20
257.7608963098439
 30
0.0
 10
254.3516905665325
 20
261.7092857036704
 30
0.0
 10
254.3517130755629
 20
265.6576969360266
 30
0.0
 10
254.3516905500509
 20
269.6061075537926
 30
0.0
 10
254.3516222183735
 20
273.5544951039639
 30
0.0
 10
254.351505459103
 20
277.5028367740535
 30
0.0
 10
254.35133671515
 20
281.4511111808233
 30
0.0
 10
254.3511081422415
 20
285.3992915662632
 30
0.0
 10
254.3508201015416
 20
289.3473712163494
 30
0.0
 10
254.3505630619123
 20
291.9792978729194
 30
0.0
 10
254.3504345418802
 20
293.2952634278125
 30
0.0
  0
SPLINE
  5
C8
330
1F
100
AcDbEntity
  8
0
  6
CONTINUOUS
 62
     8
100
AcDbSpline
210
0.0
220
0.0
230
1.0
 70
     8
 71
     3
 72
     8
 73
     4
 74
     0
 42
0.000000001
 43
0.00000001
 40
0.0
 40
0.0
 40
0.0
 40
0.0
 40
1.0
 40
1.0
 40
1.0
 40
1.0
 10
201.819505846944
 20
238.1745746617272
 30
0.0
 10
219.3292951284668
 20
238.0095378322791
 30
0.0
 10
236.8399749241069
 20
237.9581032447887
 30
0.0
 10
254.3504345492301
 20
238.0201006629524
 30
0.0
  0
ARC
  5
C9
330
1F
100
AcDbEntity
  8
0
  6
CONTINUOUS
 62
     8
100
AcDbCircle
 10
254.4753011534
 20
245.139785643
 30
0.0
 40
7.120779864856458
100
AcDbArc
 50
268.9952370019
 51
273.0179821085
  0
ARC
  5
CA
330
1F
100
AcDbEntity
  8
0
  6
CONTINUOUS
 62
     8
100
AcDbCircle
 10
254.4753011319
 20
286.1771628357
 30
0.0
 40
7.119195720321184
100
AcDbArc
 50
86.9813455427
 51
91.0049864842
  0
SPLINE
  5
CB
330
1F
100
AcDbEntity
  8
0
  6
CONTINUOUS
 62
     8
100
AcDbSpline
210
0.0
220
0.0
230
1.0
 70
     8
 71
     3
 72
     8
 73
     4
 74
     0
 42
0.000000001
 43
0.00000001
 40
0.0
 40
0.0
 40
0.0
 40
0.0
 40
1.0
 40
1.0
 40
1.0
 40
1.0
 10
289.0878134635604
 20
249.0943878535166
 30
0.0
 10
289.1783626721004
 20
260.1363972848019
 30
0.0
 10
289.1783642267073
 20
271.1789629856654
 30
0.0
 10
289.0878150835206
 20
282.220972405545
 30
0.0
  0
SPLINE
  5
CC
330
1F
100
AcDbEntity
  8
0
  6
CONTINUOUS
 62
     8
100
AcDbSpline
210
0.0
220
0.0
230
1.0
 70
     8
 71
     3
 72
     8
 73
     4
 74
     0
 42
0.000000001
 43
0.00000001
 40
0.0005005184761068
 40
0.0005005184761068
 40
0.0005005184761068
 40
0.0005005184761068
 40
0.006030930004608
 40
0.006030930004608
 40
0.006030930004608
 40
0.006030930004608
 10
272.6507081169864
 20
238.1262291764204
 30
0.0
 10
274.4941180048156
 20
238.1410849011942
 30
0.0
 10
276.3375180475638
 20
238.1571998206799
 30
0.0
 10
278.1809056201253
 20
238.1745745041957
 30
0.0
  0
SPLINE
  5
CD
330
1F
100
AcDbEntity
  8
0
  6
CONTINUOUS
 62
     8
100
AcDbSpline
210
0.0
220
0.0
230
1.0
 70
     8
 71
     3
 72
    16
 73
    12
 74
     0
 42
0.000000001
 43
0.00000001
 40
0.0
 40
0.0
 40
0.0
 40
0.0
 40
0.0830869763696943
 40
0.1662732597202881
 40
0.2495581738362537
 40
0.3329410482435251
 40
0.4164212161039948
 40
0.4999980120813876
 40
0.6670562659969644
 40
0.8337253806459135
 40
1.0
 40
1.0
 40
1.0
 40
1.0
 10
272.6507070669794
 20
293.1891342422739
 30
0.0
 10
272.6510520121263
 20
291.6641862156155
 30
0.0
 10
272.6517423147047
 20
288.6124675182314
 30
0.0
 10
272.6525403568201
 20
284.032062604083
 30
0.0
 10
272.6531791245461
 20
279.4461688509288
 30
0.0
 10
272.6536429088087
 20
274.8548301986503
 30
0.0
 10
272.6539319145723
 20
270.2581017556898
 30
0.0
 10
272.6540691861772
 20
264.1255211220018
 30
0.0
 10
272.653719995554
 20
256.4660335622689
 30
0.0
 10
272.6526650481119
 20
247.2887596556265
 30
0.0
 10
272.6513591364564
 20
241.1779925068058
 30
0.0
 10
272.6507069542969
 20
238.1262291670507
 30
0.0
  0
SPLINE
  5
CE
330
1F
100
AcDbEntity
  8
0
  6
CONTINUOUS
 62
     8
100
AcDbSpline
210
0.0
220
0.0
230
1.0
 70
     8
 71
     3
 72
     8
 73
     4
 74
     0
 42
0.000000001
 43
0.00000001
 40
0.0
 40
0.0
 40
0.0
 40
0.0
 40
0.0055304122297508
 40
0.0055304122297508
 40
0.0055304122297508
 40
0.0055304122297508
 10
278.1809058443716
 20
293.1407882614823
 30
0.0
 10
276.3375180410382
 20
293.1581632012823
 30
0.0
 10
274.4941177667818
 20
293.1742783354663
 30
0.0
 10
272.6507076469578
 20
293.1891342376005
 30
0.0
  0
ARC
  5
CF
330
1F
100
AcDbEntity
  8
0
  6
CONTINUOUS
 62
     8
100
AcDbCircle
 10
272.5255149386
 20
249.257259941
 30
0.0
 40
11.13173477635266
100
AcDbArc
 50
268.0678923772
 51
270.6443852183
  0
ARC
  5
D0
330
1F
100
AcDbEntity
  8
0
  6
CONTINUOUS
 62
     8
100
AcDbCircle
 10
272.5255150136
 20
282.0612727097
 30
0.0
 40
11.12856573591262
100
AcDbArc
 50
89.3554310804
 51
91.9326584168
  0
SPLINE
  5
D1
330
1F
100
AcDbEntity
  8
0
  6
CONTINUOUS
 62
     8
100
AcDbSpline
210
0.0
220
0.0
230
1.0
 70
     8
 71
     3
 72
     8
 73
     4
 74
     0
 42
0.000000001
 43
0.00000001
 40
0.0
 40
0.0
 40
0.0
 40
0.0
 40
1.0
 40
1.0
 40
1.0
 40
1.0
 10
201.8117784092664
 20
294.1322329692804
 30
0.0
 10
219.3246828227099
 20
294.2874293488712
 30
0.0
 10
236.8383759271984
 20
294.3358704574619
 30
0.0
 10
254.351874135708
 20
294.2775440149061
 30
0.0
  0
SPLINE
  5
D2
330
1F
100
AcDbEntity
  8
0
  6
CONTINUOUS
 62
     8
100
AcDbSpline
210
0.0
220
0.0
230
1.0
 70
     8
 71
     3
 72
    10
 73
     6
 74
     0
 42
0.000000001
 43
0.00000001
 40
0.0
 40
0.0
 40
0.0
 40
0.0
 40
0.5
 40
0.5
 40
1.0
 40
1.0
 40
1.0
 40
1.0
 10
254.3504345418802
 20
293.2952634278123
 30
0.0
 10
254.3510452056083
 20
293.5511857569881
 30
0.0
 10
254.3516039759302
 20
293.8038599254525
 30
0.0
 10
254.3521850575418
 20
294.1658245783215
 30
0.0
 10
254.3522013933612
 20
294.2730757410228
 30
0.0
 10
254.3518741357082
 20
294.277544014906
 30
0.0
  0
SPLINE
  5
D3
330
1F
100
AcDbEntity
  8
0
  6
CONTINUOUS
 62
     8
100
AcDbSpline
210
0.0
220
0.0
230
1.0
 70
     8
 71
     3
 72
    10
 73
     6
 74
     0
 42
0.000000001
 43
0.00000001
 40
0.0
 40
0.0
 40
0.0
 40
0.0
 40
0.5
 40
0.5
 40
1.0
 40
1.0
 40
1.0
 40
1.0
 10
254.3518741357082
 20
237.0378161591428
 30
0.0
 10
254.3522013994611
 20
237.0422844444406
 30
0.0
 10
254.3521850678704
 20
237.1495361645003
 30
0.0
 10
254.3516039886709
 20
237.5115024496828
 30
0.0
 10
254.3510452165652
 20
237.7641776633915
 30
0.0
 10
254.3504345492301
 20
238.0201006629529
 30
0.0
  0
SPLINE
  5
D4
330
1F
100
AcDbEntity
  8
0
  6
CONTINUOUS
 62
     8
100
AcDbSpline
210
0.0
220
0.0
230
1.0
 70
     8
 71
     3
 72
     8
 73
     4
 74
     0
 42
0.000000001
 43
0.00000001
 40
0.0
 40
0.0
 40
0.0
 40
0.0
 40
1.0
 40
1.0
 40
1.0
 40
1.0
 10
254.3518741357079
 20
237.037816159142
 30
0.0
 10
236.8383759240966
 20
236.9794897250574
 30
0.0
 10
219.3246828152498
 20
237.0279309186234
 30
0.0
 10
201.8117783964073
 20
237.183127331443
 30
0.0
  0
SPLINE
  5
D5
330
1F
100
AcDbEntity
  8
0
  6
CONTINUOUS
 62
     8
100
AcDbSpline
210
0.0
220
0.0
230
1.0
 70
     8
 71
     3
 72
     8
 73
     4
 74
     0
 42
0.000000001
 43
0.00000001
 40
0.0
 40
0.0
 40
0.0
 40
0.0
 40
1.0
 40
1.0
 40
1.0
 40
1.0
 10
290.079920397937
 20
282.2278605951411
 30
0.0
 10
290.1656659169295
 20
271.1812400283613
 30
0.0
 10
290.1656659707124
 20
260.1341202316352
 30
0.0
 10
290.0799204536375
 20
249.0874996624377
 30
0.0
  0
SPLINE
  5
D6
330
1F
100
AcDbEntity
  8
0
  6
CONTINUOUS
 62
     8
100
AcDbSpline
210
0.0
220
0.0
230
1.0
 70
     8
 71
     3
 72
     8
 73
     4
 74
     0
 42
0.000000001
 43
0.00000001
 40
0.0
 40
0.0
 40
0.0
 40
0.0
 40
1.0
 40
1.0
 40
1.0
 40
1.0
 10
189.9204909876483
 20
249.0874996414513
 30
0.0
 10
189.83474543866
 20
260.1341202409493
 30
0.0
 10
189.8347454396258
 20
271.1812400686717
 30
0.0
 10
189.9204909886768
 20
282.2278606710486
 30
0.0
  0
ARC
  5
D7
330
1F
100
AcDbEntity
  8
0
  6
CONTINUOUS
 62
     8
100
AcDbCircle
 10
254.3502441027
 20
293.7775850423
 30
0.0
 40
0.4999616297838138
100
AcDbArc
 50
0.004344384
 51
89.8131973149
  0
ARC
  5
D8
330
1F
100
AcDbEntity
  8
0
  6
CONTINUOUS
 62
     8
100
AcDbCircle
 10
254.3502441027
 20
237.5377751317
 30
0.0
 40
0.4999616297837842
100
AcDbArc
 50
270.186802685
 51
359.995655616
  0
SPLINE
  5
D9
330
1F
100
AcDbEntity
  8
0
  6
CONTINUOUS
 62
     8
100
AcDbSpline
210
0.0
220
0.0
230
1.0
 70
     8
 71
     3
 72
    19
 73
    15
 74
     0
 42
0.000000001
 43
0.00000001
 40
0.0
 40
0.0
 40
0.0
 40
0.0
 40
0.0672183842747894
 40
0.1373680129805853
 40
0.2104485463397411
 40
0.2864596280747596
 40
0.3654008856749026
 40
0.4472719306184529
 40
0.5320723585522603
 40
0.6198017494473793
 40
0.7104596677253878
 40
0.804045662366752
 40
0.9005592670029388
 40
1.0
 40
1.0
 40
1.0
 40
1.0
 10
272.6540017874071
 20
294.1777256333999
 30
0.0
 10
272.6540129179932
 20
294.1760851846994
 30
0.0
 10
272.6540356645455
 20
294.1727327509746
 30
0.0
 10
272.654028848875
 20
294.153212371851
 30
0.0
 10
272.6539799107599
 20
294.1216046668027
 30
0.0
 10
272.6538766496281
 20
294.0757797578094
 30
0.0
 10
272.6537115120245
 20
294.0152047605889
 30
0.0
 10
272.6534780445146
 20
293.9392569859313
 30
0.0
 10
272.6531726608976
 20
293.8478001444951
 30
0.0
 10
272.6527949598828
 20
293.7411184043149
 30
0.0
 10
272.6523483470008
 20
293.6200324259752
 30
0.0
 10
272.6518409527172
 20
293.485944319497
 30
0.0
 10
272.651284723481
 20
293.3409306341142
 30
0.0
 10
272.6509015271842
 20
293.2402344330748
 30
0.0
 10
272.6507070669794
 20
293.1891342422736
 30
0.0
  0
SPLINE
  5
DA
330
1F
100
AcDbEntity
  8
0
  6
CONTINUOUS
 62
     8
100
AcDbSpline
210
0.0
220
0.0
230
1.0
 70
     8
 71
     3
 72
     8
 73
     4
 74
     0
 42
0.000000001
 43
0.00000001
 40
0.0005038104004205
 40
0.0005038104004205
 40
0.0005038104004205
 40
0.0005038104004205
 40
0.0060386312915443
 40
0.0060386312915443
 40
0.0060386312915443
 40
0.0060386312915443
 10
272.6540017874071
 20
294.1777256334
 30
0.0
 10
274.4988883474905
 20
294.1637460447943
 30
0.0
 10
276.3437661823439
 20
294.1485817788128
 30
0.0
 10
278.1886329726386
 20
294.1322328893195
 30
0.0
  0
SPLINE
  5
DB
330
1F
100
AcDbEntity
  8
0
  6
CONTINUOUS
 62
     8
100
AcDbSpline
210
0.0
220
0.0
230
1.0
 70
     8
 71
     3
 72
     8
 73
     4
 74
     0
 42
0.000000001
 43
0.00000001
 40
0.0
 40
0.0
 40
0.0
 40
0.0
 40
0.0055348213329576
 40
0.0055348213329576
 40
0.0055348213329576
 40
0.0055348213329576
 10
278.1886330631599
 20
237.1831273340446
 30
0.0
 10
276.3437661250961
 20
237.1667784337926
 30
0.0
 10
274.4988881425968
 20
237.1516141587979
 30
0.0
 10
272.6540014349475
 20
237.1376345627513
 30
0.0
  0
SPLINE
  5
DC
330
1F
100
AcDbEntity
  8
0
  6
CONTINUOUS
 62
     8
100
AcDbSpline
210
0.0
220
0.0
230
1.0
 70
     8
 71
     3
 72
    25
 73
    21
 74
     0
 42
0.000000001
 43
0.00000001
 40
0.0
 40
0.0
 40
0.0
 40
0.0
 40
0.0666297380705722
 40
0.1319569364304498
 40
0.1959815325967671
 40
0.258703465452186
 40
0.3201226752517004
 40
0.3802391036354401
 40
0.4390526936381586
 40
0.4965633897010365
 40
0.5527711376871434
 40
0.6076758848941373
 40
0.6612775800745706
 40
0.713576173451518
 40
0.7645716167430673
 40
0.8142638631852792
 40
0.8626528675607851
 40
0.9097385862296691
 40
0.9555209771662866
 40
1.0
 40
1.0
 40
1.0
 40
1.0
 10
272.6507069542969
 20
238.1262291670508
 30
0.0
 10
272.6508370116336
 20
238.0919890746379
 30
0.0
 10
272.651094583826
 20
238.0241782467893
 30
0.0
 10
272.6514759783622
 20
237.9246668472672
 30
0.0
 10
272.6518408085958
 20
237.829233723337
 30
0.0
 10
272.6521843823388
 20
237.7386637566952
 30
0.0
 10
272.6525025359542
 20
237.6535945614317
 30
0.0
 10
272.652792246775
 20
237.5745372220387
 30
0.0
 10
272.6530514027571
 20
237.5018777695216
 30
0.0
 10
272.6532787782947
 20
237.4358856400048
 30
0.0
 10
272.6534739472165
 20
237.3767218151144
 30
0.0
 10
272.6536372055682
 20
237.324448273404
 30
0.0
 10
272.6537694893582
 20
237.2790374297507
 30
0.0
 10
272.6538722891675
 20
237.2403834597917
 30
0.0
 10
272.6539475790694
 20
237.2083079232424
 30
0.0
 10
272.6539977002338
 20
237.1825858374351
 30
0.0
 10
272.6540254203616
 20
237.1628974600775
 30
0.0
 10
272.6540333801708
 20
237.1490449220767
 30
0.0
 10
272.6540257572557
 20
237.1402178530176
 30
0.0
 10
272.6540097000683
 20
237.1384873317549
 30
0.0
 10
272.654001787407
 20
237.1376345654227
 30
0.0
  0
ARC
  5
DD
330
1F
100
AcDbEntity
  8
0
  6
CONTINUOUS
 62
     8
100
AcDbCircle
 10
272.650168331
 20
293.6777777287
 30
0.0
 40
0.499962601439788
100
AcDbArc
 50
89.5606810953
 51
179.9955913782
  0
ARC
  5
DE
330
1F
100
AcDbEntity
  8
0
  6
CONTINUOUS
 62
     8
100
AcDbCircle
 10
272.650168331
 20
237.6375824702
 30
0.0
 40
0.4999626014397227
100
AcDbArc
 50
180.0044086218
 51
270.4393189047
  0
LWPOLYLINE
  5
DF
330
1F
100
AcDbEntity
  8
0
  6
CONTINUOUS
 62
     8
100
AcDbPolyline
 90
        3
 70
   128
 43
0.0
 10
279.0401308593
 20
236.3348564378
 10
278.6094992428
 20
236.7638774574
 10
278.1886330632
 20
237.183127334
  0
LWPOLYLINE
  5
E0
330
1F
100
AcDbEntity
  8
0
  6
CONTINUOUS
 62
     8
100
AcDbPolyline
 90
        3
 70
   128
 43
0.0
 10
290.0799204536
 20
249.0874996624
 10
290.4995794388
 20
248.6659095146
 10
290.9290012082
 20
248.2344688308
  0
LWPOLYLINE
  5
E1
330
1F
100
AcDbEntity
  8
0
  6
CONTINUOUS
 62
     8
100
AcDbPolyline
 90
        3
 70
   128
 43
0.0
 10
200.9602806029
 20
294.9805038758
 10
201.3909122194
 20
294.5514828561
 10
201.8117784093
 20
294.1322329693
  0
LWPOLYLINE
  5
E2
330
1F
100
AcDbEntity
  8
0
  6
CONTINUOUS
 62
     8
100
AcDbPolyline
 90
        3
 70
   128
 43
0.0
 10
189.9204909887
 20
282.227860671
 10
189.5008320234
 20
282.6494507989
 10
189.071410254
 20
283.0808914827
  0
LWPOLYLINE
  5
E3
330
1F
100
AcDbEntity
  8
0
  6
CONTINUOUS
 62
     8
100
AcDbPolyline
 90
        3
 70
   128
 43
0.0
 10
290.9290012082
 20
283.0808914827
 10
290.4995794368
 20
282.6494507969
 10
290.0799203979
 20
282.2278605951
  0
LWPOLYLINE
  5
E4
330
1F
100
AcDbEntity
  8
0
  6
CONTINUOUS
 62
     8
100
AcDbPolyline
 90
        3
 70
   128
 43
0.0
 10
278.1886329726
 20
294.1322328893
 10
278.6094992408
 20
294.5514828541
 10
279.0401308593
 20
294.9805038758
  0
LWPOLYLINE
  5
E5
330
1F
100
AcDbEntity
  8
0
  6
CONTINUOUS
 62
     8
100
AcDbPolyline
 90
        3
 70
   128
 43
0.0
 10
189.071410254
 20
248.2344688308
 10
189.5008320234
 20
248.6659095146
 10
189.9204909876
 20
249.0874996415
  0
LWPOLYLINE
  5
E6
330
1F
100
AcDbEntity
  8
0
  6
CONTINUOUS
 62
     8
100
AcDbPolyline
 90
        3
 70
   128
 43
0.0
 10
201.8117783964
 20
237.1831273314
 10
201.3909122194
 20
236.7638774574
 10
200.9602806029
 20
236.3348564378
  0
SPLINE
  5
E7
330
1F
100
AcDbEntity
  8
0
  6
CONTINUOUS
 62
     8
100
AcDbSpline
210
0.0
220
0.0
230
1.0
 70
     8
 71
     3
 72
    16
 73
    12
 74
     0
 42
0.000000001
 43
0.00000001
 40
0.0
 40
0.0
 40
0.0
 40
0.0
 40
0.0729729098578176
 40
0.1491637748752312
 40
0.2287742866070967
 40
0.3119812738029923
 40
0.398939628717809
 40
0.4897850582115433
 40
0.6086331001784999
 40
0.74308104103756
 40
1.0
 40
1.0
 40
1.0
 40
1.0
 10
254.351874135708
 20
294.2775440149069
 30
0.0
 10
254.3527447621177
 20
294.2784204048228
 30
0.0
 10
254.3545244077701
 20
294.2802118316465
 30
0.0
 10
254.368239209942
 20
294.2829139913268
 30
0.0
 10
254.389908014898
 20
294.285697001254
 30
0.0
 10
254.4204266838394
 20
294.2885577752389
 30
0.0
 10
254.4595249788369
 20
294.291497160014
 30
0.0
 10
254.5115233473238
 20
294.2947799904368
 30
0.0
 10
254.5805812527726
 20
294.2985148204669
 30
0.0
 10
254.6933318284798
 20
294.3039565069658
 30
0.0
 10
254.788035811445
 20
294.3080472938904
 30
0.0
 10
254.8502057310886
 20
294.3107327553295
 30
0.0
  0
SPLINE
  5
E8
330
1F
100
AcDbEntity
  8
0
  6
CONTINUOUS
 62
     8
100
AcDbSpline
210
0.0
220
0.0
230
1.0
 70
     8
 71
     3
 72
    14
 73
    10
 74
     0
 42
0.000000001
 43
0.00000001
 40
0.0
 40
0.0
 40
0.0
 40
0.0
 40
0.2571457255745466
 40
0.3914224000793929
 40
0.5105582521837193
 40
0.6452717113123894
 40
0.7713818589753149
 40
0.8894119530407781
 40
1.0
 40
1.0
 40
1.0
 40
1.0
 10
272.1502057310889
 20
294.216211555196
 30
0.0
 10
272.2130521094264
 20
294.21285769444
 30
0.0
 10
272.3087156876958
 20
294.2077525105071
 30
0.0
 10
272.4227240008981
 20
294.2011006095699
 30
0.0
 10
272.5014200698043
 20
294.1960571309057
 30
0.0
 10
272.5668577570571
 20
294.1911465177093
 30
0.0
 10
272.6163045954382
 20
294.1863078932871
 30
0.0
 10
272.647795255169
 20
294.181842693371
 30
0.0
 10
272.6519783329337
 20
294.1790678778445
 30
0.0
 10
272.6540017874075
 20
294.1777256333999
 30
0.0
  0
SPLINE
  5
E9
330
1F
100
AcDbEntity
  8
0
  6
CONTINUOUS
 62
     8
100
AcDbSpline
210
0.0
220
0.0
230
1.0
 70
     8
 71
     3
 72
    14
 73
    10
 74
     0
 42
0.000000001
 43
0.00000001
 40
0.0
 40
0.0
 40
0.0
 40
0.0
 40
0.2501838021826414
 40
0.3821755021222785
 40
0.5002701440227064
 40
0.6356674359336775
 40
0.7640786838371898
 40
0.8855175040742899
 40
1.0
 40
1.0
 40
1.0
 40
1.0
 10
254.8502057310888
 20
236.8172506112928
 30
0.0
 10
254.7878956132076
 20
236.8355564184847
 30
0.0
 10
254.6927119906836
 20
236.8635199836487
 30
0.0
 10
254.5802164651234
 20
236.9001828206847
 30
0.0
 10
254.502304438321
 20
236.9284721616399
 30
0.0
 10
254.4376944698702
 20
236.9565523517204
 30
0.0
 10
254.3889527662438
 20
236.9849441352712
 30
0.0
 10
254.357971286932
 20
237.0118527457802
 30
0.0
 10
254.3538661719418
 20
237.0293334992459
 30
0.0
 10
254.3518741357079
 20
237.0378161591428
 30
0.0
  0
SPLINE
  5
EA
330
1F
100
AcDbEntity
  8
0
  6
CONTINUOUS
 62
     8
100
AcDbSpline
210
0.0
220
0.0
230
1.0
 70
     8
 71
     3
 72
    16
 73
    12
 74
     0
 42
0.000000001
 43
0.00000001
 40
0.0
 40
0.0
 40
0.0
 40
0.0
 40
0.075539157146509
 40
0.1541710012827796
 40
0.2359008635231405
 40
0.3207334910694241
 40
0.4086731287940825
 40
0.4997235871728964
 40
0.6177770701298999
 40
0.7498118055007115
 40
1.0
 40
1.0
 40
1.0
 40
1.0
 10
272.654001787407
 20
237.1376345654229
 30
0.0
 10
272.6531237138866
 20
237.1320364946905
 30
0.0
 10
272.6513316171921
 20
237.1206111597692
 30
0.0
 10
272.6375042441148
 20
237.1030462382057
 30
0.0
 10
272.6156414482923
 20
237.0847350708204
 30
0.0
 10
272.5848407680414
 20
237.0656709355719
 30
0.0
 10
272.5453689093717
 20
237.0458560273437
 30
0.0
 10
272.4928797272943
 20
237.0234910219459
 30
0.0
 10
272.4231609651206
 20
236.9977430649659
 30
0.0
 10
272.3094382369871
 20
236.959909462797
 30
0.0
 10
272.213199710197
 20
236.9309467950478
 30
0.0
 10
272.1502057310888
 20
236.9119889644579
 30
0.0
  0
SPLINE
  5
EB
330
1F
100
AcDbEntity
  8
0
  6
CONTINUOUS
 62
     7
100
AcDbSpline
210
0.0
220
0.0
230
1.0
 70
     8
 71
     3
 72
     9
 73
     5
 74
     0
 42
0.000000001
 43
0.00000001
 40
0.0
 40
0.0
 40
0.0
 40
0.0
 40
0.3420608813196618
 40
1.0
 40
1.0
 40
1.0
 40
1.0
 10
190.8518457608839
 20
112.4015552540478
 30
0.0
 10
198.0919085713474
 20
112.3281011674365
 30
0.0
 10
219.2579149925774
 20
112.1133613634345
 30
0.0
 10
240.4251384734028
 20
112.134125146094
 30
0.0
 10
254.3518828352867
 20
112.1477864509574
 30
0.0
  0
LINE
  5
EC
330
1F
100
AcDbEntity
  8
0
  6
CONTINUOUS
 62
     7
100
AcDbLine
 10
272.6539995805
 20
112.2451287107
 30
0.0
 11
289.1485801338
 21
112.4007812528
 31
0.0
  0
SPLINE
  5
ED
330
1F
100
AcDbEntity
  8
0
  6
CONTINUOUS
 62
     7
100
AcDbSpline
210
0.0
220
0.0
230
1.0
 70
     8
 71
     3
 72
    13
 73
     9
 74
     0
 42
0.000000001
 43
0.00000001
 40
0.0
 40
0.0
 40
0.0
 40
0.0
 40
0.2395565596564755
 40
0.3684777003922485
 40
0.5001126082923235
 40
0.6317287908114355
 40
0.760598293275766
 40
1.0
 40
1.0
 40
1.0
 40
1.0
 10
254.3518702765373
 20
112.1458700243051
 30
0.0
 10
254.4146245929439
 20
112.1527711787667
 30
0.0
 10
254.5111511344521
 20
112.1633862983432
 30
0.0
 10
254.6271546333965
 20
112.2259078183451
 30
0.0
 10
254.7069471869336
 20
112.2904492710802
 30
0.0
 10
254.7712144603358
 20
112.3704449665725
 30
0.0
 10
254.8333133849336
 20
112.4866120998553
 30
0.0
 10
254.8435507422054
 20
112.583127469704
 30
0.0
 10
254.8502057310888
 20
112.645869122297
 30
0.0
  0
SPLINE
  5
EE
330
1F
100
AcDbEntity
  8
0
  6
CONTINUOUS
 62
     7
100
AcDbSpline
210
0.0
220
0.0
230
1.0
 70
     8
 71
     3
 72
    13
 73
     9
 74
     0
 42
0.000000001
 43
0.00000001
 40
0.0
 40
0.0
 40
0.0
 40
0.0
 40
0.2394984567429113
 40
0.3684654553261548
 40
0.5001625665842201
 40
0.6318325228781286
 40
0.7607247444263493
 40
1.0
 40
1.0
 40
1.0
 40
1.0
 10
272.1502057310888
 20
112.7456514853281
 30
0.0
 10
272.1569414831532
 20
112.6824248926888
 30
0.0
 10
272.1673043555706
 20
112.5851515508793
 30
0.0
 10
272.230222119311
 20
112.4682357430893
 30
0.0
 10
272.2953544088587
 20
112.3878978801096
 30
0.0
 10
272.3761653607292
 20
112.323386038733
 30
0.0
 10
272.4934891534273
 20
112.261405380936
 30
0.0
 10
272.5907706354013
 20
112.2518595507038
 30
0.0
 10
272.6539947192989
 20
112.2456556323504
 30
0.0
  0
LINE
  5
EF
330
1F
100
AcDbEntity
  8
0
  6
CONTINUOUS
 62
     7
100
AcDbLine
 10
290.1442403263
 20
113.3837429527
 30
0.0
 11
291.0002057311
 21
162.4219681531
 31
0.0
  0
LINE
  5
F0
330
1F
100
AcDbEntity
  8
0
  6
CONTINUOUS
 62
     7
100
AcDbLine
 10
189.0002057311
 20
162.4219681531
 30
0.0
 11
189.8561710657
 21
113.3837469777
 31
0.0
  0
ARC
  5
F1
330
1F
100
AcDbEntity
  8
0
  6
CONTINUOUS
 62
     7
100
AcDbCircle
 10
190.8560292574
 20
113.4005980347
 30
0.0
 40
1.000000000000001
100
AcDbArc
 50
180.9361786727
 51
269.7838644916
  0
ARC
  5
F2
330
1F
100
AcDbEntity
  8
0
  6
CONTINUOUS
 62
     7
100
AcDbCircle
 10
289.1443821334
 20
113.4005939445
 30
0.0
 40
1.0
100
AcDbArc
 50
270.2285539081
 51
359.040053483
  0
SPLINE
  5
F3
330
1F
100
AcDbEntity
  8
0
  6
CONTINUOUS
 62
     7
100
AcDbSpline
210
0.0
220
0.0
230
1.0
 70
    24
 71
     3
 72
    26
 73
    22
 74
     0
 42
0.000000001
 43
0.00000001
 40
0.0
 40
0.0
 40
0.0
 40
0.0
 40
0.1250000000000009
 40
0.1250000000000009
 40
0.1875000000000008
 40
0.1875000000000008
 40
0.2500000000000007
 40
0.2500000000000007
 40
0.3750000000000005
 40
0.3750000000000005
 40
0.5000000000000003
 40
0.5000000000000003
 40
0.6250000000000002
 40
0.6250000000000002
 40
0.6875000000000001
 40
0.6875000000000001
 40
0.75
 40
0.75
 40
0.8750000000000001
 40
0.8750000000000001
 40
1.0
 40
1.0
 40
1.0
 40
1.0
 10
279.0401308593016
 20
162.4219681531497
 30
0.0
 10
279.8235893806619
 20
162.4219681531497
 30
0.0
 10
280.5934198914613
 20
162.4219681531497
 30
0.0
 10
281.7285596814703
 20
162.4219681531497
 30
0.0
 10
282.1036481852286
 20
162.4219681531497
 30
0.0
 10
282.847099069419
 20
162.4219681531497
 30
0.0
 10
283.2167727614111
 20
162.4219681531497
 30
0.0
 10
284.2924894875578
 20
162.4219681531497
 30
0.0
 10
284.9724680332362
 20
162.4219681531497
 30
0.0
 10
286.2589895476578
 20
162.4219681531497
 30
0.0
 10
286.868968016816
 20
162.4219681531497
 30
0.0
 10
287.9636150699889
 20
162.4219681531497
 30
0.0
 10
288.4549235099707
 20
162.4219681531497
 30
0.0
 10
289.1063986585174
 20
162.4219681531497
 30
0.0
 10
289.3095637114298
 20
162.4219681531497
 30
0.0
 10
289.678266407535
 20
162.4219681531497
 30
0.0
 10
289.8450122753175
 20
162.4219681531497
 30
0.0
 10
290.2934242699937
 20
162.4219681531497
 30
0.0
 10
290.5241205441245
 20
162.4219681531497
 30
0.0
 10
290.8402664170477
 20
162.4219681531497
 30
0.0
 10
290.922597426841
 20
162.4219681531497
 30
0.0
 10
290.9290012081741
 20
162.4219681531497
 30
0.0
  0
SPLINE
  5
F4
330
1F
100
AcDbEntity
  8
0
  6
CONTINUOUS
 62
     7
100
AcDbSpline
210
0.0
220
0.0
230
1.0
 70
    24
 71
     3
 72
    26
 73
    22
 74
     0
 42
0.000000001
 43
0.00000001
 40
0.0
 40
0.0
 40
0.0
 40
0.0
 40
0.1250000000000001
 40
0.1250000000000001
 40
0.1875000000000001
 40
0.1875000000000001
 40
0.2500000000000001
 40
0.2500000000000001
 40
0.3749999999999995
 40
0.3749999999999995
 40
0.4999999999999989
 40
0.4999999999999989
 40
0.6249999999999984
 40
0.6249999999999984
 40
0.6874999999999988
 40
0.6874999999999988
 40
0.749999999999999
 40
0.749999999999999
 40
0.8749999999999994
 40
0.8749999999999994
 40
1.0
 40
1.0
 40
1.0
 40
1.0
 10
189.0714102540034
 20
162.4219681531497
 30
0.0
 10
189.0778140283119
 20
162.4219681531497
 30
0.0
 10
189.1600939929764
 20
162.4219681531497
 30
0.0
 10
189.3926734372076
 20
162.4219681531497
 30
0.0
 10
189.4885254756094
 20
162.4219681531497
 30
0.0
 10
189.717678350345
 20
162.4219681531497
 30
0.0
 10
189.8517116910418
 20
162.4219681531497
 30
0.0
 10
190.3022479687918
 20
162.4219681531497
 30
0.0
 10
190.6682898923196
 20
162.4219681531497
 30
0.0
 10
191.5301584934844
 20
162.4219681531497
 30
0.0
 10
192.0312477986986
 20
162.4219681531497
 30
0.0
 10
193.1251286313417
 20
162.4219681531497
 30
0.0
 10
193.7210756621078
 20
162.4219681531497
 30
0.0
 10
194.6897877290162
 20
162.4219681531497
 30
0.0
 10
195.0263253827787
 20
162.4219681531497
 30
0.0
 10
195.7103484657834
 20
162.4219681531497
 30
0.0
 10
196.0594259386082
 20
162.4219681531497
 30
0.0
 10
197.1274584821577
 20
162.4219681531497
 30
0.0
 10
197.8687511168494
 20
162.4219681531497
 30
0.0
 10
199.4018317171004
 20
162.4219681531497
 30
0.0
 10
200.1768212221058
 20
162.4219681531497
 30
0.0
 10
200.9602806028762
 20
162.4219681531497
 30
0.0
  0
SPLINE
  5
F5
330
1F
100
AcDbEntity
  8
0
  6
CONTINUOUS
 62
     7
100
AcDbSpline
210
0.0
220
0.0
230
1.0
 70
     8
 71
     3
 72
    90
 73
    86
 74
     0
 42
0.000000001
 43
0.00000001
 40
0.0
 40
0.0
 40
0.0
 40
0.0
 40
0.0312499999999994
 40
0.0312499999999994
 40
0.0624999999999988
 40
0.0624999999999988
 40
0.0781249999999986
 40
0.0781249999999986
 40
0.0937499999999985
 40
0.0937499999999985
 40
0.1249999999999982
 40
0.1249999999999982
 40
0.1406249999999979
 40
0.1406249999999979
 40
0.1562499999999976
 40
0.1562499999999976
 40
0.1874999999999973
 40
0.1874999999999973
 40
0.218749999999997
 40
0.218749999999997
 40
0.2499999999999967
 40
0.2499999999999967
 40
0.2656249999999967
 40
0.2656249999999967
 40
0.2812499999999966
 40
0.2812499999999966
 40
0.3124999999999964
 40
0.3124999999999964
 40
0.3281249999999962
 40
0.3281249999999962
 40
0.343749999999996
 40
0.343749999999996
 40
0.3749999999999956
 40
0.3749999999999956
 40
0.4062499999999953
 40
0.4062499999999953
 40
0.4374999999999949
 40
0.4374999999999949
 40
0.4687499999999945
 40
0.4687499999999945
 40
0.4843749999999943
 40
0.4843749999999943
 40
0.4999999999999942
 40
0.4999999999999942
 40
0.5312499999999939
 40
0.5312499999999939
 40
0.5468749999999937
 40
0.5468749999999937
 40
0.5624999999999934
 40
0.5624999999999934
 40
0.5937499999999932
 40
0.5937499999999932
 40
0.6249999999999929
 40
0.6249999999999929
 40
0.656249999999993
 40
0.656249999999993
 40
0.671874999999993
 40
0.671874999999993
 40
0.687499999999993
 40
0.687499999999993
 40
0.7187499999999933
 40
0.7187499999999933
 40
0.7343749999999936
 40
0.7343749999999936
 40
0.7499999999999938
 40
0.7499999999999938
 40
0.7812499999999942
 40
0.7812499999999942
 40
0.8124999999999946
 40
0.8124999999999946
 40
0.8281249999999949
 40
0.8281249999999949
 40
0.8437499999999952
 40
0.8437499999999952
 40
0.8749999999999959
 40
0.8749999999999959
 40
0.8906249999999963
 40
0.8906249999999963
 40
0.9062499999999968
 40
0.9062499999999968
 40
0.9374999999999979
 40
0.9374999999999979
 40
0.9687499999999989
 40
0.9687499999999989
 40
1.0
 40
1.0
 40
1.0
 40
1.0
 10
254.8502057310887
 20
115.3692911999778
 30
0.0
 10
254.2678488372715
 20
115.8208570979588
 30
0.0
 10
253.7283574661949
 20
116.3117535686665
 30
0.0
 10
252.7315240862767
 20
117.3689196284136
 30
0.0
 10
252.2741885585868
 20
117.9351951710563
 30
0.0
 10
251.6516675543741
 20
118.8428530299571
 30
0.0
 10
251.4548418332826
 20
119.1553862348693
 30
0.0
 10
251.0893889935266
 20
119.7890706036714
 30
0.0
 10
250.919799537628
 20
120.1115456454071
 30
0.0
 10
250.4497203715339
 20
121.0955596525717
 30
0.0
 10
250.1876894162951
 20
121.7735886823087
 30
0.0
 10
249.8730024524124
 20
122.8242298261199
 30
0.0
 10
249.7809140553288
 20
123.1816611219002
 30
0.0
 10
249.6257343979902
 20
123.899215331729
 30
0.0
 10
249.5625591224492
 20
124.2589705562552
 30
0.0
 10
249.4152136515078
 20
125.3410983401496
 30
0.0
 10
249.3729777065407
 20
126.0663162968594
 30
0.0
 10
249.4009998775542
 20
127.5243851917381
 30
0.0
 10
249.4728434414781
 20
128.2625003888882
 30
0.0
 10
249.7268623334176
 20
129.6996084155338
 30
0.0
 10
249.9083277057556
 20
130.4031161677751
 30
0.0
 10
250.2615545254361
 20
131.4359899363923
 30
0.0
 10
250.3928612544585
 20
131.7765334008641
 30
0.0
 10
250.6832369533435
 20
132.4499498841711
 30
0.0
 10
250.8427083493861
 20
132.7832949454505
 30
0.0
 10
251.3546887230962
 20
133.7544272064271
 30
0.0
 10
251.7428291169983
 20
134.3693371633544
 30
0.0
 10
252.3938336684154
 20
135.2439329891792
 30
0.0
 10
252.6223526946098
 20
135.5274674105323
 30
0.0
 10
253.1028132845614
 20
136.0782722907288
 30
0.0
 10
253.3558662105424
 20
136.3466018871078
 30
0.0
 10
254.1427722073334
 20
137.1180513577581
 30
0.0
 10
254.7011674518387
 20
137.5856534006722
 30
0.0
 10
255.8833206915479
 20
138.4305308829127
 30
0.0
 10
256.5070764541991
 20
138.8078094033856
 30
0.0
 10
257.8225465159375
 20
139.468453620229
 30
0.0
 10
258.5003081604332
 20
139.7444927364776
 30
0.0
 10
259.8843655094864
 20
140.1879923447782
 30
0.0
 10
260.5922898434102
 20
140.3562643293628
 30
0.0
 10
261.6786528299659
 20
140.5263260481362
 30
0.0
 10
262.0458243048064
 20
140.5691854344399
 30
0.0
 10
262.775938570424
 20
140.6256655846279
 30
0.0
 10
263.1403000495692
 20
140.6395845042763
 30
0.0
 10
264.2313394358873
 20
140.639240743667
 30
0.0
 10
264.9559843910645
 20
140.5831267330879
 30
0.0
 10
266.038824479312
 20
140.4139868269834
 30
0.0
 10
266.4004288594264
 20
140.3430477012832
 30
0.0
 10
267.1156267574372
 20
140.1733577757265
 30
0.0
 10
267.4677676403736
 20
140.0750785283032
 30
0.0
 10
268.5082481706006
 20
139.7410011550507
 30
0.0
 10
269.1807383269592
 20
139.466191412737
 30
0.0
 10
270.4833519629831
 20
138.812289401644
 30
0.0
 10
271.1181313127359
 20
138.429231014392
 30
0.0
 10
272.3059441983748
 20
137.5794930330203
 30
0.0
 10
272.8623793726014
 20
137.1121731726411
 30
0.0
 10
273.6414730916136
 20
136.3482493952145
 30
0.0
 10
273.8918700148635
 20
136.0830708604833
 30
0.0
 10
274.3736620048476
 20
135.5311859118664
 30
0.0
 10
274.6056985107854
 20
135.2434561914961
 30
0.0
 10
275.2615385789823
 20
134.3619101192604
 30
0.0
 10
275.6488994414432
 20
133.7462936660359
 30
0.0
 10
276.1569270957353
 20
132.7819885788973
 30
0.0
 10
276.3140452526319
 20
132.4537091027624
 30
0.0
 10
276.6034650577306
 20
131.7832551838984
 30
0.0
 10
276.7361399238123
 20
131.4399669670441
 30
0.0
 10
277.0931025427736
 20
130.3962630040942
 30
0.0
 10
277.2741256089137
 20
129.6905000144779
 30
0.0
 10
277.5263885087962
 20
128.2597732498009
 30
0.0
 10
277.5976274516653
 20
127.5348093212149
 30
0.0
 10
277.6191688025205
 20
126.4324414709189
 30
0.0
 10
277.6119130964338
 20
126.0641283353836
 30
0.0
 10
277.569236913781
 20
125.3348626137409
 30
0.0
 10
277.533855300106
 20
124.972556795524
 30
0.0
 10
277.3862320625472
 20
123.8925124519374
 30
0.0
 10
277.2327621319092
 20
123.1816055834107
 30
0.0
 10
276.9180704106111
 20
122.1292454445909
 30
0.0
 10
276.798442685966
 20
121.7795007102123
 30
0.0
 10
276.5343269955709
 20
121.0957907508458
 30
0.0
 10
276.3896638655351
 20
120.7608489998008
 30
0.0
 10
275.918681533307
 20
119.7763122658996
 30
0.0
 10
275.5555870499413
 20
119.1468864204359
 30
0.0
 10
274.7301830632153
 20
117.9424494563712
 30
0.0
 10
274.2645826322641
 20
117.365243456759
 30
0.0
 10
273.2638007545963
 20
116.3049722125007
 30
0.0
 10
272.7257746560741
 20
115.8167487883896
 30
0.0
 10
272.1502057310888
 20
115.3703351168815
 30
0.0
  0
LINE
  5
F6
330
1F
100
AcDbEntity
  8
0
  6
CONTINUOUS
 62
     7
100
AcDbLine
 10
279.0401308593
 20
162.4219681531
 30
0.0
 11
200.9602806029
 21
162.4219681531
 31
0.0
  0
ARC
  5
F7
330
1F
100
AcDbEntity
  8
0
  6
CONTINUOUS
 62
     7
100
AcDbCircle
 10
263.5002057311
 20
126.5219681531
 30
0.0
 40
14.10000000000001
100
AcDbArc
 50
307.8412073226
 51
232.1587926774
  0
SPLINE
  5
F8
330
1F
100
AcDbEntity
  8
0
  6
CONTINUOUS
 62
     7
100
AcDbSpline
210
0.0
220
0.0
230
1.0
 70
     8
 71
     3
 72
    26
 73
    22
 74
     0
 42
0.000000001
 43
0.00000001
 40
0.0
 40
0.0
 40
0.0
 40
0.0
 40
0.1249999999999999
 40
0.1249999999999999
 40
0.1874999999999998
 40
0.1874999999999998
 40
0.2499999999999998
 40
0.2499999999999998
 40
0.3749999999999997
 40
0.3749999999999997
 40
0.4999999999999996
 40
0.4999999999999996
 40
0.6249999999999994
 40
0.6249999999999994
 40
0.6874999999999999
 40
0.6874999999999999
 40
0.7500000000000004
 40
0.7500000000000004
 40
0.8750000000000002
 40
0.8750000000000002
 40
1.0
 40
1.0
 40
1.0
 40
1.0
 10
289.0878150835202
 20
112.4074569460662
 30
0.0
 10
289.0819209126587
 20
112.4080490306977
 30
0.0
 10
289.0063305254232
 20
112.4081318637299
 30
0.0
 10
288.7927455847595
 20
112.4078413823377
 30
0.0
 10
288.7047291461777
 20
112.4076749692958
 30
0.0
 10
288.4943333701084
 20
112.4072574160718
 30
0.0
 10
288.371286967713
 20
112.4070051454389
 30
0.0
 10
287.9577401058523
 20
112.4062185849098
 30
0.0
 10
287.6218010480901
 20
112.4056566053097
 30
0.0
 10
286.8309553023701
 20
112.4047989799098
 30
0.0
 10
286.3712609925951
 20
112.4045073230926
 30
0.0
 10
285.3678478438374
 20
112.4043634794088
 30
0.0
 10
284.8212143751698
 20
112.4045047692286
 30
0.0
 10
283.9326748273116
 20
112.4049546770635
 30
0.0
 10
283.6240215567864
 20
112.4051434340217
 30
0.0
 10
282.9966713958672
 20
112.4055514357146
 30
0.0
 10
282.6765052574586
 20
112.4057712268814
 30
0.0
 10
281.6968891665004
 20
112.4064028415803
 30
0.0
 10
281.0168296675811
 20
112.4067927508894
 30
0.0
 10
279.6105838829863
 20
112.4069881587502
 30
0.0
 10
278.8996592491341
 20
112.4067876447978
 30
0.0
 10
278.1809058443716
 20
112.4060164151684
 30
0.0
  0
SPLINE
  5
F9
330
1F
100
AcDbEntity
  8
0
  6
CONTINUOUS
 62
     7
100
AcDbSpline
210
0.0
220
0.0
230
1.0
 70
     8
 71
     3
 72
    26
 73
    22
 74
     0
 42
0.000000001
 43
0.00000001
 40
0.0
 40
0.0
 40
0.0
 40
0.0
 40
0.1249999999999981
 40
0.1249999999999981
 40
0.1874999999999978
 40
0.1874999999999978
 40
0.2499999999999974
 40
0.2499999999999974
 40
0.3749999999999978
 40
0.3749999999999978
 40
0.4999999999999982
 40
0.4999999999999982
 40
0.6249999999999986
 40
0.6249999999999986
 40
0.6874999999999988
 40
0.6874999999999988
 40
0.749999999999999
 40
0.749999999999999
 40
0.8749999999999996
 40
0.8749999999999996
 40
1.0
 40
1.0
 40
1.0
 40
1.0
 10
201.8195057482217
 20
112.4060210169339
 30
0.0
 10
201.1007491216718
 20
112.4067921149967
 30
0.0
 10
200.3945375230536
 20
112.4069893922154
 30
0.0
 10
199.3532523747843
 20
112.4068506396372
 30
0.0
 10
199.0091846009663
 20
112.4067310884866
 30
0.0
 10
198.3272328334443
 20
112.4064083317417
 30
0.0
 10
197.9881621315198
 20
112.406204208701
 30
0.0
 10
197.0015236937313
 20
112.4055691060863
 30
0.0
 10
196.3778509170328
 20
112.4051194474518
 30
0.0
 10
195.1978240966925
 20
112.4045176400316
 30
0.0
 10
194.6383633545791
 20
112.4043699466848
 30
0.0
 10
193.6342472461505
 20
112.4045108128076
 30
0.0
 10
193.1834948719867
 20
112.4047930050309
 30
0.0
 10
192.5857041304865
 20
112.4054356967988
 30
0.0
 10
192.399281041691
 20
112.4056858233583
 30
0.0
 10
192.0609278409982
 20
112.4062076713677
 30
0.0
 10
191.9078856863326
 20
112.4064802774204
 30
0.0
 10
191.4962790329263
 20
112.407261879383
 30
0.0
 10
191.2844318176818
 20
112.4077389840171
 30
0.0
 10
190.9941296183707
 20
112.4081385151451
 30
0.0
 10
190.9184926263121
 20
112.4080532653406
 30
0.0
 10
190.9125985320469
 20
112.4074612914409
 30
0.0
  0
SPLINE
  5
FA
330
1F
100
AcDbEntity
  8
0
  6
CONTINUOUS
 62
     7
100
AcDbSpline
210
0.0
220
0.0
230
1.0
 70
    24
 71
     3
 72
    14
 73
    10
 74
     0
 42
0.000000001
 43
0.00000001
 40
0.0
 40
0.0
 40
0.0
 40
0.0
 40
0.2569323045663738
 40
0.3911326102513891
 40
0.510240387912462
 40
0.6449709043092544
 40
0.7711507161077941
 40
0.8892875872877469
 40
1.0
 40
1.0
 40
1.0
 40
1.0
 10
254.8502057310887
 20
115.3692911999778
 30
0.0
 10
254.8502057310887
 20
115.2042765744978
 30
0.0
 10
254.8502057310887
 20
114.9530718795391
 30
0.0
 10
254.8502057310887
 20
114.621346729849
 30
0.0
 10
254.8502057310887
 20
114.3663884768171
 30
0.0
 10
254.8502057310887
 20
114.1131655981513
 30
0.0
 10
254.8502057310887
 20
113.8569021300875
 30
0.0
 10
254.8502057310887
 20
113.614021265385
 30
0.0
 10
254.8502057310887
 20
113.4561090731787
 30
0.0
 10
254.8502057310887
 20
113.379714515597
 30
0.0
  0
SPLINE
  5
FB
330
1F
100
AcDbEntity
  8
0
  6
CONTINUOUS
 62
     7
100
AcDbSpline
210
0.0
220
0.0
230
1.0
 70
    24
 71
     3
 72
    16
 73
    12
 74
     0
 42
0.000000001
 43
0.00000001
 40
0.0
 40
0.0
 40
0.0
 40
0.0
 40
0.0823161724131201
 40
0.165323455349725
 40
0.2503803372988048
 40
0.3746660220818943
 40
0.5002146189376155
 40
0.6228169747317335
 40
0.7495175295729541
 40
0.8746171875382998
 40
1.0
 40
1.0
 40
1.0
 40
1.0
 10
254.8502057310887
 20
113.379714515597
 30
0.0
 10
254.8502057310887
 20
113.3586807799844
 30
0.0
 10
254.8502057310887
 20
113.3164367136186
 30
0.0
 10
254.8502057310887
 20
113.2537456501994
 30
0.0
 10
254.8502057310887
 20
113.1830887309283
 30
0.0
 10
254.8502057310887
 20
113.10717886821
 30
0.0
 10
254.8502057310887
 20
113.033199727984
 30
0.0
 10
254.8502057310887
 20
112.9717106925551
 30
0.0
 10
254.8502057310887
 20
112.9263710444806
 30
0.0
 10
254.8502057310887
 20
112.8954035119868
 30
0.0
 10
254.8502057310887
 20
112.8908152301022
 30
0.0
 10
254.8502057310887
 20
112.8885184957795
 30
0.0
  0
SPLINE
  5
FC
330
1F
100
AcDbEntity
  8
0
  6
CONTINUOUS
 62
     7
100
AcDbSpline
210
0.0
220
0.0
230
1.0
 70
    24
 71
     3
 72
    16
 73
    12
 74
     0
 42
0.000000001
 43
0.00000001
 40
0.0
 40
0.0
 40
0.0
 40
0.0
 40
0.0728926011561409
 40
0.1490065308790768
 40
0.2285498574654563
 40
0.3117049103665677
 40
0.3986312950466324
 40
0.4894687399474357
 40
0.6083477018931499
 40
0.7428673596221791
 40
1.0
 40
1.0
 40
1.0
 40
1.0
 10
272.1502057310888
 20
113.3917358045081
 30
0.0
 10
272.1502057310888
 20
113.4418223193507
 30
0.0
 10
272.1502057310888
 20
113.5442088126593
 30
0.0
 10
272.1502057310888
 20
113.700545647784
 30
0.0
 10
272.1502057310888
 20
113.8628643644031
 30
0.0
 10
272.1502057310888
 20
114.0311511128393
 30
0.0
 10
272.1502057310887
 20
114.2054184388311
 30
0.0
 10
272.1502057310888
 20
114.4015295956991
 30
0.0
 10
272.1502057310888
 20
114.6264167091471
 30
0.0
 10
272.1502057310888
 20
114.9563203043191
 30
0.0
 10
272.1502057310887
 20
115.2062488140177
 30
0.0
 10
272.1502057310888
 20
115.3703351168815
 30
0.0
  0
SPLINE
  5
FD
330
1F
100
AcDbEntity
  8
0
  6
CONTINUOUS
 62
     7
100
AcDbSpline
210
0.0
220
0.0
230
1.0
 70
    24
 71
     3
 72
    16
 73
    12
 74
     0
 42
0.000000001
 43
0.00000001
 40
0.0
 40
0.0
 40
0.0
 40
0.0
 40
0.0825375983827767
 40
0.1657267320566162
 40
0.250946777137027
 40
0.3751876516718603
 40
0.5007374913830959
 40
0.6232117758456016
 40
0.749746051977517
 40
0.8747141224570604
 40
1.0
 40
1.0
 40
1.0
 40
1.0
 10
272.1502057310888
 20
112.9004969370747
 30
0.0
 10
272.1502057310888
 20
112.9015349314233
 30
0.0
 10
272.1502057310888
 20
112.9036191138402
 30
0.0
 10
272.1502057310888
 20
112.9174733418673
 30
0.0
 10
272.1502057310887
 20
112.9419483942539
 30
0.0
 10
272.1502057310888
 20
112.9826205260448
 30
0.0
 10
272.1502057310887
 20
113.0434481913975
 30
0.0
 10
272.1502057310888
 20
113.1178659155737
 30
0.0
 10
272.1502057310888
 20
113.2028040474013
 30
0.0
 10
272.1502057310887
 20
113.2952831669409
 30
0.0
 10
272.1502057310888
 20
113.3595577170822
 30
0.0
 10
272.1502057310888
 20
113.3917358045081
 30
0.0
  0
LINE
  5
FE
330
1F
100
AcDbEntity
  8
0
  6
CONTINUOUS
 62
     7
100
AcDbLine
 10
255.0002057288
 20
118.6456398531
 30
0.0
 11
255.000205729
 21
115.3976704254
 31
0.0
  0
ARC
  5
FF
330
1F
100
AcDbEntity
  8
0
  6
CONTINUOUS
 62
     7
100
AcDbCircle
 10
263.5002057311
 20
126.5219681531
 30
0.0
 40
13.99999999914827
100
AcDbArc
 50
307.3831984051
 51
232.616801568
  0
LINE
  5
100
330
1F
100
AcDbEntity
  8
0
  6
CONTINUOUS
 62
     7
100
AcDbLine
 10
272.0002057281
 20
115.3976704213
 30
0.0
 11
272.0002056851
 21
118.6456396612
 31
0.0
  0
SPLINE
  5
101
330
1F
100
AcDbEntity
  8
0
  6
CONTINUOUS
 62
     7
100
AcDbSpline
210
0.0
220
0.0
230
1.0
 70
     8
 71
     3
 72
    77
 73
    73
 74
     0
 42
0.000000001
 43
0.00000001
 40
0.0
 40
0.0
 40
0.0
 40
0.0
 40
0.0624999999999976
 40
0.0624999999999976
 40
0.0781249999999973
 40
0.0781249999999973
 40
0.0937499999999969
 40
0.0937499999999969
 40
0.1249999999999966
 40
0.1249999999999966
 40
0.1406249999999968
 40
0.1406249999999968
 40
0.1562499999999968
 40
0.1562499999999968
 40
0.1874999999999966
 40
0.1874999999999966
 40
0.2187499999999964
 40
0.2187499999999964
 40
0.2499999999999962
 40
0.2499999999999962
 40
0.2812499999999961
 40
0.2812499999999961
 40
0.3124999999999958
 40
0.3124999999999958
 40
0.3437499999999957
 40
0.3437499999999957
 40
0.3593749999999956
 40
0.3593749999999956
 40
0.3749999999999955
 40
0.3749999999999955
 40
0.4374999999999953
 40
0.4374999999999953
 40
0.4531249999999953
 40
0.4531249999999953
 40
0.4687499999999953
 40
0.4687499999999953
 40
0.4999999999999956
 40
0.4999999999999956
 40
0.5312499999999957
 40
0.5312499999999957
 40
0.5624999999999959
 40
0.5624999999999959
 40
0.5781249999999959
 40
0.5781249999999959
 40
0.593749999999996
 40
0.593749999999996
 40
0.6249999999999963
 40
0.6249999999999963
 40
0.6562499999999968
 40
0.6562499999999968
 40
0.6874999999999971
 40
0.6874999999999971
 40
0.7187499999999976
 40
0.7187499999999976
 40
0.7499999999999979
 40
0.7499999999999979
 40
0.7812499999999982
 40
0.7812499999999982
 40
0.8124999999999987
 40
0.8124999999999987
 40
0.843749999999999
 40
0.843749999999999
 40
0.8749999999999993
 40
0.9062499999999998
 40
0.9062499999999998
 40
0.9218749999999999
 40
0.9218749999999999
 40
0.9374999999999999
 40
0.9374999999999999
 40
0.96875
 40
0.96875
 40
1.0
 40
1.0
 40
1.0
 40
1.0
 10
272.0002056415295
 20
118.6456396231148
 30
0.0
 10
272.7526109627327
 20
119.477774216701
 30
0.0
 10
273.3680130266905
 20
120.3969620900381
 30
0.0
 10
273.970736811735
 20
121.6517608796406
 30
0.0
 10
274.0831883355758
 20
121.9091831663659
 30
0.0
 10
274.2882774463577
 20
122.4291664265899
 30
0.0
 10
274.380924510881
 20
122.6914682563609
 30
0.0
 10
274.6299034901866
 20
123.4851338931106
 30
0.0
 10
274.7574180401731
 20
124.0232240378264
 30
0.0
 10
274.89115132397
 20
124.8437894787822
 30
0.0
 10
274.9261029943488
 20
125.1195581439021
 30
0.0
 10
274.9763282134626
 20
125.6756885968353
 30
0.0
 10
274.9915208901256
 20
125.956459160058
 30
0.0
 10
275.0067298516681
 20
126.7922657876331
 30
0.0
 10
274.977079620514
 20
127.3451948435264
 30
0.0
 10
274.8399941020511
 20
128.4426949968894
 30
0.0
 10
274.7325655790956
 20
128.9872668211851
 30
0.0
 10
274.4368093139473
 20
130.067717896366
 30
0.0
 10
274.2510874919558
 20
130.5932628071619
 30
0.0
 10
273.8094957031862
 20
131.607711786304
 30
0.0
 10
273.5532346900433
 20
132.0980315194908
 30
0.0
 10
272.9684454448844
 20
133.0442241893391
 30
0.0
 10
272.6380011450734
 20
133.5013741980734
 30
0.0
 10
271.9246618067979
 20
134.3515653102573
 30
0.0
 10
271.5397515000137
 20
134.7484981351044
 30
0.0
 10
270.9201450594837
 20
135.3017729206501
 30
0.0
 10
270.7065425821452
 20
135.4791503474669
 30
0.0
 10
270.2648881345021
 20
135.8194955694158
 30
0.0
 10
270.0359506703232
 20
135.9829865112549
 30
0.0
 10
268.8716414683331
 20
136.7518165147145
 30
0.0
 10
267.8707121562722
 20
137.2219037545638
 30
0.0
 10
266.5316092916158
 20
137.6260200558175
 30
0.0
 10
266.2601657068965
 20
137.6971345334391
 30
0.0
 10
265.7170811052064
 20
137.8184261877046
 30
0.0
 10
265.4444425486887
 20
137.8689163335003
 30
0.0
 10
264.6232903711664
 20
137.9904038532162
 30
0.0
 10
264.0715570825161
 20
138.0315743177426
 30
0.0
 10
262.9593626790785
 20
138.0330609139756
 30
0.0
 10
262.3965805915946
 20
137.9923898802958
 30
0.0
 10
261.2981767661435
 20
137.8316412407066
 30
0.0
 10
260.7582073705348
 20
137.7119257172873
 30
0.0
 10
259.9620077452139
 20
137.4737424861265
 30
0.0
 10
259.6989091311082
 20
137.384542041643
 30
0.0
 10
259.1774083709652
 20
137.1861287655602
 30
0.0
 10
258.9182953041488
 20
137.0765096317569
 30
0.0
 10
258.1601665207991
 20
136.7225335968605
 30
0.0
 10
257.6766905765934
 20
136.4520814583954
 30
0.0
 10
256.7524183661506
 20
135.8441365920958
 30
0.0
 10
256.3116204978999
 20
135.5066463806802
 30
0.0
 10
255.474220785105
 20
134.7622435156448
 30
0.0
 10
255.0859191066089
 20
134.3624441748238
 30
0.0
 10
254.3733831931746
 20
133.5156574133766
 30
0.0
 10
254.0481337594579
 20
133.0677568238899
 30
0.0
 10
253.460583365051
 20
132.12222112436
 30
0.0
 10
253.1984620627821
 20
131.623152125521
 30
0.0
 10
252.7542818070114
 20
130.6064949771321
 30
0.0
 10
252.56961333646
 20
130.085193400502
 30
0.0
 10
252.2747480080503
 20
129.0167731006567
 30
0.0
 10
252.1642301119857
 20
128.4663634048441
 30
0.0
 10
252.0238704252608
 20
127.3561525244007
 30
0.0
 10
251.9936957866196
 20
126.7950390068628
 30
0.0
 10
252.013897129141
 20
125.6777804329137
 30
0.0
 10
252.1136875466409
 20
124.5735382255439
 30
0.0
 10
252.3678493765571
 20
123.4945426351738
 30
0.0
 10
252.6182138876513
 20
122.6950666124733
 30
0.0
 10
252.7118622817962
 20
122.4299689678281
 30
0.0
 10
252.9162216257446
 20
121.9116094842641
 30
0.0
 10
253.0272382547223
 20
121.6572564428235
 30
0.0
 10
253.386328663169
 20
120.9084205170559
 30
0.0
 10
253.6603100590694
 20
120.4280882392128
 30
0.0
 10
254.2782018215524
 20
119.5056185266752
 30
0.0
 10
254.6239569304263
 20
119.0617634706739
 30
0.0
 10
255.0001555935121
 20
118.6456951743984
 30
0.0
  0
SPLINE
  5
102
330
1F
100
AcDbEntity
  8
0
  6
CONTINUOUS
 62
     7
100
AcDbSpline
210
0.0
220
0.0
230
1.0
 70
    24
 71
     3
 72
    10
 73
     6
 74
     0
 42
0.000000001
 43
0.00000001
 40
0.0
 40
0.0
 40
0.0
 40
0.0
 40
0.5
 40
0.5
 40
1.0
 40
1.0
 40
1.0
 40
1.0
 10
255.0002057287587
 20
124.7770477887241
 30
0.0
 10
255.0002057287587
 20
123.6920519435831
 30
0.0
 10
255.0002057287587
 20
122.6525444166761
 30
0.0
 10
255.0002057287587
 20
120.6185164444033
 30
0.0
 10
255.0002057287587
 20
119.6251043592861
 30
0.0
 10
255.0002057287587
 20
118.6459423850244
 30
0.0
  0
SPLINE
  5
103
330
1F
100
AcDbEntity
  8
0
  6
CONTINUOUS
 62
     7
100
AcDbSpline
210
0.0
220
0.0
230
1.0
 70
    24
 71
     3
 72
    10
 73
     6
 74
     0
 42
0.000000001
 43
0.00000001
 40
0.0
 40
0.0
 40
0.0
 40
0.0
 40
0.5000000000000001
 40
0.5000000000000001
 40
1.0
 40
1.0
 40
1.0
 40
1.0
 10
272.0002057287587
 20
118.6456397075653
 30
0.0
 10
272.0002057287587
 20
119.624848934714
 30
0.0
 10
272.0002057287587
 20
120.6183087493614
 30
0.0
 10
272.0002057287587
 20
122.6524367231176
 30
0.0
 10
272.0002057287587
 20
123.6919968215949
 30
0.0
 10
272.0002057287587
 20
124.777048048918
 30
0.0
  0
ARC
  5
104
330
1F
100
AcDbEntity
  8
0
  6
CONTINUOUS
 62
     7
100
AcDbCircle
 10
263.6378464991
 20
130.0051472764
 30
0.0
 40
9.862153696667523
100
AcDbArc
 50
327.9866112286
 51
17.3289999475
  0
ARC
  5
105
330
1F
100
AcDbEntity
  8
0
  6
CONTINUOUS
 62
     7
100
AcDbCircle
 10
263.3574924231
 20
130.0051916966
 30
0.0
 40
9.857286700935008
100
AcDbArc
 50
163.9813153903
 51
179.997573451
  0
ARC
  5
106
330
1F
100
AcDbEntity
  8
0
  6
CONTINUOUS
 62
     7
100
AcDbCircle
 10
263.3711949792
 20
130.0080105875
 30
0.0
 40
9.870989500950799
100
AcDbArc
 50
180.0139405717
 51
212.0009120578
  0
LINE
  5
107
330
1F
100
AcDbEntity
  8
0
  6
CONTINUOUS
 62
     7
100
AcDbLine
 10
190.912598532
 20
112.4074612914
 30
0.0
 11
190.8518465875
 21
112.4013784749
 31
0.0
  0
SPLINE
  5
108
330
1F
100
AcDbEntity
  8
0
  6
CONTINUOUS
 62
     7
100
AcDbSpline
210
0.0
220
0.0
230
1.0
 70
     8
 71
     3
 72
     9
 73
     5
 74
     0
 42
0.000000001
 43
0.00000001
 40
0.0
 40
0.0
 40
0.0
 40
0.0
 40
0.9923019519919668
 40
1.0
 40
1.0
 40
1.0
 40
1.0
 10
254.3518589410177
 20
112.1477864858221
 30
0.0
 10
254.3518664689244
 20
112.1465137799234
 30
0.0
 10
254.3518740552308
 20
112.145231200668
 30
0.0
 10
254.351870218149
 20
112.1458798987398
 30
0.0
 10
254.351870188611
 20
112.1458848924487
 30
0.0
  0
SPLINE
  5
109
330
1F
100
AcDbEntity
  8
0
  6
CONTINUOUS
 62
     7
100
AcDbSpline
210
0.0
220
0.0
230
1.0
 70
     8
 71
     3
 72
     9
 73
     5
 74
     0
 42
0.000000001
 43
0.00000001
 40
0.0
 40
0.0
 40
0.0
 40
0.0
 40
0.1052520775919595
 40
1.0
 40
1.0
 40
1.0
 40
1.0
 10
289.1485745431155
 20
112.4013737038999
 30
0.0
 10
289.1509564966321
 20
112.4011351095843
 30
0.0
 10
289.1735874372375
 20
112.3988682249678
 30
0.0
 10
289.1283189597253
 20
112.4034011345949
 30
0.0
 10
289.0878150835207
 20
112.4074569460662
 30
0.0
  0
SPLINE
  5
10A
330
1F
100
AcDbEntity
  8
0
  6
CONTINUOUS
 62
     7
100
AcDbSpline
210
0.0
220
0.0
230
1.0
 70
    24
 71
     3
 72
    14
 73
    10
 74
     0
 42
0.000000001
 43
0.00000001
 40
0.0
 40
0.0
 40
0.0
 40
0.0
 40
0.1428615093364764
 40
0.2857200636001803
 40
0.4285765625102745
 40
0.5714319058247549
 40
0.7142869933234534
 40
0.8571427247910361
 40
1.0
 40
1.0
 40
1.0
 40
1.0
 10
254.8502057310887
 20
112.8885184957795
 30
0.0
 10
254.8502057310887
 20
112.8663598283222
 30
0.0
 10
254.8502057310887
 20
112.8220429517568
 30
0.0
 10
254.8502057310887
 20
112.7681222620577
 30
0.0
 10
254.8502057310887
 20
112.7234095108497
 30
0.0
 10
254.8502057310887
 20
112.6887415397995
 30
0.0
 10
254.8502057310887
 20
112.6641184053474
 30
0.0
 10
254.8502057310887
 20
112.6487030525076
 30
0.0
 10
254.8502057310887
 20
112.6467968223959
 30
0.0
 10
254.8502057310887
 20
112.6458437021903
 30
0.0
  0
SPLINE
  5
10B
330
1F
100
AcDbEntity
  8
0
  6
CONTINUOUS
 62
     7
100
AcDbSpline
210
0.0
220
0.0
230
1.0
 70
    24
 71
     3
 72
    13
 73
     9
 74
     0
 42
0.000000001
 43
0.00000001
 40
0.0
 40
0.0
 40
0.0
 40
0.0
 40
0.1666738901754853
 40
0.333344109234685
 40
0.5000112434396085
 40
0.6666758790848174
 40
0.8333386024912435
 40
1.0
 40
1.0
 40
1.0
 40
1.0
 10
272.1502057310888
 20
112.7456459833355
 30
0.0
 10
272.1502057310888
 20
112.7464720699254
 30
0.0
 10
272.1502057310888
 20
112.7481242249102
 30
0.0
 10
272.1502057310888
 20
112.7615229626167
 30
0.0
 10
272.1502057310887
 20
112.7828639489357
 30
0.0
 10
272.1502057310888
 20
112.8131399211319
 30
0.0
 10
272.1502057310888
 20
112.851358084007
 30
0.0
 10
272.1502057310888
 20
112.8841173628222
 30
0.0
 10
272.1502057310888
 20
112.9004969370747
 30
0.0
  0
ELLIPSE
  5
10C
330
1F
100
AcDbEntity
  8
0
  6
CONTINUOUS
 62
     7
100
AcDbEllipse
 10
263.5002057288
 20
133.5329665737
 30
0.0
 11
0.0
 21
10.07509825232464
 31
0.0
210
0.0
220
0.0
230
1.0
 40
0.9925461516
 41
4.15757794394472
 42
4.535098740417663
  0
ELLIPSE
  5
10D
330
1F
100
AcDbEntity
  8
0
  6
CONTINUOUS
 62
     7
100
AcDbEllipse
 10
263.5002057288
 20
133.5329665737
 30
0.0
 11
0.0
 21
10.07509825232464
 31
0.0
210
0.0
220
0.0
230
1.0
 40
0.9925461516
 41
1.748086566762064
 42
2.125607362488205
  0
LINE
  5
10E
330
1F
100
AcDbEntity
  8
0
  6
CONTINUOUS
 62
     7
100
AcDbLine
 10
272.0002057013
 20
124.7770478024
 30
0.0
 11
272.0002057248
 21
128.2255791984
 31
0.0
  0
LINE
  5
10F
330
1F
100
AcDbEntity
  8
0
  6
CONTINUOUS
 62
     7
100
AcDbLine
 10
255.0002057449
 20
128.2255792149
 30
0.0
 11
255.0002043933
 21
124.7770498403
 31
0.0
  0
LWPOLYLINE
  5
110
330
1F
100
AcDbEntity
  8
0
  6
CONTINUOUS
 62
     8
100
AcDbPolyline
 90
        3
 70
   128
 43
0.0
 10
290.9290012082
 20
162.4219681531
 10
290.4995794368
 20
137.6216707686
 10
290.0799203979
 20
113.3899744072
  0
SPLINE
  5
111
330
1F
100
AcDbEntity
  8
0
  6
CONTINUOUS
 62
     8
100
AcDbSpline
210
0.0
220
0.0
230
1.0
 70
     8
 71
     3
 72
    26
 73
    22
 74
     0
 42
0.000000001
 43
0.00000001
 40
0.0
 40
0.0
 40
0.0
 40
0.0
 40
0.1249999999999987
 40
0.1249999999999987
 40
0.2499999999999974
 40
0.2499999999999974
 40
0.3124999999999972
 40
0.3124999999999972
 40
0.3749999999999971
 40
0.3749999999999971
 40
0.4999999999999977
 40
0.4999999999999977
 40
0.6249999999999983
 40
0.6249999999999983
 40
0.749999999999999
 40
0.749999999999999
 40
0.8124999999999993
 40
0.8124999999999993
 40
0.8749999999999996
 40
0.8749999999999996
 40
1.0
 40
1.0
 40
1.0
 40
1.0
 10
278.1886329726386
 20
113.3885283695095
 30
0.0
 10
278.9723861346869
 20
113.3881820853104
 30
0.0
 10
279.7476517412113
 20
113.3873872325549
 30
0.0
 10
281.2812532104412
 20
113.3854433548365
 30
0.0
 10
282.0229600092287
 20
113.3843198166284
 30
0.0
 10
283.0913863988333
 20
113.38279799498
 30
0.0
 10
283.4405823893545
 20
113.3823162405932
 30
0.0
 10
284.1248189588362
 20
113.3814551779365
 30
0.0
 10
284.461467543228
 20
113.3810747579678
 30
0.0
 10
285.4305630123437
 20
113.38016893212
 30
0.0
 10
286.0267002636955
 20
113.3798772774453
 30
0.0
 10
287.1208578157879
 20
113.3800223693527
 30
0.0
 10
287.6220590701129
 20
113.3804706654148
 30
0.0
 10
288.484074934196
 20
113.3819389528154
 30
0.0
 10
288.8501288205871
 20
113.3829522968041
 30
0.0
 10
289.3005941968032
 20
113.3846376562808
 30
0.0
 10
289.4345921987904
 20
113.3852286986077
 30
0.0
 10
289.6636471142995
 20
113.3863856918872
 30
0.0
 10
289.7594332846203
 20
113.3869535992635
 30
0.0
 10
289.9917658538415
 20
113.3885419910458
 30
0.0
 10
290.0738162408333
 20
113.389448085565
 30
0.0
 10
290.0799203979374
 20
113.3899744071936
 30
0.0
  0
LWPOLYLINE
  5
112
330
1F
100
AcDbEntity
  8
0
  6
CONTINUOUS
 62
     8
100
AcDbPolyline
 90
        3
 70
   128
 43
0.0
 10
278.1886329726
 20
113.3885283695
 10
278.6094992408
 20
137.6216707686
 10
279.0401308593
 20
162.4219681531
  0
LWPOLYLINE
  5
113
330
1F
100
AcDbEntity
  8
0
  6
CONTINUOUS
 62
     8
100
AcDbPolyline
 90
        3
 70
   128
 43
0.0
 10
200.9602806029
 20
162.4219681531
 10
201.3909122194
 20
137.6216708846
 10
201.8117784093
 20
113.3885329911
  0
SPLINE
  5
114
330
1F
100
AcDbEntity
  8
0
  6
CONTINUOUS
 62
     8
100
AcDbSpline
210
0.0
220
0.0
230
1.0
 70
     8
 71
     3
 72
    26
 73
    22
 74
     0
 42
0.000000001
 43
0.00000001
 40
0.0
 40
0.0
 40
0.0
 40
0.0
 40
0.1250000000000005
 40
0.1250000000000005
 40
0.2500000000000009
 40
0.2500000000000009
 40
0.3125000000000011
 40
0.3125000000000011
 40
0.3750000000000012
 40
0.3750000000000012
 40
0.5000000000000013
 40
0.5000000000000013
 40
0.6250000000000016
 40
0.6250000000000016
 40
0.7500000000000018
 40
0.7500000000000018
 40
0.8125000000000014
 40
0.8125000000000014
 40
0.875000000000001
 40
0.875000000000001
 40
1.0
 40
1.0
 40
1.0
 40
1.0
 10
189.920490988677
 20
113.389978769907
 30
0.0
 10
189.9265951526073
 20
113.3894523382901
 30
0.0
 10
190.0086944590313
 20
113.3885413386227
 30
0.0
 10
190.3244826158865
 20
113.3863919036684
 30
0.0
 10
190.5551137590068
 20
113.3851806260315
 30
0.0
 10
191.0034611714297
 20
113.3835082198652
 30
0.0
 10
191.1701960945519
 20
113.3829734857335
 30
0.0
 10
191.5388925629086
 20
113.3819982949343
 30
0.0
 10
191.7420700463275
 20
113.3815563866845
 30
0.0
 10
192.3936742072719
 20
113.3804574671058
 30
0.0
 10
192.8851023894225
 20
113.380024766165
 30
0.0
 10
193.9800264206414
 20
113.3798848506866
 30
0.0
 10
194.5901897536801
 20
113.3801890287698
 30
0.0
 10
195.8771789049858
 20
113.381401093506
 30
0.0
 10
196.557403779552
 20
113.3823018591743
 30
0.0
 10
197.6335066053338
 20
113.3838351602144
 30
0.0
 10
198.003321259083
 20
113.3843778177935
 30
0.0
 10
198.7470733013069
 20
113.3854394627592
 30
0.0
 10
199.1223117065566
 20
113.3859601922707
 30
0.0
 10
200.2578992981297
 20
113.3873957936481
 30
0.0
 10
201.028025785221
 20
113.3881865706322
 30
0.0
 10
201.8117784092663
 20
113.3885329910922
 30
0.0
  0
LWPOLYLINE
  5
115
330
1F
100
AcDbEntity
  8
0
  6
CONTINUOUS
 62
     8
100
AcDbPolyline
 90
        3
 70
   128
 43
0.0
 10
189.9204909887
 20
113.3899787699
 10
189.5008320234
 20
137.6216708846
 10
189.071410254
 20
162.4219681531
  0
SPLINE
  5
116
330
1F
100
AcDbEntity
  8
0
  6
CONTINUOUS
 62
     8
100
AcDbSpline
210
0.0
220
0.0
230
1.0
 70
     8
 71
     3
 72
    16
 73
    12
 74
     0
 42
0.000000001
 43
0.00000001
 40
0.0
 40
0.0
 40
0.0
 40
0.0
 40
0.0729729098578176
 40
0.1491637748752312
 40
0.2287742866070967
 40
0.3119812738029923
 40
0.398939628717809
 40
0.4897850582115433
 40
0.6086331001784999
 40
0.74308104103756
 40
1.0
 40
1.0
 40
1.0
 40
1.0
 10
254.351874135708
 20
113.3709883123784
 30
0.0
 10
254.3527447621177
 20
113.4213628135314
 30
0.0
 10
254.3545244077701
 20
113.5243332276767
 30
0.0
 10
254.368239209942
 20
113.6817623570708
 30
0.0
 10
254.389908014898
 20
113.8453500223203
 30
0.0
 10
254.4204266838394
 20
114.0150981761675
 30
0.0
 10
254.4595249788369
 20
114.1910143444776
 30
0.0
 10
254.5115233473238
 20
114.3891169317234
 30
0.0
 10
254.5805812527726
 20
114.6164616663197
 30
0.0
 10
254.6933318284798
 20
114.9501598396465
 30
0.0
 10
254.788035811445
 20
115.2031873257288
 30
0.0
 10
254.8502057310886
 20
115.3692911999778
 30
0.0
  0
SPLINE
  5
117
330
1F
100
AcDbEntity
  8
0
  6
CONTINUOUS
 62
     8
100
AcDbSpline
210
0.0
220
0.0
230
1.0
 70
     8
 71
     3
 72
     8
 73
     4
 74
     0
 42
0.000000001
 43
0.00000001
 40
0.0
 40
0.0
 40
0.0
 40
0.0
 40
1.0
 40
1.0
 40
1.0
 40
1.0
 10
201.8117784092664
 20
113.3885329910922
 30
0.0
 10
219.3246828227099
 20
113.3696666104813
 30
0.0
 10
236.8383759271984
 20
113.3639996924679
 30
0.0
 10
254.351874135708
 20
113.3709883123784
 30
0.0
  0
SPLINE
  5
118
330
1F
100
AcDbEntity
  8
0
  6
CONTINUOUS
 62
     8
100
AcDbSpline
210
0.0
220
0.0
230
1.0
 70
     8
 71
     3
 72
     8
 73
     4
 74
     0
 42
0.000000001
 43
0.00000001
 40
0.0005038104004205
 40
0.0005038104004205
 40
0.0005038104004205
 40
0.0005038104004205
 40
0.0060386312915443
 40
0.0060386312915443
 40
0.0060386312915443
 40
0.0060386312915443
 10
272.6540017874071
 20
113.3830096012895
 30
0.0
 10
274.4988883474905
 20
113.3847016361121
 30
0.0
 10
276.3437661823439
 20
113.3865405726852
 30
0.0
 10
278.1886329726386
 20
113.3885283695095
 30
0.0
  0
SPLINE
  5
119
330
1F
100
AcDbEntity
  8
0
  6
CONTINUOUS
 62
     8
100
AcDbSpline
210
0.0
220
0.0
230
1.0
 70
     8
 71
     3
 72
    14
 73
    10
 74
     0
 42
0.000000001
 43
0.00000001
 40
0.0
 40
0.0
 40
0.0
 40
0.0
 40
0.2571457255745466
 40
0.3914224000793929
 40
0.5105582521837193
 40
0.6452717113123894
 40
0.7713818589753149
 40
0.8894119530407781
 40
1.0
 40
1.0
 40
1.0
 40
1.0
 10
272.1502057310889
 20
115.3703351168815
 30
0.0
 10
272.2130521094264
 20
115.2051606229923
 30
0.0
 10
272.3087156876958
 20
114.9537351066413
 30
0.0
 10
272.4227240008981
 20
114.6218565657888
 30
0.0
 10
272.5014200698043
 20
114.3669573911734
 30
0.0
 10
272.5668577570571
 20
114.114003332586
 30
0.0
 10
272.6163045954382
 20
113.8582796862766
 30
0.0
 10
272.647795255169
 20
113.6161687002676
 30
0.0
 10
272.6519783329337
 20
113.4590241620497
 30
0.0
 10
272.6540017874075
 20
113.3830096012895
 30
0.0
  0
ARC
  5
11A
330
1F
100
AcDbEntity
  8
0
  6
CONTINUOUS
 62
     8
100
AcDbCircle
 10
250.0821789494
 20
113.1182898773
 30
0.0
 40
28.10775314042059
100
AcDbArc
 50
358.5479226295
 51
0.5508716238
  0
ARC
  5
11B
330
1F
100
AcDbEntity
  8
0
  6
CONTINUOUS
 62
     8
100
AcDbCircle
 10
289.0800805634
 20
113.4074190389
 30
0.0
 40
0.9999920049330586
100
AcDbArc
 50
270.443163322
 51
359.000437534
  0
ARC
  5
11C
330
1F
100
AcDbEntity
  8
0
  6
CONTINUOUS
 62
     8
100
AcDbCircle
 10
190.9203308218
 20
113.4074234001
 30
0.0
 40
0.9999920035062505
100
AcDbArc
 50
180.9995623805
 51
269.5569644721
  0
ARC
  5
11D
330
1F
100
AcDbEntity
  8
0
  6
CONTINUOUS
 62
     8
100
AcDbCircle
 10
229.9180680021
 20
113.1182992167
 30
0.0
 40
28.10758867225526
100
AcDbArc
 50
179.4491347702
 51
181.4520955295
  0
SPLINE
  5
11E
330
1F
100
AcDbEntity
  8
0
  6
CONTINUOUS
 62
     8
100
AcDbSpline
210
0.0
220
0.0
230
1.0
 70
     8
 71
     3
 72
    10
 73
     6
 74
     0
 42
0.000000001
 43
0.00000001
 40
0.0
 40
0.0
 40
0.0
 40
0.0
 40
0.5
 40
0.5
 40
1.0
 40
1.0
 40
1.0
 40
1.0
 10
254.3504345418802
 20
112.3885956981225
 30
0.0
 10
254.3510452056083
 20
112.393092289154
 30
0.0
 10
254.3516039759302
 20
112.5003720369259
 30
0.0
 10
254.3521850575418
 20
112.8623782145609
 30
0.0
 10
254.3522013933612
 20
113.1150650685662
 30
0.0
 10
254.3518741357082
 20
113.3709883123784
 30
0.0
  0
SPLINE
  5
11F
330
1F
100
AcDbEntity
  8
0
  6
CONTINUOUS
 62
     8
100
AcDbSpline
210
0.0
220
0.0
230
1.0
 70
     8
 71
     3
 72
     8
 73
     4
 74
     0
 42
0.000000001
 43
0.00000001
 40
0.0
 40
0.0
 40
0.0
 40
0.0
 40
1.0
 40
1.0
 40
1.0
 40
1.0
 10
254.3504345418802
 20
112.3885956981226
 30
0.0
 10
236.8399748791666
 20
112.3816705280797
 30
0.0
 10
219.3292950536155
 20
112.3872361263111
 30
0.0
 10
201.8195057482217
 20
112.4060210169339
 30
0.0
  0
ARC
  5
120
330
1F
100
AcDbEntity
  8
0
  6
CONTINUOUS
 62
     8
100
AcDbCircle
 10
254.4761454556
 20
120.5077620177
 30
0.0
 40
7.137855580069278
100
AcDbArc
 50
269.0024200096
 51
273.0039690186
  0
ARC
  5
121
330
1F
100
AcDbEntity
  8
0
  6
CONTINUOUS
 62
     8
100
AcDbCircle
 10
254.3502443445
 20
112.8885570501
 30
0.0
 40
0.4999613881106912
100
AcDbArc
 50
270.0217967021
 51
359.9955816642
  0
ARC
  5
122
330
1F
100
AcDbEntity
  8
0
  6
CONTINUOUS
 62
     8
100
AcDbCircle
 10
272.5274606515
 20
120.6246907421
 30
0.0
 40
7.242786646333163
100
AcDbArc
 50
267.0142844765
 51
271.0010845658
  0
SPLINE
  5
123
330
1F
100
AcDbEntity
  8
0
  6
CONTINUOUS
 62
     8
100
AcDbSpline
210
0.0
220
0.0
230
1.0
 70
     8
 71
     3
 72
     8
 73
     4
 74
     0
 42
0.000000001
 43
0.00000001
 40
0.0
 40
0.0
 40
0.0
 40
0.0
 40
0.0055304122297508
 40
0.0055304122297508
 40
0.0055304122297508
 40
0.0055304122297508
 10
278.1809058443716
 20
112.4060164151684
 30
0.0
 10
276.3375180410382
 20
112.4040384415226
 30
0.0
 10
274.4941177667818
 20
112.4022101217378
 30
0.0
 10
272.6507076469578
 20
112.400528844345
 30
0.0
  0
SPLINE
  5
124
330
1F
100
AcDbEntity
  8
0
  6
CONTINUOUS
 62
     8
100
AcDbSpline
210
0.0
220
0.0
230
1.0
 70
     8
 71
     3
 72
    19
 73
    15
 74
     0
 42
0.000000001
 43
0.00000001
 40
0.0
 40
0.0
 40
0.0
 40
0.0
 40
0.0672183842747894
 40
0.1373680129805853
 40
0.2104485463397411
 40
0.2864596280747596
 40
0.3654008856749026
 40
0.4472719306184529
 40
0.5320723585522603
 40
0.6198017494473793
 40
0.7104596677253878
 40
0.804045662366752
 40
0.9005592670029388
 40
1.0
 40
1.0
 40
1.0
 40
1.0
 10
272.6540017874071
 20
113.3830096012895
 30
0.0
 10
272.6540129179932
 20
113.3484904349505
 30
0.0
 10
272.6540356645455
 20
113.2779467981035
 30
0.0
 10
272.654028848875
 20
113.1713051650395
 30
0.0
 10
272.6539799107599
 20
113.0630185412079
 30
0.0
 10
272.6538766496281
 20
112.9549104526502
 30
0.0
 10
272.6537115120245
 20
112.8490796789822
 30
0.0
 10
272.6534780445146
 20
112.7479178527543
 30
0.0
 10
272.6531726608976
 20
112.6540559485134
 30
0.0
 10
272.6527949598828
 20
112.570370069373
 30
0.0
 10
272.6523483470008
 20
112.4997037694775
 30
0.0
 10
272.6518409527172
 20
112.4455912254893
 30
0.0
 10
272.651284723481
 20
112.4089612345012
 30
0.0
 10
272.6509015271842
 20
112.4033674934552
 30
0.0
 10
272.6507070669794
 20
112.400528843816
 30
0.0
  0
ARC
  5
125
330
1F
100
AcDbEntity
  8
0
  6
CONTINUOUS
 62
     8
100
AcDbCircle
 10
272.650189941
 20
112.9005127866
 30
0.0
 40
0.4999842102039068
100
AcDbArc
 50
180.0018162783
 51
270.0592601494
  0
LINE
  5
126
330
1F
100
AcDbEntity
  8
0
  6
CONTINUOUS
 62
     8
100
AcDbLine
 10
254.3518701886
 20
112.1458848924
 30
0.0
 11
254.3504345419
 21
112.3885956981
 31
0.0
  0
SPLINE
  5
127
330
1F
100
AcDbEntity
  8
0
  6
CONTINUOUS
 62
     8
100
AcDbSpline
210
0.0
220
0.0
230
1.0
 70
     8
 71
     3
 72
    15
 73
    11
 74
     0
 42
0.000000001
 43
0.00000001
 40
0.0
 40
0.0
 40
0.0
 40
0.0
 40
0.1424144988873781
 40
0.2849750525368676
 40
0.4276808075043651
 40
0.5705309171879658
 40
0.713524539890203
 40
0.8566608368558053
 40
0.9999389702885261
 40
1.0
 40
1.0
 40
1.0
 40
1.0
 10
272.6507070669794
 20
112.400528843816
 30
0.0
 10
272.6510050642437
 20
112.3864152290435
 30
0.0
 10
272.6516013643867
 20
112.3581735251249
 30
0.0
 10
272.6523198628421
 20
112.3236696315604
 30
0.0
 10
272.6529198025687
 20
112.2949637816869
 30
0.0
 10
272.653390840877
 20
112.2726699727785
 30
0.0
 10
272.6537360135558
 20
112.2566810397714
 30
0.0
 10
272.6539500601951
 20
112.2470743806367
 30
0.0
 10
272.6540001684091
 20
112.2449372369095
 30
0.0
 10
272.6540001168748
 20
112.244939075401
 30
0.0
 10
272.6540001168529
 20
112.2449390761838
 30
0.0
  0
SPLINE
  5
128
330
1F
100
AcDbEntity
  8
0
  6
CONTINUOUS
 62
     8
100
AcDbSpline
210
0.0
220
0.0
230
1.0
 70
     8
 71
     3
 72
     9
 73
     5
 74
     0
 42
0.000000001
 43
0.00000001
 40
0.0
 40
0.0
 40
0.0
 40
0.0
 40
0.8946388018180061
 40
0.9999999999999999
 40
0.9999999999999999
 40
0.9999999999999999
 40
0.9999999999999999
 10
290.079920397937
 20
113.3899744071937
 30
0.0
 10
290.1182761886496
 20
113.385898481077
 30
0.0
 10
290.1611491231063
 20
113.3813425350254
 30
0.0
 10
290.1397126695304
 20
113.3836213120581
 30
0.0
 10
290.1374540990969
 20
113.3838614067366
 30
0.0
  0
LINE
  5
129
330
1F
100
AcDbEntity
  8
0
  6
CONTINUOUS
 62
     8
100
AcDbLine
 10
189.8629572931
 20
113.3838654318
 30
0.0
 11
189.9204909887
 21
113.3899787699
 31
0.0
  0
SPLINE
  5
12A
330
1F
100
AcDbEntity
  8
0
  6
CONTINUOUS
 62
     7
100
AcDbSpline
210
0.0
220
0.0
230
1.0
 70
     8
 71
     3
 72
    10
 73
     6
 74
     0
 42
0.000000001
 43
0.00000001
 40
0.0
 40
0.0
 40
0.0
 40
0.0
 40
0.3312411739226696
 40
0.6687588574733746
 40
1.0
 40
1.0
 40
1.0
 40
1.0
 10
455.6497685347612
 20
238.0095065918627
 30
0.0
 10
455.7438561972358
 20
244.1146444372766
 30
0.0
 10
455.93381433835
 20
256.4406030790292
 30
0.0
 10
455.9338461068073
 20
274.8747599257733
 30
0.0
 10
455.7438705888595
 20
287.2007177724015
 30
0.0
 10
455.6497743240128
 20
293.3058549319372
 30
0.0
  0
LINE
  5
12B
330
1F
100
AcDbEntity
  8
0
  6
CONTINUOUS
 62
     7
100
AcDbLine
 10
405.6154856093
 20
236.1576801568
 30
0.0
 11
454.6678636342
 21
237.0138926001
 31
0.0
  0
LINE
  5
12C
330
1F
100
AcDbEntity
  8
0
  6
CONTINUOUS
 62
     7
100
AcDbLine
 10
454.6678700443
 20
294.3014676016
 30
0.0
 11
405.6154856093
 21
295.1576801568
 31
0.0
  0
ARC
  5
12D
330
1F
100
AcDbEntity
  8
0
  6
CONTINUOUS
 62
     7
100
AcDbCircle
 10
454.6518653219
 20
238.0137656765
 30
0.0
 40
1.000000000000032
100
AcDbArc
 50
270.8386734183
 51
359.7907991664
  0
ARC
  5
12E
330
1F
100
AcDbEntity
  8
0
  6
CONTINUOUS
 62
     7
100
AcDbCircle
 10
454.6518720836
 20
293.301594519
 30
0.0
 40
0.9999999999999638
100
AcDbArc
 50
0.2198377739
 51
89.1157305095
  0
SPLINE
  5
12F
330
1F
100
AcDbEntity
  8
0
  6
CONTINUOUS
 62
     7
100
AcDbSpline
210
0.0
220
0.0
230
1.0
 70
    24
 71
     3
 72
    26
 73
    22
 74
     0
 42
0.000000001
 43
0.00000001
 40
0.0
 40
0.0
 40
0.0
 40
0.0
 40
0.1249999999999999
 40
0.1249999999999999
 40
0.1874999999999999
 40
0.1874999999999999
 40
0.2499999999999998
 40
0.2499999999999998
 40
0.3750000000000002
 40
0.3750000000000002
 40
0.5000000000000006
 40
0.5000000000000006
 40
0.6250000000000009
 40
0.6250000000000009
 40
0.6875000000000011
 40
0.6875000000000011
 40
0.7500000000000012
 40
0.7500000000000012
 40
0.8750000000000007
 40
0.8750000000000007
 40
1.0
 40
1.0
 40
1.0
 40
1.0
 10
405.6154856093464
 20
236.3348564377555
 30
0.0
 10
405.6154856093464
 20
236.3419677795796
 30
0.0
 10
405.6154856093464
 20
236.42494303482
 30
0.0
 10
405.6154856093464
 20
236.6585477526894
 30
0.0
 10
405.6154856093464
 20
236.7547385838591
 30
0.0
 10
405.6154856093464
 20
236.9845629848411
 30
0.0
 10
405.6154856093464
 20
237.1189302435995
 30
0.0
 10
405.6154856093464
 20
237.5704382171386
 30
0.0
 10
405.6154856093464
 20
237.937094398981
 30
0.0
 10
405.6154856093464
 20
238.8001252478442
 30
0.0
 10
405.6154856093464
 20
239.3017656472913
 30
0.0
 10
405.6154856093464
 20
240.3966355346797
 30
0.0
 10
405.6154856093464
 20
240.9930265238985
 30
0.0
 10
405.6154856093464
 20
241.9623273526446
 30
0.0
 10
405.6154856093464
 20
242.299048628112
 30
0.0
 10
405.6154856093464
 20
242.9834049765444
 30
0.0
 10
405.6154856093464
 20
243.3326331849272
 30
0.0
 10
405.6154856093464
 20
244.4010711383703
 30
0.0
 10
405.6154856093464
 20
245.1425724241105
 30
0.0
 10
405.6154856093464
 20
246.6759391703974
 30
0.0
 10
405.6154856093464
 20
247.4510033470618
 30
0.0
 10
405.6154856093464
 20
248.2344688307912
 30
0.0
  0
SPLINE
  5
130
330
1F
100
AcDbEntity
  8
0
  6
CONTINUOUS
 62
     7
100
AcDbSpline
210
0.0
220
0.0
230
1.0
 70
    24
 71
     3
 72
    26
 73
    22
 74
     0
 42
0.000000001
 43
0.00000001
 40
0.0
 40
0.0
 40
0.0
 40
0.0
 40
0.1250000000000001
 40
0.1250000000000001
 40
0.1875000000000001
 40
0.1875000000000001
 40
0.2500000000000001
 40
0.2500000000000001
 40
0.3749999999999995
 40
0.3749999999999995
 40
0.4999999999999989
 40
0.4999999999999989
 40
0.6249999999999984
 40
0.6249999999999984
 40
0.6874999999999988
 40
0.6874999999999988
 40
0.749999999999999
 40
0.749999999999999
 40
0.8749999999999994
 40
0.8749999999999994
 40
1.0
 40
1.0
 40
1.0
 40
1.0
 10
405.6154856093464
 20
283.0808914827422
 30
0.0
 10
405.6154856093464
 20
283.8643561070569
 30
0.0
 10
405.6154856093464
 20
284.6342612413128
 30
0.0
 10
405.6154856093464
 20
285.769611543727
 30
0.0
 10
405.6154856093464
 20
286.1447867673051
 30
0.0
 10
405.6154856093464
 20
286.8884449095248
 30
0.0
 10
405.6154856093464
 20
287.2582398018081
 30
0.0
 10
405.6154856093464
 20
288.3343638594878
 30
0.0
 10
405.6154856093464
 20
289.0146732659269
 30
0.0
 10
405.6154856093464
 20
290.3019736844354
 30
0.0
 10
405.6154856093464
 20
290.9124049511587
 30
0.0
 10
405.6154856093464
 20
292.0080403673894
 30
0.0
 10
405.6154856093464
 20
292.4998872253998
 30
0.0
 10
405.6154856093464
 20
293.1522375125846
 30
0.0
 10
405.6154856093464
 20
293.3557065856129
 30
0.0
 10
405.6154856093464
 20
293.7250271938636
 30
0.0
 10
405.6154856093464
 20
293.8920883919911
 30
0.0
 10
405.6154856093464
 20
294.3414651417752
 30
0.0
 10
405.6154856093464
 20
294.572830993597
 30
0.0
 10
405.6154856093464
 20
294.8903615665205
 30
0.0
 10
405.6154856093464
 20
294.9733925261534
 30
0.0
 10
405.6154856093464
 20
294.9805038757781
 30
0.0
  0
LINE
  5
131
330
1F
100
AcDbEntity
  8
0
  6
CONTINUOUS
 62
     7
100
AcDbLine
 10
405.6154856093
 20
283.0808914827
 30
0.0
 11
405.6154856093
 21
248.2344688308
 31
0.0
  0
SPLINE
  5
132
330
1F
100
AcDbEntity
  8
0
  6
CONTINUOUS
 62
     7
100
AcDbSpline
210
0.0
220
0.0
230
1.0
 70
     8
 71
     3
 72
    26
 73
    22
 74
     0
 42
0.000000001
 43
0.00000001
 40
0.0
 40
0.0
 40
0.0
 40
0.0
 40
0.1250000000000012
 40
0.1250000000000012
 40
0.1875000000000017
 40
0.1875000000000017
 40
0.2500000000000023
 40
0.2500000000000023
 40
0.375000000000003
 40
0.375000000000003
 40
0.5000000000000037
 40
0.5000000000000037
 40
0.6250000000000043
 40
0.6250000000000043
 40
0.6875000000000042
 40
0.6875000000000042
 40
0.750000000000004
 40
0.750000000000004
 40
0.875000000000002
 40
0.875000000000002
 40
1.0
 40
1.0
 40
1.0
 40
1.0
 10
455.6299924121246
 20
249.0943880010995
 30
0.0
 10
455.6294004358667
 20
248.3756238221094
 30
0.0
 10
455.629317568151
 20
247.669319075074
 30
0.0
 10
455.6296078669486
 20
246.6277743393667
 30
0.0
 10
455.6297741975112
 20
246.2835998901529
 30
0.0
 10
455.630191558384
 20
245.601393955676
 30
0.0
 10
455.630443718686
 20
245.2621748300378
 30
0.0
 10
455.6312299401914
 20
244.2750458869648
 30
0.0
 10
455.6317916829413
 20
243.6509819165259
 30
0.0
 10
455.6326489339409
 20
242.4700422906294
 30
0.0
 10
455.6329404549729
 20
241.9100558513074
 30
0.0
 10
455.6330841984776
 20
240.9047949385125
 30
0.0
 10
455.6329429417281
 20
240.4534180167114
 30
0.0
 10
455.6324931816303
 20
239.8546007688628
 30
0.0
 10
455.6323044899474
 20
239.6678200103903
 30
0.0
 10
455.6318966340834
 20
239.3287333325196
 30
0.0
 10
455.6316769236176
 20
239.1753137893909
 30
0.0
 10
455.6310455473588
 20
238.7625433819701
 30
0.0
 10
455.6306557936879
 20
238.5498760719626
 30
0.0
 10
455.6304605110598
 20
238.2578610619685
 30
0.0
 10
455.6306609913091
 20
238.1813492016118
 30
0.0
 10
455.631432008359
 20
238.1745746617285
 30
0.0
  0
SPLINE
  5
133
330
1F
100
AcDbEntity
  8
0
  6
CONTINUOUS
 62
     7
100
AcDbSpline
210
0.0
220
0.0
230
1.0
 70
     8
 71
     3
 72
    26
 73
    22
 74
     0
 42
0.000000001
 43
0.00000001
 40
0.0
 40
0.0
 40
0.0
 40
0.0
 40
0.1249999999999981
 40
0.1249999999999981
 40
0.1874999999999978
 40
0.1874999999999978
 40
0.2499999999999974
 40
0.2499999999999974
 40
0.3749999999999978
 40
0.3749999999999978
 40
0.4999999999999982
 40
0.4999999999999982
 40
0.6249999999999986
 40
0.6249999999999986
 40
0.6874999999999988
 40
0.6874999999999988
 40
0.749999999999999
 40
0.749999999999999
 40
0.8749999999999996
 40
0.8749999999999996
 40
1.0
 40
1.0
 40
1.0
 40
1.0
 10
455.6314327455622
 20
293.140786000757
 30
0.0
 10
455.6306616474994
 20
293.1340113927544
 30
0.0
 10
455.6304643702807
 20
293.0575519564471
 30
0.0
 10
455.630603122859
 20
292.8426978574036
 30
0.0
 10
455.6307226740095
 20
292.7542640137375
 30
0.0
 10
455.6310454307545
 20
292.5430468982675
 30
0.0
 10
455.6312495537951
 20
292.4195953210594
 30
0.0
 10
455.6318846564098
 20
292.0048770894492
 30
0.0
 10
455.6323343150444
 20
291.6682087851475
 30
0.0
 10
455.6329361224645
 20
290.8760002049273
 30
0.0
 10
455.6330838158113
 20
290.4156680974228
 30
0.0
 10
455.6329429496885
 20
289.4111090947947
 30
0.0
 10
455.6326607574652
 20
288.8639619934874
 30
0.0
 10
455.6320180656973
 20
287.9747336849173
 30
0.0
 10
455.6317679391378
 20
287.6658629795291
 30
0.0
 10
455.6312460911285
 20
287.0381167376858
 30
0.0
 10
455.6309734850757
 20
286.7177706887066
 30
0.0
 10
455.6301918831131
 20
285.7376681675232
 30
0.0
 10
455.629714778479
 20
285.0573542457551
 30
0.0
 10
455.6293152473511
 20
283.6507524099154
 30
0.0
 10
455.6294004971555
 20
282.9397338567663
 30
0.0
 10
455.6299924710552
 20
282.2209723116581
 30
0.0
  0
SPLINE
  5
134
330
1F
100
AcDbEntity
  8
0
  6
CONTINUOUS
 62
     7
100
AcDbSpline
210
0.0
220
0.0
230
1.0
 70
     8
 71
     3
 72
     9
 73
     5
 74
     0
 42
0.000000001
 43
0.00000001
 40
0.0
 40
0.0
 40
0.0
 40
0.0
 40
0.2200781606684403
 40
1.0
 40
1.0
 40
1.0
 40
1.0
 10
455.6500388652561
 20
293.3058583358754
 30
0.0
 10
455.6504709983049
 20
293.3097169298921
 30
0.0
 10
455.652434541836
 20
293.3272497646133
 30
0.0
 10
455.6409762646155
 20
293.2255167499257
 30
0.0
 10
455.6320397039701
 20
293.1461729499898
 30
0.0
  0
SPLINE
  5
135
330
1F
100
AcDbEntity
  8
0
  6
CONTINUOUS
 62
     7
100
AcDbSpline
210
0.0
220
0.0
230
1.0
 70
     8
 71
     3
 72
     9
 73
     5
 74
     0
 42
0.000000001
 43
0.00000001
 40
0.0
 40
0.0
 40
0.0
 40
0.0
 40
0.7802584761313198
 40
1.0
 40
1.0
 40
1.0
 40
1.0
 10
455.6320079797055
 20
238.1694615561258
 30
0.0
 10
455.6409588058542
 20
238.0899768469073
 30
0.0
 10
455.6524304225331
 20
237.9881071311015
 30
0.0
 10
455.6504647097207
 20
238.0056486024841
 30
0.0
 10
455.6500327609918
 20
238.0095031921366
 30
0.0
  0
LINE
  5
136
330
1F
100
AcDbEntity
  8
0
  6
CONTINUOUS
 62
     7
100
AcDbLine
 10
433.1154856093
 20
236.6476418776
 30
0.0
 11
437.6154856093
 21
236.7261898514
 31
0.0
  0
SPLINE
  5
137
330
1F
100
AcDbEntity
  8
0
  6
CONTINUOUS
 62
     7
100
AcDbSpline
210
0.0
220
0.0
230
1.0
 70
     8
 71
     3
 72
    51
 73
    47
 74
     0
 42
0.000000001
 43
0.00000001
 40
0.0
 40
0.0
 40
0.0
 40
0.0
 40
0.0625000000000006
 40
0.0625000000000006
 40
0.0937500000000011
 40
0.0937500000000011
 40
0.1250000000000016
 40
0.1250000000000016
 40
0.1875000000000021
 40
0.1875000000000021
 40
0.2187500000000022
 40
0.2187500000000022
 40
0.2500000000000023
 40
0.2500000000000023
 40
0.3125000000000024
 40
0.3125000000000024
 40
0.3437500000000023
 40
0.3437500000000023
 40
0.3750000000000023
 40
0.4062500000000022
 40
0.4062500000000022
 40
0.4375000000000021
 40
0.4375000000000021
 40
0.500000000000002
 40
0.500000000000002
 40
0.5312500000000018
 40
0.5312500000000018
 40
0.5625000000000014
 40
0.5625000000000014
 40
0.6250000000000011
 40
0.6250000000000011
 40
0.6562500000000011
 40
0.6562500000000011
 40
0.687500000000001
 40
0.687500000000001
 40
0.7500000000000007
 40
0.7500000000000007
 40
0.8125000000000002
 40
0.8125000000000002
 40
0.8437500000000002
 40
0.8437500000000002
 40
0.8750000000000002
 40
0.8750000000000002
 40
0.9375000000000001
 40
0.9375000000000001
 40
1.0
 40
1.0
 40
1.0
 40
1.0
 10
437.6154856093464
 20
236.8590718747747
 30
0.0
 10
438.4675709817401
 20
236.8739455742463
 30
0.0
 10
439.3054359058597
 20
236.8878874253712
 30
0.0
 10
440.5417724528806
 20
236.9074803254361
 30
0.0
 10
440.95044914534
 20
236.9137900695212
 30
0.0
 10
441.7607743676103
 20
236.9259656675901
 30
0.0
 10
442.1635262879585
 20
236.9318453493816
 30
0.0
 10
443.3351009973969
 20
236.9484498128833
 30
0.0
 10
444.076002570948
 20
236.9582792793448
 30
0.0
 10
445.1276677190144
 20
236.9712697602407
 30
0.0
 10
445.4693268180879
 20
236.9753183495463
 30
0.0
 10
446.126802411964
 20
236.9827653690571
 30
0.0
 10
446.4396836955528
 20
236.9861319695111
 30
0.0
 10
447.3322433157157
 20
236.995221474967
 30
0.0
 10
447.86627361976
 20
236.9999434309208
 30
0.0
 10
448.573621151093
 20
237.005080121406
 30
0.0
 10
448.7932532614965
 20
237.0064595181301
 30
0.0
 10
449.1913065687712
 20
237.0085188616109
 30
0.0
 10
449.5509148768261
 20
237.00990007789
 30
0.0
 10
449.8347984357417
 20
237.0099734072574
 30
0.0
 10
450.0803047968078
 20
237.0093954372552
 30
0.0
 10
450.1842706679748
 20
237.0087752117267
 30
0.0
 10
450.4329171820578
 20
237.005951525834
 30
0.0
 10
450.514946737138
 20
237.0028239491828
 30
0.0
 10
450.5157511141616
 20
236.9963360027782
 30
0.0
 10
450.4954992347375
 20
236.99387131584
 30
0.0
 10
450.4127092632376
 20
236.9883177230359
 30
0.0
 10
450.3502104684047
 20
236.9852426665896
 30
0.0
 10
450.1035942407501
 20
236.9752723892334
 30
0.0
 10
449.8602513193176
 20
236.9675917915995
 30
0.0
 10
449.3761912281062
 20
236.9544513116427
 30
0.0
 10
449.1936574357238
 20
236.9497706783628
 30
0.0
 10
448.794425079213
 20
236.9400085617718
 30
0.0
 10
448.5777408917586
 20
236.9349239657211
 30
0.0
 10
447.8777161072533
 20
236.9190504250663
 30
0.0
 10
447.3448908007461
 20
236.9076487946054
 30
0.0
 10
446.1418129520683
 20
236.8829974802831
 30
0.0
 10
445.4890707859699
 20
236.870106981692
 30
0.0
 10
444.4417073064136
 20
236.8499619661506
 30
0.0
 10
444.0808333972795
 20
236.8431053462771
 30
0.0
 10
443.3350871429893
 20
236.8290867144035
 30
0.0
 10
442.9484903510495
 20
236.8218934404323
 30
0.0
 10
441.7763283292735
 20
236.8002762293398
 30
0.0
 10
440.9724217863393
 20
236.7856971875541
 30
0.0
 10
439.3202396251825
 20
236.7561279008831
 30
0.0
 10
438.4675722371423
 20
236.7410631132396
 30
0.0
 10
437.6154856093464
 20
236.7261898514244
 30
0.0
  0
LINE
  5
138
330
1F
100
AcDbEntity
  8
0
  6
CONTINUOUS
 62
     7
100
AcDbLine
 10
433.1154856093
 20
236.7805214739
 30
0.0
 11
437.6154856093
 21
236.8590718748
 31
0.0
  0
SPLINE
  5
139
330
1F
100
AcDbEntity
  8
0
  6
CONTINUOUS
 62
     7
100
AcDbSpline
210
0.0
220
0.0
230
1.0
 70
     8
 71
     3
 72
    17
 73
    13
 74
     0
 42
0.000000001
 43
0.00000001
 40
0.0
 40
0.0
 40
0.0
 40
0.0
 40
0.1074085103028461
 40
0.2148170680586388
 40
0.3222303591171601
 40
0.4296436257175146
 40
0.5370588610256203
 40
0.6444740038848181
 40
0.7518768010187146
 40
0.8592794873107968
 40
0.9666596464025368
 40
1.0
 40
1.0
 40
1.0
 40
1.0
 10
433.1154856093464
 20
236.7805214738991
 30
0.0
 10
432.3901910438974
 20
236.7675637603506
 30
0.0
 10
430.9396015925652
 20
236.7416483275288
 30
0.0
 10
428.8242531982444
 20
236.7001661965566
 30
0.0
 10
426.8331993428885
 20
236.6583486818691
 30
0.0
 10
425.0169451961165
 20
236.6173335051627
 30
0.0
 10
423.4348497173471
 20
236.5786560578919
 30
0.0
 10
422.1239074315148
 20
236.5436034744265
 30
0.0
 10
421.1244611017052
 20
236.5134482156797
 30
0.0
 10
420.4849597610801
 20
236.4897130527066
 30
0.0
 10
420.1984596807849
 20
236.4752712263571
 30
0.0
 10
420.2446880122808
 20
236.4713257963101
 30
0.0
 10
420.2556407077254
 20
236.4703910211992
 30
0.0
  0
SPLINE
  5
13A
330
1F
100
AcDbEntity
  8
0
  6
CONTINUOUS
 62
     7
100
AcDbSpline
210
0.0
220
0.0
230
1.0
 70
     8
 71
     3
 72
    28
 73
    24
 74
     0
 42
0.000000001
 43
0.00000001
 40
0.0
 40
0.0
 40
0.0
 40
0.0
 40
0.1249999999999991
 40
0.1249999999999991
 40
0.1874999999999989
 40
0.1874999999999989
 40
0.2499999999999986
 40
0.2499999999999986
 40
0.3749999999999984
 40
0.3749999999999984
 40
0.4374999999999984
 40
0.4374999999999984
 40
0.4999999999999983
 40
0.4999999999999983
 40
0.6249999999999988
 40
0.6249999999999988
 40
0.6874999999999988
 40
0.6874999999999988
 40
0.7499999999999987
 40
0.7499999999999987
 40
0.8749999999999993
 40
0.8749999999999993
 40
1.0
 40
1.0
 40
1.0
 40
1.0
 10
420.3025916018116
 20
236.4636342009882
 30
0.0
 10
420.3941108709564
 20
236.4614690611728
 30
0.0
 10
420.555476403354
 20
236.4608351787981
 30
0.0
 10
420.8979213173999
 20
236.4620510901047
 30
0.0
 10
421.0289102895838
 20
236.4628196052871
 30
0.0
 10
421.325108458993
 20
236.4650854841961
 30
0.0
 10
421.4912868263943
 20
236.4665932216985
 30
0.0
 10
422.0353482277836
 20
236.472154020982
 30
0.0
 10
422.4564727308816
 20
236.4772072985188
 30
0.0
 10
423.1733412273754
 20
236.4866724553339
 30
0.0
 10
423.4265827830919
 20
236.4901436392449
 30
0.0
 10
423.9623020147604
 20
236.4977185343919
 30
0.0
 10
424.2456406910928
 20
236.5018360176825
 30
0.0
 10
425.1227779391933
 20
236.514874437914
 30
0.0
 10
425.7483686800235
 20
236.5245423019546
 30
0.0
 10
426.7471519114484
 20
236.5404052265804
 30
0.0
 10
427.0902068555931
 20
236.5459212708142
 30
0.0
 10
427.7971939126899
 20
236.5574117403335
 30
0.0
 10
428.1583951873967
 20
236.5633421497211
 30
0.0
 10
429.2527852365151
 20
236.581466267227
 30
0.0
 10
430.0014657961739
 20
236.5940670181909
 30
0.0
 10
431.5370102884668
 20
236.620245035073
 30
0.0
 10
432.3267420990607
 20
236.6338742765381
 30
0.0
 10
433.1154856093464
 20
236.6476418775658
 30
0.0
  0
LINE
  5
13B
330
1F
100
AcDbEntity
  8
0
  6
CONTINUOUS
 62
     7
100
AcDbLine
 10
405.6154856093
 20
236.3348564378
 30
0.0
 11
405.6154856093
 21
236.1576801568
 31
0.0
  0
LINE
  5
13C
330
1F
100
AcDbEntity
  8
0
  6
CONTINUOUS
 62
     7
100
AcDbLine
 10
405.6154856093
 20
295.1576801568
 30
0.0
 11
405.6154856093
 21
294.9805038758
 31
0.0
  0
LWPOLYLINE
  5
13D
330
1F
100
AcDbEntity
  8
0
  6
CONTINUOUS
 62
     8
100
AcDbPolyline
 90
        3
 70
   128
 43
0.0
 10
405.6154856093
 20
248.2344688308
 10
430.4157828769
 20
248.6659095146
 10
454.6474749332
 20
249.0874996415
  0
SPLINE
  5
13E
330
1F
100
AcDbEntity
  8
0
  6
CONTINUOUS
 62
     8
100
AcDbSpline
210
0.0
220
0.0
230
1.0
 70
     8
 71
     3
 72
    26
 73
    22
 74
     0
 42
0.000000001
 43
0.00000001
 40
0.0
 40
0.0
 40
0.0
 40
0.0
 40
0.1249999999999997
 40
0.1249999999999997
 40
0.2499999999999994
 40
0.2499999999999994
 40
0.3124999999999987
 40
0.3124999999999987
 40
0.374999999999998
 40
0.374999999999998
 40
0.4999999999999982
 40
0.4999999999999982
 40
0.6249999999999983
 40
0.6249999999999983
 40
0.7499999999999986
 40
0.7499999999999986
 40
0.812499999999999
 40
0.812499999999999
 40
0.8749999999999994
 40
0.8749999999999994
 40
1.0
 40
1.0
 40
1.0
 40
1.0
 10
454.6489200310473
 20
237.1831273314443
 30
0.0
 10
454.6492665296252
 20
237.1900936053623
 30
0.0
 10
454.6500614182862
 20
237.2730462899695
 30
0.0
 10
454.6520051749462
 20
237.5905228016734
 30
0.0
 10
454.6531285594271
 20
237.8219707332854
 30
0.0
 10
454.6546501449054
 20
238.2714940850531
 30
0.0
 10
454.655131819254
 20
238.4386132501787
 30
0.0
 10
454.6559927372105
 20
238.8080623720338
 30
0.0
 10
454.6563730923695
 20
239.011610053835
 30
0.0
 10
454.6572787715905
 20
239.6642800087973
 30
0.0
 10
454.65757039357
 20
240.1563635324818
 30
0.0
 10
454.657425401984
 20
241.252490320593
 30
0.0
 10
454.6569772414761
 20
241.8632046013886
 30
0.0
 10
454.6555093273798
 20
243.1511416935673
 30
0.0
 10
454.6544962193714
 20
243.831769327808
 30
0.0
 10
454.6528111972134
 20
244.9083681998578
 30
0.0
 10
454.6522202645787
 20
245.2783305031107
 30
0.0
 10
454.6510634623064
 20
246.0223349931208
 30
0.0
 10
454.6504956367056
 20
246.3976790082102
 30
0.0
 10
454.6489074254181
 20
247.5335228678613
 30
0.0
 10
454.6480013641926
 20
248.3037400338827
 30
0.0
 10
454.6474749331671
 20
249.0874996414512
 30
0.0
  0
LWPOLYLINE
  5
13F
330
1F
100
AcDbEntity
  8
0
  6
CONTINUOUS
 62
     8
100
AcDbPolyline
 90
        3
 70
   128
 43
0.0
 10
454.648920031
 20
237.1831273314
 10
430.4157828769
 20
236.7638774574
 10
405.6154856093
 20
236.3348564378
  0
LWPOLYLINE
  5
140
330
1F
100
AcDbEntity
  8
0
  6
CONTINUOUS
 62
     8
100
AcDbPolyline
 90
        3
 70
   128
 43
0.0
 10
405.6154856093
 20
294.9805038758
 10
430.4157828779
 20
294.5514828561
 10
454.6489207714
 20
294.1322329693
  0
SPLINE
  5
141
330
1F
100
AcDbEntity
  8
0
  6
CONTINUOUS
 62
     8
100
AcDbSpline
210
0.0
220
0.0
230
1.0
 70
     8
 71
     3
 72
    26
 73
    22
 74
     0
 42
0.000000001
 43
0.00000001
 40
0.0
 40
0.0
 40
0.0
 40
0.0
 40
0.1250000000000005
 40
0.1250000000000005
 40
0.2500000000000009
 40
0.2500000000000009
 40
0.3125000000000011
 40
0.3125000000000011
 40
0.3750000000000012
 40
0.3750000000000012
 40
0.5000000000000013
 40
0.5000000000000013
 40
0.6250000000000016
 40
0.6250000000000016
 40
0.7500000000000018
 40
0.7500000000000018
 40
0.8125000000000014
 40
0.8125000000000014
 40
0.875000000000001
 40
0.875000000000001
 40
1.0
 40
1.0
 40
1.0
 40
1.0
 10
454.6474749925891
 20
282.2278606710486
 30
0.0
 10
454.648001424206
 20
283.0116209057248
 30
0.0
 10
454.6489124238734
 20
283.7869773278838
 30
0.0
 10
454.6510618588277
 20
285.3209273440125
 30
0.0
 10
454.6522731364646
 20
286.0628879869551
 30
0.0
 10
454.6539455426309
 20
287.1318081574468
 30
0.0
 10
454.6544802767626
 20
287.4811877496449
 30
0.0
 10
454.6554554675618
 20
288.1658302373533
 30
0.0
 10
454.6558973758117
 20
288.502702422745
 30
0.0
 10
454.6569962953903
 20
289.4725142425967
 30
0.0
 10
454.6574289963311
 20
290.0691915343151
 30
0.0
 10
454.6575689118095
 20
291.1645524420884
 30
0.0
 10
454.6572647337263
 20
291.6664243499917
 30
0.0
 10
454.6560526689901
 20
292.5298555245467
 30
0.0
 10
454.6551519033218
 20
292.8966578049016
 30
0.0
 10
454.6536186022818
 20
293.3483075969325
 30
0.0
 10
454.6530759447026
 20
293.4827127035549
 30
0.0
 10
454.6520142997369
 20
293.7125864516893
 30
0.0
 10
454.6514935702254
 20
293.8087857755363
 30
0.0
 10
454.650057968848
 20
294.0423685790102
 30
0.0
 10
454.6492671918639
 20
294.1252667015081
 30
0.0
 10
454.6489207714039
 20
294.1322329692804
 30
0.0
  0
LWPOLYLINE
  5
142
330
1F
100
AcDbEntity
  8
0
  6
CONTINUOUS
 62
     8
100
AcDbPolyline
 90
        3
 70
   128
 43
0.0
 10
454.6474749926
 20
282.227860671
 10
430.4157828779
 20
282.6494507989
 10
405.6154856093
 20
283.0808914827
  0
SPLINE
  5
143
330
1F
100
AcDbEntity
  8
0
  6
CONTINUOUS
 62
     8
100
AcDbSpline
210
0.0
220
0.0
230
1.0
 70
     8
 71
     3
 72
     8
 73
     4
 74
     0
 42
0.000000001
 43
0.00000001
 40
0.0
 40
0.0
 40
0.0
 40
0.0
 40
1.0
 40
1.0
 40
1.0
 40
1.0
 10
454.6474749331671
 20
249.0874996414513
 30
0.0
 10
454.6566059971844
 20
260.1341202409493
 30
0.0
 10
454.6566060539928
 20
271.1812400686717
 30
0.0
 10
454.6474749925891
 20
282.2278606710486
 30
0.0
  0
ARC
  5
144
330
1F
100
AcDbEntity
  8
0
  6
CONTINUOUS
 62
     8
100
AcDbCircle
 10
454.6314762792
 20
238.1829661146
 30
0.0
 40
0.9999909383181218
100
AcDbArc
 50
270.9995131101
 51
359.5191951684
  0
ARC
  5
145
330
1F
100
AcDbEntity
  8
0
  6
CONTINUOUS
 62
     8
100
AcDbCircle
 10
454.9141457358
 20
281.1249235788
 30
0.0
 40
32.03853376569013
100
AcDbArc
 50
269.5230965297
 51
271.2802835175
  0
ARC
  5
146
330
1F
100
AcDbEntity
  8
0
  6
CONTINUOUS
 62
     8
100
AcDbCircle
 10
454.9141457698
 20
250.1904319675
 30
0.0
 40
32.03853853155934
100
AcDbArc
 50
88.7197166284
 51
90.476903354
  0
ARC
  5
147
330
1F
100
AcDbEntity
  8
0
  6
CONTINUOUS
 62
     8
100
AcDbCircle
 10
454.6314770184
 20
293.1323941851
 30
0.0
 40
0.9999909394174503
100
AcDbArc
 50
0.4808256211
 51
89.0004868218
  0
SPLINE
  5
148
330
1F
100
AcDbEntity
  8
0
  6
CONTINUOUS
 62
     8
100
AcDbSpline
210
0.0
220
0.0
230
1.0
 70
     8
 71
     3
 72
     8
 73
     4
 74
     0
 42
0.000000001
 43
0.00000001
 40
0.0
 40
0.0
 40
0.0
 40
0.0
 40
1.0
 40
1.0
 40
1.0
 40
1.0
 10
455.6299924710552
 20
282.2209723116581
 30
0.0
 10
455.6390866990137
 20
271.1789629545836
 30
0.0
 10
455.6390866429742
 20
260.1363973434271
 30
0.0
 10
455.6299924121246
 20
249.0943880010995
 30
0.0
  0
LINE
  5
149
330
1F
100
AcDbEntity
  8
0
  6
CONTINUOUS
 62
     8
100
AcDbLine
 10
455.632039704
 20
293.14617295
 30
0.0
 11
455.6314327456
 21
293.1407860008
 31
0.0
  0
LINE
  5
14A
330
1F
100
AcDbEntity
  8
0
  6
CONTINUOUS
 62
     8
100
AcDbLine
 10
455.6314320084
 20
238.1745746617
 30
0.0
 11
455.6320079797
 21
238.1694615561
 31
0.0
  0
SPLINE
  5
14B
330
1F
100
AcDbEntity
  8
0
  6
CONTINUOUS
 62
     8
100
AcDbSpline
210
0.0
220
0.0
230
1.0
 70
     8
 71
     3
 72
     9
 73
     5
 74
     0
 42
0.000000001
 43
0.00000001
 40
0.0
 40
0.0
 40
0.0
 40
0.0
 40
0.2238089324633547
 40
1.0
 40
1.0
 40
1.0
 40
1.0
 10
454.6676147645021
 20
237.0281503329691
 30
0.0
 10
454.668078700515
 20
237.0242880285671
 30
0.0
 10
454.6701516115816
 20
237.0070308781952
 30
0.0
 10
454.6581981787992
 20
237.1061736204746
 30
0.0
 10
454.6489200310473
 20
237.183127331443
 30
0.0
  0
SPLINE
  5
14C
330
1F
100
AcDbEntity
  8
0
  6
CONTINUOUS
 62
     8
100
AcDbSpline
210
0.0
220
0.0
230
1.0
 70
     8
 71
     3
 72
     9
 73
     5
 74
     0
 42
0.000000001
 43
0.00000001
 40
0.0
 40
0.0
 40
0.0
 40
0.0
 40
0.7761910677311157
 40
1.0
 40
1.0
 40
1.0
 40
1.0
 10
454.6489207714039
 20
294.1322329692804
 30
0.0
 10
454.6582006845181
 20
294.2091866494018
 30
0.0
 10
454.6701563916888
 20
294.3083293519149
 30
0.0
 10
454.6680848125487
 20
294.2910721782939
 30
0.0
 10
454.6676211746332
 20
294.2872098686917
 30
0.0
  0
LINE
  5
14D
330
1F
100
AcDbEntity
  8
0
  6
CONTINUOUS
 62
     8
100
AcDbLine
 10
433.1154856093
 20
236.6476418776
 30
0.0
 11
433.1154856093
 21
236.7805215668
 31
0.0
  0
LINE
  5
14E
330
1F
100
AcDbEntity
  8
0
  6
CONTINUOUS
 62
     8
100
AcDbLine
 10
437.6154856093
 20
236.7261898514
 30
0.0
 11
437.6154856093
 21
236.8590718748
 31
0.0
  0
ENDSEC
  0
SECTION
  2
OBJECTS
  0
DICTIONARY
  5
C
330
0
100
AcDbDictionary
  3
ACAD_GROUP
350
D
  3
ACAD_MLINESTYLE
350
17
  3
ACAD_SCALELIST
350
47
  0
DICTIONARY
  5
D
102
{ACAD_REACTORS
330
C
102
}
330
C
100
AcDbDictionary
  0
DICTIONARY
  5
17
102
{ACAD_REACTORS
330
C
102
}
330
C
100
AcDbDictionary
  3
STANDARD
350
18
  0
DICTIONARY
  5
47
102
{ACAD_REACTORS
330
C
102
}
330
C
100
AcDbDictionary
  0
MLINESTYLE
  5
18
102
{ACAD_REACTORS
330
17
102
}
330
17
100
AcDbMlineStyle
  2
Standard
 70
     0
  3

 62
   256
 51
90.0
 52
90.0
 71
     2
 49
0.5
 62
   256
  6
BYLAYER
 49
-0.5
 62
   256
  6
BYLAYER
  0
ENDSEC
  0
EOF
