  0
SECTION
  2
HEADER
  9
$ACADVER
  1
AC1015
  9
$ACADMAINTVER
 70
     6
  9
$DWGCODEPAGE
  3
ANSI_1252
  9
$INSBASE
 10
0.0
 20
0.0
 30
0.0
  9
$EXTMIN
 10
0.0
 20
0.0
 30
0.0
  9
$EXTMAX
 10
594.0
 20
841.0
 30
0.0
  9
$LIMMIN
 10
0.0
 20
0.0
  9
$LIMMAX
 10
594.0
 20
841.0
  9
$ORTHOMODE
 70
     0
  9
$REGENMODE
 70
     1
  9
$FILLMODE
 70
     1
  9
$QTEXTMODE
 70
     0
  9
$MIRRTEXT
 70
     1
  9
$LTSCALE
 40
1.0
  9
$ATTMODE
 70
     1
  9
$TEXTSIZE
 40
10.0
  9
$TRACEWID
 40
1.0
  9
$TEXTSTYLE
  7
Standard
  9
$CLAYER
  8
0
  9
$CELTYPE
  6
ByLayer
  9
$CECOLOR
 62
   256
  9
$CELTSCALE
 40
1.0
  9
$DISPSILH
 70
     0
  9
$DIMSCALE
 40
1.0
  9
$DIMASZ
 40
2.5
  9
$DIMEXO
 40
0.0
  9
$DIMDLI
 40
3.75
  9
$DIMRND
 40
0.0
  9
$DIMDLE
 40
0.0
  9
$DIMEXE
 40
1.0
  9
$DIMTP
 40
0.0
  9
$DIMTM
 40
0.0
  9
$DIMTXT
 40
3.5
  9
$DIMCEN
 40
2.5
  9
$DIMTSZ
 40
0.0
  9
$DIMTOL
 70
     0
  9
$DIMLIM
 70
     0
  9
$DIMTIH
 70
     1
  9
$DIMTOH
 70
     1
  9
$DIMSE1
 70
     0
  9
$DIMSE2
 70
     0
  9
$DIMTAD
 70
     1
  9
$DIMZIN
 70
     0
  9
$DIMBLK
  1

  9
$DIMASO
 70
     1
  9
$DIMSHO
 70
     1
  9
$DIMPOST
  1

  9
$DIMAPOST
  1

  9
$DIMALT
 70
     0
  9
$DIMALTD
 70
     3
  9
$DIMALTF
 40
0.0393700787
  9
$DIMLFAC
 40
1.0
  9
$DIMTOFL
 70
     1
  9
$DIMTVP
 40
0.0
  9
$DIMTIX
 70
     0
  9
$DIMSOXD
 70
     0
  9
$DIMSAH
 70
     0
  9
$DIMBLK1
  1

  9
$DIMBLK2
  1

  9
$DIMSTYLE
  2
ISO-25
  9
$DIMCLRD
 70
     0
  9
$DIMCLRE
 70
     0
  9
$DIMCLRT
 70
     0
  9
$DIMTFAC
 40
1.0
  9
$DIMGAP
 40
1.5
  9
$DIMJUST
 70
     0
  9
$DIMSD1
 70
     0
  9
$DIMSD2
 70
     0
  9
$DIMTOLJ
 70
     0
  9
$DIMTZIN
 70
     0
  9
$DIMALTZ
 70
     0
  9
$DIMALTTZ
 70
     0
  9
$DIMUPT
 70
     0
  9
$DIMDEC
 70
     2
  9
$DIMTDEC
 70
     2
  9
$DIMALTU
 70
     2
  9
$DIMALTTD
 70
     3
  9
$DIMTXSTY
  7
Standard
  9
$DIMAUNIT
 70
     0
  9
$DIMADEC
 70
     2
  9
$DIMALTRND
 40
0.0
  9
$DIMAZIN
 70
     0
  9
$DIMDSEP
 70
    44
  9
$DIMATFIT
 70
     3
  9
$DIMFRAC
 70
     0
  9
$DIMLDRBLK
  1

  9
$DIMLUNIT
 70
     2
  9
$DIMLWD
 70
    -2
  9
$DIMLWE
 70
    -2
  9
$DIMTMOVE
 70
     0
  9
$LUNITS
 70
     2
  9
$LUPREC
 70
     2
  9
$SKETCHINC
 40
1.0
  9
$FILLETRAD
 40
0.0
  9
$AUNITS
 70
     0
  9
$AUPREC
 70
     2
  9
$MENU
  1
.
  9
$ELEVATION
 40
0.0
  9
$PELEVATION
 40
0.0
  9
$THICKNESS
 40
0.0
  9
$LIMCHECK
 70
     0
  9
$CHAMFERA
 40
0.0
  9
$CHAMFERB
 40
0.0
  9
$CHAMFERC
 40
0.0
  9
$CHAMFERD
 40
0.0
  9
$SKPOLY
 70
     0
  9
$TDCREATE
 40
2460336.36267794
  9
$TDUCREATE
 40
2460336.321011273
  9
$TDUPDATE
 40
2460336.362679028
  9
$TDUUPDATE
 40
2460336.321012361
  9
$TDINDWG
 40
0.0000000116
  9
$TDUSRTIMER
 40
0.0000000116
  9
$USRTIMER
 70
     1
  9
$ANGBASE
 50
0.0
  9
$ANGDIR
 70
     0
  9
$PDMODE
 70
     0
  9
$PDSIZE
 40
-1.0
  9
$PLINEWID
 40
0.0
  9
$SPLFRAME
 70
     0
  9
$SPLINETYPE
 70
     6
  9
$SPLINESEGS
 70
     8
  9
$HANDSEED
  5
1B8
  9
$SURFTAB1
 70
     6
  9
$SURFTAB2
 70
     6
  9
$SURFTYPE
 70
     6
  9
$SURFU
 70
     6
  9
$SURFV
 70
     6
  9
$UCSBASE
  2

  9
$UCSNAME
  2

  9
$UCSORG
 10
0.0
 20
0.0
 30
0.0
  9
$UCSXDIR
 10
1.0
 20
0.0
 30
0.0
  9
$UCSYDIR
 10
0.0
 20
1.0
 30
0.0
  9
$UCSORTHOREF
  2

  9
$UCSORTHOVIEW
 70
     0
  9
$UCSORGTOP
 10
0.0
 20
0.0
 30
0.0
  9
$UCSORGBOTTOM
 10
0.0
 20
0.0
 30
0.0
  9
$UCSORGLEFT
 10
0.0
 20
0.0
 30
0.0
  9
$UCSORGRIGHT
 10
0.0
 20
0.0
 30
0.0
  9
$UCSORGFRONT
 10
0.0
 20
0.0
 30
0.0
  9
$UCSORGBACK
 10
0.0
 20
0.0
 30
0.0
  9
$PUCSBASE
  2

  9
$PUCSNAME
  2

  9
$PUCSORG
 10
0.0
 20
0.0
 30
0.0
  9
$PUCSXDIR
 10
1.0
 20
0.0
 30
0.0
  9
$PUCSYDIR
 10
0.0
 20
1.0
 30
0.0
  9
$PUCSORTHOREF
  2

  9
$PUCSORTHOVIEW
 70
     0
  9
$PUCSORGTOP
 10
0.0
 20
0.0
 30
0.0
  9
$PUCSORGBOTTOM
 10
0.0
 20
0.0
 30
0.0
  9
$PUCSORGLEFT
 10
0.0
 20
0.0
 30
0.0
  9
$PUCSORGRIGHT
 10
0.0
 20
0.0
 30
0.0
  9
$PUCSORGFRONT
 10
0.0
 20
0.0
 30
0.0
  9
$PUCSORGBACK
 10
0.0
 20
0.0
 30
0.0
  9
$USERI1
 70
     0
  9
$USERI2
 70
     0
  9
$USERI3
 70
     0
  9
$USERI4
 70
     0
  9
$USERI5
 70
     0
  9
$USERR1
 40
0.0
  9
$USERR2
 40
0.0
  9
$USERR3
 40
0.0
  9
$USERR4
 40
0.0
  9
$USERR5
 40
0.0
  9
$WORLDVIEW
 70
     1
  9
$SHADEDGE
 70
     3
  9
$SHADEDIF
 70
    70
  9
$TILEMODE
 70
     1
  9
$MAXACTVP
 70
    64
  9
$PINSBASE
 10
0.0
 20
0.0
 30
0.0
  9
$PLIMCHECK
 70
     0
  9
$PEXTMIN
 10
1.0000000000E+20
 20
1.0000000000E+20
 30
1.0000000000E+20
  9
$PEXTMAX
 10
-1.0000000000E+20
 20
-1.0000000000E+20
 30
-1.0000000000E+20
  9
$PLIMMIN
 10
0.0
 20
0.0
  9
$PLIMMAX
 10
420.0
 20
297.0
  9
$UNITMODE
 70
     0
  9
$VISRETAIN
 70
     1
  9
$PLINEGEN
 70
     0
  9
$PSLTSCALE
 70
     1
  9
$TREEDEPTH
 70
  3020
  9
$CMLSTYLE
  2
Standard
  9
$CMLJUST
 70
     0
  9
$CMLSCALE
 40
20.0
  9
$PROXYGRAPHICS
 70
     1
  9
$MEASUREMENT
 70
     1
  9
$CELWEIGHT
370
    -1
  9
$ENDCAPS
280
     0
  9
$JOINSTYLE
280
     0
  9
$LWDISPLAY
290
     1
  9
$INSUNITS
 70
     4
  9
$HYPERLINKBASE
  1

  9
$STYLESHEET
  1

  9
$XEDIT
290
     1
  9
$CEPSNTYPE
380
     0
  9
$PSTYLEMODE
290
     1
  9
$FINGERPRINTGUID
  2
{2f204988-ff5b-4b4e-ae19-5c1c35f2d8d8}
  9
$VERSIONGUID
  2
{FAEB1C32-E019-11D5-929B-00C0DF256EC4}
  9
$EXTNAMES
290
     1
  9
$PSVPSCALE
 40
0.0
  9
$OLESTARTUP
290
     0
  0
ENDSEC
  0
SECTION
  2
CLASSES
  0
CLASS
  1
ACDBDICTIONARYWDFLT
  2
AcDbDictionaryWithDefault
  3
ObjectDBX Classes
 90
        0
280
     0
281
     0
  0
CLASS
  1
VISUALSTYLE
  2
AcDbVisualStyle
  3
ObjectDBX Classes
 90
     4095
280
     0
281
     0
  0
CLASS
  1
MATERIAL
  2
AcDbMaterial
  3
ObjectDBX Classes
 90
     1153
280
     0
281
     0
  0
CLASS
  1
SCALE
  2
AcDbScale
  3
ObjectDBX Classes
 90
     1153
280
     0
281
     0
  0
CLASS
  1
TABLESTYLE
  2
AcDbTableStyle
  3
ObjectDBX Classes
 90
     4095
280
     0
281
     0
  0
CLASS
  1
MLEADERSTYLE
  2
AcDbMLeaderStyle
  3
ACDB_MLEADERSTYLE_CLASS
 90
     4095
280
     0
281
     0
  0
CLASS
  1
SUN
  2
AcDbSun
  3
SCENEOE
 90
     1153
280
     0
281
     0
  0
CLASS
  1
ACDBPLACEHOLDER
  2
AcDbPlaceHolder
  3
ObjectDBX Classes
 90
        0
280
     0
281
     0
  0
CLASS
  1
LAYOUT
  2
AcDbLayout
  3
ObjectDBX Classes
 90
        0
280
     0
281
     0
  0
ENDSEC
  0
SECTION
  2
TABLES
  0
TABLE
  2
VPORT
  5
8
330
0
100
AcDbSymbolTable
 70
     1
  0
VPORT
  5
29
330
8
100
AcDbSymbolTableRecord
100
AcDbViewportTableRecord
  2
*Active
 70
     0
 10
0.0
 20
0.0
 11
1.0
 21
1.0
 12
297.0
 22
420.5
 13
0.0
 23
0.0
 14
10.0
 24
10.0
 15
10.0
 25
10.0
 16
0.0
 26
0.0
 36
1.0
 17
0.0
 27
0.0
 37
0.0
 40
841.0
 41
0.7063020214
 42
50.0
 43
0.0
 44
0.0
 50
0.0
 51
0.0
 71
     0
 72
  2000
 73
     1
 74
     3
 75
     0
 76
     0
 77
     0
 78
     0
281
     0
 65
     1
110
0.0
120
0.0
130
0.0
111
1.0
121
0.0
131
0.0
112
0.0
122
1.0
132
0.0
 79
     0
146
0.0
  0
ENDTAB
  0
TABLE
  2
LTYPE
  5
5
330
0
100
AcDbSymbolTable
 70
     6
  0
LTYPE
  5
14
330
5
100
AcDbSymbolTableRecord
100
AcDbLinetypeTableRecord
  2
ByBlock
 70
     0
  3

 72
    65
 73
     0
 40
0.0
  0
LTYPE
  5
15
330
5
100
AcDbSymbolTableRecord
100
AcDbLinetypeTableRecord
  2
ByLayer
 70
     0
  3

 72
    65
 73
     0
 40
0.0
  0
LTYPE
  5
16
330
5
100
AcDbSymbolTableRecord
100
AcDbLinetypeTableRecord
  2
Continuous
 70
     0
  3
Solid line
 72
    65
 73
     0
 40
0.0
  0
LTYPE
  5
5E
330
5
100
AcDbSymbolTableRecord
100
AcDbLinetypeTableRecord
  2
HIDDEN
 70
     0
  3
Hidden __ __ __ __ __ __ __ __ __ __ __ __ __ __
 72
    65
 73
     2
 40
1.905
 49
1.27
 74
     0
 49
-0.635
 74
     0
  0
LTYPE
  5
5F
330
5
100
AcDbSymbolTableRecord
100
AcDbLinetypeTableRecord
  2
PHANTOM
 70
     0
  3
Phantom ______  __  __  ______  __  __  ______
 72
    65
 73
     6
 40
12.7
 49
6.35
 74
     0
 49
-1.27
 74
     0
 49
1.27
 74
     0
 49
-1.27
 74
     0
 49
1.27
 74
     0
 49
-1.27
 74
     0
  0
LTYPE
  5
60
330
5
100
AcDbSymbolTableRecord
100
AcDbLinetypeTableRecord
  2
CENTER
 70
     0
  3
Center ____ _ ____ _ ____ _ ____ _ ____ _ ____
 72
    65
 73
     4
 40
10.16
 49
6.35
 74
     0
 49
-1.27
 74
     0
 49
1.27
 74
     0
 49
-1.27
 74
     0
  0
LTYPE
  5
61
330
5
100
AcDbSymbolTableRecord
100
AcDbLinetypeTableRecord
  2
CENTERX2
 70
     0
  3
Center (2x) ________  __  ________  __  _____
 72
    65
 73
     4
 40
20.32
 49
12.7
 74
     0
 49
-2.54
 74
     0
 49
2.54
 74
     0
 49
-2.54
 74
     0
  0
LTYPE
  5
62
330
5
100
AcDbSymbolTableRecord
100
AcDbLinetypeTableRecord
  2
DOT2
 70
     0
  3
Dot (.5x) ........................................
 72
    65
 73
     2
 40
0.635
 49
0.0
 74
     0
 49
-0.635
 74
     0
  0
ENDTAB
  0
TABLE
  2
LAYER
  5
2
330
0
100
AcDbSymbolTable
 70
     1
  0
LAYER
  5
10
330
2
100
AcDbSymbolTableRecord
100
AcDbLayerTableRecord
  2
0
 70
     0
 62
     7
  6
Continuous
370
    -3
390
F
  0
ENDTAB
  0
TABLE
  2
STYLE
  5
3
330
0
100
AcDbSymbolTable
 70
     3
  0
STYLE
  5
11
330
3
100
AcDbSymbolTableRecord
100
AcDbTextStyleTableRecord
  2
Standard
 70
     0
 40
0.0
 41
1.0
 50
0.0
 71
     0
 42
10.0
  3
txt
  4

  0
STYLE
  5
66
330
3
100
AcDbSymbolTableRecord
100
AcDbTextStyleTableRecord
  2
SLDTEXTSTYLE0
 70
     0
 40
0.0
 41
0.96
 50
0.0
 71
     0
 42
10.0
  3
ISOCP3
  4

  0
STYLE
  5
7D
330
3
100
AcDbSymbolTableRecord
100
AcDbTextStyleTableRecord
  2
SLDTEXTSTYLE1
 70
     0
 40
0.0
 41
0.605
 50
0.0
 71
     0
 42
10.0
  3
TXT
  4

  0
ENDTAB
  0
TABLE
  2
VIEW
  5
6
330
0
100
AcDbSymbolTable
 70
     0
  0
ENDTAB
  0
TABLE
  2
UCS
  5
7
330
0
100
AcDbSymbolTable
 70
     0
  0
ENDTAB
  0
TABLE
  2
APPID
  5
9
330
0
100
AcDbSymbolTable
 70
     1
  0
APPID
  5
12
330
9
100
AcDbSymbolTableRecord
100
AcDbRegAppTableRecord
  2
ACAD
 70
     0
  0
ENDTAB
  0
TABLE
  2
DIMSTYLE
  5
A
330
0
100
AcDbSymbolTable
 70
     2
100
AcDbDimStyleTable
  0
DIMSTYLE
105
27
330
A
100
AcDbSymbolTableRecord
100
AcDbDimStyleTableRecord
  2
ISO-25
 70
     0
 41
2.5
 42
0.625
 43
3.75
 44
1.25
 73
     0
 74
     0
 77
     1
 78
     8
140
2.5
141
2.5
143
0.0393700787
147
0.625
171
     3
172
     1
178
     0
271
     2
272
     2
274
     3
278
    44
283
     0
284
     8
340
11
  0
DIMSTYLE
105
67
102
{ACAD_REACTORS
330
65
330
72
102
}
330
A
100
AcDbSymbolTableRecord
100
AcDbDimStyleTableRecord
  2
SLDDIMSTYLE0
 70
     0
 41
2.5
 44
0.0
 45
0.000000001
 73
     0
 74
     0
 77
     1
 78
    12
 79
     3
140
6.0
147
1.5
173
     1
178
     0
271
     2
272
     2
276
     2
284
    12
340
66
  0
ENDTAB
  0
TABLE
  2
BLOCK_RECORD
  5
1
330
0
100
AcDbSymbolTable
 70
     3
  0
BLOCK_RECORD
  5
1F
330
1
100
AcDbSymbolTableRecord
100
AcDbBlockTableRecord
  2
*Model_Space
340
22
  0
BLOCK_RECORD
  5
1B
330
1
100
AcDbSymbolTableRecord
100
AcDbBlockTableRecord
  2
*Paper_Space
340
1E
  0
BLOCK_RECORD
  5
23
330
1
100
AcDbSymbolTableRecord
100
AcDbBlockTableRecord
  2
*Paper_Space0
340
26
  0
BLOCK_RECORD
  5
68
330
1
100
AcDbSymbolTableRecord
100
AcDbBlockTableRecord
  2
_D
340
0
  0
BLOCK_RECORD
  5
73
330
1
100
AcDbSymbolTableRecord
100
AcDbBlockTableRecord
  2
_D_1
340
0
  0
ENDTAB
  0
ENDSEC
  0
SECTION
  2
BLOCKS
  0
BLOCK
  5
20
330
1F
100
AcDbEntity
  8
0
100
AcDbBlockBegin
  2
*Model_Space
 70
     0
 10
0.0
 20
0.0
 30
0.0
  3
*Model_Space
  1

  0
ENDBLK
  5
21
330
1F
100
AcDbEntity
  8
0
100
AcDbBlockEnd
  0
BLOCK
  5
1C
330
1B
100
AcDbEntity
 67
     1
  8
0
100
AcDbBlockBegin
  2
*Paper_Space
 70
     0
 10
0.0
 20
0.0
 30
0.0
  3
*Paper_Space
  1

  0
ENDBLK
  5
1D
330
1B
100
AcDbEntity
 67
     1
  8
0
100
AcDbBlockEnd
  0
BLOCK
  5
24
330
23
100
AcDbEntity
  8
0
100
AcDbBlockBegin
  2
*Paper_Space0
 70
     0
 10
0.0
 20
0.0
 30
0.0
  3
*Paper_Space0
  1

  0
ENDBLK
  5
25
330
23
100
AcDbEntity
  8
0
100
AcDbBlockEnd
  0
BLOCK
  5
69
330
68
100
AcDbEntity
  8
0
100
AcDbBlockBegin
  2
_D
 70
     0
 10
0.0
 20
0.0
 30
0.0
  3
_D
  1

  0
SOLID
  5
6B
330
68
100
AcDbEntity
  8
0
  6
Continuous
 62
     7
370
    18
100
AcDbTrace
 10
42.7614395004
 20
152.0299240879
 30
0.0
 11
42.4614395004
 21
149.5299240879
 31
0.0
 12
43.0614395004
 22
149.5299240879
 32
0.0
 13
43.0614395004
 23
149.5299240879
 33
0.0
  0
SOLID
  5
6C
330
68
100
AcDbEntity
  8
0
  6
Continuous
 62
     7
370
    18
100
AcDbTrace
 10
42.7614395004
 20
52.0299240879
 30
0.0
 11
43.0614395004
 21
54.5299240879
 31
0.0
 12
42.4614395004
 22
54.5299240879
 32
0.0
 13
42.4614395004
 23
54.5299240879
 33
0.0
  0
LINE
  5
6D
330
68
100
AcDbEntity
  8
0
  6
Continuous
 62
     7
370
     0
100
AcDbLine
 10
56.6850079902
 20
152.0299240879
 30
0.0
 11
41.7614395004
 21
152.0299240879
 31
0.0
  0
LINE
  5
6E
330
68
100
AcDbEntity
  8
0
  6
Continuous
 62
     7
370
     0
100
AcDbLine
 10
56.6850079902
 20
52.0299240879
 30
0.0
 11
41.7614395004
 21
52.0299240879
 31
0.0
  0
LINE
  5
6F
330
68
100
AcDbEntity
  8
0
  6
Continuous
 62
     7
370
     0
100
AcDbLine
 10
42.7614395004
 20
152.0299240879
 30
0.0
 11
42.7614395004
 21
52.0299240879
 31
0.0
  0
MTEXT
  5
70
330
68
100
AcDbEntity
  8
0
  6
Continuous
 62
     7
370
    18
100
AcDbMText
 10
35.0270332946
 20
94.3680541463
 30
0.0
 40
6.0
 41
0.0
 71
     1
 72
     1
  1
100
  7
SLDTEXTSTYLE0
 11
-7.044195017643634E-15
 21
1.0
 31
0.0
 73
     1
 44
1.0
  0
MTEXT
  5
71
330
68
100
AcDbEntity
  8
0
  6
Continuous
 62
     7
370
    18
100
AcDbMText
 10
35.0270332946
 20
105.7430548466
 30
0.0
 40
6.0
 41
0.0
 71
     1
 72
     1
  1
mm
  7
SLDTEXTSTYLE0
 11
-7.044195017643634E-15
 21
1.0
 31
0.0
 73
     1
 44
1.0
  0
ENDBLK
  5
6A
330
68
100
AcDbEntity
  8
0
100
AcDbBlockEnd
  0
BLOCK
  5
74
330
73
100
AcDbEntity
  8
0
100
AcDbBlockBegin
  2
_D_1
 70
     0
 10
0.0
 20
0.0
 30
0.0
  3
_D_1
  1

  0
SOLID
  5
76
330
73
100
AcDbEntity
  8
0
  6
Continuous
 62
     7
370
    18
100
AcDbTrace
 10
56.6850079902
 20
38.4602342313
 30
0.0
 11
59.1850079902
 21
38.1602342313
 31
0.0
 12
59.1850079902
 22
38.7602342313
 32
0.0
 13
59.1850079902
 23
38.7602342313
 33
0.0
  0
SOLID
  5
77
330
73
100
AcDbEntity
  8
0
  6
Continuous
 62
     7
370
    18
100
AcDbTrace
 10
156.6850079902
 20
38.4602342313
 30
0.0
 11
154.1850079902
 21
38.7602342313
 31
0.0
 12
154.1850079902
 22
38.1602342313
 32
0.0
 13
154.1850079902
 23
38.1602342313
 33
0.0
  0
LINE
  5
78
330
73
100
AcDbEntity
  8
0
  6
Continuous
 62
     7
370
     0
100
AcDbLine
 10
56.6850079902
 20
52.0299240879
 30
0.0
 11
56.6850079902
 21
37.4602342313
 31
0.0
  0
LINE
  5
79
330
73
100
AcDbEntity
  8
0
  6
Continuous
 62
     7
370
     0
100
AcDbLine
 10
156.6850079902
 20
52.0299240879
 30
0.0
 11
156.6850079902
 21
37.4602342313
 31
0.0
  0
LINE
  5
7A
330
73
100
AcDbEntity
  8
0
  6
Continuous
 62
     7
370
     0
100
AcDbLine
 10
56.6850079902
 20
38.4602342313
 30
0.0
 11
156.6850079902
 21
38.4602342313
 31
0.0
  0
MTEXT
  5
7B
330
73
100
AcDbEntity
  8
0
  6
Continuous
 62
     7
370
    18
100
AcDbMText
 10
93.9626484861
 20
46.1946404371
 30
0.0
 40
6.0
 41
0.0
 71
     1
 72
     1
  1
100
  7
SLDTEXTSTYLE0
 73
     1
 44
1.0
  0
MTEXT
  5
7C
330
73
100
AcDbEntity
  8
0
  6
Continuous
 62
     7
370
    18
100
AcDbMText
 10
105.3376491864
 20
46.1946404371
 30
0.0
 40
6.0
 41
0.0
 71
     1
 72
     1
  1
mm
  7
SLDTEXTSTYLE0
 73
     1
 44
1.0
  0
ENDBLK
  5
75
330
73
100
AcDbEntity
  8
0
100
AcDbBlockEnd
  0
ENDSEC
  0
SECTION
  2
ENTITIES
  0
LINE
  5
63
330
1F
100
AcDbEntity
  8
0
  6
Continuous
 62
     7
370
    18
100
AcDbLine
 10
56.6850079902
 20
152.0299240879
 30
0.0
 11
56.6850079902
 21
52.0299240879
 31
0.0
  0
LINE
  5
64
330
1F
100
AcDbEntity
  8
0
  6
Continuous
 62
     7
370
    18
100
AcDbLine
 10
56.6850079902
 20
52.0299240879
 30
0.0
 11
156.6850079902
 21
52.0299240879
 31
0.0
  0
DIMENSION
  5
65
330
1F
100
AcDbEntity
  8
0
  6
Continuous
 62
     7
370
    18
100
AcDbDimension
  2
_D
 10
42.7614395004
 20
52.0299240879
 30
0.0
 11
42.7614395004
 21
105.4472211621
 31
0.0
 70
   160
  1
<>mm
 71
     2
 42
-1.0
  3
SLDDIMSTYLE0
100
AcDbAlignedDimension
 13
56.6850079902
 23
152.0299240879
 33
0.0
 14
56.6850079902
 24
52.0299240879
 34
0.0
 50
90.0
100
AcDbRotatedDimension
  0
DIMENSION
  5
72
330
1F
100
AcDbEntity
  8
0
  6
Continuous
 62
     7
370
    18
100
AcDbDimension
  2
_D_1
 10
156.6850079902
 20
38.4602342313
 30
0.0
 11
105.0418155019
 21
38.4602342313
 31
0.0
 70
   160
  1
<>mm
 71
     2
 42
-1.0
  3
SLDDIMSTYLE0
100
AcDbAlignedDimension
 13
56.6850079902
 23
52.0299240879
 33
0.0
 14
156.6850079902
 24
52.0299240879
 34
0.0
100
AcDbRotatedDimension
  0
MTEXT
  5
7E
330
1F
100
AcDbEntity
  8
0
  6
Continuous
 62
     7
370
     0
100
AcDbMText
 10
412.8252631579
 20
48.4342449499
 30
0.0
 40
10.0
 41
0.0
 71
     1
 72
     1
  1
KLUDI GmbH & Co KG
  7
SLDTEXTSTYLE1
 73
     1
 44
1.0
  0
MTEXT
  5
7F
330
1F
100
AcDbEntity
  8
0
  6
Continuous
 62
     7
370
     0
100
AcDbMText
 10
210.0873490389
 20
48.4342449499
 30
0.0
 40
10.0
 41
0.0
 71
     1
 72
     1
  1
54 739 .. 75
  7
SLDTEXTSTYLE1
 73
     1
 44
1.0
  0
SPLINE
  5
80
330
1F
100
AcDbEntity
  8
0
  6
Continuous
 62
     7
370
    25
100
AcDbSpline
210
0.0
220
0.0
230
1.0
 70
     8
 71
     3
 72
    18
 73
    14
 74
     0
 42
0.00000001
 43
0.00000001
 40
0.0
 40
0.0
 40
0.0
 40
0.0
 40
0.1400697439287986
 40
0.2776003399013684
 40
0.3687830771398572
 40
0.3929942354217998
 40
0.411864491459754
 40
0.4357689592724867
 40
0.5092121746235658
 40
0.6089897626990992
 40
0.7348875182797296
 40
0.883920863632206
 40
1.0
 40
1.0
 40
1.0
 40
1.0
 10
210.0059128532141
 20
403.1220899122328
 30
0.0
 10
209.9973950748888
 20
403.1210144652674
 30
0.0
 10
209.9805139263126
 20
403.1188830667601
 30
0.0
 10
209.9722666557448
 20
403.1175645382444
 30
0.0
 10
209.9631774320581
 20
403.1164419337196
 30
0.0
 10
209.9381452839235
 20
403.1121410919763
 30
0.0
 10
209.9133657197657
 20
403.1072870278587
 30
0.0
 10
209.8501665946161
 20
403.0923782299641
 30
0.0
 10
209.7345254388485
 20
403.0514352260114
 30
0.0
 10
209.577201321424
 20
402.9568078596737
 30
0.0
 10
209.4171549657808
 20
402.79015504532
 30
0.0
 10
209.3017119441154
 20
402.5716723174688
 30
0.0
 10
209.2956647334098
 20
402.4083688139384
 30
0.0
 10
209.2930169704995
 20
402.3368665989818
 30
0.0
  0
LINE
  5
81
330
1F
100
AcDbEntity
  8
0
  6
Continuous
 62
     7
370
    25
100
AcDbLine
 10
209.2816864003
 20
402.3319044625
 30
0.0
 11
209.2816864003
 21
397.2763127869
 31
0.0
  0
SPLINE
  5
82
330
1F
100
AcDbEntity
  8
0
  6
Continuous
 62
     7
370
    25
100
AcDbSpline
210
0.0
220
0.0
230
1.0
 70
     8
 71
     3
 72
    20
 73
    16
 74
     0
 42
0.00000001
 43
0.00000001
 40
0.0
 40
0.0
 40
0.0
 40
0.0
 40
0.1365624293053071
 40
0.2532005635693383
 40
0.3514801817697233
 40
0.4338662961251065
 40
0.5001018664382618
 40
0.548005383192902
 40
0.5695981315204715
 40
0.5845676850642858
 40
0.6012932668348979
 40
0.6290130767696337
 40
0.6934397869230342
 40
0.9328131596913795
 40
1.0
 40
1.0
 40
1.0
 40
1.0
 10
221.1774287446953
 20
402.341483655172
 30
0.0
 10
221.1687216970338
 20
402.427978148865
 30
0.0
 10
221.1525779495467
 20
402.5883476931101
 30
0.0
 10
221.0436078627886
 20
402.7867708077201
 30
0.0
 10
220.9173842361454
 20
402.9266637603295
 30
0.0
 10
220.7894680864104
 20
403.0175024731075
 30
0.0
 10
220.6777381663177
 20
403.0706491089453
 30
0.0
 10
220.5957227229816
 20
403.0966322429269
 30
0.0
 10
220.5494151134887
 20
403.1073645295386
 30
0.0
 10
220.5289422218826
 20
403.1114229237635
 30
0.0
 10
220.5147349990629
 20
403.1139711500502
 30
0.0
 10
220.5011242886563
 20
403.1161833322511
 30
0.0
 10
220.484587081915
 20
403.1185852185615
 30
0.0
 10
220.4825230241516
 20
403.1189406417697
 30
0.0
 10
220.463449044883
 20
403.1213820922804
 30
0.0
 10
220.4592687228956
 20
403.1219171693667
 30
0.0
  0
LINE
  5
83
330
1F
100
AcDbEntity
  8
0
  6
Continuous
 62
     7
370
    25
100
AcDbLine
 10
221.1816864003
 20
397.2763127869
 30
0.0
 11
221.1816864003
 21
402.3319044625
 31
0.0
  0
ELLIPSE
  5
84
330
1F
100
AcDbEntity
  8
0
  6
Continuous
 62
     7
370
    25
100
AcDbEllipse
 10
191.4273686604
 20
347.7599816841
 30
0.0
 11
0.8485389094630591
 21
0.8485389094630591
 31
0.0
210
0.0
220
0.0
230
0.9999999999999998
 40
0.9999873052
 41
2.356232566403254
 42
3.926952740776347
  0
ELLIPSE
  5
85
330
1F
100
AcDbEntity
  8
0
  6
Continuous
 62
     7
370
    25
100
AcDbEllipse
 10
191.4273686604
 20
396.3686171638
 30
0.0
 11
0.848538909463059
 21
-0.8485389094630023
 31
0.0
210
0.0
220
0.0
230
0.9999999999999998
 40
0.9999873052
 41
2.356232566403269
 42
3.926952740776241
  0
ELLIPSE
  5
86
330
1F
100
AcDbEntity
  8
0
  6
Continuous
 62
     7
370
    25
100
AcDbEllipse
 10
239.0360041401
 20
396.3686171638
 30
0.0
 11
0.8485389094714435
 21
0.8485389094547031
 31
0.0
210
0.0
220
0.0
230
1.0
 40
0.9999873052
 41
5.497825220002972
 42
7.068545394375966
  0
ELLIPSE
  5
87
330
1F
100
AcDbEntity
  8
0
  6
Continuous
 62
     7
370
    25
100
AcDbEllipse
 10
239.0360041401
 20
347.7599816841
 30
0.0
 11
0.8485389094630308
 21
-0.8485389094630023
 31
0.0
210
0.0
220
0.0
230
1.0
 40
0.9999873052
 41
5.497825219993101
 42
7.068545394366076
  0
LINE
  5
88
330
1F
100
AcDbEntity
  8
0
  6
Continuous
 62
     7
370
    25
100
AcDbLine
 10
190.227361044
 20
396.3686704725
 30
0.0
 11
190.227361044
 21
347.7599283754
 31
0.0
  0
LINE
  5
89
330
1F
100
AcDbEntity
  8
0
  6
Continuous
 62
     7
370
    25
100
AcDbLine
 10
239.0360574488
 20
397.5686247802
 30
0.0
 11
221.1816864003
 21
397.5686247802
 31
0.0
  0
LINE
  5
8A
330
1F
100
AcDbEntity
  8
0
  6
Continuous
 62
     7
370
    25
100
AcDbLine
 10
209.2816864003
 20
397.5686247802
 30
0.0
 11
191.4273153517
 21
397.5686247802
 31
0.0
  0
ELLIPSE
  5
8B
330
1F
100
AcDbEntity
  8
0
  6
Continuous
 62
     7
370
    25
100
AcDbEllipse
 10
218.7826654625
 20
397.2453238621
 30
0.0
 11
2.0
 21
0.0
 31
0.0
210
0.0
220
0.0
230
1.0
 40
0.0087268678
 41
4.936188716341516
 42
6.059385571228518
  0
ELLIPSE
  5
8C
330
1F
100
AcDbEntity
  8
0
  6
Continuous
 62
     7
370
    25
100
AcDbEllipse
 10
203.1816864003
 20
397.2763127869
 30
0.0
 11
18.00000000000003
 21
0.0
 31
0.0
210
0.0
220
0.0
230
1.0
 40
0.0087268678
 41
6.05938557122555
 42
6.283185307179586
  0
ELLIPSE
  5
8D
330
1F
100
AcDbEntity
  8
0
  6
Continuous
 62
     7
370
    25
100
AcDbEllipse
 10
227.2816864003
 20
397.2763127869
 30
0.0
 11
18.0
 21
0.0
 31
0.0
210
0.0
220
0.0
230
1.0
 40
0.0087268678
 41
3.141592653589779
 42
3.365392389546885
  0
ELLIPSE
  5
8E
330
1F
100
AcDbEntity
  8
0
  6
Continuous
 62
     7
370
    25
100
AcDbEllipse
 10
211.6807073381
 20
397.2453238621
 30
0.0
 11
2.0
 21
0.0
 31
0.0
210
0.0
220
0.0
230
1.0
 40
0.0087268678
 41
3.365392389544575
 42
4.488589244428729
  0
ELLIPSE
  5
8F
330
1F
100
AcDbEntity
  8
0
  6
Continuous
 62
     7
370
    25
100
AcDbEllipse
 10
215.2316864003
 20
397.3814715437
 30
0.0
 11
18.0
 21
0.0
 31
0.0
210
0.0
220
0.0
230
1.0
 40
0.0087268678
 41
4.488589244428658
 42
4.936188716340885
  0
LINE
  5
90
330
1F
100
AcDbEntity
  8
0
  6
Continuous
 62
     7
370
    25
100
AcDbLine
 10
191.4273153517
 20
346.5599740677
 30
0.0
 11
239.0360574488
 21
346.5599740677
 31
0.0
  0
LINE
  5
91
330
1F
100
AcDbEntity
  8
0
  6
Continuous
 62
     7
370
    25
100
AcDbLine
 10
240.2360117565
 20
347.7599283754
 30
0.0
 11
240.2360117565
 21
396.3686704725
 31
0.0
  0
SPLINE
  5
92
330
1F
100
AcDbEntity
  8
0
  6
Continuous
 62
     7
370
    25
100
AcDbSpline
210
0.0
220
0.0
230
1.0
 70
     8
 71
     3
 72
    12
 73
     8
 74
     0
 42
0.00000001
 43
0.00000001
 40
0.0
 40
0.0
 40
0.0
 40
0.0
 40
0.25
 40
0.25
 40
0.5
 40
0.5
 40
1.0
 40
1.0
 40
1.0
 40
1.0
 10
211.3364797758971
 20
403.2741897196248
 30
0.0
 10
211.9777915243077
 20
403.3369389950471
 30
0.0
 10
212.6255906255921
 20
403.3846885656948
 30
0.0
 10
213.9343038309848
 20
403.4486213874902
 30
0.0
 10
214.5925888153403
 20
403.4645180579965
 30
0.0
 10
216.550503014227
 20
403.4638552804403
 30
0.0
 10
217.8444406104099
 20
403.399671530859
 30
0.0
 10
219.1268930246365
 20
403.2741897196248
 30
0.0
  0
SPLINE
  5
93
330
1F
100
AcDbEntity
  8
0
  6
Continuous
 62
     7
370
    25
100
AcDbSpline
210
0.0
220
0.0
230
1.0
 70
     8
 71
     3
 72
    14
 73
    10
 74
     0
 42
0.00000001
 43
0.00000001
 40
0.0
 40
0.0
 40
0.0
 40
0.0
 40
0.25
 40
0.25
 40
0.5
 40
0.5
 40
0.75
 40
0.75
 40
1.0
 40
1.0
 40
1.0
 40
1.0
 10
219.1268930246364
 20
403.2741897196248
 30
0.0
 10
219.2383966389337
 20
403.2632796263333
 30
0.0
 10
219.3459916127718
 20
403.2522680415942
 30
0.0
 10
219.5444219373673
 20
403.2312488453893
 30
0.0
 10
219.6375982569724
 20
403.22099163305
 30
0.0
 10
219.7994774410344
 20
403.2027181104813
 30
0.0
 10
219.86972347836
 20
403.1945372399787
 30
0.0
 10
219.9818126485051
 20
403.1812918262173
 30
0.0
 10
220.0231163346189
 20
403.1762986632438
 30
0.0
 10
220.0490869021875
 20
403.1731479643483
 30
0.0
  0
SPLINE
  5
94
330
1F
100
AcDbEntity
  8
0
  6
Continuous
 62
     7
370
    25
100
AcDbSpline
210
0.0
220
0.0
230
1.0
 70
     8
 71
     3
 72
    14
 73
    10
 74
     0
 42
0.00000001
 43
0.00000001
 40
0.0
 40
0.0
 40
0.0
 40
0.0
 40
0.25
 40
0.25
 40
0.5
 40
0.5
 40
0.75
 40
0.75
 40
1.0
 40
1.0
 40
1.0
 40
1.0
 10
210.4142858983461
 20
403.1731479643483
 30
0.0
 10
210.4402580796516
 20
403.1762988590193
 30
0.0
 10
210.4825449926452
 20
403.1814092319277
 30
0.0
 10
210.5941185440556
 20
403.1945916452209
 30
0.0
 10
210.6650526880358
 20
403.2028512372052
 30
0.0
 10
210.8270419227187
 20
403.2211321788722
 30
0.0
 10
210.9196333514826
 20
403.2313244588997
 30
0.0
 10
211.1193314120814
 20
403.2524712602759
 30
0.0
 10
211.2249683529027
 20
403.2632788622897
 30
0.0
 10
211.3364797758971
 20
403.2741897196248
 30
0.0
  0
SPLINE
  5
95
330
1F
100
AcDbEntity
  8
0
  6
Continuous
 62
     7
370
    25
100
AcDbSpline
210
0.0
220
0.0
230
1.0
 70
     8
 71
     3
 72
     9
 73
     5
 74
     0
 42
0.00000001
 43
0.00000001
 40
0.0
 40
0.0
 40
0.0
 40
0.0
 40
0.0444404353239361
 40
1.0
 40
1.0
 40
1.0
 40
1.0
 10
210.005991896881
 20
403.1214778095936
 30
0.0
 10
210.0044952053283
 20
403.1212826268073
 30
0.0
 10
209.9708166074064
 20
403.1168906179348
 30
0.0
 10
210.1975902117242
 20
403.1456585201914
 30
0.0
 10
210.4142858983461
 20
403.1731479643483
 30
0.0
  0
SPLINE
  5
96
330
1F
100
AcDbEntity
  8
0
  6
Continuous
 62
     7
370
    25
100
AcDbSpline
210
0.0
220
0.0
230
1.0
 70
     8
 71
     3
 72
     9
 73
     5
 74
     0
 42
0.00000001
 43
0.00000001
 40
0.0
 40
0.0
 40
0.0
 40
0.0
 40
0.5164171605389806
 40
0.9999999999999999
 40
0.9999999999999999
 40
0.9999999999999999
 40
0.9999999999999999
 10
220.0490869021875
 20
403.1731479643483
 30
0.0
 10
220.1823155816104
 20
403.1564495580805
 30
0.0
 10
220.4403021273787
 20
403.1241144469653
 30
0.0
 10
220.4343451877673
 20
403.1246223231166
 30
0.0
 10
220.4314645139957
 20
403.124867923308
 30
0.0
  0
ARC
  5
97
330
1F
100
AcDbEntity
  8
0
  6
Continuous
 62
     7
370
    25
100
AcDbCircle
 10
215.2316864003
 20
10297.564299424
 30
0.0
 40
10000.0
100
AcDbArc
 50
269.5831904602
 51
270.4168095398
  0
ARC
  5
98
330
1F
100
AcDbEntity
  8
0
  6
Continuous
 62
     7
370
    25
100
AcDbCircle
 10
10140.7316864003
 20
372.064299424
 30
0.0
 40
10000.0
100
AcDbArc
 50
179.5831904602
 51
180.4168095398
  0
ARC
  5
99
330
1F
100
AcDbEntity
  8
0
  6
Continuous
 62
     7
370
    25
100
AcDbCircle
 10
215.2316864003
 20
-9553.435700576
 30
0.0
 40
10000.0
100
AcDbArc
 50
89.5831904602
 51
90.4168095398
  0
ARC
  5
9A
330
1F
100
AcDbEntity
  8
0
  6
Continuous
 62
     7
370
    25
100
AcDbCircle
 10
-9710.2683135997
 20
372.064299424
 30
0.0
 40
10000.0
100
AcDbArc
 50
359.5831904602
 51
0.4168095398
  0
ARC
  5
9B
330
1F
100
AcDbEntity
  8
0
  6
Continuous
 62
     7
370
    25
100
AcDbCircle
 10
142.4962517574
 20
299.3288647811
 30
0.0
 40
1.500000000000152
100
AcDbArc
 50
180.4168095398
 51
269.5831904602
  0
ARC
  5
9C
330
1F
100
AcDbEntity
  8
0
  6
Continuous
 62
     7
370
    25
100
AcDbCircle
 10
142.4962517574
 20
444.7997340668
 30
0.0
 40
1.500000000000095
100
AcDbArc
 50
90.4168095398
 51
179.5831904602
  0
ARC
  5
9D
330
1F
100
AcDbEntity
  8
0
  6
Continuous
 62
     7
370
    25
100
AcDbCircle
 10
287.9671210431
 20
444.7997340668
 30
0.0
 40
1.500000000000095
100
AcDbArc
 50
0.4168095398
 51
89.5831904602
  0
ARC
  5
9E
330
1F
100
AcDbEntity
  8
0
  6
Continuous
 62
     7
370
    25
100
AcDbCircle
 10
287.9671210431
 20
299.3288647811
 30
0.0
 40
1.500000000000152
100
AcDbArc
 50
270.4168095398
 51
359.5831904602
  0
LINE
  5
9F
330
1F
100
AcDbEntity
  8
0
  6
Continuous
 62
     8
370
    18
100
AcDbLine
 10
238.5970426902
 20
346.9989888263
 30
0.0
 11
191.8663301103
 21
346.9989888263
 31
0.0
  0
LINE
  5
A0
330
1F
100
AcDbEntity
  8
0
  6
Continuous
 62
     8
370
    18
100
AcDbLine
 10
191.8663301103
 20
346.9989888263
 30
0.0
 11
191.8663301103
 21
348.198943134
 31
0.0
  0
LINE
  5
A1
330
1F
100
AcDbEntity
  8
0
  6
Continuous
 62
     8
370
    18
100
AcDbLine
 10
191.8663301103
 20
348.198943134
 30
0.0
 11
238.5970426902
 21
348.198943134
 31
0.0
  0
LINE
  5
A2
330
1F
100
AcDbEntity
  8
0
  6
Continuous
 62
     8
370
    18
100
AcDbLine
 10
238.5970426902
 20
346.9989888263
 30
0.0
 11
238.5970426902
 21
348.198943134
 31
0.0
  0
ARC
  5
A3
330
1F
100
AcDbEntity
  8
0
  6
Continuous
 62
     8
370
    18
100
AcDbCircle
 10
191.8664371421
 20
348.1990501658
 30
0.0
 40
1.200061344288299
100
AcDbArc
 50
180.0051101326
 51
269.9948898674
  0
LINE
  5
A4
330
1F
100
AcDbEntity
  8
0
  6
Continuous
 62
     8
370
    18
100
AcDbLine
 10
191.8663301103
 20
348.198943134
 30
0.0
 11
190.6663758026
 21
348.198943134
 31
0.0
  0
LINE
  5
A5
330
1F
100
AcDbEntity
  8
0
  6
Continuous
 62
     8
370
    18
100
AcDbLine
 10
191.8663301103
 20
395.9296557139
 30
0.0
 11
191.8663301103
 21
348.198943134
 31
0.0
  0
LINE
  5
A6
330
1F
100
AcDbEntity
  8
0
  6
Continuous
 62
     8
370
    18
100
AcDbLine
 10
190.6663758026
 20
348.198943134
 30
0.0
 11
190.6663758026
 21
395.9296557139
 31
0.0
  0
LINE
  5
A7
330
1F
100
AcDbEntity
  8
0
  6
Continuous
 62
     8
370
    18
100
AcDbLine
 10
191.8663301103
 20
395.9296557139
 30
0.0
 11
190.6663758026
 21
395.9296557139
 31
0.0
  0
ARC
  5
A8
330
1F
100
AcDbEntity
  8
0
  6
Continuous
 62
     8
370
    18
100
AcDbCircle
 10
191.8664371421
 20
395.9295486821
 30
0.0
 40
1.2000613442881
100
AcDbArc
 50
90.0051101326
 51
179.9948898674
  0
LINE
  5
A9
330
1F
100
AcDbEntity
  8
0
  6
Continuous
 62
     8
370
    18
100
AcDbLine
 10
191.8663301103
 20
395.9296557139
 30
0.0
 11
191.8663301103
 21
397.1296100216
 31
0.0
  0
LINE
  5
AA
330
1F
100
AcDbEntity
  8
0
  6
Continuous
 62
     8
370
    18
100
AcDbLine
 10
238.5970426902
 20
395.9296557139
 30
0.0
 11
191.8663301103
 21
395.9296557139
 31
0.0
  0
LINE
  5
AB
330
1F
100
AcDbEntity
  8
0
  6
Continuous
 62
     8
370
    18
100
AcDbLine
 10
191.8663301103
 20
397.1296100216
 30
0.0
 11
238.5970426902
 21
397.1296100216
 31
0.0
  0
LINE
  5
AC
330
1F
100
AcDbEntity
  8
0
  6
Continuous
 62
     8
370
    18
100
AcDbLine
 10
238.5970426902
 20
395.9296557139
 30
0.0
 11
238.5970426902
 21
397.1296100216
 31
0.0
  0
LINE
  5
AD
330
1F
100
AcDbEntity
  8
0
  6
Continuous
 62
     8
370
    18
100
AcDbLine
 10
238.5970426902
 20
348.198943134
 30
0.0
 11
238.5970426902
 21
395.9296557139
 31
0.0
  0
LINE
  5
AE
330
1F
100
AcDbEntity
  8
0
  6
Continuous
 62
     8
370
    18
100
AcDbLine
 10
239.7969969979
 20
348.198943134
 30
0.0
 11
238.5970426902
 21
348.198943134
 31
0.0
  0
ARC
  5
AF
330
1F
100
AcDbEntity
  8
0
  6
Continuous
 62
     8
370
    18
100
AcDbCircle
 10
238.5969356584
 20
348.1990501658
 30
0.0
 40
1.200061344288299
100
AcDbArc
 50
270.0051101326
 51
359.9948898674
  0
LINE
  5
B0
330
1F
100
AcDbEntity
  8
0
  6
Continuous
 62
     8
370
    18
100
AcDbLine
 10
239.7969969979
 20
395.9296557139
 30
0.0
 11
239.7969969979
 21
348.198943134
 31
0.0
  0
LINE
  5
B1
330
1F
100
AcDbEntity
  8
0
  6
Continuous
 62
     8
370
    18
100
AcDbLine
 10
239.7969969979
 20
395.9296557139
 30
0.0
 11
238.5970426902
 21
395.9296557139
 31
0.0
  0
ARC
  5
B2
330
1F
100
AcDbEntity
  8
0
  6
Continuous
 62
     8
370
    18
100
AcDbCircle
 10
238.5969356584
 20
395.9295486821
 30
0.0
 40
1.2000613442881
100
AcDbArc
 50
0.0051101326
 51
89.9948898674
  0
LINE
  5
B3
330
1F
100
AcDbEntity
  8
0
  6
Continuous
 62
     8
370
    18
100
AcDbLine
 10
191.8663301103
 20
346.9989888263
 30
0.0
 11
191.4273153517
 21
346.5599740677
 31
0.0
  0
LINE
  5
B4
330
1F
100
AcDbEntity
  8
0
  6
Continuous
 62
     8
370
    18
100
AcDbLine
 10
190.227361044
 20
347.7599283754
 30
0.0
 11
190.6663758026
 21
348.198943134
 31
0.0
  0
LINE
  5
B5
330
1F
100
AcDbEntity
  8
0
  6
Continuous
 62
     8
370
    18
100
AcDbLine
 10
190.6663758026
 20
395.9296557139
 30
0.0
 11
190.227361044
 21
396.3686704725
 31
0.0
  0
LINE
  5
B6
330
1F
100
AcDbEntity
  8
0
  6
Continuous
 62
     8
370
    18
100
AcDbLine
 10
191.4273153517
 20
397.5686247802
 30
0.0
 11
191.8663301103
 21
397.1296100216
 31
0.0
  0
LINE
  5
B7
330
1F
100
AcDbEntity
  8
0
  6
Continuous
 62
     8
370
    18
100
AcDbLine
 10
238.5970426902
 20
397.1296100216
 30
0.0
 11
239.0360574488
 21
397.5686247802
 31
0.0
  0
LINE
  5
B8
330
1F
100
AcDbEntity
  8
0
  6
Continuous
 62
     8
370
    18
100
AcDbLine
 10
240.2360117565
 20
396.3686704725
 30
0.0
 11
239.7969969979
 21
395.9296557139
 31
0.0
  0
LINE
  5
B9
330
1F
100
AcDbEntity
  8
0
  6
Continuous
 62
     8
370
    18
100
AcDbLine
 10
239.7969969979
 20
348.198943134
 30
0.0
 11
240.2360117565
 21
347.7599283754
 31
0.0
  0
LINE
  5
BA
330
1F
100
AcDbEntity
  8
0
  6
Continuous
 62
     8
370
    18
100
AcDbLine
 10
239.0360574488
 20
346.5599740677
 30
0.0
 11
238.5970426902
 21
346.9989888263
 31
0.0
  0
ARC
  5
BB
330
1F
100
AcDbEntity
  8
0
  6
Continuous
 62
     8
370
    18
100
AcDbCircle
 10
218.2363148702
 20
402.7583989003
 30
0.0
 40
1.029159666187848
100
AcDbArc
 50
344.1891721808
 51
30.0778787596
  0
SPLINE
  5
BC
330
1F
100
AcDbEntity
  8
0
  6
Continuous
 62
     8
370
    18
100
AcDbSpline
210
0.0
220
0.0
230
1.0
 70
     8
 71
     3
 72
    12
 73
     8
 74
     0
 42
0.00000001
 43
0.00000001
 40
0.0
 40
0.0
 40
0.0
 40
0.0
 40
0.4999999999999949
 40
0.4999999999999949
 40
0.7499999999999974
 40
0.7499999999999974
 40
1.0
 40
1.0
 40
1.0
 40
1.0
 10
219.2265378452599
 20
402.4779919137114
 30
0.0
 10
217.9116082229407
 20
402.6009332615959
 30
0.0
 10
216.5846632503244
 20
402.663855203517
 30
0.0
 10
214.5764526149736
 20
402.6645180265539
 30
0.0
 10
213.9011398607251
 20
402.6489373974263
 30
0.0
 10
212.5587340482878
 20
402.5862706720703
 30
0.0
 10
211.8943921429888
 20
402.5394712245404
 30
0.0
 10
211.2368349552737
 20
402.4779919137114
 30
0.0
  0
ARC
  5
BD
330
1F
100
AcDbEntity
  8
0
  6
Continuous
 62
     8
370
    18
100
AcDbCircle
 10
212.2270579304
 20
402.7583989003
 30
0.0
 40
1.029159666187946
100
AcDbArc
 50
149.9221212404
 51
195.8108278192
  0
LINE
  5
BE
330
1F
100
AcDbEntity
  8
0
  6
Continuous
 62
     8
370
    18
100
AcDbLine
 10
219.2265378453
 20
402.4779919137
 30
0.0
 11
219.2265378453
 21
397.2283054018
 31
0.0
  0
LINE
  5
BF
330
1F
100
AcDbEntity
  8
0
  6
Continuous
 62
     8
370
    18
100
AcDbLine
 10
211.2368349553
 20
402.4779919137
 30
0.0
 11
211.2368349553
 21
397.2283054018
 31
0.0
  0
ARC
  5
C0
330
1F
100
AcDbEntity
  8
0
  6
Continuous
 62
     8
370
    18
100
AcDbCircle
 10
219.9457002722
 20
402.3927582282
 30
0.0
 40
0.7872083177606822
100
AcDbArc
 50
358.996465446
 51
82.4533572427
  0
SPLINE
  5
C1
330
1F
100
AcDbEntity
  8
0
  6
Continuous
 62
     8
370
    18
100
AcDbSpline
210
0.0
220
0.0
230
1.0
 70
     8
 71
     3
 72
    14
 73
    10
 74
     0
 42
0.00000001
 43
0.00000001
 40
0.0
 40
0.0
 40
0.0
 40
0.0
 40
0.25
 40
0.25
 40
0.5
 40
0.5
 40
0.75
 40
0.75
 40
1.0
 40
1.0
 40
1.0
 40
1.0
 10
220.7327878452598
 20
402.3789709935403
 30
0.0
 10
220.6908409843714
 20
402.3820243406324
 30
0.0
 10
220.6242843093415
 20
402.3868522625958
 30
0.0
 10
220.4431741545007
 20
402.3996971877899
 30
0.0
 10
220.3293105342243
 20
402.4076582188962
 30
0.0
 10
220.0657486889656
 20
402.425520764831
 30
0.0
 10
219.9133754813335
 20
402.4355937843581
 30
0.0
 10
219.5877277371423
 20
402.4563032563789
 30
0.0
 10
219.4105415817271
 20
402.4671895844227
 30
0.0
 10
219.2265378452599
 20
402.4779919137114
 30
0.0
  0
LINE
  5
C2
330
1F
100
AcDbEntity
  8
0
  6
Continuous
 62
     8
370
    18
100
AcDbLine
 10
220.7327878453
 20
402.3789709935
 30
0.0
 11
220.7327878453
 21
397.2414502465
 31
0.0
  0
SPLINE
  5
C3
330
1F
100
AcDbEntity
  8
0
  6
Continuous
 62
     8
370
    18
100
AcDbSpline
210
0.0
220
0.0
230
1.0
 70
     8
 71
     3
 72
    14
 73
    10
 74
     0
 42
0.00000001
 43
0.00000001
 40
0.0
 40
0.0
 40
0.0
 40
0.0
 40
0.25
 40
0.25
 40
0.5
 40
0.5
 40
0.75
 40
0.75
 40
1.0
 40
1.0
 40
1.0
 40
1.0
 10
211.2368349552737
 20
402.4779919137114
 30
0.0
 10
211.0528029981956
 20
402.467187927672
 30
0.0
 10
210.8789422839325
 20
402.4565095829457
 30
0.0
 10
210.5510593077289
 20
402.4356646360376
 30
0.0
 10
210.3997414123401
 20
402.4256618021458
 30
0.0
 10
210.1358996533748
 20
402.4077851685797
 30
0.0
 10
210.0209899643304
 20
402.399752317599
 30
0.0
 10
209.8406308956392
 20
402.3869626352778
 30
0.0
 10
209.7725380742917
 20
402.3820247961669
 30
0.0
 10
209.7305849552737
 20
402.3789709935403
 30
0.0
  0
LINE
  5
C4
330
1F
100
AcDbEntity
  8
0
  6
Continuous
 62
     8
370
    18
100
AcDbLine
 10
209.7305849553
 20
402.3789709935
 30
0.0
 11
209.7305849553
 21
397.2414502465
 31
0.0
  0
ARC
  5
C5
330
1F
100
AcDbEntity
  8
0
  6
Continuous
 62
     8
370
    18
100
AcDbCircle
 10
210.5176725284
 20
402.3927582282
 30
0.0
 40
0.7872083177607001
100
AcDbArc
 50
97.5466427573
 51
181.003534554
  0
SPLINE
  5
C6
330
1F
100
AcDbEntity
  8
0
  6
Continuous
 62
     8
370
    18
100
AcDbSpline
210
0.0
220
0.0
230
1.0
 70
     8
 71
     3
 72
     9
 73
     5
 74
     0
 42
0.00000001
 43
0.00000001
 40
0.0
 40
0.0
 40
0.0
 40
0.0
 40
0.7354949523211977
 40
1.0
 40
1.0
 40
1.0
 40
1.0
 10
209.7305849552737
 20
402.3789709935403
 30
0.0
 10
209.5305132065139
 20
402.3547423829565
 30
0.0
 10
209.2584899273215
 20
402.3218004701571
 30
0.0
 10
209.323516438281
 20
402.3298237523834
 30
0.0
 10
209.3407162786628
 20
402.3319459510312
 30
0.0
  0
SPLINE
  5
C7
330
1F
100
AcDbEntity
  8
0
  6
Continuous
 62
     8
370
    18
100
AcDbSpline
210
0.0
220
0.0
230
1.0
 70
     8
 71
     3
 72
     9
 73
     5
 74
     0
 42
0.00000001
 43
0.00000001
 40
0.0
 40
0.0
 40
0.0
 40
0.0
 40
0.4951657717981258
 40
1.0
 40
1.0
 40
1.0
 40
1.0
 10
221.1226612569564
 20
402.3319453594439
 30
0.0
 10
221.1283099741664
 20
402.3313759387172
 30
0.0
 10
221.1397177037223
 20
402.3302259789278
 30
0.0
 10
220.8693026301971
 20
402.3626182608809
 30
0.0
 10
220.7327878452598
 20
402.3789709935403
 30
0.0
  0
SPLINE
  5
C8
330
1F
100
AcDbEntity
  8
0
  6
Continuous
 62
     8
370
    18
100
AcDbSpline
210
0.0
220
0.0
230
1.0
 70
     8
 71
     3
 72
     8
 73
     4
 74
     0
 42
0.00000001
 43
0.00000001
 40
0.0
 40
0.0
 40
0.0
 40
0.0
 40
1.0
 40
1.0
 40
1.0
 40
1.0
 10
142.6176082608598
 20
444.6783775633622
 30
0.0
 10
142.2791561033175
 20
396.2689921370891
 30
0.0
 10
142.279156103318
 20
347.8596067108159
 30
0.0
 10
142.6176082608603
 20
299.4502212845428
 30
0.0
  0
SPLINE
  5
C9
330
1F
100
AcDbEntity
  8
0
  6
Continuous
 62
     8
370
    18
100
AcDbSpline
210
0.0
220
0.0
230
1.0
 70
     8
 71
     3
 72
    26
 73
    22
 74
     0
 42
0.00000001
 43
0.00000001
 40
0.0
 40
0.0
 40
0.0
 40
0.0
 40
0.03125
 40
0.03125
 40
0.0625
 40
0.0625
 40
0.125
 40
0.125
 40
0.25
 40
0.25
 40
0.375
 40
0.375
 40
0.5
 40
0.5
 40
0.625
 40
0.625
 40
0.75
 40
0.75
 40
0.875
 40
0.875
 40
1.0
 40
1.0
 40
1.0
 40
1.0
 10
141.134673234513
 20
299.3189595327206
 30
0.0
 10
141.1353094424541
 20
299.3187947309732
 30
0.0
 10
141.1365387286544
 20
299.3186883113139
 30
0.0
 10
141.1401652600698
 20
299.3185909372164
 30
0.0
 10
141.1425625052848
 20
299.318599982778
 30
0.0
 10
141.1514788831964
 20
299.318798368861
 30
0.0
 10
141.1597226581596
 20
299.3191589587803
 30
0.0
 10
141.1911341820703
 20
299.3209101386644
 30
0.0
 10
141.2209821300396
 20
299.3229701387551
 30
0.0
 10
141.2973272497983
 20
299.328792099454
 30
0.0
 10
141.3445517455454
 20
299.3326111062067
 30
0.0
 10
141.4534600636902
 20
299.3417754356855
 30
0.0
 10
141.5148331559138
 20
299.3470904197487
 30
0.0
 10
141.6512678418773
 20
299.3591702065405
 30
0.0
 10
141.7269942226729
 20
299.3659977408228
 30
0.0
 10
141.8861969470878
 20
299.380571595398
 30
0.0
 10
141.970253451955
 20
299.3883677167035
 30
0.0
 10
142.1474114378856
 20
299.4049937416472
 30
0.0
 10
142.2399086227408
 20
299.4137690508658
 30
0.0
 10
142.4263374714002
 20
299.431632697361
 30
0.0
 10
142.5211487218703
 20
299.4408033171703
 30
0.0
 10
142.6176082608588
 20
299.4502212845435
 30
0.0
  0
SPLINE
  5
CA
330
1F
100
AcDbEntity
  8
0
  6
Continuous
 62
     8
370
    18
100
AcDbSpline
210
0.0
220
0.0
230
1.0
 70
     8
 71
     3
 72
     8
 73
     4
 74
     0
 42
0.00000001
 43
0.00000001
 40
0.0
 40
0.0
 40
0.0
 40
0.0
 40
1.0
 40
1.0
 40
1.0
 40
1.0
 10
141.1346732345133
 20
299.3189595327207
 30
0.0
 10
140.7949725046665
 20
347.8158527935418
 30
0.0
 10
140.7949725046674
 20
396.3127460543629
 30
0.0
 10
141.1346732345143
 20
444.809639315184
 30
0.0
  0
SPLINE
  5
CB
330
1F
100
AcDbEntity
  8
0
  6
Continuous
 62
     8
370
    18
100
AcDbSpline
210
0.0
220
0.0
230
1.0
 70
     8
 71
     3
 72
    26
 73
    22
 74
     0
 42
0.00000001
 43
0.00000001
 40
0.0
 40
0.0
 40
0.0
 40
0.0
 40
0.03125
 40
0.03125
 40
0.0625
 40
0.0625
 40
0.125
 40
0.125
 40
0.25
 40
0.25
 40
0.375
 40
0.375
 40
0.5
 40
0.5
 40
0.625
 40
0.625
 40
0.75
 40
0.75
 40
0.875
 40
0.875
 40
1.0
 40
1.0
 40
1.0
 40
1.0
 10
141.1346732345127
 20
444.8096393151841
 30
0.0
 10
141.1353094424539
 20
444.8098041169315
 30
0.0
 10
141.1365387286542
 20
444.8099105365907
 30
0.0
 10
141.1401652600695
 20
444.8100079106883
 30
0.0
 10
141.1425625052846
 20
444.8099988651266
 30
0.0
 10
141.1514788831962
 20
444.8098004790437
 30
0.0
 10
141.1597226581592
 20
444.8094398891244
 30
0.0
 10
141.1911341820699
 20
444.8076887092404
 30
0.0
 10
141.2209821300392
 20
444.8056287091496
 30
0.0
 10
141.2973272497978
 20
444.7998067484507
 30
0.0
 10
141.344551745545
 20
444.7959877416981
 30
0.0
 10
141.4534600636897
 20
444.7868234122194
 30
0.0
 10
141.5148331559137
 20
444.7815084281561
 30
0.0
 10
141.6512678418769
 20
444.7694286413645
 30
0.0
 10
141.7269942226731
 20
444.7626011070821
 30
0.0
 10
141.8861969470879
 20
444.7480272525071
 30
0.0
 10
141.9702534519553
 20
444.7402311312016
 30
0.0
 10
142.1474114378856
 20
444.723605106258
 30
0.0
 10
142.239908622741
 20
444.7148297970394
 30
0.0
 10
142.4263374714003
 20
444.6969661505444
 30
0.0
 10
142.5211487218703
 20
444.6877955307351
 30
0.0
 10
142.6176082608588
 20
444.678377563362
 30
0.0
  0
SPLINE
  5
CC
330
1F
100
AcDbEntity
  8
0
  6
Continuous
 62
     8
370
    18
100
AcDbSpline
210
0.0
220
0.0
230
1.0
 70
     8
 71
     3
 72
     8
 73
     4
 74
     0
 42
0.00000001
 43
0.00000001
 40
0.0
 40
0.0
 40
0.0
 40
0.0
 40
1.0
 40
1.0
 40
1.0
 40
1.0
 10
287.8457645396745
 20
444.6783775633622
 30
0.0
 10
239.4363791134026
 20
445.0168297209045
 30
0.0
 10
191.0269936871307
 20
445.0168297209045
 30
0.0
 10
142.6176082608588
 20
444.6783775633622
 30
0.0
  0
SPLINE
  5
CD
330
1F
100
AcDbEntity
  8
0
  6
Continuous
 62
     8
370
    18
100
AcDbSpline
210
0.0
220
0.0
230
1.0
 70
     8
 71
     3
 72
     8
 73
     4
 74
     0
 42
0.00000001
 43
0.00000001
 40
0.0
 40
0.0
 40
0.0
 40
0.0
 40
1.0
 40
1.0
 40
1.0
 40
1.0
 10
287.8457645396718
 20
299.4502212845437
 30
0.0
 10
288.1842166972141
 20
347.8596067108163
 30
0.0
 10
288.1842166972141
 20
396.2689921370889
 30
0.0
 10
287.8457645396718
 20
444.6783775633614
 30
0.0
  0
SPLINE
  5
CE
330
1F
100
AcDbEntity
  8
0
  6
Continuous
 62
     8
370
    18
100
AcDbSpline
210
0.0
220
0.0
230
1.0
 70
     8
 71
     3
 72
     8
 73
     4
 74
     0
 42
0.00000001
 43
0.00000001
 40
0.0
 40
0.0
 40
0.0
 40
0.0
 40
1.0
 40
1.0
 40
1.0
 40
1.0
 10
142.6176082608595
 20
299.450221284543
 30
0.0
 10
191.0269936871309
 20
299.1117691270008
 30
0.0
 10
239.4363791134022
 20
299.1117691270019
 30
0.0
 10
287.8457645396736
 20
299.4502212845441
 30
0.0
  0
SPLINE
  5
CF
330
1F
100
AcDbEntity
  8
0
  6
Continuous
 62
     8
370
    18
100
AcDbSpline
210
0.0
220
0.0
230
1.0
 70
     8
 71
     3
 72
    26
 73
    22
 74
     0
 42
0.00000001
 43
0.00000001
 40
0.0
 40
0.0
 40
0.0
 40
0.0
 40
0.03125
 40
0.03125
 40
0.0625
 40
0.0625
 40
0.125
 40
0.125
 40
0.25
 40
0.25
 40
0.375
 40
0.375
 40
0.5
 40
0.5
 40
0.625
 40
0.625
 40
0.75
 40
0.75
 40
0.875
 40
0.875
 40
1.0
 40
1.0
 40
1.0
 40
1.0
 10
287.9770262915011
 20
297.9672862581964
 30
0.0
 10
287.9771910932485
 20
297.9679224661375
 30
0.0
 10
287.9772975129077
 20
297.9691517523378
 30
0.0
 10
287.9773948870052
 20
297.9727782837533
 30
0.0
 10
287.9773858414436
 20
297.9751755289682
 30
0.0
 10
287.9771874553606
 20
297.9840919068798
 30
0.0
 10
287.9768268654414
 20
297.9923356818429
 30
0.0
 10
287.9750756855572
 20
298.0237472057537
 30
0.0
 10
287.9730156854663
 20
298.053595153723
 30
0.0
 10
287.9671937247672
 20
298.1299402734818
 30
0.0
 10
287.9633747180144
 20
298.1771647692293
 30
0.0
 10
287.9542103885353
 20
298.2860730873741
 30
0.0
 10
287.9488954044719
 20
298.3474461795979
 30
0.0
 10
287.9368156176797
 20
298.4838808655614
 30
0.0
 10
287.929988083397
 20
298.5596072463587
 30
0.0
 10
287.9154142288214
 20
298.7188099707736
 30
0.0
 10
287.9076181075159
 20
298.8028664756395
 30
0.0
 10
287.8909920825718
 20
298.9800244615701
 30
0.0
 10
287.8822167733528
 20
299.0725216464257
 30
0.0
 10
287.8643531268571
 20
299.2589504950852
 30
0.0
 10
287.8551825070475
 20
299.3537617455554
 30
0.0
 10
287.845764539674
 20
299.4502212845438
 30
0.0
  0
SPLINE
  5
D0
330
1F
100
AcDbEntity
  8
0
  6
Continuous
 62
     8
370
    18
100
AcDbSpline
210
0.0
220
0.0
230
1.0
 70
     8
 71
     3
 72
     8
 73
     4
 74
     0
 42
0.00000001
 43
0.00000001
 40
0.0
 40
0.0
 40
0.0
 40
0.0
 40
1.0
 40
1.0
 40
1.0
 40
1.0
 10
287.977026291501
 20
297.9672862581975
 30
0.0
 10
239.4801330306796
 20
297.6275855283506
 30
0.0
 10
190.9832397698581
 20
297.6275855283494
 30
0.0
 10
142.4863465090367
 20
297.9672862581962
 30
0.0
  0
SPLINE
  5
D1
330
1F
100
AcDbEntity
  8
0
  6
Continuous
 62
     8
370
    18
100
AcDbSpline
210
0.0
220
0.0
230
1.0
 70
     8
 71
     3
 72
    21
 73
    17
 74
     0
 42
0.00000001
 43
0.00000001
 40
0.0
 40
0.0
 40
0.0
 40
0.0
 40
0.0527050586762826
 40
0.1061279071725774
 40
0.1602714805693632
 40
0.2151385976729586
 40
0.2707319665638711
 40
0.3270541898383076
 40
0.3841077695533525
 40
0.4418951119045277
 40
0.500418531633539
 40
0.6190410166253884
 40
0.7500271579256018
 40
0.8150588969038448
 40
0.898388478829127
 40
1.0
 40
1.0
 40
1.0
 40
1.0
 10
142.4863465090367
 20
297.9672862581972
 30
0.0
 10
142.4861696794786
 20
297.9692956480974
 30
0.0
 10
142.4858136121222
 20
297.9733417937646
 30
0.0
 10
142.4865604905699
 20
297.9921041421782
 30
0.0
 10
142.4882475289554
 20
298.0205131346798
 30
0.0
 10
142.4909810482079
 20
298.059690974873
 30
0.0
 10
142.4947460209684
 20
298.1095034691905
 30
0.0
 10
142.4995602727591
 20
298.1700450108541
 30
0.0
 10
142.5054324369371
 20
298.2412190675817
 30
0.0
 10
142.5123721979688
 20
298.3228577671271
 30
0.0
 10
142.5231025978967
 20
298.4456541737185
 30
0.0
 10
142.5397209916353
 20
298.6293780748096
 30
0.0
 10
142.5594275806511
 20
298.8429732298459
 30
0.0
 10
142.5785489901809
 20
299.04441410737
 30
0.0
 10
142.5963601848393
 20
299.2310281756189
 30
0.0
 10
142.6100736960233
 20
299.3724954382525
 30
0.0
 10
142.6176082608586
 20
299.4502212845433
 30
0.0
  0
SPLINE
  5
D2
330
1F
100
AcDbEntity
  8
0
  6
Continuous
 62
     8
370
    18
100
AcDbSpline
210
0.0
220
0.0
230
1.0
 70
     8
 71
     3
 72
     8
 73
     4
 74
     0
 42
0.00000001
 43
0.00000001
 40
0.0
 40
0.0
 40
0.0
 40
0.0
 40
1.0
 40
1.0
 40
1.0
 40
1.0
 10
142.4863465090378
 20
446.1613125897075
 30
0.0
 10
190.9832397698573
 20
446.5010133195543
 30
0.0
 10
239.4801330306769
 20
446.5010133195551
 30
0.0
 10
287.9770262914964
 20
446.1613125897082
 30
0.0
  0
SPLINE
  5
D3
330
1F
100
AcDbEntity
  8
0
  6
Continuous
 62
     8
370
    18
100
AcDbSpline
210
0.0
220
0.0
230
1.0
 70
     8
 71
     3
 72
    26
 73
    22
 74
     0
 42
0.00000001
 43
0.00000001
 40
0.0
 40
0.0
 40
0.0
 40
0.0
 40
0.03125
 40
0.03125
 40
0.0625
 40
0.0625
 40
0.125
 40
0.125
 40
0.25
 40
0.25
 40
0.375
 40
0.375
 40
0.5
 40
0.5
 40
0.625
 40
0.625
 40
0.75
 40
0.75
 40
0.875
 40
0.875
 40
1.0
 40
1.0
 40
1.0
 40
1.0
 10
287.9770262914966
 20
446.1613125897086
 30
0.0
 10
287.977191093244
 20
446.1606763817675
 30
0.0
 10
287.9772975129031
 20
446.1594470955671
 30
0.0
 10
287.9773948870007
 20
446.1558205641518
 30
0.0
 10
287.9773858414391
 20
446.1534233189368
 30
0.0
 10
287.977187455356
 20
446.1445069410253
 30
0.0
 10
287.9768268654368
 20
446.1362631660622
 30
0.0
 10
287.9750756855528
 20
446.1048516421515
 30
0.0
 10
287.973015685462
 20
446.0750036941824
 30
0.0
 10
287.9671937247632
 20
445.9986585744236
 30
0.0
 10
287.9633747180105
 20
445.9514340786761
 30
0.0
 10
287.9542103885317
 20
445.8425257605313
 30
0.0
 10
287.9488954044685
 20
445.7811526683075
 30
0.0
 10
287.9368156176768
 20
445.6447179823442
 30
0.0
 10
287.9299880833942
 20
445.5689916015468
 30
0.0
 10
287.9154142288191
 20
445.4097888771319
 30
0.0
 10
287.9076181075139
 20
445.3257323722661
 30
0.0
 10
287.8909920825703
 20
445.1485743863355
 30
0.0
 10
287.8822167733517
 20
445.0560772014796
 30
0.0
 10
287.8643531268564
 20
444.8696483528203
 30
0.0
 10
287.8551825070472
 20
444.7748371023503
 30
0.0
 10
287.8457645396741
 20
444.6783775633619
 30
0.0
  0
SPLINE
  5
D4
330
1F
100
AcDbEntity
  8
0
  6
Continuous
 62
     8
370
    18
100
AcDbSpline
210
0.0
220
0.0
230
1.0
 70
     8
 71
     3
 72
    21
 73
    17
 74
     0
 42
0.00000001
 43
0.00000001
 40
0.0
 40
0.0
 40
0.0
 40
0.0
 40
0.0527015849055315
 40
0.1061218290185266
 40
0.1602636673742996
 40
0.2151299185905191
 40
0.2707232904323063
 40
0.3270463850636441
 40
0.3841017040100639
 40
0.4418916528422066
 40
0.5004185455961658
 40
0.6190205570885717
 40
0.7500271669233991
 40
0.8150462880616015
 40
0.8983758744115322
 40
1.0
 40
1.0
 40
1.0
 40
1.0
 10
142.4863465090377
 20
446.1613125897078
 30
0.0
 10
142.4861696983814
 20
446.1593033938636
 30
0.0
 10
142.4858136660104
 20
446.1552576040032
 30
0.0
 10
142.4865605813555
 20
446.1364971035117
 30
0.0
 10
142.4882476342388
 20
446.1080903177867
 30
0.0
 10
142.4909811536442
 20
446.0689146299262
 30
0.0
 10
142.4947461140293
 20
446.0191037136302
 30
0.0
 10
142.4995603514727
 20
445.958562693283
 30
0.0
 10
142.505432488448
 20
445.8873876391763
 30
0.0
 10
142.5123722803428
 20
445.805746020862
 30
0.0
 10
142.5231011886886
 20
445.6829574063934
 30
0.0
 10
142.5397197568811
 20
445.4992343127535
 30
0.0
 10
142.5594254699141
 20
445.285648903458
 30
0.0
 10
142.578547078422
 20
445.0842032038224
 30
0.0
 10
142.5963583210208
 20
444.8975899999655
 30
0.0
 10
142.6100727634403
 20
444.7561130658017
 30
0.0
 10
142.6176082608585
 20
444.6783775633637
 30
0.0
  0
SPLINE
  5
D5
330
1F
100
AcDbEntity
  8
0
  6
Continuous
 62
     8
370
    18
100
AcDbSpline
210
0.0
220
0.0
230
1.0
 70
     8
 71
     3
 72
     8
 73
     4
 74
     0
 42
0.00000001
 43
0.00000001
 40
0.0
 40
0.0
 40
0.0
 40
0.0
 40
1.0
 40
1.0
 40
1.0
 40
1.0
 10
289.3286995660198
 20
444.8096393151839
 30
0.0
 10
289.6684002958666
 20
396.3127460543629
 30
0.0
 10
289.6684002958657
 20
347.8158527935419
 30
0.0
 10
289.3286995660189
 20
299.3189595327209
 30
0.0
  0
SPLINE
  5
D6
330
1F
100
AcDbEntity
  8
0
  6
Continuous
 62
     8
370
    18
100
AcDbSpline
210
0.0
220
0.0
230
1.0
 70
     8
 71
     3
 72
    21
 73
    17
 74
     0
 42
0.00000001
 43
0.00000001
 40
0.0
 40
0.0
 40
0.0
 40
0.0
 40
0.0527050579352207
 40
0.1061279058754591
 40
0.1602714789028255
 40
0.2151385958221075
 40
0.2707319647140603
 40
0.3270541881741973
 40
0.3841077682616634
 40
0.441895111169814
 40
0.5004185316406452
 40
0.619041008837737
 40
0.7500271579306742
 40
0.8150588915858049
 40
0.8983884735138788
 40
1.0
 40
1.0
 40
1.0
 40
1.0
 10
289.3286995660188
 20
299.3189595327209
 30
0.0
 10
289.3266901761584
 20
299.318782703167
 30
0.0
 10
289.3226440305638
 20
299.318426635818
 30
0.0
 10
289.3038816825493
 20
299.3191735142734
 30
0.0
 10
289.2754726905171
 20
299.3208605526616
 30
0.0
 10
289.2362948507811
 20
299.3235940719143
 30
0.0
 10
289.1864823568056
 20
299.3273590446719
 30
0.0
 10
289.1259408152505
 20
299.3321732964602
 30
0.0
 10
289.0547667583108
 20
299.3380454606315
 30
0.0
 10
288.9731280581429
 20
299.3449852216736
 30
0.0
 10
288.8503316549998
 20
299.355715621109
 30
0.0
 10
288.6666077545698
 20
299.3723340149826
 30
0.0
 10
288.4530126035869
 20
299.3920406035145
 30
0.0
 10
288.2515717246276
 20
299.4111620130076
 30
0.0
 10
288.0649576567448
 20
299.4289732076929
 30
0.0
 10
287.9234903900343
 20
299.4426867192991
 30
0.0
 10
287.8457645396729
 20
299.4502212845438
 30
0.0
  0
SPLINE
  5
D7
330
1F
100
AcDbEntity
  8
0
  6
Continuous
 62
     8
370
    18
100
AcDbSpline
210
0.0
220
0.0
230
1.0
 70
     8
 71
     3
 72
    21
 73
    17
 74
     0
 42
0.00000001
 43
0.00000001
 40
0.0
 40
0.0
 40
0.0
 40
0.0
 40
0.0527015852606821
 40
0.1061218296399109
 40
0.1602636681730565
 40
0.2151299194772619
 40
0.2707232913172771
 40
0.3270463858581226
 40
0.3841017046251011
 40
0.44189165318822
 40
0.5004185455842228
 40
0.6190205634986506
 40
0.7500271669109574
 40
0.8150462982097522
 40
0.8983758845578237
 40
1.0
 40
1.0
 40
1.0
 40
1.0
 10
289.3286995660175
 20
444.8096393151839
 30
0.0
 10
289.3266903701534
 20
444.809816125842
 30
0.0
 10
289.3226445802564
 20
444.8101721582164
 30
0.0
 10
289.303884079575
 20
444.8094252428755
 30
0.0
 10
289.2754772936245
 20
444.8077381899935
 30
0.0
 10
289.2363016055396
 20
444.8050046705881
 30
0.0
 10
289.1864906890851
 20
444.8012397102016
 30
0.0
 10
289.1259496686836
 20
444.7964254727569
 30
0.0
 10
289.0547746146769
 20
444.7905533357776
 30
0.0
 10
288.9731329966639
 20
444.7836135438907
 30
0.0
 10
288.8503443791425
 20
444.7728846351699
 30
0.0
 10
288.6666212848
 20
444.7562660671273
 30
0.0
 10
288.4530358682632
 20
444.7365603532491
 30
0.0
 10
288.251590165265
 20
444.7174387443098
 30
0.0
 10
288.0649769607085
 20
444.6996275017313
 30
0.0
 10
287.9235000343339
 20
444.6859130600408
 30
0.0
 10
287.8457645396716
 20
444.6783775633619
 30
0.0
  0
LINE
  5
D8
330
1F
100
AcDbEntity
  8
0
  6
Continuous
 62
     8
370
    18
100
AcDbLine
 10
142.4853398055
 20
297.8289044719
 30
0.0
 11
142.486346509
 21
297.9672862582
 31
0.0
  0
LINE
  5
D9
330
1F
100
AcDbEntity
  8
0
  6
Continuous
 62
     8
370
    18
100
AcDbLine
 10
287.9780329951
 20
297.8289044719
 30
0.0
 11
287.9770262915
 21
297.9672862582
 31
0.0
  0
LINE
  5
DA
330
1F
100
AcDbEntity
  8
0
  6
Continuous
 62
     8
370
    18
100
AcDbLine
 10
140.9962914482
 20
444.8106460188
 30
0.0
 11
141.1346732345
 21
444.8096393152
 31
0.0
  0
LINE
  5
DB
330
1F
100
AcDbEntity
  8
0
  6
Continuous
 62
     8
370
    18
100
AcDbLine
 10
140.9962914482
 20
299.3179528291
 30
0.0
 11
141.1346732345
 21
299.3189595327
 31
0.0
  0
LINE
  5
DC
330
1F
100
AcDbEntity
  8
0
  6
Continuous
 62
     8
370
    18
100
AcDbLine
 10
287.9780329951
 20
446.299694376
 30
0.0
 11
287.9770262915
 21
446.1613125897
 31
0.0
  0
LINE
  5
DD
330
1F
100
AcDbEntity
  8
0
  6
Continuous
 62
     8
370
    18
100
AcDbLine
 10
142.4853398055
 20
446.299694376
 30
0.0
 11
142.486346509
 21
446.1613125897
 31
0.0
  0
LINE
  5
DE
330
1F
100
AcDbEntity
  8
0
  6
Continuous
 62
     8
370
    18
100
AcDbLine
 10
289.4670813523
 20
299.3179528291
 30
0.0
 11
289.328699566
 21
299.3189595327
 31
0.0
  0
LINE
  5
DF
330
1F
100
AcDbEntity
  8
0
  6
Continuous
 62
     8
370
    18
100
AcDbLine
 10
289.4670813523
 20
444.8106460188
 30
0.0
 11
289.328699566
 21
444.8096393152
 31
0.0
  0
SPLINE
  5
E0
330
1F
100
AcDbEntity
  8
0
  6
Continuous
 62
     8
370
    18
100
AcDbSpline
210
0.0
220
0.0
230
1.0
 70
     8
 71
     3
 72
    25
 73
    21
 74
     0
 42
0.00000001
 43
0.00000001
 40
0.0
 40
0.0
 40
0.0
 40
0.0
 40
0.0555740770039936
 40
0.1111416178392036
 40
0.1667034390187411
 40
0.2222603572587903
 40
0.2778131894496921
 40
0.3333627526269595
 40
0.3889098639423072
 40
0.4444553406345891
 40
0.5000000000008151
 40
0.5555446593670192
 40
0.6110901360592408
 40
0.666637247374487
 40
0.7221868105516234
 40
0.7777396427423436
 40
0.833296560982168
 40
0.8888583821614459
 40
0.9444259229963615
 40
1.0
 40
1.0
 40
1.0
 40
1.0
 10
141.1346732345147
 20
444.8096393151841
 30
0.0
 10
141.1359641685749
 20
444.8488695275013
 30
0.0
 10
141.1385458848664
 20
444.9273253381988
 30
0.0
 10
141.1552741290714
 20
445.0440327410305
 30
0.0
 10
141.1812800619194
 20
445.1589113592334
 30
0.0
 10
141.2172939084037
 20
445.2710988619967
 30
0.0
 10
141.2627988643979
 20
445.3797613168426
 30
0.0
 10
141.3175217049027
 20
445.4840888361544
 30
0.0
 10
141.3810364941058
 20
445.5833044162948
 30
0.0
 10
141.4528744690041
 20
445.6766689378983
 30
0.0
 10
141.532498929494
 20
445.7634868947302
 30
0.0
 10
141.619316886326
 20
445.84311135522
 30
0.0
 10
141.7126814079296
 20
445.9149493301181
 30
0.0
 10
141.8118969880701
 20
445.9784641193206
 30
0.0
 10
141.9162245073817
 20
446.0331869598252
 30
0.0
 10
142.0248869622274
 20
446.0786919158189
 30
0.0
 10
142.1370744649902
 20
446.1147057623029
 30
0.0
 10
142.2519530831926
 20
446.1407116951508
 30
0.0
 10
142.3686604860237
 20
446.1574399393557
 30
0.0
 10
142.4471162967207
 20
446.1600216556471
 30
0.0
 10
142.4863465090376
 20
446.1613125897074
 30
0.0
  0
SPLINE
  5
E1
330
1F
100
AcDbEntity
  8
0
  6
Continuous
 62
     8
370
    18
100
AcDbSpline
210
0.0
220
0.0
230
1.0
 70
     8
 71
     3
 72
    25
 73
    21
 74
     0
 42
0.00000001
 43
0.00000001
 40
0.0
 40
0.0
 40
0.0
 40
0.0
 40
0.0555740769952392
 40
0.1111416178227258
 40
0.1667034389955471
 40
0.222260357229937
 40
0.2778131894162096
 40
0.3333627525898717
 40
0.3889098639026335
 40
0.444455340593372
 40
0.4999999999590666
 40
0.555544659325781
 40
0.6110901360195585
 40
0.6666372473373833
 40
0.7221868105181114
 40
0.7777396427134713
 40
0.8332965609589694
 40
0.8888583821449405
 40
0.9444259229875822
 40
1.0
 40
1.0
 40
1.0
 40
1.0
 10
142.4863465090365
 20
297.9672862581976
 30
0.0
 10
142.4471162967256
 20
297.9685771922576
 30
0.0
 10
142.3686604860398
 20
297.9711589085484
 30
0.0
 10
142.2519530832242
 20
297.9878871527488
 30
0.0
 10
142.1370744650345
 20
298.0138930855903
 30
0.0
 10
142.0248869622813
 20
298.0499069320664
 30
0.0
 10
141.9162245074423
 20
298.0954118880515
 30
0.0
 10
141.8118969881345
 20
298.1501347285471
 30
0.0
 10
141.7126814079949
 20
298.2136495177412
 30
0.0
 10
141.6193168863896
 20
298.2854874926317
 30
0.0
 10
141.5324989295536
 20
298.3651119531153
 30
0.0
 10
141.4528744690574
 20
298.4519299099429
 30
0.0
 10
141.3810364941516
 20
298.5452944315446
 30
0.0
 10
141.3175217049401
 20
298.6445100116858
 30
0.0
 10
141.2627988644264
 20
298.7488375310012
 30
0.0
 10
141.2172939084236
 20
298.8574999858536
 30
0.0
 10
141.1812800619314
 20
298.9696874886264
 30
0.0
 10
141.1552741290769
 20
299.0845661068418
 30
0.0
 10
141.1385458848674
 20
299.2012735096889
 30
0.0
 10
141.1359641685753
 20
299.2797293203975
 30
0.0
 10
141.1346732345147
 20
299.3189595327206
 30
0.0
  0
SPLINE
  5
E2
330
1F
100
AcDbEntity
  8
0
  6
Continuous
 62
     8
370
    18
100
AcDbSpline
210
0.0
220
0.0
230
1.0
 70
     8
 71
     3
 72
    25
 73
    21
 74
     0
 42
0.00000001
 43
0.00000001
 40
0.0
 40
0.0
 40
0.0
 40
0.0
 40
0.0555740769933505
 40
0.1111416178191708
 40
0.1667034389905731
 40
0.2222603572237472
 40
0.2778131894090135
 40
0.3333627525819086
 40
0.3889098638941338
 40
0.4444553405845451
 40
0.4999999999501458
 40
0.5555446593169738
 40
0.6110901360110845
 40
0.6666372473294588
 40
0.7221868105109722
 40
0.7777396427073159
 40
0.8332965609540259
 40
0.8888583821414346
 40
0.9444259229857188
 40
1.0
 40
1.0
 40
1.0
 40
1.0
 10
287.9770262914966
 20
446.1613125897074
 30
0.0
 10
288.0162565038062
 20
446.1600216556474
 30
0.0
 10
288.0947123144895
 20
446.1574399393567
 30
0.0
 10
288.2114197173019
 20
446.1407116951573
 30
0.0
 10
288.3262983354886
 20
446.1147057623173
 30
0.0
 10
288.4384858382398
 20
446.078691915843
 30
0.0
 10
288.5471482930773
 20
446.0331869598598
 30
0.0
 10
288.6514758123844
 20
445.9784641193662
 30
0.0
 10
288.7506913925238
 20
445.914949330174
 30
0.0
 10
288.8440559141295
 20
445.8431113552851
 30
0.0
 10
288.9308738709666
 20
445.7634868948028
 30
0.0
 10
289.010498331464
 20
445.6766689379761
 30
0.0
 10
289.0823363063715
 20
445.5833044163749
 30
0.0
 10
289.1458510955849
 20
445.4840888362334
 30
0.0
 10
289.2005739361006
 20
445.3797613169172
 30
0.0
 10
289.2460788921053
 20
445.2710988620632
 30
0.0
 10
289.2820927385991
 20
445.1589113592881
 30
0.0
 10
289.308098671455
 20
445.0440327410699
 30
0.0
 10
289.3248269156656
 20
444.9273253382194
 30
0.0
 10
289.3274086319578
 20
444.8488695275083
 30
0.0
 10
289.3286995660185
 20
444.8096393151839
 30
0.0
  0
SPLINE
  5
E3
330
1F
100
AcDbEntity
  8
0
  6
Continuous
 62
     8
370
    18
100
AcDbSpline
210
0.0
220
0.0
230
1.0
 70
     8
 71
     3
 72
    25
 73
    21
 74
     0
 42
0.00000001
 43
0.00000001
 40
0.0
 40
0.0
 40
0.0
 40
0.0
 40
0.0555740770111252
 40
0.1111416178526276
 40
0.1667034390376253
 40
0.2222603572822905
 40
0.2778131894769707
 40
0.3333627526571805
 40
0.3889098639746279
 40
0.4444553406681796
 40
0.5000000000348266
 40
0.5555446594006141
 40
0.6110901360915861
 40
0.6666372474047341
 40
0.7221868105789273
 40
0.7777396427658625
 40
0.8332965610010795
 40
0.8888583821748912
 40
0.9444259230034928
 40
1.0
 40
1.0
 40
1.0
 40
1.0
 10
289.3286995660185
 20
299.3189595327208
 30
0.0
 10
289.327408631958
 20
299.2797293203987
 30
0.0
 10
289.324826915666
 20
299.2012735096919
 30
0.0
 10
289.3080986714572
 20
299.0845661068475
 30
0.0
 10
289.2820927386038
 20
298.9696874886343
 30
0.0
 10
289.2460788921131
 20
298.857499985863
 30
0.0
 10
289.2005739361118
 20
298.7488375310118
 30
0.0
 10
289.1458510955996
 20
298.6445100116971
 30
0.0
 10
289.0823363063897
 20
298.5452944315561
 30
0.0
 10
289.0104983314853
 20
298.4519299099542
 30
0.0
 10
288.9308738709905
 20
298.365111953126
 30
0.0
 10
288.8440559141554
 20
298.2854874926415
 30
0.0
 10
288.7506913925507
 20
298.2136495177497
 30
0.0
 10
288.6514758124113
 20
298.1501347285543
 30
0.0
 10
288.5471482931032
 20
298.0954118880572
 30
0.0
 10
288.4384858382636
 20
298.0499069320706
 30
0.0
 10
288.3262983355093
 20
298.0138930855931
 30
0.0
 10
288.2114197173179
 20
297.9878871527504
 30
0.0
 10
288.0947123145002
 20
297.971158908549
 30
0.0
 10
288.0162565038129
 20
297.9685771922578
 30
0.0
 10
287.9770262915011
 20
297.9672862581976
 30
0.0
  0
ARC
  5
E4
330
1F
100
AcDbEntity
  8
0
  6
Continuous
 62
     7
370
    25
100
AcDbCircle
 10
215.2316864002
 20
7186.2968742841
 30
0.0
 40
6999.999999999999
100
AcDbArc
 50
269.4035571272
 51
269.813379131
  0
ARC
  5
E5
330
1F
100
AcDbEntity
  8
0
  6
Continuous
 62
     7
370
    25
100
AcDbCircle
 10
215.2316864002
 20
7186.2968742841
 30
0.0
 40
7000.000000000001
100
AcDbArc
 50
270.186620869
 51
270.596443072
  0
ARC
  5
E6
330
1F
100
AcDbEntity
  8
0
  6
Continuous
 62
     7
370
    25
100
AcDbCircle
 10
288.0839862694
 20
188.176069925
 30
0.0
 40
1.499999999999983
100
AcDbArc
 50
270.6099342097
 51
358.489310213
  0
ARC
  5
E7
330
1F
100
AcDbEntity
  8
0
  6
Continuous
 62
     7
370
    25
100
AcDbCircle
 10
142.3793865311
 20
188.176069925
 30
0.0
 40
1.499999999999977
100
AcDbArc
 50
181.5241076746
 51
269.4065979698
  0
LINE
  5
E8
330
1F
100
AcDbEntity
  8
0
  6
Continuous
 62
     7
370
    25
100
AcDbLine
 10
140.7316864003
 20
193.7968742841
 30
0.0
 11
140.8799001685
 21
188.1368188284
 31
0.0
  0
LINE
  5
E9
330
1F
100
AcDbEntity
  8
0
  6
Continuous
 62
     7
370
    25
100
AcDbLine
 10
289.583472632
 20
188.1368188284
 30
0.0
 11
289.7316864003
 21
193.7968742841
 31
0.0
  0
LINE
  5
EA
330
1F
100
AcDbEntity
  8
0
  6
Continuous
 62
     7
370
    25
100
AcDbLine
 10
238.0316864003
 20
173.7968742841
 30
0.0
 11
238.0316864003
 21
186.3340058111
 31
0.0
  0
LINE
  5
EB
330
1F
100
AcDbEntity
  8
0
  6
Continuous
 62
     7
370
    25
100
AcDbLine
 10
192.4316864003
 20
186.3340058111
 30
0.0
 11
192.4316864003
 21
173.7968742841
 31
0.0
  0
ARC
  5
EC
330
1F
100
AcDbEntity
  8
0
  6
Continuous
 62
     7
370
    25
100
AcDbCircle
 10
236.0316864003
 20
173.7968742841
 30
0.0
 40
2.0
100
AcDbArc
 50
270.0
 51
0.0
  0
ARC
  5
ED
330
1F
100
AcDbEntity
  8
0
  6
Continuous
 62
     7
370
    25
100
AcDbCircle
 10
194.4316864003
 20
173.7968742841
 30
0.0
 40
2.0
100
AcDbArc
 50
180.0
 51
270.0
  0
LINE
  5
EE
330
1F
100
AcDbEntity
  8
0
  6
Continuous
 62
     7
370
    25
100
AcDbLine
 10
238.4816864007
 20
170.7968742841
 30
0.0
 11
238.4816864007
 21
171.7968742841
 31
0.0
  0
LINE
  5
EF
330
1F
100
AcDbEntity
  8
0
  6
Continuous
 62
     7
370
    25
100
AcDbLine
 10
192.1316863971
 20
171.7968742841
 30
0.0
 11
192.1316863971
 21
170.7968742841
 31
0.0
  0
LINE
  5
F0
330
1F
100
AcDbEntity
  8
0
  6
Continuous
 62
     7
370
    25
100
AcDbLine
 10
287.9780329951
 20
193.7968742841
 30
0.0
 11
142.4853398055
 21
193.7968742841
 31
0.0
  0
LINE
  5
F1
330
1F
100
AcDbEntity
  8
0
  6
Continuous
 62
     7
370
    25
100
AcDbLine
 10
215.2316864003
 20
186.3340058111
 30
0.0
 11
238.0316864003
 21
186.3340058111
 31
0.0
  0
LINE
  5
F2
330
1F
100
AcDbEntity
  8
0
  6
Continuous
 62
     7
370
    25
100
AcDbLine
 10
192.4316864002
 20
186.3340058111
 30
0.0
 11
215.2316864003
 21
186.3340058111
 31
0.0
  0
LINE
  5
F3
330
1F
100
AcDbEntity
  8
0
  6
Continuous
 62
     7
370
    25
100
AcDbLine
 10
289.4670813523
 20
193.7968742841
 30
0.0
 11
289.328699566
 21
188.5121472336
 31
0.0
  0
LINE
  5
F4
330
1F
100
AcDbEntity
  8
0
  6
Continuous
 62
     7
370
    25
100
AcDbLine
 10
287.9780329951
 20
193.7968742841
 30
0.0
 11
289.4670813523
 21
193.7968742841
 31
0.0
  0
LINE
  5
F5
330
1F
100
AcDbEntity
  8
0
  6
Continuous
 62
     7
370
    25
100
AcDbLine
 10
140.9962914482
 20
193.7968742841
 30
0.0
 11
141.1346732345
 21
188.5121472336
 31
0.0
  0
LINE
  5
F6
330
1F
100
AcDbEntity
  8
0
  6
Continuous
 62
     7
370
    25
100
AcDbLine
 10
142.4853398055
 20
193.7968742841
 30
0.0
 11
140.9962914482
 21
193.7968742841
 31
0.0
  0
LINE
  5
F7
330
1F
100
AcDbEntity
  8
0
  6
Continuous
 62
     7
370
    25
100
AcDbLine
 10
140.9962914482
 20
193.7968742841
 30
0.0
 11
140.7316864003
 21
193.7968742841
 31
0.0
  0
LINE
  5
F8
330
1F
100
AcDbEntity
  8
0
  6
Continuous
 62
     7
370
    25
100
AcDbLine
 10
289.4670813523
 20
193.7968742841
 30
0.0
 11
289.7316864003
 21
193.7968742841
 31
0.0
  0
SPLINE
  5
F9
330
1F
100
AcDbEntity
  8
0
  6
Continuous
 62
     7
370
    25
100
AcDbSpline
210
0.0
220
0.0
230
1.0
 70
     8
 71
     3
 72
    12
 73
     8
 74
     0
 42
0.00000001
 43
0.00000001
 40
0.0
 40
0.0
 40
0.0
 40
0.0
 40
0.5000000000000052
 40
0.5000000000000052
 40
0.7500000000000026
 40
0.7500000000000026
 40
1.0
 40
1.0
 40
1.0
 40
1.0
 10
211.2368349552737
 20
142.2979757290503
 30
0.0
 10
212.5517645775927
 20
142.5972702501519
 30
0.0
 10
213.8787095502092
 20
142.7458147856206
 30
0.0
 10
215.88692018556
 20
142.7473956673537
 30
0.0
 10
216.5622329398085
 20
142.7103316529432
 30
0.0
 10
217.9046387522457
 20
142.5601131939726
 30
0.0
 10
218.5689806575447
 20
142.4476440156671
 30
0.0
 10
219.2265378452598
 20
142.2979757290503
 30
0.0
  0
SPLINE
  5
FA
330
1F
100
AcDbEntity
  8
0
  6
Continuous
 62
     7
370
    25
100
AcDbSpline
210
0.0
220
0.0
230
1.0
 70
     8
 71
     3
 72
    12
 73
     8
 74
     0
 42
0.00000001
 43
0.00000001
 40
0.0
 40
0.0
 40
0.0
 40
0.0
 40
0.4999999999999949
 40
0.4999999999999949
 40
0.7499999999999974
 40
0.7499999999999974
 40
1.0
 40
1.0
 40
1.0
 40
1.0
 10
219.2265378452599
 20
131.2957728390642
 30
0.0
 10
217.9116082229407
 20
130.9964783179626
 30
0.0
 10
216.5846632503244
 20
130.8479337824938
 30
0.0
 10
214.5764526149736
 20
130.8463529007608
 30
0.0
 10
213.9011398607251
 20
130.8834169151712
 30
0.0
 10
212.5587340482878
 20
131.0336353741419
 30
0.0
 10
211.8943921429888
 20
131.1461045524474
 30
0.0
 10
211.2368349552737
 20
131.2957728390642
 30
0.0
  0
SPLINE
  5
FB
330
1F
100
AcDbEntity
  8
0
  6
Continuous
 62
     7
370
    25
100
AcDbSpline
210
0.0
220
0.0
230
1.0
 70
     8
 71
     3
 72
    12
 73
     8
 74
     0
 42
0.00000001
 43
0.00000001
 40
0.0
 40
0.0
 40
0.0
 40
0.0
 40
0.5
 40
0.5
 40
0.75
 40
0.75
 40
1.0
 40
1.0
 40
1.0
 40
1.0
 10
220.7327878452598
 20
140.7917257290503
 30
0.0
 10
221.0329520308812
 20
139.472975296266
 30
0.0
 10
221.1807310768189
 20
138.1455334465048
 30
0.0
 10
221.1821572234202
 20
136.1417614342007
 30
0.0
 10
221.1455808901325
 20
135.4717171898704
 30
0.0
 10
220.9954602151615
 20
134.1272284200759
 30
0.0
 10
220.8828745350041
 20
133.4614182517635
 30
0.0
 10
220.7327878452598
 20
132.8020228390642
 30
0.0
  0
SPLINE
  5
FC
330
1F
100
AcDbEntity
  8
0
  6
Continuous
 62
     7
370
    25
100
AcDbSpline
210
0.0
220
0.0
230
1.0
 70
     8
 71
     3
 72
    12
 73
     8
 74
     0
 42
0.00000001
 43
0.00000001
 40
0.0
 40
0.0
 40
0.0
 40
0.0
 40
0.5
 40
0.5
 40
0.75
 40
0.75
 40
1.0
 40
1.0
 40
1.0
 40
1.0
 10
209.7305849552737
 20
132.8020228390641
 30
0.0
 10
209.4304207696524
 20
134.1207732718485
 30
0.0
 10
209.2826417237147
 20
135.4482151216097
 30
0.0
 10
209.2812155771133
 20
137.4519871339138
 30
0.0
 10
209.317791910401
 20
138.1220313782441
 30
0.0
 10
209.4679125853721
 20
139.4665201480385
 30
0.0
 10
209.5804982655295
 20
140.1323303163509
 30
0.0
 10
209.7305849552737
 20
140.7917257290503
 30
0.0
  0
SPLINE
  5
FD
330
1F
100
AcDbEntity
  8
0
  6
Continuous
 62
     7
370
    25
100
AcDbSpline
210
0.0
220
0.0
230
1.0
 70
     8
 71
     3
 72
    14
 73
    10
 74
     0
 42
0.00000001
 43
0.00000001
 40
0.0
 40
0.0
 40
0.0
 40
0.0
 40
0.25
 40
0.25
 40
0.5
 40
0.5
 40
0.75
 40
0.75
 40
1.0
 40
1.0
 40
1.0
 40
1.0
 10
219.2265378452598
 20
142.2979757290503
 30
0.0
 10
219.410569802338
 20
142.2560877408826
 30
0.0
 10
219.584430516601
 20
142.1896516531739
 30
0.0
 10
219.9123134928047
 20
142.0088601291905
 30
0.0
 10
220.0636313881934
 20
141.8950661239205
 30
0.0
 10
220.3274731471588
 20
141.6317187206458
 30
0.0
 10
220.4423828362031
 20
141.4792343211666
 30
0.0
 10
220.6227419048943
 20
141.1533366527806
 30
0.0
 10
220.6908347262418
 20
140.9760438339805
 30
0.0
 10
220.7327878452598
 20
140.7917257290503
 30
0.0
  0
SPLINE
  5
FE
330
1F
100
AcDbEntity
  8
0
  6
Continuous
 62
     7
370
    25
100
AcDbSpline
210
0.0
220
0.0
230
1.0
 70
     8
 71
     3
 72
    14
 73
    10
 74
     0
 42
0.00000001
 43
0.00000001
 40
0.0
 40
0.0
 40
0.0
 40
0.0
 40
0.25
 40
0.25
 40
0.5
 40
0.5
 40
0.75
 40
0.75
 40
1.0
 40
1.0
 40
1.0
 40
1.0
 10
211.2368349552737
 20
131.2957728390642
 30
0.0
 10
211.0528029981956
 20
131.3376608272319
 30
0.0
 10
210.8789422839325
 20
131.4040969149406
 30
0.0
 10
210.5510593077289
 20
131.584888438924
 30
0.0
 10
210.3997414123401
 20
131.698682444194
 30
0.0
 10
210.1358996533748
 20
131.9620298474687
 30
0.0
 10
210.0209899643304
 20
132.1145142469479
 30
0.0
 10
209.8406308956392
 20
132.4404119153339
 30
0.0
 10
209.7725380742917
 20
132.617704734134
 30
0.0
 10
209.7305849552737
 20
132.8020228390641
 30
0.0
  0
SPLINE
  5
FF
330
1F
100
AcDbEntity
  8
0
  6
Continuous
 62
     7
370
    25
100
AcDbSpline
210
0.0
220
0.0
230
1.0
 70
     8
 71
     3
 72
    14
 73
    10
 74
     0
 42
0.00000001
 43
0.00000001
 40
0.0
 40
0.0
 40
0.0
 40
0.0
 40
0.25
 40
0.25
 40
0.5
 40
0.5
 40
0.75
 40
0.75
 40
1.0
 40
1.0
 40
1.0
 40
1.0
 10
209.7305849552737
 20
140.7917257290503
 30
0.0
 10
209.7725318161622
 20
140.9760163393243
 30
0.0
 10
209.8390884911919
 20
141.1500797379944
 30
0.0
 10
210.0201986460329
 20
141.4782683339712
 30
0.0
 10
210.1340622663092
 20
141.6295137686164
 30
0.0
 10
210.397624111568
 20
141.8933182763385
 30
0.0
 10
210.5499973192
 20
142.0080082770468
 30
0.0
 10
210.8756450633913
 20
142.1880963396904
 30
0.0
 10
211.0528312188064
 20
142.2560941642486
 30
0.0
 10
211.2368349552737
 20
142.2979757290503
 30
0.0
  0
SPLINE
  5
100
330
1F
100
AcDbEntity
  8
0
  6
Continuous
 62
     7
370
    25
100
AcDbSpline
210
0.0
220
0.0
230
1.0
 70
     8
 71
     3
 72
    14
 73
    10
 74
     0
 42
0.00000001
 43
0.00000001
 40
0.0
 40
0.0
 40
0.0
 40
0.0
 40
0.25
 40
0.25
 40
0.5
 40
0.5
 40
0.75
 40
0.75
 40
1.0
 40
1.0
 40
1.0
 40
1.0
 10
220.7327878452598
 20
132.8020228390642
 30
0.0
 10
220.6908409843714
 20
132.6177322287902
 30
0.0
 10
220.6242843093415
 20
132.4436688301201
 30
0.0
 10
220.4431741545007
 20
132.1154802341433
 30
0.0
 10
220.3293105342243
 20
131.9642347994981
 30
0.0
 10
220.0657486889656
 20
131.700430291776
 30
0.0
 10
219.9133754813335
 20
131.5857402910677
 30
0.0
 10
219.5877277371423
 20
131.405652228424
 30
0.0
 10
219.4105415817271
 20
131.337654403866
 30
0.0
 10
219.2265378452599
 20
131.2957728390642
 30
0.0
  0
SPLINE
  5
101
330
1F
100
AcDbEntity
  8
0
  6
Continuous
 62
     7
370
    25
100
AcDbSpline
210
0.0
220
0.0
230
1.0
 70
    24
 71
     3
 72
    12
 73
     8
 74
     0
 42
0.00000001
 43
0.00000001
 40
0.0
 40
0.0
 40
0.0
 40
0.0
 40
0.2490749208441315
 40
0.4999169360519353
 40
0.6666007504179805
 40
0.8330412199552837
 40
1.0
 40
1.0
 40
1.0
 40
1.0
 10
239.3039296785136
 20
170.7968742840573
 30
0.0
 10
239.2825938542053
 20
170.7968742840573
 30
0.0
 10
239.2397708358132
 20
170.7968742840573
 30
0.0
 10
239.1803012556564
 20
170.7968742840573
 30
0.0
 10
239.127517268225
 20
170.7968742840573
 30
0.0
 10
239.081897115332
 20
170.7968742840573
 30
0.0
 10
239.0513531657802
 20
170.7968742840573
 30
0.0
 10
239.0360574488243
 20
170.7968742840573
 30
0.0
  0
ARC
  5
102
330
1F
100
AcDbEntity
  8
0
  6
Continuous
 62
     7
370
    25
100
AcDbCircle
 10
239.736030795
 20
170.2968742841
 30
0.0
 40
0.5000000000000027
100
AcDbArc
 50
359.5
 51
90.0
  0
LINE
  5
103
330
1F
100
AcDbEntity
  8
0
  6
Continuous
 62
     7
370
    25
100
AcDbLine
 10
191.4273153517
 20
170.7968742841
 30
0.0
 11
239.0360574488
 21
170.7968742841
 31
0.0
  0
SPLINE
  5
104
330
1F
100
AcDbEntity
  8
0
  6
Continuous
 62
     7
370
    25
100
AcDbSpline
210
0.0
220
0.0
230
1.0
 70
    24
 71
     3
 72
    12
 73
     8
 74
     0
 42
0.00000001
 43
0.00000001
 40
0.0
 40
0.0
 40
0.0
 40
0.0
 40
0.2491022919049641
 40
0.4999679642927473
 40
0.666646190815626
 40
0.8330649339569313
 40
1.0
 40
1.0
 40
1.0
 40
1.0
 10
191.4273153517091
 20
170.7968742840572
 30
0.0
 10
191.4044902368526
 20
170.7968742840572
 30
0.0
 10
191.3586784294932
 20
170.7968742840572
 30
0.0
 10
191.2981662357024
 20
170.7968742840572
 30
0.0
 10
191.2460592421604
 20
170.7968742840572
 30
0.0
 10
191.2021179878805
 20
170.7968742840572
 30
0.0
 10
191.1736827572218
 20
170.7968742840572
 30
0.0
 10
191.1594431206039
 20
170.7968742840572
 30
0.0
  0
ARC
  5
105
330
1F
100
AcDbEntity
  8
0
  6
Continuous
 62
     7
370
    25
100
AcDbCircle
 10
190.7273420056
 20
170.2968742841
 30
0.0
 40
0.5000000000000284
100
AcDbArc
 50
90.0
 51
180.5
  0
LINE
  5
106
330
1F
100
AcDbEntity
  8
0
  6
Continuous
 62
     7
370
    25
100
AcDbLine
 10
240.2360117565
 20
170.2925110163
 30
0.0
 11
239.7969969979
 21
119.9864024415
 31
0.0
  0
LINE
  5
107
330
1F
100
AcDbEntity
  8
0
  6
Continuous
 62
     7
370
    25
100
AcDbLine
 10
190.6663758026
 20
119.9864024415
 30
0.0
 11
190.227361044
 21
170.2925110163
 31
0.0
  0
ARC
  5
108
330
1F
100
AcDbEntity
  8
0
  6
Continuous
 62
     7
370
    25
100
AcDbCircle
 10
238.5970426902
 20
119.9968742841
 30
0.0
 40
1.200000000000041
100
AcDbArc
 50
270.0
 51
359.5
  0
LINE
  5
109
330
1F
100
AcDbEntity
  8
0
  6
Continuous
 62
     7
370
    25
100
AcDbLine
 10
238.5970426902
 20
118.7968742841
 30
0.0
 11
191.8663301103
 21
118.7968742841
 31
0.0
  0
ARC
  5
10A
330
1F
100
AcDbEntity
  8
0
  6
Continuous
 62
     7
370
    25
100
AcDbCircle
 10
191.8663301103
 20
119.9968742841
 30
0.0
 40
1.200000000000012
100
AcDbArc
 50
180.5
 51
270.0
  0
SPLINE
  5
10B
330
1F
100
AcDbEntity
  8
0
  6
Continuous
 62
     7
370
    25
100
AcDbSpline
210
0.0
220
0.0
230
1.0
 70
    24
 71
     3
 72
     8
 73
     4
 74
     0
 42
0.00000001
 43
0.00000001
 40
0.0
 40
0.0
 40
0.0
 40
0.0
 40
1.0
 40
1.0
 40
1.0
 40
1.0
 10
214.2668077540314
 20
171.7968742840572
 30
0.0
 10
214.3416000506467
 20
171.7968742840572
 30
0.0
 10
214.4148562560192
 20
171.7968742840572
 30
0.0
 10
214.4722001865038
 20
171.7968742840572
 30
0.0
  0
LINE
  5
10C
330
1F
100
AcDbEntity
  8
0
  6
Continuous
 62
     7
370
    25
100
AcDbLine
 10
201.0388894732
 20
171.7968742841
 30
0.0
 11
214.266807754
 21
171.7968742841
 31
0.0
  0
LINE
  5
10D
330
1F
100
AcDbEntity
  8
0
  6
Continuous
 62
     7
370
    25
100
AcDbLine
 10
214.7810075265
 20
170.7968742841
 30
0.0
 11
214.7872120702
 21
171.7968742841
 31
0.0
  0
LINE
  5
10E
330
1F
100
AcDbEntity
  8
0
  6
Continuous
 62
     7
370
    25
100
AcDbLine
 10
214.4722001865
 20
171.7968742841
 30
0.0
 11
214.7872120702
 21
171.7968742841
 31
0.0
  0
LINE
  5
10F
330
1F
100
AcDbEntity
  8
0
  6
Continuous
 62
     7
370
    25
100
AcDbLine
 10
236.8986128963
 20
171.7968742841
 30
0.0
 11
236.8842154244
 21
170.7968742841
 31
0.0
  0
LINE
  5
110
330
1F
100
AcDbEntity
  8
0
  6
Continuous
 62
     7
370
    25
100
AcDbLine
 10
236.8986128963
 20
171.7968742841
 30
0.0
 11
214.7872120702
 21
171.7968742841
 31
0.0
  0
LINE
  5
111
330
1F
100
AcDbEntity
  8
0
  6
Continuous
 62
     7
370
    25
100
AcDbLine
 10
200.8551102161
 20
171.7968742841
 30
0.0
 11
200.8711632105
 21
170.7968742841
 31
0.0
  0
LINE
  5
112
330
1F
100
AcDbEntity
  8
0
  6
Continuous
 62
     7
370
    25
100
AcDbLine
 10
200.8551102161
 20
171.7968742841
 30
0.0
 11
200.9265176141
 21
171.7968742841
 31
0.0
  0
LINE
  5
113
330
1F
100
AcDbEntity
  8
0
  6
Continuous
 62
     7
370
    25
100
AcDbLine
 10
200.8551102161
 20
171.7968742841
 30
0.0
 11
192.3676662433
 21
171.7968742841
 31
0.0
  0
LINE
  5
114
330
1F
100
AcDbEntity
  8
0
  6
Continuous
 62
     7
370
    25
100
AcDbLine
 10
236.8986128963
 20
171.7968742841
 30
0.0
 11
237.2547388328
 21
171.7968742841
 31
0.0
  0
SPLINE
  5
115
330
1F
100
AcDbEntity
  8
0
  6
Continuous
 62
     7
370
    25
100
AcDbSpline
210
0.0
220
0.0
230
1.0
 70
    24
 71
     3
 72
     8
 73
     4
 74
     0
 42
0.00000001
 43
0.00000001
 40
0.0
 40
0.0
 40
0.0
 40
0.0
 40
1.0
 40
1.0
 40
1.0
 40
1.0
 10
237.2547388328379
 20
171.7968742840573
 30
0.0
 10
237.3195670561724
 20
171.7968742840573
 30
0.0
 10
237.3680645618622
 20
171.7968742840573
 30
0.0
 10
237.3907258141185
 20
171.7968742840573
 30
0.0
  0
LINE
  5
116
330
1F
100
AcDbEntity
  8
0
  6
Continuous
 62
     7
370
    25
100
AcDbLine
 10
237.3907258141
 20
171.7968742841
 30
0.0
 11
238.4816864007
 21
171.7968742841
 31
0.0
  0
SPLINE
  5
117
330
1F
100
AcDbEntity
  8
0
  6
Continuous
 62
     7
370
    25
100
AcDbSpline
210
0.0
220
0.0
230
1.0
 70
    24
 71
     3
 72
     8
 73
     4
 74
     0
 42
0.00000001
 43
0.00000001
 40
0.0
 40
0.0
 40
0.0
 40
0.0
 40
1.0
 40
1.0
 40
1.0
 40
1.0
 10
192.1471720541013
 20
171.7968742840572
 30
0.0
 10
192.150312703804
 20
171.7968742840572
 30
0.0
 10
192.1910380859591
 20
171.7968742840572
 30
0.0
 10
192.2575611469989
 20
171.7968742840572
 30
0.0
  0
LINE
  5
118
330
1F
100
AcDbEntity
  8
0
  6
Continuous
 62
     7
370
    25
100
AcDbLine
 10
192.1316863971
 20
171.7968742841
 30
0.0
 11
192.1471720541
 21
171.7968742841
 31
0.0
  0
SPLINE
  5
119
330
1F
100
AcDbEntity
  8
0
  6
Continuous
 62
     8
370
    18
100
AcDbSpline
210
0.0
220
0.0
230
1.0
 70
     8
 71
     3
 72
     8
 73
     4
 74
     0
 42
0.00000001
 43
0.00000001
 40
0.0
 40
0.0
 40
0.0
 40
0.0
 40
1.0
 40
1.0
 40
1.0
 40
1.0
 10
142.4863465090378
 20
188.5121472336096
 30
0.0
 10
190.9832397698573
 20
188.0116706945792
 30
0.0
 10
239.4801330306769
 20
188.0116706945793
 30
0.0
 10
287.9770262914964
 20
188.5121472336101
 30
0.0
  0
SPLINE
  5
11A
330
1F
100
AcDbEntity
  8
0
  6
Continuous
 62
     8
370
    18
100
AcDbSpline
210
0.0
220
0.0
230
1.0
 70
     8
 71
     3
 72
    26
 73
    22
 74
     0
 42
0.00000001
 43
0.00000001
 40
0.0
 40
0.0
 40
0.0
 40
0.0
 40
0.03125
 40
0.03125
 40
0.0625
 40
0.0625
 40
0.125
 40
0.125
 40
0.25
 40
0.25
 40
0.375
 40
0.375
 40
0.5
 40
0.5
 40
0.625
 40
0.625
 40
0.75
 40
0.75
 40
0.875
 40
0.875
 40
1.0
 40
1.0
 40
1.0
 40
1.0
 10
287.9770262914966
 20
188.51214723361
 30
0.0
 10
287.977191093244
 20
188.4878978585195
 30
0.0
 10
287.9772975129031
 20
188.4636925848406
 30
0.0
 10
287.9773948870007
 20
188.415421490043
 30
0.0
 10
287.9773858414391
 20
188.3913556689245
 30
0.0
 10
287.977187455356
 20
188.3194442590155
 30
0.0
 10
287.9768268654368
 20
188.271884723672
 30
0.0
 10
287.9750756855528
 20
188.1309653282784
 30
0.0
 10
287.973015685462
 20
188.0393646788653
 30
0.0
 10
287.9671937247632
 20
187.8641345916033
 30
0.0
 10
287.9633747180105
 20
187.7790047326154
 30
0.0
 10
287.9542103885317
 20
187.6208188505201
 30
0.0
 10
287.9488954044685
 20
187.5477663583355
 30
0.0
 10
287.9368156176768
 20
187.4136118714792
 30
0.0
 10
287.9299880833942
 20
187.3522698517073
 30
0.0
 10
287.9154142288191
 20
187.2468157424867
 30
0.0
 10
287.9076181075139
 20
187.2019659035489
 30
0.0
 10
287.8909920825703
 20
187.1282588063232
 30
0.0
 10
287.8822167733517
 20
187.0998792282622
 30
0.0
 10
287.8643531268564
 20
187.0615824864664
 30
0.0
 10
287.8551825070472
 20
187.0512710123661
 30
0.0
 10
287.8457645396741
 20
187.050172580228
 30
0.0
  0
SPLINE
  5
11B
330
1F
100
AcDbEntity
  8
0
  6
Continuous
 62
     8
370
    18
100
AcDbSpline
210
0.0
220
0.0
230
1.0
 70
     8
 71
     3
 72
     8
 73
     4
 74
     0
 42
0.00000001
 43
0.00000001
 40
0.0
 40
0.0
 40
0.0
 40
0.0
 40
1.0
 40
1.0
 40
1.0
 40
1.0
 10
287.8457645396745
 20
187.0501725802298
 30
0.0
 10
239.4363791134026
 20
186.5514579823058
 30
0.0
 10
191.0269936871307
 20
186.551457982306
 30
0.0
 10
142.6176082608588
 20
187.0501725802296
 30
0.0
  0
SPLINE
  5
11C
330
1F
100
AcDbEntity
  8
0
  6
Continuous
 62
     8
370
    18
100
AcDbSpline
210
0.0
220
0.0
230
1.0
 70
     8
 71
     3
 72
    21
 73
    17
 74
     0
 42
0.00000001
 43
0.00000001
 40
0.0
 40
0.0
 40
0.0
 40
0.0
 40
0.0527015849055315
 40
0.1061218290185266
 40
0.1602636673742996
 40
0.2151299185905191
 40
0.2707232904323063
 40
0.3270463850636441
 40
0.3841017040100639
 40
0.4418916528422066
 40
0.5004185455961658
 40
0.6190205570885717
 40
0.7500271669233991
 40
0.8150462880616015
 40
0.8983758744115322
 40
1.0
 40
1.0
 40
1.0
 40
1.0
 10
142.4863465090377
 20
188.5121472336097
 30
0.0
 10
142.4861696983814
 20
188.4716929366823
 30
0.0
 10
142.4858136660104
 20
188.3902326923786
 30
0.0
 10
142.4865605813555
 20
188.2683547253621
 30
0.0
 10
142.4882476342388
 20
188.1467590650938
 30
0.0
 10
142.4909811536442
 20
188.0264038782628
 30
0.0
 10
142.4947461140293
 20
187.9082659357676
 30
0.0
 10
142.4995603514727
 20
187.793371064619
 30
0.0
 10
142.505432488448
 20
187.6827778262252
 30
0.0
 10
142.5123722803428
 20
187.5775627365676
 30
0.0
 10
142.5231011886886
 20
187.4454787341184
 30
0.0
 10
142.5397197568811
 20
187.2950603131523
 30
0.0
 10
142.5594254699141
 20
187.1797416747999
 30
0.0
 10
142.578547078422
 20
187.1078435700747
 30
0.0
 10
142.5963583210208
 20
187.0624006505047
 30
0.0
 10
142.6100727634403
 20
187.0545088085997
 30
0.0
 10
142.6176082608585
 20
187.0501725802295
 30
0.0
  0
LINE
  5
11D
330
1F
100
AcDbEntity
  8
0
  6
Continuous
 62
     8
370
    18
100
AcDbLine
 10
287.9780329951
 20
193.7968742841
 30
0.0
 11
287.9770262915
 21
188.5121472336
 31
0.0
  0
LINE
  5
11E
330
1F
100
AcDbEntity
  8
0
  6
Continuous
 62
     8
370
    18
100
AcDbLine
 10
142.4853398055
 20
193.7968742841
 30
0.0
 11
142.486346509
 21
188.5121472336
 31
0.0
  0
SPLINE
  5
11F
330
1F
100
AcDbEntity
  8
0
  6
Continuous
 62
     8
370
    18
100
AcDbSpline
210
0.0
220
0.0
230
1.0
 70
     8
 71
     3
 72
     9
 73
     5
 74
     0
 42
0.00000001
 43
0.00000001
 40
0.0
 40
0.0
 40
0.0
 40
0.0
 40
0.9999145733981678
 40
1.0
 40
1.0
 40
1.0
 40
1.0
 10
142.6176082608588
 20
187.0501725802276
 30
0.0
 10
142.4483978581653
 20
186.8008453051348
 30
0.0
 10
142.2791729991672
 20
186.5514967290405
 30
0.0
 10
142.3637864341651
 20
186.6761724993448
 30
0.0
 10
142.3637936624033
 20
186.6761831499722
 30
0.0
  0
LINE
  5
120
330
1F
100
AcDbEntity
  8
0
  6
Continuous
 62
     8
370
    18
100
AcDbLine
 10
288.0995804866
 20
186.6761811631
 30
0.0
 11
287.8457645397
 21
187.0501725802
 31
0.0
  0
SPLINE
  5
121
330
1F
100
AcDbEntity
  8
0
  6
Continuous
 62
     8
370
    18
100
AcDbSpline
210
0.0
220
0.0
230
1.0
 70
     8
 71
     3
 72
    25
 73
    21
 74
     0
 42
0.00000001
 43
0.00000001
 40
0.0
 40
0.0
 40
0.0
 40
0.0
 40
0.0555740769933505
 40
0.1111416178191708
 40
0.1667034389905731
 40
0.2222603572237472
 40
0.2778131894090135
 40
0.3333627525819086
 40
0.3889098638941338
 40
0.4444553405845451
 40
0.4999999999501458
 40
0.5555446593169738
 40
0.6110901360110845
 40
0.6666372473294588
 40
0.7221868105109722
 40
0.7777396427073159
 40
0.8332965609540259
 40
0.8888583821414346
 40
0.9444259229857188
 40
1.0
 40
1.0
 40
1.0
 40
1.0
 10
287.9770262914966
 20
188.51214723361
 30
0.0
 10
288.0162565038062
 20
188.5111677291954
 30
0.0
 10
288.0947123144895
 20
188.5092088355675
 30
0.0
 10
288.2114197173019
 20
188.5066979077052
 30
0.0
 10
288.3262983354886
 20
188.5045001306652
 30
0.0
 10
288.4384858382398
 20
188.5026461657683
 30
0.0
 10
288.5471482930773
 20
188.5011277985497
 30
0.0
 10
288.6514758123844
 20
188.4999472298123
 30
0.0
 10
288.7506913925238
 20
188.499103869863
 30
0.0
 10
288.8440559141295
 20
188.498597876902
 30
0.0
 10
288.9308738709666
 20
188.4984292077881
 30
0.0
 10
289.010498331464
 20
188.498597876902
 30
0.0
 10
289.0823363063715
 20
188.4991038698631
 30
0.0
 10
289.1458510955849
 20
188.4999472298124
 30
0.0
 10
289.2005739361006
 20
188.5011277985498
 30
0.0
 10
289.2460788921053
 20
188.5026461657685
 30
0.0
 10
289.2820927385991
 20
188.5045001306654
 30
0.0
 10
289.308098671455
 20
188.5066979077054
 30
0.0
 10
289.3248269156656
 20
188.5092088355678
 30
0.0
 10
289.3274086319578
 20
188.5111677291956
 30
0.0
 10
289.3286995660185
 20
188.5121472336102
 30
0.0
  0
SPLINE
  5
122
330
1F
100
AcDbEntity
  8
0
  6
Continuous
 62
     8
370
    18
100
AcDbSpline
210
0.0
220
0.0
230
1.0
 70
     8
 71
     3
 72
    25
 73
    21
 74
     0
 42
0.00000001
 43
0.00000001
 40
0.0
 40
0.0
 40
0.0
 40
0.0
 40
0.0555740770039936
 40
0.1111416178392036
 40
0.1667034390187411
 40
0.2222603572587903
 40
0.2778131894496921
 40
0.3333627526269595
 40
0.3889098639423072
 40
0.4444553406345891
 40
0.5000000000008151
 40
0.5555446593670192
 40
0.6110901360592408
 40
0.666637247374487
 40
0.7221868105516234
 40
0.7777396427423436
 40
0.833296560982168
 40
0.8888583821614459
 40
0.9444259229963615
 40
1.0
 40
1.0
 40
1.0
 40
1.0
 10
141.1346732345147
 20
188.5121472336096
 30
0.0
 10
141.1359641685749
 20
188.5111677291949
 30
0.0
 10
141.1385458848664
 20
188.5092088355666
 30
0.0
 10
141.1552741290714
 20
188.5066979077038
 30
0.0
 10
141.1812800619194
 20
188.5045001306633
 30
0.0
 10
141.2172939084037
 20
188.5026461657661
 30
0.0
 10
141.2627988643979
 20
188.5011277985472
 30
0.0
 10
141.3175217049027
 20
188.4999472298095
 30
0.0
 10
141.3810364941058
 20
188.49910386986
 30
0.0
 10
141.4528744690041
 20
188.4985978768989
 30
0.0
 10
141.532498929494
 20
188.498429207785
 30
0.0
 10
141.619316886326
 20
188.4985978768989
 30
0.0
 10
141.7126814079296
 20
188.49910386986
 30
0.0
 10
141.8118969880701
 20
188.4999472298095
 30
0.0
 10
141.9162245073817
 20
188.5011277985471
 30
0.0
 10
142.0248869622274
 20
188.5026461657661
 30
0.0
 10
142.1370744649902
 20
188.5045001306633
 30
0.0
 10
142.2519530831926
 20
188.5066979077037
 30
0.0
 10
142.3686604860237
 20
188.5092088355666
 30
0.0
 10
142.4471162967207
 20
188.5111677291948
 30
0.0
 10
142.4863465090376
 20
188.5121472336096
 30
0.0
  0
SPLINE
  5
123
330
1F
100
AcDbEntity
  8
0
  6
Continuous
 62
     8
370
    18
100
AcDbSpline
210
0.0
220
0.0
230
1.0
 70
     8
 71
     3
 72
    21
 73
    17
 74
     0
 42
0.00000001
 43
0.00000001
 40
0.0
 40
0.0
 40
0.0
 40
0.0
 40
0.0527015852606821
 40
0.1061218296399109
 40
0.1602636681730565
 40
0.2151299194772619
 40
0.2707232913172771
 40
0.3270463858581226
 40
0.3841017046251011
 40
0.44189165318822
 40
0.5004185455842228
 40
0.6190205634986506
 40
0.7500271669109574
 40
0.8150462982097522
 40
0.8983758845578237
 40
1.0
 40
1.0
 40
1.0
 40
1.0
 10
289.3286995660175
 20
188.5121472336099
 30
0.0
 10
289.3266903701534
 20
188.4716929364088
 30
0.0
 10
289.3226445802564
 20
188.3902326916261
 30
0.0
 10
289.303884079575
 20
188.2683547240115
 30
0.0
 10
289.2754772936245
 20
188.146759063372
 30
0.0
 10
289.2363016055396
 20
188.0264038763967
 30
0.0
 10
289.1864906890851
 20
187.9082659339685
 30
0.0
 10
289.1259496686836
 20
187.7933710630813
 30
0.0
 10
289.0547746146769
 20
187.6827778251147
 30
0.0
 10
288.9731329966639
 20
187.5775627360042
 30
0.0
 10
288.8503443791425
 20
187.4454787303389
 30
0.0
 10
288.6666212848
 20
187.2950603103291
 30
0.0
 10
288.4530358682632
 20
187.1797416694376
 30
0.0
 10
288.251590165265
 20
187.1078435652992
 30
0.0
 10
288.0649769607085
 20
187.0624006487335
 30
0.0
 10
287.9235000343339
 20
187.0545088078464
 30
0.0
 10
287.8457645396716
 20
187.0501725802304
 30
0.0
  0
SPLINE
  5
124
330
1F
100
AcDbEntity
  8
0
  6
Continuous
 62
     8
370
    18
100
AcDbSpline
210
0.0
220
0.0
230
1.0
 70
     8
 71
     3
 72
    26
 73
    22
 74
     0
 42
0.00000001
 43
0.00000001
 40
0.0
 40
0.0
 40
0.0
 40
0.0
 40
0.03125
 40
0.03125
 40
0.0625
 40
0.0625
 40
0.125
 40
0.125
 40
0.25
 40
0.25
 40
0.375
 40
0.375
 40
0.5
 40
0.5
 40
0.625
 40
0.625
 40
0.75
 40
0.75
 40
0.875
 40
0.875
 40
1.0
 40
1.0
 40
1.0
 40
1.0
 10
141.1346732345127
 20
188.5121472336096
 30
0.0
 10
141.1353094424539
 20
188.4878978585191
 30
0.0
 10
141.1365387286542
 20
188.4636925848401
 30
0.0
 10
141.1401652600695
 20
188.4154214900425
 30
0.0
 10
141.1425625052846
 20
188.3913556689238
 30
0.0
 10
141.1514788831962
 20
188.3194442590149
 30
0.0
 10
141.1597226581592
 20
188.2718847236714
 30
0.0
 10
141.1911341820699
 20
188.130965328278
 30
0.0
 10
141.2209821300392
 20
188.0393646788651
 30
0.0
 10
141.2973272497978
 20
187.8641345916031
 30
0.0
 10
141.344551745545
 20
187.7790047326152
 30
0.0
 10
141.4534600636897
 20
187.6208188505198
 30
0.0
 10
141.5148331559137
 20
187.5477663583353
 30
0.0
 10
141.6512678418769
 20
187.413611871479
 30
0.0
 10
141.7269942226731
 20
187.3522698517053
 30
0.0
 10
141.8861969470879
 20
187.2468157424848
 30
0.0
 10
141.9702534519553
 20
187.20196590355
 30
0.0
 10
142.1474114378856
 20
187.1282588063242
 30
0.0
 10
142.239908622741
 20
187.0998792282617
 30
0.0
 10
142.4263374714003
 20
187.0615824864659
 30
0.0
 10
142.5211487218703
 20
187.0512710123657
 30
0.0
 10
142.6176082608588
 20
187.0501725802277
 30
0.0
  0
SPLINE
  5
125
330
1F
100
AcDbEntity
  8
0
  6
Continuous
 62
     8
370
    18
100
AcDbSpline
210
0.0
220
0.0
230
1.0
 70
     8
 71
     3
 72
    10
 73
     6
 74
     0
 42
0.00000001
 43
0.00000001
 40
0.0
 40
0.0
 40
0.0
 40
0.0
 40
0.4999510413257703
 40
0.9999215213100793
 40
1.0
 40
1.0
 40
1.0
 40
1.0
 10
289.3286995660198
 20
188.5121472336101
 30
0.0
 10
289.3984526069008
 20
188.4093826623917
 30
0.0
 10
289.5379614007394
 20
188.2038495243528
 30
0.0
 10
289.6046968801483
 20
188.1055360747762
 30
0.0
 10
289.5834655925304
 20
188.1368143205177
 30
0.0
 10
289.5834622604494
 20
188.1368192293886
 30
0.0
  0
SPLINE
  5
126
330
1F
100
AcDbEntity
  8
0
  6
Continuous
 62
     8
370
    18
100
AcDbSpline
210
0.0
220
0.0
230
1.0
 70
     8
 71
     3
 72
     9
 73
     5
 74
     0
 42
0.00000001
 43
0.00000001
 40
0.0
 40
0.0
 40
0.0
 40
0.0
 40
0.4999510989262312
 40
1.0
 40
1.0
 40
1.0
 40
1.0
 10
140.8799105241978
 20
188.1368192059849
 30
0.0
 10
140.8905208253905
 20
188.1524498041953
 30
0.0
 10
140.9117435033994
 20
188.1837140583274
 30
0.0
 10
141.0603584791874
 20
188.4026623706438
 30
0.0
 10
141.1346732345133
 20
188.5121472336096
 30
0.0
  0
ARC
  5
127
330
1F
100
AcDbEntity
  8
0
  6
Continuous
 62
     8
370
    18
100
AcDbCircle
 10
217.1193669291
 20
142.170760557
 30
0.0
 40
2.111007572199432
100
AcDbArc
 50
341.9858283335
 51
3.4548958978
  0
SPLINE
  5
128
330
1F
100
AcDbEntity
  8
0
  6
Continuous
 62
     8
370
    18
100
AcDbSpline
210
0.0
220
0.0
230
1.0
 70
     8
 71
     3
 72
    12
 73
     8
 74
     0
 42
0.00000001
 43
0.00000001
 40
0.0
 40
0.0
 40
0.0
 40
0.0
 40
0.25
 40
0.25
 40
0.5
 40
0.5
 40
1.0
 40
1.0
 40
1.0
 40
1.0
 10
219.1268930246364
 20
141.5179267759395
 30
0.0
 10
218.4855812762259
 20
141.660977983831
 30
0.0
 10
217.8377821749415
 20
141.7684368760789
 30
0.0
 10
216.5290689695488
 20
141.9119501300023
 30
0.0
 10
215.8707839851933
 20
141.9473626007704
 30
0.0
 10
213.9128697863065
 20
141.9458822944495
 30
0.0
 10
212.6189321901236
 20
141.8039910299831
 30
0.0
 10
211.3364797758971
 20
141.5179267759395
 30
0.0
  0
ARC
  5
129
330
1F
100
AcDbEntity
  8
0
  6
Continuous
 62
     8
370
    18
100
AcDbCircle
 10
213.3440058714
 20
142.170760557
 30
0.0
 40
2.11100757219822
100
AcDbArc
 50
176.5451041021
 51
198.0141716665
  0
SPLINE
  5
12A
330
1F
100
AcDbEntity
  8
0
  6
Continuous
 62
     8
370
    18
100
AcDbSpline
210
0.0
220
0.0
230
1.0
 70
     8
 71
     3
 72
    12
 73
     8
 74
     0
 42
0.00000001
 43
0.00000001
 40
0.0
 40
0.0
 40
0.0
 40
0.0
 40
0.25
 40
0.25
 40
0.5
 40
0.5
 40
1.0
 40
1.0
 40
1.0
 40
1.0
 10
211.3364797758971
 20
132.075821792175
 30
0.0
 10
211.9777915243077
 20
131.9327705842835
 30
0.0
 10
212.6255906255921
 20
131.8253116920356
 30
0.0
 10
213.9343038309848
 20
131.6817984381122
 30
0.0
 10
214.5925888153403
 20
131.6463859673441
 30
0.0
 10
216.550503014227
 20
131.647866273665
 30
0.0
 10
217.8444406104099
 20
131.7897575381314
 30
0.0
 10
219.1268930246365
 20
132.075821792175
 30
0.0
  0
ARC
  5
12B
330
1F
100
AcDbEntity
  8
0
  6
Continuous
 62
     8
370
    18
100
AcDbCircle
 10
217.1193669291
 20
131.4229880111
 30
0.0
 40
2.111007572198247
100
AcDbArc
 50
356.5451041022
 51
18.0141716665
  0
ARC
  5
12C
330
1F
100
AcDbEntity
  8
0
  6
Continuous
 62
     8
370
    18
100
AcDbCircle
 10
213.3440058714
 20
131.4229880111
 30
0.0
 40
2.111007572198981
100
AcDbArc
 50
161.9858283335
 51
183.4548958978
  0
SPLINE
  5
12D
330
1F
100
AcDbEntity
  8
0
  6
Continuous
 62
     8
370
    18
100
AcDbSpline
210
0.0
220
0.0
230
1.0
 70
     8
 71
     3
 72
    14
 73
    10
 74
     0
 42
0.00000001
 43
0.00000001
 40
0.0
 40
0.0
 40
0.0
 40
0.0
 40
0.25
 40
0.25
 40
0.5
 40
0.5
 40
0.75
 40
0.75
 40
1.0
 40
1.0
 40
1.0
 40
1.0
 10
219.1268930246364
 20
132.075821792175
 30
0.0
 10
219.2383966389337
 20
132.1006938247691
 30
0.0
 10
219.3459916127718
 20
132.1409455878469
 30
0.0
 10
219.5444219373673
 20
132.2478919221485
 30
0.0
 10
219.6375982569724
 20
132.3161057075175
 30
0.0
 10
219.7994774410344
 20
132.4738563585534
 30
0.0
 10
219.86972347836
 20
132.5645863761092
 30
0.0
 10
219.9818126485051
 20
132.7624974762512
 30
0.0
 10
220.0231163346189
 20
132.8677539108817
 30
0.0
 10
220.0490869021875
 20
132.979571792175
 30
0.0
  0
SPLINE
  5
12E
330
1F
100
AcDbEntity
  8
0
  6
Continuous
 62
     8
370
    18
100
AcDbSpline
210
0.0
220
0.0
230
1.0
 70
     8
 71
     3
 72
    14
 73
    10
 74
     0
 42
0.00000001
 43
0.00000001
 40
0.0
 40
0.0
 40
0.0
 40
0.0
 40
0.25
 40
0.25
 40
0.5
 40
0.5
 40
0.75
 40
0.75
 40
1.0
 40
1.0
 40
1.0
 40
1.0
 10
210.4142858983461
 20
132.979571792175
 30
0.0
 10
210.4402580796516
 20
132.867746962838
 30
0.0
 10
210.4825449926452
 20
132.7604773531813
 30
0.0
 10
210.5941185440556
 20
132.5640428158362
 30
0.0
 10
210.6650526880358
 20
132.4725102355103
 30
0.0
 10
210.8270419227187
 20
132.3150922567927
 30
0.0
 10
210.9196333514826
 20
132.2473689123439
 30
0.0
 10
211.1193314120814
 20
132.1400517265306
 30
0.0
 10
211.2249683529027
 20
132.1006955665797
 30
0.0
 10
211.3364797758971
 20
132.075821792175
 30
0.0
  0
SPLINE
  5
12F
330
1F
100
AcDbEntity
  8
0
  6
Continuous
 62
     8
370
    18
100
AcDbSpline
210
0.0
220
0.0
230
1.0
 70
     8
 71
     3
 72
    12
 73
     8
 74
     0
 42
0.00000001
 43
0.00000001
 40
0.0
 40
0.0
 40
0.0
 40
0.0
 40
0.25
 40
0.25
 40
0.5
 40
0.5
 40
1.0
 40
1.0
 40
1.0
 40
1.0
 10
210.4142858983461
 20
140.6141767759395
 30
0.0
 10
210.2679996213952
 20
139.9843321832966
 30
0.0
 10
210.158192544725
 20
139.348113254311
 30
0.0
 10
210.0117580375396
 20
138.0628551079091
 30
0.0
 10
209.9761054048407
 20
137.4224204054759
 30
0.0
 10
209.9775567928312
 20
135.5074556094162
 30
0.0
 10
210.1217296248799
 20
134.2391908810405
 30
0.0
 10
210.4142858983461
 20
132.9795717921749
 30
0.0
  0
SPLINE
  5
130
330
1F
100
AcDbEntity
  8
0
  6
Continuous
 62
     8
370
    18
100
AcDbSpline
210
0.0
220
0.0
230
1.0
 70
     8
 71
     3
 72
    14
 73
    10
 74
     0
 42
0.00000001
 43
0.00000001
 40
0.0
 40
0.0
 40
0.0
 40
0.0
 40
0.25
 40
0.25
 40
0.5
 40
0.5
 40
0.75
 40
0.75
 40
1.0
 40
1.0
 40
1.0
 40
1.0
 10
211.3364797758971
 20
141.5179267759395
 30
0.0
 10
211.2249761616
 20
141.4930547433453
 30
0.0
 10
211.1173811877617
 20
141.4528029802676
 30
0.0
 10
210.9189508631663
 20
141.3458566459661
 30
0.0
 10
210.8257745435612
 20
141.277642860597
 30
0.0
 10
210.6638953594992
 20
141.1198922095611
 30
0.0
 10
210.5936493221736
 20
141.0291621920053
 30
0.0
 10
210.4815601520284
 20
140.8312510918633
 30
0.0
 10
210.4402564659146
 20
140.7259946572327
 30
0.0
 10
210.4142858983461
 20
140.6141767759395
 30
0.0
  0
SPLINE
  5
131
330
1F
100
AcDbEntity
  8
0
  6
Continuous
 62
     8
370
    18
100
AcDbSpline
210
0.0
220
0.0
230
1.0
 70
     8
 71
     3
 72
    14
 73
    10
 74
     0
 42
0.00000001
 43
0.00000001
 40
0.0
 40
0.0
 40
0.0
 40
0.0
 40
0.25
 40
0.25
 40
0.5
 40
0.5
 40
0.75
 40
0.75
 40
1.0
 40
1.0
 40
1.0
 40
1.0
 10
220.0490869021874
 20
140.6141767759395
 30
0.0
 10
220.023114720882
 20
140.7260016052765
 30
0.0
 10
219.9808278078884
 20
140.8332712149332
 30
0.0
 10
219.8692542564781
 20
141.0297057522783
 30
0.0
 10
219.7983201124977
 20
141.1212383326042
 30
0.0
 10
219.6363308778148
 20
141.2786563113218
 30
0.0
 10
219.5437394490509
 20
141.3463796557706
 30
0.0
 10
219.3440413884521
 20
141.4536968415839
 30
0.0
 10
219.2384044476309
 20
141.4930530015348
 30
0.0
 10
219.1268930246364
 20
141.5179267759395
 30
0.0
  0
SPLINE
  5
132
330
1F
100
AcDbEntity
  8
0
  6
Continuous
 62
     8
370
    18
100
AcDbSpline
210
0.0
220
0.0
230
1.0
 70
     8
 71
     3
 72
    12
 73
     8
 74
     0
 42
0.00000001
 43
0.00000001
 40
0.0
 40
0.0
 40
0.0
 40
0.0
 40
0.25
 40
0.25
 40
0.5
 40
0.5
 40
1.0
 40
1.0
 40
1.0
 40
1.0
 10
220.0490869021875
 20
132.979571792175
 30
0.0
 10
220.1953731791384
 20
133.6094163848179
 30
0.0
 10
220.3051802558086
 20
134.2456353138035
 30
0.0
 10
220.451614762994
 20
135.5308934602054
 30
0.0
 10
220.4872673956929
 20
136.1713281626386
 30
0.0
 10
220.4858160077023
 20
138.0862929586983
 30
0.0
 10
220.3416431756537
 20
139.3545576870739
 30
0.0
 10
220.0490869021874
 20
140.6141767759395
 30
0.0
  0
ARC
  5
133
330
1F
100
AcDbEntity
  8
0
  6
Continuous
 62
     8
370
    18
100
AcDbCircle
 10
218.8125810622
 20
146.7808451505
 30
0.0
 40
6.289415357067428
100
AcDbArc
 50
281.3382693185
 51
287.7766753549
  0
ARC
  5
134
330
1F
100
AcDbEntity
  8
0
  6
Continuous
 62
     8
370
    18
100
AcDbCircle
 10
218.8125810622
 20
126.8129034177
 30
0.0
 40
6.289415357045422
100
AcDbArc
 50
72.223324645
 51
78.6617306815
  0
ARC
  5
135
330
1F
100
AcDbEntity
  8
0
  6
Continuous
 62
     8
370
    18
100
AcDbCircle
 10
211.6507917383
 20
146.7808451505
 30
0.0
 40
6.289415357057033
100
AcDbArc
 50
252.223324645
 51
258.6617306815
  0
ARC
  5
136
330
1F
100
AcDbEntity
  8
0
  6
Continuous
 62
     8
370
    18
100
AcDbCircle
 10
211.6507917383
 20
126.8129034177
 30
0.0
 40
6.289415357050165
100
AcDbArc
 50
101.3382693185
 51
107.776675355
  0
ELLIPSE
  5
137
330
1F
100
AcDbEntity
  8
0
  6
Continuous
 62
     8
370
    18
100
AcDbEllipse
 10
239.0360041401
 20
170.2968742841
 30
0.0
 11
1.200007616901274
 21
-0.004363186994680746
 31
0.0
210
0.0
220
0.0
230
0.9999999999999999
 40
0.0036358238
 41
4.712446623772299
 42
6.283166798144611
  0
LINE
  5
138
330
1F
100
AcDbEntity
  8
0
  6
Continuous
 62
     8
370
    18
100
AcDbLine
 10
239.0360574488
 20
170.7968742841
 30
0.0
 11
239.0360574488
 21
170.2925110163
 31
0.0
  0
LINE
  5
139
330
1F
100
AcDbEntity
  8
0
  6
Continuous
 62
     8
370
    18
100
AcDbLine
 10
239.0360574488
 20
170.2925110163
 30
0.0
 11
191.4273153517
 21
170.2925110163
 31
0.0
  0
LINE
  5
13A
330
1F
100
AcDbEntity
  8
0
  6
Continuous
 62
     8
370
    18
100
AcDbLine
 10
191.4273153517
 20
170.7968742841
 30
0.0
 11
191.4273153517
 21
170.2925110163
 31
0.0
  0
ELLIPSE
  5
13B
330
1F
100
AcDbEntity
  8
0
  6
Continuous
 62
     8
370
    18
100
AcDbEllipse
 10
191.4273686604
 20
170.2968742841
 30
0.0
 11
1.200007616901303
 21
0.00436318699473759
 31
0.0
210
0.0
220
0.0
230
1.0
 40
0.0036358238
 41
3.141611162619415
 42
4.712331336997081
  0
LINE
  5
13C
330
1F
100
AcDbEntity
  8
0
  6
Continuous
 62
     8
370
    18
100
AcDbLine
 10
191.8663301103
 20
119.9864024415
 30
0.0
 11
238.5970426902
 21
119.9864024415
 31
0.0
  0
LINE
  5
13D
330
1F
100
AcDbEntity
  8
0
  6
Continuous
 62
     8
370
    18
100
AcDbLine
 10
191.4273153517
 20
170.2925110163
 30
0.0
 11
191.8663301103
 21
119.9864024415
 31
0.0
  0
LINE
  5
13E
330
1F
100
AcDbEntity
  8
0
  6
Continuous
 62
     8
370
    18
100
AcDbLine
 10
238.5970426902
 20
119.9864024415
 30
0.0
 11
239.0360574488
 21
170.2925110163
 31
0.0
  0
ARC
  5
13F
330
1F
100
AcDbEntity
  8
0
  6
Continuous
 62
     8
370
    18
100
AcDbCircle
 10
239.1970198441
 20
154.3660280505
 30
0.0
 40
34.38486047089054
100
AcDbArc
 50
269.0002023313
 51
270.9997976687
  0
ARC
  5
140
330
1F
100
AcDbEntity
  8
0
  6
Continuous
 62
     8
370
    18
100
AcDbCircle
 10
191.2663529565
 20
154.3660280505
 30
0.0
 40
34.38486047086434
100
AcDbArc
 50
269.0002023313
 51
270.9997976687
  0
LINE
  5
141
330
1F
100
AcDbEntity
  8
0
  6
Continuous
 62
     8
370
    18
100
AcDbLine
 10
238.5970426902
 20
118.7968742841
 30
0.0
 11
238.5970426902
 21
119.9864024415
 31
0.0
  0
LINE
  5
142
330
1F
100
AcDbEntity
  8
0
  6
Continuous
 62
     8
370
    18
100
AcDbLine
 10
191.8663301103
 20
118.7968742841
 30
0.0
 11
191.8663301103
 21
119.9864024415
 31
0.0
  0
ELLIPSE
  5
143
330
1F
100
AcDbEntity
  8
0
  6
Continuous
 62
     8
370
    18
100
AcDbEllipse
 10
215.2316864007
 20
-799.4607445035
 30
0.0
 11
14.94755427801866
 21
1314.804603838722
 31
0.0
210
0.0
220
0.0
230
1.0
 40
0.0135443942
 41
0.739797762846731
 42
0.7409254657322186
  0
ELLIPSE
  5
144
330
1F
100
AcDbEntity
  8
0
  6
Continuous
 62
     8
370
    18
100
AcDbEllipse
 10
215.4244933142
 20
-799.4659802254
 30
0.0
 11
14.7546132050324
 21
1314.804604627827
 31
0.0
210
0.0
220
0.0
230
1.0
 40
0.0133696721
 41
0.7397879065539427
 42
0.7409156167285845
  0
ELLIPSE
  5
145
330
1F
100
AcDbEntity
  8
0
  6
Continuous
 62
     8
370
    18
100
AcDbEllipse
 10
215.2316864007
 20
-799.4607445035
 30
0.0
 11
-22.89699604577029
 21
1314.804617547189
 31
0.0
210
0.0
220
0.0
230
1.0
 40
0.0030697307
 41
5.542360364336377
 42
5.543488067221923
  0
LINE
  5
146
330
1F
100
AcDbEntity
  8
0
  6
Continuous
 62
     8
370
    18
100
AcDbLine
 10
215.2316864003
 20
173.7968742841
 30
0.0
 11
192.4316864003
 21
173.7968742841
 31
0.0
  0
LINE
  5
147
330
1F
100
AcDbEntity
  8
0
  6
Continuous
 62
     8
370
    18
100
AcDbLine
 10
238.0316864003
 20
173.7968742841
 30
0.0
 11
215.2316864003
 21
173.7968742841
 31
0.0
  0
ELLIPSE
  5
148
330
1F
100
AcDbEntity
  8
0
  6
Continuous
 62
     8
370
    18
100
AcDbEllipse
 10
214.9362890722
 20
-799.4659802254
 30
0.0
 11
-22.60154547624603
 21
1314.804617642267
 31
0.0
210
0.0
220
0.0
230
0.9999999999999997
 40
0.0030301449
 41
5.542367635336514
 42
5.543495345511075
  0
LINE
  5
149
330
1F
100
AcDbEntity
  8
0
  6
Continuous
 62
     8
370
    18
100
AcDbLine
 10
192.3676662433
 20
171.7968742841
 30
0.0
 11
192.3851480865
 21
170.7968742841
 31
0.0
  0
ELLIPSE
  5
14A
330
1F
100
AcDbEntity
  8
0
  6
Continuous
 62
     8
370
    18
100
AcDbEllipse
 10
215.3816635555
 20
-799.4659802254
 30
0.0
 11
11.47762248769831
 21
1314.804607980008
 31
0.0
210
0.0
220
0.0
230
0.9999999999999999
 40
0.015115378
 41
5.542551673750993
 42
5.543679383925643
  0
ELLIPSE
  5
14B
330
1F
100
AcDbEntity
  8
0
  6
Continuous
 62
     8
370
    18
100
AcDbEllipse
 10
215.2316864007
 20
-799.4607445035
 30
0.0
 11
11.62772668763483
 21
1314.804607369595
 31
0.0
210
0.0
220
0.0
230
1.0
 40
0.015312934
 41
5.542549245800444
 42
5.543676948685915
  0
SPLINE
  5
14C
330
1F
100
AcDbEntity
  8
0
  6
Continuous
 62
     8
370
    18
100
AcDbSpline
210
0.0
220
0.0
230
1.0
 70
     8
 71
     3
 72
     8
 73
     4
 74
     0
 42
0.00000001
 43
0.00000001
 40
0.0
 40
0.0
 40
0.0
 40
0.0
 40
1.0
 40
1.0
 40
1.0
 40
1.0
 10
192.2575611469989
 20
171.7968742840572
 30
0.0
 10
192.2603848295544
 20
171.4635415747537
 30
0.0
 10
192.2632129783587
 20
171.1302082214963
 30
0.0
 10
192.2660450726881
 20
170.7968742840572
 30
0.0
  0
SPLINE
  5
14D
330
1F
100
AcDbEntity
  8
0
  6
Continuous
 62
     8
370
    18
100
AcDbSpline
210
0.0
220
0.0
230
1.0
 70
     8
 71
     3
 72
     8
 73
     4
 74
     0
 42
0.00000001
 43
0.00000001
 40
0.0
 40
0.0
 40
0.0
 40
0.0
 40
1.0
 40
1.0
 40
1.0
 40
1.0
 10
192.1466536114727
 20
170.7968742840572
 30
0.0
 10
192.1468181044517
 20
171.1302091875857
 30
0.0
 10
192.1469905678236
 20
171.4635425734753
 30
0.0
 10
192.147172054101
 20
171.7968742840572
 30
0.0
  0
ARC
  5
14E
330
1F
100
AcDbEntity
  8
0
  6
Continuous
 62
     7
370
    25
100
AcDbCircle
 10
-6587.9964973468
 20
372.0642994239
 30
0.0
 40
6999.999999999999
100
AcDbArc
 50
359.4035571272
 51
359.813379131
  0
ARC
  5
14F
330
1F
100
AcDbEntity
  8
0
  6
Continuous
 62
     7
370
    25
100
AcDbCircle
 10
-6587.9964973468
 20
372.0642994239
 30
0.0
 40
6999.999999999999
100
AcDbArc
 50
0.186620869
 51
0.596443072
  0
ARC
  5
150
330
1F
100
AcDbEntity
  8
0
  6
Continuous
 62
     7
370
    25
100
AcDbCircle
 10
410.1243070123
 20
444.9165992931
 30
0.0
 40
1.50000000000003
100
AcDbArc
 50
0.6099342095
 51
88.489310213
  0
ARC
  5
151
330
1F
100
AcDbEntity
  8
0
  6
Continuous
 62
     7
370
    25
100
AcDbCircle
 10
410.1243070123
 20
299.2119995548
 30
0.0
 40
1.499999999999993
100
AcDbArc
 50
271.5241076744
 51
359.4065979698
  0
LINE
  5
152
330
1F
100
AcDbEntity
  8
0
  6
Continuous
 62
     7
370
    25
100
AcDbLine
 10
404.5035026532
 20
297.564299424
 30
0.0
 11
410.1635581088
 21
297.7125131922
 31
0.0
  0
LINE
  5
153
330
1F
100
AcDbEntity
  8
0
  6
Continuous
 62
     7
370
    25
100
AcDbLine
 10
410.1635581088
 20
446.4160856557
 30
0.0
 11
404.5035026532
 21
446.564299424
 31
0.0
  0
LINE
  5
154
330
1F
100
AcDbEntity
  8
0
  6
Continuous
 62
     7
370
    25
100
AcDbLine
 10
424.5035026532
 20
394.864299424
 30
0.0
 11
411.9663711261
 21
394.864299424
 31
0.0
  0
LINE
  5
155
330
1F
100
AcDbEntity
  8
0
  6
Continuous
 62
     7
370
    25
100
AcDbLine
 10
411.9663711261
 20
349.264299424
 30
0.0
 11
424.5035026532
 21
349.264299424
 31
0.0
  0
ARC
  5
156
330
1F
100
AcDbEntity
  8
0
  6
Continuous
 62
     7
370
    25
100
AcDbCircle
 10
424.5035026532
 20
392.864299424
 30
0.0
 40
2.0
100
AcDbArc
 50
0.0
 51
90.0
  0
ARC
  5
157
330
1F
100
AcDbEntity
  8
0
  6
Continuous
 62
     7
370
    25
100
AcDbCircle
 10
424.5035026532
 20
351.264299424
 30
0.0
 40
2.0
100
AcDbArc
 50
270.0
 51
0.0
  0
LINE
  5
158
330
1F
100
AcDbEntity
  8
0
  6
Continuous
 62
     7
370
    25
100
AcDbLine
 10
466.6038491475
 20
403.464299424
 30
0.0
 11
456.4031561588
 21
403.464299424
 31
0.0
  0
SPLINE
  5
159
330
1F
100
AcDbEntity
  8
0
  6
Continuous
 62
     7
370
    25
100
AcDbSpline
210
0.0
220
0.0
230
1.0
 70
     8
 71
     3
 72
    13
 73
     9
 74
     0
 42
0.00000001
 43
0.00000001
 40
0.0
 40
0.0
 40
0.0
 40
0.0
 40
0.0232636641342535
 40
0.1991391559386106
 40
0.4000878696830698
 40
0.6116213748548693
 40
0.8308200808636435
 40
1.0
 40
1.0
 40
1.0
 40
1.0
 10
456.4056659727537
 20
403.4593667229491
 30
0.0
 10
456.3955431512152
 20
403.4607938391281
 30
0.0
 10
456.3088908454887
 20
403.4730100880251
 30
0.0
 10
456.1304665108439
 20
403.4420829800471
 30
0.0
 10
455.8909446003769
 20
403.3358652392682
 30
0.0
 10
455.690046303613
 20
403.1364579927341
 30
0.0
 10
455.5673232786164
 20
402.8926022751567
 30
0.0
 10
455.5632041690363
 20
402.7203089471322
 30
0.0
 10
455.5614098616761
 20
402.6452570019021
 30
0.0
  0
SPLINE
  5
15A
330
1F
100
AcDbEntity
  8
0
  6
Continuous
 62
     7
370
    25
100
AcDbSpline
210
0.0
220
0.0
230
1.0
 70
     8
 71
     3
 72
    14
 73
    10
 74
     0
 42
0.00000001
 43
0.00000001
 40
0.0
 40
0.0
 40
0.0
 40
0.0
 40
0.0890310327646798
 40
0.3066743937634587
 40
0.5222874295098235
 40
0.6932489176379502
 40
0.8367184042443796
 40
0.9573878566543885
 40
1.0
 40
1.0
 40
1.0
 40
1.0
 10
467.4405192169348
 20
402.6387209378682
 30
0.0
 10
467.4444187296922
 20
402.6781245346706
 30
0.0
 10
467.4578509080433
 20
402.8138533225576
 30
0.0
 10
467.3744630127636
 20
403.0403251009723
 30
0.0
 10
467.211391843436
 20
403.2558101724111
 30
0.0
 10
467.0128232461661
 20
403.3883513578292
 30
0.0
 10
466.8291556286653
 20
403.4492178413623
 30
0.0
 10
466.6930025330191
 20
403.4678730914795
 30
0.0
 10
466.6210696799773
 20
403.4611295400384
 30
0.0
 10
466.6022971230894
 20
403.4593696528978
 30
0.0
  0
LINE
  5
15B
330
1F
100
AcDbEntity
  8
0
  6
Continuous
 62
     7
370
    25
100
AcDbLine
 10
455.5535026532
 20
402.6410991065
 30
0.0
 11
455.5535026532
 21
397.3282376502
 31
0.0
  0
LINE
  5
15C
330
1F
100
AcDbEntity
  8
0
  6
Continuous
 62
     7
370
    25
100
AcDbLine
 10
467.4535026532
 20
397.2243879235
 30
0.0
 11
467.4535026532
 21
402.6410991065
 31
0.0
  0
LINE
  5
15D
330
1F
100
AcDbEntity
  8
0
  6
Continuous
 62
     7
370
    25
100
AcDbLine
 10
404.5035026532
 20
444.8106460188
 30
0.0
 11
404.5035026532
 21
299.3179528291
 31
0.0
  0
LINE
  5
15E
330
1F
100
AcDbEntity
  8
0
  6
Continuous
 62
     7
370
    25
100
AcDbLine
 10
411.9663711261
 20
349.2642994239
 30
0.0
 11
411.9663711261
 21
394.864299424
 31
0.0
  0
LINE
  5
15F
330
1F
100
AcDbEntity
  8
0
  6
Continuous
 62
     7
370
    25
100
AcDbLine
 10
404.5035026532
 20
297.8289044719
 30
0.0
 11
409.7882297036
 21
297.9672862582
 31
0.0
  0
LINE
  5
160
330
1F
100
AcDbEntity
  8
0
  6
Continuous
 62
     7
370
    25
100
AcDbLine
 10
404.5035026532
 20
297.8289044719
 30
0.0
 11
404.5035026532
 21
299.3179528291
 31
0.0
  0
LINE
  5
161
330
1F
100
AcDbEntity
  8
0
  6
Continuous
 62
     7
370
    25
100
AcDbLine
 10
404.5035026532
 20
446.299694376
 30
0.0
 11
409.7882297036
 21
446.1613125897
 31
0.0
  0
LINE
  5
162
330
1F
100
AcDbEntity
  8
0
  6
Continuous
 62
     7
370
    25
100
AcDbLine
 10
404.5035026532
 20
446.299694376
 30
0.0
 11
404.5035026532
 21
444.8106460188
 31
0.0
  0
LINE
  5
163
330
1F
100
AcDbEntity
  8
0
  6
Continuous
 62
     7
370
    25
100
AcDbLine
 10
404.5035026532
 20
297.564299424
 30
0.0
 11
404.5035026532
 21
297.8289044719
 31
0.0
  0
LINE
  5
164
330
1F
100
AcDbEntity
  8
0
  6
Continuous
 62
     7
370
    25
100
AcDbLine
 10
404.5035026532
 20
446.564299424
 30
0.0
 11
404.5035026532
 21
446.299694376
 31
0.0
  0
SPLINE
  5
165
330
1F
100
AcDbEntity
  8
0
  6
Continuous
 62
     7
370
    25
100
AcDbSpline
210
0.0
220
0.0
230
1.0
 70
    24
 71
     3
 72
    12
 73
     8
 74
     0
 42
0.00000001
 43
0.00000001
 40
0.0
 40
0.0
 40
0.0
 40
0.0
 40
0.2490749208465138
 40
0.499916936052026
 40
0.666600750417917
 40
0.8330412199571902
 40
1.0
 40
1.0
 40
1.0
 40
1.0
 10
427.5035026531722
 20
396.6365427022324
 30
0.0
 10
427.5035026531722
 20
396.6152068779215
 30
0.0
 10
427.5035026531722
 20
396.5723838595246
 30
0.0
 10
427.5035026531722
 20
396.5129142793604
 30
0.0
 10
427.5035026531722
 20
396.4601302919224
 30
0.0
 10
427.5035026531722
 20
396.4145101390235
 30
0.0
 10
427.5035026531722
 20
396.3839661894677
 30
0.0
 10
427.5035026531722
 20
396.36867047251
 30
0.0
  0
ARC
  5
166
330
1F
100
AcDbEntity
  8
0
  6
Continuous
 62
     7
370
    25
100
AcDbCircle
 10
428.0035026532
 20
397.0686438187
 30
0.0
 40
0.5
100
AcDbArc
 50
89.5
 51
180.0
  0
LINE
  5
167
330
1F
100
AcDbEntity
  8
0
  6
Continuous
 62
     7
370
    25
100
AcDbLine
 10
427.5035026532
 20
347.7599283754
 30
0.0
 11
427.5035026532
 21
396.3686704725
 31
0.0
  0
SPLINE
  5
168
330
1F
100
AcDbEntity
  8
0
  6
Continuous
 62
     7
370
    25
100
AcDbSpline
210
0.0
220
0.0
230
1.0
 70
    24
 71
     3
 72
    12
 73
     8
 74
     0
 42
0.00000001
 43
0.00000001
 40
0.0
 40
0.0
 40
0.0
 40
0.0
 40
0.2491022918975301
 40
0.4999679642928405
 40
0.6666461908158335
 40
0.8330649339652403
 40
1.0
 40
1.0
 40
1.0
 40
1.0
 10
427.5035026531722
 20
347.7599283753948
 30
0.0
 10
427.5035026531722
 20
347.7371032605344
 30
0.0
 10
427.5035026531722
 20
347.6912914531656
 30
0.0
 10
427.5035026531722
 20
347.6307792593626
 30
0.0
 10
427.5035026531722
 20
347.578672265809
 30
0.0
 10
427.5035026531722
 20
347.5347310115211
 30
0.0
 10
427.5035026531722
 20
347.5062957808574
 30
0.0
 10
427.5035026531722
 20
347.4920561442377
 30
0.0
  0
ARC
  5
169
330
1F
100
AcDbEntity
  8
0
  6
Continuous
 62
     7
370
    25
100
AcDbCircle
 10
428.0035026532
 20
347.0599550292
 30
0.0
 40
0.5000000000000315
100
AcDbArc
 50
180.0
 51
270.5
  0
LINE
  5
16A
330
1F
100
AcDbEntity
  8
0
  6
Continuous
 62
     7
370
    25
100
AcDbLine
 10
478.3139744958
 20
346.9989888263
 30
0.0
 11
428.0078659209
 21
346.5599740677
 31
0.0
  0
LINE
  5
16B
330
1F
100
AcDbEntity
  8
0
  6
Continuous
 62
     7
370
    25
100
AcDbLine
 10
428.0078659209
 20
397.5686247802
 30
0.0
 11
478.3139744958
 21
397.1296100216
 31
0.0
  0
ARC
  5
16C
330
1F
100
AcDbEntity
  8
0
  6
Continuous
 62
     7
370
    25
100
AcDbCircle
 10
478.3035026532
 20
348.198943134
 30
0.0
 40
1.200000000000041
100
AcDbArc
 50
270.5
 51
0.0
  0
ARC
  5
16D
330
1F
100
AcDbEntity
  8
0
  6
Continuous
 62
     7
370
    25
100
AcDbCircle
 10
478.3035026532
 20
395.9296557139
 30
0.0
 40
1.199999999999989
100
AcDbArc
 50
0.0
 51
89.5
  0
LINE
  5
16E
330
1F
100
AcDbEntity
  8
0
  6
Continuous
 62
     7
370
    25
100
AcDbLine
 10
479.5035026532
 20
395.9296557139
 30
0.0
 11
479.5035026532
 21
348.198943134
 31
0.0
  0
SPLINE
  5
16F
330
1F
100
AcDbEntity
  8
0
  6
Continuous
 62
     7
370
    25
100
AcDbSpline
210
0.0
220
0.0
230
1.0
 70
    24
 71
     3
 72
     8
 73
     4
 74
     0
 42
0.00000001
 43
0.00000001
 40
0.0
 40
0.0
 40
0.0
 40
0.0
 40
1.0
 40
1.0
 40
1.0
 40
1.0
 10
426.5035026531722
 20
370.9969199589138
 30
0.0
 10
426.5035026531722
 20
371.051086412618
 30
0.0
 10
426.5035026531722
 20
371.1328771998664
 30
0.0
 10
426.5035026531722
 20
371.2186059929174
 30
0.0
  0
SPLINE
  5
170
330
1F
100
AcDbEntity
  8
0
  6
Continuous
 62
     7
370
    25
100
AcDbSpline
210
0.0
220
0.0
230
1.0
 70
    24
 71
     3
 72
     8
 73
     4
 74
     0
 42
0.00000001
 43
0.00000001
 40
0.0
 40
0.0
 40
0.0
 40
0.0
 40
1.0
 40
1.0
 40
1.0
 40
1.0
 10
426.5035026531722
 20
372.9099929558305
 30
0.0
 10
426.5035026531722
 20
372.9957218523265
 30
0.0
 10
426.5035026531722
 20
373.07751248833
 30
0.0
 10
426.5035026531722
 20
373.1316789892784
 30
0.0
  0
LINE
  5
171
330
1F
100
AcDbEntity
  8
0
  6
Continuous
 62
     7
370
    25
100
AcDbLine
 10
426.5035026532
 20
371.2186059929
 30
0.0
 11
426.5035026532
 21
372.9099929558
 31
0.0
  0
SPLINE
  5
172
330
1F
100
AcDbEntity
  8
0
  6
Continuous
 62
     7
370
    25
100
AcDbSpline
210
0.0
220
0.0
230
1.0
 70
    24
 71
     3
 72
     8
 73
     4
 74
     0
 42
0.00000001
 43
0.00000001
 40
0.0
 40
0.0
 40
0.0
 40
0.0
 40
1.0
 40
1.0
 40
1.0
 40
1.0
 10
426.5035026531722
 20
373.1316789892783
 30
0.0
 10
426.5035026531722
 20
373.1841956108137
 30
0.0
 10
426.5035026531722
 20
373.2637865184354
 30
0.0
 10
426.5035026531722
 20
373.3474916562124
 30
0.0
  0
SPLINE
  5
173
330
1F
100
AcDbEntity
  8
0
  6
Continuous
 62
     7
370
    25
100
AcDbSpline
210
0.0
220
0.0
230
1.0
 70
    24
 71
     3
 72
     8
 73
     4
 74
     0
 42
0.00000001
 43
0.00000001
 40
0.0
 40
0.0
 40
0.0
 40
0.0
 40
1.0
 40
1.0
 40
1.0
 40
1.0
 10
426.5035026531722
 20
370.7811072914759
 30
0.0
 10
426.5035026531722
 20
370.8648998567916
 30
0.0
 10
426.5035026531722
 20
370.9446774664044
 30
0.0
 10
426.5035026531722
 20
370.9969199589138
 30
0.0
  0
LINE
  5
174
330
1F
100
AcDbEntity
  8
0
  6
Continuous
 62
     7
370
    25
100
AcDbLine
 10
427.5035026532
 20
354.2489623752
 30
0.0
 11
426.5035026532
 21
354.2394837179
 31
0.0
  0
LINE
  5
175
330
1F
100
AcDbEntity
  8
0
  6
Continuous
 62
     7
370
    25
100
AcDbLine
 10
426.5035026532
 20
370.7811072915
 30
0.0
 11
426.5035026532
 21
354.2394837179
 31
0.0
  0
LINE
  5
176
330
1F
100
AcDbEntity
  8
0
  6
Continuous
 62
     7
370
    25
100
AcDbLine
 10
426.5035026532
 20
389.8891151984
 30
0.0
 11
427.5035026532
 21
389.879636541
 31
0.0
  0
LINE
  5
177
330
1F
100
AcDbEntity
  8
0
  6
Continuous
 62
     7
370
    25
100
AcDbLine
 10
426.5035026532
 20
389.8891151984
 30
0.0
 11
426.5035026532
 21
373.3474916562
 31
0.0
  0
LINE
  5
178
330
1F
100
AcDbEntity
  8
0
  6
Continuous
 62
     7
370
    25
100
AcDbLine
 10
426.5035026532
 20
353.8345122401
 30
0.0
 11
426.5035026532
 21
354.2394837179
 31
0.0
  0
LINE
  5
179
330
1F
100
AcDbEntity
  8
0
  6
Continuous
 62
     7
370
    25
100
AcDbLine
 10
426.5035026532
 20
389.8891151984
 30
0.0
 11
426.5035026532
 21
390.2940866715
 31
0.0
  0
SPLINE
  5
17A
330
1F
100
AcDbEntity
  8
0
  6
Continuous
 62
     7
370
    25
100
AcDbSpline
210
0.0
220
0.0
230
1.0
 70
    24
 71
     3
 72
     8
 73
     4
 74
     0
 42
0.00000001
 43
0.00000001
 40
0.0
 40
0.0
 40
0.0
 40
0.0
 40
1.0
 40
1.0
 40
1.0
 40
1.0
 10
426.5035026531722
 20
353.6488979049619
 30
0.0
 10
426.5035026531722
 20
353.6945936970992
 30
0.0
 10
426.5035026531722
 20
353.7607923039769
 30
0.0
 10
426.5035026531722
 20
353.8345122401475
 30
0.0
  0
SPLINE
  5
17B
330
1F
100
AcDbEntity
  8
0
  6
Continuous
 62
     7
370
    25
100
AcDbSpline
210
0.0
220
0.0
230
1.0
 70
    24
 71
     3
 72
     8
 73
     4
 74
     0
 42
0.00000001
 43
0.00000001
 40
0.0
 40
0.0
 40
0.0
 40
0.0
 40
1.0
 40
1.0
 40
1.0
 40
1.0
 10
426.5035026531722
 20
390.2940866715035
 30
0.0
 10
426.5035026531722
 20
390.3678066071184
 30
0.0
 10
426.5035026531722
 20
390.4340052145074
 30
0.0
 10
426.5035026531722
 20
390.4797010062143
 30
0.0
  0
ELLIPSE
  5
17C
330
1F
100
AcDbEntity
  8
0
  6
Continuous
 62
     7
370
    25
100
AcDbEllipse
 10
1397.7611214407
 20
372.0642994256
 30
0.0
 11
1314.804603842113
 21
17.81283409741269
 31
0.0
210
0.0
220
0.0
230
1.0
 40
0.0113644792
 41
3.8810824701882
 42
3.882210173073686
  0
LINE
  5
17D
330
1F
100
AcDbEntity
  8
0
  6
Continuous
 62
     7
370
    25
100
AcDbLine
 10
426.5035026532
 20
348.8343293652
 30
0.0
 11
426.5035026532
 21
353.648897905
 31
0.0
  0
ELLIPSE
  5
17E
330
1F
100
AcDbEntity
  8
0
  6
Continuous
 62
     7
370
    25
100
AcDbEllipse
 10
1397.7611214407
 20
372.0642994256
 30
0.0
 11
1314.804603842108
 21
-17.81283403427898
 31
0.0
210
0.0
220
0.0
230
0.9999999999999999
 40
0.0113644792
 41
2.400975134106814
 42
2.402102836992291
  0
LINE
  5
17F
330
1F
100
AcDbEntity
  8
0
  6
Continuous
 62
     7
370
    25
100
AcDbLine
 10
426.5035026532
 20
390.4797010062
 30
0.0
 11
426.5035026532
 21
395.2942694901
 31
0.0
  0
LINE
  5
180
330
1F
100
AcDbEntity
  8
0
  6
Continuous
 62
     8
370
    18
100
AcDbLine
 10
404.5035026532
 20
444.8106460188
 30
0.0
 11
409.7882297036
 21
444.8096393152
 31
0.0
  0
SPLINE
  5
181
330
1F
100
AcDbEntity
  8
0
  6
Continuous
 62
     8
370
    18
100
AcDbSpline
210
0.0
220
0.0
230
1.0
 70
     8
 71
     3
 72
     8
 73
     4
 74
     0
 42
0.00000001
 43
0.00000001
 40
0.0
 40
0.0
 40
0.0
 40
0.0
 40
1.0
 40
1.0
 40
1.0
 40
1.0
 10
409.7882297036199
 20
299.3189595327207
 30
0.0
 10
410.2887062426505
 20
347.8158527935418
 30
0.0
 10
410.2887062426506
 20
396.3127460543629
 30
0.0
 10
409.7882297036199
 20
444.809639315184
 30
0.0
  0
LINE
  5
182
330
1F
100
AcDbEntity
  8
0
  6
Continuous
 62
     8
370
    18
100
AcDbLine
 10
404.5035026532
 20
299.3179528291
 30
0.0
 11
409.7882297036
 21
299.3189595327
 31
0.0
  0
SPLINE
  5
183
330
1F
100
AcDbEntity
  8
0
  6
Continuous
 62
     8
370
    18
100
AcDbSpline
210
0.0
220
0.0
230
1.0
 70
     8
 71
     3
 72
     8
 73
     4
 74
     0
 42
0.00000001
 43
0.00000001
 40
0.0
 40
0.0
 40
0.0
 40
0.0
 40
1.0
 40
1.0
 40
1.0
 40
1.0
 10
411.250204357
 20
444.6783775633622
 30
0.0
 10
411.748918954924
 20
396.2689921370891
 30
0.0
 10
411.7489189549238
 20
347.8596067108159
 30
0.0
 10
411.250204357
 20
299.4502212845428
 30
0.0
  0
SPLINE
  5
184
330
1F
100
AcDbEntity
  8
0
  6
Continuous
 62
     8
370
    18
100
AcDbSpline
210
0.0
220
0.0
230
1.0
 70
     8
 71
     3
 72
    26
 73
    22
 74
     0
 42
0.00000001
 43
0.00000001
 40
0.0
 40
0.0
 40
0.0
 40
0.0
 40
0.03125
 40
0.03125
 40
0.0625
 40
0.0625
 40
0.125
 40
0.125
 40
0.25
 40
0.25
 40
0.375
 40
0.375
 40
0.5
 40
0.5
 40
0.625
 40
0.625
 40
0.75
 40
0.75
 40
0.875
 40
0.875
 40
1.0
 40
1.0
 40
1.0
 40
1.0
 10
409.7882297036199
 20
299.3189595327206
 30
0.0
 10
409.8124790787105
 20
299.3187947309732
 30
0.0
 10
409.8366843523895
 20
299.3186883113139
 30
0.0
 10
409.8849554471872
 20
299.3185909372164
 30
0.0
 10
409.9090212683058
 20
299.318599982778
 30
0.0
 10
409.9809326782147
 20
299.318798368861
 30
0.0
 10
410.0284922135581
 20
299.3191589587803
 30
0.0
 10
410.1694116089514
 20
299.3209101386644
 30
0.0
 10
410.2610122583642
 20
299.3229701387551
 30
0.0
 10
410.4362423456263
 20
299.328792099454
 30
0.0
 10
410.5213722046136
 20
299.3326111062067
 30
0.0
 10
410.6795580867089
 20
299.3417754356855
 30
0.0
 10
410.7526105788937
 20
299.3470904197487
 30
0.0
 10
410.88676506575
 20
299.3591702065405
 30
0.0
 10
410.9481070855239
 20
299.3659977408228
 30
0.0
 10
411.0535611947446
 20
299.380571595398
 30
0.0
 10
411.0984110336798
 20
299.3883677167035
 30
0.0
 10
411.1721181309055
 20
299.4049937416472
 30
0.0
 10
411.2004977089684
 20
299.4137690508658
 30
0.0
 10
411.2387944507642
 20
299.431632697361
 30
0.0
 10
411.2491059248635
 20
299.4408033171703
 30
0.0
 10
411.2502043570016
 20
299.4502212845435
 30
0.0
  0
SPLINE
  5
185
330
1F
100
AcDbEntity
  8
0
  6
Continuous
 62
     8
370
    18
100
AcDbSpline
210
0.0
220
0.0
230
1.0
 70
     8
 71
     3
 72
    26
 73
    22
 74
     0
 42
0.00000001
 43
0.00000001
 40
0.0
 40
0.0
 40
0.0
 40
0.0
 40
0.03125
 40
0.03125
 40
0.0625
 40
0.0625
 40
0.125
 40
0.125
 40
0.25
 40
0.25
 40
0.375
 40
0.375
 40
0.5
 40
0.5
 40
0.625
 40
0.625
 40
0.75
 40
0.75
 40
0.875
 40
0.875
 40
1.0
 40
1.0
 40
1.0
 40
1.0
 10
409.7882297036198
 20
444.8096393151841
 30
0.0
 10
409.8124790787103
 20
444.8098041169315
 30
0.0
 10
409.8366843523893
 20
444.8099105365907
 30
0.0
 10
409.8849554471869
 20
444.8100079106883
 30
0.0
 10
409.9090212683055
 20
444.8099988651266
 30
0.0
 10
409.9809326782145
 20
444.8098004790437
 30
0.0
 10
410.028492213558
 20
444.8094398891244
 30
0.0
 10
410.1694116089514
 20
444.8076887092404
 30
0.0
 10
410.2610122583643
 20
444.8056287091496
 30
0.0
 10
410.4362423456263
 20
444.7998067484507
 30
0.0
 10
410.5213722046142
 20
444.7959877416981
 30
0.0
 10
410.6795580867096
 20
444.7868234122194
 30
0.0
 10
410.7526105788941
 20
444.7815084281561
 30
0.0
 10
410.8867650657505
 20
444.7694286413645
 30
0.0
 10
410.948107085524
 20
444.7626011070821
 30
0.0
 10
411.0535611947446
 20
444.7480272525071
 30
0.0
 10
411.0984110336794
 20
444.7402311312016
 30
0.0
 10
411.1721181309052
 20
444.723605106258
 30
0.0
 10
411.2004977089676
 20
444.7148297970394
 30
0.0
 10
411.2387944507635
 20
444.6969661505444
 30
0.0
 10
411.2491059248636
 20
444.6877955307351
 30
0.0
 10
411.2502043570017
 20
444.678377563362
 30
0.0
  0
LINE
  5
186
330
1F
100
AcDbEntity
  8
0
  6
Continuous
 62
     8
370
    18
100
AcDbLine
 10
411.6241957742
 20
444.9321935103
 30
0.0
 11
411.250204357
 21
444.6783775634
 31
0.0
  0
SPLINE
  5
187
330
1F
100
AcDbEntity
  8
0
  6
Continuous
 62
     8
370
    18
100
AcDbSpline
210
0.0
220
0.0
230
1.0
 70
     8
 71
     3
 72
     9
 73
     5
 74
     0
 42
0.00000001
 43
0.00000001
 40
0.0
 40
0.0
 40
0.0
 40
0.0
 40
0.9999145733985568
 40
0.9999999999999999
 40
0.9999999999999999
 40
0.9999999999999999
 40
0.9999999999999999
 10
411.2502043570017
 20
299.4502212845435
 30
0.0
 10
411.4995316321064
 20
299.2810108816392
 30
0.0
 10
411.7488802082124
 20
299.1117860224304
 30
0.0
 10
411.6242044378825
 20
299.1963994578497
 30
0.0
 10
411.6241937872551
 20
299.196406686088
 30
0.0
  0
SPLINE
  5
188
330
1F
100
AcDbEntity
  8
0
  6
Continuous
 62
     8
370
    18
100
AcDbSpline
210
0.0
220
0.0
230
1.0
 70
     8
 71
     3
 72
    25
 73
    21
 74
     0
 42
0.00000001
 43
0.00000001
 40
0.0
 40
0.0
 40
0.0
 40
0.0
 40
0.0555740769952392
 40
0.1111416178227258
 40
0.1667034389955471
 40
0.222260357229937
 40
0.2778131894162096
 40
0.3333627525898717
 40
0.3889098639026335
 40
0.444455340593372
 40
0.4999999999590666
 40
0.555544659325781
 40
0.6110901360195585
 40
0.6666372473373833
 40
0.7221868105181114
 40
0.7777396427134713
 40
0.8332965609589694
 40
0.8888583821449405
 40
0.9444259229875822
 40
1.0
 40
1.0
 40
1.0
 40
1.0
 10
409.7882297036199
 20
297.9672862581976
 30
0.0
 10
409.7892092080348
 20
297.9685771922576
 30
0.0
 10
409.7911681016633
 20
297.9711589085484
 30
0.0
 10
409.7936790295265
 20
297.9878871527488
 30
0.0
 10
409.7958768065672
 20
298.0138930855903
 30
0.0
 10
409.7977307714646
 20
298.0499069320664
 30
0.0
 10
409.7992491386838
 20
298.0954118880515
 30
0.0
 10
409.8004297074215
 20
298.1501347285471
 30
0.0
 10
409.8012730673711
 20
298.2136495177412
 30
0.0
 10
409.8017790603323
 20
298.2854874926317
 30
0.0
 10
409.8019477294462
 20
298.3651119531153
 30
0.0
 10
409.8017790603323
 20
298.4519299099429
 30
0.0
 10
409.8012730673711
 20
298.5452944315446
 30
0.0
 10
409.8004297074215
 20
298.6445100116858
 30
0.0
 10
409.7992491386837
 20
298.7488375310012
 30
0.0
 10
409.7977307714646
 20
298.8574999858536
 30
0.0
 10
409.7958768065672
 20
298.9696874886264
 30
0.0
 10
409.7936790295263
 20
299.0845661068418
 30
0.0
 10
409.7911681016632
 20
299.2012735096889
 30
0.0
 10
409.7892092080347
 20
299.2797293203975
 30
0.0
 10
409.7882297036199
 20
299.3189595327206
 30
0.0
  0
SPLINE
  5
189
330
1F
100
AcDbEntity
  8
0
  6
Continuous
 62
     8
370
    18
100
AcDbSpline
210
0.0
220
0.0
230
1.0
 70
     8
 71
     3
 72
    25
 73
    21
 74
     0
 42
0.00000001
 43
0.00000001
 40
0.0
 40
0.0
 40
0.0
 40
0.0
 40
0.0555740770039936
 40
0.1111416178392036
 40
0.1667034390187411
 40
0.2222603572587903
 40
0.2778131894496921
 40
0.3333627526269595
 40
0.3889098639423072
 40
0.4444553406345891
 40
0.5000000000008151
 40
0.5555446593670192
 40
0.6110901360592408
 40
0.666637247374487
 40
0.7221868105516234
 40
0.7777396427423436
 40
0.833296560982168
 40
0.8888583821614459
 40
0.9444259229963615
 40
1.0
 40
1.0
 40
1.0
 40
1.0
 10
409.7882297036198
 20
444.8096393151841
 30
0.0
 10
409.7892092080345
 20
444.8488695275013
 30
0.0
 10
409.7911681016628
 20
444.9273253381988
 30
0.0
 10
409.7936790295255
 20
445.0440327410305
 30
0.0
 10
409.7958768065661
 20
445.1589113592334
 30
0.0
 10
409.7977307714633
 20
445.2710988619967
 30
0.0
 10
409.7992491386823
 20
445.3797613168426
 30
0.0
 10
409.8004297074199
 20
445.4840888361544
 30
0.0
 10
409.8012730673694
 20
445.5833044162948
 30
0.0
 10
409.8017790603305
 20
445.6766689378983
 30
0.0
 10
409.8019477294444
 20
445.7634868947302
 30
0.0
 10
409.8017790603305
 20
445.84311135522
 30
0.0
 10
409.8012730673694
 20
445.9149493301181
 30
0.0
 10
409.8004297074199
 20
445.9784641193206
 30
0.0
 10
409.7992491386823
 20
446.0331869598252
 30
0.0
 10
409.7977307714633
 20
446.0786919158189
 30
0.0
 10
409.7958768065661
 20
446.1147057623029
 30
0.0
 10
409.7936790295256
 20
446.1407116951508
 30
0.0
 10
409.7911681016628
 20
446.1574399393557
 30
0.0
 10
409.7892092080345
 20
446.1600216556471
 30
0.0
 10
409.7882297036198
 20
446.1613125897074
 30
0.0
  0
SPLINE
  5
18A
330
1F
100
AcDbEntity
  8
0
  6
Continuous
 62
     8
370
    18
100
AcDbSpline
210
0.0
220
0.0
230
1.0
 70
     8
 71
     3
 72
    21
 73
    17
 74
     0
 42
0.00000001
 43
0.00000001
 40
0.0
 40
0.0
 40
0.0
 40
0.0
 40
0.0527015849055315
 40
0.1061218290185266
 40
0.1602636673742996
 40
0.2151299185905191
 40
0.2707232904323063
 40
0.3270463850636441
 40
0.3841017040100639
 40
0.4418916528422066
 40
0.5004185455961658
 40
0.6190205570885717
 40
0.7500271669233991
 40
0.8150462880616015
 40
0.8983758744115322
 40
1.0
 40
1.0
 40
1.0
 40
1.0
 10
409.7882297036197
 20
446.1613125897078
 30
0.0
 10
409.8286840005471
 20
446.1593033938636
 30
0.0
 10
409.9101442448508
 20
446.1552576040032
 30
0.0
 10
410.0320222118672
 20
446.1364971035117
 30
0.0
 10
410.1536178721356
 20
446.1080903177867
 30
0.0
 10
410.2739730589666
 20
446.0689146299262
 30
0.0
 10
410.3921110014618
 20
446.0191037136302
 30
0.0
 10
410.5070058726104
 20
445.958562693283
 30
0.0
 10
410.6175991110042
 20
445.8873876391763
 30
0.0
 10
410.7228142006618
 20
445.805746020862
 30
0.0
 10
410.854898203111
 20
445.6829574063934
 30
0.0
 10
411.0053166240771
 20
445.4992343127535
 30
0.0
 10
411.1206352624295
 20
445.285648903458
 30
0.0
 10
411.1925333671546
 20
445.0842032038224
 30
0.0
 10
411.2379762867247
 20
444.8975899999655
 30
0.0
 10
411.2458681286298
 20
444.7561130658017
 30
0.0
 10
411.2502043569999
 20
444.6783775633637
 30
0.0
  0
SPLINE
  5
18B
330
1F
100
AcDbEntity
  8
0
  6
Continuous
 62
     8
370
    18
100
AcDbSpline
210
0.0
220
0.0
230
1.0
 70
     8
 71
     3
 72
    21
 73
    17
 74
     0
 42
0.00000001
 43
0.00000001
 40
0.0
 40
0.0
 40
0.0
 40
0.0
 40
0.0527050586762826
 40
0.1061279071725774
 40
0.1602714805693632
 40
0.2151385976729586
 40
0.2707319665638711
 40
0.3270541898383076
 40
0.3841077695533525
 40
0.4418951119045277
 40
0.500418531633539
 40
0.6190410166253884
 40
0.7500271579256018
 40
0.8150588969038448
 40
0.898388478829127
 40
1.0
 40
1.0
 40
1.0
 40
1.0
 10
409.7882297036198
 20
297.9672862581972
 30
0.0
 10
409.8286866690632
 20
297.9692956480974
 30
0.0
 10
409.9101515830752
 20
297.9733417937646
 30
0.0
 10
410.0320353772903
 20
297.9921041421782
 30
0.0
 10
410.1536346454616
 20
298.0205131346798
 30
0.0
 10
410.2739912468277
 20
298.059690974873
 30
0.0
 10
410.3921285236686
 20
298.1095034691905
 30
0.0
 10
410.5070208487837
 20
298.1700450108541
 30
0.0
 10
410.6176099456546
 20
298.2412190675817
 30
0.0
 10
410.7228196766174
 20
298.3228577671271
 30
0.0
 10
410.8549113868676
 20
298.4456541737185
 30
0.0
 10
411.0053256039184
 20
298.6293780748096
 30
0.0
 10
411.1206451289409
 20
298.8429732298459
 30
0.0
 10
411.1925392989536
 20
299.04441410737
 30
0.0
 10
411.2379784867138
 20
299.2310281756189
 30
0.0
 10
411.2458690650773
 20
299.3724954382525
 30
0.0
 10
411.250204357
 20
299.4502212845433
 30
0.0
  0
SPLINE
  5
18C
330
1F
100
AcDbEntity
  8
0
  6
Continuous
 62
     8
370
    18
100
AcDbSpline
210
0.0
220
0.0
230
1.0
 70
     8
 71
     3
 72
    10
 73
     6
 74
     0
 42
0.00000001
 43
0.00000001
 40
0.0
 40
0.0
 40
0.0
 40
0.0
 40
0.4999510413283114
 40
0.9999215213151614
 40
1.0
 40
1.0
 40
1.0
 40
1.0
 10
409.7882297036198
 20
446.1613125897075
 30
0.0
 10
409.8909942748411
 20
446.2310656305872
 30
0.0
 10
410.0965274128861
 20
446.3705744244235
 30
0.0
 10
410.1948408624278
 20
446.4373099038514
 30
0.0
 10
410.1635626167124
 20
446.4160786162186
 30
0.0
 10
410.1635577078418
 20
446.4160752841377
 30
0.0
  0
SPLINE
  5
18D
330
1F
100
AcDbEntity
  8
0
  6
Continuous
 62
     8
370
    18
100
AcDbSpline
210
0.0
220
0.0
230
1.0
 70
     8
 71
     3
 72
     9
 73
     5
 74
     0
 42
0.00000001
 43
0.00000001
 40
0.0
 40
0.0
 40
0.0
 40
0.0
 40
0.4999510989237477
 40
1.0
 40
1.0
 40
1.0
 40
1.0
 10
410.1635577312408
 20
297.7125235478825
 30
0.0
 10
410.1479271330316
 20
297.7231338490741
 30
0.0
 10
410.1166628789018
 20
297.7443565270811
 30
0.0
 10
409.897714566586
 20
297.8929715028708
 30
0.0
 10
409.7882297036199
 20
297.967286258198
 30
0.0
  0
ELLIPSE
  5
18E
330
1F
100
AcDbEntity
  8
0
  6
Continuous
 62
     8
370
    18
100
AcDbEllipse
 10
428.0035026532
 20
396.3686171638
 30
0.0
 11
0.004363186994680746
 21
1.200007616901303
 31
0.0
210
0.0
220
0.0
230
0.9999999999999999
 40
0.0036358238
 41
4.712446623772322
 42
6.283166798131664
  0
LINE
  5
18F
330
1F
100
AcDbEntity
  8
0
  6
Continuous
 62
     8
370
    18
100
AcDbLine
 10
427.5035026532
 20
396.3686704725
 30
0.0
 11
428.0078659209
 21
396.3686704725
 31
0.0
  0
LINE
  5
190
330
1F
100
AcDbEntity
  8
0
  6
Continuous
 62
     8
370
    18
100
AcDbLine
 10
428.0078659209
 20
396.3686704725
 30
0.0
 11
428.0078659209
 21
347.7599283754
 31
0.0
  0
LINE
  5
191
330
1F
100
AcDbEntity
  8
0
  6
Continuous
 62
     8
370
    18
100
AcDbLine
 10
427.5035026532
 20
347.7599283754
 30
0.0
 11
428.0078659209
 21
347.7599283754
 31
0.0
  0
ELLIPSE
  5
192
330
1F
100
AcDbEntity
  8
0
  6
Continuous
 62
     8
370
    18
100
AcDbEllipse
 10
428.0035026532
 20
347.7599816841
 30
0.0
 11
-0.004363186994737589
 21
1.200007616901246
 31
0.0
210
0.0
220
0.0
230
1.0
 40
0.0036358238
 41
3.141611162632362
 42
4.712331336997105
  0
ARC
  5
193
330
1F
100
AcDbEntity
  8
0
  6
Continuous
 62
     8
370
    18
100
AcDbCircle
 10
443.9343488865
 20
347.5989659802
 30
0.0
 40
34.38486047108107
100
AcDbArc
 50
359.0002023313
 51
0.9997976687
  0
LINE
  5
194
330
1F
100
AcDbEntity
  8
0
  6
Continuous
 62
     8
370
    18
100
AcDbLine
 10
428.0078659209
 20
347.7599283754
 30
0.0
 11
478.3139744958
 21
348.198943134
 31
0.0
  0
ARC
  5
195
330
1F
100
AcDbEntity
  8
0
  6
Continuous
 62
     8
370
    18
100
AcDbCircle
 10
443.9343488866
 20
396.5296328677
 30
0.0
 40
34.38486047107317
100
AcDbArc
 50
359.0002023313
 51
0.9997976687
  0
LINE
  5
196
330
1F
100
AcDbEntity
  8
0
  6
Continuous
 62
     8
370
    18
100
AcDbLine
 10
478.3139744958
 20
395.9296557139
 30
0.0
 11
428.0078659209
 21
396.3686704725
 31
0.0
  0
LINE
  5
197
330
1F
100
AcDbEntity
  8
0
  6
Continuous
 62
     8
370
    18
100
AcDbLine
 10
478.3139744958
 20
348.198943134
 30
0.0
 11
478.3139744958
 21
395.9296557139
 31
0.0
  0
LINE
  5
198
330
1F
100
AcDbEntity
  8
0
  6
Continuous
 62
     8
370
    18
100
AcDbLine
 10
479.5035026532
 20
348.198943134
 30
0.0
 11
478.3139744958
 21
348.198943134
 31
0.0
  0
LINE
  5
199
330
1F
100
AcDbEntity
  8
0
  6
Continuous
 62
     8
370
    18
100
AcDbLine
 10
479.5035026532
 20
395.9296557139
 30
0.0
 11
478.3139744958
 21
395.9296557139
 31
0.0
  0
SPLINE
  5
19A
330
1F
100
AcDbEntity
  8
0
  6
Continuous
 62
     8
370
    18
100
AcDbSpline
210
0.0
220
0.0
230
1.0
 70
     8
 71
     3
 72
     8
 73
     4
 74
     0
 42
0.00000001
 43
0.00000001
 40
0.0
 40
0.0
 40
0.0
 40
0.0
 40
1.0
 40
1.0
 40
1.0
 40
1.0
 10
427.5035026531722
 20
371.0039663845413
 30
0.0
 10
427.1701688631212
 20
371.0017114869577
 30
0.0
 10
426.8368355148006
 20
370.9993658228774
 30
0.0
 10
426.5035026531722
 20
370.9969199589138
 30
0.0
  0
SPLINE
  5
19B
330
1F
100
AcDbEntity
  8
0
  6
Continuous
 62
     8
370
    18
100
AcDbSpline
210
0.0
220
0.0
230
1.0
 70
     8
 71
     3
 72
     8
 73
     4
 74
     0
 42
0.00000001
 43
0.00000001
 40
0.0
 40
0.0
 40
0.0
 40
0.0
 40
1.0
 40
1.0
 40
1.0
 40
1.0
 10
426.5035026531722
 20
371.2186059929174
 30
0.0
 10
426.8368332651286
 20
371.2235599255325
 30
0.0
 10
427.1701666865928
 20
371.2283109935324
 30
0.0
 10
427.5035026531963
 20
371.2328782787053
 30
0.0
  0
SPLINE
  5
19C
330
1F
100
AcDbEntity
  8
0
  6
Continuous
 62
     8
370
    18
100
AcDbSpline
210
0.0
220
0.0
230
1.0
 70
     8
 71
     3
 72
     8
 73
     4
 74
     0
 42
0.00000001
 43
0.00000001
 40
0.0
 40
0.0
 40
0.0
 40
0.0
 40
1.0
 40
1.0
 40
1.0
 40
1.0
 10
427.5035026531722
 20
372.8957206700302
 30
0.0
 10
427.1701677496437
 20
372.9002879406412
 30
0.0
 10
426.8368343637541
 20
372.9050390068783
 30
0.0
 10
426.5035026531722
 20
372.9099929558255
 30
0.0
  0
SPLINE
  5
19D
330
1F
100
AcDbEntity
  8
0
  6
Continuous
 62
     8
370
    18
100
AcDbSpline
210
0.0
220
0.0
230
1.0
 70
     8
 71
     3
 72
     8
 73
     4
 74
     0
 42
0.00000001
 43
0.00000001
 40
0.0
 40
0.0
 40
0.0
 40
0.0
 40
1.0
 40
1.0
 40
1.0
 40
1.0
 10
426.5035026531722
 20
373.1316789892784
 30
0.0
 10
426.8368353624757
 20
373.1292331264133
 30
0.0
 10
427.1701687157331
 20
373.1268874622024
 30
0.0
 10
427.5035026531722
 20
373.1246325636072
 30
0.0
  0
LINE
  5
19E
330
1F
100
AcDbEntity
  8
0
  6
Continuous
 62
     8
370
    18
100
AcDbLine
 10
426.5035026532
 20
373.3474916562
 30
0.0
 11
427.5035026532
 21
373.3474790009
 31
0.0
  0
LINE
  5
19F
330
1F
100
AcDbEntity
  8
0
  6
Continuous
 62
     8
370
    18
100
AcDbLine
 10
427.5035026532
 20
370.7811199467
 30
0.0
 11
426.5035026532
 21
370.7811072915
 31
0.0
  0
LINE
  5
1A0
330
1F
100
AcDbEntity
  8
0
  6
Continuous
 62
     8
370
    18
100
AcDbLine
 10
424.5035026532
 20
394.864299424
 30
0.0
 11
424.5035026532
 21
349.264299424
 31
0.0
  0
ELLIPSE
  5
1A1
330
1F
100
AcDbEntity
  8
0
  6
Continuous
 62
     8
370
    18
100
AcDbEllipse
 10
1397.7663571627
 20
372.0122129072
 30
0.0
 11
1314.80461764023
 21
3.986403564176499
 31
0.0
210
0.0
220
0.0
230
1.0
 40
0.0171897253
 41
3.881178408798085
 42
3.882306118972727
  0
ELLIPSE
  5
1A2
330
1F
100
AcDbEntity
  8
0
  6
Continuous
 62
     8
370
    18
100
AcDbEllipse
 10
1397.7663571627
 20
372.1163859453
 30
0.0
 11
1314.804617640224
 21
-3.986403659704308
 31
0.0
210
0.0
220
0.0
230
1.0
 40
0.0171897253
 41
2.400879188208525
 42
2.402006898383165
  0
ELLIPSE
  5
1A3
330
1F
100
AcDbEntity
  8
0
  6
Continuous
 62
     8
370
    18
100
AcDbEllipse
 10
1397.7611214407
 20
372.0642994256
 30
0.0
 11
1314.804617544984
 21
4.038544825910321
 31
0.0
210
0.0
220
0.0
230
1.0
 40
0.0174144234
 41
3.881182944928612
 42
3.882310647814097
  0
ELLIPSE
  5
1A4
330
1F
100
AcDbEntity
  8
0
  6
Continuous
 62
     8
370
    18
100
AcDbEllipse
 10
1397.7611214407
 20
372.0642994256
 30
0.0
 11
1314.804617544979
 21
-4.038544922687606
 31
0.0
210
0.0
220
0.0
230
1.0
 40
0.0174144234
 41
2.400874659367183
 42
2.402002362252663
  0
SPLINE
  5
1A5
330
1F
100
AcDbEntity
  8
0
  6
Continuous
 62
     8
370
    18
100
AcDbSpline
210
0.0
220
0.0
230
1.0
 70
     8
 71
     3
 72
     9
 73
     5
 74
     0
 42
0.00000001
 43
0.00000001
 40
0.0
 40
0.0
 40
0.0
 40
0.0
 40
0.6109630539046923
 40
1.0
 40
1.0
 40
1.0
 40
1.0
 10
466.2245551450544
 20
403.2741897196248
 30
0.0
 10
466.3802851498777
 20
403.3430914550856
 30
0.0
 10
466.6351778210926
 20
403.455867072237
 30
0.0
 10
466.6126235804271
 20
403.4459529173656
 30
0.0
 10
466.603849147517
 20
403.4420959448314
 30
0.0
  0
SPLINE
  5
1A6
330
1F
100
AcDbEntity
  8
0
  6
Continuous
 62
     8
370
    18
100
AcDbSpline
210
0.0
220
0.0
230
1.0
 70
     8
 71
     3
 72
    14
 73
    10
 74
     0
 42
0.00000001
 43
0.00000001
 40
0.0
 40
0.0
 40
0.0
 40
0.0
 40
0.25
 40
0.25
 40
0.5
 40
0.5
 40
0.75
 40
0.75
 40
1.0
 40
1.0
 40
1.0
 40
1.0
 10
465.3208051450544
 20
403.1731479643483
 30
0.0
 10
465.4326299743914
 20
403.1762988590193
 30
0.0
 10
465.539899584048
 20
403.1814092319277
 30
0.0
 10
465.7363341213932
 20
403.1945916452209
 30
0.0
 10
465.8278667017191
 20
403.2028512372052
 30
0.0
 10
465.9852846804367
 20
403.2211321788722
 30
0.0
 10
466.0530080248855
 20
403.2313244588997
 30
0.0
 10
466.1603252106988
 20
403.2524712602759
 30
0.0
 10
466.1996813706497
 20
403.2632788622897
 30
0.0
 10
466.2245551450544
 20
403.2741897196248
 30
0.0
  0
SPLINE
  5
1A7
330
1F
100
AcDbEntity
  8
0
  6
Continuous
 62
     8
370
    18
100
AcDbSpline
210
0.0
220
0.0
230
1.0
 70
     8
 71
     3
 72
    12
 73
     8
 74
     0
 42
0.00000001
 43
0.00000001
 40
0.0
 40
0.0
 40
0.0
 40
0.0
 40
0.25
 40
0.25
 40
0.5
 40
0.5
 40
1.0
 40
1.0
 40
1.0
 40
1.0
 10
457.6862001612899
 20
403.1731479643483
 30
0.0
 10
458.3160447539328
 20
403.1554007969055
 30
0.0
 10
458.9522636829184
 20
403.1413092798833
 30
0.0
 10
460.2375218293203
 20
403.1223099501734
 30
0.0
 10
460.8779565317535
 20
403.1175321879868
 30
0.0
 10
462.7929213278132
 20
403.1177245347918
 30
0.0
 10
464.0611860561889
 20
403.1376556045735
 30
0.0
 10
465.3208051450545
 20
403.1731479643483
 30
0.0
  0
SPLINE
  5
1A8
330
1F
100
AcDbEntity
  8
0
  6
Continuous
 62
     8
370
    18
100
AcDbSpline
210
0.0
220
0.0
230
1.0
 70
     8
 71
     3
 72
    14
 73
    10
 74
     0
 42
0.00000001
 43
0.00000001
 40
0.0
 40
0.0
 40
0.0
 40
0.0
 40
0.25
 40
0.25
 40
0.5
 40
0.5
 40
0.75
 40
0.75
 40
1.0
 40
1.0
 40
1.0
 40
1.0
 10
456.7824501612899
 20
403.2741897196248
 30
0.0
 10
456.807322193884
 20
403.2632796263333
 30
0.0
 10
456.8475739569618
 20
403.2522680415942
 30
0.0
 10
456.9545202912633
 20
403.2312488453893
 30
0.0
 10
457.0227340766324
 20
403.22099163305
 30
0.0
 10
457.1804847276683
 20
403.2027181104813
 30
0.0
 10
457.2712147452241
 20
403.1945372399787
 30
0.0
 10
457.4691258453661
 20
403.1812918262173
 30
0.0
 10
457.5743822799967
 20
403.1762986632438
 30
0.0
 10
457.6862001612899
 20
403.1731479643483
 30
0.0
  0
SPLINE
  5
1A9
330
1F
100
AcDbEntity
  8
0
  6
Continuous
 62
     8
370
    18
100
AcDbSpline
210
0.0
220
0.0
230
1.0
 70
     8
 71
     3
 72
     9
 73
     5
 74
     0
 42
0.00000001
 43
0.00000001
 40
0.0
 40
0.0
 40
0.0
 40
0.0
 40
0.295793072969658
 40
1.0
 40
1.0
 40
1.0
 40
1.0
 10
456.4031561588272
 20
403.4420959448314
 30
0.0
 10
456.3904971838291
 20
403.4477188831166
 30
0.0
 10
456.3477004581616
 20
403.4667285855035
 30
0.0
 10
456.6028042816661
 20
403.3537500129929
 30
0.0
 10
456.7824501612899
 20
403.2741897196248
 30
0.0
  0
SPLINE
  5
1AA
330
1F
100
AcDbEntity
  8
0
  6
Continuous
 62
     8
370
    18
100
AcDbSpline
210
0.0
220
0.0
230
1.0
 70
     8
 71
     3
 72
    12
 73
     8
 74
     0
 42
0.00000001
 43
0.00000001
 40
0.0
 40
0.0
 40
0.0
 40
0.0
 40
0.5
 40
0.5
 40
0.75
 40
0.75
 40
1.0
 40
1.0
 40
1.0
 40
1.0
 10
465.4983540981652
 20
402.3789709935403
 30
0.0
 10
464.1796036653809
 20
402.344174116035
 30
0.0
 10
462.8521618156197
 20
402.3246507156255
 30
0.0
 10
460.8483898033156
 20
402.3244701140235
 30
0.0
 10
460.1783455589853
 20
402.3291537158041
 30
0.0
 10
458.8338567891909
 20
402.3477656334398
 30
0.0
 10
458.1680466208784
 20
402.3615720218829
 30
0.0
 10
457.5086512081791
 20
402.3789709935403
 30
0.0
  0
ARC
  5
1AB
330
1F
100
AcDbEntity
  8
0
  6
Continuous
 62
     8
370
    18
100
AcDbCircle
 10
458.8127408746
 20
402.5043594076
 30
0.0
 40
1.310103855612606
100
AcDbArc
 50
149.3038495843
 51
185.4921145913
  0
ARC
  5
1AC
330
1F
100
AcDbEntity
  8
0
  6
Continuous
 62
     8
370
    18
100
AcDbCircle
 10
464.1942644317
 20
402.5043594076
 30
0.0
 40
1.310103855611159
100
AcDbArc
 50
354.5078854087
 51
30.6961504157
  0
LINE
  5
1AD
330
1F
100
AcDbEntity
  8
0
  6
Continuous
 62
     8
370
    18
100
AcDbLine
 10
465.4983540982
 20
402.3789709935
 30
0.0
 11
465.4983540982
 21
397.2414502465
 31
0.0
  0
LINE
  5
1AE
330
1F
100
AcDbEntity
  8
0
  6
Continuous
 62
     8
370
    18
100
AcDbLine
 10
457.5086512082
 20
402.3789709935
 30
0.0
 11
457.5086512082
 21
397.3111753273
 31
0.0
  0
SPLINE
  5
1AF
330
1F
100
AcDbEntity
  8
0
  6
Continuous
 62
     8
370
    18
100
AcDbSpline
210
0.0
220
0.0
230
1.0
 70
     8
 71
     3
 72
    14
 73
    10
 74
     0
 42
0.00000001
 43
0.00000001
 40
0.0
 40
0.0
 40
0.0
 40
0.0
 40
0.25
 40
0.25
 40
0.5
 40
0.5
 40
0.75
 40
0.75
 40
1.0
 40
1.0
 40
1.0
 40
1.0
 10
467.0046040981653
 20
402.4779919137114
 30
0.0
 10
466.9627161099975
 20
402.467187927672
 30
0.0
 10
466.8962800222888
 20
402.4565095829457
 30
0.0
 10
466.7154884983054
 20
402.4356646360376
 30
0.0
 10
466.6016944930354
 20
402.4256618021458
 30
0.0
 10
466.3383470897607
 20
402.4077851685797
 30
0.0
 10
466.1858626902815
 20
402.399752317599
 30
0.0
 10
465.8599650218954
 20
402.3869626352778
 30
0.0
 10
465.6826722030954
 20
402.3820247961669
 30
0.0
 10
465.4983540981652
 20
402.3789709935403
 30
0.0
  0
ARC
  5
1B0
330
1F
100
AcDbEntity
  8
0
  6
Continuous
 62
     8
370
    18
100
AcDbCircle
 10
466.1959024226
 20
402.4659054226
 30
0.0
 40
0.8087919901953775
100
AcDbArc
 50
0.8562531759
 51
87.9697824893
  0
LINE
  5
1B1
330
1F
100
AcDbEntity
  8
0
  6
Continuous
 62
     8
370
    18
100
AcDbLine
 10
467.0046040982
 20
402.4779919137
 30
0.0
 11
467.0046040982
 21
397.2283054018
 31
0.0
  0
SPLINE
  5
1B2
330
1F
100
AcDbEntity
  8
0
  6
Continuous
 62
     8
370
    18
100
AcDbSpline
210
0.0
220
0.0
230
1.0
 70
     8
 71
     3
 72
    14
 73
    10
 74
     0
 42
0.00000001
 43
0.00000001
 40
0.0
 40
0.0
 40
0.0
 40
0.0
 40
0.25
 40
0.25
 40
0.5
 40
0.5
 40
0.75
 40
0.75
 40
1.0
 40
1.0
 40
1.0
 40
1.0
 10
457.5086512081791
 20
402.3789709935403
 30
0.0
 10
457.3243605979051
 20
402.3820243406324
 30
0.0
 10
457.150297199235
 20
402.3868522625958
 30
0.0
 10
456.8221086032582
 20
402.3996971877899
 30
0.0
 10
456.670863168613
 20
402.4076582188962
 30
0.0
 10
456.4070586608909
 20
402.425520764831
 30
0.0
 10
456.2923686601826
 20
402.4355937843581
 30
0.0
 10
456.1122805975389
 20
402.4563032563789
 30
0.0
 10
456.0442827729808
 20
402.4671895844227
 30
0.0
 10
456.0024012081791
 20
402.4779919137114
 30
0.0
  0
ARC
  5
1B3
330
1F
100
AcDbEntity
  8
0
  6
Continuous
 62
     8
370
    18
100
AcDbCircle
 10
456.8111028838
 20
402.4659054226
 30
0.0
 40
0.8087919901953097
100
AcDbArc
 50
92.0302175107
 51
179.1437468241
  0
LINE
  5
1B4
330
1F
100
AcDbEntity
  8
0
  6
Continuous
 62
     8
370
    18
100
AcDbLine
 10
456.0024012082
 20
402.4779919137
 30
0.0
 11
456.0024012082
 21
397.3243201719
 31
0.0
  0
SPLINE
  5
1B5
330
1F
100
AcDbEntity
  8
0
  6
Continuous
 62
     8
370
    18
100
AcDbSpline
210
0.0
220
0.0
230
1.0
 70
     8
 71
     3
 72
     9
 73
     5
 74
     0
 42
0.00000001
 43
0.00000001
 40
0.0
 40
0.0
 40
0.0
 40
0.0
 40
0.6820981404618813
 40
1.0
 40
1.0
 40
1.0
 40
1.0
 10
456.0024012081791
 20
402.4779919137114
 30
0.0
 10
455.8192204314982
 20
402.5539494527526
 30
0.0
 10
455.5506655626095
 20
402.6653081188088
 30
0.0
 10
455.5949571399047
 20
402.6468979965153
 30
0.0
 10
455.6090375146887
 20
402.6410453844039
 30
0.0
  0
SPLINE
  5
1B6
330
1F
100
AcDbEntity
  8
0
  6
Continuous
 62
     8
370
    18
100
AcDbSpline
210
0.0
220
0.0
230
1.0
 70
     8
 71
     3
 72
     9
 73
     5
 74
     0
 42
0.00000001
 43
0.00000001
 40
0.0
 40
0.0
 40
0.0
 40
0.0
 40
0.3866543659573432
 40
1.0
 40
1.0
 40
1.0
 40
1.0
 10
467.3979678715286
 20
402.6410454178075
 30
0.0
 10
467.4083255686056
 20
402.645318005299
 30
0.0
 10
467.435113568403
 20
402.656368152065
 30
0.0
 10
467.1682708899628
 20
402.5458052109383
 30
0.0
 10
467.0046040981653
 20
402.4779919137114
 30
0.0
  0
ENDSEC
  0
SECTION
  2
OBJECTS
  0
DICTIONARY
  5
C
330
0
100
AcDbDictionary
281
     1
  3
ACAD_GROUP
350
D
  3
ACAD_LAYOUT
350
1A
  3
ACAD_MLINESTYLE
350
17
  3
ACAD_PLOTSETTINGS
350
19
  3
ACAD_PLOTSTYLENAME
350
E
  3
ACAD_SCALELIST
350
47
  3
DWGPROPS
350
1B7
  0
DICTIONARY
  5
D
102
{ACAD_REACTORS
330
C
102
}
330
C
100
AcDbDictionary
281
     1
  0
DICTIONARY
  5
1A
102
{ACAD_REACTORS
330
C
102
}
330
C
100
AcDbDictionary
281
     1
  3
Layout1
350
1E
  3
Layout2
350
26
  3
Model
350
22
  0
DICTIONARY
  5
17
102
{ACAD_REACTORS
330
C
102
}
330
C
100
AcDbDictionary
281
     1
  3
Standard
350
18
  0
DICTIONARY
  5
19
102
{ACAD_REACTORS
330
C
102
}
330
C
100
AcDbDictionary
281
     1
  0
ACDBDICTIONARYWDFLT
  5
E
102
{ACAD_REACTORS
330
C
102
}
330
C
100
AcDbDictionary
281
     1
  3
Normal
350
F
100
AcDbDictionaryWithDefault
340
F
  0
DICTIONARY
  5
47
102
{ACAD_REACTORS
330
C
102
}
330
C
100
AcDbDictionary
281
     1
  3
A0
350
48
  3
A1
350
49
  3
A2
350
4A
  3
A3
350
4B
  3
A4
350
4C
  3
A5
350
4D
  3
A6
350
4E
  3
A7
350
4F
  3
A8
350
50
  3
A9
350
51
  3
B0
350
52
  3
B1
350
53
  3
B2
350
54
  3
B3
350
55
  3
B4
350
56
  3
B5
350
57
  3
B6
350
58
  0
XRECORD
  5
1B7
102
{ACAD_REACTORS
330
C
102
}
330
C
100
AcDbXrecord
280
     1
  1
DWGPROPS COOKIE
  2

  3

  4

  6

  7

  8
fue-task
  9

300
=
301
=
302
=
303
=
304
=
305
=
306
=
307
=
308
=
309
=
 40
0.0
 41
2460336.321011273
 42
2460336.321012361
  1

 90
        0
  0
LAYOUT
  5
1E
102
{ACAD_REACTORS
330
1A
102
}
330
1A
100
AcDbPlotSettings
  1

  2
none_device
  4

  6

 40
0.0
 41
0.0
 42
0.0
 43
0.0
 44
0.0
 45
0.0
 46
0.0
 47
0.0
 48
0.0
 49
0.0
140
0.0
141
0.0
142
1.0
143
1.0
 70
   688
 72
     1
 73
     0
 74
     5
  7

 75
    16
147
1.0
148
0.0
149
0.0
100
AcDbLayout
  1
Layout1
 70
     1
 71
     1
 10
0.0
 20
0.0
 11
420.0
 21
297.0
 12
0.0
 22
0.0
 32
0.0
 14
1.0000000000E+20
 24
1.0000000000E+20
 34
1.0000000000E+20
 15
-1.0000000000E+20
 25
-1.0000000000E+20
 35
-1.0000000000E+20
146
0.0
 13
0.0
 23
0.0
 33
0.0
 16
1.0
 26
0.0
 36
0.0
 17
0.0
 27
1.0
 37
0.0
 76
     0
330
1B
  0
LAYOUT
  5
26
102
{ACAD_REACTORS
330
1A
102
}
330
1A
100
AcDbPlotSettings
  1

  2
none_device
  4

  6

 40
0.0
 41
0.0
 42
0.0
 43
0.0
 44
0.0
 45
0.0
 46
0.0
 47
0.0
 48
0.0
 49
0.0
140
0.0
141
0.0
142
1.0
143
1.0
 70
   688
 72
     1
 73
     0
 74
     5
  7

 75
    16
147
1.0
148
0.0
149
0.0
100
AcDbLayout
  1
Layout2
 70
     1
 71
     2
 10
0.0
 20
0.0
 11
0.0
 21
0.0
 12
0.0
 22
0.0
 32
0.0
 14
0.0
 24
0.0
 34
0.0
 15
0.0
 25
0.0
 35
0.0
146
0.0
 13
0.0
 23
0.0
 33
0.0
 16
1.0
 26
0.0
 36
0.0
 17
0.0
 27
1.0
 37
0.0
 76
     0
330
23
  0
LAYOUT
  5
22
102
{ACAD_REACTORS
330
1A
102
}
330
1A
100
AcDbPlotSettings
  1

  2
none_device
  4
Letter_(8.50_x_11.00_Inches)
  6

 40
6.35
 41
6.35
 42
6.35000508
 43
6.35000508
 44
215.9
 45
279.4
 46
0.0
 47
0.0
 48
0.0
 49
0.0
140
0.0
141
0.0
142
1.0
143
1.0
 70
  1712
 72
     1
 73
     0
 74
     0
  7

 75
     0
147
1.0
148
0.0
149
0.0
100
AcDbLayout
  1
Model
 70
     1
 71
     0
 10
0.0
 20
0.0
 11
594.0
 21
841.0
 12
0.0
 22
0.0
 32
0.0
 14
0.0
 24
0.0
 34
0.0
 15
594.0
 25
841.0
 35
0.0
146
0.0
 13
0.0
 23
0.0
 33
0.0
 16
1.0
 26
0.0
 36
0.0
 17
0.0
 27
1.0
 37
0.0
 76
     0
330
1F
331
29
  0
MLINESTYLE
  5
18
102
{ACAD_REACTORS
330
17
102
}
330
17
100
AcDbMlineStyle
  2
Standard
 70
     0
  3

 62
   256
 51
90.0
 52
90.0
 71
     2
 49
0.5
 62
   256
  6
BYLAYER
 49
-0.5
 62
   256
  6
BYLAYER
  0
ACDBPLACEHOLDER
  5
F
102
{ACAD_REACTORS
330
E
102
}
330
E
  0
SCALE
  5
48
102
{ACAD_REACTORS
330
47
102
}
330
47
100
AcDbScale
 70
     0
300
1:1
140
1.0
141
1.0
290
     1
  0
SCALE
  5
49
102
{ACAD_REACTORS
330
47
102
}
330
47
100
AcDbScale
 70
     0
300
1:2
140
1.0
141
2.0
290
     0
  0
SCALE
  5
4A
102
{ACAD_REACTORS
330
47
102
}
330
47
100
AcDbScale
 70
     0
300
1:4
140
1.0
141
4.0
290
     0
  0
SCALE
  5
4B
102
{ACAD_REACTORS
330
47
102
}
330
47
100
AcDbScale
 70
     0
300
1:5
140
1.0
141
5.0
290
     0
  0
SCALE
  5
4C
102
{ACAD_REACTORS
330
47
102
}
330
47
100
AcDbScale
 70
     0
300
1:8
140
1.0
141
8.0
290
     0
  0
SCALE
  5
4D
102
{ACAD_REACTORS
330
47
102
}
330
47
100
AcDbScale
 70
     0
300
1:10
140
1.0
141
10.0
290
     0
  0
SCALE
  5
4E
102
{ACAD_REACTORS
330
47
102
}
330
47
100
AcDbScale
 70
     0
300
1:16
140
1.0
141
16.0
290
     0
  0
SCALE
  5
4F
102
{ACAD_REACTORS
330
47
102
}
330
47
100
AcDbScale
 70
     0
300
1:20
140
1.0
141
20.0
290
     0
  0
SCALE
  5
50
102
{ACAD_REACTORS
330
47
102
}
330
47
100
AcDbScale
 70
     0
300
1:30
140
1.0
141
30.0
290
     0
  0
SCALE
  5
51
102
{ACAD_REACTORS
330
47
102
}
330
47
100
AcDbScale
 70
     0
300
1:40
140
1.0
141
40.0
290
     0
  0
SCALE
  5
52
102
{ACAD_REACTORS
330
47
102
}
330
47
100
AcDbScale
 70
     0
300
1:50
140
1.0
141
50.0
290
     0
  0
SCALE
  5
53
102
{ACAD_REACTORS
330
47
102
}
330
47
100
AcDbScale
 70
     0
300
1:100
140
1.0
141
100.0
290
     0
  0
SCALE
  5
54
102
{ACAD_REACTORS
330
47
102
}
330
47
100
AcDbScale
 70
     0
300
2:1
140
2.0
141
1.0
290
     0
  0
SCALE
  5
55
102
{ACAD_REACTORS
330
47
102
}
330
47
100
AcDbScale
 70
     0
300
4:1
140
4.0
141
1.0
290
     0
  0
SCALE
  5
56
102
{ACAD_REACTORS
330
47
102
}
330
47
100
AcDbScale
 70
     0
300
8:1
140
8.0
141
1.0
290
     0
  0
SCALE
  5
57
102
{ACAD_REACTORS
330
47
102
}
330
47
100
AcDbScale
 70
     0
300
10:1
140
10.0
141
1.0
290
     0
  0
SCALE
  5
58
102
{ACAD_REACTORS
330
47
102
}
330
47
100
AcDbScale
 70
     0
300
100:1
140
100.0
141
1.0
290
     0
  0
ENDSEC
  0
EOF
