  0
SECTION
  2
HEADER
  9
$ACADVER
  1
AC1024
  9
$ACADMAINTVER
 70
     6
  9
$DWGCODEPAGE
  3
ANSI_1252
  9
$INSBASE
 10
0.0
 20
0.0
 30
0.0
  9
$EXTMIN
 10
0.0
 20
0.0
 30
0.0
  9
$EXTMAX
 10
594.0
 20
841.0
 30
0.0
  9
$LIMMIN
 10
0.0
 20
0.0
  9
$LIMMAX
 10
594.0
 20
841.0
  9
$ORTHOMODE
 70
     0
  9
$REGENMODE
 70
     1
  9
$FILLMODE
 70
     1
  9
$QTEXTMODE
 70
     0
  9
$MIRRTEXT
 70
     1
  9
$LTSCALE
 40
1.0
  9
$ATTMODE
 70
     1
  9
$TEXTSIZE
 40
10.0
  9
$TRACEWID
 40
1.0
  9
$TEXTSTYLE
  7
Standard
  9
$CLAYER
  8
0
  9
$CELTYPE
  6
ByLayer
  9
$CECOLOR
 62
   256
  9
$CELTSCALE
 40
1.0
  9
$DISPSILH
 70
     0
  9
$DIMSCALE
 40
1.0
  9
$DIMASZ
 40
2.5
  9
$DIMEXO
 40
0.0
  9
$DIMDLI
 40
3.75
  9
$DIMRND
 40
0.0
  9
$DIMDLE
 40
0.0
  9
$DIMEXE
 40
1.0
  9
$DIMTP
 40
0.0
  9
$DIMTM
 40
0.0
  9
$DIMTXT
 40
3.5
  9
$DIMCEN
 40
2.5
  9
$DIMTSZ
 40
0.0
  9
$DIMTOL
 70
     0
  9
$DIMLIM
 70
     0
  9
$DIMTIH
 70
     1
  9
$DIMTOH
 70
     1
  9
$DIMSE1
 70
     0
  9
$DIMSE2
 70
     0
  9
$DIMTAD
 70
     1
  9
$DIMZIN
 70
     0
  9
$DIMBLK
  1

  9
$DIMASO
 70
     1
  9
$DIMSHO
 70
     1
  9
$DIMPOST
  1

  9
$DIMAPOST
  1

  9
$DIMALT
 70
     0
  9
$DIMALTD
 70
     3
  9
$DIMALTF
 40
0.0393700787
  9
$DIMLFAC
 40
1.0
  9
$DIMTOFL
 70
     1
  9
$DIMTVP
 40
0.0
  9
$DIMTIX
 70
     0
  9
$DIMSOXD
 70
     0
  9
$DIMSAH
 70
     0
  9
$DIMBLK1
  1

  9
$DIMBLK2
  1

  9
$DIMSTYLE
  2
ISO-25
  9
$DIMCLRD
 70
     0
  9
$DIMCLRE
 70
     0
  9
$DIMCLRT
 70
     0
  9
$DIMTFAC
 40
1.0
  9
$DIMGAP
 40
1.5
  9
$DIMJUST
 70
     0
  9
$DIMSD1
 70
     0
  9
$DIMSD2
 70
     0
  9
$DIMTOLJ
 70
     0
  9
$DIMTZIN
 70
     0
  9
$DIMALTZ
 70
     0
  9
$DIMALTTZ
 70
     0
  9
$DIMUPT
 70
     0
  9
$DIMDEC
 70
     2
  9
$DIMTDEC
 70
     2
  9
$DIMALTU
 70
     2
  9
$DIMALTTD
 70
     3
  9
$DIMTXSTY
  7
Standard
  9
$DIMAUNIT
 70
     0
  9
$DIMADEC
 70
     2
  9
$DIMALTRND
 40
0.0
  9
$DIMAZIN
 70
     0
  9
$DIMDSEP
 70
    44
  9
$DIMATFIT
 70
     3
  9
$DIMFRAC
 70
     0
  9
$DIMLDRBLK
  1

  9
$DIMLUNIT
 70
     2
  9
$DIMLWD
 70
    -2
  9
$DIMLWE
 70
    -2
  9
$DIMTMOVE
 70
     0
  9
$DIMFXL
 40
1.0
  9
$DIMFXLON
 70
     0
  9
$DIMJOGANG
 40
0.7853981634
  9
$DIMTFILL
 70
     0
  9
$DIMTFILLCLR
 70
     0
  9
$DIMARCSYM
 70
     0
  9
$DIMLTYPE
  6

  9
$DIMLTEX1
  6

  9
$DIMLTEX2
  6

  9
$DIMTXTDIRECTION
 70
     0
  9
$LUNITS
 70
     2
  9
$LUPREC
 70
     2
  9
$SKETCHINC
 40
1.0
  9
$FILLETRAD
 40
10.0
  9
$AUNITS
 70
     0
  9
$AUPREC
 70
     2
  9
$MENU
  1
.
  9
$ELEVATION
 40
0.0
  9
$PELEVATION
 40
0.0
  9
$THICKNESS
 40
0.0
  9
$LIMCHECK
 70
     0
  9
$CHAMFERA
 40
10.0
  9
$CHAMFERB
 40
10.0
  9
$CHAMFERC
 40
20.0
  9
$CHAMFERD
 40
0.0
  9
$SKPOLY
 70
     0
  9
$TDCREATE
 40
2456182.549770625
  9
$TDUCREATE
 40
2456182.466437292
  9
$TDUPDATE
 40
2456182.549770636
  9
$TDUUPDATE
 40
2456182.466437303
  9
$TDINDWG
 40
0.0000000116
  9
$TDUSRTIMER
 40
0.0000000116
  9
$USRTIMER
 70
     1
  9
$ANGBASE
 50
0.0
  9
$ANGDIR
 70
     0
  9
$PDMODE
 70
     0
  9
$PDSIZE
 40
-1.0
  9
$PLINEWID
 40
0.0
  9
$SPLFRAME
 70
     0
  9
$SPLINETYPE
 70
     6
  9
$SPLINESEGS
 70
     8
  9
$HANDSEED
  5
15E
  9
$SURFTAB1
 70
     6
  9
$SURFTAB2
 70
     6
  9
$SURFTYPE
 70
     6
  9
$SURFU
 70
     6
  9
$SURFV
 70
     6
  9
$UCSBASE
  2

  9
$UCSNAME
  2

  9
$UCSORG
 10
0.0
 20
0.0
 30
0.0
  9
$UCSXDIR
 10
1.0
 20
0.0
 30
0.0
  9
$UCSYDIR
 10
0.0
 20
1.0
 30
0.0
  9
$UCSORTHOREF
  2

  9
$UCSORTHOVIEW
 70
     0
  9
$UCSORGTOP
 10
0.0
 20
0.0
 30
0.0
  9
$UCSORGBOTTOM
 10
0.0
 20
0.0
 30
0.0
  9
$UCSORGLEFT
 10
0.0
 20
0.0
 30
0.0
  9
$UCSORGRIGHT
 10
0.0
 20
0.0
 30
0.0
  9
$UCSORGFRONT
 10
0.0
 20
0.0
 30
0.0
  9
$UCSORGBACK
 10
0.0
 20
0.0
 30
0.0
  9
$PUCSBASE
  2

  9
$PUCSNAME
  2

  9
$PUCSORG
 10
0.0
 20
0.0
 30
0.0
  9
$PUCSXDIR
 10
1.0
 20
0.0
 30
0.0
  9
$PUCSYDIR
 10
0.0
 20
1.0
 30
0.0
  9
$PUCSORTHOREF
  2

  9
$PUCSORTHOVIEW
 70
     0
  9
$PUCSORGTOP
 10
0.0
 20
0.0
 30
0.0
  9
$PUCSORGBOTTOM
 10
0.0
 20
0.0
 30
0.0
  9
$PUCSORGLEFT
 10
0.0
 20
0.0
 30
0.0
  9
$PUCSORGRIGHT
 10
0.0
 20
0.0
 30
0.0
  9
$PUCSORGFRONT
 10
0.0
 20
0.0
 30
0.0
  9
$PUCSORGBACK
 10
0.0
 20
0.0
 30
0.0
  9
$USERI1
 70
     0
  9
$USERI2
 70
     0
  9
$USERI3
 70
     0
  9
$USERI4
 70
     0
  9
$USERI5
 70
     0
  9
$USERR1
 40
0.0
  9
$USERR2
 40
0.0
  9
$USERR3
 40
0.0
  9
$USERR4
 40
0.0
  9
$USERR5
 40
0.0
  9
$WORLDVIEW
 70
     1
  9
$SHADEDGE
 70
     3
  9
$SHADEDIF
 70
    70
  9
$TILEMODE
 70
     1
  9
$MAXACTVP
 70
    64
  9
$PINSBASE
 10
0.0
 20
0.0
 30
0.0
  9
$PLIMCHECK
 70
     0
  9
$PEXTMIN
 10
1.0000000000E+20
 20
1.0000000000E+20
 30
1.0000000000E+20
  9
$PEXTMAX
 10
-1.0000000000E+20
 20
-1.0000000000E+20
 30
-1.0000000000E+20
  9
$PLIMMIN
 10
0.0
 20
0.0
  9
$PLIMMAX
 10
420.0
 20
297.0
  9
$UNITMODE
 70
     0
  9
$VISRETAIN
 70
     1
  9
$PLINEGEN
 70
     0
  9
$PSLTSCALE
 70
     1
  9
$TREEDEPTH
 70
  3020
  9
$CMLSTYLE
  2
Standard
  9
$CMLJUST
 70
     0
  9
$CMLSCALE
 40
20.0
  9
$PROXYGRAPHICS
 70
     1
  9
$MEASUREMENT
 70
     1
  9
$CELWEIGHT
370
    -1
  9
$ENDCAPS
280
     0
  9
$JOINSTYLE
280
     0
  9
$LWDISPLAY
290
     1
  9
$INSUNITS
 70
     4
  9
$HYPERLINKBASE
  1

  9
$STYLESHEET
  1

  9
$XEDIT
290
     1
  9
$CEPSNTYPE
380
     0
  9
$PSTYLEMODE
290
     1
  9
$FINGERPRINTGUID
  2
{7A54F07D-B2B4-4900-9F4A-BAC484528F61}
  9
$VERSIONGUID
  2
{FAEB1C32-E019-11D5-929B-00C0DF256EC4}
  9
$EXTNAMES
290
     1
  9
$PSVPSCALE
 40
0.0
  9
$OLESTARTUP
290
     0
  9
$SORTENTS
280
   127
  9
$INDEXCTL
280
     0
  9
$HIDETEXT
280
     1
  9
$XCLIPFRAME
280
     2
  9
$HALOGAP
280
     0
  9
$OBSCOLOR
 70
   257
  9
$OBSLTYPE
280
     0
  9
$INTERSECTIONDISPLAY
280
     0
  9
$INTERSECTIONCOLOR
 70
   257
  9
$DIMASSOC
280
     2
  9
$PROJECTNAME
  1

  9
$CAMERADISPLAY
290
     0
  9
$LENSLENGTH
 40
50.0
  9
$CAMERAHEIGHT
 40
0.0
  9
$STEPSPERSEC
 40
2.0
  9
$STEPSIZE
 40
6.0
  9
$3DDWFPREC
 40
2.0
  9
$PSOLWIDTH
 40
5.0
  9
$PSOLHEIGHT
 40
80.0
  9
$LOFTANG1
 40
1.5707963268
  9
$LOFTANG2
 40
1.5707963268
  9
$LOFTMAG1
 40
0.0
  9
$LOFTMAG2
 40
0.0
  9
$LOFTPARAM
 70
     7
  9
$LOFTNORMALS
280
     1
  9
$LATITUDE
 40
37.795
  9
$LONGITUDE
 40
-122.394
  9
$NORTHDIRECTION
 40
0.0
  9
$TIMEZONE
 70
 -8000
  9
$LIGHTGLYPHDISPLAY
280
     1
  9
$TILEMODELIGHTSYNCH
280
     1
  9
$SOLIDHIST
280
     1
  9
$SHOWHIST
280
     1
  9
$DWFFRAME
280
     2
  9
$DGNFRAME
280
     2
  9
$REALWORLDSCALE
290
     1
  9
$INTERFERECOLOR
 62
   256
  9
$CSHADOW
280
     0
  9
$SHADOWPLANELOCATION
 40
0.0
  0
ENDSEC
  0
SECTION
  2
CLASSES
  0
CLASS
  1
ACDBDICTIONARYWDFLT
  2
AcDbDictionaryWithDefault
  3
ObjectDBX Classes
 90
        0
 91
        4
280
     0
281
     0
  0
CLASS
  1
VISUALSTYLE
  2
AcDbVisualStyle
  3
ObjectDBX Classes
 90
     4095
 91
        4
280
     0
281
     0
  0
CLASS
  1
MATERIAL
  2
AcDbMaterial
  3
ObjectDBX Classes
 90
     1153
 91
        4
280
     0
281
     0
  0
ENDSEC
  0
SECTION
  2
TABLES
  0
TABLE
  2
VPORT
  5
8
330
0
100
AcDbSymbolTable
 70
     1
  0
VPORT
  5
29
330
8
100
AcDbSymbolTableRecord
100
AcDbViewportTableRecord
  2
*Active
 70
     0
 10
0.0
 20
0.0
 11
1.0
 21
1.0
 12
297.0
 22
420.5
 13
0.0
 23
0.0
 14
10.0
 24
10.0
 15
10.0
 25
10.0
 16
0.0
 26
0.0
 36
1.0
 17
0.0
 27
0.0
 37
0.0
 40
841.0
 41
0.7063020214
 42
50.0
 43
0.0
 44
0.0
 50
0.0
 51
0.0
 71
     0
 72
  2000
 73
     1
 74
     3
 75
     0
 76
     0
 77
     0
 78
     0
281
     0
 65
     1
110
0.0
120
0.0
130
0.0
111
1.0
121
0.0
131
0.0
112
0.0
122
1.0
132
0.0
 79
     0
146
0.0
 60
     3
 61
     5
292
     1
282
     1
141
0.0
142
0.0
 63
   250
  0
ENDTAB
  0
TABLE
  2
LTYPE
  5
5
330
0
100
AcDbSymbolTable
 70
     6
  0
LTYPE
  5
14
330
5
100
AcDbSymbolTableRecord
100
AcDbLinetypeTableRecord
  2
ByBlock
 70
     0
  3

 72
    65
 73
     0
 40
0.0
  0
LTYPE
  5
15
330
5
100
AcDbSymbolTableRecord
100
AcDbLinetypeTableRecord
  2
ByLayer
 70
     0
  3

 72
    65
 73
     0
 40
0.0
  0
LTYPE
  5
16
330
5
100
AcDbSymbolTableRecord
100
AcDbLinetypeTableRecord
  2
Continuous
 70
     0
  3
Solid line
 72
    65
 73
     0
 40
0.0
  0
LTYPE
  5
3F
330
5
100
AcDbSymbolTableRecord
100
AcDbLinetypeTableRecord
  2
HIDDEN
 70
     0
  3
Hidden __ __ __ __ __ __ __ __ __ __ __ __ __ __
 72
    65
 73
     2
 40
1.905
 49
1.27
 74
     0
 49
-0.635
 74
     0
  0
LTYPE
  5
40
330
5
100
AcDbSymbolTableRecord
100
AcDbLinetypeTableRecord
  2
PHANTOM
 70
     0
  3
Phantom ______  __  __  ______  __  __  ______
 72
    65
 73
     6
 40
12.7
 49
6.35
 74
     0
 49
-1.27
 74
     0
 49
1.27
 74
     0
 49
-1.27
 74
     0
 49
1.27
 74
     0
 49
-1.27
 74
     0
  0
LTYPE
  5
41
330
5
100
AcDbSymbolTableRecord
100
AcDbLinetypeTableRecord
  2
CENTER
 70
     0
  3
Center ____ _ ____ _ ____ _ ____ _ ____ _ ____
 72
    65
 73
     4
 40
10.16
 49
6.35
 74
     0
 49
-1.27
 74
     0
 49
1.27
 74
     0
 49
-1.27
 74
     0
  0
LTYPE
  5
42
330
5
100
AcDbSymbolTableRecord
100
AcDbLinetypeTableRecord
  2
CENTERX2
 70
     0
  3
Center (2x) ________  __  ________  __  _____
 72
    65
 73
     4
 40
20.32
 49
12.7
 74
     0
 49
-2.54
 74
     0
 49
2.54
 74
     0
 49
-2.54
 74
     0
  0
LTYPE
  5
43
330
5
100
AcDbSymbolTableRecord
100
AcDbLinetypeTableRecord
  2
DOT2
 70
     0
  3
Dot (.5x) ........................................
 72
    65
 73
     2
 40
0.635
 49
0.0
 74
     0
 49
-0.635
 74
     0
  0
ENDTAB
  0
TABLE
  2
LAYER
  5
2
330
0
100
AcDbSymbolTable
 70
     1
  0
LAYER
  5
10
330
2
100
AcDbSymbolTableRecord
100
AcDbLayerTableRecord
  2
0
 70
     0
 62
     7
  6
Continuous
370
    -3
390
F
347
3E
  0
ENDTAB
  0
TABLE
  2
STYLE
  5
3
330
0
100
AcDbSymbolTable
 70
     3
  0
STYLE
  5
11
330
3
100
AcDbSymbolTableRecord
100
AcDbTextStyleTableRecord
  2
Standard
 70
     0
 40
0.0
 41
1.0
 50
0.0
 71
     0
 42
2.5
  3
txt
  4

  0
STYLE
  5
47
330
3
100
AcDbSymbolTableRecord
100
AcDbTextStyleTableRecord
  2
SLDTEXTSTYLE0
 70
     0
 40
0.0
 41
0.96
 50
0.0
 71
     0
 42
0.2
  3
ISOCP3
  4

  0
STYLE
  5
5E
330
3
100
AcDbSymbolTableRecord
100
AcDbTextStyleTableRecord
  2
SLDTEXTSTYLE1
 70
     0
 40
0.0
 41
0.605
 50
0.0
 71
     0
 42
0.2
  3
TXT
  4

  0
ENDTAB
  0
TABLE
  2
VIEW
  5
6
330
0
100
AcDbSymbolTable
 70
     0
  0
ENDTAB
  0
TABLE
  2
UCS
  5
7
330
0
100
AcDbSymbolTable
 70
     0
  0
ENDTAB
  0
TABLE
  2
APPID
  5
9
330
0
100
AcDbSymbolTable
 70
     1
  0
APPID
  5
12
330
9
100
AcDbSymbolTableRecord
100
AcDbRegAppTableRecord
  2
ACAD
 70
     0
  0
ENDTAB
  0
TABLE
  2
DIMSTYLE
  5
A
330
0
100
AcDbSymbolTable
 70
     2
100
AcDbDimStyleTable
  0
DIMSTYLE
105
27
330
A
100
AcDbSymbolTableRecord
100
AcDbDimStyleTableRecord
  2
ISO-25
 70
     0
 41
2.5
 42
0.625
 43
3.75
 44
1.25
 73
     0
 74
     0
 77
     1
 78
     8
140
2.5
141
2.5
143
0.0393700787
147
0.625
171
     3
172
     1
178
     0
271
     2
272
     2
274
     3
278
    44
283
     0
284
     8
340
11
  0
DIMSTYLE
105
48
102
{ACAD_REACTORS
330
46
330
53
102
}
330
A
100
AcDbSymbolTableRecord
100
AcDbDimStyleTableRecord
  2
SLDDIMSTYLE0
 70
     0
 41
2.5
 44
0.0
 45
0.000000001
 73
     0
 74
     0
 77
     1
 78
    12
 79
     3
140
6.0
147
1.5
173
     1
178
     0
271
     2
272
     2
276
     2
284
    12
340
47
  0
ENDTAB
  0
TABLE
  2
BLOCK_RECORD
  5
1
330
0
100
AcDbSymbolTable
 70
     3
  0
BLOCK_RECORD
  5
1F
330
1
100
AcDbSymbolTableRecord
100
AcDbBlockTableRecord
  2
*Model_Space
340
22
 70
     0
280
     1
281
     0
  0
BLOCK_RECORD
  5
1B
330
1
100
AcDbSymbolTableRecord
100
AcDbBlockTableRecord
  2
*Paper_Space
340
1E
 70
     0
280
     1
281
     0
  0
BLOCK_RECORD
  5
23
330
1
100
AcDbSymbolTableRecord
100
AcDbBlockTableRecord
  2
*Paper_Space0
340
26
 70
     0
280
     1
281
     0
  0
BLOCK_RECORD
  5
49
330
1
100
AcDbSymbolTableRecord
100
AcDbBlockTableRecord
  2
*D1
340
0
 70
     0
280
     1
281
     0
  0
BLOCK_RECORD
  5
54
330
1
100
AcDbSymbolTableRecord
100
AcDbBlockTableRecord
  2
*D2
340
0
 70
     0
280
     1
281
     0
  0
ENDTAB
  0
ENDSEC
  0
SECTION
  2
BLOCKS
  0
BLOCK
  5
20
330
1F
100
AcDbEntity
  8
0
100
AcDbBlockBegin
  2
*Model_Space
 70
     0
 10
0.0
 20
0.0
 30
0.0
  3
*Model_Space
  1

  0
ENDBLK
  5
21
330
1F
100
AcDbEntity
  8
0
100
AcDbBlockEnd
  0
BLOCK
  5
1C
330
1B
100
AcDbEntity
 67
     1
  8
0
100
AcDbBlockBegin
  2
*Paper_Space
 70
     0
 10
0.0
 20
0.0
 30
0.0
  3
*Paper_Space
  1

  0
ENDBLK
  5
1D
330
1B
100
AcDbEntity
 67
     1
  8
0
100
AcDbBlockEnd
  0
BLOCK
  5
24
330
23
100
AcDbEntity
  8
0
100
AcDbBlockBegin
  2
*Paper_Space0
 70
     0
 10
0.0
 20
0.0
 30
0.0
  3
*Paper_Space0
  1

  0
ENDBLK
  5
25
330
23
100
AcDbEntity
  8
0
100
AcDbBlockEnd
  0
BLOCK
  5
4A
330
49
100
AcDbEntity
  8
0
100
AcDbBlockBegin
  2
*D1
 70
     1
 10
0.0
 20
0.0
 30
0.0
  3
*D1
  1

  0
SOLID
  5
4C
330
49
100
AcDbEntity
  8
0
  6
Continuous
 62
     7
370
     0
100
AcDbTrace
 10
42.7614395004
 20
152.0299240879
 30
0.0
 11
42.4614395004
 21
149.5299240879
 31
0.0
 12
43.0614395004
 22
149.5299240879
 32
0.0
 13
43.0614395004
 23
149.5299240879
 33
0.0
  0
SOLID
  5
4D
330
49
100
AcDbEntity
  8
0
  6
Continuous
 62
     7
370
     0
100
AcDbTrace
 10
42.7614395004
 20
52.0299240879
 30
0.0
 11
43.0614395004
 21
54.5299240879
 31
0.0
 12
42.4614395004
 22
54.5299240879
 32
0.0
 13
42.4614395004
 23
54.5299240879
 33
0.0
  0
LINE
  5
4E
330
49
100
AcDbEntity
  8
0
  6
Continuous
 62
     7
370
     0
100
AcDbLine
 10
56.6850079902
 20
152.0299240879
 30
0.0
 11
41.7614395004
 21
152.0299240879
 31
0.0
  0
LINE
  5
4F
330
49
100
AcDbEntity
  8
0
  6
Continuous
 62
     7
370
     0
100
AcDbLine
 10
56.6850079902
 20
52.0299240879
 30
0.0
 11
41.7614395004
 21
52.0299240879
 31
0.0
  0
LINE
  5
50
330
49
100
AcDbEntity
  8
0
  6
Continuous
 62
     7
370
     0
100
AcDbLine
 10
42.7614395004
 20
152.0299240879
 30
0.0
 11
42.7614395004
 21
52.0299240879
 31
0.0
  0
MTEXT
  5
51
330
49
100
AcDbEntity
  8
0
  6
Continuous
 62
     7
370
     0
100
AcDbMText
 10
35.0270332946
 20
91.6722208134
 30
0.1
 40
6.0
 41
0.0
 46
0.0
 71
     1
 72
     1
  1
100
  7
SLDTEXTSTYLE0
 11
-7.044195017643634E-15
 21
1.0
 31
0.0
 73
     1
 44
1.0
  0
MTEXT
  5
52
330
49
100
AcDbEntity
  8
0
  6
Continuous
 62
     7
370
     0
100
AcDbMText
 10
35.0270332946
 20
108.4388881795
 30
0.1
 40
6.0
 41
0.0
 46
0.0
 71
     1
 72
     1
  1
mm
  7
SLDTEXTSTYLE0
 11
-7.044195017643634E-15
 21
1.0
 31
0.0
 73
     1
 44
1.0
  0
ENDBLK
  5
4B
330
49
100
AcDbEntity
  8
0
100
AcDbBlockEnd
  0
BLOCK
  5
55
330
54
100
AcDbEntity
  8
0
100
AcDbBlockBegin
  2
*D2
 70
     1
 10
0.0
 20
0.0
 30
0.0
  3
*D2
  1

  0
SOLID
  5
57
330
54
100
AcDbEntity
  8
0
  6
Continuous
 62
     7
370
     0
100
AcDbTrace
 10
56.6850079902
 20
38.4602342313
 30
0.0
 11
59.1850079902
 21
38.1602342313
 31
0.0
 12
59.1850079902
 22
38.7602342313
 32
0.0
 13
59.1850079902
 23
38.7602342313
 33
0.0
  0
SOLID
  5
58
330
54
100
AcDbEntity
  8
0
  6
Continuous
 62
     7
370
     0
100
AcDbTrace
 10
156.6850079902
 20
38.4602342313
 30
0.0
 11
154.1850079902
 21
38.7602342313
 31
0.0
 12
154.1850079902
 22
38.1602342313
 32
0.0
 13
154.1850079902
 23
38.1602342313
 33
0.0
  0
LINE
  5
59
330
54
100
AcDbEntity
  8
0
  6
Continuous
 62
     7
370
     0
100
AcDbLine
 10
56.6850079902
 20
52.0299240879
 30
0.0
 11
56.6850079902
 21
37.4602342313
 31
0.0
  0
LINE
  5
5A
330
54
100
AcDbEntity
  8
0
  6
Continuous
 62
     7
370
     0
100
AcDbLine
 10
156.6850079902
 20
52.0299240879
 30
0.0
 11
156.6850079902
 21
37.4602342313
 31
0.0
  0
LINE
  5
5B
330
54
100
AcDbEntity
  8
0
  6
Continuous
 62
     7
370
     0
100
AcDbLine
 10
56.6850079902
 20
38.4602342313
 30
0.0
 11
156.6850079902
 21
38.4602342313
 31
0.0
  0
MTEXT
  5
5C
330
54
100
AcDbEntity
  8
0
  6
Continuous
 62
     7
370
     0
100
AcDbMText
 10
91.2668151533
 20
46.1946404371
 30
0.1
 40
6.0
 41
0.0
 46
0.0
 71
     1
 72
     1
  1
100
  7
SLDTEXTSTYLE0
 73
     1
 44
1.0
  0
MTEXT
  5
5D
330
54
100
AcDbEntity
  8
0
  6
Continuous
 62
     7
370
     0
100
AcDbMText
 10
108.0334825193
 20
46.1946404371
 30
0.1
 40
6.0
 41
0.0
 46
0.0
 71
     1
 72
     1
  1
mm
  7
SLDTEXTSTYLE0
 73
     1
 44
1.0
  0
ENDBLK
  5
56
330
54
100
AcDbEntity
  8
0
100
AcDbBlockEnd
  0
ENDSEC
  0
SECTION
  2
ENTITIES
  0
LINE
  5
44
330
1F
100
AcDbEntity
  8
0
  6
Continuous
 62
     7
370
     0
100
AcDbLine
 10
56.6850079902
 20
152.0299240879
 30
0.0
 11
56.6850079902
 21
52.0299240879
 31
0.0
  0
LINE
  5
45
330
1F
100
AcDbEntity
  8
0
  6
Continuous
 62
     7
370
     0
100
AcDbLine
 10
56.6850079902
 20
52.0299240879
 30
0.0
 11
156.6850079902
 21
52.0299240879
 31
0.0
  0
DIMENSION
  5
46
330
1F
100
AcDbEntity
  8
0
  6
Continuous
 62
     7
370
     0
100
AcDbDimension
280
     0
  2
*D1
 10
42.7614395004
 20
52.0299240879
 30
0.0
 11
42.7614395004
 21
105.4472211621
 31
0.0
 70
   160
  1
<>mm
 71
     2
 42
-1.0
 73
     0
 74
     0
 75
     0
  3
SLDDIMSTYLE0
100
AcDbAlignedDimension
 13
56.6850079902
 23
152.0299240879
 33
0.0
 14
56.6850079902
 24
52.0299240879
 34
0.0
 50
90.0
100
AcDbRotatedDimension
  0
DIMENSION
  5
53
330
1F
100
AcDbEntity
  8
0
  6
Continuous
 62
     7
370
     0
100
AcDbDimension
280
     0
  2
*D2
 10
156.6850079902
 20
38.4602342313
 30
0.0
 11
105.0418155019
 21
38.4602342313
 31
0.0
 70
   160
  1
<>mm
 71
     2
 42
-1.0
 73
     0
 74
     0
 75
     0
  3
SLDDIMSTYLE0
100
AcDbAlignedDimension
 13
56.6850079902
 23
52.0299240879
 33
0.0
 14
156.6850079902
 24
52.0299240879
 34
0.0
100
AcDbRotatedDimension
  0
MTEXT
  5
5F
330
1F
100
AcDbEntity
  8
0
  6
Continuous
 62
     7
370
     0
100
AcDbMText
 10
289.691094573
 20
46.3988733739
 30
0.0
 40
10.0
 41
0.0
 46
0.0
 71
     1
 72
     1
  1
53 023 05 75
  7
SLDTEXTSTYLE1
 73
     1
 44
1.0
  0
MTEXT
  5
60
330
1F
100
AcDbEntity
  8
0
  6
Continuous
 62
     7
370
     0
100
AcDbMText
 10
412.8252631579
 20
48.4342449499
 30
0.0
 40
10.0
 41
0.0
 46
0.0
 71
     1
 72
     1
  1
KLUDI GmbH & Co KG
  7
SLDTEXTSTYLE1
 73
     1
 44
1.0
  0
LINE
  5
61
330
1F
100
AcDbEntity
  8
0
  6
Continuous
 62
     7
370
    15
100
AcDbLine
 10
206.9840641829
 20
470.1723298432
 30
0.0
 11
206.9840641829
 21
470.5484053494
 31
0.0
  0
LINE
  5
62
330
1F
100
AcDbEntity
  8
0
  6
Continuous
 62
     7
370
    15
100
AcDbLine
 10
188.5288642856
 20
470.5491653086
 30
0.0
 11
188.5288642856
 21
470.1723298432
 31
0.0
  0
SPLINE
  5
63
330
1F
100
AcDbEntity
  8
0
  6
Continuous
 62
     7
370
    15
100
AcDbSpline
210
0.0
220
0.0
230
1.0
 70
     8
 71
     3
 72
    24
 73
    20
 74
     0
 42
0.00000001
 43
0.00000001
 40
0.0
 40
0.0
 40
0.0
 40
0.0
 40
0.0459741823755382
 40
0.0988640934712001
 40
0.1537331918263531
 40
0.2126269088834383
 40
0.279065279439146
 40
0.3167065372977036
 40
0.358410077124141
 40
0.4052005230614343
 40
0.458270085098802
 40
0.5189922664249268
 40
0.5679117251800201
 40
0.6221686761751912
 40
0.6824574901190477
 40
0.7495331418726705
 40
0.8242138836763833
 40
0.9073846546506866
 40
1.0
 40
1.0
 40
1.0
 40
1.0
 10
164.6596692639053
 20
487.7168303729229
 30
0.0
 10
164.8171971048289
 20
486.5682299949451
 30
0.0
 10
165.1559491257386
 20
484.0982494697477
 30
0.0
 10
165.7798618862857
 20
480.209630541684
 30
0.0
 10
166.5094136440986
 20
475.9706841855036
 30
0.0
 10
167.3233751300314
 20
471.3592826622198
 30
0.0
 10
168.02312115466
 20
467.1627931004767
 30
0.0
 10
168.5925209153516
 20
463.3897170552025
 30
0.0
 10
169.0445324250595
 20
460.1133971747009
 30
0.0
 10
169.5003949091766
 20
456.4231738636842
 30
0.0
 10
169.9561593096561
 20
452.2228557056247
 30
0.0
 10
170.355677373103
 20
447.9533564053506
 30
0.0
 10
170.7072229748715
 20
443.6424027147903
 30
0.0
 10
171.0164833479312
 20
439.3348007254285
 30
0.0
 10
171.3165233551456
 20
434.5406488134672
 30
0.0
 10
171.6049662162417
 20
429.1993076059339
 30
0.0
 10
171.8783033901564
 20
423.2449641864732
 30
0.0
 10
172.1366653201666
 20
416.6070715391634
 30
0.0
 10
172.2791237918555
 20
411.942581226017
 30
0.0
 10
172.3541800069272
 20
409.4850300253563
 30
0.0
  0
SPLINE
  5
64
330
1F
100
AcDbEntity
  8
0
  6
Continuous
 62
     7
370
    15
100
AcDbSpline
210
0.0
220
0.0
230
1.0
 70
     8
 71
     3
 72
    22
 73
    18
 74
     0
 42
0.00000001
 43
0.00000001
 40
0.0
 40
0.0
 40
0.0
 40
0.0
 40
0.099144375368534
 40
0.1883690066334774
 40
0.2686078287950742
 40
0.3407486369830112
 40
0.4056344302577914
 40
0.4640651085050239
 40
0.5256710962287392
 40
0.5805300183252124
 40
0.6297345338972566
 40
0.6743038954068311
 40
0.7465103754045987
 40
0.8116199682182155
 40
0.8740829026608338
 40
0.9377381456781844
 40
1.0
 40
1.0
 40
1.0
 40
1.0
 10
223.1587484615505
 20
409.4850300253563
 30
0.0
 10
223.2395789289744
 20
412.1205091763872
 30
0.0
 10
223.3931524907399
 20
417.1277785029386
 30
0.0
 10
223.6769899727813
 20
424.2575024139454
 30
0.0
 10
223.9815644380987
 20
430.6611031742887
 30
0.0
 10
224.3073823972968
 20
436.4089991301018
 30
0.0
 10
224.6506753276288
 20
441.5688584880007
 30
0.0
 10
225.0270203026181
 20
446.4385099966375
 30
0.0
 10
225.4392142027363
 20
451.0302031381537
 30
0.0
 10
225.8913875441594
 20
455.3634182386391
 30
0.0
 10
226.3540789123962
 20
459.2350313019448
 30
0.0
 10
226.9331654590788
 20
463.5396099519334
 30
0.0
 10
227.655571359891
 20
468.2276715665133
 30
0.0
 10
228.5373462652527
 20
473.337671358632
 30
0.0
 10
229.3942593113825
 20
478.1995725633236
 30
0.0
 10
230.1936780060782
 20
482.9699889167527
 30
0.0
 10
230.6335423662972
 20
486.1413852828468
 30
0.0
 10
230.8510407941997
 20
487.7095362545185
 30
0.0
  0
SPLINE
  5
65
330
1F
100
AcDbEntity
  8
0
  6
Continuous
 62
     7
370
    15
100
AcDbSpline
210
0.0
220
0.0
230
1.0
 70
     8
 71
     3
 72
     9
 73
     5
 74
     0
 42
0.00000001
 43
0.00000001
 40
0.0
 40
0.0
 40
0.0
 40
0.0
 40
0.3327221130986329
 40
1.0
 40
1.0
 40
1.0
 40
1.0
 10
164.7625953095615
 20
493.9430645109348
 30
0.0
 10
164.7510410547657
 20
493.6917467717236
 30
0.0
 10
164.7163146138683
 20
492.9364085200196
 30
0.0
 10
164.6902941665023
 20
492.3230695558081
 30
0.0
 10
164.6729312973678
 20
491.9138020278148
 30
0.0
  0
SPLINE
  5
66
330
1F
100
AcDbEntity
  8
0
  6
Continuous
 62
     7
370
    15
100
AcDbSpline
210
0.0
220
0.0
230
1.0
 70
     8
 71
     3
 72
     9
 73
     5
 74
     0
 42
0.00000001
 43
0.00000001
 40
0.0
 40
0.0
 40
0.0
 40
0.0
 40
0.6993229207318095
 40
1.0
 40
1.0
 40
1.0
 40
1.0
 10
230.84018529827
 20
491.9119542838268
 30
0.0
 10
230.8217529465129
 20
492.3415952549101
 30
0.0
 10
230.795395521051
 20
492.9559623210343
 30
0.0
 10
230.760831837199
 20
493.7145671079376
 30
0.0
 10
230.7504393296897
 20
493.9426621795826
 30
0.0
  0
SPLINE
  5
67
330
1F
100
AcDbEntity
  8
0
  6
Continuous
 62
     7
370
    15
100
AcDbSpline
210
0.0
220
0.0
230
1.0
 70
     8
 71
     3
 72
     9
 73
     5
 74
     0
 42
0.00000001
 43
0.00000001
 40
0.0
 40
0.0
 40
0.0
 40
0.0
 40
0.370180193155242
 40
1.0
 40
1.0
 40
1.0
 40
1.0
 10
205.9477629276574
 20
497.9996076227359
 30
0.0
 10
204.9416315055625
 20
498.0325465057958
 30
0.0
 10
202.2236810568388
 20
498.1215271797189
 30
0.0
 10
199.4830863938005
 20
498.1297705086225
 30
0.0
 10
197.757005592486
 20
498.1349623204403
 30
0.0
  0
SPLINE
  5
68
330
1F
100
AcDbEntity
  8
0
  6
Continuous
 62
     7
370
    15
100
AcDbSpline
210
0.0
220
0.0
230
1.0
 70
     8
 71
     3
 72
    16
 73
    12
 74
     0
 42
0.00000001
 43
0.00000001
 40
0.0
 40
0.0
 40
0.0
 40
0.0
 40
0.1693780355990235
 40
0.3121520888954228
 40
0.4296257298202172
 40
0.5220343024090046
 40
0.594916129243546
 40
0.6866791973378203
 40
0.8038107700350635
 40
0.9464932529955621
 40
1.0
 40
1.0
 40
1.0
 40
1.0
 10
229.7111392157733
 20
495.2907180787258
 30
0.0
 10
228.5716193106794
 20
495.5420808915363
 30
0.0
 10
226.4715623732201
 20
496.0053252951684
 30
0.0
 10
223.2903672247118
 20
496.5412046449321
 30
0.0
 10
220.5554878451798
 20
496.9229093951412
 30
0.0
 10
218.2855518954117
 20
497.1873979202536
 30
0.0
 10
216.1773621957854
 20
497.3986808835287
 30
0.0
 10
213.82383065386
 20
497.5996990983335
 30
0.0
 10
210.8318816065606
 20
497.7991667341088
 30
0.0
 10
208.129350756722
 20
497.9413155738716
 30
0.0
 10
206.4152501072847
 20
497.9871163605666
 30
0.0
 10
205.9477629276574
 20
497.9996076227359
 30
0.0
  0
SPLINE
  5
69
330
1F
100
AcDbEntity
  8
0
  6
Continuous
 62
     7
370
    15
100
AcDbSpline
210
0.0
220
0.0
230
1.0
 70
     8
 71
     3
 72
    16
 73
    12
 74
     0
 42
0.00000001
 43
0.00000001
 40
0.0
 40
0.0
 40
0.0
 40
0.0
 40
0.089537046417621
 40
0.1840625262813489
 40
0.2583254344733134
 40
0.3350212416183368
 40
0.4307284175833761
 40
0.5458119270667025
 40
0.6788185633181743
 40
0.8297550213502417
 40
1.0
 40
1.0
 40
1.0
 40
1.0
 10
188.7341762098133
 20
497.9760041834049
 30
0.0
 10
187.980318205244
 20
497.9480255232107
 30
0.0
 10
186.4306020337808
 20
497.8905094102346
 30
0.0
 10
184.2807259583558
 20
497.7711968542482
 30
0.0
 10
182.2570909122207
 20
497.6374258649987
 30
0.0
 10
180.2474963790002
 20
497.4799345584933
 30
0.0
 10
177.9430671505652
 20
497.2658166242957
 30
0.0
 10
175.2548171856697
 20
496.9634752813772
 30
0.0
 10
172.2531367788527
 20
496.5475633296768
 30
0.0
 10
169.0008102672923
 20
495.9973424191128
 30
0.0
 10
166.9100281376821
 20
495.5355141295474
 30
0.0
 10
165.8017911153495
 20
495.2907180787258
 30
0.0
  0
SPLINE
  5
6A
330
1F
100
AcDbEntity
  8
0
  6
Continuous
 62
     7
370
    15
100
AcDbSpline
210
0.0
220
0.0
230
1.0
 70
     8
 71
     3
 72
    10
 73
     6
 74
     0
 42
0.00000001
 43
0.00000001
 40
0.0
 40
0.0
 40
0.0
 40
0.0
 40
0.4911405920055908
 40
0.9096536847926584
 40
1.0
 40
1.0
 40
1.0
 40
1.0
 10
197.7558738916303
 20
498.1349623204403
 30
0.0
 10
196.2746200642254
 20
498.1278059910751
 30
0.0
 10
193.5311530730126
 20
498.1145515757763
 30
0.0
 10
190.5196366761262
 20
498.0496461189549
 30
0.0
 10
189.0033822067418
 20
497.9871076780212
 30
0.0
 10
188.7341762098133
 20
497.9760041834049
 30
0.0
  0
LINE
  5
6B
330
1F
100
AcDbEntity
  8
0
  6
Continuous
 62
     7
370
    15
100
AcDbLine
 10
164.8041583734
 20
494.4522148372
 30
0.0
 11
164.7720016676
 21
493.9421480895
 31
0.0
  0
SPLINE
  5
6C
330
1F
100
AcDbEntity
  8
0
  6
Continuous
 62
     7
370
    15
100
AcDbSpline
210
0.0
220
0.0
230
1.0
 70
     8
 71
     3
 72
     9
 73
     5
 74
     0
 42
0.00000001
 43
0.00000001
 40
0.0
 40
0.0
 40
0.0
 40
0.0
 40
0.4634589156792333
 40
1.0
 40
1.0
 40
1.0
 40
1.0
 10
230.7418190079391
 20
493.9427888394527
 30
0.0
 10
230.7381896600872
 20
494.0129347304992
 30
0.0
 10
230.7303586577499
 20
494.1642877170823
 30
0.0
 10
230.7175801852883
 20
494.3476060063608
 30
0.0
 10
230.7107240098178
 20
494.445963800066
 30
0.0
  0
SPLINE
  5
6D
330
1F
100
AcDbEntity
  8
0
  6
Continuous
 62
     7
370
    15
100
AcDbSpline
210
0.0
220
0.0
230
1.0
 70
     8
 71
     3
 72
    11
 73
     7
 74
     0
 42
0.00000001
 43
0.00000001
 40
0.0
 40
0.0
 40
0.0
 40
0.0
 40
0.2863964046594057
 40
0.5536198008742444
 40
0.7983680744076672
 40
1.0
 40
1.0
 40
1.0
 40
1.0
 10
165.8017017083824
 20
495.2906882764034
 30
0.0
 10
165.6529631392642
 20
495.241902755949
 30
0.0
 10
165.3654434089957
 20
495.1475976959689
 30
0.0
 10
165.052553612168
 20
494.9183624085186
 30
0.0
 10
164.8607175955334
 20
494.693753177471
 30
0.0
 10
164.827459016746
 20
494.5545358483724
 30
0.0
 10
164.8124359684646
 20
494.4916507602863
 30
0.0
  0
SPLINE
  5
6E
330
1F
100
AcDbEntity
  8
0
  6
Continuous
 62
     7
370
    15
100
AcDbSpline
210
0.0
220
0.0
230
1.0
 70
     8
 71
     3
 72
    11
 73
     7
 74
     0
 42
0.00000001
 43
0.00000001
 40
0.0
 40
0.0
 40
0.0
 40
0.0
 40
0.2013267041418238
 40
0.4464363299333839
 40
0.7146986608723216
 40
1.0
 40
1.0
 40
1.0
 40
1.0
 10
230.7003155487239
 20
494.4922319055729
 30
0.0
 10
230.6853282905435
 20
494.5549852926217
 30
0.0
 10
230.6520944651234
 20
494.6941391715092
 30
0.0
 10
230.4597232990275
 20
494.9189130648765
 30
0.0
 10
230.1471124334238
 20
495.1478329314577
 30
0.0
 10
229.8594719888884
 20
495.2421026031809
 30
0.0
 10
229.7112248974502
 20
495.2906882764034
 30
0.0
  0
LINE
  5
6F
330
1F
100
AcDbEntity
  8
0
  6
Continuous
 62
     7
370
    15
100
AcDbLine
 10
172.354751839
 20
409.4609832765
 30
0.0
 11
173.433404057
 21
371.9805009105
 31
0.0
  0
SPLINE
  5
70
330
1F
100
AcDbEntity
  8
0
  6
Continuous
 62
     7
370
    15
100
AcDbSpline
210
0.0
220
0.0
230
1.0
 70
     8
 71
     3
 72
    10
 73
     6
 74
     0
 42
0.00000001
 43
0.00000001
 40
0.0
 40
0.0
 40
0.0
 40
0.0
 40
0.2354841811517061
 40
0.9598627723668595
 40
1.0
 40
1.0
 40
1.0
 40
1.0
 10
164.9019546943366
 20
496.5074649454288
 30
0.0
 10
164.8955308186731
 20
496.4743159393431
 30
0.0
 10
164.8693463035451
 20
496.3391964730289
 30
0.0
 10
164.918169026816
 20
496.1856015885347
 30
0.0
 10
164.9788443434983
 20
496.1036754333108
 30
0.0
 10
164.9820298093021
 20
496.0993742943935
 30
0.0
  0
SPLINE
  5
71
330
1F
100
AcDbEntity
  8
0
  6
Continuous
 62
     7
370
    15
100
AcDbSpline
210
0.0
220
0.0
230
1.0
 70
     8
 71
     3
 72
    10
 73
     6
 74
     0
 42
0.00000001
 43
0.00000001
 40
0.0
 40
0.0
 40
0.0
 40
0.0
 40
0.2168419487789853
 40
0.9467117594525408
 40
1.0
 40
1.0
 40
1.0
 40
1.0
 10
230.523539348191
 20
496.1081510783367
 30
0.0
 10
230.5404844297474
 20
496.1313475545934
 30
0.0
 10
230.6144650781627
 20
496.2326212102389
 30
0.0
 10
230.6536085754776
 20
496.3955289420902
 30
0.0
 10
230.6232626538313
 20
496.5027404295115
 30
0.0
 10
230.6211978333652
 20
496.5100353957347
 30
0.0
  0
SPLINE
  5
72
330
1F
100
AcDbEntity
  8
0
  6
Continuous
 62
     7
370
    15
100
AcDbSpline
210
0.0
220
0.0
230
1.0
 70
     8
 71
     3
 72
    13
 73
     9
 74
     0
 42
0.00000001
 43
0.00000001
 40
0.0
 40
0.0
 40
0.0
 40
0.0
 40
0.1525240013446842
 40
0.3324066883557588
 40
0.5074763542625306
 40
0.6824910423866224
 40
0.8612026148335348
 40
1.0
 40
1.0
 40
1.0
 40
1.0
 10
230.6236826019943
 20
496.5173146129779
 30
0.0
 10
230.5858369593091
 20
497.0226943426931
 30
0.0
 10
230.5033571879764
 20
498.1241052736659
 30
0.0
 10
230.3302283012813
 20
500.0422448084144
 30
0.0
 10
230.1079165859982
 20
502.2120745846599
 30
0.0
 10
229.8294856877073
 20
504.5478479808443
 30
0.0
 10
229.5269091200443
 20
506.8452700824236
 30
0.0
 10
229.2742341378288
 20
508.4100002405527
 30
0.0
 10
229.16377858693
 20
509.0940138698749
 30
0.0
  0
SPLINE
  5
73
330
1F
100
AcDbEntity
  8
0
  6
Continuous
 62
     7
370
    15
100
AcDbSpline
210
0.0
220
0.0
230
1.0
 70
     8
 71
     3
 72
    13
 73
     9
 74
     0
 42
0.00000001
 43
0.00000001
 40
0.0
 40
0.0
 40
0.0
 40
0.0
 40
0.1246770466203909
 40
0.2969802460328895
 40
0.4791362866075702
 40
0.6571682418828575
 40
0.8318314261836156
 40
1.0
 40
1.0
 40
1.0
 40
1.0
 10
166.352660967654
 20
509.0946099163227
 30
0.0
 10
166.2519334021728
 20
508.4792324290006
 30
0.0
 10
166.0120007281981
 20
507.0134056185175
 30
0.0
 10
165.7112665590415
 20
504.7683789050888
 30
0.0
 10
165.4259729998387
 20
502.4027898914057
 30
0.0
 10
165.1978787637212
 20
500.1994848414593
 30
0.0
 10
165.0173599172438
 20
498.2198453145986
 30
0.0
 10
164.9303093441818
 20
497.0747877986661
 30
0.0
 10
164.8876086013973
 20
496.5131050349407
 30
0.0
  0
LINE
  5
74
330
1F
100
AcDbEntity
  8
0
  6
Continuous
 62
     7
370
    15
100
AcDbLine
 10
230.484628691
 20
496.0165163876
 30
0.0
 11
230.5314071613
 21
496.0971838237
 31
0.0
  0
LINE
  5
75
330
1F
100
AcDbEntity
  8
0
  6
Continuous
 62
     7
370
    15
100
AcDbLine
 10
164.9823650854
 20
496.0972061754
 30
0.0
 11
165.0274001198
 21
496.016508937
 31
0.0
  0
SPLINE
  5
76
330
1F
100
AcDbEntity
  8
0
  6
Continuous
 62
     7
370
    15
100
AcDbSpline
210
0.0
220
0.0
230
1.0
 70
     8
 71
     3
 72
     9
 73
     5
 74
     0
 42
0.00000001
 43
0.00000001
 40
0.0
 40
0.0
 40
0.0
 40
0.0
 40
0.5608378042511978
 40
1.0
 40
1.0
 40
1.0
 40
1.0
 10
165.072919442004
 20
495.9809026123218
 30
0.0
 10
165.1645933388105
 20
495.8154983480263
 30
0.0
 10
165.3280521786241
 20
495.5205748192596
 30
0.0
 10
165.5725147987283
 20
495.3284199117925
 30
0.0
 10
165.6798735397518
 20
495.2440327407054
 30
0.0
  0
LINE
  5
77
330
1F
100
AcDbEntity
  8
0
  6
Continuous
 62
     7
370
    15
100
AcDbLine
 10
230.3227685528
 20
495.7569456102
 30
0.0
 11
230.4532282191
 21
495.9972789885
 31
0.0
  0
SPLINE
  5
78
330
1F
100
AcDbEntity
  8
0
  6
Continuous
 62
     7
370
    15
100
AcDbSpline
210
0.0
220
0.0
230
1.0
 70
     8
 71
     3
 72
    26
 73
    22
 74
     0
 42
0.00000001
 43
0.00000001
 40
0.0
 40
0.0
 40
0.0
 40
0.0
 40
0.0578607155703324
 40
0.1307962833932236
 40
0.1996721406950583
 40
0.2615620776669159
 40
0.3168955038212246
 40
0.3649618527422341
 40
0.4085571973643818
 40
0.4492103399820742
 40
0.4928963492077176
 40
0.5352419907733953
 40
0.5755434966645245
 40
0.6171169692902538
 40
0.6615193195433081
 40
0.7098550774136364
 40
0.7636291295530636
 40
0.8264898807541932
 40
0.8990513006471266
 40
0.9836457622531334
 40
0.9999999999999999
 40
0.9999999999999999
 40
0.9999999999999999
 40
0.9999999999999999
 10
229.1632533209979
 20
509.0909889341525
 30
0.0
 10
229.0316105441014
 20
509.8766421027822
 30
0.0
 10
228.7340271875197
 20
511.6526400917451
 30
0.0
 10
228.1479865057115
 20
514.461168333032
 30
0.0
 10
227.4385560191206
 20
517.3613486011916
 30
0.0
 10
226.6101411857131
 20
520.0105235347075
 30
0.0
 10
225.6951292816381
 20
522.3254726071178
 30
0.0
 10
224.703894693909
 20
524.3262492834587
 30
0.0
 10
223.6308734653689
 20
526.0453913588963
 30
0.0
 10
222.405851244698
 20
527.5977545938692
 30
0.0
 10
221.0024177479997
 20
528.9884904568846
 30
0.0
 10
219.4214046263795
 20
530.1943399405873
 30
0.0
 10
217.7199620322314
 20
531.1824113787868
 30
0.0
 10
215.884170048964
 20
532.0002370771931
 30
0.0
 10
213.8497087390695
 20
532.6812224882558
 30
0.0
 10
211.5706811143731
 20
533.2368155790582
 30
0.0
 10
208.9639086248243
 20
533.6822290241455
 30
0.0
 10
205.9474509880652
 20
534.0226204307604
 30
0.0
 10
202.422470866706
 20
534.2249557236848
 30
0.0
 10
199.6383378119757
 20
534.3038508722973
 30
0.0
 10
198.0184820086743
 20
534.2903408546339
 30
0.0
 10
197.7560565679044
 20
534.2881521583728
 30
0.0
  0
ARC
  5
79
330
1F
100
AcDbEntity
  8
0
  6
Continuous
 62
     7
370
    15
100
AcDbCircle
 10
173.8344313377
 20
371.9922478556
 30
0.0
 40
0.4012000000000017
100
AcDbArc
 50
181.7307750988
 51
270.0
  0
SPLINE
  5
7A
330
1F
100
AcDbEntity
  8
0
  6
Continuous
 62
     7
370
    15
100
AcDbSpline
210
0.0
220
0.0
230
1.0
 70
     8
 71
     3
 72
    26
 73
    22
 74
     0
 42
0.00000001
 43
0.00000001
 40
0.0
 40
0.0
 40
0.0
 40
0.0
 40
0.0093948163896973
 40
0.1105719680647077
 40
0.1900279722896631
 40
0.2521527017927205
 40
0.3061922967917237
 40
0.3552060367709797
 40
0.3993884253966157
 40
0.4405690739094129
 40
0.4799426416158509
 40
0.5219202195270509
 40
0.5622554268681509
 40
0.6038043543993679
 40
0.6471475656806941
 40
0.6954299183095511
 40
0.7478330960123412
 40
0.8063683077677497
 40
0.8745552063643848
 40
0.9505977526608156
 40
1.0
 40
1.0
 40
1.0
 40
1.0
 10
197.7561118307636
 20
534.29186254751
 30
0.0
 10
197.6053603343606
 20
534.2933000336311
 30
0.0
 10
195.8310957873435
 20
534.3102184770435
 30
0.0
 10
192.7808800195505
 20
534.2278922082631
 30
0.0
 10
188.8947242452707
 20
533.9578796743369
 30
0.0
 10
185.7792711970438
 20
533.5788223617162
 30
0.0
 10
183.178240055024
 20
533.082932839408
 30
0.0
 10
180.9078253717466
 20
532.4548968182829
 30
0.0
 10
178.8998128320175
 20
531.7038772222319
 30
0.0
 10
177.1246406722509
 20
530.8224409497534
 30
0.0
 10
175.4961459130728
 20
529.7754823262836
 30
0.0
 10
174.0303771878348
 20
528.5512481820074
 30
0.0
 10
172.7171907411792
 20
527.1422625816773
 30
0.0
 10
171.5742008783962
 20
525.5872881354454
 30
0.0
 10
170.5410365641079
 20
523.8338907632232
 30
0.0
 10
169.6103050155861
 20
521.8566231815563
 30
0.0
 10
168.7740014507552
 20
519.6138526264302
 30
0.0
 10
168.0099923157068
 20
517.0625665886616
 30
0.0
 10
167.2971700272446
 20
514.1846500216933
 30
0.0
 10
166.7408110134955
 20
511.457723507847
 30
0.0
 10
166.4642714217204
 20
509.7643069545301
 30
0.0
 10
166.3553655284107
 20
509.0974113346271
 30
0.0
  0
LINE
  5
7B
330
1F
100
AcDbEntity
  8
0
  6
Continuous
 62
     7
370
    15
100
AcDbLine
 10
222.0795262742
 20
371.9805237279
 30
0.0
 11
223.1581915307
 21
409.461489916
 31
0.0
  0
ARC
  5
7C
330
1F
100
AcDbEntity
  8
0
  6
Continuous
 62
     7
370
    15
100
AcDbCircle
 10
221.6784970504
 20
371.9922478556
 30
0.0
 40
0.4011999999999792
100
AcDbArc
 50
270.0
 51
358.4928730473
  0
SPLINE
  5
7D
330
1F
100
AcDbEntity
  8
0
  6
Continuous
 62
     7
370
    15
100
AcDbSpline
210
0.0
220
0.0
230
1.0
 70
     8
 71
     3
 72
    26
 73
    22
 74
     0
 42
0.00000001
 43
0.00000001
 40
0.0
 40
0.0
 40
0.0
 40
0.0
 40
0.0537028374486753
 40
0.1077933179601833
 40
0.1604932198339493
 40
0.2135586603259717
 40
0.2677762893174946
 40
0.3223919600144511
 40
0.375132836978093
 40
0.4282402518067572
 40
0.4825033640395225
 40
0.537166343123031
 40
0.5898785330325484
 40
0.6429569961860061
 40
0.6971908906028037
 40
0.7518244433835315
 40
0.804515977011095
 40
0.857572776837223
 40
0.9117808575569688
 40
0.966386795609734
 40
1.0
 40
1.0
 40
1.0
 40
1.0
 10
197.7564533305498
 20
473.2689848543338
 30
0.0
 10
197.4969708339909
 20
473.2662514275302
 30
0.0
 10
196.9761328189903
 20
473.2607648432346
 30
0.0
 10
196.2062063669011
 20
473.224600912363
 30
0.0
 10
195.4503066997076
 20
473.1690689859425
 30
0.0
 10
194.7098455723496
 20
473.093176738799
 30
0.0
 10
193.9822309718247
 20
472.9973134750622
 30
0.0
 10
193.2833312182602
 20
472.8837467171338
 30
0.0
 10
192.620965317408
 20
472.7550676497655
 30
0.0
 10
191.9957936714722
 20
472.6126148844198
 30
0.0
 10
191.4042393645992
 20
472.4556514656205
 30
0.0
 10
190.8600684722889
 20
472.2877001531849
 30
0.0
 10
190.3687835954626
 20
472.1113508574272
 30
0.0
 10
189.9302018280676
 20
471.927210218136
 30
0.0
 10
189.542252370113
 20
471.733481874845
 30
0.0
 10
189.2145679878202
 20
471.5337362743569
 30
0.0
 10
188.9499268301199
 20
471.329919848555
 30
0.0
 10
188.7464979995586
 20
471.1219504208644
 30
0.0
 10
188.607610857367
 20
470.9072263710316
 30
0.0
 10
188.5347858021779
 20
470.7155054611367
 30
0.0
 10
188.5357979150664
 20
470.5950419073708
 30
0.0
 10
188.5361835497081
 20
470.5491429568462
 30
0.0
  0
SPLINE
  5
7E
330
1F
100
AcDbEntity
  8
0
  6
Continuous
 62
     7
370
    15
100
AcDbSpline
210
0.0
220
0.0
230
1.0
 70
     8
 71
     3
 72
    26
 73
    22
 74
     0
 42
0.00000001
 43
0.00000001
 40
0.0
 40
0.0
 40
0.0
 40
0.0
 40
0.0364272692346739
 40
0.0910208245382446
 40
0.1437343027159218
 40
0.1968128685955007
 40
0.2510439352876839
 40
0.3056738779223876
 40
0.3584155209088206
 40
0.411523637397895
 40
0.465789405847513
 40
0.5204554142596263
 40
0.5731412075906639
 40
0.6261924261838542
 40
0.6803954782827957
 40
0.7349959602908396
 40
0.7877288110994676
 40
0.8408274334817498
 40
0.8950807981038473
 40
0.9497334411464126
 40
1.0
 40
1.0
 40
1.0
 40
1.0
 10
206.9547107579768
 20
470.5486363173656
 30
0.0
 10
206.9636219236046
 20
470.5986552734705
 30
0.0
 10
206.9858882548472
 20
470.7236376485663
 30
0.0
 10
206.8975867471323
 20
470.9165729594233
 30
0.0
 10
206.7608491947107
 20
471.1292635121509
 30
0.0
 10
206.5548402458996
 20
471.3371846317542
 30
0.0
 10
206.2854009217399
 20
471.5427623403761
 30
0.0
 10
205.9543363512109
 20
471.7422356665608
 30
0.0
 10
205.5676907102379
 20
471.9339121308105
 30
0.0
 10
205.1274536900968
 20
472.1179438766614
 30
0.0
 10
204.6291949901584
 20
472.295670440384
 30
0.0
 10
204.0824945396471
 20
472.4629992835068
 30
0.0
 10
203.4952218093252
 20
472.6178818166323
 30
0.0
 10
202.8697630957499
 20
472.7598310706031
 30
0.0
 10
202.2003231588859
 20
472.889034419542
 30
0.0
 10
201.5000880348905
 20
473.0017001615411
 30
0.0
 10
200.7782421765405
 20
473.0959732343001
 30
0.0
 10
200.0368815912192
 20
473.1714344294035
 30
0.0
 10
199.2702678372844
 20
473.2268921958795
 30
0.0
 10
198.5062107112798
 20
473.2614561715743
 30
0.0
 10
197.9993088821639
 20
473.2665462222506
 30
0.0
 10
197.7564533307896
 20
473.2689848543338
 30
0.0
  0
LWPOLYLINE
  5
7F
330
1F
100
AcDbEntity
  8
0
  6
Continuous
 62
     7
370
    15
100
AcDbPolyline
 90
       37
 70
   128
 43
0.0
 10
206.9840641829
 20
470.1723298432
 10
206.843875921
 20
470.6408149005
 10
206.4275719362
 20
471.0950618983
 10
205.7478005203
 20
471.5212723614
 10
204.8252160797
 20
471.9064971806
 10
203.6878509584
 20
472.2390314938
 10
202.3702642086
 20
472.5087723137
 10
200.9124891969
 20
472.7075165511
 10
199.3588200907
 20
472.8292292358
 10
197.756464194
 20
472.8702148796
 10
196.1541082614
 20
472.8292292358
 10
194.6004390387
 20
472.7075165511
 10
193.1426642599
 20
472.5087723137
 10
191.8250770445
 20
472.2390314938
 10
190.6877123887
 20
471.9064971806
 10
189.7651279482
 20
471.5212723614
 10
189.0853565323
 20
471.0950618983
 10
188.6690525475
 20
470.6408149005
 10
188.5288642856
 20
470.1723298432
 10
188.6690525475
 20
469.7038447858
 10
189.0853565323
 20
469.249597788
 10
189.7651279482
 20
468.8233873249
 10
190.6877123887
 20
468.4381625057
 10
191.8250770445
 20
468.1056281925
 10
193.1426642599
 20
467.8358873726
 10
194.6004390387
 20
467.6371431352
 10
196.1541082614
 20
467.5154304506
 10
197.756464194
 20
467.4744373561
 10
199.3588200907
 20
467.5154304506
 10
200.9124891969
 20
467.6371431352
 10
202.3702642086
 20
467.8358873726
 10
203.6878509584
 20
468.1056281925
 10
204.8252160797
 20
468.4381625057
 10
205.7478005203
 20
468.8233873249
 10
206.4275719362
 20
469.249597788
 10
206.843875921
 20
469.7038447858
 10
206.9840641829
 20
470.1723298432
  0
SPLINE
  5
80
330
1F
100
AcDbEntity
  8
0
  6
Continuous
 62
     7
370
    15
100
AcDbSpline
210
0.0
220
0.0
230
1.0
 70
     8
 71
     3
 72
    36
 73
    32
 74
     0
 42
0.00000001
 43
0.00000001
 40
0.0
 40
0.0
 40
0.0
 40
0.0
 40
0.0624999999999987
 40
0.0624999999999987
 40
0.1249999999999974
 40
0.1249999999999974
 40
0.1874999999999962
 40
0.1874999999999962
 40
0.2187499999999963
 40
0.2187499999999963
 40
0.2499999999999964
 40
0.2499999999999964
 40
0.3124999999999968
 40
0.3124999999999968
 40
0.3749999999999971
 40
0.3749999999999971
 40
0.4374999999999974
 40
0.4374999999999974
 40
0.4999999999999978
 40
0.4999999999999978
 40
0.6249999999999974
 40
0.6249999999999974
 40
0.7499999999999971
 40
0.7499999999999971
 40
0.8124999999999978
 40
0.8124999999999978
 40
0.8749999999999986
 40
0.8749999999999986
 40
0.9374999999999992
 40
0.9374999999999992
 40
1.0
 40
1.0
 40
1.0
 40
1.0
 10
197.7564416816109
 20
471.2119711670487
 30
0.0
 10
197.5005057450053
 20
471.2163358829705
 30
0.0
 10
197.2412660649067
 20
471.213999637546
 30
0.0
 10
196.7357795945463
 20
471.1958867183458
 30
0.0
 10
196.4869837697585
 20
471.1802025326039
 30
0.0
 10
195.9982142290503
 20
471.1340217864863
 30
0.0
 10
195.7609581417894
 20
471.1035783307622
 30
0.0
 10
195.429590157045
 20
471.0475655070865
 30
0.0
 10
195.3226175582451
 20
471.027103450698
 30
0.0
 10
195.1161129709505
 20
470.9823534767492
 30
0.0
 10
195.0163300987148
 20
470.9579531000902
 30
0.0
 10
194.7367958233645
 20
470.8807902412183
 30
0.0
 10
194.5738680535258
 20
470.8235617891596
 30
0.0
 10
194.2952481411733
 20
470.6974382335846
 30
0.0
 10
194.1817309023676
 20
470.6290847923271
 30
0.0
 10
194.0111264521274
 20
470.4881489192204
 30
0.0
 10
193.9521157237405
 20
470.4140114227581
 30
0.0
 10
193.8862409604073
 20
470.2652609750175
 30
0.0
 10
193.878498682326
 20
470.1904500824049
 30
0.0
 10
193.923544335857
 20
469.9648368502274
 30
0.0
 10
194.0424677817601
 20
469.8178403061592
 30
0.0
 10
194.4330231014561
 20
469.5393080984024
 30
0.0
 10
194.6980408238944
 20
469.4114940019188
 30
0.0
 10
195.2109148691327
 20
469.2419967465202
 30
0.0
 10
195.3971486994674
 20
469.1907896268911
 30
0.0
 10
195.8034230079089
 20
469.1000869467751
 30
0.0
 10
196.0264468131008
 20
469.0602892702657
 30
0.0
 10
196.4920892009098
 20
468.997978217073
 30
0.0
 10
196.7369448951871
 20
468.9749289710206
 30
0.0
 10
197.2457427188157
 20
468.9476350492424
 30
0.0
 10
197.500779654927
 20
468.9437868122075
 30
0.0
 10
197.7564328237626
 20
468.9494026258695
 30
0.0
  0
SPLINE
  5
81
330
1F
100
AcDbEntity
  8
0
  6
Continuous
 62
     7
370
    15
100
AcDbSpline
210
0.0
220
0.0
230
1.0
 70
     8
 71
     3
 72
    38
 73
    34
 74
     0
 42
0.00000001
 43
0.00000001
 40
0.0
 40
0.0
 40
0.0
 40
0.0
 40
0.0625000000000001
 40
0.0625000000000001
 40
0.1250000000000001
 40
0.1250000000000001
 40
0.1875000000000001
 40
0.1875000000000001
 40
0.2500000000000001
 40
0.2500000000000001
 40
0.3125000000000001
 40
0.3125000000000001
 40
0.3750000000000002
 40
0.3750000000000002
 40
0.4375000000000002
 40
0.4375000000000002
 40
0.5000000000000002
 40
0.5000000000000002
 40
0.5625000000000002
 40
0.5625000000000002
 40
0.6250000000000001
 40
0.6250000000000001
 40
0.6875000000000001
 40
0.6875000000000001
 40
0.7500000000000001
 40
0.7500000000000001
 40
0.8125000000000001
 40
0.8125000000000001
 40
0.875
 40
0.875
 40
0.9375
 40
0.9375
 40
1.0
 40
1.0
 40
1.0
 40
1.0
 10
197.7564335234154
 20
468.9494039888805
 30
0.0
 10
198.0136848882364
 20
468.9437515161452
 30
0.0
 10
198.2681037665354
 20
468.9477319552042
 30
0.0
 10
198.771371930285
 20
468.9746342814897
 30
0.0
 10
199.019878133213
 20
468.9978874543548
 30
0.0
 10
199.4847260100001
 20
469.0600167226304
 30
0.0
 10
199.7069374494187
 20
469.0995720787519
 30
0.0
 10
200.1147194482718
 20
469.190495006079
 30
0.0
 10
200.3011621412704
 20
469.2417537161619
 30
0.0
 10
200.6429052008756
 20
469.3546182574599
 30
0.0
 10
200.7948196460712
 20
469.4151631100738
 30
0.0
 10
201.0623306217559
 20
469.5424654467811
 30
0.0
 10
201.1791116707788
 20
469.6099407390918
 30
0.0
 10
201.3734477467351
 20
469.7487733630179
 30
0.0
 10
201.4508856999085
 20
469.8197650412451
 30
0.0
 10
201.5662124614587
 20
469.964906234531
 30
0.0
 10
201.6042113001569
 20
470.0397276572771
 30
0.0
 10
201.6343705173783
 20
470.1895309280321
 30
0.0
 10
201.6268781703884
 20
470.2640475634967
 30
0.0
 10
201.5619417750977
 20
470.4122288302399
 30
0.0
 10
201.5032858723029
 20
470.4865431549067
 30
0.0
 10
201.3335643015703
 20
470.62750095717
 30
0.0
 10
201.2223090836679
 20
470.6950032808119
 30
0.0
 10
200.9427574315012
 20
470.8222178727472
 30
0.0
 10
200.7797157112041
 20
470.8796006491554
 30
0.0
 10
200.4088236605482
 20
470.9823781791955
 30
0.0
 10
200.1989397445837
 20
471.0278842881072
 30
0.0
 10
199.7564420025821
 20
471.1029599322366
 30
0.0
 10
199.5199576871548
 20
471.1334229825619
 30
0.0
 10
199.0301399257847
 20
471.179907548152
 30
0.0
 10
198.7801773226375
 20
471.1957557760485
 30
0.0
 10
198.2710868217832
 20
471.2140425735862
 30
0.0
 10
198.0114299189981
 20
471.2163197273422
 30
0.0
 10
197.7564419855357
 20
471.2119704043126
 30
0.0
  0
SPLINE
  5
82
330
1F
100
AcDbEntity
  8
0
  6
Continuous
 62
     7
370
    15
100
AcDbSpline
210
0.0
220
0.0
230
1.0
 70
     8
 71
     3
 72
    17
 73
    13
 74
     0
 42
0.00000001
 43
0.00000001
 40
0.0
 40
0.0
 40
0.0
 40
0.0
 40
0.0000027351736847
 40
0.1026472406179788
 40
0.2053313895125908
 40
0.3081608662028556
 40
0.4110533894119486
 40
0.5122779777176847
 40
0.6135950153879692
 40
0.7152368457046829
 40
0.8170101750962344
 40
1.0
 40
1.0
 40
1.0
 40
1.0
 10
164.7609114783466
 20
486.6125127674274
 30
0.0
 10
164.7609114783516
 20
486.6125127673944
 30
0.0
 10
164.7609116673047
 20
486.6125115273513
 30
0.0
 10
164.7183569963867
 20
486.8917349109343
 30
0.0
 10
164.6945364979583
 20
487.1426237021346
 30
0.0
 10
164.666495465809
 20
487.5018108624916
 30
0.0
 10
164.6470869169965
 20
487.9008679421937
 30
0.0
 10
164.6334746811372
 20
488.3649057477691
 30
0.0
 10
164.6271184704605
 20
488.893240475218
 30
0.0
 10
164.6290771451025
 20
489.4993186139016
 30
0.0
 10
164.640552105264
 20
490.3557867459469
 30
0.0
 10
164.6681452361937
 20
491.1456630046445
 30
0.0
 10
164.685876681155
 20
491.6532403231792
 30
0.0
  0
LWPOLYLINE
  5
83
330
1F
100
AcDbEntity
  8
0
  6
Continuous
 62
     7
370
    15
100
AcDbPolyline
 90
       12
 70
   128
 43
0.0
 10
230.8270834523
 20
491.6548272968
 10
230.8432661133
 20
491.2394946815
 10
230.863844617
 20
490.5619463326
 10
230.8767601984
 20
489.9603492023
 10
230.8800757068
 20
488.4755378963
 10
230.8702111381
 20
488.0633568765
 10
230.8554887908
 20
487.6982635261
 10
230.8352530139
 20
487.3620635272
 10
230.7977616924
 20
486.9476994873
 10
230.7520151275
 20
486.6125127674
 10
230.7520151275
 20
486.6125127674
 10
230.7520151275
 20
486.6125127674
  0
LINE
  5
84
330
1F
100
AcDbEntity
  8
0
  6
Continuous
 62
     7
370
    15
100
AcDbLine
 10
197.756464194
 20
371.5910478869
 30
0.0
 11
173.8344315576
 21
371.5910478869
 31
0.0
  0
LINE
  5
85
330
1F
100
AcDbEntity
  8
0
  6
Continuous
 62
     7
370
    15
100
AcDbLine
 10
220.8107445526
 20
371.5910478869
 30
0.0
 11
197.756464194
 21
371.5910478869
 31
0.0
  0
LINE
  5
86
330
1F
100
AcDbEntity
  8
0
  6
Continuous
 62
     7
370
    15
100
AcDbLine
 10
221.6784969109
 20
371.5910478869
 30
0.0
 11
220.8107445526
 21
371.5910478869
 31
0.0
  0
SPLINE
  5
87
330
1F
100
AcDbEntity
  8
0
  6
Continuous
 62
     8
370
     0
100
AcDbSpline
210
0.0
220
0.0
230
1.0
 70
     8
 71
     3
 72
    30
 73
    26
 74
     0
 42
0.00000001
 43
0.00000001
 40
0.0
 40
0.0
 40
0.0
 40
0.0
 40
0.124999999999999
 40
0.124999999999999
 40
0.2499999999999979
 40
0.2499999999999979
 40
0.3124999999999979
 40
0.3124999999999979
 40
0.3749999999999979
 40
0.3749999999999979
 40
0.4999999999999979
 40
0.4999999999999979
 40
0.562499999999998
 40
0.562499999999998
 40
0.6249999999999982
 40
0.6249999999999982
 40
0.6874999999999986
 40
0.6874999999999986
 40
0.7499999999999989
 40
0.7499999999999989
 40
0.8749999999999994
 40
0.8749999999999994
 40
0.9374999999999998
 40
0.9374999999999998
 40
1.0
 40
1.0
 40
1.0
 40
1.0
 10
169.5394215597043
 20
487.4735089301317
 30
0.0
 10
169.788149690718
 20
487.4745019247366
 30
0.0
 10
170.0729688548466
 20
487.4752138812935
 30
0.0
 10
170.7670573572234
 20
487.4760543349786
 30
0.0
 10
171.176128591579
 20
487.4765590036547
 30
0.0
 10
171.9513966849755
 20
487.4776568346485
 30
0.0
 10
172.23690628472
 20
487.4780567137524
 30
0.0
 10
172.8863438248401
 20
487.4799402385646
 30
0.0
 10
173.2501174879669
 20
487.4814244406444
 30
0.0
 10
174.5163050547619
 20
487.4870747779715
 30
0.0
 10
175.5533130212028
 20
487.4929027467961
 30
0.0
 10
177.5662180570649
 20
487.5076936356061
 30
0.0
 10
178.3115484023104
 20
487.5136631530626
 30
0.0
 10
179.8721606532652
 20
487.5249832018509
 30
0.0
 10
180.6908423474756
 20
487.5301810211541
 30
0.0
 10
182.3870650522254
 20
487.5400376992492
 30
0.0
 10
183.2682355494002
 20
487.5450304143477
 30
0.0
 10
185.0390778320498
 20
487.5529973077566
 30
0.0
 10
185.9332491761553
 20
487.5560069350888
 30
0.0
 10
188.6332726074933
 20
487.5626926475812
 30
0.0
 10
190.458682863937
 20
487.5650757631587
 30
0.0
 10
193.193549483646
 20
487.5655683267938
 30
0.0
 10
194.10569826343
 20
487.5651712641701
 30
0.0
 10
195.9305994933358
 20
487.5634039813077
 30
0.0
 10
196.8433451539996
 20
487.5621464839057
 30
0.0
 10
197.7563402602508
 20
487.5613713076406
 30
0.0
  0
SPLINE
  5
88
330
1F
100
AcDbEntity
  8
0
  6
Continuous
 62
     8
370
     0
100
AcDbSpline
210
0.0
220
0.0
230
1.0
 70
     8
 71
     3
 72
    32
 73
    28
 74
     0
 42
0.00000001
 43
0.00000001
 40
0.0
 40
0.0
 40
0.0
 40
0.0
 40
0.0625000000000002
 40
0.0625000000000002
 40
0.1250000000000003
 40
0.1250000000000003
 40
0.2500000000000006
 40
0.2500000000000006
 40
0.3125000000000007
 40
0.3125000000000007
 40
0.3750000000000007
 40
0.3750000000000007
 40
0.4375000000000007
 40
0.4375000000000007
 40
0.5000000000000008
 40
0.5000000000000008
 40
0.6250000000000018
 40
0.6250000000000018
 40
0.6562500000000016
 40
0.6562500000000016
 40
0.6875000000000014
 40
0.6875000000000014
 40
0.7500000000000011
 40
0.7500000000000011
 40
0.8750000000000006
 40
0.8750000000000006
 40
1.0
 40
1.0
 40
1.0
 40
1.0
 10
197.7564641952625
 20
485.1974292270292
 30
0.0
 10
196.8155615881671
 20
485.2004858774927
 30
0.0
 10
195.8748999620915
 20
485.2030719029451
 30
0.0
 10
193.994184144159
 20
485.2051704308334
 30
0.0
 10
193.0541333657107
 20
485.2049567583873
 30
0.0
 10
190.2355584721545
 20
485.2031342337999
 30
0.0
 10
188.3547602675202
 20
485.199290518115
 30
0.0
 10
185.5732201690875
 20
485.1896427794447
 30
0.0
 10
184.6520643707278
 20
485.1858847428427
 30
0.0
 10
182.8275959862703
 20
485.1809806253026
 30
0.0
 10
181.9212071373556
 20
485.1796171695927
 30
0.0
 10
180.1766674874011
 20
485.1839082003353
 30
0.0
 10
179.3340491505161
 20
485.1895140978341
 30
0.0
 10
177.7244775944424
 20
485.2138039675394
 30
0.0
 10
176.9546185949838
 20
485.2332223567535
 30
0.0
 10
174.8677164028841
 20
485.3111987804677
 30
0.0
 10
173.7841586325965
 20
485.381761565664
 30
0.0
 10
172.685726403973
 20
485.4603727423884
 30
0.0
 10
172.4804365314635
 20
485.4755688155246
 30
0.0
 10
172.0970531820637
 20
485.5043593976334
 30
0.0
 10
171.9183573566477
 20
485.5180307996517
 30
0.0
 10
171.4143382511475
 20
485.5568274165404
 30
0.0
 10
171.1206805574642
 20
485.5796704542529
 30
0.0
 10
170.3264191231061
 20
485.6392703822578
 30
0.0
 10
169.9110498275725
 20
485.6690165383927
 30
0.0
 10
169.2064744858169
 20
485.7112134285665
 30
0.0
 10
168.9171652075855
 20
485.7238680259627
 30
0.0
 10
168.6626813183007
 20
485.7315542695804
 30
0.0
  0
SPLINE
  5
89
330
1F
100
AcDbEntity
  8
0
  6
Continuous
 62
     8
370
     0
100
AcDbSpline
210
0.0
220
0.0
230
1.0
 70
     8
 71
     3
 72
    36
 73
    32
 74
     0
 42
0.00000001
 43
0.00000001
 40
0.0
 40
0.0
 40
0.0
 40
0.0
 40
0.1249999999999999
 40
0.1249999999999999
 40
0.2499999999999998
 40
0.2499999999999998
 40
0.3124999999999997
 40
0.3124999999999997
 40
0.3437499999999997
 40
0.3437499999999997
 40
0.3749999999999997
 40
0.3749999999999997
 40
0.4374999999999997
 40
0.4374999999999997
 40
0.4999999999999998
 40
0.4999999999999998
 40
0.5624999999999998
 40
0.5624999999999998
 40
0.5937499999999999
 40
0.5937499999999999
 40
0.6249999999999999
 40
0.6249999999999999
 40
0.7499999999999999
 40
0.7499999999999999
 40
0.8124999999999999
 40
0.8124999999999999
 40
0.875
 40
0.875
 40
0.9375
 40
0.9375
 40
1.0
 40
1.0
 40
1.0
 40
1.0
 10
226.8504428245226
 20
485.7315601812533
 30
0.0
 10
226.5955827015422
 20
485.7238645495486
 30
0.0
 10
226.3066504184364
 20
485.7112227180911
 30
0.0
 10
225.6022008397761
 20
485.669038317607
 30
0.0
 10
225.1864569355348
 20
485.6392786480255
 30
0.0
 10
224.3869412691794
 20
485.5792661020971
 30
0.0
 10
224.0907246947264
 20
485.5562135373922
 30
0.0
 10
223.5799289482111
 20
485.5169081857558
 30
0.0
 10
223.3981038775248
 20
485.5030084936271
 30
0.0
 10
223.0115797839216
 20
485.4740164670296
 30
0.0
 10
222.8065034071916
 20
485.4588612294503
 30
0.0
 10
222.1503705533779
 20
485.4119987807134
 30
0.0
 10
221.6586931386815
 20
485.378886555618
 30
0.0
 10
220.5336264130255
 20
485.3142700041076
 30
0.0
 10
219.8954912993112
 20
485.2827312090311
 30
0.0
 10
218.4967456407178
 20
485.2314151157312
 30
0.0
 10
217.7437304312896
 20
485.2128919013252
 30
0.0
 10
216.5415277952895
 20
485.1951148397227
 30
0.0
 10
216.1287391443824
 20
485.1907745083088
 30
0.0
 10
215.280884061586
 20
485.1845342301831
 30
0.0
 10
214.8464786686723
 20
485.1826331083905
 30
0.0
 10
212.6611984265163
 20
485.1776333494763
 30
0.0
 10
210.8414041445238
 20
485.1865304441405
 30
0.0
 10
208.0574042679214
 20
485.1961637679993
 30
0.0
 10
207.123303897659
 20
485.1989601354304
 30
0.0
 10
205.2555148397052
 20
485.2028499269118
 30
0.0
 10
204.3200870472153
 20
485.2037577788082
 30
0.0
 10
202.4471470687934
 20
485.2049596637407
 30
0.0
 10
201.5096559456279
 20
485.2051662330271
 30
0.0
 10
199.6334717079982
 20
485.2030608320862
 30
0.0
 10
198.6949036843135
 20
485.2004778757255
 30
0.0
 10
197.7564641928398
 20
485.1974292270289
 30
0.0
  0
SPLINE
  5
8A
330
1F
100
AcDbEntity
  8
0
  6
Continuous
 62
     8
370
     0
100
AcDbSpline
210
0.0
220
0.0
230
1.0
 70
     8
 71
     3
 72
    36
 73
    32
 74
     0
 42
0.00000001
 43
0.00000001
 40
0.0
 40
0.0
 40
0.0
 40
0.0
 40
0.0624999999999999
 40
0.0624999999999999
 40
0.1249999999999998
 40
0.1249999999999998
 40
0.1874999999999998
 40
0.1874999999999998
 40
0.2499999999999997
 40
0.2499999999999997
 40
0.3749999999999995
 40
0.3749999999999995
 40
0.4062499999999996
 40
0.4062499999999996
 40
0.4374999999999996
 40
0.4374999999999996
 40
0.4999999999999991
 40
0.4999999999999991
 40
0.5624999999999984
 40
0.5624999999999984
 40
0.624999999999998
 40
0.624999999999998
 40
0.6562499999999977
 40
0.6562499999999977
 40
0.6874999999999974
 40
0.6874999999999974
 40
0.7499999999999979
 40
0.7499999999999979
 40
0.8749999999999989
 40
0.8749999999999989
 40
1.0
 40
1.0
 40
1.0
 40
1.0
 10
197.7565881278385
 20
487.5613713076406
 30
0.0
 10
198.6672987662833
 20
487.5621445442839
 30
0.0
 10
199.5781200546224
 20
487.5633980159974
 30
0.0
 10
201.3988807286222
 20
487.5651650547564
 30
0.0
 10
202.3086764858047
 20
487.5655650633919
 30
0.0
 10
204.1262372303022
 20
487.5652480164338
 30
0.0
 10
205.0339800493765
 20
487.5645546884899
 30
0.0
 10
206.8464693582634
 20
487.5620924908003
 30
0.0
 10
207.7522654586543
 20
487.5605179691801
 30
0.0
 10
210.456769679298
 20
487.5538624178412
 30
0.0
 10
212.2250026049432
 20
487.545270999581
 30
0.0
 10
214.3462280006251
 20
487.5329465812881
 30
0.0
 10
214.7674000547498
 20
487.5304493844082
 30
0.0
 10
215.5923950811998
 20
487.5251693284866
 30
0.0
 10
215.9936951628787
 20
487.5224138736439
 30
0.0
 10
217.1609115245305
 20
487.5139740560924
 30
0.0
 10
217.8897738345936
 20
487.5081373667643
 30
0.0
 10
219.2388588536416
 20
487.4981754767085
 30
0.0
 10
219.8515589178458
 20
487.4941393336414
 30
0.0
 10
220.9303436671234
 20
487.4876982389449
 30
0.0
 10
221.4016072618036
 20
487.4852762753707
 30
0.0
 10
222.0316736319328
 20
487.4824518116951
 30
0.0
 10
222.2287810392207
 20
487.4816288537161
 30
0.0
 10
222.601034049762
 20
487.4801376647807
 30
0.0
 10
222.7762731686029
 20
487.4795107495312
 30
0.0
 10
223.2693924917135
 20
487.4780670910881
 30
0.0
 10
223.557187041005
 20
487.4776630805226
 30
0.0
 10
224.3371205695024
 20
487.4765583638072
 30
0.0
 10
224.7464448420472
 20
487.4760537632296
 30
0.0
 10
225.4401867154584
 20
487.4752134829984
 30
0.0
 10
225.7246096509621
 20
487.4745028369177
 30
0.0
 10
225.9737027928067
 20
487.4735081476917
 30
0.0
  0
SPLINE
  5
8B
330
1F
100
AcDbEntity
  8
0
  6
Continuous
 62
     8
370
     0
100
AcDbSpline
210
0.0
220
0.0
230
1.0
 70
     8
 71
     3
 72
    18
 73
    14
 74
     0
 42
0.00000001
 43
0.00000001
 40
0.0
 40
0.0
 40
0.0
 40
0.0
 40
0.25
 40
0.25
 40
0.375
 40
0.375
 40
0.5
 40
0.5
 40
0.625
 40
0.625
 40
0.75
 40
0.75
 40
1.0
 40
1.0
 40
1.0
 40
1.0
 10
229.8529032369078
 20
488.2609869635043
 30
0.0
 10
229.8945465800211
 20
488.475739863252
 30
0.0
 10
229.9322743805695
 20
488.7458288296314
 30
0.0
 10
229.979887255458
 20
489.2680810809662
 30
0.0
 10
229.9942088830054
 20
489.4618785892279
 30
0.0
 10
230.0192683878029
 20
489.8959780458305
 30
0.0
 10
230.0300002844504
 20
490.1365686317742
 30
0.0
 10
230.0468779713633
 20
490.6699666953239
 30
0.0
 10
230.0530507784456
 20
490.9628472630151
 30
0.0
 10
230.059857767984
 20
491.6074570282226
 30
0.0
 10
230.0604788725789
 20
491.9597194884705
 30
0.0
 10
230.0496421112346
 20
493.1110093076783
 30
0.0
 10
230.0258012177463
 20
494.0017772540694
 30
0.0
 10
229.9775369233655
 20
495.0517345703153
 30
0.0
  0
SPLINE
  5
8C
330
1F
100
AcDbEntity
  8
0
  6
Continuous
 62
     8
370
     0
100
AcDbSpline
210
0.0
220
0.0
230
1.0
 70
     8
 71
     3
 72
    26
 73
    22
 74
     0
 42
0.00000001
 43
0.00000001
 40
0.0
 40
0.0
 40
0.0
 40
0.0
 40
0.125
 40
0.125
 40
0.2499999999999999
 40
0.2499999999999999
 40
0.3749999999999999
 40
0.3749999999999999
 40
0.5000000000000002
 40
0.5000000000000002
 40
0.6250000000000002
 40
0.6250000000000002
 40
0.6875000000000002
 40
0.6875000000000002
 40
0.7500000000000001
 40
0.7500000000000001
 40
0.8750000000000001
 40
0.8750000000000001
 40
0.9375
 40
0.9375
 40
1.0
 40
1.0
 40
1.0
 40
1.0
 10
225.9737027928067
 20
487.4735081476917
 30
0.0
 10
226.3826983962924
 20
487.4718749292209
 30
0.0
 10
226.6970863956453
 20
487.4696144242778
 30
0.0
 10
227.2400796471722
 20
487.4662037892009
 30
0.0
 10
227.4670710741258
 20
487.4648765160466
 30
0.0
 10
227.8877034697595
 20
487.4629302287174
 30
0.0
 10
228.0779871229271
 20
487.4639295154674
 30
0.0
 10
228.4217938380821
 20
487.4638460994736
 30
0.0
 10
228.5730476497796
 20
487.4622112798238
 30
0.0
 10
228.8452876819661
 20
487.457103461942
 30
0.0
 10
228.9674206856168
 20
487.452962081881
 30
0.0
 10
229.1369947603456
 20
487.4526083694342
 30
0.0
 10
229.1915062795291
 20
487.4531087284242
 30
0.0
 10
229.2952773997439
 20
487.4575108274269
 30
0.0
 10
229.344622445789
 20
487.4621326551996
 30
0.0
 10
229.4861757091687
 20
487.498184744511
 30
0.0
 10
229.572205747563
 20
487.5514034458963
 30
0.0
 10
229.6872229383657
 20
487.729447029663
 30
0.0
 10
229.7231803044874
 20
487.8052056837077
 30
0.0
 10
229.79145873506
 20
487.9987486070228
 30
0.0
 10
229.8250420205968
 20
488.1159672807929
 30
0.0
 10
229.8531783702036
 20
488.2608555266257
 30
0.0
  0
SPLINE
  5
8D
330
1F
100
AcDbEntity
  8
0
  6
Continuous
 62
     8
370
     0
100
AcDbSpline
210
0.0
220
0.0
230
1.0
 70
     8
 71
     3
 72
    30
 73
    26
 74
     0
 42
0.00000001
 43
0.00000001
 40
0.0
 40
0.0
 40
0.0
 40
0.0
 40
0.0196986090039848
 40
0.0393073571344901
 40
0.0588309173985938
 40
0.0782740884673263
 40
0.0976417838580507
 40
0.1169390096207724
 40
0.136170838361279
 40
0.1553423878552911
 40
0.1744588110823866
 40
0.1935252858179472
 40
0.212546999038344
 40
0.2315291346409839
 40
0.2504768628480628
 40
0.375156834121544
 40
0.5022283117110127
 40
0.6238238317074353
 40
0.7506822316870838
 40
0.7908737009363579
 40
0.8315838460346295
 40
0.8728321280206512
 40
0.9146374419916607
 40
0.9570194079685731
 40
0.9999999999999999
 40
0.9999999999999999
 40
0.9999999999999999
 40
0.9999999999999999
 10
229.9764558848985
 20
495.0800047445588
 30
0.0
 10
229.8046349582783
 20
495.1215162258716
 30
0.0
 10
229.4617769156383
 20
495.2043498219298
 30
0.0
 10
228.9399061800663
 20
495.325600276865
 30
0.0
 10
228.4139845684476
 20
495.4442143403772
 30
0.0
 10
227.883365231911
 20
495.5599632685928
 30
0.0
 10
227.348198348662
 20
495.6728680171747
 30
0.0
 10
226.8084318731697
 20
495.7829006485204
 30
0.0
 10
226.264077136403
 20
495.890063227855
 30
0.0
 10
225.7151357806268
 20
495.9943631437629
 30
0.0
 10
225.1616141657892
 20
496.0958097866895
 30
0.0
 10
224.6035186771078
 20
496.1944156837224
 30
0.0
 10
224.0408636830836
 20
496.2902008895073
 30
0.0
 10
223.473651223276
 20
496.3831874115961
 30
0.0
 10
221.8383242576706
 20
496.6412687483655
 30
0.0
 10
219.016012191751
 20
497.0234742509142
 30
0.0
 10
214.9424642354524
 20
497.4316730447682
 30
0.0
 10
210.7199027735018
 20
497.7311294337676
 30
0.0
 10
207.4135420382137
 20
497.8836297702252
 30
0.0
 10
205.0192086803058
 20
497.9606581514151
 30
0.0
 10
203.6078969083423
 20
497.9969700717563
 30
0.0
 10
202.1752538788227
 20
498.0251053572198
 30
0.0
 10
200.721295256912
 20
498.0449773712799
 30
0.0
 10
199.2460026768702
 20
498.0573619208197
 30
0.0
 10
198.2553225653603
 20
498.0585552922529
 30
0.0
 10
197.7565088149301
 20
498.0591561623757
 30
0.0
  0
SPLINE
  5
8E
330
1F
100
AcDbEntity
  8
0
  6
Continuous
 62
     8
370
     0
100
AcDbSpline
210
0.0
220
0.0
230
1.0
 70
     8
 71
     3
 72
     8
 73
     4
 74
     0
 42
0.00000001
 43
0.00000001
 40
0.0
 40
0.0
 40
0.0
 40
0.0
 40
1.0
 40
1.0
 40
1.0
 40
1.0
 10
229.9777627755669
 20
495.0516154581197
 30
0.0
 10
229.9773297216945
 20
495.0610664740826
 30
0.0
 10
229.9768940895868
 20
495.0705295655933
 30
0.0
 10
229.9764558848972
 20
495.0800047445607
 30
0.0
  0
SPLINE
  5
8F
330
1F
100
AcDbEntity
  8
0
  6
Continuous
 62
     8
370
     0
100
AcDbSpline
210
0.0
220
0.0
230
1.0
 70
     8
 71
     3
 72
    26
 73
    22
 74
     0
 42
0.00000001
 43
0.00000001
 40
0.0
 40
0.0
 40
0.0
 40
0.0
 40
0.0625000000000001
 40
0.0625000000000001
 40
0.1250000000000002
 40
0.1250000000000002
 40
0.2500000000000003
 40
0.2500000000000003
 40
0.3125000000000003
 40
0.3125000000000003
 40
0.3750000000000004
 40
0.3750000000000004
 40
0.5000000000000004
 40
0.5000000000000004
 40
0.6250000000000006
 40
0.6250000000000006
 40
0.7500000000000004
 40
0.7500000000000004
 40
0.8750000000000002
 40
0.8750000000000002
 40
1.0
 40
1.0
 40
1.0
 40
1.0
 10
165.6597531430707
 20
488.2608394337456
 30
0.0
 10
165.6879462820954
 20
488.115663681216
 30
0.0
 10
165.721586861971
 20
487.9983331740436
 30
0.0
 10
165.7899572952473
 20
487.8046962388408
 30
0.0
 10
165.8259546182896
 20
487.728963701953
 30
0.0
 10
165.9410692873383
 20
487.5510631674954
 30
0.0
 10
166.0271271651159
 20
487.4980076656112
 30
0.0
 10
166.1686713959144
 20
487.4620806685837
 30
0.0
 10
166.2180059504126
 20
487.4574852841121
 30
0.0
 10
166.3217439696269
 20
487.453105628766
 30
0.0
 10
166.3762299454696
 20
487.4526062456933
 30
0.0
 10
166.5457291611485
 20
487.4529680472749
 30
0.0
 10
166.6678124312698
 20
487.457107569195
 30
0.0
 10
166.9399455807576
 20
487.4622116103259
 30
0.0
 10
167.0911430970948
 20
487.4638458087169
 30
0.0
 10
167.4348413567826
 20
487.4639297839797
 30
0.0
 10
167.6250734567132
 20
487.4629300345042
 30
0.0
 10
168.0456333337146
 20
487.4648749735233
 30
0.0
 10
168.2725925835927
 20
487.4662023982508
 30
0.0
 10
168.8156242133533
 20
487.4696128385411
 30
0.0
 10
169.1300628624634
 20
487.4718746518693
 30
0.0
 10
169.5394215597042
 20
487.4735089301317
 30
0.0
  0
SPLINE
  5
90
330
1F
100
AcDbEntity
  8
0
  6
Continuous
 62
     8
370
     0
100
AcDbSpline
210
0.0
220
0.0
230
1.0
 70
     8
 71
     3
 72
    16
 73
    12
 74
     0
 42
0.00000001
 43
0.00000001
 40
0.0
 40
0.0
 40
0.0
 40
0.0
 40
0.2500000000000001
 40
0.2500000000000001
 40
0.3750000000000002
 40
0.3750000000000002
 40
0.5000000000000002
 40
0.5000000000000002
 40
0.7500000000000001
 40
0.7500000000000001
 40
1.0
 40
1.0
 40
1.0
 40
1.0
 10
165.5353834764132
 20
495.0515607956148
 30
0.0
 10
165.4871050287871
 20
494.0013636559501
 30
0.0
 10
165.4633045666826
 20
493.1112916699462
 30
0.0
 10
165.4524564648993
 20
491.9612863060129
 30
0.0
 10
165.4530646012163
 20
491.6086814592431
 30
0.0
 10
165.4598612188752
 20
490.9637471387497
 30
0.0
 10
165.4660281108909
 20
490.6709800605462
 30
0.0
 10
165.4912925902772
 20
489.8716048913076
 30
0.0
 10
165.5170794332119
 20
489.4433514304386
 30
0.0
 10
165.5806209790085
 20
488.7460005298158
 30
0.0
 10
165.6183753533225
 20
488.4757729890271
 30
0.0
 10
165.6600282723616
 20
488.2609708677207
 30
0.0
  0
SPLINE
  5
91
330
1F
100
AcDbEntity
  8
0
  6
Continuous
 62
     8
370
     0
100
AcDbSpline
210
0.0
220
0.0
230
1.0
 70
     8
 71
     3
 72
     8
 73
     4
 74
     0
 42
0.00000001
 43
0.00000001
 40
0.0
 40
0.0
 40
0.0
 40
0.0
 40
1.0
 40
1.0
 40
1.0
 40
1.0
 10
165.536472503192
 20
495.080004744559
 30
0.0
 10
165.5360316386152
 20
495.0704720515841
 30
0.0
 10
165.5355933521163
 20
495.0609510347545
 30
0.0
 10
165.5351576503833
 20
495.0514416865293
 30
0.0
  0
SPLINE
  5
92
330
1F
100
AcDbEntity
  8
0
  6
Continuous
 62
     8
370
     0
100
AcDbSpline
210
0.0
220
0.0
230
1.0
 70
     8
 71
     3
 72
    29
 73
    25
 74
     0
 42
0.00000001
 43
0.00000001
 40
0.0
 40
0.0
 40
0.0
 40
0.0
 40
0.023573094546787
 40
0.0469640538389568
 40
0.0701767161447904
 40
0.0932147322955053
 40
0.1160815345148636
 40
0.1387803210963461
 40
0.1613141285732127
 40
0.1836860471607871
 40
0.2058992181749156
 40
0.2279568337189891
 40
0.2498621489624932
 40
0.3773509265695483
 40
0.4995375044063968
 40
0.6261489128930344
 40
0.7504084887516069
 40
0.7854986140758657
 40
0.8207230229021386
 40
0.8561145622946347
 40
0.8917059990068599
 40
0.9275297440035455
 40
0.9636175437829502
 40
1.0
 40
1.0
 40
1.0
 40
1.0
 10
197.7564195731591
 20
498.0591561623758
 30
0.0
 10
197.4828464271521
 20
498.059029371341
 30
0.0
 10
196.9378138718179
 20
498.05877676891
 30
0.0
 10
196.1234739369828
 20
498.0551825145164
 30
0.0
 10
195.3155365735139
 20
498.0492955327451
 30
0.0
 10
194.513979568543
 20
498.0409238320367
 30
0.0
 10
193.7187920714634
 20
498.0301490726552
 30
0.0
 10
192.9299726210269
 20
498.0169557476393
 30
0.0
 10
192.1475277655586
 20
498.0013288280236
 30
0.0
 10
191.3714665747161
 20
497.98325082876
 30
0.0
 10
190.6018033882482
 20
497.9627006683754
 30
0.0
 10
189.8385401791535
 20
497.9396582357308
 30
0.0
 10
187.8641404639571
 20
497.8729424371938
 30
0.0
 10
184.7534091590932
 20
497.7290201409917
 30
0.0
 10
180.5234529350802
 20
497.4276951427145
 30
0.0
 10
176.454960868979
 20
497.0183983561736
 30
0.0
 10
173.475120941651
 20
496.6138570979738
 30
0.0
 10
171.5271119979948
 20
496.3008053639464
 30
0.0
 10
170.488313277631
 20
496.1218290830769
 30
0.0
 10
169.4652255102705
 20
495.933115156215
 30
0.0
 10
168.4577142618187
 20
495.7346391912204
 30
0.0
 10
167.4663810181212
 20
495.526183163864
 30
0.0
 10
166.4890719210632
 20
495.3084628945832
 30
0.0
 10
165.8548651817786
 20
495.1563636011429
 30
0.0
 10
165.5364725031918
 20
495.080004744559
 30
0.0
  0
SPLINE
  5
93
330
1F
100
AcDbEntity
  8
0
  6
Continuous
 62
     8
370
     0
100
AcDbSpline
210
0.0
220
0.0
230
1.0
 70
     8
 71
     3
 72
    26
 73
    22
 74
     0
 42
0.00000001
 43
0.00000001
 40
0.0
 40
0.0
 40
0.0
 40
0.0
 40
0.1250000000000001
 40
0.1250000000000001
 40
0.2500000000000002
 40
0.2500000000000002
 40
0.3750000000000003
 40
0.3750000000000003
 40
0.5000000000000004
 40
0.5000000000000004
 40
0.6250000000000006
 40
0.6250000000000006
 40
0.6875000000000007
 40
0.6875000000000007
 40
0.7500000000000007
 40
0.7500000000000007
 40
0.8750000000000004
 40
0.8750000000000004
 40
0.9375000000000002
 40
0.9375000000000002
 40
1.0
 40
1.0
 40
1.0
 40
1.0
 10
168.6626813183007
 20
485.7315542695805
 30
0.0
 10
168.2553929857517
 20
485.7438557058537
 30
0.0
 10
167.9365160385242
 20
485.7448452601103
 30
0.0
 10
167.3844355411348
 20
485.7454933043639
 30
0.0
 10
167.1522723367993
 20
485.7428159049018
 30
0.0
 10
166.7242157070778
 20
485.7393450438593
 30
0.0
 10
166.5322183039145
 20
485.7401196470613
 30
0.0
 10
166.1868236771364
 20
485.7399442187404
 30
0.0
 10
166.032690779897
 20
485.737170298481
 30
0.0
 10
165.7535921278217
 20
485.7307254871703
 30
0.0
 10
165.6284166964638
 20
485.7268986366071
 30
0.0
 10
165.4567789847032
 20
485.730161090363
 30
0.0
 10
165.402188062215
 20
485.7324443040847
 30
0.0
 10
165.2984462451745
 20
485.7407544032101
 30
0.0
 10
165.2492576560075
 20
485.7477048923935
 30
0.0
 10
165.109045387605
 20
485.7924935954019
 30
0.0
 10
165.0252797821544
 20
485.853875421202
 30
0.0
 10
164.9153752136054
 20
486.047058322291
 30
0.0
 10
164.8813556763678
 20
486.1283073258512
 30
0.0
 10
164.8172839021611
 20
486.3345179077358
 30
0.0
 10
164.7858674177197
 20
486.4597738518345
 30
0.0
 10
164.7606580161157
 20
486.6123042770286
 30
0.0
  0
SPLINE
  5
94
330
1F
100
AcDbEntity
  8
0
  6
Continuous
 62
     8
370
     0
100
AcDbSpline
210
0.0
220
0.0
230
1.0
 70
     8
 71
     3
 72
    26
 73
    22
 74
     0
 42
0.00000001
 43
0.00000001
 40
0.0
 40
0.0
 40
0.0
 40
0.0
 40
0.0625000000000001
 40
0.0625000000000001
 40
0.1250000000000002
 40
0.1250000000000002
 40
0.2500000000000004
 40
0.2500000000000004
 40
0.3125000000000005
 40
0.3125000000000005
 40
0.3750000000000006
 40
0.3750000000000006
 40
0.5000000000000004
 40
0.5000000000000004
 40
0.6250000000000004
 40
0.6250000000000004
 40
0.7500000000000002
 40
0.7500000000000002
 40
0.8750000000000001
 40
0.8750000000000001
 40
1.0
 40
1.0
 40
1.0
 40
1.0
 10
230.7522703719736
 20
486.6123042770288
 30
0.0
 10
230.7271077466147
 20
486.4600568732509
 30
0.0
 10
230.6957431410728
 20
486.3349176403468
 30
0.0
 10
230.631752458928
 20
486.1288039688673
 30
0.0
 10
230.5977684072846
 20
486.0475323243689
 30
0.0
 10
230.4879519794772
 20
485.8542182660706
 30
0.0
 10
230.4042140060186
 20
485.792679644433
 30
0.0
 10
230.2639910769367
 20
485.7477672728801
 30
0.0
 10
230.2147910108534
 20
485.7407900428261
 30
0.0
 10
230.1110144436074
 20
485.7324554247605
 30
0.0
 10
230.0563982131013
 20
485.7301696210217
 30
0.0
 10
229.8846913549233
 20
485.7268944713835
 30
0.0
 10
229.7594737188877
 20
485.7307219769436
 30
0.0
 10
229.4803084399156
 20
485.7371689987173
 30
0.0
 10
229.3261508118924
 20
485.7399439009684
 30
0.0
 10
228.9807529264485
 20
485.7401199195826
 30
0.0
 10
228.7887796913179
 20
485.7393450457281
 30
0.0
 10
228.3608826806806
 20
485.7428135224541
 30
0.0
 10
228.1289219782967
 20
485.7454913084654
 30
0.0
 10
227.5770783736823
 20
485.7448485365706
 30
0.0
 10
227.2582707994835
 20
485.7438747554499
 30
0.0
 10
226.8504428245226
 20
485.7315601812533
 30
0.0
  0
LWPOLYLINE
  5
95
330
1F
100
AcDbEntity
  8
0
  6
Continuous
 62
     8
370
     0
100
AcDbPolyline
 90
       35
 70
   128
 43
0.0
 10
206.1310695621
 20
470.1723298432
 10
205.9884766253
 20
469.7224190832
 10
205.5655514027
 20
469.287826717
 10
204.8766972634
 20
468.8833644987
 10
203.9453723604
 20
468.5227862002
 10
202.8032914872
 20
468.2183852793
 10
201.48934714
 20
467.9805254937
 10
200.0482837806
 20
467.817298174
 10
198.5291752984
 20
467.7342763544
 10
196.9837530536
 20
467.7342763544
 10
195.4646446879
 20
467.817298174
 10
194.0235813285
 20
467.9805254937
 10
192.7096369813
 20
468.2183852793
 10
191.567556108
 20
468.5227862002
 10
190.6362312051
 20
468.8833644987
 10
189.9473770658
 20
469.287826717
 10
189.5244518431
 20
469.7224190832
 10
189.3818589064
 20
470.1723298432
 10
189.5244518431
 20
470.6222406031
 10
189.9473770658
 20
471.0568255187
 10
190.6362312051
 20
471.4612951876
 10
191.567556108
 20
471.8218734862
 10
192.7096369813
 20
472.126274407
 10
194.0235813285
 20
472.3641341926
 10
195.4646446879
 20
472.5273540617
 10
196.9837530536
 20
472.6103833319
 10
198.5291752984
 20
472.6103833319
 10
200.0482837806
 20
472.5273540617
 10
201.48934714
 20
472.3641341926
 10
202.8032914872
 20
472.126274407
 10
203.9453723604
 20
471.8218734862
 10
204.8766972634
 20
471.4612951876
 10
205.5655514027
 20
471.0568255187
 10
205.9884766253
 20
470.6222406031
 10
206.1310695621
 20
470.1723298432
  0
SPLINE
  5
96
330
1F
100
AcDbEntity
  8
0
  6
Continuous
 62
     8
370
     0
100
AcDbSpline
210
0.0
220
0.0
230
1.0
 70
     8
 71
     3
 72
    11
 73
     7
 74
     0
 42
0.00000001
 43
0.00000001
 40
0.0
 40
0.0
 40
0.0
 40
0.0
 40
0.3027916868372242
 40
0.6055847966599694
 40
0.9083760956219361
 40
1.0
 40
1.0
 40
1.0
 40
1.0
 10
165.5353844302356
 20
495.0515618921451
 30
0.0
 10
165.4087935634952
 20
494.9719579093215
 30
0.0
 10
165.1556112350939
 20
494.8127495695711
 30
0.0
 10
164.9064718731671
 20
494.4639126235537
 30
0.0
 10
164.7780140347479
 20
494.1625111072738
 30
0.0
 10
164.7835977763745
 20
493.9842029419697
 30
0.0
 10
164.7848948972881
 20
493.9427813888721
 30
0.0
  0
SPLINE
  5
97
330
1F
100
AcDbEntity
  8
0
  6
Continuous
 62
     8
370
     0
100
AcDbSpline
210
0.0
220
0.0
230
1.0
 70
     8
 71
     3
 72
    11
 73
     7
 74
     0
 42
0.00000001
 43
0.00000001
 40
0.0
 40
0.0
 40
0.0
 40
0.0
 40
0.0919504440327023
 40
0.3946339281458756
 40
0.697315541814459
 40
1.0
 40
1.0
 40
1.0
 40
1.0
 10
230.7280279832542
 20
493.9423865081005
 30
0.0
 10
230.7293347644149
 20
493.9839703699417
 30
0.0
 10
230.7349432221895
 20
494.162440446063
 30
0.0
 10
230.6064652878088
 20
494.464004030386
 30
0.0
 10
230.3573048105716
 20
494.8128293634414
 30
0.0
 10
230.1041301171308
 20
494.9720437378478
 30
0.0
 10
229.9775421755969
 20
495.0516512991123
 30
0.0
  0
SPLINE
  5
98
330
1F
100
AcDbEntity
  8
0
  6
Continuous
 62
     8
370
     0
100
AcDbSpline
210
0.0
220
0.0
230
1.0
 70
     8
 71
     3
 72
    18
 73
    14
 74
     0
 42
0.00000001
 43
0.00000001
 40
0.0
 40
0.0
 40
0.0
 40
0.0
 40
0.2499999999999997
 40
0.2499999999999997
 40
0.3749999999999997
 40
0.3749999999999997
 40
0.4374999999999997
 40
0.4374999999999997
 40
0.4999999999999998
 40
0.4999999999999998
 40
0.7499999999999999
 40
0.7499999999999999
 40
1.0
 40
1.0
 40
1.0
 40
1.0
 10
229.5855813122994
 20
496.1606306634426
 30
0.0
 10
227.4048334042344
 20
496.6531792551073
 30
0.0
 10
225.0759923673839
 20
497.0810881203196
 30
0.0
 10
221.3402483112426
 20
497.6171125945945
 30
0.0
 10
220.0549523795788
 20
497.7783072961403
 30
0.0
 10
218.0675955290724
 20
497.9941667676441
 30
0.0
 10
217.3942036233034
 20
498.0619031704913
 30
0.0
 10
216.0324935991221
 20
498.1884542963368
 30
0.0
 10
215.3487021919236
 20
498.2468693276161
 30
0.0
 10
211.9161541517591
 20
498.5164476797963
 30
0.0
 10
209.1269278139185
 20
498.6606226445944
 30
0.0
 10
203.4851708819152
 20
498.8441868319072
 30
0.0
 10
200.6329333797131
 20
498.8840612012416
 30
0.0
 10
197.7557433531745
 20
498.8826323638664
 30
0.0
  0
SPLINE
  5
99
330
1F
100
AcDbEntity
  8
0
  6
Continuous
 62
     8
370
     0
100
AcDbSpline
210
0.0
220
0.0
230
1.0
 70
     8
 71
     3
 72
     8
 73
     4
 74
     0
 42
0.00000001
 43
0.00000001
 40
0.0
 40
0.0
 40
0.0
 40
0.0
 40
0.0002926519410579
 40
0.0002926519410579
 40
0.0002926519410579
 40
0.0002926519410579
 10
165.5056056233777
 20
495.8105120534767
 30
0.0
 10
165.5196362223792
 20
495.7855266019831
 30
0.0
 10
165.5338420531147
 20
495.7605476985036
 30
0.0
 10
165.5482263220433
 20
495.7355757222394
 30
0.0
  0
SPLINE
  5
9A
330
1F
100
AcDbEntity
  8
0
  6
Continuous
 62
     8
370
     0
100
AcDbSpline
210
0.0
220
0.0
230
1.0
 70
     8
 71
     3
 72
    14
 73
    10
 74
     0
 42
0.00000001
 43
0.00000001
 40
0.0
 40
0.0
 40
0.0
 40
0.0
 40
0.25
 40
0.25
 40
0.5
 40
0.5
 40
0.75
 40
0.75
 40
1.0
 40
1.0
 40
1.0
 40
1.0
 10
165.9273470757896
 20
496.1606306634426
 30
0.0
 10
165.833511589554
 20
496.1394367710066
 30
0.0
 10
165.757430966677
 20
496.1144201567199
 30
0.0
 10
165.6321735901998
 20
496.0589497475818
 30
0.0
 10
165.585972867709
 20
496.0297642511958
 30
0.0
 10
165.5189281490597
 20
495.969154718773
 30
0.0
 10
165.4982783264948
 20
495.9373387462213
 30
0.0
 10
165.4829346592453
 20
495.8739184615794
 30
0.0
 10
165.4878039908504
 20
495.8422128971793
 30
0.0
 10
165.5056056233777
 20
495.8105120534767
 30
0.0
  0
SPLINE
  5
9B
330
1F
100
AcDbEntity
  8
0
  6
Continuous
 62
     8
370
     0
100
AcDbSpline
210
0.0
220
0.0
230
1.0
 70
     8
 71
     3
 72
    20
 73
    16
 74
     0
 42
0.00000001
 43
0.00000001
 40
0.0
 40
0.0
 40
0.0
 40
0.0
 40
0.1249999999999998
 40
0.1249999999999998
 40
0.2499999999999996
 40
0.2499999999999996
 40
0.4999999999999992
 40
0.4999999999999992
 40
0.5624999999999992
 40
0.5624999999999992
 40
0.6249999999999992
 40
0.6249999999999992
 40
0.7499999999999996
 40
0.7499999999999996
 40
1.0
 40
1.0
 40
1.0
 40
1.0
 10
197.755743347893
 20
498.8826330762699
 30
0.0
 10
196.3188063603813
 20
498.8833395936236
 30
0.0
 10
194.8836308987099
 20
498.873529826407
 30
0.0
 10
192.0171748250262
 20
498.8306580941131
 30
0.0
 10
190.583465626634
 20
498.7974705629246
 30
0.0
 10
186.3227736969752
 20
498.658000059812
 30
0.0
 10
183.5283019192828
 20
498.5120865901024
 30
0.0
 10
180.1110345238734
 20
498.2424245578289
 30
0.0
 10
179.4313902376577
 20
498.1841078358411
 30
0.0
 10
178.0802451515502
 20
498.058101379041
 30
0.0
 10
177.4073793079498
 20
497.990237986352
 30
0.0
 10
175.4235621461399
 20
497.7741655914828
 30
0.0
 10
174.1413605793199
 20
497.6129570269141
 30
0.0
 10
170.4166383980249
 20
497.0774876432021
 30
0.0
 10
168.0974370068564
 20
496.6507720206256
 30
0.0
 10
165.9273470757896
 20
496.1606306634426
 30
0.0
  0
SPLINE
  5
9C
330
1F
100
AcDbEntity
  8
0
  6
Continuous
 62
     8
370
     0
100
AcDbSpline
210
0.0
220
0.0
230
1.0
 70
     8
 71
     3
 72
    12
 73
     8
 74
     0
 42
0.00000001
 43
0.00000001
 40
0.0
 40
0.0
 40
0.0
 40
0.0
 40
0.2499999999999991
 40
0.2499999999999991
 40
0.4999999999999981
 40
0.4999999999999981
 40
1.0
 40
1.0
 40
1.0
 40
1.0
 10
230.0073227647128
 20
495.8105120534794
 30
0.0
 10
230.0251214554663
 20
495.8422076585227
 30
0.0
 10
230.0299646575176
 20
495.8738584885501
 30
0.0
 10
230.0147574433362
 20
495.9370741146333
 30
0.0
 10
229.9942170205041
 20
495.9689411012023
 30
0.0
 10
229.8932032109861
 20
496.0603121298658
 30
0.0
 10
229.7731284973847
 20
496.118270837466
 30
0.0
 10
229.5855813122992
 20
496.1606306634426
 30
0.0
  0
SPLINE
  5
9D
330
1F
100
AcDbEntity
  8
0
  6
Continuous
 62
     8
370
     0
100
AcDbSpline
210
0.0
220
0.0
230
1.0
 70
     8
 71
     3
 72
     8
 73
     4
 74
     0
 42
0.00000001
 43
0.00000001
 40
0.0
 40
0.0
 40
0.0
 40
0.0
 40
0.0002926519410686
 40
0.0002926519410686
 40
0.0002926519410686
 40
0.0002926519410686
 10
229.9647020660456
 20
495.7355757222394
 30
0.0
 10
229.9790863349748
 20
495.7605476985045
 30
0.0
 10
229.9932921657109
 20
495.7855266019849
 30
0.0
 10
230.0073227647128
 20
495.8105120534794
 30
0.0
  0
SPLINE
  5
9E
330
1F
100
AcDbEntity
  8
0
  6
Continuous
 62
     8
370
     0
100
AcDbSpline
210
0.0
220
0.0
230
1.0
 70
     8
 71
     3
 72
    10
 73
     6
 74
     0
 42
0.00000001
 43
0.00000001
 40
0.0
 40
0.0
 40
0.0
 40
0.0
 40
0.5
 40
0.5
 40
1.0
 40
1.0
 40
1.0
 40
1.0
 10
197.7564195731591
 20
498.0591561623758
 30
0.0
 10
197.7562742861235
 20
498.1002665831624
 30
0.0
 10
197.7561066407749
 20
498.1261090788751
 30
0.0
 10
197.755750387748
 20
498.1405367043541
 30
0.0
 10
197.7555622814467
 20
498.1291015292236
 30
0.0
 10
197.7553791650394
 20
498.1012908744015
 30
0.0
  0
SPLINE
  5
9F
330
1F
100
AcDbEntity
  8
0
  6
Continuous
 62
     8
370
     0
100
AcDbSpline
210
0.0
220
0.0
230
1.0
 70
     8
 71
     3
 72
    10
 73
     6
 74
     0
 42
0.00000001
 43
0.00000001
 40
0.0
 40
0.0
 40
0.0
 40
0.0
 40
0.4418408592791789
 40
0.8949193798158364
 40
1.0
 40
1.0
 40
1.0
 40
1.0
 10
229.9764543908298
 20
495.0800082088642
 30
0.0
 10
229.9428805654587
 20
495.1222350323381
 30
0.0
 10
229.8748790070964
 20
495.2077626649264
 30
0.0
 10
229.7804532554317
 20
495.2733536424925
 30
0.0
 10
229.7212776750023
 20
495.2842173914001
 30
0.0
 10
229.710137112683
 20
495.2862626315288
 30
0.0
  0
SPLINE
  5
A0
330
1F
100
AcDbEntity
  8
0
  6
Continuous
 62
     8
370
     0
100
AcDbSpline
210
0.0
220
0.0
230
1.0
 70
     8
 71
     3
 72
    10
 73
     6
 74
     0
 42
0.00000001
 43
0.00000001
 40
0.0
 40
0.0
 40
0.0
 40
0.0
 40
0.5
 40
0.5
 40
1.0
 40
1.0
 40
1.0
 40
1.0
 10
165.5364725031919
 20
495.0800047445591
 30
0.0
 10
165.5819440186388
 20
495.1483692486896
 30
0.0
 10
165.6385499997443
 20
495.2057438096934
 30
0.0
 10
165.7673089848072
 20
495.2851409526412
 30
0.0
 10
165.8392917504549
 20
495.3069694693907
 30
0.0
 10
165.9127185982942
 20
495.3096160530268
 30
0.0
  0
SPLINE
  5
A1
330
1F
100
AcDbEntity
  8
0
  6
Continuous
 62
     8
370
     0
100
AcDbSpline
210
0.0
220
0.0
230
1.0
 70
     8
 71
     3
 72
     9
 73
     5
 74
     0
 42
0.00000001
 43
0.00000001
 40
0.0
 40
0.0
 40
0.0
 40
0.0
 40
0.2949740236638398
 40
1.0
 40
1.0
 40
1.0
 40
1.0
 10
229.6723067897022
 20
495.3164598346881
 30
0.0
 10
229.7033383700332
 20
495.3511132145687
 30
0.0
 10
229.8085394312845
 20
495.4685926436046
 30
0.0
 10
229.9001284573879
 20
495.6251795256273
 30
0.0
 10
229.9647010999381
 20
495.7355773450069
 30
0.0
  0
SPLINE
  5
A2
330
1F
100
AcDbEntity
  8
0
  6
Continuous
 62
     8
370
     0
100
AcDbSpline
210
0.0
220
0.0
230
1.0
 70
     8
 71
     3
 72
     9
 73
     5
 74
     0
 42
0.00000001
 43
0.00000001
 40
0.0
 40
0.0
 40
0.0
 40
0.0
 40
0.5953071581725458
 40
1.0
 40
1.0
 40
1.0
 40
1.0
 10
165.5482255058944
 20
495.7355773450069
 30
0.0
 10
165.6065412566968
 20
495.6330917772225
 30
0.0
 10
165.7045003522693
 20
495.4609359978447
 30
0.0
 10
165.8232723732366
 20
495.3469555770143
 30
0.0
 10
165.8713385599315
 20
495.3008285165958
 30
0.0
  0
SPLINE
  5
A3
330
1F
100
AcDbEntity
  8
0
  6
Continuous
 62
     7
370
    15
100
AcDbSpline
210
0.0
220
0.0
230
1.0
 70
     8
 71
     3
 72
    28
 73
    24
 74
     0
 42
0.00000001
 43
0.00000001
 40
0.0
 40
0.0
 40
0.0
 40
0.0
 40
0.0468593714828802
 40
0.1090880599103625
 40
0.1682522453011201
 40
0.2239224059210069
 40
0.2754972069670235
 40
0.3225838272887933
 40
0.3626845943725054
 40
0.3985318515381376
 40
0.4300867925428348
 40
0.4573413579268708
 40
0.4851245397645202
 40
0.5324466605941877
 40
0.588993653935793
 40
0.6546566396189037
 40
0.7290151166312993
 40
0.7829810049976905
 40
0.8399791541006619
 40
0.8995126718136138
 40
0.9456482849504789
 40
0.9931400497104566
 40
1.0
 40
1.0
 40
1.0
 40
1.0
 10
505.0072046357139
 20
487.5040194393329
 30
0.0
 10
503.3446442031595
 20
488.0336770227465
 30
0.0
 10
499.4742232749283
 20
489.2667135821998
 30
0.0
 10
493.3154223237776
 20
490.5144889614247
 30
0.0
 10
486.7737817108176
 20
491.3237055634825
 30
0.0
 10
480.6036839705555
 20
491.7538803615618
 30
0.0
 10
474.8787183991445
 20
492.0033978999501
 30
0.0
 10
469.729419964835
 20
492.1559850409631
 30
0.0
 10
465.1620669583098
 20
492.2585358447739
 30
0.0
 10
461.1692062165378
 20
492.3308818945386
 30
0.0
 10
457.6516337060776
 20
492.3844023008297
 30
0.0
 10
454.43046248351
 20
492.4237511290635
 30
0.0
 10
450.623792058451
 20
492.4665370406316
 30
0.0
 10
445.7349425227175
 20
492.5197863936047
 30
0.0
 10
439.4466214844153
 20
492.5854830456252
 30
0.0
 10
432.1621881397791
 20
492.6789886585321
 30
0.0
 10
424.9758285395936
 20
492.8582204492517
 30
0.0
 10
418.1106947371491
 20
493.2127288894104
 30
0.0
 10
411.8039725881271
 20
493.7781480613438
 30
0.0
 10
405.805537671852
 20
494.6665179663456
 30
0.0
 10
400.2656228923871
 20
496.0098707642775
 30
0.0
 10
396.6500333956936
 20
497.0744845669448
 30
0.0
 10
394.8282021910025
 20
497.9388384774859
 30
0.0
 10
394.5982614892467
 20
498.0479320884876
 30
0.0
  0
SPLINE
  5
A4
330
1F
100
AcDbEntity
  8
0
  6
Continuous
 62
     7
370
    15
100
AcDbSpline
210
0.0
220
0.0
230
1.0
 70
     8
 71
     3
 72
    18
 73
    14
 74
     0
 42
0.00000001
 43
0.00000001
 40
0.0
 40
0.0
 40
0.0
 40
0.0
 40
0.08997912806861
 40
0.1842676962369726
 40
0.2656630939329458
 40
0.3339271124332834
 40
0.388291159565948
 40
0.4367000222008611
 40
0.513018970581701
 40
0.6102528223843653
 40
0.7272365039064689
 40
0.861395878685458
 40
1.0
 40
1.0
 40
1.0
 40
1.0
 10
391.9484623835354
 20
499.9756729603939
 30
0.0
 10
390.6960553544528
 20
500.6306071875229
 30
0.0
 10
388.1312587960324
 20
501.9718429141878
 30
0.0
 10
384.7233171909727
 20
504.4431353542909
 30
0.0
 10
381.8074745803258
 20
506.9613567117873
 30
0.0
 10
379.5403817493336
 20
509.2388224088689
 30
0.0
 10
377.7456388978064
 20
511.2270943589625
 30
0.0
 10
375.950377455971
 20
513.3505396436568
 30
0.0
 10
373.8096690685957
 20
516.0488644957368
 30
0.0
 10
371.0811103089398
 20
519.6274985005714
 30
0.0
 10
367.7840548949913
 20
523.903994428742
 30
0.0
 10
363.9149681322368
 20
528.5781551121867
 30
0.0
 10
360.9074113893761
 20
531.6115726818387
 30
0.0
 10
359.3791285890086
 20
533.1529965997867
 30
0.0
  0
SPLINE
  5
A5
330
1F
100
AcDbEntity
  8
0
  6
Continuous
 62
     7
370
    15
100
AcDbSpline
210
0.0
220
0.0
230
1.0
 70
     8
 71
     3
 72
    14
 73
    10
 74
     0
 42
0.00000001
 43
0.00000001
 40
0.0
 40
0.0
 40
0.0
 40
0.0
 40
0.0772534440166402
 40
0.161800901879601
 40
0.2451210655721346
 40
0.3698758735094723
 40
0.4955335072570233
 40
0.7502320181818773
 40
1.0
 40
1.0
 40
1.0
 40
1.0
 10
356.713593973492
 20
533.2752904297046
 30
0.0
 10
356.300490128412
 20
532.479737554121
 30
0.0
 10
355.4352785439357
 20
530.8135183401972
 30
0.0
 10
354.5086944149795
 20
528.0508135595866
 30
0.0
 10
353.6598152523053
 20
524.6761369366307
 30
0.0
 10
353.0255078148591
 20
520.7463766358824
 30
0.0
 10
352.4719306995685
 20
514.7748389985603
 30
0.0
 10
352.2760056423903
 20
507.3299568316423
 30
0.0
 10
352.3798898914282
 20
501.4073714687635
 30
0.0
 10
352.4313243466361
 20
498.475021720045
 30
0.0
  0
SPLINE
  5
A6
330
1F
100
AcDbEntity
  8
0
  6
Continuous
 62
     7
370
    15
100
AcDbSpline
210
0.0
220
0.0
230
1.0
 70
     8
 71
     3
 72
    16
 73
    12
 74
     0
 42
0.00000001
 43
0.00000001
 40
0.0
 40
0.0
 40
0.0
 40
0.0
 40
0.0036406512122219
 40
0.1770317319783122
 40
0.3651656626036555
 40
0.515577431933203
 40
0.6750207186391599
 40
0.7595254996952954
 40
0.8488373786077845
 40
0.9451794364065603
 40
1.0
 40
1.0
 40
1.0
 40
1.0
 10
481.5405654149993
 20
470.3040412069492
 30
0.0
 10
481.5738830083542
 20
470.314262290989
 30
0.0
 10
483.1939973541533
 20
470.8112767273587
 30
0.0
 10
486.5926971589577
 20
471.9981095947927
 30
0.0
 10
491.3199259250478
 20
473.8543825172635
 30
0.0
 10
495.8158623341209
 20
476.0379663286927
 30
0.0
 10
499.2028922300392
 20
478.1023233177857
 30
0.0
 10
501.8216739784381
 20
480.1194915762082
 30
0.0
 10
503.7373935505576
 20
481.9204058078409
 30
0.0
 10
505.2669811813608
 20
483.6417434738655
 30
0.0
 10
506.0093624328095
 20
484.8030062332752
 30
0.0
 10
506.2785940605148
 20
485.2241492272548
 30
0.0
  0
SPLINE
  5
A7
330
1F
100
AcDbEntity
  8
0
  6
Continuous
 62
     7
370
    15
100
AcDbSpline
210
0.0
220
0.0
230
1.0
 70
     8
 71
     3
 72
    15
 73
    11
 74
     0
 42
0.00000001
 43
0.00000001
 40
0.0
 40
0.0
 40
0.0
 40
0.0
 40
0.0642003786314281
 40
0.1369564572136927
 40
0.213768804898939
 40
0.3392792744178664
 40
0.4790538276869995
 40
0.6386231502766275
 40
0.8216089661140794
 40
0.9999999999999999
 40
0.9999999999999999
 40
0.9999999999999999
 40
0.9999999999999999
 10
458.2387851911529
 20
464.4869706035785
 30
0.0
 10
458.7826117391341
 20
464.5904955317746
 30
0.0
 10
459.9427381891329
 20
464.8113416965683
 30
0.0
 10
461.7504816757472
 20
465.1655420537547
 30
0.0
 10
464.0040204995202
 20
465.6167399664934
 30
0.0
 10
466.6764172153879
 20
466.1820461280834
 30
0.0
 10
469.6568411908414
 20
466.8980434062939
 30
0.0
 10
473.2207590174986
 20
467.8385762419163
 30
0.0
 10
477.259371401183
 20
468.9668715028433
 30
0.0
 10
480.1256486524753
 20
469.8621121977585
 30
0.0
 10
481.5405654149993
 20
470.3040412069492
 30
0.0
  0
SPLINE
  5
A8
330
1F
100
AcDbEntity
  8
0
  6
Continuous
 62
     7
370
    15
100
AcDbSpline
210
0.0
220
0.0
230
1.0
 70
     8
 71
     3
 72
    13
 73
     9
 74
     0
 42
0.00000001
 43
0.00000001
 40
0.0
 40
0.0
 40
0.0
 40
0.0
 40
0.1405918138185207
 40
0.3699303601807339
 40
0.545636729270128
 40
0.7254374500823794
 40
0.8881284213189572
 40
1.0
 40
1.0
 40
1.0
 40
1.0
 10
383.0885724524899
 20
398.3807461709909
 30
0.0
 10
383.5669662679654
 20
399.3775432756168
 30
0.0
 10
384.8257337001539
 20
402.0003525411503
 30
0.0
 10
386.7967070357133
 20
405.9916238166742
 30
0.0
 10
388.9643638136762
 20
410.2203967899289
 30
0.0
 10
390.9137205669733
 20
413.9063247146786
 30
0.0
 10
392.638998419159
 20
417.1204957522505
 30
0.0
 10
393.7101917417996
 20
419.0569883183204
 30
0.0
 10
394.1466536267592
 20
419.8460197449855
 30
0.0
  0
SPLINE
  5
A9
330
1F
100
AcDbEntity
  8
0
  6
Continuous
 62
     7
370
    15
100
AcDbSpline
210
0.0
220
0.0
230
1.0
 70
     8
 71
     3
 72
    20
 73
    16
 74
     0
 42
0.00000001
 43
0.00000001
 40
0.0
 40
0.0
 40
0.0
 40
0.0
 40
0.0120149157852275
 40
0.0472589426531638
 40
0.0922296486374444
 40
0.147117184786919
 40
0.211882728482999
 40
0.2864230681027594
 40
0.3664824198228158
 40
0.4555624313367822
 40
0.5540688830466477
 40
0.6624784083527478
 40
0.7809592213287974
 40
0.9091185562591497
 40
1.0
 40
1.0
 40
1.0
 40
1.0
 10
352.6671352225288
 20
486.5203863383464
 30
0.0
 10
352.6746073607773
 20
486.2652128627792
 30
0.0
 10
352.7039979415602
 20
485.2615247084874
 30
0.0
 10
352.7507424174449
 20
483.1512165686034
 30
0.0
 10
352.7791472494896
 20
480.0820605579365
 30
0.0
 10
352.7291731162191
 20
476.3165428876905
 30
0.0
 10
352.5316147508853
 20
471.885005745286
 30
0.0
 10
352.1016725370384
 20
466.8897092221015
 30
0.0
 10
351.3438739669764
 20
461.3717425872575
 30
0.0
 10
350.1679451398386
 20
455.3696261172237
 30
0.0
 10
348.4618245065938
 20
448.8349907600385
 30
0.0
 10
346.1907493486881
 20
441.7876807622742
 30
0.0
 10
343.4026432693074
 20
434.2277014964654
 30
0.0
 10
340.66165496847
 20
427.0771055587433
 30
0.0
 10
338.8556717233117
 20
422.4429757383973
 30
0.0
 10
338.1063575285419
 20
420.520245134943
 30
0.0
  0
SPLINE
  5
AA
330
1F
100
AcDbEntity
  8
0
  6
Continuous
 62
     7
370
    15
100
AcDbSpline
210
0.0
220
0.0
230
1.0
 70
     8
 71
     3
 72
    14
 73
    10
 74
     0
 42
0.00000001
 43
0.00000001
 40
0.0
 40
0.0
 40
0.0
 40
0.0
 40
0.1060135116883167
 40
0.2635945371435107
 40
0.4450040321221762
 40
0.6342887280116775
 40
0.813828664560847
 40
0.9581371931291259
 40
0.9999999999999999
 40
0.9999999999999999
 40
0.9999999999999999
 40
0.9999999999999999
 10
359.1062026458724
 20
533.8556757570437
 30
0.0
 10
359.0291815609303
 20
533.9250316344508
 30
0.0
 10
358.837674488744
 20
534.0974797508476
 30
0.0
 10
358.4045916082067
 20
534.275514625714
 30
0.0
 10
357.857886096441
 20
534.3230741167366
 30
0.0
 10
357.2989307172392
 20
534.166658051368
 30
0.0
 10
356.8726135414242
 20
533.8478776194216
 30
0.0
 10
356.6332270109871
 20
533.5467242083996
 30
0.0
 10
356.5685862080657
 20
533.3706198921753
 30
0.0
 10
356.5540509658798
 20
533.3310207725696
 30
0.0
  0
ARC
  5
AB
330
1F
100
AcDbEntity
  8
0
  6
Continuous
 62
     7
370
    15
100
AcDbCircle
 10
391.9067288808
 20
499.463953567
 30
0.0
 40
0.6018017843977455
100
AcDbArc
 50
285.1201960221
 51
64.1167517044
  0
SPLINE
  5
AC
330
1F
100
AcDbEntity
  8
0
  6
Continuous
 62
     7
370
    15
100
AcDbSpline
210
0.0
220
0.0
230
1.0
 70
     8
 71
     3
 72
     9
 73
     5
 74
     0
 42
0.00000001
 43
0.00000001
 40
0.0
 40
0.0
 40
0.0
 40
0.0
 40
0.4270956661105669
 40
1.0
 40
1.0
 40
1.0
 40
1.0
 10
394.7141692402705
 20
498.0661413074665
 30
0.0
 10
394.6795237475936
 20
498.0826880777588
 30
0.0
 10
394.5984049364563
 20
498.1214306162703
 30
0.0
 10
394.4947112697755
 20
498.1298820429112
 30
0.0
 10
394.4353047187372
 20
498.1347239018612
 30
0.0
  0
LINE
  5
AD
330
1F
100
AcDbEntity
  8
0
  6
Continuous
 62
     7
370
    15
100
AcDbLine
 10
394.7514347161
 20
498.0509272219
 30
0.0
 11
394.7141692403
 21
498.0661413075
 31
0.0
  0
ARC
  5
AE
330
1F
100
AcDbEntity
  8
0
  6
Continuous
 62
     7
370
    15
100
AcDbCircle
 10
352.8773691601
 20
498.5284577013
 30
0.0
 40
0.6018029730971346
100
AcDbArc
 50
181.5487316853
 51
258.9942352257
  0
LINE
  5
AF
330
1F
100
AcDbEntity
  8
0
  6
Continuous
 62
     7
370
    15
100
AcDbLine
 10
458.2360210258
 20
464.4864416124
 30
0.0
 11
459.8698364931
 21
464.7988817097
 31
0.0
  0
LINE
  5
B0
330
1F
100
AcDbEntity
  8
0
  6
Continuous
 62
     7
370
    15
100
AcDbLine
 10
393.5872712533
 20
418.830676973
 30
0.0
 11
394.1465469903
 21
419.8458260299
 31
0.0
  0
ARC
  5
B1
330
1F
100
AcDbEntity
  8
0
  6
Continuous
 62
     7
370
    15
100
AcDbCircle
 10
386.2208121008
 20
486.2328934988
 30
0.0
 40
30.09000000000009
100
AcDbArc
 50
159.2292782088
 51
173.5400612127
  0
LINE
  5
B2
330
1F
100
AcDbEntity
  8
0
  6
Continuous
 62
     7
370
    15
100
AcDbLine
 10
387.7030243526
 20
496.3772660495
 30
0.0
 11
387.3687053925
 21
497.624962628
 31
0.0
  0
LINE
  5
B3
330
1F
100
AcDbEntity
  8
0
  6
Continuous
 62
     7
370
    15
100
AcDbLine
 10
356.3357638556
 20
489.4320508839
 30
0.0
 11
356.7006672162
 21
488.0702114106
 31
0.0
  0
ARC
  5
B4
330
1F
100
AcDbEntity
  8
0
  6
Continuous
 62
     7
370
    15
100
AcDbCircle
 10
356.8201764556
 20
489.5618506784
 30
0.0
 40
0.5015000000000541
100
AcDbArc
 50
173.5400612127
 51
195.0
  0
SPLINE
  5
B5
330
1F
100
AcDbEntity
  8
0
  6
Continuous
 62
     7
370
    15
100
AcDbSpline
210
0.0
220
0.0
230
1.0
 70
     8
 71
     3
 72
    10
 73
     6
 74
     0
 42
0.00000001
 43
0.00000001
 40
0.0
 40
0.0
 40
0.0
 40
0.0
 40
0.2507312451637855
 40
0.6768241277135728
 40
1.0
 40
1.0
 40
1.0
 40
1.0
 10
329.3116474884494
 20
403.5536898673706
 30
0.0
 10
329.3242581872508
 20
403.5490866543107
 30
0.0
 10
329.358299517882
 20
403.5366607372223
 30
0.0
 10
329.4129076509527
 20
403.5346650694918
 30
0.0
 10
329.4504779916303
 20
403.5411534005536
 30
0.0
 10
329.4666828948005
 20
403.5439519585304
 30
0.0
  0
LINE
  5
B6
330
1F
100
AcDbEntity
  8
0
  6
Continuous
 62
     7
370
    15
100
AcDbLine
 10
329.2920561868
 20
403.559985608
 30
0.0
 11
329.3116474884
 21
403.5536898674
 31
0.0
  0
ARC
  5
B7
330
1F
100
AcDbEntity
  8
0
  6
Continuous
 62
     7
370
    15
100
AcDbCircle
 10
317.4831767431
 20
413.5164520918
 30
0.0
 40
1.203604783364467
100
AcDbArc
 50
113.6908347875
 51
208.5509243955
  0
SPLINE
  5
B8
330
1F
100
AcDbEntity
  8
0
  6
Continuous
 62
     7
370
    15
100
AcDbSpline
210
0.0
220
0.0
230
1.0
 70
     8
 71
     3
 72
    12
 73
     8
 74
     0
 42
0.00000001
 43
0.00000001
 40
0.0
 40
0.0
 40
0.0
 40
0.0
 40
0.1007727597551004
 40
0.3946619782053983
 40
0.7166912539767479
 40
0.984199775845038
 40
1.0
 40
1.0
 40
1.0
 40
1.0
 10
336.0646972793086
 20
413.3123821021251
 30
0.0
 10
336.0847583146986
 20
413.3531597075738
 30
0.0
 10
336.163324466217
 20
413.5128593175872
 30
0.0
 10
336.2620780194974
 20
413.8301084552969
 30
0.0
 10
336.2898815960536
 20
414.1764952675709
 30
0.0
 10
336.2684218743652
 20
414.3994223158416
 30
0.0
 10
336.203635341445
 20
414.476103295906
 30
0.0
 10
336.2000221746906
 20
414.4803798199825
 30
0.0
  0
SPLINE
  5
B9
330
1F
100
AcDbEntity
  8
0
  6
Continuous
 62
     7
370
    15
100
AcDbSpline
210
0.0
220
0.0
230
1.0
 70
     8
 71
     3
 72
    16
 73
    12
 74
     0
 42
0.00000001
 43
0.00000001
 40
0.0
 40
0.0
 40
0.0
 40
0.0
 40
0.0980179392882598
 40
0.1937073094489915
 40
0.3580725441416346
 40
0.4934171041092553
 40
0.6010932158734883
 40
0.6942656150796135
 40
0.8010957613556009
 40
0.925899404960554
 40
1.0
 40
1.0
 40
1.0
 40
1.0
 10
316.428107245539
 20
412.9617056251697
 30
0.0
 10
316.6822358768133
 20
412.5166442870168
 30
0.0
 10
317.1844559170992
 20
411.6370947374205
 30
0.0
 10
318.4339059640125
 20
410.1494040690651
 30
0.0
 10
320.0438295424742
 20
408.6796611339495
 30
0.0
 10
321.8936363248826
 20
407.3812126478646
 30
0.0
 10
323.4902591023735
 20
406.4298978115629
 30
0.0
 10
325.0038475120909
 20
405.6253908315373
 30
0.0
 10
326.5899509941152
 20
404.8115226190964
 30
0.0
 10
328.0524338532945
 20
404.0939698902942
 30
0.0
 10
328.9713217357341
 20
403.716443005622
 30
0.0
 10
329.3136479693397
 20
403.5757976026468
 30
0.0
  0
SPLINE
  5
BA
330
1F
100
AcDbEntity
  8
0
  6
Continuous
 62
     7
370
    15
100
AcDbSpline
210
0.0
220
0.0
230
1.0
 70
     8
 71
     3
 72
    16
 73
    12
 74
     0
 42
0.00000001
 43
0.00000001
 40
0.0
 40
0.0
 40
0.0
 40
0.0
 40
0.1010754762831208
 40
0.2371612122837374
 40
0.3398736424340177
 40
0.4150034477990749
 40
0.5116383079920822
 40
0.6410162795782797
 40
0.745934956429148
 40
0.8672558330787534
 40
1.0
 40
1.0
 40
1.0
 40
1.0
 10
334.7305702405914
 20
416.6946402193241
 30
0.0
 10
334.1242873714658
 20
416.6895694159342
 30
0.0
 10
332.7017189551081
 20
416.6776713975087
 30
0.0
 10
330.6631208661891
 20
416.6525832075241
 30
0.0
 10
328.7802853412244
 20
416.6202700780962
 30
0.0
 10
327.1343404738143
 20
416.5772062440106
 30
0.0
 10
325.3293923223593
 20
416.5063943570535
 30
0.0
 10
323.3480088118062
 20
416.3601031091421
 30
0.0
 10
321.2378128211136
 20
416.0393293557548
 30
0.0
 10
319.1402386671919
 20
415.5191693708359
 30
0.0
 10
317.7354790750583
 20
414.922621363881
 30
0.0
 10
317.0015188294395
 20
414.6109363437824
 30
0.0
  0
LINE
  5
BB
330
1F
100
AcDbEntity
  8
0
  6
Continuous
 62
     7
370
    15
100
AcDbLine
 10
491.3121881324
 20
472.8702148796
 30
0.0
 11
491.1902668315
 21
473.2689848543
 31
0.0
  0
LINE
  5
BC
330
1F
100
AcDbEntity
  8
0
  6
Continuous
 62
     7
370
    15
100
AcDbLine
 10
473.5927777725
 20
467.705397904
 30
0.0
 11
473.6633869248
 21
467.4744373561
 31
0.0
  0
LINE
  5
BD
330
1F
100
AcDbEntity
  8
0
  6
Continuous
 62
     7
370
    15
100
AcDbLine
 10
352.1566884953
 20
505.7061603666
 30
0.0
 11
351.9341731804
 21
505.6870719792
 31
0.0
  0
ARC
  5
BE
330
1F
100
AcDbEntity
  8
0
  6
Continuous
 62
     7
370
    15
100
AcDbCircle
 10
351.9513063083
 20
505.4872105564
 30
0.0
 40
0.2006000000000648
100
AcDbArc
 50
94.9
 51
183.5794392696
  0
ARC
  5
BF
330
1F
100
AcDbEntity
  8
0
  6
Continuous
 62
     7
370
    15
100
AcDbCircle
 10
352.3454029083
 20
500.8902726289
 30
0.0
 40
0.2006000000000331
100
AcDbArc
 50
186.2205607304
 51
232.5224866937
  0
SPLINE
  5
C0
330
1F
100
AcDbEntity
  8
0
  6
Continuous
 62
     7
370
    15
100
AcDbSpline
210
0.0
220
0.0
230
1.0
 70
     8
 71
     3
 72
    12
 73
     8
 74
     0
 42
0.00000001
 43
0.00000001
 40
0.0
 40
0.0
 40
0.0
 40
0.0
 40
0.1032154180531015
 40
0.4114208252499555
 40
0.6703245885833277
 40
0.8928376685947599
 40
1.0
 40
1.0
 40
1.0
 40
1.0
 10
506.7379298048957
 20
486.5575200320415
 30
0.0
 10
506.727216873681
 20
486.611597335337
 30
0.0
 10
506.6845146971615
 20
486.8271516504656
 30
0.0
 10
506.4541988819846
 20
487.1171348278885
 30
0.0
 10
506.1541031016203
 20
487.3820585805419
 30
0.0
 10
505.897569654092
 20
487.5154893917455
 30
0.0
 10
505.7912372265458
 20
487.5494656278756
 30
0.0
 10
505.7566734391197
 20
487.5605097414188
 30
0.0
  0
ARC
  5
C1
330
1F
100
AcDbEntity
  8
0
  6
Continuous
 62
     7
370
    15
100
AcDbCircle
 10
451.8554320683
 20
511.7366534503
 30
0.0
 40
100.3000000000001
100
AcDbArc
 50
183.5794392694
 51
186.2205607306
  0
LINE
  5
C2
330
1F
100
AcDbEntity
  8
0
  6
Continuous
 62
     7
370
    15
100
AcDbLine
 10
329.7667103249
 20
403.9246524126
 30
0.0
 11
330.0806852418
 21
403.3808363975
 31
0.0
  0
SPLINE
  5
C3
330
1F
100
AcDbEntity
  8
0
  6
Continuous
 62
     7
370
    15
100
AcDbSpline
210
0.0
220
0.0
230
1.0
 70
     8
 71
     3
 72
     9
 73
     5
 74
     0
 42
0.00000001
 43
0.00000001
 40
0.0
 40
0.0
 40
0.0
 40
0.0
 40
0.291147547681456
 40
1.0
 40
1.0
 40
1.0
 40
1.0
 10
394.6658666605993
 20
498.0858778954677
 30
0.0
 10
394.6464782052545
 20
498.0946962941135
 30
0.0
 10
394.5798849761539
 20
498.1249847121888
 30
0.0
 10
394.4953456475051
 20
498.1306839694062
 30
0.0
 10
394.4354197370752
 20
498.1347239018612
 30
0.0
  0
ARC
  5
C4
330
1F
100
AcDbEntity
  8
0
  6
Continuous
 62
     7
370
    15
100
AcDbCircle
 10
352.8773771401
 20
498.5284652669
 30
0.0
 40
0.6018112118127821
100
AcDbArc
 50
181.5231761293
 51
258.9939751069
  0
LWPOLYLINE
  5
C5
330
1F
100
AcDbEntity
  8
0
  6
Continuous
 62
     7
370
    15
100
AcDbPolyline
 90
       13
 70
   128
 43
0.0
 10
335.3964807826
 20
415.9040628375
 10
335.1500900823
 20
416.3056081535
 10
335.0066775816
 20
416.5273337067
 10
334.9806340772
 20
416.5663151444
 10
334.9761003989
 20
416.5726704897
 10
334.9703932541
 20
416.5802104772
 10
334.9642614263
 20
416.5877988936
 10
334.9534059304
 20
416.6001072527
 10
334.9163430172
 20
416.6337689758
 10
334.8249765473
 20
416.6815532745
 10
334.7310768801
 20
416.6958621145
 10
334.7305963176
 20
416.6957764329
 10
334.7305963176
 20
416.6957764329
  0
SPLINE
  5
C6
330
1F
100
AcDbEntity
  8
0
  6
Continuous
 62
     7
370
    15
100
AcDbSpline
210
0.0
220
0.0
230
1.0
 70
     8
 71
     3
 72
    21
 73
    17
 74
     0
 42
0.00000001
 43
0.00000001
 40
0.0
 40
0.0
 40
0.0
 40
0.0
 40
0.0611380311368336
 40
0.1222578060861829
 40
0.1834374990805103
 40
0.2447789764150459
 40
0.3063807763987579
 40
0.3683081922774287
 40
0.4305837466160889
 40
0.4936431587762361
 40
0.5573371137968306
 40
0.6208933909164
 40
0.7149058911070365
 40
0.8094166415972132
 40
0.904428952295237
 40
1.0
 40
1.0
 40
1.0
 40
1.0
 10
505.7622224949461
 20
487.56137131398
 30
0.0
 10
505.2762525250969
 20
487.7264969596346
 30
0.0
 10
504.3044576989836
 20
488.056698943423
 30
0.0
 10
502.8406397682255
 20
488.5350831102652
 30
0.0
 10
501.3688336993879
 20
488.9941187101413
 30
0.0
 10
499.8852015216298
 20
489.4281335243484
 30
0.0
 10
498.3868513900435
 20
489.8331168045698
 30
0.0
 10
496.8719794725893
 20
490.2055329760398
 30
0.0
 10
495.3367258600221
 20
490.5444651604513
 30
0.0
 10
493.7789902802411
 20
490.8482292467165
 30
0.0
 10
492.2031247981692
 20
491.1123107406733
 30
0.0
 10
490.3638668657612
 20
491.3732146702067
 30
0.0
 10
488.2609449985333
 20
491.6128924043657
 30
0.0
 10
485.8898612684895
 20
491.8235891180221
 30
0.0
 10
483.50265745199
 20
491.9966979325714
 30
0.0
 10
481.9053426745157
 20
492.0887590969246
 30
0.0
 10
481.1043438460928
 20
492.1349246278706
 30
0.0
  0
SPLINE
  5
C7
330
1F
100
AcDbEntity
  8
0
  6
Continuous
 62
     7
370
    15
100
AcDbSpline
210
0.0
220
0.0
230
1.0
 70
     8
 71
     3
 72
    31
 73
    27
 74
     0
 42
0.00000001
 43
0.00000001
 40
0.0
 40
0.0
 40
0.0
 40
0.0
 40
0.0178516123810666
 40
0.035919826428249
 40
0.0542093214941048
 40
0.0726058189608897
 40
0.0909541627691609
 40
0.109137515306854
 40
0.12715719969042
 40
0.1451864763054695
 40
0.1633930660562805
 40
0.1817829325067122
 40
0.2002539681388836
 40
0.2186675620930725
 40
0.2369205441379257
 40
0.2550173802232609
 40
0.3828804011304384
 40
0.5108444929975061
 40
0.5752546252639661
 40
0.6393979541402102
 40
0.720804433648595
 40
0.8012464930752538
 40
0.8800129232353933
 40
0.957382673506417
 40
0.9986748815565447
 40
1.0
 40
1.0
 40
1.0
 40
1.0
 10
481.1043438351535
 20
492.1349246284674
 30
0.0
 10
480.5879176555493
 20
492.162054755985
 30
0.0
 10
479.5487992645371
 20
492.2166441930963
 30
0.0
 10
477.9799649663744
 20
492.2863920118675
 30
0.0
 10
476.3950393046116
 20
492.3489087023145
 30
0.0
 10
474.8017112409163
 20
492.4038452008593
 30
0.0
 10
473.2112460768435
 20
492.4521133845874
 30
0.0
 10
471.6315316354471
 20
492.4944235355134
 30
0.0
 10
470.0609378339694
 20
492.5317430674381
 30
0.0
 10
468.4895800174862
 20
492.5650038741682
 30
0.0
 10
466.9074298119762
 20
492.5949244197409
 30
0.0
 10
465.3124283387193
 20
492.6219254316828
 30
0.0
 10
463.7113862911165
 20
492.6462244878088
 30
0.0
 10
462.1142735780616
 20
492.667983345624
 30
0.0
 10
460.5279717612922
 20
492.6874079261203
 30
0.0
 10
455.7712392783017
 20
492.7397244896607
 30
0.0
 10
447.8361656468923
 20
492.7922568339804
 30
0.0
 10
438.5593656699467
 20
492.8200201098483
 30
0.0
 10
431.12869768026
 20
492.8943759820855
 30
0.0
 10
425.0476550274709
 20
493.0239380140555
 30
0.0
 10
418.5060867709934
 20
493.3086032829108
 30
0.0
 10
411.5582782775317
 20
493.9085144326502
 30
0.0
 10
404.7784104472583
 20
494.9561436517723
 30
0.0
 10
399.2248947249404
 20
496.3783550911057
 30
0.0
 10
395.9570089652038
 20
497.573117589189
 30
0.0
 10
394.8159813430306
 20
498.0444992938129
 30
0.0
 10
394.7805028916345
 20
498.0591561632623
 30
0.0
  0
SPLINE
  5
C8
330
1F
100
AcDbEntity
  8
0
  6
Continuous
 62
     7
370
    15
100
AcDbSpline
210
0.0
220
0.0
230
1.0
 70
     8
 71
     3
 72
    24
 73
    20
 74
     0
 42
0.00000001
 43
0.00000001
 40
0.0
 40
0.0
 40
0.0
 40
0.0
 40
0.0399800431375882
 40
0.0800311823767349
 40
0.1201149894340997
 40
0.1602325332913389
 40
0.2003974307096874
 40
0.2406172150123238
 40
0.2808836273522627
 40
0.3211681176950344
 40
0.3614273786918695
 40
0.4016297267388346
 40
0.4417453990303174
 40
0.5373727963250109
 40
0.632369091979913
 40
0.7257332531492897
 40
0.8178985506320475
 40
0.9091426570771017
 40
1.0
 40
1.0
 40
1.0
 40
1.0
 10
375.9927607766393
 20
513.6817368181681
 30
0.0
 10
375.7768345887083
 20
513.9587811865767
 30
0.0
 10
375.3445982335161
 20
514.5133625885594
 30
0.0
 10
374.7032517638208
 20
515.3514109004084
 30
0.0
 10
374.0641777834925
 20
516.1926989011903
 30
0.0
 10
373.4276875844075
 20
517.0371980958295
 30
0.0
 10
372.792958445143
 20
517.8845126383802
 30
0.0
 10
372.1591941429842
 20
518.7341806922633
 30
0.0
 10
371.525461889401
 20
519.5851824263821
 30
0.0
 10
370.8911483085267
 20
520.4361839896139
 30
0.0
 10
370.2556985493362
 20
521.2856351325102
 30
0.0
 10
369.6181369643871
 20
522.1316517253708
 30
0.0
 10
368.6810635499406
 20
523.3610293170319
 30
0.0
 10
367.4317115669447
 20
524.957707126944
 30
0.0
 10
365.8425364966665
 20
526.8815566228973
 30
0.0
 10
364.2189955092134
 20
528.7363587812183
 30
0.0
 10
362.558236110077
 20
530.5130877824407
 30
0.0
 10
360.8564047867023
 20
532.2196329258046
 30
0.0
 10
359.6916043349657
 20
533.3164744767971
 30
0.0
 10
359.1104410633524
 20
533.863730466667
 30
0.0
  0
LINE
  5
C9
330
1F
100
AcDbEntity
  8
0
  6
Continuous
 62
     7
370
    15
100
AcDbLine
 10
392.1716004039
 20
500.0042608381
 30
0.0
 11
391.9046088482
 21
500.1505976916
 31
0.0
  0
SPLINE
  5
CA
330
1F
100
AcDbEntity
  8
0
  6
Continuous
 62
     7
370
    15
100
AcDbSpline
210
0.0
220
0.0
230
1.0
 70
     8
 71
     3
 72
    14
 73
    10
 74
     0
 42
0.00000001
 43
0.00000001
 40
0.0
 40
0.0
 40
0.0
 40
0.0
 40
0.4999999999999997
 40
0.4999999999999997
 40
0.6249999999999996
 40
0.6249999999999996
 40
0.7499999999999996
 40
0.7499999999999996
 40
1.0
 40
1.0
 40
1.0
 40
1.0
 10
380.3174160626564
 20
495.7355757222394
 30
0.0
 10
378.0118271040391
 20
495.1177950226998
 30
0.0
 10
375.6926537882459
 20
494.7828507457257
 30
0.0
 10
372.798591113092
 20
494.6903143380622
 30
0.0
 10
372.2200426470548
 20
494.6882613695482
 30
0.0
 10
371.06417320644
 20
494.7168970289304
 30
0.0
 10
370.4857518675615
 20
494.7477527760433
 30
0.0
 10
368.7722265971368
 20
494.8874168778981
 30
0.0
 10
367.6533941340379
 20
495.0432226145828
 30
0.0
 10
366.5626198621389
 20
495.2552476547616
 30
0.0
  0
SPLINE
  5
CB
330
1F
100
AcDbEntity
  8
0
  6
Continuous
 62
     7
370
    15
100
AcDbSpline
210
0.0
220
0.0
230
1.0
 70
     8
 71
     3
 72
     9
 73
     5
 74
     0
 42
0.00000001
 43
0.00000001
 40
0.0
 40
0.0
 40
0.0
 40
0.0
 40
0.4999626796489312
 40
1.0
 40
1.0
 40
1.0
 40
1.0
 10
352.2233991078689
 20
500.7310387230378
 30
0.0
 10
352.2314823813313
 20
500.3613595010264
 30
0.0
 10
352.2476501350287
 20
499.6219458666507
 30
0.0
 10
352.266434000113
 20
498.8825940650685
 30
0.0
 10
352.2758266336755
 20
498.5128905714085
 30
0.0
  0
SPLINE
  5
CC
330
1F
100
AcDbEntity
  8
0
  6
Continuous
 62
     7
370
    15
100
AcDbSpline
210
0.0
220
0.0
230
1.0
 70
     8
 71
     3
 72
    18
 73
    14
 74
     0
 42
0.00000001
 43
0.00000001
 40
0.0
 40
0.0
 40
0.0
 40
0.0
 40
0.2499999999999999
 40
0.2499999999999999
 40
0.4999999999999999
 40
0.4999999999999999
 40
0.625
 40
0.625
 40
0.75
 40
0.75
 40
0.875
 40
0.875
 40
1.0
 40
1.0
 40
1.0
 40
1.0
 10
352.2233989883618
 20
500.7310388273921
 30
0.0
 10
352.2229586924576
 20
500.7313761792215
 30
0.0
 10
352.2229099641378
 20
500.7676618376248
 30
0.0
 10
352.2233144546758
 20
500.9152220210898
 30
0.0
 10
352.2237510238352
 20
501.0233232504132
 30
0.0
 10
352.2241557391173
 20
501.2373334830382
 30
0.0
 10
352.2242447256927
 20
501.3178620801903
 30
0.0
 10
352.2242065727505
 20
501.4912025509171
 30
0.0
 10
352.2240814273893
 20
501.584620871657
 30
0.0
 10
352.2235055236702
 20
501.7851323382297
 30
0.0
 10
352.2230484862714
 20
501.8931286977885
 30
0.0
 10
352.2217243949332
 20
502.117704330045
 30
0.0
 10
352.2208595395863
 20
502.2344953744646
 30
0.0
 10
352.2197560587111
 20
502.3558797115221
 30
0.0
  0
SPLINE
  5
CD
330
1F
100
AcDbEntity
  8
0
  6
Continuous
 62
     7
370
    15
100
AcDbSpline
210
0.0
220
0.0
230
1.0
 70
     8
 71
     3
 72
    22
 73
    18
 74
     0
 42
0.00000001
 43
0.00000001
 40
0.0
 40
0.0
 40
0.0
 40
0.0
 40
0.125
 40
0.125
 40
0.25
 40
0.25
 40
0.375
 40
0.375
 40
0.5
 40
0.5
 40
0.625
 40
0.625
 40
0.75
 40
0.75
 40
0.875
 40
0.875
 40
1.0
 40
1.0
 40
1.0
 40
1.0
 10
352.1566895889318
 20
505.706153937513
 30
0.0
 10
352.156193661586
 20
505.7061107011277
 30
0.0
 10
352.1564051268343
 20
505.6817094529251
 30
0.0
 10
352.1581889326666
 20
505.587301619805
 30
0.0
 10
352.1597844849325
 20
505.5160631719859
 30
0.0
 10
352.1641478642164
 20
505.3318707815238
 30
0.0
 10
352.1668879046606
 20
505.2199670764187
 30
0.0
 10
352.173310467073
 20
504.956004292933
 30
0.0
 10
352.1769260114626
 20
504.806618677738
 30
0.0
 10
352.1845005463339
 20
504.4815417285663
 30
0.0
 10
352.1885337472048
 20
504.3024186932445
 30
0.0
 10
352.1963246408671
 20
503.9320246305838
 30
0.0
 10
352.200130615551
 20
503.7387057678471
 30
0.0
 10
352.2072007757708
 20
503.3401325972928
 30
0.0
 10
352.2103512914891
 20
503.1412736762183
 30
0.0
 10
352.2157692171934
 20
502.7443860760146
 30
0.0
 10
352.2180273568403
 20
502.5460391744497
 30
0.0
 10
352.2197560587111
 20
502.3558797115219
 30
0.0
  0
SPLINE
  5
CE
330
1F
100
AcDbEntity
  8
0
  6
Continuous
 62
     7
370
    15
100
AcDbSpline
210
0.0
220
0.0
230
1.0
 70
     8
 71
     3
 72
    75
 73
    71
 74
     0
 42
0.00000001
 43
0.00000001
 40
0.0
 40
0.0
 40
0.0
 40
0.0
 40
0.014906060707626
 40
0.0297563205642613
 40
0.0445562571361528
 40
0.0593108343226781
 40
0.074024912820435
 40
0.0887030157904478
 40
0.1033493703207257
 40
0.1179679396835247
 40
0.1325624453528048
 40
0.1471363808569974
 40
0.161693018889154
 40
0.1762354125185322
 40
0.1907663908618205
 40
0.2052885412700738
 40
0.219804194658411
 40
0.2343154219425754
 40
0.2488240101438892
 40
0.2633314354465179
 40
0.27783883484172
 40
0.2923469762655615
 40
0.3068562271743207
 40
0.321366521532241
 40
0.3358773289246406
 40
0.3503878799114216
 40
0.3648975977337236
 40
0.3794060209255847
 40
0.3939127861550721
 40
0.4084176271167454
 40
0.4229203724795655
 40
0.437420942903831
 40
0.4519193471508338
 40
0.4664156773171746
 40
0.4809101032322804
 40
0.4954028664955564
 40
0.5098942832614908
 40
0.5243847423918631
 40
0.538874693510965
 40
0.5533646406775381
 40
0.5678551360741997
 40
0.5823467734356654
 40
0.5968401812308471
 40
0.611336015610615
 40
0.6258349531327881
 40
0.6403376832759223
 40
0.6548449007529654
 40
0.6693572976353194
 40
0.6838755552969027
 40
0.6984003361871498
 40
0.7129322754406409
 40
0.7274719723297647
 40
0.7420199815655485
 40
0.7565768044503524
 40
0.7711428798849456
 40
0.785718575230216
 40
0.8003041748136343
 40
0.8148998631481061
 40
0.8295057258881383
 40
0.8441217440334222
 40
0.8587477840424445
 40
0.873383587828006
 40
0.8880287626572416
 40
0.902682770975688
 40
0.9173449201727385
 40
0.9320143523033857
 40
0.9466900337785418
 40
0.9613707450334519
 40
0.9806827093777399
 40
1.0
 40
1.0
 40
1.0
 40
1.0
 10
356.6171320010035
 20
533.4783135586504
 30
0.0
 10
356.5486004757579
 20
533.3548964599556
 30
0.0
 10
356.41179397309
 20
533.1085242745803
 30
0.0
 10
356.2165506789858
 20
532.734408623462
 30
0.0
 10
356.0286843969297
 20
532.3581648028307
 30
0.0
 10
355.8485830871666
 20
531.9795626999302
 30
0.0
 10
355.6757150888562
 20
531.5988763198608
 30
0.0
 10
355.5098161481276
 20
531.2162191502779
 30
0.0
 10
355.3505726835794
 20
530.8317257117421
 30
0.0
 10
355.1977050703682
 20
530.4455058901011
 30
0.0
 10
355.0509441477652
 20
530.057659143956
 30
0.0
 10
354.9100364069353
 20
529.6682726906934
 30
0.0
 10
354.7747414819911
 20
529.277423995981
 30
0.0
 10
354.6448318834687
 20
528.8851820546323
 30
0.0
 10
354.5200911668608
 20
528.4916093817386
 30
0.0
 10
354.4003159701937
 20
528.0967627240889
 30
0.0
 10
354.2853181282907
 20
527.7006938628261
 30
0.0
 10
354.1749172970819
 20
527.303453120697
 30
0.0
 10
354.0689423093386
 20
526.905090119767
 30
0.0
 10
353.9672308388546
 20
526.5056552861714
 30
0.0
 10
353.8696294112216
 20
526.1052012465337
 30
0.0
 10
353.7759932078114
 20
525.7037842802403
 30
0.0
 10
353.6861858208589
 20
525.3014657771982
 30
0.0
 10
353.6000789198519
 20
524.8983136782988
 30
0.0
 10
353.517551359933
 20
524.4944015012654
 30
0.0
 10
353.4384875149319
 20
524.0898029880641
 30
0.0
 10
353.3627759817961
 20
523.684587089195
 30
0.0
 10
353.2903088917939
 20
523.278815140863
 30
0.0
 10
353.2209819617253
 20
522.8725420475619
 30
0.0
 10
353.1546943331012
 20
522.4658167521202
 30
0.0
 10
353.0913483344357
 20
522.0586825570349
 30
0.0
 10
353.0308491942723
 20
521.6511774550498
 30
0.0
 10
352.9731047432296
 20
521.2433344639392
 30
0.0
 10
352.9180249866159
 20
520.8351819795082
 30
0.0
 10
352.8655220109762
 20
520.4267440861581
 30
0.0
 10
352.8155085025867
 20
520.018040943004
 30
0.0
 10
352.7679022313567
 20
519.6090883900324
 30
0.0
 10
352.7226268189794
 20
519.1998981674762
 30
0.0
 10
352.6796075994607
 20
518.7904787278876
 30
0.0
 10
352.6387725463398
 20
518.3808354582355
 30
0.0
 10
352.6000519925316
 20
517.9709709928875
 30
0.0
 10
352.5633786598608
 20
517.5608854861897
 30
0.0
 10
352.5286875966959
 20
517.1505768969824
 30
0.0
 10
352.495916132125
 20
516.7400412715656
 30
0.0
 10
352.4650038183451
 20
516.3292730285701
 30
0.0
 10
352.4358923695804
 20
515.9182652446707
 30
0.0
 10
352.4085255959013
 20
515.5070099413043
 30
0.0
 10
352.3828493328641
 20
515.0954983722562
 30
0.0
 10
352.3588113670849
 20
514.6837213120807
 30
0.0
 10
352.3363613579218
 20
514.2716693453239
 30
0.0
 10
352.3154507553417
 20
513.8593331565456
 30
0.0
 10
352.2960327136021
 20
513.4467038211726
 30
0.0
 10
352.2780620014007
 20
513.0337730972248
 30
0.0
 10
352.2614949046519
 20
512.6205337180232
 30
0.0
 10
352.2462891342368
 20
512.2069796858893
 30
0.0
 10
352.2324036909818
 20
511.7931065882286
 30
0.0
 10
352.2197988659648
 20
511.3789119835559
 30
0.0
 10
352.2084334949085
 20
510.9643957603588
 30
0.0
 10
352.1982681580591
 20
510.5495602557489
 30
0.0
 10
352.1892651328358
 20
510.1344104315986
 30
0.0
 10
352.1813881425452
 20
509.7189541517664
 30
0.0
 10
352.1746021817671
 20
509.303202495478
 30
0.0
 10
352.1688732715563
 20
508.8871700694905
 30
0.0
 10
352.1641684518249
 20
508.4708753201599
 30
0.0
 10
352.160454932
 20
508.0543408397473
 30
0.0
 10
352.1577024155295
 20
507.6375936876737
 30
0.0
 10
352.1558736071818
 20
507.2206656489658
 30
0.0
 10
352.1548627703212
 20
506.7597693118299
 30
0.0
 10
352.1548792640547
 20
506.2549143953582
 30
0.0
 10
352.1560860769248
 20
505.8890909014298
 30
0.0
 10
352.1566895665588
 20
505.7061539342326
 30
0.0
  0
SPLINE
  5
CF
330
1F
100
AcDbEntity
  8
0
  6
Continuous
 62
     7
370
    15
100
AcDbSpline
210
0.0
220
0.0
230
1.0
 70
     8
 71
     3
 72
    43
 73
    39
 74
     0
 42
0.00000001
 43
0.00000001
 40
0.0
 40
0.0
 40
0.0
 40
0.0
 40
0.0223067993035569
 40
0.0445890720202665
 40
0.0668447837185158
 40
0.0890732985575989
 40
0.1112703047698591
 40
0.133429685978798
 40
0.1555489837671618
 40
0.1776238822661529
 40
0.1996509226781813
 40
0.2216321876551655
 40
0.2435660766574907
 40
0.2654454365744141
 40
0.2872590719114269
 40
0.3089939860154177
 40
0.3306377274744024
 40
0.352179606421286
 40
0.3736128801166932
 40
0.3949372693085478
 40
0.4413160782182589
 40
0.4872618751347403
 40
0.5329368113270473
 40
0.5785644821402501
 40
0.6245393138837738
 40
0.6712310786629946
 40
0.6894845449449006
 40
0.7078412208611378
 40
0.7579126120890342
 40
0.8083719054095738
 40
0.8594026600258773
 40
0.8795896537577734
 40
0.8997607819248037
 40
0.9199085145153983
 40
0.9400170918758434
 40
0.9600728432303872
 40
0.9800683044544791
 40
1.0
 40
1.0
 40
1.0
 40
1.0
 10
383.0913735559957
 20
398.379416168917
 30
0.0
 10
383.4901878977522
 20
399.1955861940647
 30
0.0
 10
384.2873780802298
 20
400.8270288558673
 30
0.0
 10
385.4942193506674
 20
403.2670046201358
 30
0.0
 10
386.7097009295893
 20
405.6991204541812
 30
0.0
 10
387.9348263433006
 20
408.1225061931935
 30
0.0
 10
389.1707884051687
 20
410.5359812808572
 30
0.0
 10
390.4198059145896
 20
412.9377184221531
 30
0.0
 10
391.6825466458774
 20
415.3266497307491
 30
0.0
 10
392.960944847303
 20
417.7011284528924
 30
0.0
 10
394.2573113651863
 20
420.0594425480017
 30
0.0
 10
395.574082024887
 20
422.3998504204073
 30
0.0
 10
396.9138435039108
 20
424.7202472501082
 30
0.0
 10
398.2792984628543
 20
427.01770137704
 30
0.0
 10
399.6733786477516
 20
429.2884250015924
 30
0.0
 10
401.0992511935483
 20
431.5279879681977
 30
0.0
 10
402.5601727847084
 20
433.7316292666586
 30
0.0
 10
404.0599683511599
 20
435.8941089802696
 30
0.0
 10
405.6031082656748
 20
438.0099342718283
 30
0.0
 10
407.8202437469308
 20
440.8843977736515
 30
0.0
 10
410.8227638386649
 20
444.4123293497556
 30
0.0
 10
414.8172888322355
 20
448.3767026800313
 30
0.0
 10
419.1749127562312
 20
451.8945776457508
 30
0.0
 10
423.9073045439501
 20
454.894298303196
 30
0.0
 10
428.987262759657
 20
457.3510209416883
 30
0.0
 10
433.2377473624078
 20
458.8994360694444
 30
0.0
 10
436.4856502454532
 20
459.8794112015661
 30
0.0
 10
439.89242599555
 20
460.8053600479312
 30
0.0
 10
444.6160557636319
 20
461.8762616942684
 30
0.0
 10
450.6743158041507
 20
463.0559067537258
 30
0.0
 10
455.5446563014375
 20
463.968280732427
 30
0.0
 10
459.1998735901275
 20
464.6681659183264
 30
0.0
 10
461.618526544581
 20
465.1385923402242
 30
0.0
 10
464.0320004861209
 20
465.6188170984288
 30
0.0
 10
466.4381578699911
 20
466.1116005832201
 30
0.0
 10
468.8345181288234
 20
466.6209471383812
 30
0.0
 10
471.2198393873287
 20
467.1474645580121
 30
0.0
 10
472.802641876258
 20
467.5196177961884
 30
0.0
 10
473.5927792131104
 20
467.7053972415521
 30
0.0
  0
SPLINE
  5
D0
330
1F
100
AcDbEntity
  8
0
  6
Continuous
 62
     7
370
    15
100
AcDbSpline
210
0.0
220
0.0
230
1.0
 70
     8
 71
     3
 72
    33
 73
    29
 74
     0
 42
0.00000001
 43
0.00000001
 40
0.0
 40
0.0
 40
0.0
 40
0.0
 40
0.0385890799333255
 40
0.0771272753249305
 40
0.1156179710103235
 40
0.1540641147783707
 40
0.1924681538170717
 40
0.2308320542104272
 40
0.2691578527467189
 40
0.307447855983507
 40
0.3457047940199453
 40
0.3839319849167183
 40
0.4221335137460672
 40
0.4603144290348439
 40
0.4984809584716212
 40
0.5366407451111516
 40
0.5748031048649068
 40
0.6129793057443568
 40
0.6511828690235709
 40
0.6894298920610225
 40
0.7277393917428042
 40
0.7661336660016604
 40
0.8046386678886556
 40
0.8432843806552724
 40
0.8821051700235317
 40
0.9211394492919948
 40
0.9604251907581273
 40
1.0
 40
1.0
 40
1.0
 40
1.0
 10
491.1902705679204
 20
473.268983980631
 30
0.0
 10
491.4233620003031
 20
473.3714570458777
 30
0.0
 10
491.8892375047808
 20
473.5762680527825
 30
0.0
 10
492.5826118098942
 20
473.8944707733849
 30
0.0
 10
493.2710911686132
 20
474.220905252891
 30
0.0
 10
493.9540728103806
 20
474.5567089682481
 30
0.0
 10
494.6313410543846
 20
474.9020543646271
 30
0.0
 10
495.3025021024827
 20
475.2574382524109
 30
0.0
 10
495.9671646610934
 20
475.623280732464
 30
0.0
 10
496.6248995651604
 20
476.000025850931
 30
0.0
 10
497.2752517234362
 20
476.3881159798901
 30
0.0
 10
497.9177367304748
 20
476.7880000342753
 30
0.0
 10
498.5518412644608
 20
477.2001328879164
 30
0.0
 10
499.1770223431121
 20
477.6249772942246
 30
0.0
 10
499.7927068231429
 20
478.0630051994083
 30
0.0
 10
500.3982908035416
 20
478.514699239156
 30
0.0
 10
500.993139042397
 20
478.98055418936
 30
0.0
 10
501.576584314865
 20
479.4610784629605
 30
0.0
 10
502.1479268510876
 20
479.9567955607677
 30
0.0
 10
502.7064333049586
 20
480.4682458184092
 30
0.0
 10
503.2513372764889
 20
480.9959871765551
 30
0.0
 10
503.7818338851719
 20
481.5405995749161
 30
0.0
 10
504.2970967208382
 20
482.1026752916075
 30
0.0
 10
504.7962115785317
 20
482.6828604448008
 30
0.0
 10
505.2784218769679
 20
483.281697576735
 30
0.0
 10
505.7421801785794
 20
483.9001708025423
 30
0.0
 10
506.1886435343439
 20
484.5374940589841
 30
0.0
 10
506.4674293626741
 20
484.9769137243338
 30
0.0
 10
506.6073332293914
 20
485.1974289157345
 30
0.0
  0
SPLINE
  5
D1
330
1F
100
AcDbEntity
  8
0
  6
Continuous
 62
     7
370
    15
100
AcDbSpline
210
0.0
220
0.0
230
1.0
 70
     8
 71
     3
 72
    27
 73
    23
 74
     0
 42
0.00000001
 43
0.00000001
 40
0.0
 40
0.0
 40
0.0
 40
0.0
 40
0.0501437675258894
 40
0.1006494876887187
 40
0.149856787595746
 40
0.1994054006319558
 40
0.2500298427120252
 40
0.3010259469181777
 40
0.350271506356334
 40
0.3998593119469527
 40
0.4505262229389742
 40
0.5015665002437932
 40
0.5507852738165957
 40
0.6003460464581187
 40
0.650985675998338
 40
0.7019984771816727
 40
0.7511979634346715
 40
0.8007385084513414
 40
0.8513540350561211
 40
0.9023410516335573
 40
0.9515907270868834
 40
1.0
 40
1.0
 40
1.0
 40
1.0
 10
491.1902742820724
 20
473.2689848543338
 30
0.0
 10
491.1844953279947
 20
473.2662514275302
 30
0.0
 10
491.1728957056289
 20
473.2607648432347
 30
0.0
 10
491.0773629376263
 20
473.2246009123628
 30
0.0
 10
490.9262960002469
 20
473.169068985943
 30
0.0
 10
490.7149724710089
 20
473.093176738797
 30
0.0
 10
490.4421871957069
 20
472.9973134750701
 30
0.0
 10
490.111585850713
 20
472.8837467171048
 30
0.0
 10
489.7283501754437
 20
472.7550676498701
 30
0.0
 10
489.2942813290634
 20
472.6126148840228
 30
0.0
 10
488.8048761697067
 20
472.4556514671422
 30
0.0
 10
488.2693343974868
 20
472.2877001475495
 30
0.0
 10
487.6952057499112
 20
472.1113508776779
 30
0.0
 10
487.0847650682299
 20
471.9272101411815
 30
0.0
 10
486.4325505024795
 20
471.733482169886
 30
0.0
 10
485.7519030518042
 20
471.5337351817043
 30
0.0
 10
485.0519800992483
 20
471.329923775664
 30
0.0
 10
484.3350737242588
 20
471.1219354982698
 30
0.0
 10
483.5955199945866
 20
470.9072835788112
 30
0.0
 10
482.8489514404003
 20
470.6895398273271
 30
0.0
 10
482.1099460792108
 20
470.4724540099303
 30
0.0
 10
481.6274383865814
 20
470.3285929139277
 30
0.0
 10
481.388260646437
 20
470.2572813631229
 30
0.0
  0
SPLINE
  5
D2
330
1F
100
AcDbEntity
  8
0
  6
Continuous
 62
     7
370
    15
100
AcDbSpline
210
0.0
220
0.0
230
1.0
 70
     8
 71
     3
 72
    20
 73
    16
 74
     0
 42
0.00000001
 43
0.00000001
 40
0.0
 40
0.0
 40
0.0
 40
0.0
 40
0.0531081461425547
 40
0.1251064745640546
 40
0.197633801119638
 40
0.2676100087444193
 40
0.4099340605990773
 40
0.4824506992627539
 40
0.5525180974540973
 40
0.6230720436363846
 40
0.6951620864833549
 40
0.7677832785317432
 40
0.8251697742683844
 40
0.9412359374622004
 40
1.0
 40
1.0
 40
1.0
 40
1.0
 10
479.0351959305747
 20
469.534858167284
 30
0.0
 10
478.8650259340793
 20
469.4810952882486
 30
0.0
 10
478.4641577079323
 20
469.3544464641594
 30
0.0
 10
477.8631282830107
 20
469.1602410428735
 30
0.0
 10
477.241070400726
 20
468.956254755344
 30
0.0
 10
476.4659133519086
 20
468.6978918847969
 30
0.0
 10
475.7706040324084
 20
468.4610295572145
 30
0.0
 10
475.1732592648908
 20
468.2544788206737
 30
0.0
 10
474.7770501269735
 20
468.1164473432829
 30
0.0
 10
474.4343484723882
 20
467.9964224962994
 30
0.0
 10
474.1439304785766
 20
467.8945356334664
 30
0.0
 10
473.926594843795
 20
467.8184455108869
 30
0.0
 10
473.7255022231462
 20
467.7485256776159
 30
0.0
 10
473.6101700683333
 20
467.7093919191648
 30
0.0
 10
473.5971530591184
 20
467.7064026570023
 30
0.0
 10
473.5927777725204
 20
467.7053979040317
 30
0.0
  0
SPLINE
  5
D3
330
1F
100
AcDbEntity
  8
0
  6
Continuous
 62
     7
370
    15
100
AcDbSpline
210
0.0
220
0.0
230
1.0
 70
     8
 71
     3
 72
    22
 73
    18
 74
     0
 42
0.00000001
 43
0.00000001
 40
0.0
 40
0.0
 40
0.0
 40
0.0
 40
0.0280313069003379
 40
0.0560400140193432
 40
0.0840192391163081
 40
0.111971096894449
 40
0.1399856213122437
 40
0.167997658556804
 40
0.1958634663340958
 40
0.3131448258104683
 40
0.430050791864893
 40
0.5468961219805465
 40
0.6641882743176255
 40
0.7832760958110143
 40
0.9027090885511193
 40
0.9513486635181369
 40
1.0
 40
1.0
 40
1.0
 40
1.0
 10
352.6595175469828
 20
486.5121584943746
 30
0.0
 10
352.6728320208571
 20
485.8756627027317
 30
0.0
 10
352.6994502340297
 20
484.603184283736
 30
0.0
 10
352.7247962934093
 20
482.6951278375976
 30
0.0
 10
352.7350963027437
 20
480.7887300894458
 30
0.0
 10
352.7244160721477
 20
478.882180621637
 30
0.0
 10
352.6893837459691
 20
476.9751727962146
 30
0.0
 10
352.6274639061284
 20
475.0707697999366
 30
0.0
 10
352.4405102929766
 20
471.1424953420216
 30
0.0
 10
351.9119902705492
 20
465.2084881348313
 30
0.0
 10
350.5831612743827
 20
457.3386193041724
 30
0.0
 10
348.6166486387209
 20
449.6038584364866
 30
0.0
 10
346.101345133526
 20
441.9811570080058
 30
0.0
 10
343.1978812316557
 20
434.4378488493738
 30
0.0
 10
340.6975789314254
 20
428.4140618387961
 30
0.0
 10
338.7823624307054
 20
423.8798375412143
 30
0.0
 10
337.9186619331181
 20
421.8460074736786
 30
0.0
 10
337.4867594778743
 20
420.8289695048792
 30
0.0
  0
SPLINE
  5
D4
330
1F
100
AcDbEntity
  8
0
  6
Continuous
 62
     7
370
    15
100
AcDbSpline
210
0.0
220
0.0
230
1.0
 70
    24
 71
     3
 72
    38
 73
    34
 74
     0
 42
0.00000001
 43
0.00000001
 40
0.0
 40
0.0
 40
0.0
 40
0.0
 40
0.0161630190606144
 40
0.0321210832289669
 40
0.0478774203147555
 40
0.0634353836851003
 40
0.0787984566074441
 40
0.0939702565835104
 40
0.1089545396468589
 40
0.1237552045928537
 40
0.1383762971059631
 40
0.1528220137452468
 40
0.1670967057447366
 40
0.1812048825812522
 40
0.1951512152580798
 40
0.2089405392490288
 40
0.2225778570437507
 40
0.2360683402320349
 40
0.2494173310622353
 40
0.313197544832074
 40
0.3744885413621675
 40
0.4371626628174828
 40
0.4991721409798174
 40
0.560614113785744
 40
0.6235310643039296
 40
0.6841449530186149
 40
0.7479027708084703
 40
0.808738005675096
 40
0.8736881553578006
 40
0.9030887241367896
 40
0.933930152177858
 40
0.9662290816399453
 40
1.0
 40
1.0
 40
1.0
 40
1.0
 10
353.1054107698411
 20
487.1068645540152
 30
0.0
 10
353.106470153565
 20
487.1071484150285
 30
0.0
 10
353.1085754875154
 20
487.1077125375604
 30
0.0
 10
353.1252796022322
 20
487.1121883916089
 30
0.0
 10
353.1519436355036
 20
487.119332997791
 30
0.0
 10
353.1895051896846
 20
487.1293975859002
 30
0.0
 10
353.2377180596833
 20
487.1423161854812
 30
0.0
 10
353.2966472754243
 20
487.1581062212496
 30
0.0
 10
353.366276062749
 20
487.1767631985832
 30
0.0
 10
353.4466091819722
 20
487.1982883930045
 30
0.0
 10
353.5376457533519
 20
487.2226815687874
 30
0.0
 10
353.6393864105178
 20
487.2499428957124
 30
0.0
 10
353.7518313923642
 20
487.2800724377911
 30
0.0
 10
353.8749811397133
 20
487.3130703131414
 30
0.0
 10
354.008835786288
 20
487.3489365575942
 30
0.0
 10
354.1533965770671
 20
487.3876715047407
 30
0.0
 10
354.3086607721173
 20
487.4292744204178
 30
0.0
 10
354.4746403135087
 20
487.4737485044938
 30
0.0
 10
354.874321757728
 20
487.580842824702
 30
0.0
 10
355.6128568380238
 20
487.7787327030493
 30
0.0
 10
356.9241333548449
 20
488.1300881867854
 30
0.0
 10
358.5427608510545
 20
488.5637981172416
 30
0.0
 10
360.4764386346251
 20
489.0819255177714
 30
0.0
 10
362.6923762818008
 20
489.6756842208099
 30
0.0
 10
365.1228909702376
 20
490.3269386687685
 30
0.0
 10
367.7614151796525
 20
491.0339290998912
 30
0.0
 10
370.4978358273543
 20
491.7671508025946
 30
0.0
 10
373.3867002228827
 20
492.5412196844196
 30
0.0
 10
375.8002027769096
 20
493.1879157447015
 30
0.0
 10
377.7652473492436
 20
493.7144478509496
 30
0.0
 10
379.2247582151196
 20
494.1055226088055
 30
0.0
 10
380.7586243945181
 20
494.5165208128727
 30
0.0
 10
381.8081101328607
 20
494.7977296689296
 30
0.0
 10
382.3445438973975
 20
494.9414666629301
 30
0.0
  0
SPLINE
  5
D5
330
1F
100
AcDbEntity
  8
0
  6
Continuous
 62
     7
370
    15
100
AcDbSpline
210
0.0
220
0.0
230
1.0
 70
     8
 71
     3
 72
    10
 73
     6
 74
     0
 42
0.00000001
 43
0.00000001
 40
0.0
 40
0.0
 40
0.0
 40
0.0
 40
0.5
 40
0.5
 40
1.0
 40
1.0
 40
1.0
 40
1.0
 10
353.1054107698411
 20
487.1068645540151
 30
0.0
 10
352.9857485318018
 20
487.0748011539679
 30
0.0
 10
352.862870961148
 20
486.9975414774812
 30
0.0
 10
352.6964792462925
 20
486.7756180292095
 30
0.0
 10
352.6567566412843
 20
486.6360111886113
 30
0.0
 10
352.6595175470451
 20
486.5121584915782
 30
0.0
  0
SPLINE
  5
D6
330
1F
100
AcDbEntity
  8
0
  6
Continuous
 62
     7
370
    15
100
AcDbSpline
210
0.0
220
0.0
230
1.0
 70
    24
 71
     3
 72
    19
 73
    15
 74
     0
 42
0.00000001
 43
0.00000001
 40
0.0
 40
0.0
 40
0.0
 40
0.0
 40
0.0546606797115482
 40
0.1116051013062486
 40
0.171438317562101
 40
0.2346825248606296
 40
0.30178032749719
 40
0.3731026231208447
 40
0.4489583675304578
 40
0.5296044302947435
 40
0.6457455475092124
 40
0.7711430906248216
 40
0.8980885851458198
 40
1.0
 40
1.0
 40
1.0
 40
1.0
 10
382.3445438973976
 20
494.9414666629301
 30
0.0
 10
382.3714991570013
 20
494.9486893029726
 30
0.0
 10
382.4265358761691
 20
494.9634363474277
 30
0.0
 10
382.5114994642277
 20
494.986202272234
 30
0.0
 10
382.5998042861445
 20
495.0098634779545
 30
0.0
 10
382.6915704931166
 20
495.0344521590051
 30
0.0
 10
382.7867754314707
 20
495.0599622453526
 30
0.0
 10
382.88544137975
 20
495.0863997065144
 30
0.0
 10
382.9875833983639
 20
495.1137685779153
 30
0.0
 10
383.1064926297659
 20
495.1456302104421
 30
0.0
 10
383.2425978679963
 20
495.1820994991116
 30
0.0
 10
383.3923969354205
 20
495.2222380382548
 30
0.0
 10
383.5328762669843
 20
495.2598793617006
 30
0.0
 10
383.6129826719163
 20
495.2813438082106
 30
0.0
 10
383.6486545556614
 20
495.2909020606527
 30
0.0
  0
SPLINE
  5
D7
330
1F
100
AcDbEntity
  8
0
  6
Continuous
 62
     7
370
    15
100
AcDbSpline
210
0.0
220
0.0
230
1.0
 70
    24
 71
     3
 72
    14
 73
    10
 74
     0
 42
0.00000001
 43
0.00000001
 40
0.0
 40
0.0
 40
0.0
 40
0.0
 40
0.25
 40
0.25
 40
0.5
 40
0.5
 40
0.75
 40
0.75
 40
1.0
 40
1.0
 40
1.0
 40
1.0
 10
381.9037426992347
 20
496.1606306634426
 30
0.0
 10
381.8246460158534
 20
496.1394367710066
 30
0.0
 10
381.7312827403018
 20
496.1144201567199
 30
0.0
 10
381.5242643550823
 20
496.0589497475818
 30
0.0
 10
381.4153425997254
 20
496.0297642511958
 30
0.0
 10
381.1891447453005
 20
495.969154718773
 30
0.0
 10
381.0704059192452
 20
495.9373387462213
 30
0.0
 10
380.8337181947311
 20
495.8739184615794
 30
0.0
 10
380.7153914175069
 20
495.8422128971793
 30
0.0
 10
380.5970822581662
 20
495.8105120534767
 30
0.0
  0
SPLINE
  5
D8
330
1F
100
AcDbEntity
  8
0
  6
Continuous
 62
     7
370
    15
100
AcDbSpline
210
0.0
220
0.0
230
1.0
 70
    24
 71
     3
 72
     8
 73
     4
 74
     0
 42
0.00000001
 43
0.00000001
 40
0.0
 40
0.0
 40
0.0
 40
0.0
 40
0.0002926519410579
 40
0.0002926519410579
 40
0.0002926519410579
 40
0.0002926519410579
 10
380.5970822581662
 20
495.8105120534767
 30
0.0
 10
380.5038352837423
 20
495.7855266019831
 30
0.0
 10
380.4106127468395
 20
495.7605476985036
 30
0.0
 10
380.3174160626564
 20
495.7355757222394
 30
0.0
  0
SPLINE
  5
D9
330
1F
100
AcDbEntity
  8
0
  6
Continuous
 62
     7
370
    15
100
AcDbSpline
210
0.0
220
0.0
230
1.0
 70
     8
 71
     3
 72
    18
 73
    14
 74
     0
 42
0.00000001
 43
0.00000001
 40
0.0
 40
0.0
 40
0.0
 40
0.0
 40
0.0652478764450961
 40
0.1848707970792655
 40
0.2855137291127091
 40
0.386705722033615
 40
0.4886922588545776
 40
0.5913789017081016
 40
0.6918308732065236
 40
0.7933015310767957
 40
0.8444348430491554
 40
0.9220563912162759
 40
1.0
 40
1.0
 40
1.0
 40
1.0
 10
392.0593350554748
 20
498.8818159700565
 30
0.0
 10
392.0535239483004
 20
498.8802583254254
 30
0.0
 10
392.0370589830974
 20
498.8758449556697
 30
0.0
 10
391.8420915070084
 20
498.8235982557716
 30
0.0
 10
391.4274340756983
 20
498.7124977542612
 30
0.0
 10
390.8288626441451
 20
498.5521036158988
 30
0.0
 10
389.9971822285792
 20
498.3292680223437
 30
0.0
 10
388.9153710788509
 20
498.0393897600548
 30
0.0
 10
387.5719014249288
 20
497.6794117835482
 30
0.0
 10
386.2362364785643
 20
497.3215151294651
 30
0.0
 10
384.8752321818615
 20
496.9568390015737
 30
0.0
 10
383.5555933889183
 20
496.6032376371693
 30
0.0
 10
382.4551188705135
 20
496.3083713412495
 30
0.0
 10
381.9037424760803
 20
496.1606329680614
 30
0.0
  0
SPLINE
  5
DA
330
1F
100
AcDbEntity
  8
0
  6
Continuous
 62
     7
370
    15
100
AcDbSpline
210
0.0
220
0.0
230
1.0
 70
    24
 71
     3
 72
    30
 73
    26
 74
     0
 42
0.00000001
 43
0.00000001
 40
0.0
 40
0.0
 40
0.0
 40
0.0
 40
0.0195954586535182
 40
0.0390945160368321
 40
0.0585019187892352
 40
0.0778224811027489
 40
0.0970610823613359
 40
0.1162226645617602
 40
0.1353122295180523
 40
0.1543348358530829
 40
0.1732955957823358
 40
0.1921996716965969
 40
0.2110522725519084
 40
0.2298586500767646
 40
0.2486240948081131
 40
0.3725809766858093
 40
0.4989017991482059
 40
0.6211607614881135
 40
0.7489343600064371
 40
0.7893802603966474
 40
0.8303566133910474
 40
0.871885746592774
 40
0.913989108188614
 40
0.9566872810332642
 40
1.0
 40
1.0
 40
1.0
 40
1.0
 10
383.6486545556612
 20
495.2909020606526
 30
0.0
 10
383.7929417356345
 20
495.3295636940046
 30
0.0
 10
384.0808062644068
 20
495.4066967620188
 30
0.0
 10
384.5020432469757
 20
495.5195668713201
 30
0.0
 10
384.9141277855408
 20
495.6299845906421
 30
0.0
 10
385.3163929626596
 20
495.7377712199942
 30
0.0
 10
385.7090160664228
 20
495.8429742635774
 30
0.0
 10
386.0919497350984
 20
495.9455810308537
 30
0.0
 10
386.4652063942074
 20
496.0455948512315
 30
0.0
 10
386.8287826007071
 20
496.1430148021502
 30
0.0
 10
387.1826789446647
 20
496.237841041718
 30
0.0
 10
387.5268956685021
 20
496.3300736348916
 30
0.0
 10
387.8614304158946
 20
496.4197119502955
 30
0.0
 10
388.186291544711
 20
496.5067582274141
 30
0.0
 10
389.090469187421
 20
496.7490318965926
 30
0.0
 10
390.4326398527685
 20
497.1086654424771
 30
0.0
 10
391.8833685798874
 20
497.4973870333453
 30
0.0
 10
392.9547409190293
 20
497.7844603864115
 30
0.0
 10
393.504536654755
 20
497.9317777098012
 30
0.0
 10
393.782586779147
 20
498.0062810160874
 30
0.0
 10
393.9141413886382
 20
498.0415309674611
 30
0.0
 10
394.0159763883915
 20
498.0688175734062
 30
0.0
 10
394.0874530663211
 20
498.0879696915351
 30
0.0
 10
394.1311583306869
 20
498.099680481827
 30
0.0
 10
394.1351555220079
 20
498.1007515260134
 30
0.0
 10
394.1371683975949
 20
498.1012908744014
 30
0.0
  0
SPLINE
  5
DB
330
1F
100
AcDbEntity
  8
0
  6
Continuous
 62
     7
370
    15
100
AcDbSpline
210
0.0
220
0.0
230
1.0
 70
     8
 71
     3
 72
    12
 73
     8
 74
     0
 42
0.00000001
 43
0.00000001
 40
0.0
 40
0.0
 40
0.0
 40
0.0
 40
0.2499999999999913
 40
0.2499999999999913
 40
0.4999999999999827
 40
0.4999999999999827
 40
1.0
 40
1.0
 40
1.0
 40
1.0
 10
505.7622224717415
 20
487.5613711854641
 30
0.0
 10
505.8972603546314
 20
487.5152215728039
 30
0.0
 10
506.0232357067657
 20
487.4524037108982
 30
0.0
 10
506.2575840046853
 20
487.2943927815013
 30
0.0
 10
506.3649471906438
 20
487.1990791144589
 30
0.0
 10
506.6411125984131
 20
486.8797977789048
 30
0.0
 10
506.769330513679
 20
486.6136160339021
 30
0.0
 10
506.8209166752112
 20
486.3366465587391
 30
0.0
  0
SPLINE
  5
DC
330
1F
100
AcDbEntity
  8
0
  6
Continuous
 62
     7
370
    15
100
AcDbSpline
210
0.0
220
0.0
230
1.0
 70
     8
 71
     3
 72
    10
 73
     6
 74
     0
 42
0.00000001
 43
0.00000001
 40
0.0
 40
0.0
 40
0.0
 40
0.0
 40
0.5
 40
0.5
 40
1.0
 40
1.0
 40
1.0
 40
1.0
 10
506.6073331971529
 20
485.1974289908611
 30
0.0
 10
506.7124216944046
 20
485.366998914668
 30
0.0
 10
506.7840363901839
 20
485.5520788733249
 30
0.0
 10
506.8571833937071
 20
485.9425510430899
 30
0.0
 10
506.8569736272601
 20
486.1430544233634
 30
0.0
 10
506.8209166756444
 20
486.3366465564126
 30
0.0
  0
SPLINE
  5
DD
330
1F
100
AcDbEntity
  8
0
  6
Continuous
 62
     7
370
    15
100
AcDbSpline
210
0.0
220
0.0
230
1.0
 70
    24
 71
     3
 72
    30
 73
    26
 74
     0
 42
0.00000001
 43
0.00000001
 40
0.0
 40
0.0
 40
0.0
 40
0.0
 40
0.1250000000000004
 40
0.1250000000000004
 40
0.1875000000000007
 40
0.1875000000000007
 40
0.2500000000000009
 40
0.2500000000000009
 40
0.3125000000000011
 40
0.3125000000000011
 40
0.3437500000000012
 40
0.3437500000000012
 40
0.3750000000000012
 40
0.3750000000000012
 40
0.500000000000001
 40
0.500000000000001
 40
0.5625000000000009
 40
0.5625000000000009
 40
0.6250000000000008
 40
0.6250000000000008
 40
0.7500000000000004
 40
0.7500000000000004
 40
0.8750000000000002
 40
0.8750000000000002
 40
1.0
 40
1.0
 40
1.0
 40
1.0
 10
366.5626198621389
 20
495.2552476547616
 30
0.0
 10
365.2715519258532
 20
495.5062058393437
 30
0.0
 10
364.0326136513729
 20
495.7470310441482
 30
0.0
 10
362.2757816727645
 20
496.0885245872655
 30
0.0
 10
361.7103914886039
 20
496.1984253060501
 30
0.0
 10
360.6376561132245
 20
496.4069439399468
 30
0.0
 10
360.127978327658
 20
496.5060152654693
 30
0.0
 10
359.1631094397197
 20
496.6935667781909
 30
0.0
 10
358.7079199860272
 20
496.7820466449192
 30
0.0
 10
358.0662537411174
 20
496.9067739279724
 30
0.0
 10
357.8592117792809
 20
496.9470188085201
 30
0.0
 10
357.4587875525688
 20
497.0248533934974
 30
0.0
 10
357.2649821111599
 20
497.0625253551124
 30
0.0
 10
356.3404829524002
 20
497.2422297873961
 30
0.0
 10
355.7347084706172
 20
497.3599804184371
 30
0.0
 10
354.9797663827101
 20
497.5067262948708
 30
0.0
 10
354.7538431552836
 20
497.5506413216611
 30
0.0
 10
354.3467689706066
 20
497.6297685275234
 30
0.0
 10
354.1660624044353
 20
497.6648943257202
 30
0.0
 10
353.6868294321143
 20
497.7580477790323
 30
0.0
 10
353.4475292503046
 20
497.804563022351
 30
0.0
 10
353.0828641978375
 20
497.8754467279838
 30
0.0
 10
352.9578795877648
 20
497.8997412751278
 30
0.0
 10
352.7967397246891
 20
497.931063691528
 30
0.0
 10
352.760837665869
 20
497.9380423448205
 30
0.0
 10
352.7625963100107
 20
497.9377004990286
 30
0.0
  0
LINE
  5
DE
330
1F
100
AcDbEntity
  8
0
  6
Continuous
 62
     7
370
    15
100
AcDbLine
 10
370.135341807
 20
371.8163734676
 30
0.0
 11
383.0911512847
 21
398.3797198535
 31
0.0
  0
LINE
  5
DF
330
1F
100
AcDbEntity
  8
0
  6
Continuous
 62
     7
370
    15
100
AcDbLine
 10
330.0806852418
 20
403.3808363975
 30
0.0
 11
316.8235617119
 21
372.1490092949
 31
0.0
  0
SPLINE
  5
E0
330
1F
100
AcDbEntity
  8
0
  6
Continuous
 62
     7
370
    15
100
AcDbSpline
210
0.0
220
0.0
230
1.0
 70
     8
 71
     3
 72
    16
 73
    12
 74
     0
 42
0.00000001
 43
0.00000001
 40
0.0
 40
0.0
 40
0.0
 40
0.0
 40
0.0225041372726217
 40
0.1233378856042438
 40
0.2252139902261559
 40
0.3626082197693677
 40
0.5036515050412187
 40
0.641229165462412
 40
0.7841996816395379
 40
0.8905687978735907
 40
1.0
 40
1.0
 40
1.0
 40
1.0
 10
330.7755114871009
 20
404.8351953179769
 30
0.0
 10
330.7676061117826
 20
404.8175430517683
 30
0.0
 10
330.72427931081
 20
404.7207966995791
 30
0.0
 10
330.6464417808451
 20
404.5511843431178
 30
0.0
 10
330.5318563962238
 20
404.3044908555096
 30
0.0
 10
330.410564383014
 20
404.0491009590615
 30
0.0
 10
330.2917238200757
 20
403.8040439565098
 30
0.0
 10
330.1915167690112
 20
403.601226575099
 30
0.0
 10
330.1251416501604
 20
403.4688009642989
 30
0.0
 10
330.0872642852953
 20
403.3938086388878
 30
0.0
 10
330.0828989037352
 20
403.3852011896086
 30
0.0
 10
330.080685241793
 20
403.3808363975219
 30
0.0
  0
LINE
  5
E1
330
1F
100
AcDbEntity
  8
0
  6
Continuous
 62
     7
370
    15
100
AcDbLine
 10
337.4869609612
 20
420.8289301397
 30
0.0
 11
335.3346260625
 21
415.7583406569
 31
0.0
  0
LINE
  5
E2
330
1F
100
AcDbEntity
  8
0
  6
Continuous
 62
     7
370
    15
100
AcDbLine
 10
369.7747467446
 20
371.5910478869
 30
0.0
 11
317.1928646403
 21
371.5910478869
 31
0.0
  0
ARC
  5
E3
330
1F
100
AcDbEntity
  8
0
  6
Continuous
 62
     7
370
    15
100
AcDbCircle
 10
317.1928675464
 20
371.9922478556
 30
0.0
 40
0.4012000000000586
100
AcDbArc
 50
156.9999999998
 51
270.0
  0
ARC
  5
E4
330
1F
100
AcDbEntity
  8
0
  6
Continuous
 62
     7
370
    15
100
AcDbCircle
 10
369.7747458867
 20
371.9922478556
 30
0.0
 40
0.4011999999999603
100
AcDbArc
 50
270.0
 51
334.0000000001
  0
LINE
  5
E5
330
1F
100
AcDbEntity
  8
0
  6
Continuous
 62
     7
370
    15
100
AcDbLine
 10
383.0911512847
 20
398.3797198535
 30
0.0
 11
383.0682966287
 21
398.3909720929
 31
0.0
  0
SPLINE
  5
E6
330
1F
100
AcDbEntity
  8
0
  6
Continuous
 62
     7
370
    15
100
AcDbSpline
210
0.0
220
0.0
230
1.0
 70
     8
 71
     3
 72
    28
 73
    24
 74
     0
 42
0.00000001
 43
0.00000001
 40
0.0
 40
0.0
 40
0.0
 40
0.0
 40
0.1249999999999989
 40
0.1249999999999989
 40
0.2499999999999977
 40
0.2499999999999977
 40
0.3124999999999977
 40
0.3124999999999977
 40
0.3749999999999977
 40
0.3749999999999977
 40
0.4999999999999974
 40
0.4999999999999974
 40
0.5624999999999977
 40
0.5624999999999977
 40
0.6249999999999979
 40
0.6249999999999979
 40
0.7499999999999986
 40
0.7499999999999986
 40
0.8749999999999993
 40
0.8749999999999993
 40
0.9374999999999997
 40
0.9374999999999997
 40
1.0
 40
1.0
 40
1.0
 40
1.0
 10
336.0502114905097
 20
413.3307889875243
 30
0.0
 10
335.7458794777847
 20
412.68342489762
 30
0.0
 10
335.4320295312496
 20
412.0512638942291
 30
0.0
 10
334.7864426899844
 20
410.8183449076959
 30
0.0
 10
334.4547092151789
 20
410.2175315765705
 30
0.0
 10
333.9450714219954
 20
409.3419661142867
 30
0.0
 10
333.7731904582108
 20
409.0544057703503
 30
0.0
 10
333.4257352873315
 20
408.4885864228395
 30
0.0
 10
333.2493279418788
 20
408.2090639127131
 30
0.0
 10
332.7224386878955
 20
407.3971405406652
 30
0.0
 10
332.3745000228055
 20
406.8914720634926
 30
0.0
 10
331.8671614645713
 20
406.1945610378103
 30
0.0
 10
331.6995719941687
 20
405.9713558933024
 30
0.0
 10
331.3765089973243
 20
405.5538683335872
 30
0.0
 10
331.2220243729896
 20
405.3607717035356
 30
0.0
 10
330.7833070168176
 20
404.8289473524209
 30
0.0
 10
330.5229473707618
 20
404.5370497065528
 30
0.0
 10
330.0949078655399
 20
404.0873776161516
 30
0.0
 10
329.93702390177
 20
403.939348392328
 30
0.0
 10
329.7808812879434
 20
403.801064070239
 30
0.0
 10
329.7422219440738
 20
403.768888573428
 30
0.0
 10
329.6915361340894
 20
403.7278165778775
 30
0.0
 10
329.6793006420433
 20
403.7187251258763
 30
0.0
 10
329.6791503237398
 20
403.7183709981454
 30
0.0
  0
SPLINE
  5
E7
330
1F
100
AcDbEntity
  8
0
  6
Continuous
 62
     7
370
    15
100
AcDbSpline
210
0.0
220
0.0
230
1.0
 70
     8
 71
     3
 72
    15
 73
    11
 74
     0
 42
0.00000001
 43
0.00000001
 40
0.0
 40
0.0
 40
0.0
 40
0.0
 40
0.0812416309864465
 40
0.2440853086356858
 40
0.3257148560361591
 40
0.4223738416058
 40
0.6168012520794067
 40
0.8131376507748715
 40
0.912994528241388
 40
1.0
 40
1.0
 40
1.0
 40
1.0
 10
335.0101458269103
 20
416.2774151564769
 30
0.0
 10
335.0115336159708
 20
416.2752928013683
 30
0.0
 10
335.0157031398593
 20
416.268916320549
 30
0.0
 10
335.0542666600879
 20
416.2102911161464
 30
0.0
 10
335.1209255514677
 20
416.1065192641428
 30
0.0
 10
335.2160888950688
 20
415.9556267468278
 30
0.0
 10
335.3846905341566
 20
415.6799111580381
 30
0.0
 10
335.6128949832753
 20
415.2853318293842
 30
0.0
 10
335.8145133748718
 20
414.926164396036
 30
0.0
 10
335.9323084744434
 20
414.7104639516308
 30
0.0
 10
335.9871553617461
 20
414.6100310982399
 30
0.0
  0
LINE
  5
E8
330
1F
100
AcDbEntity
  8
0
  6
Continuous
 62
     7
370
    15
100
AcDbLine
 10
317.0033367711
 20
414.6109363438
 30
0.0
 11
316.9814469653
 21
414.6109549702
 31
0.0
  0
SPLINE
  5
E9
330
1F
100
AcDbEntity
  8
0
  6
Continuous
 62
     7
370
    15
100
AcDbSpline
210
0.0
220
0.0
230
1.0
 70
     8
 71
     3
 72
     9
 73
     5
 74
     0
 42
0.00000001
 43
0.00000001
 40
0.0
 40
0.0
 40
0.0
 40
0.0
 40
0.964485694731708
 40
1.0
 40
1.0
 40
1.0
 40
1.0
 10
316.4195614295944
 20
412.9526643456153
 30
0.0
 10
316.6374627428228
 20
412.5207437273428
 30
0.0
 10
316.8633876211477
 20
412.0729189222349
 30
0.0
 10
317.1953433259374
 20
411.7041683545288
 30
0.0
 10
317.2071325021728
 20
411.6910724342994
 30
0.0
  0
LINE
  5
EA
330
1F
100
AcDbEntity
  8
0
  6
Continuous
 62
     7
370
    15
100
AcDbLine
 10
328.570839985
 20
403.8885692508
 30
0.0
 11
329.2896012205
 21
403.5568917544
 31
0.0
  0
LINE
  5
EB
330
1F
100
AcDbEntity
  8
0
  6
Continuous
 62
     7
370
    15
100
AcDbLine
 10
316.9814469653
 20
414.6109549702
 30
0.0
 11
316.9823484856
 21
414.6104855837
 31
0.0
  0
LWPOLYLINE
  5
EC
330
1F
100
AcDbEntity
  8
0
  6
Continuous
 62
     7
370
    15
100
AcDbPolyline
 90
       20
 70
   128
 43
0.0
 10
491.3121881324
 20
472.8702148796
 10
491.1781223851
 20
472.8292292358
 10
490.7800080615
 20
472.7075165511
 10
490.1299374538
 20
472.5087723137
 10
489.2476695019
 20
472.2390314938
 10
488.160003944
 20
471.9064971806
 10
486.8999841052
 20
471.5212723614
 10
485.5059059697
 20
471.0950618983
 10
484.0201260882
 20
470.6408149005
 10
482.4877875286
 20
470.1723298432
 10
480.955448969
 20
469.7038447858
 10
479.4696690875
 20
469.249597788
 10
478.075590952
 20
468.8233873249
 10
476.8155711132
 20
468.4381625057
 10
475.7279055553
 20
468.1056281925
 10
474.8456376034
 20
467.8358873726
 10
474.1955669957
 20
467.6371431352
 10
473.7974526721
 20
467.5154304506
 10
473.6633869248
 20
467.4744373561
 10
473.6633869248
 20
467.4744373561
  0
SPLINE
  5
ED
330
1F
100
AcDbEntity
  8
0
  6
Continuous
 62
     7
370
    15
100
AcDbSpline
210
0.0
220
0.0
230
1.0
 70
     8
 71
     3
 72
     9
 73
     5
 74
     0
 42
0.00000001
 43
0.00000001
 40
0.0
 40
0.0
 40
0.0
 40
0.0
 40
0.4608130007809071
 40
1.0
 40
1.0
 40
1.0
 40
1.0
 10
338.1526628869518
 20
420.5010636151962
 30
0.0
 10
337.9685967843709
 20
420.5916930926209
 30
0.0
 10
337.5691590465707
 20
420.7883660972259
 30
0.0
 10
337.5157554735057
 20
420.8147202974944
 30
0.0
 10
337.4869609611972
 20
420.8289301396541
 30
0.0
  0
SPLINE
  5
EE
330
1F
100
AcDbEntity
  8
0
  6
Continuous
 62
     8
370
     0
100
AcDbSpline
210
0.0
220
0.0
230
1.0
 70
     8
 71
     3
 72
    30
 73
    26
 74
     0
 42
0.00000001
 43
0.00000001
 40
0.0
 40
0.0
 40
0.0
 40
0.0
 40
0.124999999999999
 40
0.124999999999999
 40
0.2499999999999979
 40
0.2499999999999979
 40
0.3124999999999979
 40
0.3124999999999979
 40
0.3749999999999979
 40
0.3749999999999979
 40
0.4999999999999979
 40
0.4999999999999979
 40
0.562499999999998
 40
0.562499999999998
 40
0.6249999999999982
 40
0.6249999999999982
 40
0.6874999999999986
 40
0.6874999999999986
 40
0.7499999999999989
 40
0.7499999999999989
 40
0.8749999999999994
 40
0.8749999999999994
 40
0.9374999999999998
 40
0.9374999999999998
 40
1.0
 40
1.0
 40
1.0
 40
1.0
 10
480.9603365835001
 20
487.4735089301317
 30
0.0
 10
482.7550203137355
 20
487.4745019247366
 30
0.0
 10
484.5468328907041
 20
487.4752138812935
 30
0.0
 10
488.0962904923315
 20
487.4760543349786
 30
0.0
 10
489.8524329319268
 20
487.4765590036547
 30
0.0
 10
492.438204780716
 20
487.4776568346485
 30
0.0
 10
493.2920121527663
 20
487.4780567137524
 30
0.0
 10
494.9761282019932
 20
487.4799402385646
 30
0.0
 10
495.8065517004502
 20
487.4814244406444
 30
0.0
 10
498.2450108065884
 20
487.4870747779715
 30
0.0
 10
499.7244708531641
 20
487.4929027467961
 30
0.0
 10
501.5970129765859
 20
487.5076936356061
 30
0.0
 10
502.1552060896403
 20
487.5136631530626
 30
0.0
 10
503.098646816444
 20
487.5249832018509
 30
0.0
 10
503.4905449470763
 20
487.5301810211541
 30
0.0
 10
504.1519099494371
 20
487.5400376992492
 30
0.0
 10
504.4210799272115
 20
487.5450304143477
 30
0.0
 10
504.8565337113633
 20
487.5529973077566
 30
0.0
 10
505.0251385841605
 20
487.5560069350888
 30
0.0
 10
505.4326654767436
 20
487.5626926475812
 30
0.0
 10
505.5772978970269
 20
487.5650757631587
 30
0.0
 10
505.6996361580655
 20
487.5655683267938
 30
0.0
 10
505.7245150657042
 20
487.5651712641701
 30
0.0
 10
505.7560416415736
 20
487.5634039813077
 30
0.0
 10
505.7628951850113
 20
487.5621464839057
 30
0.0
 10
505.7622225134958
 20
487.5613713076406
 30
0.0
  0
SPLINE
  5
EF
330
1F
100
AcDbEntity
  8
0
  6
Continuous
 62
     8
370
     0
100
AcDbSpline
210
0.0
220
0.0
230
1.0
 70
     8
 71
     3
 72
    26
 73
    22
 74
     0
 42
0.00000001
 43
0.00000001
 40
0.0
 40
0.0
 40
0.0
 40
0.0
 40
0.0625000000000001
 40
0.0625000000000001
 40
0.1250000000000002
 40
0.1250000000000002
 40
0.2500000000000003
 40
0.2500000000000003
 40
0.3125000000000003
 40
0.3125000000000003
 40
0.3750000000000004
 40
0.3750000000000004
 40
0.5000000000000004
 40
0.5000000000000004
 40
0.6250000000000006
 40
0.6250000000000006
 40
0.7500000000000004
 40
0.7500000000000004
 40
0.8750000000000002
 40
0.8750000000000002
 40
1.0
 40
1.0
 40
1.0
 40
1.0
 10
409.7566473537484
 20
488.2608394337456
 30
0.0
 10
411.2415014706719
 20
488.115663681216
 30
0.0
 10
412.7263666705441
 20
487.9983331740436
 30
0.0
 10
415.6964913404324
 20
487.8046962388408
 30
0.0
 10
417.1816880957214
 20
487.728963701953
 30
0.0
 10
421.6374353671879
 20
487.5510631674954
 30
0.0
 10
424.6081507737549
 20
487.4980076656112
 30
0.0
 10
429.0640278441242
 20
487.4620806685837
 30
0.0
 10
430.5492844897706
 20
487.4574852841121
 30
0.0
 10
433.5195747904492
 20
487.453105628766
 30
0.0
 10
435.0045960423957
 20
487.4526062456933
 30
0.0
 10
439.4593511934557
 20
487.4529680472749
 30
0.0
 10
442.4287361185407
 20
487.457107569195
 30
0.0
 10
448.3659470474201
 20
487.4622116103259
 30
0.0
 10
451.333717924969
 20
487.4638458087169
 30
0.0
 10
457.2669739836471
 20
487.4639297839797
 30
0.0
 10
460.2325888629566
 20
487.4629300345042
 30
0.0
 10
466.1616775477412
 20
487.4648749735233
 30
0.0
 10
469.1253170110299
 20
487.4662023982508
 30
0.0
 10
475.0477487941515
 20
487.4696128385411
 30
0.0
 10
478.0066321079578
 20
487.4718746518693
 30
0.0
 10
480.9603365835001
 20
487.4735089301317
 30
0.0
  0
SPLINE
  5
F0
330
1F
100
AcDbEntity
  8
0
  6
Continuous
 62
     8
370
     0
100
AcDbSpline
210
0.0
220
0.0
230
1.0
 70
     8
 71
     3
 72
    16
 73
    12
 74
     0
 42
0.00000001
 43
0.00000001
 40
0.0
 40
0.0
 40
0.0
 40
0.0
 40
0.2500000000000001
 40
0.2500000000000001
 40
0.3750000000000002
 40
0.3750000000000002
 40
0.5000000000000002
 40
0.5000000000000002
 40
0.7500000000000001
 40
0.7500000000000001
 40
1.0
 40
1.0
 40
1.0
 40
1.0
 10
384.3585997726065
 20
495.0515607956148
 30
0.0
 10
386.3039387276741
 20
494.0013636559501
 30
0.0
 10
388.3179056169593
 20
493.1112916699462
 30
0.0
 10
391.418152918195
 20
491.9612863060129
 30
0.0
 10
392.4663129552994
 20
491.6086814592431
 30
0.0
 10
394.576166992481
 20
490.9637471387497
 30
0.0
 10
395.6386736014164
 20
490.6709800605462
 30
0.0
 10
398.8463400020544
 20
489.8716048913076
 30
0.0
 10
401.0146623242204
 20
489.4433514304386
 30
0.0
 10
405.3709403585062
 20
488.7460005298158
 30
0.0
 10
407.5599535873254
 20
488.4757729890271
 30
0.0
 10
409.7566549889958
 20
488.2609708677207
 30
0.0
  0
SPLINE
  5
F1
330
1F
100
AcDbEntity
  8
0
  6
Continuous
 62
     8
370
     0
100
AcDbSpline
210
0.0
220
0.0
230
1.0
 70
     8
 71
     3
 72
     8
 73
     4
 74
     0
 42
0.00000001
 43
0.00000001
 40
0.0
 40
0.0
 40
0.0
 40
0.0
 40
1.0
 40
1.0
 40
1.0
 40
1.0
 10
384.3057078058605
 20
495.080004744559
 30
0.0
 10
384.3233058606123
 20
495.0704720515841
 30
0.0
 10
384.3409132248744
 20
495.0609510347545
 30
0.0
 10
384.3585298931865
 20
495.0514416865293
 30
0.0
  0
SPLINE
  5
F2
330
1F
100
AcDbEntity
  8
0
  6
Continuous
 62
     8
370
     0
100
AcDbSpline
210
0.0
220
0.0
230
1.0
 70
     8
 71
     3
 72
    36
 73
    32
 74
     0
 42
0.00000001
 43
0.00000001
 40
0.0
 40
0.0
 40
0.0
 40
0.0
 40
0.0625000000000003
 40
0.0625000000000003
 40
0.1250000000000005
 40
0.1250000000000005
 40
0.2500000000000009
 40
0.2500000000000009
 40
0.3125000000000012
 40
0.3125000000000012
 40
0.3750000000000013
 40
0.3750000000000013
 40
0.4375000000000018
 40
0.4375000000000018
 40
0.4687500000000019
 40
0.4687500000000019
 40
0.500000000000002
 40
0.500000000000002
 40
0.562500000000002
 40
0.562500000000002
 40
0.625000000000002
 40
0.625000000000002
 40
0.6875000000000019
 40
0.6875000000000019
 40
0.7500000000000018
 40
0.7500000000000018
 40
0.8125000000000018
 40
0.8125000000000018
 40
0.8750000000000017
 40
0.8750000000000017
 40
1.0
 40
1.0
 40
1.0
 40
1.0
 10
359.1104410463321
 20
533.863730482556
 30
0.0
 10
359.1104626880903
 20
533.8650778418449
 30
0.0
 10
359.1162289600272
 20
533.8530462674496
 30
0.0
 10
359.1382041227014
 20
533.8023598633887
 30
0.0
 10
359.1540984747479
 20
533.763980100035
 30
0.0
 10
359.2195020881143
 20
533.5988955201483
 30
0.0
 10
359.2871463648494
 20
533.4227454077438
 30
0.0
 10
359.4612235784694
 20
532.9651181305697
 30
0.0
 10
359.5314577643103
 20
532.7806205475504
 30
0.0
 10
359.7052073841419
 20
532.3255025804191
 30
0.0
 10
359.8084849319501
 20
532.0548190981108
 30
0.0
 10
360.0613971665762
 20
531.393838962939
 30
0.0
 10
360.2125744853133
 20
531.0000506593318
 30
0.0
 10
360.4796986487177
 20
530.3100788159607
 30
0.0
 10
360.5755855868766
 20
530.063208028897
 30
0.0
 10
360.7821031619069
 20
529.5334005585764
 30
0.0
 10
360.8931097991074
 20
529.2494990617672
 30
0.0
 10
361.2469231196307
 20
528.3475240421028
 30
0.0
 10
361.5063667176016
 20
527.6898555563932
 30
0.0
 10
362.0667660073301
 20
526.277402291502
 30
0.0
 10
362.3682064669065
 20
525.5210327236372
 30
0.0
 10
363.0006056626236
 20
523.9391041075127
 30
0.0
 10
363.3259100995646
 20
523.1271695679136
 30
0.0
 10
363.9940564959733
 20
521.4754035349181
 30
0.0
 10
364.3370730556149
 20
520.6354120571523
 30
0.0
 10
365.047695070509
 20
518.9397885054228
 30
0.0
 10
365.4156069547192
 20
518.0843080161276
 30
0.0
 10
366.1839679716285
 20
516.3688113114955
 30
0.0
 10
366.5840565536633
 20
515.5100432939126
 30
0.0
 10
367.8387513679979
 20
512.9550721459849
 30
0.0
 10
368.7502409262806
 20
511.2750141458483
 30
0.0
 10
369.7688318693228
 20
509.6399503135167
 30
0.0
  0
SPLINE
  5
F3
330
1F
100
AcDbEntity
  8
0
  6
Continuous
 62
     8
370
     0
100
AcDbSpline
210
0.0
220
0.0
230
1.0
 70
     8
 71
     3
 72
    14
 73
    10
 74
     0
 42
0.00000001
 43
0.00000001
 40
0.0
 40
0.0
 40
0.0
 40
0.0
 40
0.2500000000000012
 40
0.2500000000000012
 40
0.3749999999999998
 40
0.3749999999999998
 40
0.4999999999999984
 40
0.4999999999999984
 40
1.0
 40
1.0
 40
1.0
 40
1.0
 10
369.7688318693228
 20
509.6399503135167
 30
0.0
 10
370.5460046274237
 20
508.3924160830936
 30
0.0
 10
371.3785939864855
 20
507.1814593094759
 30
0.0
 10
372.7285543948267
 20
505.4352412547116
 30
0.0
 10
373.1953658821053
 20
504.8648595338314
 30
0.0
 10
374.1646084785813
 20
503.7491262689045
 30
0.0
 10
374.6667894234182
 20
503.2041581071942
 30
0.0
 10
377.2398728957759
 20
500.5726092014064
 30
0.0
 10
379.5205360209243
 20
498.7442959010889
 30
0.0
 10
382.0103124114837
 20
497.1790139634103
 30
0.0
  0
SPLINE
  5
F4
330
1F
100
AcDbEntity
  8
0
  6
Continuous
 62
     8
370
     0
100
AcDbSpline
210
0.0
220
0.0
230
1.0
 70
     8
 71
     3
 72
    26
 73
    22
 74
     0
 42
0.00000001
 43
0.00000001
 40
0.0
 40
0.0
 40
0.0
 40
0.0
 40
0.1250000000000001
 40
0.1250000000000001
 40
0.2500000000000002
 40
0.2500000000000002
 40
0.3750000000000003
 40
0.3750000000000003
 40
0.5000000000000004
 40
0.5000000000000004
 40
0.6250000000000006
 40
0.6250000000000006
 40
0.6875000000000007
 40
0.6875000000000007
 40
0.7500000000000007
 40
0.7500000000000007
 40
0.8750000000000004
 40
0.8750000000000004
 40
0.9375000000000002
 40
0.9375000000000002
 40
1.0
 40
1.0
 40
1.0
 40
1.0
 10
481.0799759356253
 20
485.7315542695805
 30
0.0
 10
478.1214537448736
 20
485.7438557058537
 30
0.0
 10
475.153595646904
 20
485.7448452601103
 30
0.0
 10
469.2088427746147
 20
485.7454933043639
 30
0.0
 10
466.2317769426285
 20
485.7428159049018
 30
0.0
 10
460.2777555804417
 20
485.7393450438593
 30
0.0
 10
457.2998144327768
 20
485.7401196470613
 30
0.0
 10
451.3422119263712
 20
485.7399442187404
 30
0.0
 10
448.3625560741445
 20
485.737170298481
 30
0.0
 10
442.401950508193
 20
485.7307254871703
 30
0.0
 10
439.4210077097483
 20
485.7268986366071
 30
0.0
 10
434.9490177335493
 20
485.730161090363
 30
0.0
 10
433.4582568628041
 20
485.7324443040847
 30
0.0
 10
430.4765512585593
 20
485.7407544032101
 30
0.0
 10
428.985621749348
 20
485.7477048923935
 30
0.0
 10
424.5128620163124
 20
485.7924935954019
 30
0.0
 10
421.5310589941209
 20
485.853875421202
 30
0.0
 10
417.0591486391012
 20
486.047058322291
 30
0.0
 10
415.5686446413509
 20
486.1283073258512
 30
0.0
 10
412.5881046536527
 20
486.3345179077358
 30
0.0
 10
411.0981328903688
 20
486.4597738518345
 30
0.0
 10
409.6082892883599
 20
486.6123042770286
 30
0.0
  0
SPLINE
  5
F5
330
1F
100
AcDbEntity
  8
0
  6
Continuous
 62
     8
370
     0
100
AcDbSpline
210
0.0
220
0.0
230
1.0
 70
     8
 71
     3
 72
    20
 73
    16
 74
     0
 42
0.00000001
 43
0.00000001
 40
0.0
 40
0.0
 40
0.0
 40
0.0
 40
0.2500000000000003
 40
0.2500000000000003
 40
0.5000000000000006
 40
0.5000000000000006
 40
0.6250000000000006
 40
0.6250000000000006
 40
0.7500000000000006
 40
0.7500000000000006
 40
0.8750000000000007
 40
0.8750000000000007
 40
0.9375000000000003
 40
0.9375000000000003
 40
1.0
 40
1.0
 40
1.0
 40
1.0
 10
409.6080941942786
 20
486.6125102371491
 30
0.0
 10
407.3571330557376
 20
486.8379660835251
 30
0.0
 10
405.1104357125068
 20
487.1219894723969
 30
0.0
 10
400.6438046465152
 20
487.8513247704284
 30
0.0
 10
398.4211235296787
 20
488.2985113681096
 30
0.0
 10
395.1337287215547
 20
489.1305259516781
 30
0.0
 10
394.0448933188889
 20
489.4348092203447
 30
0.0
 10
391.882904997826
 20
490.1040637498741
 30
0.0
 10
390.8091027851916
 20
490.4694699113385
 30
0.0
 10
388.6917373528651
 20
491.2625826114755
 30
0.0
 10
387.6466637342183
 20
491.690676222544
 30
0.0
 10
386.1021404628502
 20
492.3863006244409
 30
0.0
 10
385.5911526421378
 20
492.6271019285115
 30
0.0
 10
384.5773763187304
 20
493.1276952380803
 30
0.0
 10
384.0733650877509
 20
493.3881512880995
 30
0.0
 10
383.5761530260391
 20
493.6573599403762
 30
0.0
  0
SPLINE
  5
F6
330
1F
100
AcDbEntity
  8
0
  6
Continuous
 62
     8
370
     0
100
AcDbSpline
210
0.0
220
0.0
230
1.0
 70
     8
 71
     3
 72
    14
 73
    10
 74
     0
 42
0.00000001
 43
0.00000001
 40
0.0
 40
0.0
 40
0.0
 40
0.0
 40
0.4999999999999951
 40
0.4999999999999951
 40
0.6249999999999954
 40
0.6249999999999954
 40
0.7499999999999958
 40
0.7499999999999958
 40
1.0
 40
1.0
 40
1.0
 40
1.0
 10
380.3692408046848
 20
496.3272820357775
 30
0.0
 10
377.9311240866658
 20
497.9285105989304
 30
0.0
 10
375.6895559918163
 20
499.7787969406165
 30
0.0
 10
373.1411792610756
 20
502.4097273946682
 30
0.0
 10
372.6431206788514
 20
502.9528387228642
 30
0.0
 10
371.6805503621503
 20
504.0604900835993
 30
0.0
 10
371.2152402261988
 20
504.6258526505901
 30
0.0
 10
369.8643267803241
 20
506.354092893913
 30
0.0
 10
369.0236925061647
 20
507.5491069473499
 30
0.0
 10
368.2316606620876
 20
508.7772726350906
 30
0.0
  0
SPLINE
  5
F7
330
1F
100
AcDbEntity
  8
0
  6
Continuous
 62
     8
370
     0
100
AcDbSpline
210
0.0
220
0.0
230
1.0
 70
     8
 71
     3
 72
    40
 73
    36
 74
     0
 42
0.00000001
 43
0.00000001
 40
0.0
 40
0.0
 40
0.0
 40
0.0
 40
0.125000000000003
 40
0.125000000000003
 40
0.1875000000000037
 40
0.1875000000000037
 40
0.2500000000000044
 40
0.2500000000000044
 40
0.3125000000000051
 40
0.3125000000000051
 40
0.3750000000000058
 40
0.3750000000000058
 40
0.4062500000000061
 40
0.4062500000000061
 40
0.4375000000000064
 40
0.4375000000000064
 40
0.5000000000000069
 40
0.5000000000000069
 40
0.5312500000000066
 40
0.5312500000000066
 40
0.5625000000000061
 40
0.5625000000000061
 40
0.5937500000000058
 40
0.5937500000000058
 40
0.6250000000000054
 40
0.6250000000000054
 40
0.6875000000000044
 40
0.6875000000000044
 40
0.7500000000000034
 40
0.7500000000000034
 40
0.8750000000000017
 40
0.8750000000000017
 40
0.9375000000000009
 40
0.9375000000000009
 40
1.0
 40
1.0
 40
1.0
 40
1.0
 10
368.2316606620876
 20
508.7772726350906
 30
0.0
 10
367.1580401032891
 20
510.4420843997059
 30
0.0
 10
366.1848616157074
 20
512.1526795780252
 30
0.0
 10
364.8307794494268
 20
514.7540987431233
 30
0.0
 10
364.3963205273878
 20
515.6282574690796
 30
0.0
 10
363.5557285339239
 20
517.3744867455206
 30
0.0
 10
363.1500218980828
 20
518.2450698859527
 30
0.0
 10
362.3622212099306
 20
519.9702851722933
 30
0.0
 10
361.9795528254091
 20
520.824481977024
 30
0.0
 10
361.2290739418103
 20
522.5020475169017
 30
0.0
 10
360.8610382277437
 20
523.3255101121784
 30
0.0
 10
360.322107199706
 20
524.5277019885083
 30
0.0
 10
360.1455959633635
 20
524.9210825890897
 30
0.0
 10
359.8041263557872
 20
525.6830327670752
 30
0.0
 10
359.63864404424
 20
526.0528120229409
 30
0.0
 10
359.1606112940483
 20
527.1257562402993
 30
0.0
 10
358.8667268285728
 20
527.7923321504419
 30
0.0
 10
358.4698014398643
 20
528.7094469665712
 30
0.0
 10
358.3452514276244
 20
529.0004609545563
 30
0.0
 10
358.115729483764
 20
529.5436646176884
 30
0.0
 10
358.0100723061873
 20
529.7974236598985
 30
0.0
 10
357.8155537674049
 20
530.2713588511125
 30
0.0
 10
357.7266833859134
 20
530.4915290329226
 30
0.0
 10
357.5639623324524
 20
530.9006707714005
 30
0.0
 10
357.4902693424763
 20
531.0892406110211
 30
0.0
 10
357.2912272913626
 20
531.6062738983895
 30
0.0
 10
357.1865187379825
 20
531.8897503398792
 30
0.0
 10
357.0140683855487
 20
532.3659505539019
 30
0.0
 10
356.9463990782444
 20
532.5586561324511
 30
0.0
 10
356.780673021732
 20
533.0359062916314
 30
0.0
 10
356.7210875736583
 20
533.2177709607315
 30
0.0
 10
356.6633211960091
 20
533.3864151041323
 30
0.0
 10
356.6492006467133
 20
533.4250190089814
 30
0.0
 10
356.6274839437744
 20
533.4731810616904
 30
0.0
 10
356.6194129703051
 20
533.4812908340052
 30
0.0
 10
356.6171320191568
 20
533.4783135908747
 30
0.0
  0
SPLINE
  5
F8
330
1F
100
AcDbEntity
  8
0
  6
Continuous
 62
     8
370
     0
100
AcDbSpline
210
0.0
220
0.0
230
1.0
 70
     8
 71
     3
 72
    32
 73
    28
 74
     0
 42
0.00000001
 43
0.00000001
 40
0.0
 40
0.0
 40
0.0
 40
0.0
 40
0.0625000000000002
 40
0.0625000000000002
 40
0.1250000000000003
 40
0.1250000000000003
 40
0.2500000000000006
 40
0.2500000000000006
 40
0.3125000000000007
 40
0.3125000000000007
 40
0.3750000000000007
 40
0.3750000000000007
 40
0.4375000000000007
 40
0.4375000000000007
 40
0.5000000000000008
 40
0.5000000000000008
 40
0.6250000000000018
 40
0.6250000000000018
 40
0.6562500000000016
 40
0.6562500000000016
 40
0.6875000000000014
 40
0.6875000000000014
 40
0.7500000000000011
 40
0.7500000000000011
 40
0.8750000000000006
 40
0.8750000000000006
 40
1.0
 40
1.0
 40
1.0
 40
1.0
 10
506.6073333435158
 20
485.1974292270292
 30
0.0
 10
506.608340158979
 20
485.2004858774927
 30
0.0
 10
506.6018014111293
 20
485.2030719029451
 30
0.0
 10
506.5696737195298
 20
485.2051704308334
 30
0.0
 10
506.5439823993248
 20
485.2049567583873
 30
0.0
 10
506.4175463003552
 20
485.2031342337999
 30
0.0
 10
506.2678298399151
 20
485.199290518115
 30
0.0
 10
505.8424699701116
 20
485.1896427794447
 30
0.0
 10
505.6661072697024
 20
485.1858847428427
 30
0.0
 10
505.210901036705
 20
485.1809806253026
 30
0.0
 10
504.9299256927664
 20
485.1796171695927
 30
0.0
 10
504.2438279426361
 20
485.1839082003353
 30
0.0
 10
503.8380398180835
 20
485.1895140978341
 30
0.0
 10
502.8664303870701
 20
485.2138039675394
 30
0.0
 10
502.2947355575368
 20
485.2332223567535
 30
0.0
 10
500.3823177119589
 20
485.3111987804677
 30
0.0
 10
498.8732258435782
 20
485.381761565664
 30
0.0
 10
496.7910127370367
 20
485.4603727423884
 30
0.0
 10
496.3673900835648
 20
485.4755688155246
 30
0.0
 10
495.5146767513128
 20
485.5043593976334
 30
0.0
 10
495.0844695469989
 20
485.5180307996517
 30
0.0
 10
493.784337240738
 20
485.5568274165404
 30
0.0
 10
492.90501893816
 20
485.5796704542529
 30
0.0
 10
490.2412851902341
 20
485.6392703822578
 30
0.0
 10
488.4315675813595
 20
485.6690165383927
 30
0.0
 10
484.7745334018387
 20
485.7112134285665
 30
0.0
 10
482.9285342503841
 20
485.7238680259627
 30
0.0
 10
481.0799759356253
 20
485.7315542695804
 30
0.0
  0
SPLINE
  5
F9
330
1F
100
AcDbEntity
  8
0
  6
Continuous
 62
     8
370
     0
100
AcDbSpline
210
0.0
220
0.0
230
1.0
 70
     8
 71
     3
 72
     8
 73
     4
 74
     0
 42
0.00000001
 43
0.00000001
 40
0.0
 40
0.0
 40
0.0
 40
0.0
 40
1.0
 40
1.0
 40
1.0
 40
1.0
 10
383.5759269766586
 20
493.6574959957425
 30
0.0
 10
383.1929483378548
 20
493.8644902980572
 30
0.0
 10
382.8139970110349
 20
494.0765661200043
 30
0.0
 10
382.4391345122368
 20
494.2938085086251
 30
0.0
  0
SPLINE
  5
FA
330
1F
100
AcDbEntity
  8
0
  6
Continuous
 62
     8
370
     0
100
AcDbSpline
210
0.0
220
0.0
230
1.0
 70
     8
 71
     3
 72
    14
 73
    10
 74
     0
 42
0.00000001
 43
0.00000001
 40
0.0
 40
0.0
 40
0.0
 40
0.0
 40
0.25
 40
0.25
 40
0.5
 40
0.5
 40
0.75
 40
0.75
 40
1.0
 40
1.0
 40
1.0
 40
1.0
 10
382.3445438973976
 20
494.9414666629301
 30
0.0
 10
382.3354923395703
 20
494.93904130532
 30
0.0
 10
382.3292719877072
 20
494.9228882647403
 30
0.0
 10
382.326939748665
 20
494.855563614824
 30
0.0
 10
382.3309699759585
 20
494.8041502538401
 30
0.0
 10
382.3497585907614
 20
494.6755053602011
 30
0.0
 10
382.3644383177852
 20
494.5988124127436
 30
0.0
 10
382.3993473377138
 20
494.4430851476475
 30
0.0
 10
382.4193917737987
 20
494.3645852367973
 30
0.0
 10
382.4391345122366
 20
494.2938085086251
 30
0.0
  0
SPLINE
  5
FB
330
1F
100
AcDbEntity
  8
0
  6
Continuous
 62
     8
370
     0
100
AcDbSpline
210
0.0
220
0.0
230
1.0
 70
     8
 71
     3
 72
    10
 73
     6
 74
     0
 42
0.00000001
 43
0.00000001
 40
0.0
 40
0.0
 40
0.0
 40
0.0
 40
0.5
 40
0.5
 40
1.0
 40
1.0
 40
1.0
 40
1.0
 10
384.3057078058605
 20
495.0800047445591
 30
0.0
 10
384.2116726712193
 20
495.1711573736112
 30
0.0
 10
384.0998159872737
 20
495.2422555878814
 30
0.0
 10
383.8695181391765
 20
495.3161753166874
 30
0.0
 10
383.7521819841479
 20
495.3186421515101
 30
0.0
 10
383.6486545556614
 20
495.2909020606527
 30
0.0
  0
ARC
  5
FC
330
1F
100
AcDbEntity
  8
0
  6
Continuous
 62
     8
370
     0
100
AcDbCircle
 10
381.3796371484
 20
496.4641538229
 30
0.0
 40
1.019625369783659
100
AcDbArc
 50
187.7146302228
 51
219.8707233786
  0
LWPOLYLINE
  5
FD
330
1F
100
AcDbEntity
  8
0
  6
Continuous
 62
     8
370
     0
100
AcDbPolyline
 90
        9
 70
   128
 43
0.0
 10
381.9037424761
 20
496.1606329681
 10
382.016834839
 20
496.2143516542
 10
382.109717502
 20
496.3077297808
 10
382.1754092711
 20
496.4337414504
 10
382.2089713427
 20
496.5829244257
 10
382.2078816953
 20
496.7440581323
 10
382.1722222852
 20
496.9050279261
 10
382.1046734589
 20
497.0537415148
 10
382.010312787
 20
497.179015577
  0
SPLINE
  5
FE
330
1F
100
AcDbEntity
  8
0
  6
Continuous
 62
     8
370
     0
100
AcDbSpline
210
0.0
220
0.0
230
1.0
 70
     8
 71
     3
 72
     9
 73
     5
 74
     0
 42
0.00000001
 43
0.00000001
 40
0.0
 40
0.0
 40
0.0
 40
0.0
 40
0.2768203652257024
 40
0.9999999999999999
 40
0.9999999999999999
 40
0.9999999999999999
 40
0.9999999999999999
 10
394.584110974048
 20
498.1049364806346
 30
0.0
 10
394.5436344782275
 20
498.1162740489436
 30
0.0
 10
394.3974151211817
 20
498.1572304587071
 30
0.0
 10
394.2463880449777
 20
498.1247687751684
 30
0.0
 10
394.1371683391674
 20
498.1012931467228
 30
0.0
  0
LWPOLYLINE
  5
FF
330
1F
100
AcDbEntity
  8
0
  6
Continuous
 62
     8
370
     0
100
AcDbPolyline
 90
       15
 70
   128
 43
0.0
 10
376.0999646398
 20
494.9178016187
 10
374.1016192722
 20
494.3823432923
 10
372.0628200459
 20
493.8360518218
 10
370.0192356843
 20
493.2884714009
 10
368.0066271114
 20
492.7491983772
 10
366.0602039087
 20
492.2276577355
 10
364.2140264052
 20
491.7329764367
 10
362.5003947305
 20
491.2738046051
 10
360.9492937463
 20
490.8581888677
 10
359.5878621924
 20
490.4933935405
 10
358.4399195748
 20
490.1858037711
 10
357.5255545217
 20
489.9407988788
 10
356.860765292
 20
489.7626703979
 10
356.457178517
 20
489.6545326711
 10
356.3218610722
 20
489.6182706953
  0
LINE
  5
100
330
1F
100
AcDbEntity
  8
0
  6
Continuous
 62
     8
370
     0
100
AcDbLine
 10
392.1716005203
 20
500.0042608381
 30
0.0
 11
392.1681999124
 21
500.0033071638
 31
0.0
  0
SPLINE
  5
101
330
1F
100
AcDbEntity
  8
0
  6
Continuous
 62
     8
370
     0
100
AcDbSpline
210
0.0
220
0.0
230
1.0
 70
     8
 71
     3
 72
    30
 73
    26
 74
     0
 42
0.00000001
 43
0.00000001
 40
0.0
 40
0.0
 40
0.0
 40
0.0
 40
0.0625
 40
0.0625
 40
0.125
 40
0.125
 40
0.2499999999999999
 40
0.2499999999999999
 40
0.3124999999999997
 40
0.3124999999999997
 40
0.3749999999999995
 40
0.3749999999999995
 40
0.4374999999999992
 40
0.4374999999999992
 40
0.499999999999999
 40
0.499999999999999
 40
0.6249999999999984
 40
0.6249999999999984
 40
0.6874999999999982
 40
0.6874999999999982
 40
0.749999999999998
 40
0.749999999999998
 40
0.874999999999999
 40
0.874999999999999
 40
1.0
 40
1.0
 40
1.0
 40
1.0
 10
329.2896017930096
 20
403.556891458231
 30
0.0
 10
329.289745148356
 20
403.5572488128569
 30
0.0
 10
329.3023185816931
 20
403.5664577177249
 30
0.0
 10
329.3542483102007
 20
403.6080048849727
 30
0.0
 10
329.3938143753772
 20
403.6405367265972
 30
0.0
 10
329.5532834033302
 20
403.780241875511
 30
0.0
 10
329.7141775229576
 20
403.9296526729422
 30
0.0
 10
330.0397919003151
 20
404.2696201845657
 30
0.0
 10
330.1606891647218
 20
404.4005863053404
 30
0.0
 10
330.4211496531466
 20
404.6945793822574
 30
0.0
 10
330.5611383895274
 20
404.8580392185188
 30
0.0
 10
330.8578435560775
 20
405.2174785985164
 30
0.0
 10
331.0145627859914
 20
405.4134501193827
 30
0.0
 10
331.3424195784914
 20
405.8377148471567
 30
0.0
 10
331.5131783493823
 20
406.065633113202
 30
0.0
 10
332.0300110133541
 20
406.7777191480182
 30
0.0
 10
332.3848211965987
 20
407.2955591183792
 30
0.0
 10
332.9225844874974
 20
408.1287918581928
 30
0.0
 10
333.103040143585
 20
408.4164533324929
 30
0.0
 10
333.4584406456204
 20
408.9990518800452
 30
0.0
 10
333.6342382715064
 20
409.29528169591
 30
0.0
 10
334.1553988290534
 20
410.1976312749331
 30
0.0
 10
334.4945068196801
 20
410.8173301504836
 30
0.0
 10
335.1539791738945
 20
412.0899401995938
 30
0.0
 10
335.4743332549079
 20
412.7429142894702
 30
0.0
 10
335.7847095479519
 20
413.4120302741036
 30
0.0
  0
LWPOLYLINE
  5
102
330
1F
100
AcDbEntity
  8
0
  6
Continuous
 62
     8
370
     0
100
AcDbPolyline
 90
        9
 70
   128
 43
0.0
 10
336.0502133506
 20
413.3307887615
 10
336.0662917036
 20
413.3158317209
 10
336.065937801
 20
413.308299184
 10
336.0491739946
 20
413.3086530865
 10
336.0170172888
 20
413.3168673516
 10
335.9714197355
 20
413.3324427904
 10
335.9151529509
 20
413.3544369043
 10
335.8516293007
 20
413.3815160395
 10
335.7847081858
 20
413.4120298923
  0
SPLINE
  5
103
330
1F
100
AcDbEntity
  8
0
  6
Continuous
 62
     8
370
     0
100
AcDbSpline
210
0.0
220
0.0
230
1.0
 70
     8
 71
     3
 72
    17
 73
    13
 74
     0
 42
0.00000001
 43
0.00000001
 40
0.0
 40
0.0
 40
0.0
 40
0.0
 40
0.2336241894714653
 40
0.4673460599307369
 40
0.5376875791701858
 40
0.6076019428218686
 40
0.6776192855001419
 40
0.7125987209328286
 40
0.7476172729730124
 40
0.8174211243174284
 40
0.8874915315093
 40
1.0
 40
1.0
 40
1.0
 40
1.0
 10
335.9347330766662
 20
414.6108245850734
 30
0.0
 10
334.016995058766
 20
414.6107541658457
 30
0.0
 10
330.1807171944207
 20
414.6106132979471
 30
0.0
 10
325.769580086216
 20
414.6102232726846
 30
0.0
 10
322.7325585565846
 20
414.6108145384221
 30
0.0
 10
321.0502032798362
 20
414.6103590694718
 30
0.0
 10
319.6955113271093
 20
414.6110042951265
 30
0.0
 10
318.7271811284431
 20
414.6103820456942
 30
0.0
 10
317.9121720510204
 20
414.6108853778641
 30
0.0
 10
317.317658655604
 20
414.610250820848
 30
0.0
 10
317.0072376796639
 20
414.611109930007
 30
0.0
 10
317.0048240773428
 20
414.6110025273062
 30
0.0
 10
317.0033367711051
 20
414.6109363437824
 30
0.0
  0
SPLINE
  5
104
330
1F
100
AcDbEntity
  8
0
  6
Continuous
 62
     8
370
     0
100
AcDbSpline
210
0.0
220
0.0
230
1.0
 70
     8
 71
     3
 72
    12
 73
     8
 74
     0
 42
0.00000001
 43
0.00000001
 40
0.0
 40
0.0
 40
0.0
 40
0.0
 40
0.5000000000000016
 40
0.5000000000000016
 40
0.7500000000000008
 40
0.7500000000000008
 40
1.0
 40
1.0
 40
1.0
 40
1.0
 10
335.7847095479555
 20
413.4120302741023
 30
0.0
 10
335.8682737099939
 20
413.6491545124406
 30
0.0
 10
335.9300572900539
 20
413.8965431522383
 30
0.0
 10
335.9708617974026
 20
414.2227211122523
 30
0.0
 10
335.9756153851433
 20
414.3210882774171
 30
0.0
 10
335.9675596198885
 20
414.4906192985161
 30
0.0
 10
335.9549644277395
 20
414.5591262292763
 30
0.0
 10
335.9346938275697
 20
414.6107635340159
 30
0.0
  0
SPLINE
  5
105
330
1F
100
AcDbEntity
  8
0
  6
Continuous
 62
     8
370
     0
100
AcDbSpline
210
0.0
220
0.0
230
1.0
 70
     8
 71
     3
 72
    32
 73
    28
 74
     0
 42
0.00000001
 43
0.00000001
 40
0.0
 40
0.0
 40
0.0
 40
0.0
 40
0.2499999999999989
 40
0.2499999999999989
 40
0.3749999999999984
 40
0.3749999999999984
 40
0.4999999999999979
 40
0.4999999999999979
 40
0.5624999999999969
 40
0.5624999999999969
 40
0.6249999999999958
 40
0.6249999999999958
 40
0.6562499999999959
 40
0.6562499999999959
 40
0.687499999999996
 40
0.687499999999996
 40
0.7187499999999961
 40
0.7187499999999961
 40
0.7499999999999962
 40
0.7499999999999962
 40
0.8124999999999971
 40
0.8124999999999971
 40
0.8749999999999981
 40
0.8749999999999981
 40
0.937499999999999
 40
0.937499999999999
 40
1.0
 40
1.0
 40
1.0
 40
1.0
 10
335.7847095479574
 20
413.4120302741097
 30
0.0
 10
333.6130959461141
 20
413.4060745199161
 30
0.0
 10
331.4414463733588
 20
413.3974762426317
 30
0.0
 10
328.1892385379472
 20
413.3734278738846
 30
0.0
 10
327.1070392818044
 20
413.363778407399
 30
0.0
 10
324.9504254694906
 20
413.3378392771104
 30
0.0
 10
323.8756755543376
 20
413.321947041505
 30
0.0
 10
322.2778470865604
 20
413.2836269305807
 30
0.0
 10
321.7476811912457
 20
413.2683461867458
 30
0.0
 10
320.6961387556112
 20
413.2284183756081
 30
0.0
 10
320.1774035999628
 20
413.2034929091546
 30
0.0
 10
319.438656847781
 20
413.1565972331758
 30
0.0
 10
319.1984263708896
 20
413.1393548804623
 30
0.0
 10
318.7347880000542
 20
413.101567478884
 30
0.0
 10
318.5132175705121
 20
413.0808595377476
 30
0.0
 10
318.1072819631934
 20
413.042355756605
 30
0.0
 10
317.9210819615372
 20
413.0244079334697
 30
0.0
 10
317.5841434510263
 20
412.9948676723392
 30
0.0
 10
317.4346529309577
 20
412.983467954848
 30
0.0
 10
317.0518421159443
 20
412.9594416150724
 30
0.0
 10
316.8758679246617
 20
412.9555096693856
 30
0.0
 10
316.6314517806754
 20
412.9518980277815
 30
0.0
 10
316.5599888121897
 20
412.9522416640364
 30
0.0
 10
316.4664025244616
 20
412.9522623986584
 30
0.0
 10
316.4443519617097
 20
412.9522543099399
 30
0.0
 10
316.4198547936545
 20
412.9524184642196
 30
0.0
 10
316.417484676371
 20
412.9528270769133
 30
0.0
 10
316.4195640094497
 20
412.9526660546946
 30
0.0
  0
SPLINE
  5
106
330
1F
100
AcDbEntity
  8
0
  6
Continuous
 62
     8
370
     0
100
AcDbSpline
210
0.0
220
0.0
230
1.0
 70
     8
 71
     3
 72
    10
 73
     6
 74
     0
 42
0.00000001
 43
0.00000001
 40
0.0
 40
0.0
 40
0.0
 40
0.0
 40
0.5
 40
0.5
 40
1.0
 40
1.0
 40
1.0
 40
1.0
 10
336.1961037309649
 20
414.2287804493948
 30
0.0
 10
336.2455400702588
 20
414.3170108688734
 30
0.0
 10
336.2434415721942
 20
414.4249289341544
 30
0.0
 10
336.1381456547115
 20
414.5787917329071
 30
0.0
 10
336.0369379311955
 20
414.6218290395051
 30
0.0
 10
335.9346938275696
 20
414.6107635340161
 30
0.0
  0
SPLINE
  5
107
330
1F
100
AcDbEntity
  8
0
  6
Continuous
 62
     8
370
     0
100
AcDbSpline
210
0.0
220
0.0
230
1.0
 70
     8
 71
     3
 72
    16
 73
    12
 74
     0
 42
0.00000001
 43
0.00000001
 40
0.0
 40
0.0
 40
0.0
 40
0.0
 40
0.2500000000000004
 40
0.2500000000000004
 40
0.5000000000000007
 40
0.5000000000000007
 40
0.6250000000000006
 40
0.6250000000000006
 40
0.7500000000000004
 40
0.7500000000000004
 40
1.0
 40
1.0
 40
1.0
 40
1.0
 10
335.9347688984087
 20
414.610824773152
 30
0.0
 10
335.7453417466342
 20
414.9591541514604
 30
0.0
 10
335.5777669290927
 20
415.2658751098036
 30
0.0
 10
335.2837152800402
 20
415.7898040796883
 30
0.0
 10
335.157314833993
 20
416.0071246215187
 30
0.0
 10
335.0015343231819
 20
416.2667575659923
 30
0.0
 10
334.9552809520115
 20
416.3422780361497
 30
0.0
 10
334.8749375162925
 20
416.4715632658852
 30
0.0
 10
334.8407943445999
 20
416.5254222832214
 30
0.0
 10
334.7585491864706
 20
416.6538340258469
 30
0.0
 10
334.7305556875912
 20
416.6958392698188
 30
0.0
 10
334.7305742283854
 20
416.6958735479488
 30
0.0
  0
ARC
  5
108
330
1F
100
AcDbEntity
  8
0
  6
Continuous
 62
     8
370
     0
100
AcDbCircle
 10
334.7331677683
 20
416.3949847256
 30
0.0
 40
0.300900000000062
100
AcDbArc
 50
337.0
 51
90.4938542083
  0
LINE
  5
109
330
1F
100
AcDbEntity
  8
0
  6
Continuous
 62
     8
370
     0
100
AcDbLine
 10
356.6171313065
 20
533.478318751
 30
0.0
 11
356.6199103731
 21
533.4752193094
 31
0.0
  0
LWPOLYLINE
  5
10A
330
1F
100
AcDbEntity
  8
0
  6
Continuous
 62
     8
370
     0
100
AcDbPolyline
 90
        7
 70
   128
 43
0.0
 10
351.9341731804
 20
505.6870719792
 10
351.9373955565
 20
505.6494912506
 10
351.9625971454
 20
505.3554913403
 10
352.0099977392
 20
504.8026284577
 10
352.0739237207
 20
504.0569445492
 10
352.1467419702
 20
503.2075336577
 10
352.21975766
 20
502.3558726908
  0
LWPOLYLINE
  5
10B
330
1F
100
AcDbEntity
  8
0
  6
Continuous
 62
     8
370
     0
100
AcDbPolyline
 90
       10
 70
   128
 43
0.0
 10
352.1459857362
 20
500.868535638
 10
352.1326529222
 20
501.0240590573
 10
352.0944537955
 20
501.4696186782
 10
352.0365478831
 20
502.1450361611
 10
351.9667582947
 20
502.9591163994
 10
351.8945062893
 20
503.801881373
 10
351.829555853
 20
504.5595309139
 10
351.7806725937
 20
505.129723847
 10
351.7544577259
 20
505.4354658724
 10
351.751097514
 20
505.4746857287
  0
SPLINE
  5
10C
330
1F
100
AcDbEntity
  8
0
  6
Continuous
 62
     7
370
    15
100
AcDbSpline
210
0.0
220
0.0
230
1.0
 70
     8
 71
     3
 72
    19
 73
    15
 74
     0
 42
0.00000001
 43
0.00000001
 40
0.0
 40
0.0
 40
0.0
 40
0.0
 40
0.0995407741926476
 40
0.2274901060169796
 40
0.3381927270872445
 40
0.4322486236967441
 40
0.533596776635741
 40
0.6104560765065168
 40
0.6736704447191132
 40
0.7300914136471265
 40
0.796336369315091
 40
0.8741448010187542
 40
0.9664487339099669
 40
1.0
 40
1.0
 40
1.0
 40
1.0
 10
197.7564573724195
 20
274.6366942592475
 30
0.0
 10
196.6028269171791
 20
274.6375203777418
 30
0.0
 10
193.9663242709455
 20
274.6394083858004
 30
0.0
 10
190.0497208777572
 20
274.4490119007951
 30
0.0
 10
186.2079042201352
 20
274.0982413062191
 30
0.0
 10
182.6998253469657
 20
273.5517795514699
 30
0.0
 10
179.6275480473498
 20
272.8003247280799
 30
0.0
 10
176.9987243207359
 20
271.8290672702094
 30
0.0
 10
174.9608975702045
 20
270.7983738180391
 30
0.0
 10
173.161670170118
 20
269.6069611209464
 30
0.0
 10
171.4099681629988
 20
268.0942280123942
 30
0.0
 10
169.6797445754953
 20
266.0256137379017
 30
0.0
 10
168.427627420192
 20
264.0716000532754
 30
0.0
 10
167.9070824050761
 20
262.7604191705944
 30
0.0
 10
167.7683122592628
 20
262.4108763702724
 30
0.0
  0
SPLINE
  5
10D
330
1F
100
AcDbEntity
  8
0
  6
Continuous
 62
     7
370
    15
100
AcDbSpline
210
0.0
220
0.0
230
1.0
 70
     8
 71
     3
 72
    19
 73
    15
 74
     0
 42
0.00000001
 43
0.00000001
 40
0.0
 40
0.0
 40
0.0
 40
0.0
 40
0.0421982413374453
 40
0.1066919396608012
 40
0.159069515961396
 40
0.203742469854685
 40
0.2567708251603726
 40
0.3208982895161085
 40
0.3976218997410959
 40
0.4893370262368757
 40
0.5986725106211415
 40
0.7274965841656444
 40
0.8764189838979246
 40
1.0
 40
1.0
 40
1.0
 40
1.0
 10
227.9639501261175
 20
261.9677214243028
 30
0.0
 10
227.7829313255191
 20
262.4097645731314
 30
0.0
 10
227.3252523716388
 20
263.5274045379144
 30
0.0
 10
226.4150200408555
 20
265.104916305143
 30
0.0
 10
225.3463014291857
 20
266.6274668996408
 30
0.0
 10
224.198830150556
 20
267.9494724383345
 30
0.0
 10
222.8108699133801
 20
269.2463117516958
 30
0.0
 10
220.9560684871603
 20
270.581219230623
 30
0.0
 10
218.5215176115749
 20
271.8528453309552
 30
0.0
 10
215.428908705127
 20
272.9446442918882
 30
0.0
 10
211.6310024186638
 20
273.7790673685022
 30
0.0
 10
207.1109517991755
 20
274.3261373581317
 30
0.0
 10
202.4038892217567
 20
274.6149635329259
 30
0.0
 10
199.2065501879885
 20
274.6242602040381
 30
0.0
 10
197.7565485232164
 20
274.6284762688492
 30
0.0
  0
LINE
  5
10E
330
1F
100
AcDbEntity
  8
0
  6
Continuous
 62
     7
370
    15
100
AcDbLine
 10
195.2489641166
 20
274.8007225164
 30
0.0
 11
195.2489641166
 21
274.7397357889
 31
0.0
  0
LINE
  5
10F
330
1F
100
AcDbEntity
  8
0
  6
Continuous
 62
     7
370
    15
100
AcDbLine
 10
200.2639641191
 20
274.7396799095
 30
0.0
 11
200.2639641191
 21
274.8007225164
 31
0.0
  0
SPLINE
  5
110
330
1F
100
AcDbEntity
  8
0
  6
Continuous
 62
     7
370
    15
100
AcDbSpline
210
0.0
220
0.0
230
1.0
 70
     8
 71
     3
 72
    15
 73
    11
 74
     0
 42
0.00000001
 43
0.00000001
 40
0.0
 40
0.0
 40
0.0
 40
0.0
 40
0.0918813468321471
 40
0.2940768301447589
 40
0.4966549228842143
 40
0.7007604962476135
 40
0.8857726218293779
 40
0.9441448146663812
 40
0.9881770310976259
 40
0.9999999999999999
 40
0.9999999999999999
 40
0.9999999999999999
 40
0.9999999999999999
 10
197.797467304021
 20
275.1956330903384
 30
0.0
 10
197.6808841514465
 20
275.1964221763935
 30
0.0
 10
197.3077463477526
 20
275.1989477371712
 30
0.0
 10
196.694241315217
 20
275.179401724798
 30
0.0
 10
196.059524255196
 20
275.1426615205236
 30
0.0
 10
195.6103401195271
 20
275.0810448730887
 30
0.0
 10
195.4338977984696
 20
275.0479650268288
 30
0.0
 10
195.2988947009171
 20
274.9536574973881
 30
0.0
 10
195.242498430519
 20
274.852358415329
 30
0.0
 10
195.2527530382391
 20
274.8015279235577
 30
0.0
 10
195.2549236497491
 20
274.7907685407016
 30
0.0
  0
SPLINE
  5
111
330
1F
100
AcDbEntity
  8
0
  6
Continuous
 62
     7
370
    15
100
AcDbSpline
210
0.0
220
0.0
230
1.0
 70
     8
 71
     3
 72
    16
 73
    12
 74
     0
 42
0.00000001
 43
0.00000001
 40
0.0
 40
0.0
 40
0.0
 40
0.0
 40
0.0124756444470073
 40
0.0514920652152947
 40
0.0885416296455121
 40
0.1395581974573707
 40
0.260716011911671
 40
0.4638513448751587
 40
0.6780612369132639
 40
0.8867048570023196
 40
0.9999999999999999
 40
0.9999999999999999
 40
0.9999999999999999
 40
0.9999999999999999
 10
200.2579691956401
 20
274.8017357953403
 30
0.0
 10
200.2596624010259
 20
274.8129743785837
 30
0.0
 10
200.2666509491942
 20
274.8593605884307
 30
0.0
 10
200.2247482550704
 20
274.9329567787848
 30
0.0
 10
200.1651303441051
 20
274.9908689831735
 30
0.0
 10
200.0769752275027
 20
275.0366831640335
 30
0.0
 10
199.9245444789649
 20
275.0786032942955
 30
0.0
 10
199.5697257098317
 20
275.1305463977559
 30
0.0
 10
198.9662135296927
 20
275.1730814901039
 30
0.0
 10
198.3374787173647
 20
275.196427725269
 30
0.0
 10
197.9380369366711
 20
275.1958399406707
 30
0.0
 10
197.797467304021
 20
275.1956330903384
 30
0.0
  0
SPLINE
  5
112
330
1F
100
AcDbEntity
  8
0
  6
Continuous
 62
     7
370
    15
100
AcDbSpline
210
0.0
220
0.0
230
1.0
 70
     8
 71
     3
 72
    18
 73
    14
 74
     0
 42
0.00000001
 43
0.00000001
 40
0.0
 40
0.0
 40
0.0
 40
0.0
 40
0.0950132922224524
 40
0.2035966147398834
 40
0.3063173915685387
 40
0.4153413122901414
 40
0.5073408653499457
 40
0.605385423215842
 40
0.6999912142258288
 40
0.7902683012720795
 40
0.880910371193658
 40
0.972977076771343
 40
1.0
 40
1.0
 40
1.0
 40
1.0
 10
197.7567240778983
 20
234.4546767708424
 30
0.0
 10
198.8566662886247
 20
234.4578022426989
 30
0.0
 10
201.213647141252
 20
234.4644995739307
 30
0.0
 10
204.7526841407478
 20
234.7144274622461
 30
0.0
 10
208.4317971289474
 20
235.170850473097
 30
0.0
 10
211.8834851497419
 20
235.8331244849328
 30
0.0
 10
215.2256251457078
 20
236.7135375908905
 30
0.0
 10
218.3343053561543
 20
237.7787857083774
 30
0.0
 10
221.3274092345575
 20
239.071167497471
 30
0.0
 10
224.1272274209593
 20
240.5558599653867
 30
0.0
 10
226.7613799897751
 20
242.2451261774804
 30
0.0
 10
228.7072772366989
 20
243.656912851861
 30
0.0
 10
229.7257117148186
 20
244.5551210279295
 30
0.0
 10
229.9568072097957
 20
244.758935674331
 30
0.0
  0
SPLINE
  5
113
330
1F
100
AcDbEntity
  8
0
  6
Continuous
 62
     7
370
    15
100
AcDbSpline
210
0.0
220
0.0
230
1.0
 70
     8
 71
     3
 72
    19
 73
    15
 74
     0
 42
0.00000001
 43
0.00000001
 40
0.0
 40
0.0
 40
0.0
 40
0.0
 40
0.0278316017235271
 40
0.1155494769623936
 40
0.207554654905795
 40
0.2991434100690194
 40
0.3902605358784026
 40
0.4814336601545551
 40
0.5755490260260582
 40
0.6722807652201072
 40
0.7750925394707586
 40
0.8832292326666411
 40
0.9975876591238898
 40
1.0
 40
1.0
 40
1.0
 40
1.0
 10
165.5556500094592
 20
244.7586041234944
 30
0.0
 10
165.79394808333
 20
244.5489771766232
 30
0.0
 10
166.7832988964972
 20
243.6786613281565
 30
0.0
 10
168.7057457847291
 20
242.2781156842208
 30
0.0
 10
171.3197721698872
 20
240.5928969781012
 30
0.0
 10
174.1094622755744
 20
239.1089923318671
 30
0.0
 10
177.0035552255896
 20
237.8511107593344
 30
0.0
 10
180.0150788447307
 20
236.7988028178523
 30
0.0
 10
183.1603781926146
 20
235.9444295411809
 30
0.0
 10
186.4902673147278
 20
235.2749837188845
 30
0.0
 10
190.0184182309644
 20
234.785384220908
 30
0.0
 10
193.7733188653327
 20
234.5105026224313
 30
0.0
 10
196.3780363585552
 20
234.4035916896894
 30
0.0
 10
197.7290609861639
 20
234.4409498346986
 30
0.0
 10
197.7569714984286
 20
234.4417216081683
 30
0.0
  0
SPLINE
  5
114
330
1F
100
AcDbEntity
  8
0
  6
Continuous
 62
     7
370
    15
100
AcDbSpline
210
0.0
220
0.0
230
1.0
 70
     8
 71
     3
 72
    12
 73
     8
 74
     0
 42
0.00000001
 43
0.00000001
 40
0.0
 40
0.0
 40
0.0
 40
0.0
 40
0.0278491932227244
 40
0.3064142111121081
 40
0.6319019066081181
 40
0.9975703742837728
 40
1.0
 40
1.0
 40
1.0
 40
1.0
 10
229.969953759259
 20
244.7451371990655
 30
0.0
 10
229.9841733253972
 20
244.7548541957032
 30
0.0
 10
230.1406258698482
 20
244.8617666593902
 30
0.0
 10
230.3738878989605
 20
245.1920736437094
 30
0.0
 10
230.5869851964234
 20
245.7378190231051
 30
0.0
 10
230.6706961713138
 20
246.1743154084402
 30
0.0
 10
230.6232729121577
 20
246.3936975436708
 30
0.0
 10
230.6229598956764
 20
246.3951455720279
 30
0.0
  0
SPLINE
  5
115
330
1F
100
AcDbEntity
  8
0
  6
Continuous
 62
     7
370
    15
100
AcDbSpline
210
0.0
220
0.0
230
1.0
 70
     8
 71
     3
 72
    10
 73
     6
 74
     0
 42
0.00000001
 43
0.00000001
 40
0.0
 40
0.0
 40
0.0
 40
0.0
 40
0.4070045940465006
 40
0.7587753384040612
 40
1.0
 40
1.0
 40
1.0
 40
1.0
 10
164.8903615909278
 20
246.3735016353939
 30
0.0
 10
164.9009153766975
 20
246.1282302432591
 30
0.0
 10
164.9205907132563
 20
245.670972791402
 30
0.0
 10
165.1741511146219
 20
245.0976220036803
 30
0.0
 10
165.4418025269249
 20
244.8525518419213
 30
0.0
 10
165.5506804722011
 20
244.7528597258542
 30
0.0
  0
LINE
  5
116
330
1F
100
AcDbEntity
  8
0
  6
Continuous
 62
     7
370
    15
100
AcDbLine
 10
164.8608796435
 20
244.5733435743
 30
0.0
 11
164.799892916
 21
244.1555233963
 31
0.0
  0
LINE
  5
117
330
1F
100
AcDbEntity
  8
0
  6
Continuous
 62
     7
370
    15
100
AcDbLine
 10
230.712985261
 20
244.1557017446
 30
0.0
 11
230.6520469623
 21
244.5733435743
 31
0.0
  0
SPLINE
  5
118
330
1F
100
AcDbEntity
  8
0
  6
Continuous
 62
     7
370
    15
100
AcDbSpline
210
0.0
220
0.0
230
1.0
 70
     8
 71
     3
 72
     9
 73
     5
 74
     0
 42
0.00000001
 43
0.00000001
 40
0.0
 40
0.0
 40
0.0
 40
0.0
 40
0.1091432899688295
 40
1.0
 40
1.0
 40
1.0
 40
1.0
 10
167.8990066188037
 20
152.1543795533989
 30
0.0
 10
167.9198865396514
 20
151.924959858323
 30
0.0
 10
168.1111939562924
 20
149.822955281208
 30
0.0
 10
168.3882721301946
 20
147.7300640171909
 30
0.0
 10
168.6351090806186
 20
145.8655977912757
 30
0.0
  0
SPLINE
  5
119
330
1F
100
AcDbEntity
  8
0
  6
Continuous
 62
     7
370
    15
100
AcDbSpline
210
0.0
220
0.0
230
1.0
 70
     8
 71
     3
 72
    10
 73
     6
 74
     0
 42
0.00000001
 43
0.00000001
 40
0.0
 40
0.0
 40
0.0
 40
0.0
 40
0.1180037191505166
 40
0.9451812269720438
 40
0.9999999999999999
 40
0.9999999999999999
 40
0.9999999999999999
 40
0.9999999999999999
 10
226.8752172725856
 20
145.8667749830101
 30
0.0
 10
226.9107395373763
 20
146.106310853036
 30
0.0
 10
227.1952642799976
 20
148.0249351910207
 30
0.0
 10
227.4240214056541
 20
150.0655167310231
 30
0.0
 10
227.589271433255
 20
151.8678865003852
 30
0.0
 10
227.5995422291219
 20
151.9799093075607
 30
0.0
  0
SPLINE
  5
11A
330
1F
100
AcDbEntity
  8
0
  6
Continuous
 62
     7
370
    15
100
AcDbSpline
210
0.0
220
0.0
230
1.0
 70
     8
 71
     3
 72
    25
 73
    21
 74
     0
 42
0.00000001
 43
0.00000001
 40
0.0
 40
0.0
 40
0.0
 40
0.0
 40
0.101055494090902
 40
0.1815054764289919
 40
0.2458782282000403
 40
0.3003460778995514
 40
0.3495137343013008
 40
0.3940515890561881
 40
0.4355140239247703
 40
0.4750853946266682
 40
0.5174833100383828
 40
0.5581737226131827
 40
0.6006035959249151
 40
0.645096389186745
 40
0.6949637129430688
 40
0.7497540697043915
 40
0.8121030822868792
 40
0.8892165065572598
 40
0.9781543709478158
 40
1.0
 40
1.0
 40
1.0
 40
1.0
 10
197.756631973313
 20
120.1025853224609
 30
0.0
 10
199.2775452469243
 20
120.1082649092001
 30
0.0
 10
202.0092531151346
 20
120.1184659982779
 30
0.0
 10
205.7053843357912
 20
120.3224692062863
 30
0.0
 10
208.6892504605409
 20
120.6390359633899
 30
0.0
 10
211.1806363049769
 20
121.085158042035
 30
0.0
 10
213.3344719612624
 20
121.6745329610417
 30
0.0
 10
215.2376012810593
 20
122.4029512204815
 30
0.0
 10
216.918949928497
 20
123.274665682631
 30
0.0
 10
218.4572869605895
 20
124.3242350384364
 30
0.0
 10
219.8309383633113
 20
125.5664245594777
 30
0.0
 10
221.0572811689458
 20
127.008954967132
 30
0.0
 10
222.1261203491501
 20
128.6090618621544
 30
0.0
 10
223.0881928948063
 20
130.4323341930859
 30
0.0
 10
223.9529729697071
 20
132.5065688194757
 30
0.0
 10
224.7310503932919
 20
134.8983429276449
 30
0.0
 10
225.4675322798167
 20
137.7287298471352
 30
0.0
 10
226.1546895066174
 20
141.0973739210793
 30
0.0
 10
226.6171607555755
 20
143.8881989427005
 30
0.0
 10
226.8246016074594
 20
145.5423730636158
 30
0.0
 10
226.8655073034227
 20
145.8685631223533
 30
0.0
  0
SPLINE
  5
11B
330
1F
100
AcDbEntity
  8
0
  6
Continuous
 62
     7
370
    15
100
AcDbSpline
210
0.0
220
0.0
230
1.0
 70
     8
 71
     3
 72
    25
 73
    21
 74
     0
 42
0.00000001
 43
0.00000001
 40
0.0
 40
0.0
 40
0.0
 40
0.0
 40
0.0517490310763008
 40
0.14417028788627
 40
0.2185043312468072
 40
0.2823515549163755
 40
0.3364292877748171
 40
0.3845618516338014
 40
0.4273979610967604
 40
0.4685025980772589
 40
0.512245604019011
 40
0.5554058825680227
 40
0.596653805904387
 40
0.6381152833665487
 40
0.6840539965178564
 40
0.7342008241120019
 40
0.7920906317510511
 40
0.8600890776022713
 40
0.9383204757568073
 40
1.0
 40
1.0
 40
1.0
 40
1.0
 10
168.6518039690912
 20
145.8675423928115
 30
0.0
 10
168.7523517839169
 20
145.0953415111202
 30
0.0
 10
169.0324731138872
 20
142.9440273492119
 30
0.0
 10
169.6213001562202
 20
139.7075249609036
 30
0.0
 10
170.3833025020862
 20
136.3209948481853
 30
0.0
 10
171.202592019218
 20
133.5440983585308
 30
0.0
 10
172.082061050776
 20
131.2024992215682
 30
0.0
 10
173.0318293995405
 20
129.2339205326692
 30
0.0
 10
174.0707671157957
 20
127.5352280967617
 30
0.0
 10
175.2651451550731
 20
126.0242274302378
 30
0.0
 10
176.644666421405
 20
124.6722348985145
 30
0.0
 10
178.1934768620034
 20
123.5128741188723
 30
0.0
 10
179.8576631892743
 20
122.5982183327845
 30
0.0
 10
181.6496904948454
 20
121.857886684565
 30
0.0
 10
183.6348508246319
 20
121.2614342724498
 30
0.0
 10
185.9052181086219
 20
120.7893403170616
 30
0.0
 10
188.5305163485046
 20
120.4240021842759
 30
0.0
 10
191.5951214733391
 20
120.1963521065696
 30
0.0
 10
194.7231090427776
 20
120.1106629988457
 30
0.0
 10
196.8283510836301
 20
120.1103932430726
 30
0.0
 10
197.7564439392216
 20
120.1102743216369
 30
0.0
  0
LINE
  5
11C
330
1F
100
AcDbEntity
  8
0
  6
Continuous
 62
     7
370
    15
100
AcDbLine
 10
173.4916247564
 20
285.3138344653
 30
0.0
 11
172.4550292032
 21
268.9249227115
 31
0.0
  0
SPLINE
  5
11D
330
1F
100
AcDbEntity
  8
0
  6
Continuous
 62
     7
370
    15
100
AcDbSpline
210
0.0
220
0.0
230
1.0
 70
     8
 71
     3
 72
    17
 73
    13
 74
     0
 42
0.00000001
 43
0.00000001
 40
0.0
 40
0.0
 40
0.0
 40
0.0
 40
0.1818025650042387
 40
0.3211115715351801
 40
0.4292646731484229
 40
0.5274607592629516
 40
0.614980589477125
 40
0.7028324509231042
 40
0.7904567224465172
 40
0.8854246053500002
 40
0.9863063367558523
 40
1.0
 40
1.0
 40
1.0
 40
1.0
 10
197.7568392666529
 20
310.6699744530533
 30
0.0
 10
197.0687043732572
 20
310.6756228234631
 30
0.0
 10
195.85327555331
 20
310.6855993444152
 30
0.0
 10
194.2317375550226
 20
310.5727727525314
 30
0.0
 10
192.934230673018
 20
310.3917551965491
 30
0.0
 10
191.8610339116623
 20
310.0836996491867
 30
0.0
 10
190.9254472240338
 20
309.6232368442859
 30
0.0
 10
190.1542411087595
 20
308.9805582463895
 30
0.0
 10
189.5141623400856
 20
308.1733654797485
 30
0.0
 10
189.0187122638385
 20
307.2185584205739
 30
0.0
 10
188.7250935983664
 20
306.4779051862282
 30
0.0
 10
188.6190328630495
 20
306.0574977743561
 30
0.0
 10
188.6063568430602
 20
306.0072521038864
 30
0.0
  0
SPLINE
  5
11E
330
1F
100
AcDbEntity
  8
0
  6
Continuous
 62
     7
370
    15
100
AcDbSpline
210
0.0
220
0.0
230
1.0
 70
     8
 71
     3
 72
    17
 73
    13
 74
     0
 42
0.00000001
 43
0.00000001
 40
0.0
 40
0.0
 40
0.0
 40
0.0
 40
0.0343769189249783
 40
0.1408310480793477
 40
0.2379504953637339
 40
0.3279122882360193
 40
0.4159621845298521
 40
0.5012890255891534
 40
0.5972839358435357
 40
0.7063681990247398
 40
0.8562811300105841
 40
1.0
 40
1.0
 40
1.0
 40
1.0
 10
206.900181821233
 20
306.0004124708984
 30
0.0
 10
206.8671027765055
 20
306.1262911043372
 30
0.0
 10
206.7315886965904
 20
306.6419748954492
 30
0.0
 10
206.383466247371
 20
307.4781203766087
 30
0.0
 10
205.8176085785519
 20
308.4392588124275
 30
0.0
 10
205.1153607287671
 20
309.2199077428605
 30
0.0
 10
204.2897693754023
 20
309.7940238858748
 30
0.0
 10
203.343827349071
 20
310.1891201240837
 30
0.0
 10
202.2714698263767
 20
310.4463144538117
 30
0.0
 10
200.9356595794382
 20
310.6041387109304
 30
0.0
 10
199.4124652079123
 20
310.6885256548902
 30
0.0
 10
198.3009139602644
 20
310.6745049116088
 30
0.0
 10
197.7568622304562
 20
310.6676424213264
 30
0.0
  0
LINE
  5
11F
330
1F
100
AcDbEntity
  8
0
  6
Continuous
 62
     7
370
    15
100
AcDbLine
 10
223.0551127481
 20
268.9689928957
 30
0.0
 11
222.0213074374
 21
285.3137934872
 31
0.0
  0
SPLINE
  5
120
330
1F
100
AcDbEntity
  8
0
  6
Continuous
 62
     7
370
    15
100
AcDbSpline
210
0.0
220
0.0
230
1.0
 70
     8
 71
     3
 72
    13
 73
     9
 74
     0
 42
0.00000001
 43
0.00000001
 40
0.0
 40
0.0
 40
0.0
 40
0.0
 40
0.1619248854027308
 40
0.4276206820211166
 40
0.5933940085968519
 40
0.7364201623158928
 40
0.8729222679262719
 40
1.0
 40
1.0
 40
1.0
 40
1.0
 10
207.3312146725714
 20
290.7624440558765
 30
0.0
 10
207.4158869880491
 20
290.73822113686
 30
0.0
 10
207.6394945774743
 20
290.6742518394625
 30
0.0
 10
207.9142516027475
 20
290.652644982366
 30
0.0
 10
208.1592353698896
 20
290.7185766349478
 30
0.0
 10
208.3185703896067
 20
290.8551638870865
 30
0.0
 10
208.3934500501048
 20
291.0372059942638
 30
0.0
 10
208.381012357932
 20
291.1509565965977
 30
0.0
 10
208.3750158684909
 20
291.205798304877
 30
0.0
  0
SPLINE
  5
121
330
1F
100
AcDbEntity
  8
0
  6
Continuous
 62
     7
370
    15
100
AcDbSpline
210
0.0
220
0.0
230
1.0
 70
     8
 71
     3
 72
    14
 73
    10
 74
     0
 42
0.00000001
 43
0.00000001
 40
0.0
 40
0.0
 40
0.0
 40
0.0
 40
0.0439429514318338
 40
0.1999609108868792
 40
0.3591910189253116
 40
0.500200052473779
 40
0.6816424205849851
 40
0.9503122735595343
 40
0.9999999999999999
 40
0.9999999999999999
 40
0.9999999999999999
 40
0.9999999999999999
 10
187.1395880492985
 20
291.1368282802913
 30
0.0
 10
187.1352050555343
 20
291.1206004307613
 30
0.0
 10
187.1152603909875
 20
291.0467561515759
 30
0.0
 10
187.1730898576218
 20
290.8906073556957
 30
0.0
 10
187.3074174411571
 20
290.7490672241262
 30
0.0
 10
187.4900838413191
 20
290.6749070140194
 30
0.0
 10
187.7255385190549
 20
290.6589624568792
 30
0.0
 10
187.9509398303046
 20
290.6895604318308
 30
0.0
 10
188.1043222712031
 20
290.7413068542783
 30
0.0
 10
188.1282614680588
 20
290.7493831880901
 30
0.0
  0
SPLINE
  5
122
330
1F
100
AcDbEntity
  8
0
  6
Continuous
 62
     7
370
    15
100
AcDbSpline
210
0.0
220
0.0
230
1.0
 70
     8
 71
     3
 72
    13
 73
     9
 74
     0
 42
0.00000001
 43
0.00000001
 40
0.0
 40
0.0
 40
0.0
 40
0.0
 40
0.1368600164573466
 40
0.3074615777519616
 40
0.4800391407647715
 40
0.6528204434102749
 40
0.826291949782203
 40
1.0
 40
1.0
 40
1.0
 40
1.0
 10
226.8140964346588
 20
263.9478976198051
 30
0.0
 10
226.9602347516314
 20
263.7391675575457
 30
0.0
 10
227.2885404078012
 20
263.2702470069876
 30
0.0
 10
227.7183109251867
 20
262.5008904894116
 30
0.0
 10
228.1342145996927
 20
261.6389114339813
 30
0.0
 10
228.5020052982331
 20
260.7237022313979
 30
0.0
 10
228.8324553761596
 20
259.7586128770735
 30
0.0
 10
229.0230498405949
 20
259.0646385356166
 30
0.0
 10
229.1184120016754
 20
258.7174149521205
 30
0.0
  0
SPLINE
  5
123
330
1F
100
AcDbEntity
  8
0
  6
Continuous
 62
     7
370
    15
100
AcDbSpline
210
0.0
220
0.0
230
1.0
 70
     8
 71
     3
 72
    13
 73
     9
 74
     0
 42
0.00000001
 43
0.00000001
 40
0.0
 40
0.0
 40
0.0
 40
0.0
 40
0.1788818722920008
 40
0.3583085722173812
 40
0.5379925282442516
 40
0.7181821965916801
 40
0.8683395669925733
 40
1.0
 40
1.0
 40
1.0
 40
1.0
 10
166.3945146041572
 20
258.7174168147657
 30
0.0
 10
166.4957861281021
 20
259.0851148725562
 30
0.0
 10
166.6986376227006
 20
259.8216309007371
 30
0.0
 10
167.0546942855639
 20
260.8436822139921
 30
0.0
 10
167.4546679563189
 20
261.8148183748995
 30
0.0
 10
167.8937243880262
 20
262.6806428264898
 30
0.0
 10
168.3218845592787
 20
263.4391502027472
 30
0.0
 10
168.6627215555278
 20
263.8713604027384
 30
0.0
 10
168.8219547408283
 20
264.0732815780256
 30
0.0
  0
SPLINE
  5
124
330
1F
100
AcDbEntity
  8
0
  6
Continuous
 62
     7
370
    15
100
AcDbSpline
210
0.0
220
0.0
230
1.0
 70
     8
 71
     3
 72
    14
 73
    10
 74
     0
 42
0.00000001
 43
0.00000001
 40
0.0
 40
0.0
 40
0.0
 40
0.0
 40
0.4999999999999951
 40
0.4999999999999951
 40
0.6249999999999954
 40
0.6249999999999954
 40
0.7499999999999958
 40
0.7499999999999958
 40
1.0
 40
1.0
 40
1.0
 40
1.0
 10
164.9116327744941
 20
246.5798367325496
 30
0.0
 10
165.0335770967384
 20
249.0179534505686
 30
0.0
 10
165.1984820864909
 20
251.2595215454181
 30
0.0
 10
165.4959190168711
 20
253.8078982761588
 30
0.0
 10
165.5602494385778
 20
254.305956858383
 30
0.0
 10
165.6982288122173
 20
255.2685271750841
 30
0.0
 10
165.771928678703
 20
255.7338373110356
 30
0.0
 10
166.0088178764555
 20
257.0847507569103
 30
0.0
 10
166.1876529862647
 20
257.9253850310698
 30
0.0
 10
166.3945154813055
 20
258.7174168751468
 30
0.0
  0
SPLINE
  5
125
330
1F
100
AcDbEntity
  8
0
  6
Continuous
 62
     7
370
    15
100
AcDbSpline
210
0.0
220
0.0
230
1.0
 70
     8
 71
     3
 72
    18
 73
    14
 74
     0
 42
0.00000001
 43
0.00000001
 40
0.0
 40
0.0
 40
0.0
 40
0.0
 40
0.2499999999999999
 40
0.2499999999999999
 40
0.4999999999999999
 40
0.4999999999999999
 40
0.625
 40
0.625
 40
0.75
 40
0.75
 40
0.875
 40
0.875
 40
1.0
 40
1.0
 40
1.0
 40
1.0
 10
197.7564641948227
 20
274.7256785488726
 30
0.0
 10
197.5007669147661
 20
274.7261188447769
 30
0.0
 10
197.2497590360621
 20
274.7261675730966
 30
0.0
 10
196.7575256297069
 20
274.7257630825586
 30
0.0
 10
196.5278033265829
 20
274.7253265133991
 30
0.0
 10
196.2106135189117
 20
274.7249217981171
 30
0.0
 10
196.1093145361594
 20
274.7248328115417
 30
0.0
 10
195.9234610455179
 20
274.724870964484
 30
0.0
 10
195.8378719097951
 20
274.7249961098452
 30
0.0
 10
195.6815633238501
 20
274.7255720135642
 30
0.0
 10
195.6104281171879
 20
274.7260290509631
 30
0.0
 10
195.4874364786677
 20
274.7273531423012
 30
0.0
 10
195.4351972102685
 20
274.7282179976481
 30
0.0
 10
195.3924000726945
 20
274.7293214785233
 30
0.0
  0
SPLINE
  5
126
330
1F
100
AcDbEntity
  8
0
  6
Continuous
 62
     7
370
    15
100
AcDbSpline
210
0.0
220
0.0
230
1.0
 70
     8
 71
     3
 72
    17
 73
    13
 74
     0
 42
0.00000001
 43
0.00000001
 40
0.0
 40
0.0
 40
0.0
 40
0.0
 40
0.046061729083891
 40
0.151631074419625
 40
0.2602604663311704
 40
0.3658686024473182
 40
0.4745305318833838
 40
0.580255442552312
 40
0.6890365083647689
 40
0.794929103979763
 40
0.9038805000129799
 40
1.0
 40
1.0
 40
1.0
 40
1.0
 10
197.7564551819066
 20
274.7923890419814
 30
0.0
 10
197.6959801730365
 20
274.7924996755267
 30
0.0
 10
197.4969018763052
 20
274.7928638712195
 30
0.0
 10
197.1576582056047
 20
274.7920966549759
 30
0.0
 10
196.7577859958435
 20
274.7892091123197
 30
0.0
 10
196.3826499207901
 20
274.784392112004
 30
0.0
 10
196.0494831912133
 20
274.7780480765208
 30
0.0
 10
195.7619313255273
 20
274.7704662981286
 30
0.0
 10
195.5325880622072
 20
274.7622530548561
 30
0.0
 10
195.3661166789154
 20
274.7538574475684
 30
0.0
 10
195.2654084005058
 20
274.7460776315611
 30
0.0
 10
195.2562210259432
 20
274.7417495282481
 30
0.0
 10
195.2519147793412
 20
274.7397208877418
 30
0.0
  0
SPLINE
  5
127
330
1F
100
AcDbEntity
  8
0
  6
Continuous
 62
     7
370
    15
100
AcDbSpline
210
0.0
220
0.0
230
1.0
 70
     8
 71
     3
 72
    16
 73
    12
 74
     0
 42
0.00000001
 43
0.00000001
 40
0.0
 40
0.0
 40
0.0
 40
0.0
 40
0.25
 40
0.25
 40
0.5
 40
0.5
 40
0.75
 40
0.75
 40
0.875
 40
0.875
 40
1.0
 40
1.0
 40
1.0
 40
1.0
 10
229.1184134459493
 20
258.7174148107968
 30
0.0
 10
229.3251191435639
 20
257.9259830384794
 30
0.0
 10
229.5031946077235
 20
257.0884871227598
 30
0.0
 10
229.8169669154076
 20
255.3020857388366
 30
0.0
 10
229.9526731791244
 20
254.3528136866289
 30
0.0
 10
230.1897901554621
 20
252.3335781858765
 30
0.0
 10
230.2911020182368
 20
251.263842599401
 30
0.0
 10
230.4227044978032
 20
249.5628553853463
 30
0.0
 10
230.4630388883421
 20
248.9811641098251
 30
0.0
 10
230.5369089491752
 20
247.7975043207155
 30
0.0
 10
230.5705646572687
 20
247.1942618816727
 30
0.0
 10
230.6012956135949
 20
246.5798367325498
 30
0.0
  0
SPLINE
  5
128
330
1F
100
AcDbEntity
  8
0
  6
Continuous
 62
     7
370
    15
100
AcDbSpline
210
0.0
220
0.0
230
1.0
 70
     8
 71
     3
 72
    16
 73
    12
 74
     0
 42
0.00000001
 43
0.00000001
 40
0.0
 40
0.0
 40
0.0
 40
0.0
 40
0.105173244650495
 40
0.2145293037025051
 40
0.3207151678153723
 40
0.4299897566670521
 40
0.5359906449047103
 40
0.6450738435227718
 40
0.7508920401421362
 40
0.8597861104986037
 40
1.0
 40
1.0
 40
1.0
 40
1.0
 10
200.2636078881681
 20
274.7396799095485
 30
0.0
 10
200.2571636695392
 20
274.7419289381988
 30
0.0
 10
200.2440189411442
 20
274.7465164409612
 30
0.0
 10
200.1351039512838
 20
274.7545759084559
 30
0.0
 10
199.9619238777996
 20
274.7630219764134
 30
0.0
 10
199.7263787297881
 20
274.7712142316344
 30
0.0
 10
199.4327213811536
 20
274.7787325750853
 30
0.0
 10
199.0943610612705
 20
274.7849593127164
 30
0.0
 10
198.7148081134929
 20
274.7895733922766
 30
0.0
 10
198.2686115290066
 20
274.7927190920003
 30
0.0
 10
197.9409077977405
 20
274.7925079091783
 30
0.0
 10
197.7564551821309
 20
274.7923890419814
 30
0.0
  0
SPLINE
  5
129
330
1F
100
AcDbEntity
  8
0
  6
Continuous
 62
     7
370
    15
100
AcDbSpline
210
0.0
220
0.0
230
1.0
 70
     8
 71
     3
 72
    16
 73
    12
 74
     0
 42
0.00000001
 43
0.00000001
 40
0.0
 40
0.0
 40
0.0
 40
0.0
 40
0.2499999999999909
 40
0.2499999999999909
 40
0.4999999999999927
 40
0.4999999999999927
 40
0.7499999999999944
 40
0.7499999999999944
 40
0.8749999999999972
 40
0.8749999999999972
 40
1.0
 40
1.0
 40
1.0
 40
1.0
 10
200.1205283153944
 20
274.7293214785233
 30
0.0
 10
200.0350614512723
 20
274.7271178019373
 30
0.0
 10
199.9098058596716
 20
274.7258639598112
 30
0.0
 10
199.5984207746239
 20
274.7247108312596
 30
0.0
 10
199.4080584697579
 20
274.7247875128946
 30
0.0
 10
198.9876870086287
 20
274.7253226110886
 30
0.0
 10
198.7528645326952
 20
274.7257649211195
 30
0.0
 10
198.3880845492126
 20
274.7260650479164
 30
0.0
 10
198.2642903582276
 20
274.7261083546805
 30
0.0
 10
198.0123498001661
 20
274.7260257345386
 30
0.0
 10
197.8835793599152
 20
274.7258974338257
 30
0.0
 10
197.7564641941258
 20
274.7256785488741
 30
0.0
  0
LWPOLYLINE
  5
12A
330
1F
100
AcDbEntity
  8
0
  6
Continuous
 62
     7
370
    15
100
AcDbPolyline
 90
        5
 70
   128
 43
0.0
 10
229.905428006
 20
244.9387647503
 10
229.9566730993
 20
244.8444040783
 10
229.9800232189
 20
244.776855252
 10
229.973723753
 20
244.7411958419
 10
229.9722336369
 20
244.7400233068
  0
LWPOLYLINE
  5
12B
330
1F
100
AcDbEntity
  8
0
  6
Continuous
 62
     7
370
    15
100
AcDbPolyline
 90
        5
 70
   128
 43
0.0
 10
165.5400484937
 20
244.7405010753
 10
165.5392065781
 20
244.7411958419
 10
165.5329071122
 20
244.776855252
 10
165.5562572318
 20
244.8444040783
 10
165.6075023251
 20
244.9387647503
  0
SPLINE
  5
12C
330
1F
100
AcDbEntity
  8
0
  6
Continuous
 62
     7
370
    15
100
AcDbSpline
210
0.0
220
0.0
230
1.0
 70
     8
 71
     3
 72
     8
 73
     4
 74
     0
 42
0.00000001
 43
0.00000001
 40
0.0
 40
0.0
 40
0.0
 40
0.0
 40
1.0
 40
1.0
 40
1.0
 40
1.0
 10
230.6893388382954
 20
244.5099430249976
 30
0.0
 10
230.70366147444
 20
244.1346464844127
 30
0.0
 10
230.7169102110479
 20
243.7556888301554
 30
0.0
 10
230.7290281673905
 20
243.3731505605758
 30
0.0
  0
LINE
  5
12D
330
1F
100
AcDbEntity
  8
0
  6
Continuous
 62
     7
370
    15
100
AcDbLine
 10
230.5025510626
 20
245.5773745023
 30
0.0
 11
230.6893371182
 21
244.5099428587
 31
0.0
  0
LINE
  5
12E
330
1F
100
AcDbEntity
  8
0
  6
Continuous
 62
     7
370
    15
100
AcDbLine
 10
164.8235894876
 20
244.5099428587
 30
0.0
 11
165.0089524823
 21
245.5650978081
 31
0.0
  0
SPLINE
  5
12F
330
1F
100
AcDbEntity
  8
0
  6
Continuous
 62
     7
370
    15
100
AcDbSpline
210
0.0
220
0.0
230
1.0
 70
     8
 71
     3
 72
     8
 73
     4
 74
     0
 42
0.00000001
 43
0.00000001
 40
0.0
 40
0.0
 40
0.0
 40
0.0
 40
1.0
 40
1.0
 40
1.0
 40
1.0
 10
164.7839002206988
 20
243.3731505605758
 30
0.0
 10
164.7960321269529
 20
243.7561291993796
 30
0.0
 10
164.8092834782107
 20
244.1350805261995
 30
0.0
 10
164.8235895497939
 20
244.5099430249976
 30
0.0
  0
SPLINE
  5
130
330
1F
100
AcDbEntity
  8
0
  6
Continuous
 62
     7
370
    15
100
AcDbSpline
210
0.0
220
0.0
230
1.0
 70
     8
 71
     3
 72
    24
 73
    20
 74
     0
 42
0.00000001
 43
0.00000001
 40
0.0
 40
0.0
 40
0.0
 40
0.0
 40
0.0625000000000002
 40
0.0625000000000002
 40
0.1250000000000004
 40
0.1250000000000004
 40
0.2500000000000003
 40
0.2500000000000003
 40
0.3750000000000002
 40
0.3750000000000002
 40
0.5000000000000001
 40
0.5000000000000001
 40
0.6250000000000001
 40
0.6250000000000001
 40
0.75
 40
0.75
 40
0.8749999999999999
 40
0.8749999999999999
 40
1.0
 40
1.0
 40
1.0
 40
1.0
 10
230.7287967476555
 20
243.3729245111953
 30
0.0
 10
230.7445183865347
 20
242.8762326928612
 30
0.0
 10
230.7588575752103
 20
242.3718325843869
 30
0.0
 10
230.784757361403
 20
241.3578830507875
 30
0.0
 10
230.7963690588013
 20
240.8467074157753
 30
0.0
 10
230.8275586627211
 20
239.3013221149234
 30
0.0
 10
230.843500314256
 20
238.2552755577357
 30
0.0
 10
230.8672839505679
 20
236.1352047940832
 30
0.0
 10
230.8751081018754
 20
235.0618996816285
 30
0.0
 10
230.8842995786293
 20
232.9006101091052
 30
0.0
 10
230.8856921277201
 20
231.8112665918847
 30
0.0
 10
230.8826317903672
 20
229.6170611658521
 30
0.0
 10
230.8781645407844
 20
228.5115285991456
 30
0.0
 10
230.8643497393869
 20
226.2947782923895
 30
0.0
 10
230.8550333730799
 20
225.1826304882632
 30
0.0
 10
230.8321391535481
 20
222.9519575565189
 30
0.0
 10
230.8185575216112
 20
221.8334343354235
 30
0.0
 10
230.787834510969
 20
219.5910357203241
 30
0.0
 10
230.7706822537426
 20
218.4652862984911
 30
0.0
 10
230.7520152740013
 20
217.3409833429559
 30
0.0
  0
SPLINE
  5
131
330
1F
100
AcDbEntity
  8
0
  6
Continuous
 62
     7
370
    15
100
AcDbSpline
210
0.0
220
0.0
230
1.0
 70
     8
 71
     3
 72
    20
 73
    16
 74
     0
 42
0.00000001
 43
0.00000001
 40
0.0
 40
0.0
 40
0.0
 40
0.0
 40
0.2500000000000003
 40
0.2500000000000003
 40
0.5000000000000006
 40
0.5000000000000006
 40
0.6250000000000006
 40
0.6250000000000006
 40
0.7500000000000006
 40
0.7500000000000006
 40
0.8750000000000007
 40
0.8750000000000007
 40
0.9375000000000003
 40
0.9375000000000003
 40
1.0
 40
1.0
 40
1.0
 40
1.0
 10
164.760913114088
 20
217.3409833429558
 30
0.0
 10
164.7235400483334
 20
219.5919444814969
 30
0.0
 10
164.6922039294268
 20
221.8386418247277
 30
0.0
 10
164.6463846214642
 20
226.3052728907192
 30
0.0
 10
164.6317966592196
 20
228.5279540075556
 30
0.0
 10
164.627240079474
 20
231.8153488156797
 30
0.0
 10
164.6286360917595
 20
232.9041842183455
 30
0.0
 10
164.6378464040815
 20
235.0661725394084
 30
0.0
 10
164.6456889041105
 20
236.1399747520429
 30
0.0
 10
164.669460309054
 20
238.2573401843693
 30
0.0
 10
164.6853900245038
 20
239.3024138030161
 30
0.0
 10
164.7165648318878
 20
240.8469370743842
 30
0.0
 10
164.7281721807135
 20
241.3579248950965
 30
0.0
 10
164.7540673721678
 20
242.371701218504
 30
0.0
 10
164.7683935346589
 20
242.8757124494835
 30
0.0
 10
164.7841316404338
 20
243.3729245111954
 30
0.0
  0
LINE
  5
132
330
1F
100
AcDbEntity
  8
0
  6
Continuous
 62
     7
370
    15
100
AcDbLine
 10
164.8113668101
 20
244.1936307878
 30
0.0
 11
164.8235894876
 21
244.5099428587
 31
0.0
  0
LINE
  5
133
330
1F
100
AcDbEntity
  8
0
  6
Continuous
 62
     7
370
    15
100
AcDbLine
 10
230.6893371182
 20
244.5099428587
 30
0.0
 11
230.7015150922
 21
244.1934580274
 31
0.0
  0
SPLINE
  5
134
330
1F
100
AcDbEntity
  8
0
  6
Continuous
 62
     7
370
    15
100
AcDbSpline
210
0.0
220
0.0
230
1.0
 70
     8
 71
     3
 72
    24
 73
    20
 74
     0
 42
0.00000001
 43
0.00000001
 40
0.0
 40
0.0
 40
0.0
 40
0.0
 40
0.125
 40
0.125
 40
0.25
 40
0.25
 40
0.375
 40
0.375
 40
0.5
 40
0.5
 40
0.625
 40
0.625
 40
0.75
 40
0.75
 40
0.875
 40
0.875
 40
0.9375
 40
0.9375
 40
1.0
 40
1.0
 40
1.0
 40
1.0
 10
167.9255247571974
 20
152.062148778083
 30
0.0
 10
167.6452611154657
 20
154.7727949059431
 30
0.0
 10
167.4116629330472
 20
157.4888114765216
 30
0.0
 10
166.9872881052328
 20
162.9230606558041
 30
0.0
 10
166.7954269147226
 20
165.6410780591855
 30
0.0
 10
166.4452547773792
 20
171.0785311151433
 30
0.0
 10
166.287829643505
 20
173.7980214975381
 30
0.0
 10
166.0006342721795
 20
179.2382955110185
 30
0.0
 10
165.8711104984102
 20
181.9590740196311
 30
0.0
 10
165.6338264228688
 20
187.40156129935
 30
0.0
 10
165.5259605735485
 20
190.1232503299906
 30
0.0
 10
165.3270773975207
 20
195.5672092256259
 30
0.0
 10
165.2368049297398
 20
198.2895659791862
 30
0.0
 10
165.0723806878032
 20
203.7340500347613
 30
0.0
 10
164.9983839799906
 20
206.456191468256
 30
0.0
 10
164.9004689568246
 20
210.5386799110078
 30
0.0
 10
164.8699309989149
 20
211.8993851648092
 30
0.0
 10
164.8120661363214
 20
214.6203893238919
 30
0.0
 10
164.7836729068907
 20
215.9806374483643
 30
0.0
 10
164.7606580161157
 20
217.3407882488745
 30
0.0
  0
SPLINE
  5
135
330
1F
100
AcDbEntity
  8
0
  6
Continuous
 62
     7
370
    15
100
AcDbSpline
210
0.0
220
0.0
230
1.0
 70
     8
 71
     3
 72
    24
 73
    20
 74
     0
 42
0.00000001
 43
0.00000001
 40
0.0
 40
0.0
 40
0.0
 40
0.0
 40
0.0624999999999999
 40
0.0624999999999999
 40
0.1249999999999998
 40
0.1249999999999998
 40
0.2499999999999998
 40
0.2499999999999998
 40
0.3749999999999998
 40
0.3749999999999998
 40
0.4999999999999999
 40
0.4999999999999999
 40
0.6249999999999999
 40
0.6249999999999999
 40
0.7499999999999999
 40
0.7499999999999999
 40
0.875
 40
0.875
 40
1.0
 40
1.0
 40
1.0
 40
1.0
 10
230.7522703719736
 20
217.3407882488744
 30
0.0
 10
230.7291707536479
 20
215.9756301577745
 30
0.0
 10
230.7006504544973
 20
214.6098044340109
 30
0.0
 10
230.6425041338541
 20
211.876823697318
 30
0.0
 10
230.6118008032794
 20
210.5097077950007
 30
0.0
 10
230.5132893261507
 20
206.4069441234028
 30
0.0
 10
230.4387684772259
 20
203.669889564167
 30
0.0
 10
230.2730736899823
 20
198.1939821777824
 30
0.0
 10
230.1820267461655
 20
195.4551118095538
 30
0.0
 10
229.9813691252624
 20
189.9777746733172
 30
0.0
 10
229.8725080903716
 20
187.2396906747265
 30
0.0
 10
229.6328637210802
 20
181.7650390519152
 30
0.0
 10
229.501970464277
 20
179.0284770017782
 30
0.0
 10
229.2115749400848
 20
173.5573265700721
 30
0.0
 10
229.0523233811303
 20
170.8227208958303
 30
0.0
 10
228.697900717045
 20
165.3559875346672
 30
0.0
 10
228.5039096080789
 20
162.6237784401131
 30
0.0
 10
228.0739245426488
 20
157.1622579161659
 30
0.0
 10
227.8364599111434
 20
154.4330479475304
 30
0.0
 10
227.5504311647178
 20
151.7071882941966
 30
0.0
  0
SPLINE
  5
136
330
1F
100
AcDbEntity
  8
0
  6
Continuous
 62
     7
370
    15
100
AcDbSpline
210
0.0
220
0.0
230
1.0
 70
     8
 71
     3
 72
    22
 73
    18
 74
     0
 42
0.00000001
 43
0.00000001
 40
0.0
 40
0.0
 40
0.0
 40
0.0
 40
0.0841022909688778
 40
0.1467957937890636
 40
0.2098936380079987
 40
0.2735937723505036
 40
0.3381009787130123
 40
0.4045981275081286
 40
0.4719197734169231
 40
0.539648711817686
 40
0.6081979993324651
 40
0.6804462468073977
 40
0.7531437363395928
 40
0.8272129734036596
 40
0.9017393879776562
 40
0.9792933131770651
 40
0.9999999999999999
 40
0.9999999999999999
 40
0.9999999999999999
 40
0.9999999999999999
 10
189.9525677921831
 20
308.6735019751403
 30
0.0
 10
189.1606137485651
 20
308.3690369583053
 30
0.0
 10
187.7783027420744
 20
307.8376104857039
 30
0.0
 10
185.9356553549153
 20
306.7911711174187
 30
0.0
 10
184.3425394672863
 20
305.7382144016226
 30
0.0
 10
182.8259338257045
 20
304.5457348324877
 30
0.0
 10
181.3812741908934
 20
303.2167131265482
 30
0.0
 10
180.020320244991
 20
301.7515432226311
 30
0.0
 10
178.7578984743924
 20
300.1591428543622
 30
0.0
 10
177.6107492635544
 20
298.4568270494527
 30
0.0
 10
176.5725608356047
 20
296.6287059215007
 30
0.0
 10
175.6574817395035
 20
294.6801586282091
 30
0.0
 10
174.8792345084958
 20
292.6138717814986
 30
0.0
 10
174.2547139981235
 20
290.4711271245517
 30
0.0
 10
173.8036437946015
 20
288.2377407082349
 30
0.0
 10
173.5541660084777
 20
286.5107260075932
 30
0.0
 10
173.5178455068524
 20
285.5214808330377
 30
0.0
 10
173.5101916032493
 20
285.3130149014805
 30
0.0
  0
SPLINE
  5
137
330
1F
100
AcDbEntity
  8
0
  6
Continuous
 62
     7
370
    15
100
AcDbSpline
210
0.0
220
0.0
230
1.0
 70
     8
 71
     3
 72
    18
 73
    14
 74
     0
 42
0.00000001
 43
0.00000001
 40
0.0
 40
0.0
 40
0.0
 40
0.0
 40
0.0452402304476535
 40
0.13575115465606
 40
0.2265905216217969
 40
0.2864736501476738
 40
0.4065182567299256
 40
0.5279162519309853
 40
0.6480121830263621
 40
0.7082476589856334
 40
0.7676068859517483
 40
0.8866299101398296
 40
1.0
 40
1.0
 40
1.0
 40
1.0
 10
218.5626045005977
 20
297.276836849055
 30
0.0
 10
218.4311512172081
 20
297.5098180408738
 30
0.0
 10
218.036702850635
 20
298.2089184983558
 30
0.0
 10
217.3173993002596
 20
299.3404318838646
 30
0.0
 10
216.4838516708666
 20
300.4988975216844
 30
0.0
 10
215.4826487603297
 20
301.7486374346685
 30
0.0
 10
214.2840037009909
 20
303.0698028004138
 30
0.0
 10
212.717214847719
 20
304.5278026401819
 30
0.0
 10
211.3090164392991
 20
305.6270789972311
 30
0.0
 10
210.1365824803276
 20
306.4241675274031
 30
0.0
 10
208.9348036774883
 20
307.1635094447328
 30
0.0
 10
207.4109670526316
 20
307.9805327301555
 30
0.0
 10
206.1317754178608
 20
308.484792589603
 30
0.0
 10
205.5077376911998
 20
308.7307894893501
 30
0.0
  0
SPLINE
  5
138
330
1F
100
AcDbEntity
  8
0
  6
Continuous
 62
     7
370
    15
100
AcDbSpline
210
0.0
220
0.0
230
1.0
 70
     8
 71
     3
 72
    14
 73
    10
 74
     0
 42
0.00000001
 43
0.00000001
 40
0.0
 40
0.0
 40
0.0
 40
0.0
 40
0.2499999999999992
 40
0.2499999999999992
 40
0.3749999999999991
 40
0.3749999999999991
 40
0.499999999999999
 40
0.499999999999999
 40
1.0
 40
1.0
 40
1.0
 40
1.0
 10
207.4473223587338
 20
290.7529476882986
 30
0.0
 10
206.6966284821466
 20
290.9392516963023
 30
0.0
 10
205.9268442062726
 20
291.105445394635
 30
0.0
 10
204.7409943371827
 20
291.325062885499
 30
0.0
 10
204.3407212613998
 20
291.3931919286842
 30
0.0
 10
203.5377274278981
 20
291.517797441273
 30
0.0
 10
203.1340292071632
 20
291.57445925556
 30
0.0
 10
201.1047650078849
 20
291.8286507569172
 30
0.0
 10
199.4473575147094
 20
291.9389011471058
 30
0.0
 10
197.7564641940446
 20
291.9389298585274
 30
0.0
  0
SPLINE
  5
139
330
1F
100
AcDbEntity
  8
0
  6
Continuous
 62
     7
370
    15
100
AcDbSpline
210
0.0
220
0.0
230
1.0
 70
     8
 71
     3
 72
    16
 73
    12
 74
     0
 42
0.00000001
 43
0.00000001
 40
0.0
 40
0.0
 40
0.0
 40
0.0
 40
0.2499999999999997
 40
0.2499999999999997
 40
0.3749999999999995
 40
0.3749999999999995
 40
0.4999999999999993
 40
0.4999999999999993
 40
0.7499999999999997
 40
0.7499999999999997
 40
1.0
 40
1.0
 40
1.0
 40
1.0
 10
197.7564641940446
 20
291.9389298585274
 30
0.0
 10
196.9106776218736
 20
291.9389442200101
 30
0.0
 10
196.0683120173898
 20
291.9113885596338
 30
0.0
 10
194.8099726642029
 20
291.8303826380871
 30
0.0
 10
194.3914529413339
 20
291.7967471642463
 30
0.0
 10
193.5643312932721
 20
291.7175879175164
 30
0.0
 10
193.1546992963206
 20
291.672010846036
 30
0.0
 10
191.9375160090938
 20
291.5184957320124
 30
0.0
 10
191.1416940453209
 20
291.3939098737516
 30
0.0
 10
189.5808898820066
 20
291.1042197912777
 30
0.0
 10
188.8159260356505
 20
290.9391902019527
 30
0.0
 10
188.065674514037
 20
290.7529695390345
 30
0.0
  0
SPLINE
  5
13A
330
1F
100
AcDbEntity
  8
0
  6
Continuous
 62
     7
370
    15
100
AcDbSpline
210
0.0
220
0.0
230
1.0
 70
     8
 71
     3
 72
    16
 73
    12
 74
     0
 42
0.00000001
 43
0.00000001
 40
0.0
 40
0.0
 40
0.0
 40
0.0
 40
0.2499999999999993
 40
0.2499999999999993
 40
0.4999999999999987
 40
0.4999999999999987
 40
0.7499999999999993
 40
0.7499999999999993
 40
0.8749999999999997
 40
0.8749999999999997
 40
1.0
 40
1.0
 40
1.0
 40
1.0
 10
187.1343545836868
 20
291.164367989277
 30
0.0
 10
187.1802815092917
 20
292.4113863495443
 30
0.0
 10
187.2310188112412
 20
293.6581909035228
 30
0.0
 10
187.3535622797841
 20
296.1508623523638
 30
0.0
 10
187.4251783157455
 20
297.3974125296455
 30
0.0
 10
187.6123096714683
 20
299.8844352593758
 30
0.0
 10
187.7259242162564
 20
301.125118863104
 30
0.0
 10
187.9740991313409
 20
302.9751550716602
 30
0.0
 10
188.0701312956668
 20
303.5899525700215
 30
0.0
 10
188.3094204243649
 20
304.812860448419
 30
0.0
 10
188.4518484194447
 20
305.4210878070895
 30
0.0
 10
188.639925406322
 20
306.0228465719111
 30
0.0
  0
SPLINE
  5
13B
330
1F
100
AcDbEntity
  8
0
  6
Continuous
 62
     7
370
    15
100
AcDbSpline
210
0.0
220
0.0
230
1.0
 70
     8
 71
     3
 72
    16
 73
    12
 74
     0
 42
0.00000001
 43
0.00000001
 40
0.0
 40
0.0
 40
0.0
 40
0.0
 40
0.1250000000000003
 40
0.1250000000000003
 40
0.2500000000000007
 40
0.2500000000000007
 40
0.5000000000000013
 40
0.5000000000000013
 40
0.7500000000000007
 40
0.7500000000000007
 40
1.0
 40
1.0
 40
1.0
 40
1.0
 10
206.8730028354319
 20
306.0228504384919
 30
0.0
 10
207.0610799956747
 20
305.4210914598032
 30
0.0
 10
207.2035080940479
 20
304.8128638702895
 30
0.0
 10
207.4427973762917
 20
303.5899555156541
 30
0.0
 10
207.5388295886879
 20
302.9751577714654
 30
0.0
 10
207.7870046100366
 20
301.1251208139362
 30
0.0
 10
207.900619176511
 20
299.884436696
 30
0.0
 10
208.0877505569777
 20
297.3974129291338
 30
0.0
 10
208.1593665923018
 20
296.1508622403376
 30
0.0
 10
208.2819100596427
 20
293.6581897726023
 30
0.0
 10
208.3326473610498
 20
292.4113847089369
 30
0.0
 10
208.378574287042
 20
291.1643658389076
 30
0.0
  0
SPLINE
  5
13C
330
1F
100
AcDbEntity
  8
0
  6
Continuous
 62
     7
370
    15
100
AcDbSpline
210
0.0
220
0.0
230
1.0
 70
     8
 71
     3
 72
    15
 73
    11
 74
     0
 42
0.00000001
 43
0.00000001
 40
0.0
 40
0.0
 40
0.0
 40
0.0
 40
0.0856596736777347
 40
0.1849974255507467
 40
0.3843641894881888
 40
0.4606975987057697
 40
0.6137865660199082
 40
0.7676792829249901
 40
0.9223931341386162
 40
1.0
 40
1.0
 40
1.0
 40
1.0
 10
221.9958283143699
 20
285.3123145469043
 30
0.0
 10
221.979896794796
 20
285.6705153024314
 30
0.0
 10
221.9454898214825
 20
286.4441140655102
 30
0.0
 10
221.7344652086292
 20
288.0396902184413
 30
0.0
 10
221.4507088805722
 20
289.5846322101212
 30
0.0
 10
221.0124157260171
 20
291.3246404142783
 30
0.0
 10
220.5440954786031
 20
292.8599533797146
 30
0.0
 10
219.8535009153305
 20
294.6653733674645
 30
0.0
 10
219.1774759811987
 20
296.1350250689072
 30
0.0
 10
218.7165703014628
 20
296.990923498519
 30
0.0
 10
218.5626045005977
 20
297.276836849055
 30
0.0
  0
SPLINE
  5
13D
330
1F
100
AcDbEntity
  8
0
  6
Continuous
 62
     8
370
     0
100
AcDbSpline
210
0.0
220
0.0
230
1.0
 70
     8
 71
     3
 72
    44
 73
    40
 74
     0
 42
0.00000001
 43
0.00000001
 40
0.0
 40
0.0
 40
0.0
 40
0.0
 40
0.1249999999999966
 40
0.1249999999999966
 40
0.1874999999999956
 40
0.1874999999999956
 40
0.2499999999999947
 40
0.2499999999999947
 40
0.3124999999999937
 40
0.3124999999999937
 40
0.343749999999994
 40
0.343749999999994
 40
0.3749999999999943
 40
0.3749999999999943
 40
0.4374999999999963
 40
0.4374999999999963
 40
0.4687499999999966
 40
0.4687499999999966
 40
0.4999999999999969
 40
0.4999999999999969
 40
0.5312499999999971
 40
0.5312499999999971
 40
0.5624999999999973
 40
0.5624999999999973
 40
0.6249999999999979
 40
0.6249999999999979
 40
0.656249999999998
 40
0.656249999999998
 40
0.687499999999998
 40
0.687499999999998
 40
0.7499999999999984
 40
0.7499999999999984
 40
0.8124999999999988
 40
0.8124999999999988
 40
0.8749999999999992
 40
0.8749999999999992
 40
0.9374999999999996
 40
0.9374999999999996
 40
1.0
 40
1.0
 40
1.0
 40
1.0
 10
228.467933701086
 20
257.1802437319987
 30
0.0
 10
228.1845694522179
 20
258.1991172829774
 30
0.0
 10
227.8494226252544
 20
259.106945416164
 30
0.0
 10
227.2390537928517
 20
260.3530896466451
 30
0.0
 10
227.0174226489059
 20
260.7491860384476
 30
0.0
 10
226.5284521450332
 20
261.511525279644
 30
0.0
 10
226.2615387330979
 20
261.877915794669
 30
0.0
 10
225.6627371959867
 20
262.5883888061757
 30
0.0
 10
225.3308135919194
 20
262.9327479865091
 30
0.0
 10
224.7638357408158
 20
263.4383263175916
 30
0.0
 10
224.5629635049768
 20
263.6051876186715
 30
0.0
 10
224.1390238997899
 20
263.9316813452114
 30
0.0
 10
223.9154978933937
 20
264.0917600459309
 30
0.0
 10
223.2051317790955
 20
264.5617834738783
 30
0.0
 10
222.6786713831835
 20
264.8615987889658
 30
0.0
 10
221.7841036967799
 20
265.2844793180384
 30
0.0
 10
221.468376110184
 20
265.4209316252155
 30
0.0
 10
220.7975395988174
 20
265.683760623368
 30
0.0
 10
220.4438179935116
 20
265.8095020562513
 30
0.0
 10
219.7068001369926
 20
266.0464821067051
 30
0.0
 10
219.320830827263
 20
266.1585445014628
 30
0.0
 10
218.5267366599631
 20
266.3667490052719
 30
0.0
 10
218.1185525445908
 20
266.463026303082
 30
0.0
 10
216.8633919234026
 20
266.7304926627626
 30
0.0
 10
215.9857963310012
 20
266.8802906871195
 30
0.0
 10
214.6205730222501
 20
267.0718608159732
 30
0.0
 10
214.1569507340548
 20
267.1302288506067
 30
0.0
 10
213.2260865189051
 20
267.2363933901367
 30
0.0
 10
212.7574710894162
 20
267.2844191008325
 30
0.0
 10
211.3435877661733
 20
267.4156240859243
 30
0.0
 10
210.3903543193013
 20
267.4859714983578
 30
0.0
 10
208.4685943445277
 20
267.6022923373607
 30
0.0
 10
207.4985396306989
 20
267.6483316109577
 30
0.0
 10
205.555692638314
 20
267.7227171891958
 30
0.0
 10
204.5828968654729
 20
267.7509716569573
 30
0.0
 10
202.6353644531852
 20
267.7948095034354
 30
0.0
 10
201.6606526765442
 20
267.8107678850789
 30
0.0
 10
199.709743047326
 20
267.8328284078557
 30
0.0
 10
198.7335254474716
 20
267.8386148009072
 30
0.0
 10
197.7565322011742
 20
267.8386364909023
 30
0.0
  0
SPLINE
  5
13E
330
1F
100
AcDbEntity
  8
0
  6
Continuous
 62
     8
370
     0
100
AcDbSpline
210
0.0
220
0.0
230
1.0
 70
     8
 71
     3
 72
    22
 73
    18
 74
     0
 42
0.00000001
 43
0.00000001
 40
0.0
 40
0.0
 40
0.0
 40
0.0
 40
0.066470452807177
 40
0.1329780529927772
 40
0.1996350289390493
 40
0.2663718627446187
 40
0.3680830374862063
 40
0.4691570973219036
 40
0.5466267578629558
 40
0.6250075567611553
 40
0.6868518482848157
 40
0.7249088141167787
 40
0.8032458169269998
 40
0.8848682139978256
 40
0.937146273067037
 40
0.9896027592119165
 40
1.0
 40
1.0
 40
1.0
 40
1.0
 10
197.7566926833349
 20
270.3319462307308
 30
0.0
 10
198.5675141486092
 20
270.3278535066563
 30
0.0
 10
200.1896102111966
 20
270.3196657712661
 30
0.0
 10
202.6236737502342
 20
270.2887935720568
 30
0.0
 10
205.058155586848
 20
270.2427584199489
 30
0.0
 10
207.9135408536627
 20
270.1558330603587
 30
0.0
 10
211.165859105537
 20
269.9917352029617
 30
0.0
 10
214.4789783889877
 20
269.6929881446652
 30
0.0
 10
217.3743329756106
 20
269.2502192549969
 30
0.0
 10
219.636973480295
 20
268.7098509927039
 30
0.0
 10
221.2744337363927
 20
268.1364522141436
 30
0.0
 10
222.7309735786763
 20
267.4832991591869
 30
0.0
 10
224.1117142182217
 20
266.6662980694757
 30
0.0
 10
225.2780535988637
 20
265.7192364246341
 30
0.0
 10
226.112167990394
 20
264.8545635683084
 30
0.0
 10
226.5709753504079
 20
264.3113015220868
 30
0.0
 10
226.7795878331718
 20
263.9994791619049
 30
0.0
 10
226.8140964346588
 20
263.9478976198051
 30
0.0
  0
SPLINE
  5
13F
330
1F
100
AcDbEntity
  8
0
  6
Continuous
 62
     8
370
     0
100
AcDbSpline
210
0.0
220
0.0
230
1.0
 70
     8
 71
     3
 72
    36
 73
    32
 74
     0
 42
0.00000001
 43
0.00000001
 40
0.0
 40
0.0
 40
0.0
 40
0.0
 40
0.0625000000000003
 40
0.0625000000000003
 40
0.1250000000000005
 40
0.1250000000000005
 40
0.2500000000000009
 40
0.2500000000000009
 40
0.3125000000000012
 40
0.3125000000000012
 40
0.3750000000000013
 40
0.3750000000000013
 40
0.4375000000000018
 40
0.4375000000000018
 40
0.4687500000000019
 40
0.4687500000000019
 40
0.500000000000002
 40
0.500000000000002
 40
0.562500000000002
 40
0.562500000000002
 40
0.625000000000002
 40
0.625000000000002
 40
0.6875000000000019
 40
0.6875000000000019
 40
0.7500000000000018
 40
0.7500000000000018
 40
0.8125000000000018
 40
0.8125000000000018
 40
0.8750000000000017
 40
0.8750000000000017
 40
1.0
 40
1.0
 40
1.0
 40
1.0
 10
197.7563961869149
 20
267.8386364909023
 30
0.0
 10
196.7815756949445
 20
267.8386148491441
 30
0.0
 10
195.8067103280497
 20
267.8328485772072
 30
0.0
 10
193.8598767487909
 20
267.810873414533
 30
0.0
 10
192.8875411902211
 20
267.7949790624866
 30
0.0
 10
189.9746464266562
 20
267.7295754491201
 30
0.0
 10
188.0381746964376
 20
267.661931172385
 30
0.0
 10
185.149502385944
 20
267.4878539587651
 30
0.0
 10
184.1947721931299
 20
267.4176197729241
 30
0.0
 10
182.3146855790047
 20
267.2438701530924
 30
0.0
 10
181.3883674709001
 20
267.1405926052843
 30
0.0
 10
179.5738919042329
 20
266.8876803706582
 30
0.0
 10
178.6818915828473
 20
266.7365030519211
 30
0.0
 10
177.4222192783998
 20
266.4693788885167
 30
0.0
 10
177.0139638567827
 20
266.3734919503578
 30
0.0
 10
176.2223401063436
 20
266.1669743753274
 30
0.0
 10
175.8378086359577
 20
266.055967738127
 30
0.0
 10
174.7311618979768
 20
265.7021544176037
 30
0.0
 10
174.0685765662962
 20
265.4427108196328
 30
0.0
 10
172.873375186097
 20
264.8823115299043
 30
0.0
 10
172.3392985874049
 20
264.580871070328
 30
0.0
 10
171.3783516591423
 20
263.9484718746108
 30
0.0
 10
170.9585202292385
 20
263.6231674376699
 30
0.0
 10
170.2050740960782
 20
262.9550210412611
 30
0.0
 10
169.8720294756546
 20
262.6120044816195
 30
0.0
 10
169.2693572566315
 20
261.9013824667255
 30
0.0
 10
168.9996716878362
 20
261.5334705825152
 30
0.0
 10
168.5046534667835
 20
260.7651095656059
 30
0.0
 10
168.2801313226631
 20
260.3650209835711
 30
0.0
 10
167.6643495914115
 20
259.1103261692365
 30
0.0
 10
167.3282809825303
 20
258.1988366109538
 30
0.0
 10
167.04499522541
 20
257.1802456679117
 30
0.0
  0
SPLINE
  5
140
330
1F
100
AcDbEntity
  8
0
  6
Continuous
 62
     8
370
     0
100
AcDbSpline
210
0.0
220
0.0
230
1.0
 70
     8
 71
     3
 72
    22
 73
    18
 74
     0
 42
0.00000001
 43
0.00000001
 40
0.0
 40
0.0
 40
0.0
 40
0.0
 40
0.0509535710062731
 40
0.137677797376253
 40
0.17953694894419
 40
0.2212472893173345
 40
0.3054404598140891
 40
0.3481375285586658
 40
0.3792839156328701
 40
0.4420058568543368
 40
0.4735940836531845
 40
0.5712457710627016
 40
0.6700844256005629
 40
0.7726814104346994
 40
0.8343907550567411
 40
0.917153576697596
 40
0.9999999999999999
 40
0.9999999999999999
 40
0.9999999999999999
 40
0.9999999999999999
 10
168.8219547408283
 20
264.0732815780256
 30
0.0
 10
168.9977218123699
 20
264.3202646802833
 30
0.0
 10
169.4726487465027
 20
264.9876190744199
 30
0.0
 10
170.3287566313749
 20
265.7977012817964
 30
0.0
 10
171.2848003186593
 20
266.5443328930311
 30
0.0
 10
172.3542591625606
 20
267.250151761487
 30
0.0
 10
173.6385416926667
 20
267.9009475764846
 30
0.0
 10
175.041295779619
 20
268.4198664722004
 30
0.0
 10
176.3431690678503
 20
268.8187862118841
 30
0.0
 10
177.6357066031256
 20
269.1253335358496
 30
0.0
 10
179.7157810597753
 20
269.5067421851098
 30
0.0
 10
182.3278245264505
 20
269.8307373290235
 30
0.0
 10
185.8685722496145
 20
270.0813466020865
 30
0.0
 10
189.0286233670199
 20
270.2059911381349
 30
0.0
 10
192.007156062604
 20
270.2750919268282
 30
0.0
 10
194.7530354213799
 20
270.3152907126376
 30
0.0
 10
196.7548320994531
 20
270.3263925232545
 30
0.0
 10
197.756235704752
 20
270.3319462307308
 30
0.0
  0
SPLINE
  5
141
330
1F
100
AcDbEntity
  8
0
  6
Continuous
 62
     8
370
     0
100
AcDbSpline
210
0.0
220
0.0
230
1.0
 70
     8
 71
     3
 72
    14
 73
    10
 74
     0
 42
0.00000001
 43
0.00000001
 40
0.0
 40
0.0
 40
0.0
 40
0.0
 40
0.2500000000000012
 40
0.2500000000000012
 40
0.3749999999999998
 40
0.3749999999999998
 40
0.4999999999999984
 40
0.4999999999999984
 40
1.0
 40
1.0
 40
1.0
 40
1.0
 10
167.04499522541
 20
257.1802456679117
 30
0.0
 10
166.8288515666667
 20
256.4030729098107
 30
0.0
 10
166.6459168981151
 20
255.570483550749
 30
0.0
 10
166.4077286213892
 20
254.2205231424077
 30
0.0
 10
166.3343398789856
 20
253.7537116551291
 30
0.0
 10
166.1983388916578
 20
252.784469058653
 30
0.0
 10
166.1358469439932
 20
252.2822881138163
 30
0.0
 10
165.8504747301146
 20
249.7092046414585
 30
0.0
 10
165.7045243883047
 20
247.4285415163101
 30
0.0
 10
165.6075020138633
 20
244.9387651257507
 30
0.0
  0
SPLINE
  5
142
330
1F
100
AcDbEntity
  8
0
  6
Continuous
 62
     8
370
     0
100
AcDbSpline
210
0.0
220
0.0
230
1.0
 70
     8
 71
     3
 72
    14
 73
    10
 74
     0
 42
0.00000001
 43
0.00000001
 40
0.0
 40
0.0
 40
0.0
 40
0.0
 40
0.2500000000000008
 40
0.2500000000000008
 40
0.5000000000000017
 40
0.5000000000000017
 40
0.7500000000000008
 40
0.7500000000000008
 40
1.0
 40
1.0
 40
1.0
 40
1.0
 10
229.9054263742258
 20
244.9387651257507
 30
0.0
 10
229.8566013505709
 20
246.1917069534933
 30
0.0
 10
229.7946654038451
 20
247.3972701763559
 30
0.0
 10
229.6373637567586
 20
249.7085221787449
 30
0.0
 10
229.5426245113588
 20
250.7973682534933
 30
0.0
 10
229.3145191447409
 20
252.8382847814312
 30
0.0
 10
229.1811195133385
 20
253.7921744362348
 30
0.0
 10
228.8659048711848
 20
255.5747915863481
 30
0.0
 10
228.6838863847532
 20
256.4037573596694
 30
0.0
 10
228.467933701086
 20
257.1802437319987
 30
0.0
  0
LINE
  5
143
330
1F
100
AcDbEntity
  8
0
  6
Continuous
 62
     8
370
     0
100
AcDbLine
 10
197.7564327733
 20
274.6732505329
 30
0.0
 11
195.4141425571
 21
274.6215286024
 31
0.0
  0
SPLINE
  5
144
330
1F
100
AcDbEntity
  8
0
  6
Continuous
 62
     8
370
     0
100
AcDbSpline
210
0.0
220
0.0
230
1.0
 70
     8
 71
     3
 72
    10
 73
     6
 74
     0
 42
0.00000001
 43
0.00000001
 40
0.0
 40
0.0
 40
0.0
 40
0.0
 40
0.0554086248833986
 40
0.527567524569307
 40
1.0
 40
1.0
 40
1.0
 40
1.0
 10
201.4522136791259
 20
274.5850840874526
 30
0.0
 10
201.3840796797586
 20
274.5895616425011
 30
0.0
 10
200.735348810497
 20
274.632194222501
 30
0.0
 10
199.5026798327096
 20
274.660637161879
 30
0.0
 10
198.3386693956251
 20
274.6690452641962
 30
0.0
 10
197.7564956147655
 20
274.6732505329463
 30
0.0
  0
LWPOLYLINE
  5
145
330
1F
100
AcDbEntity
  8
0
  6
Continuous
 62
     8
370
     0
100
AcDbPolyline
 90
       12
 70
   128
 43
0.0
 10
200.2639641191
 20
274.8007225164
 10
200.2638933385
 20
274.8023355671
 10
200.1076856299
 20
274.8751538165
 10
199.6705683318
 20
274.9390797981
 10
199.0047654739
 20
274.9864803918
 10
198.1898229764
 20
275.0116819807
 10
197.3231054339
 20
275.0116819807
 10
196.5081629946
 20
274.9864803918
 10
195.8423600203
 20
274.9390797981
 10
195.4052426058
 20
274.8751538165
 10
195.2490351299
 20
274.8023355671
 10
195.2489641166
 20
274.8007225164
  0
SPLINE
  5
146
330
1F
100
AcDbEntity
  8
0
  6
Continuous
 62
     8
370
     0
100
AcDbSpline
210
0.0
220
0.0
230
1.0
 70
     8
 71
     3
 72
    11
 73
     7
 74
     0
 42
0.00000001
 43
0.00000001
 40
0.0
 40
0.0
 40
0.0
 40
0.0
 40
0.1884295748078435
 40
0.4589558206093102
 40
0.7294738232445654
 40
1.0
 40
1.0
 40
1.0
 40
1.0
 10
197.756835327006
 20
234.4464729831133
 30
0.0
 10
197.7568561138509
 20
234.4465219858924
 30
0.0
 10
197.7569067441379
 20
234.4466413414168
 30
0.0
 10
197.7568658025
 20
234.5103531888871
 30
0.0
 10
197.7567366472707
 20
234.6205363715329
 30
0.0
 10
197.7565756990487
 20
234.7251630191597
 30
0.0
 10
197.7564952237218
 20
234.7774771333251
 30
0.0
  0
SPLINE
  5
147
330
1F
100
AcDbEntity
  8
0
  6
Continuous
 62
     8
370
     0
100
AcDbSpline
210
0.0
220
0.0
230
1.0
 70
     8
 71
     3
 72
    18
 73
    14
 74
     0
 42
0.00000001
 43
0.00000001
 40
0.0
 40
0.0
 40
0.0
 40
0.0
 40
0.25
 40
0.25
 40
0.375
 40
0.375
 40
0.5
 40
0.5
 40
0.625
 40
0.625
 40
0.75
 40
0.75
 40
1.0
 40
1.0
 40
1.0
 40
1.0
 10
229.8529032369078
 20
217.1925871528568
 30
0.0
 10
229.8945465800211
 20
219.3887592112247
 30
0.0
 10
229.9322743805695
 20
221.5764070313471
 30
0.0
 10
229.979887255458
 20
224.8398475144692
 30
0.0
 10
229.9942088830054
 20
225.9246265577227
 30
0.0
 10
230.0192683878029
 20
228.0870252410433
 30
0.0
 10
230.0300002844504
 20
229.1656085785253
 30
0.0
 10
230.0468779713633
 20
231.3066894153968
 30
0.0
 10
230.0530507784456
 20
232.3697362562961
 30
0.0
 10
230.059857767984
 20
234.4789886028834
 30
0.0
 10
230.0604788725789
 20
235.5265075239829
 30
0.0
 10
230.0496421112346
 20
238.6307962195959
 30
0.0
 10
230.0258012177463
 20
240.6459387646427
 30
0.0
 10
229.9775369233655
 20
242.5907996544348
 30
0.0
  0
SPLINE
  5
148
330
1F
100
AcDbEntity
  8
0
  6
Continuous
 62
     8
370
     0
100
AcDbSpline
210
0.0
220
0.0
230
1.0
 70
     8
 71
     3
 72
    26
 73
    22
 74
     0
 42
0.00000001
 43
0.00000001
 40
0.0
 40
0.0
 40
0.0
 40
0.0
 40
0.125
 40
0.125
 40
0.2499999999999999
 40
0.2499999999999999
 40
0.3749999999999999
 40
0.3749999999999999
 40
0.5000000000000002
 40
0.5000000000000002
 40
0.6250000000000002
 40
0.6250000000000002
 40
0.6875000000000002
 40
0.6875000000000002
 40
0.7500000000000001
 40
0.7500000000000001
 40
0.8750000000000001
 40
0.8750000000000001
 40
0.9375
 40
0.9375
 40
1.0
 40
1.0
 40
1.0
 40
1.0
 10
225.9737027928067
 20
145.990154980213
 30
0.0
 10
226.3826983962924
 20
148.9414745916235
 30
0.0
 10
226.6970863956453
 20
151.8992531615513
 30
0.0
 10
227.2400796471722
 20
157.8206675061166
 30
0.0
 10
227.4670710741258
 20
160.7844133860754
 30
0.0
 10
227.8877034697595
 20
166.7141824191905
 30
0.0
 10
228.0779871229271
 20
169.6804354912571
 30
0.0
 10
228.4217938380821
 20
175.6154505215247
 30
0.0
 10
228.5730476497796
 20
178.5843671708469
 30
0.0
 10
228.8452876819661
 20
184.5242661589049
 30
0.0
 10
228.9674206856168
 20
187.4951699123937
 30
0.0
 10
229.1369947603456
 20
191.9524583448079
 30
0.0
 10
229.1915062795291
 20
193.4384036535951
 30
0.0
 10
229.2952773997439
 20
196.410273413738
 30
0.0
 10
229.344622445789
 20
197.8961998409622
 30
0.0
 10
229.4861757091687
 20
202.3534289263274
 30
0.0
 10
229.572205747563
 20
205.3241859904708
 30
0.0
 10
229.6872229383657
 20
209.7774733534889
 30
0.0
 10
229.7231803044874
 20
211.2614276275135
 30
0.0
 10
229.79145873506
 20
214.2280508699933
 30
0.0
 10
229.8250420205968
 20
215.7107030010023
 30
0.0
 10
229.8531783702036
 20
217.1925947798728
 30
0.0
  0
SPLINE
  5
149
330
1F
100
AcDbEntity
  8
0
  6
Continuous
 62
     8
370
     0
100
AcDbSpline
210
0.0
220
0.0
230
1.0
 70
     8
 71
     3
 72
    36
 73
    32
 74
     0
 42
0.00000001
 43
0.00000001
 40
0.0
 40
0.0
 40
0.0
 40
0.0
 40
0.0624999999999999
 40
0.0624999999999999
 40
0.1249999999999998
 40
0.1249999999999998
 40
0.1874999999999998
 40
0.1874999999999998
 40
0.2499999999999997
 40
0.2499999999999997
 40
0.3749999999999995
 40
0.3749999999999995
 40
0.4062499999999996
 40
0.4062499999999996
 40
0.4374999999999996
 40
0.4374999999999996
 40
0.4999999999999991
 40
0.4999999999999991
 40
0.5624999999999984
 40
0.5624999999999984
 40
0.624999999999998
 40
0.624999999999998
 40
0.6562499999999977
 40
0.6562499999999977
 40
0.6874999999999974
 40
0.6874999999999974
 40
0.7499999999999979
 40
0.7499999999999979
 40
0.8749999999999989
 40
0.8749999999999989
 40
1.0
 40
1.0
 40
1.0
 40
1.0
 10
197.7565881278385
 20
121.1868550237386
 30
0.0
 10
198.6672987662833
 20
121.1861840353606
 30
0.0
 10
199.5781200546224
 20
121.1930064890195
 30
0.0
 10
201.3988807286222
 20
121.2243752226686
 30
0.0
 10
202.3086764858047
 20
121.2491230578359
 30
0.0
 10
204.1262372303022
 20
121.3301091705321
 30
0.0
 10
205.0339800493765
 20
121.3866915154904
 30
0.0
 10
206.8464693582634
 20
121.5463242190132
 30
0.0
 10
207.7522654586543
 20
121.6487836886968
 30
0.0
 10
210.456769679298
 20
122.0550211808093
 30
0.0
 10
212.2250026049432
 20
122.4520123133919
 30
0.0
 10
214.3462280006251
 20
123.2715848678851
 30
0.0
 10
214.7674000547498
 20
123.4525226689152
 30
0.0
 10
215.5923950811998
 20
123.8501407133728
 30
0.0
 10
215.9936951628787
 20
124.0655461601257
 30
0.0
 10
217.1609115245305
 20
124.7661362092172
 30
0.0
 10
217.8897738345936
 20
125.3062433166103
 30
0.0
 10
219.2388588536416
 20
126.5475095489562
 30
0.0
 10
219.8515589178458
 20
127.244241176263
 30
0.0
 10
220.9303436671234
 20
128.713270021094
 30
0.0
 10
221.4016072618036
 20
129.4880197922181
 30
0.0
 10
222.0316736319328
 20
130.6955176883626
 30
0.0
 10
222.2287810392207
 20
131.1056440326945
 30
0.0
 10
222.601034049762
 20
131.938866564777
 30
0.0
 10
222.7762731686029
 20
132.3624331521291
 30
0.0
 10
223.2693924917135
 20
133.6373721166333
 30
0.0
 10
223.557187041005
 20
134.4971125263538
 30
0.0
 10
224.3371205695024
 20
137.0962649177916
 30
0.0
 10
224.7464448420472
 20
138.85545634205
 30
0.0
 10
225.4401867154584
 20
142.4036718077482
 30
0.0
 10
225.7246096509621
 20
144.1926944003713
 30
0.0
 10
225.9737027928067
 20
145.990154980213
 30
0.0
  0
SPLINE
  5
14A
330
1F
100
AcDbEntity
  8
0
  6
Continuous
 62
     8
370
     0
100
AcDbSpline
210
0.0
220
0.0
230
1.0
 70
     8
 71
     3
 72
    30
 73
    26
 74
     0
 42
0.00000001
 43
0.00000001
 40
0.0
 40
0.0
 40
0.0
 40
0.0
 40
0.0196986090039848
 40
0.0393073571344901
 40
0.0588309173985938
 40
0.0782740884673263
 40
0.0976417838580507
 40
0.1169390096207724
 40
0.136170838361279
 40
0.1553423878552911
 40
0.1744588110823866
 40
0.1935252858179472
 40
0.212546999038344
 40
0.2315291346409839
 40
0.2504768628480628
 40
0.375156834121544
 40
0.5022283117110127
 40
0.6238238317074353
 40
0.7506822316870838
 40
0.7908737009363579
 40
0.8315838460346295
 40
0.8728321280206512
 40
0.9146374419916607
 40
0.9570194079685731
 40
0.9999999999999999
 40
0.9999999999999999
 40
0.9999999999999999
 40
0.9999999999999999
 10
229.9764558848985
 20
242.6433697313751
 30
0.0
 10
229.8046349582783
 20
242.4983951032858
 30
0.0
 10
229.4617769156383
 20
242.2091071905913
 30
0.0
 10
228.9399061800663
 20
241.7858468950594
 30
0.0
 10
228.4139845684476
 20
241.3717556149274
 30
0.0
 10
227.883365231911
 20
240.9675328276315
 30
0.0
 10
227.348198348662
 20
240.5730122736032
 30
0.0
 10
226.8084318731697
 20
240.1882496118859
 30
0.0
 10
226.264077136403
 20
239.8132330280099
 30
0.0
 10
225.7151357806268
 20
239.4479619787619
 30
0.0
 10
225.1616141657892
 20
239.0924313484269
 30
0.0
 10
224.6035186771078
 20
238.7466349615631
 30
0.0
 10
224.0408636830836
 20
238.4105647172626
 30
0.0
 10
223.473651223276
 20
238.08420386332
 30
0.0
 10
221.8383242576706
 20
237.1784621382694
 30
0.0
 10
219.016012191751
 20
235.8360016043685
 30
0.0
 10
214.9424642354524
 20
234.3942419093127
 30
0.0
 10
210.7199027735018
 20
233.3344042580033
 30
0.0
 10
207.4135420382137
 20
232.7922592574589
 30
0.0
 10
205.0192086803058
 20
232.5181738586704
 30
0.0
 10
203.6078969083423
 20
232.3885136240826
 30
0.0
 10
202.1752538788227
 20
232.2881492277179
 30
0.0
 10
200.721295256912
 20
232.2176672083738
 30
0.0
 10
199.2460026768702
 20
232.1744851980731
 30
0.0
 10
198.2553225653603
 20
232.1705540177882
 30
0.0
 10
197.7565088149301
 20
232.1685746434586
 30
0.0
  0
SPLINE
  5
14B
330
1F
100
AcDbEntity
  8
0
  6
Continuous
 62
     8
370
     0
100
AcDbSpline
210
0.0
220
0.0
230
1.0
 70
     8
 71
     3
 72
     8
 73
     4
 74
     0
 42
0.00000001
 43
0.00000001
 40
0.0
 40
0.0
 40
0.0
 40
0.0
 40
1.0
 40
1.0
 40
1.0
 40
1.0
 10
229.9777627755669
 20
242.5908695634546
 30
0.0
 10
229.9773297216945
 20
242.6083777931905
 30
0.0
 10
229.9768940895868
 20
242.6258778517275
 30
0.0
 10
229.9764558848972
 20
242.6433697313769
 30
0.0
  0
SPLINE
  5
14C
330
1F
100
AcDbEntity
  8
0
  6
Continuous
 62
     8
370
     0
100
AcDbSpline
210
0.0
220
0.0
230
1.0
 70
     8
 71
     3
 72
    30
 73
    26
 74
     0
 42
0.00000001
 43
0.00000001
 40
0.0
 40
0.0
 40
0.0
 40
0.0
 40
0.124999999999999
 40
0.124999999999999
 40
0.2499999999999979
 40
0.2499999999999979
 40
0.3124999999999979
 40
0.3124999999999979
 40
0.3749999999999979
 40
0.3749999999999979
 40
0.4999999999999979
 40
0.4999999999999979
 40
0.562499999999998
 40
0.562499999999998
 40
0.6249999999999982
 40
0.6249999999999982
 40
0.6874999999999986
 40
0.6874999999999986
 40
0.7499999999999989
 40
0.7499999999999989
 40
0.8749999999999994
 40
0.8749999999999994
 40
0.9374999999999998
 40
0.9374999999999998
 40
1.0
 40
1.0
 40
1.0
 40
1.0
 10
169.5394215597043
 20
145.9887409537343
 30
0.0
 10
169.788149690718
 20
144.1940572234989
 30
0.0
 10
170.0729688548466
 20
142.4022446465303
 30
0.0
 10
170.7670573572234
 20
138.8527870449029
 30
0.0
 10
171.176128591579
 20
137.0966446053076
 30
0.0
 10
171.9513966849755
 20
134.5108727565184
 30
0.0
 10
172.23690628472
 20
133.6570653844681
 30
0.0
 10
172.8863438248401
 20
131.9729493352412
 30
0.0
 10
173.2501174879669
 20
131.1425258367843
 30
0.0
 10
174.5163050547619
 20
128.704066730646
 30
0.0
 10
175.5533130212028
 20
127.2246066840703
 30
0.0
 10
177.5662180570649
 20
125.3520645606485
 30
0.0
 10
178.3115484023104
 20
124.7938714475942
 30
0.0
 10
179.8721606532652
 20
123.8504307207904
 30
0.0
 10
180.6908423474756
 20
123.4585325901581
 30
0.0
 10
182.3870650522254
 20
122.7971675877973
 30
0.0
 10
183.2682355494002
 20
122.5279976100229
 30
0.0
 10
185.0390778320498
 20
122.0925438258712
 30
0.0
 10
185.9332491761553
 20
121.9239389530738
 30
0.0
 10
188.6332726074933
 20
121.5164120604908
 30
0.0
 10
190.458682863937
 20
121.3717796402075
 30
0.0
 10
193.193549483646
 20
121.2494413791689
 30
0.0
 10
194.10569826343
 20
121.2245624715303
 30
0.0
 10
195.9305994933358
 20
121.1930358956607
 30
0.0
 10
196.8433451539996
 20
121.1861823522231
 30
0.0
 10
197.7563402602508
 20
121.1868550237387
 30
0.0
  0
SPLINE
  5
14D
330
1F
100
AcDbEntity
  8
0
  6
Continuous
 62
     8
370
     0
100
AcDbSpline
210
0.0
220
0.0
230
1.0
 70
     8
 71
     3
 72
    26
 73
    22
 74
     0
 42
0.00000001
 43
0.00000001
 40
0.0
 40
0.0
 40
0.0
 40
0.0
 40
0.0625000000000001
 40
0.0625000000000001
 40
0.1250000000000002
 40
0.1250000000000002
 40
0.2500000000000003
 40
0.2500000000000003
 40
0.3125000000000003
 40
0.3125000000000003
 40
0.3750000000000004
 40
0.3750000000000004
 40
0.5000000000000004
 40
0.5000000000000004
 40
0.6250000000000006
 40
0.6250000000000006
 40
0.7500000000000004
 40
0.7500000000000004
 40
0.8750000000000002
 40
0.8750000000000002
 40
1.0
 40
1.0
 40
1.0
 40
1.0
 10
165.6597531430707
 20
217.192430183486
 30
0.0
 10
165.6879462820954
 20
215.7075760665624
 30
0.0
 10
165.721586861971
 20
214.2227108666902
 30
0.0
 10
165.7899572952473
 20
211.252586196802
 30
0.0
 10
165.8259546182896
 20
209.767389441513
 30
0.0
 10
165.9410692873383
 20
205.3116421700465
 30
0.0
 10
166.0271271651159
 20
202.3409267634795
 30
0.0
 10
166.1686713959144
 20
197.8850496931102
 30
0.0
 10
166.2180059504126
 20
196.3997930474638
 30
0.0
 10
166.3217439696269
 20
193.4295027467852
 30
0.0
 10
166.3762299454696
 20
191.9444814948386
 30
0.0
 10
166.5457291611485
 20
187.4897263437787
 30
0.0
 10
166.6678124312698
 20
184.5203414186938
 30
0.0
 10
166.9399455807576
 20
178.5831304898143
 30
0.0
 10
167.0911430970948
 20
175.6153596122654
 30
0.0
 10
167.4348413567826
 20
169.6821035535873
 30
0.0
 10
167.6250734567132
 20
166.7164886742778
 30
0.0
 10
168.0456333337146
 20
160.7873999894931
 30
0.0
 10
168.2725925835927
 20
157.8237605262045
 30
0.0
 10
168.8156242133533
 20
151.901328743083
 30
0.0
 10
169.1300628624634
 20
148.9424454292765
 30
0.0
 10
169.5394215597042
 20
145.9887409537343
 30
0.0
  0
SPLINE
  5
14E
330
1F
100
AcDbEntity
  8
0
  6
Continuous
 62
     8
370
     0
100
AcDbSpline
210
0.0
220
0.0
230
1.0
 70
     8
 71
     3
 72
    16
 73
    12
 74
     0
 42
0.00000001
 43
0.00000001
 40
0.0
 40
0.0
 40
0.0
 40
0.0
 40
0.2500000000000001
 40
0.2500000000000001
 40
0.3750000000000002
 40
0.3750000000000002
 40
0.5000000000000002
 40
0.5000000000000002
 40
0.7500000000000001
 40
0.7500000000000001
 40
1.0
 40
1.0
 40
1.0
 40
1.0
 10
165.5353834764132
 20
242.5904777646279
 30
0.0
 10
165.4871050287871
 20
240.6451388095603
 30
0.0
 10
165.4633045666826
 20
238.6311719202751
 30
0.0
 10
165.4524564648993
 20
235.5309246190394
 30
0.0
 10
165.4530646012163
 20
234.482764581935
 30
0.0
 10
165.4598612188752
 20
232.3729105447534
 30
0.0
 10
165.4660281108909
 20
231.310403935818
 30
0.0
 10
165.4912925902772
 20
228.10273753518
 30
0.0
 10
165.5170794332119
 20
225.9344152130141
 30
0.0
 10
165.5806209790085
 20
221.5781371787282
 30
0.0
 10
165.6183753533225
 20
219.3891239499089
 30
0.0
 10
165.6600282723616
 20
217.1924225482386
 30
0.0
  0
SPLINE
  5
14F
330
1F
100
AcDbEntity
  8
0
  6
Continuous
 62
     8
370
     0
100
AcDbSpline
210
0.0
220
0.0
230
1.0
 70
     8
 71
     3
 72
     8
 73
     4
 74
     0
 42
0.00000001
 43
0.00000001
 40
0.0
 40
0.0
 40
0.0
 40
0.0
 40
1.0
 40
1.0
 40
1.0
 40
1.0
 10
165.536472503192
 20
242.6433697313738
 30
0.0
 10
165.5360316386152
 20
242.6257716766222
 30
0.0
 10
165.5355933521163
 20
242.60816431236
 30
0.0
 10
165.5351576503833
 20
242.5905476440479
 30
0.0
  0
SPLINE
  5
150
330
1F
100
AcDbEntity
  8
0
  6
Continuous
 62
     8
370
     0
100
AcDbSpline
210
0.0
220
0.0
230
1.0
 70
     8
 71
     3
 72
    29
 73
    25
 74
     0
 42
0.00000001
 43
0.00000001
 40
0.0
 40
0.0
 40
0.0
 40
0.0
 40
0.023573094546787
 40
0.0469640538389568
 40
0.0701767161447904
 40
0.0932147322955053
 40
0.1160815345148636
 40
0.1387803210963461
 40
0.1613141285732127
 40
0.1836860471607871
 40
0.2058992181749156
 40
0.2279568337189891
 40
0.2498621489624932
 40
0.3773509265695483
 40
0.4995375044063968
 40
0.6261489128930344
 40
0.7504084887516069
 40
0.7854986140758657
 40
0.8207230229021386
 40
0.8561145622946347
 40
0.8917059990068599
 40
0.9275297440035455
 40
0.9636175437829502
 40
1.0
 40
1.0
 40
1.0
 40
1.0
 10
197.7564195731591
 20
232.1685746434588
 30
0.0
 10
197.4828464271521
 20
232.168966518084
 30
0.0
 10
196.9378138718179
 20
232.1697472395528
 30
0.0
 10
196.1234739369828
 20
232.1820923955402
 30
0.0
 10
195.3155365735139
 20
232.2026126554156
 30
0.0
 10
194.513979568543
 20
232.2320755210946
 30
0.0
 10
193.7187920714634
 20
232.2702624405924
 30
0.0
 10
192.9299726210269
 20
232.3172282934225
 30
0.0
 10
192.1475277655586
 20
232.3729679298609
 30
0.0
 10
191.3714665747161
 20
232.4374941134822
 30
0.0
 10
190.6018033882482
 20
232.5108132630038
 30
0.0
 10
189.8385401791535
 20
232.5929469849447
 30
0.0
 10
187.8641404639571
 20
232.8301561331409
 30
0.0
 10
184.7534091590932
 20
233.34194891918
 30
0.0
 10
180.5234529350802
 20
234.4082901172835
 30
0.0
 10
176.454960868979
 20
235.8538904165518
 30
0.0
 10
173.475120941651
 20
237.2746762997202
 30
0.0
 10
171.5271119979948
 20
238.3733473603854
 30
0.0
 10
170.488313277631
 20
239.0012709379197
 30
0.0
 10
169.4652255102705
 20
239.6625751525083
 30
0.0
 10
168.4577142618187
 20
240.3571469262234
 30
0.0
 10
167.4663810181212
 20
241.0856112318262
 30
0.0
 10
166.4890719210632
 20
241.8456227426997
 30
0.0
 10
165.8548651817786
 20
242.3767342539704
 30
0.0
 10
165.5364725031918
 20
242.6433697313741
 30
0.0
  0
SPLINE
  5
151
330
1F
100
AcDbEntity
  8
0
  6
Continuous
 62
     8
370
     0
100
AcDbSpline
210
0.0
220
0.0
230
1.0
 70
     8
 71
     3
 72
    28
 73
    24
 74
     0
 42
0.00000001
 43
0.00000001
 40
0.0
 40
0.0
 40
0.0
 40
0.0
 40
0.0260034526111168
 40
0.0517841567047
 40
0.0773462368728624
 40
0.1026939244318215
 40
0.1278315589615478
 40
0.152763589725485
 40
0.1774945769556413
 40
0.2020291929877453
 40
0.2263722232306666
 40
0.2505285669538623
 40
0.3776565496830572
 40
0.4993438190829537
 40
0.6261102971115843
 40
0.750505733336298
 40
0.7855071401202759
 40
0.8206665087297521
 40
0.8560177843298712
 40
0.8915943627695306
 40
0.9274290099949462
 40
0.9635537897374685
 40
1.0
 40
1.0
 40
1.0
 40
1.0
 10
197.7553791713416
 20
232.8119127117603
 30
0.0
 10
198.05287543047
 20
232.8124403009959
 30
0.0
 10
198.6453195621072
 20
232.8134909600781
 30
0.0
 10
199.5300976598881
 20
232.8285886520214
 30
0.0
 10
200.4071124440489
 20
232.8536231468892
 30
0.0
 10
201.276365680934
 20
232.8895410415858
 30
0.0
 10
202.1378569806923
 20
232.9360921457995
 30
0.0
 10
202.9915862315589
 20
232.9933425061754
 30
0.0
 10
203.837554287161
 20
233.0612759641459
 30
0.0
 10
204.6757578721363
 20
233.1398927124393
 30
0.0
 10
205.5062090438184
 20
233.2292085701363
 30
0.0
 10
207.4997583087697
 20
233.471426211143
 30
0.0
 10
210.580998321501
 20
233.9864916503295
 30
0.0
 10
214.7401201357227
 20
235.0511445144704
 30
0.0
 10
218.7423041114416
 20
236.4981501598568
 30
0.0
 10
221.6733349897586
 20
237.9229596359534
 30
0.0
 10
223.5852623609476
 20
239.0241855381048
 30
0.0
 10
224.6023993272308
 20
239.6524681037175
 30
0.0
 10
225.6043173141025
 20
240.3144249712223
 30
0.0
 10
226.5911886305678
 20
241.0099217362271
 30
0.0
 10
227.5624397534345
 20
241.7395536556907
 30
0.0
 10
228.5202100136122
 20
242.501030380009
 30
0.0
 10
229.1414216694511
 20
243.0331731277213
 30
0.0
 10
229.4534032288133
 20
243.3004229815741
 30
0.0
  0
SPLINE
  5
152
330
1F
100
AcDbEntity
  8
0
  6
Continuous
 62
     8
370
     0
100
AcDbSpline
210
0.0
220
0.0
230
1.0
 70
     8
 71
     3
 72
    30
 73
    26
 74
     0
 42
0.00000001
 43
0.00000001
 40
0.0
 40
0.0
 40
0.0
 40
0.0
 40
0.0195954586535182
 40
0.0390945160368321
 40
0.0585019187892352
 40
0.0778224811027489
 40
0.0970610823613359
 40
0.1162226645617602
 40
0.1353122295180523
 40
0.1543348358530829
 40
0.1732955957823358
 40
0.1921996716965969
 40
0.2110522725519084
 40
0.2298586500767646
 40
0.2486240948081131
 40
0.3725809766858093
 40
0.4989017991482059
 40
0.6211607614881135
 40
0.7489343600064371
 40
0.7893802603966474
 40
0.8303566133910474
 40
0.871885746592774
 40
0.913989108188614
 40
0.9566872810332642
 40
1.0
 40
1.0
 40
1.0
 40
1.0
 10
166.059525159277
 20
243.3004229815732
 30
0.0
 10
166.2266780858873
 20
243.1561358015999
 30
0.0
 10
166.5601616182464
 20
242.8682712728276
 30
0.0
 10
167.0678748128518
 20
242.4470342902588
 30
0.0
 10
167.579462324703
 20
242.0349497516936
 30
0.0
 10
168.0955466513966
 20
241.6326845745749
 30
0.0
 10
168.6159621378298
 20
241.2400614708116
 30
0.0
 10
169.1407528567829
 20
240.857127802136
 30
0.0
 10
169.6699070239865
 20
240.483871143027
 30
0.0
 10
170.2034277726312
 20
240.1202949365273
 30
0.0
 10
170.7413140442394
 20
239.7663985925697
 30
0.0
 10
171.2835666469171
 20
239.4221818687323
 30
0.0
 10
171.830183046261
 20
239.0876471213398
 30
0.0
 10
172.3811721158149
 20
238.7627859925234
 30
0.0
 10
173.9744018297295
 20
237.8586083498134
 30
0.0
 10
176.7286224008088
 20
236.5164376844658
 30
0.0
 10
180.7251452316719
 20
235.065708957347
 30
0.0
 10
184.8914366591809
 20
233.9943366182051
 30
0.0
 10
188.1697298179453
 20
233.4445408824794
 30
0.0
 10
190.5456172258678
 20
233.1664907580874
 30
0.0
 10
191.945696648471
 20
233.0349361485962
 30
0.0
 10
193.367423027017
 20
232.9331011488429
 30
0.0
 10
194.8108243173682
 20
232.8616244709133
 30
0.0
 10
196.2758978710355
 20
232.8179192065475
 30
0.0
 10
197.2598752341008
 20
232.8139220152265
 30
0.0
 10
197.7553791650394
 20
232.8119091396395
 30
0.0
  0
LINE
  5
153
330
1F
100
AcDbEntity
  8
0
  6
Continuous
 62
     8
370
     0
100
AcDbLine
 10
165.4576562482
 20
244.8481703468
 30
0.0
 11
165.4185816782
 21
244.6045335673
 31
0.0
  0
SPLINE
  5
154
330
1F
100
AcDbEntity
  8
0
  6
Continuous
 62
     8
370
     0
100
AcDbSpline
210
0.0
220
0.0
230
1.0
 70
     8
 71
     3
 72
    18
 73
    14
 74
     0
 42
0.00000001
 43
0.00000001
 40
0.0
 40
0.0
 40
0.0
 40
0.0
 40
0.047951692844816
 40
0.101831265757095
 40
0.1618065141791006
 40
0.2279988927803729
 40
0.3522246616282327
 40
0.4704973189981843
 40
0.5970884021648575
 40
0.7118612483367753
 40
0.8160710324243454
 40
0.9113911298898855
 40
1.0
 40
1.0
 40
1.0
 40
1.0
 10
229.4534032288175
 20
243.3004229815777
 30
0.0
 10
229.4712274484721
 20
243.3167527707465
 30
0.0
 10
229.5090793519375
 20
243.3514310688825
 30
0.0
 10
229.5642917697869
 20
243.4112205970092
 30
0.0
 10
229.6226923745245
 20
243.4801609811285
 30
0.0
 10
229.6996114965841
 20
243.5793044304818
 30
0.0
 10
229.7892975111199
 20
243.7051399830886
 30
0.0
 10
229.8879437754168
 20
243.8610026418794
 30
0.0
 10
229.973098807945
 20
244.0189586124655
 30
0.0
 10
230.0399858469664
 20
244.1776339692394
 30
0.0
 10
230.0828333775362
 20
244.3277328787089
 30
0.0
 10
230.1041978283255
 20
244.4697202805085
 30
0.0
 10
230.0975483843335
 20
244.5607024435892
 30
0.0
 10
230.0943449752851
 20
244.6045336398222
 30
0.0
  0
SPLINE
  5
155
330
1F
100
AcDbEntity
  8
0
  6
Continuous
 62
     8
370
     0
100
AcDbSpline
210
0.0
220
0.0
230
1.0
 70
     8
 71
     3
 72
    19
 73
    15
 74
     0
 42
0.00000001
 43
0.00000001
 40
0.0
 40
0.0
 40
0.0
 40
0.0
 40
0.0546606797115482
 40
0.1116051013062486
 40
0.171438317562101
 40
0.2346825248606296
 40
0.30178032749719
 40
0.3731026231208447
 40
0.4489583675304578
 40
0.5296044302947435
 40
0.6457455475092124
 40
0.7711430906248216
 40
0.8980885851458198
 40
1.0
 40
1.0
 40
1.0
 40
1.0
 10
165.4185834128061
 20
244.6045336398369
 30
0.0
 10
165.4160133977439
 20
244.5775783802332
 30
0.0
 10
165.4107659915115
 20
244.5225416610654
 30
0.0
 10
165.4149558108547
 20
244.4375780730067
 30
0.0
 10
165.4276081380963
 20
244.3492732510898
 30
0.0
 10
165.4496728589178
 20
244.2575070441178
 30
0.0
 10
165.4808432218977
 20
244.1623021057638
 30
0.0
 10
165.5211884250818
 20
244.0636361574844
 30
0.0
 10
165.5706735377351
 20
243.9614941388705
 30
0.0
 10
165.636698741171
 20
243.8425849074685
 30
0.0
 10
165.7228412090045
 20
243.7064796692382
 30
0.0
 10
165.8303092994067
 20
243.5566806018139
 30
0.0
 10
165.9395540938244
 20
243.4162012702502
 30
0.0
 10
166.0225614595325
 20
243.3360948653182
 30
0.0
 10
166.0595251592771
 20
243.300422981573
 30
0.0
  0
SPLINE
  5
156
330
1F
100
AcDbEntity
  8
0
  6
Continuous
 62
     8
370
     0
100
AcDbSpline
210
0.0
220
0.0
230
1.0
 70
     8
 71
     3
 72
    12
 73
     8
 74
     0
 42
0.00000001
 43
0.00000001
 40
0.0
 40
0.0
 40
0.0
 40
0.0
 40
0.2000733402807134
 40
0.3708899369414398
 40
0.6481627515423842
 40
0.9040792601722515
 40
0.9999999999999999
 40
0.9999999999999999
 40
0.9999999999999999
 40
0.9999999999999999
 10
165.5364722150028
 20
242.6433698565278
 30
0.0
 10
165.4342374649733
 20
242.7064271040687
 30
0.0
 10
165.2447177621561
 20
242.8233207318319
 30
0.0
 10
165.0038390436426
 20
243.1182909386549
 30
0.0
 10
164.8575002056979
 20
243.523814309945
 30
0.0
 10
164.7954637320935
 20
243.9248335718432
 30
0.0
 10
164.8079599808963
 20
244.136047833393
 30
0.0
 10
164.8113668101489
 20
244.1936307877812
 30
0.0
  0
SPLINE
  5
157
330
1F
100
AcDbEntity
  8
0
  6
Continuous
 62
     8
370
     0
100
AcDbSpline
210
0.0
220
0.0
230
1.0
 70
     8
 71
     3
 72
    12
 73
     8
 74
     0
 42
0.00000001
 43
0.00000001
 40
0.0
 40
0.0
 40
0.0
 40
0.0
 40
0.0962250836657404
 40
0.3518428958617765
 40
0.6305701198246682
 40
0.8009922680122942
 40
0.9999999999999999
 40
0.9999999999999999
 40
0.9999999999999999
 40
0.9999999999999999
 10
230.7015150922
 20
244.1934580274437
 30
0.0
 10
230.704923375582
 20
244.1357112974519
 30
0.0
 10
230.7173856177473
 20
243.9245628532747
 30
0.0
 10
230.65530435696
 20
243.5225063218502
 30
0.0
 10
230.5081484841723
 20
243.1172155598574
 30
0.0
 10
230.2670396807483
 20
242.8223372708204
 30
0.0
 10
230.0781871373235
 20
242.7060256316841
 30
0.0
 10
229.9764543908298
 20
242.6433698565278
 30
0.0
  0
SPLINE
  5
158
330
1F
100
AcDbEntity
  8
0
  6
Continuous
 62
     8
370
     0
100
AcDbSpline
210
0.0
220
0.0
230
1.0
 70
     8
 71
     3
 72
    10
 73
     6
 74
     0
 42
0.00000001
 43
0.00000001
 40
0.0
 40
0.0
 40
0.0
 40
0.0
 40
0.5
 40
0.5
 40
1.0
 40
1.0
 40
1.0
 40
1.0
 10
207.6856755538392
 20
291.0143741618925
 30
0.0
 10
207.6652104444211
 20
290.9121291242072
 30
0.0
 10
207.62046663457
 20
290.810920436407
 30
0.0
 10
207.5244420210987
 20
290.7056242215212
 30
0.0
 10
207.4749757546931
 20
290.703526433249
 30
0.0
 10
207.4472832405497
 20
290.7529640156827
 30
0.0
  0
SPLINE
  5
159
330
1F
100
AcDbEntity
  8
0
  6
Continuous
 62
     8
370
     0
100
AcDbSpline
210
0.0
220
0.0
230
1.0
 70
     8
 71
     3
 72
    10
 73
     6
 74
     0
 42
0.00000001
 43
0.00000001
 40
0.0
 40
0.0
 40
0.0
 40
0.0
 40
0.5
 40
0.5
 40
1.0
 40
1.0
 40
1.0
 40
1.0
 10
188.0656769198933
 20
290.7529738062695
 30
0.0
 10
188.0379884261538
 20
290.7035374669757
 30
0.0
 10
187.9885263964633
 20
290.7056359650402
 30
0.0
 10
187.8925063260599
 20
290.8109318825229
 30
0.0
 10
187.8477627027071
 20
290.9121396060389
 30
0.0
 10
187.827295433429
 20
291.0143837096649
 30
0.0
  0
SPLINE
  5
15A
330
1F
100
AcDbEntity
  8
0
  6
Continuous
 62
     8
370
     0
100
AcDbSpline
210
0.0
220
0.0
230
1.0
 70
     8
 71
     3
 72
    25
 73
    21
 74
     0
 42
0.00000001
 43
0.00000001
 40
0.0
 40
0.0
 40
0.0
 40
0.0
 40
0.024548942506378
 40
0.0680676581265253
 40
0.1140711539117317
 40
0.1364152206773138
 40
0.1824908005015465
 40
0.2209879504278155
 40
0.2512996733571842
 40
0.2728501386255486
 40
0.3069039672362039
 40
0.3409198569723442
 40
0.3745810411063348
 40
0.4090960952394297
 40
0.4692632474529225
 40
0.545490470735661
 40
0.6639533586632389
 40
0.8193889840192998
 40
0.9559142217995323
 40
0.9999999999999999
 40
0.9999999999999999
 40
0.9999999999999999
 40
0.9999999999999999
 10
197.7543296938516
 20
309.9674912666044
 30
0.0
 10
197.5469108810242
 20
309.9678929150954
 30
0.0
 10
196.971793935075
 20
309.9690065790411
 30
0.0
 10
196.0080349141496
 20
309.9578581544121
 30
0.0
 10
195.063197601242
 20
309.9214564797737
 30
0.0
 10
194.0994802185172
 20
309.8441510415195
 30
0.0
 10
193.2027809762031
 20
309.7226862712338
 30
0.0
 10
192.2608491496646
 20
309.4742534254984
 30
0.0
 10
191.5606433860662
 20
309.1601575486813
 30
0.0
 10
190.953636184997
 20
308.7579651980973
 30
0.0
 10
190.4081712340868
 20
308.2222614764298
 30
0.0
 10
189.9357619489471
 20
307.4985349404928
 30
0.0
 10
189.5732587259101
 20
306.7128251253861
 30
0.0
 10
189.2179031601972
 20
305.6870086078306
 30
0.0
 10
188.8771675386286
 20
304.2813292547413
 30
0.0
 10
188.5329815237748
 20
302.1543975662469
 30
0.0
 10
188.2357646773305
 20
299.2096757301624
 30
0.0
 10
188.0209621070805
 20
295.7482343675408
 30
0.0
 10
187.8973255037214
 20
292.9115506881812
 30
0.0
 10
187.8410343829639
 20
291.3865816336717
 30
0.0
 10
187.827294147625
 20
291.0143482616671
 30
0.0
  0
SPLINE
  5
15B
330
1F
100
AcDbEntity
  8
0
  6
Continuous
 62
     8
370
     0
100
AcDbSpline
210
0.0
220
0.0
230
1.0
 70
     8
 71
     3
 72
    25
 73
    21
 74
     0
 42
0.00000001
 43
0.00000001
 40
0.0
 40
0.0
 40
0.0
 40
0.0
 40
0.0448279240628595
 40
0.1075550135478089
 40
0.1816806049488714
 40
0.3334868650379121
 40
0.4557500315701145
 40
0.5292687455237044
 40
0.5918478291900067
 40
0.6261457977498099
 40
0.6601444729441659
 40
0.6938655991334857
 40
0.7281075056369994
 40
0.7548531561326548
 40
0.8008082928475049
 40
0.8639888539584795
 40
0.8863227901902662
 40
0.9320831351693322
 40
0.9784242725280738
 40
0.9999999999999999
 40
0.9999999999999999
 40
0.9999999999999999
 40
0.9999999999999999
 10
207.6856403649911
 20
291.0143467347384
 30
0.0
 10
207.6716754688932
 20
291.3928784264502
 30
0.0
 10
207.6381696882799
 20
292.301084239712
 30
0.0
 10
207.5750824540042
 20
293.8349688717257
 30
0.0
 10
207.4594710130696
 20
296.271369871801
 30
0.0
 10
207.2766513116599
 20
299.2081198591355
 30
0.0
 10
206.9834132758425
 20
302.1320997205662
 30
0.0
 10
206.6340668919659
 20
304.2882088004803
 30
0.0
 10
206.2952286749362
 20
305.6901895227185
 30
0.0
 10
205.9309831236124
 20
306.7357421030975
 30
0.0
 10
205.5657169015051
 20
307.5186360702971
 30
0.0
 10
205.0900234434389
 20
308.2427399922564
 30
0.0
 10
204.5088942847858
 20
308.8043503318439
 30
0.0
 10
203.7391941600673
 20
309.2861738539382
 30
0.0
 10
202.6471315845285
 20
309.6735729427759
 30
0.0
 10
201.543315739483
 20
309.8340918464766
 30
0.0
 10
200.4377439570155
 20
309.9221940398554
 30
0.0
 10
199.4710372736897
 20
309.9589278091114
 30
0.0
 10
198.5105339470483
 20
309.9690492917939
 30
0.0
 10
197.9366434071301
 20
309.967865449187
 30
0.0
 10
197.7543307235446
 20
309.9674893678481
 30
0.0
  0
ENDSEC
  0
SECTION
  2
OBJECTS
  0
DICTIONARY
  5
C
330
0
100
AcDbDictionary
281
     1
  3
ACAD_GROUP
350
D
  3
ACAD_LAYOUT
350
1A
  3
ACAD_MATERIAL
350
3B
  3
ACAD_MLEADERSTYLE
350
15D
  3
ACAD_MLINESTYLE
350
17
  3
ACAD_PLOTSETTINGS
350
19
  3
ACAD_PLOTSTYLENAME
350
E
  3
ACAD_TABLESTYLE
350
15C
  3
ACAD_VISUALSTYLE
350
2A
  0
DICTIONARY
  5
D
102
{ACAD_REACTORS
330
C
102
}
330
C
100
AcDbDictionary
281
     1
  0
DICTIONARY
  5
1A
102
{ACAD_REACTORS
330
C
102
}
330
C
100
AcDbDictionary
281
     1
  3
Layout1
350
1E
  3
Layout2
350
26
  3
Model
350
22
  0
DICTIONARY
  5
3B
102
{ACAD_REACTORS
330
C
102
}
330
C
100
AcDbDictionary
281
     1
  3
ByBlock
350
3D
  3
ByLayer
350
3C
  3
Global
350
3E
  0
DICTIONARY
  5
15D
102
{ACAD_REACTORS
330
C
102
}
330
C
100
AcDbDictionary
281
     1
  0
DICTIONARY
  5
17
102
{ACAD_REACTORS
330
C
102
}
330
C
100
AcDbDictionary
281
     1
  3
Standard
350
18
  0
DICTIONARY
  5
19
102
{ACAD_REACTORS
330
C
102
}
330
C
100
AcDbDictionary
281
     1
  0
ACDBDICTIONARYWDFLT
  5
E
102
{ACAD_REACTORS
330
C
102
}
330
C
100
AcDbDictionary
281
     1
  3
Normal
350
F
100
AcDbDictionaryWithDefault
340
F
  0
DICTIONARY
  5
15C
102
{ACAD_REACTORS
330
C
102
}
330
C
100
AcDbDictionary
281
     1
  0
DICTIONARY
  5
2A
102
{ACAD_REACTORS
330
C
102
}
330
C
100
AcDbDictionary
281
     1
  3
2dWireframe
350
2F
  3
3D Hidden
350
31
  3
3dWireframe
350
30
  3
Basic
350
32
  3
Brighten
350
36
  3
ColorChange
350
3A
  3
Conceptual
350
34
  3
Dim
350
35
  3
Facepattern
350
39
  3
Flat
350
2B
  3
FlatWithEdges
350
2C
  3
Gouraud
350
2D
  3
GouraudWithEdges
350
2E
  3
Linepattern
350
38
  3
Realistic
350
33
  3
Thicken
350
37
  0
LAYOUT
  5
1E
102
{ACAD_REACTORS
330
1A
102
}
330
1A
100
AcDbPlotSettings
  1

  2
none_device
  4

  6

 40
0.0
 41
0.0
 42
0.0
 43
0.0
 44
0.0
 45
0.0
 46
0.0
 47
0.0
 48
0.0
 49
0.0
140
0.0
141
0.0
142
1.0
143
1.0
 70
   688
 72
     0
 73
     0
 74
     5
  7

 75
    16
 76
     0
 77
     2
 78
   300
147
1.0
148
0.0
149
0.0
100
AcDbLayout
  1
Layout1
 70
     1
 71
     1
 10
0.0
 20
0.0
 11
420.0
 21
297.0
 12
0.0
 22
0.0
 32
0.0
 14
1.0000000000E+20
 24
1.0000000000E+20
 34
1.0000000000E+20
 15
-1.0000000000E+20
 25
-1.0000000000E+20
 35
-1.0000000000E+20
146
0.0
 13
0.0
 23
0.0
 33
0.0
 16
1.0
 26
0.0
 36
0.0
 17
0.0
 27
1.0
 37
0.0
 76
     0
330
1B
  0
LAYOUT
  5
26
102
{ACAD_REACTORS
330
1A
102
}
330
1A
100
AcDbPlotSettings
  1

  2
none_device
  4

  6

 40
0.0
 41
0.0
 42
0.0
 43
0.0
 44
0.0
 45
0.0
 46
0.0
 47
0.0
 48
0.0
 49
0.0
140
0.0
141
0.0
142
1.0
143
1.0
 70
   688
 72
     0
 73
     0
 74
     5
  7

 75
    16
 76
     0
 77
     2
 78
   300
147
1.0
148
0.0
149
0.0
100
AcDbLayout
  1
Layout2
 70
     1
 71
     2
 10
0.0
 20
0.0
 11
0.0
 21
0.0
 12
0.0
 22
0.0
 32
0.0
 14
0.0
 24
0.0
 34
0.0
 15
0.0
 25
0.0
 35
0.0
146
0.0
 13
0.0
 23
0.0
 33
0.0
 16
1.0
 26
0.0
 36
0.0
 17
0.0
 27
1.0
 37
0.0
 76
     0
330
23
  0
LAYOUT
  5
22
102
{ACAD_REACTORS
330
1A
102
}
330
1A
100
AcDbPlotSettings
  1

  2
none_device
  4

  6

 40
0.0
 41
0.0
 42
0.0
 43
0.0
 44
0.0
 45
0.0
 46
0.0
 47
0.0
 48
0.0
 49
0.0
140
0.0
141
0.0
142
1.0
143
1.0
 70
  1712
 72
     0
 73
     0
 74
     0
  7

 75
     0
 76
     0
 77
     2
 78
   300
147
1.0
148
0.0
149
0.0
100
AcDbLayout
  1
Model
 70
     1
 71
     0
 10
0.0
 20
0.0
 11
594.0
 21
841.0
 12
0.0
 22
0.0
 32
0.0
 14
0.0
 24
0.0
 34
0.0
 15
594.0
 25
841.0
 35
0.0
146
0.0
 13
0.0
 23
0.0
 33
0.0
 16
1.0
 26
0.0
 36
0.0
 17
0.0
 27
1.0
 37
0.0
 76
     0
330
1F
331
29
  0
MATERIAL
  5
3D
102
{ACAD_REACTORS
330
3B
102
}
330
3B
100
AcDbMaterial
  1
ByBlock
 72
     1
 94
      127
  0
MATERIAL
  5
3C
102
{ACAD_REACTORS
330
3B
102
}
330
3B
100
AcDbMaterial
  1
ByLayer
 72
     1
 94
      127
  0
MATERIAL
  5
3E
102
{ACAD_REACTORS
330
3B
102
}
330
3B
100
AcDbMaterial
  1
Global
 72
     1
 94
      127
  0
MLINESTYLE
  5
18
102
{ACAD_REACTORS
330
17
102
}
330
17
100
AcDbMlineStyle
  2
Standard
 70
     0
  3

 62
   256
 51
90.0
 52
90.0
 71
     2
 49
0.5
 62
   256
  6
BYLAYER
 49
-0.5
 62
   256
  6
BYLAYER
  0
ACDBPLACEHOLDER
  5
F
102
{ACAD_REACTORS
330
E
102
}
330
E
  0
VISUALSTYLE
  5
2F
102
{ACAD_REACTORS
330
2A
102
}
330
2A
100
AcDbVisualStyle
  2
2dWireframe
 70
     4
177
     2
291
     0
 71
     0
176
     1
 72
     2
176
     1
 73
     0
176
     1
 90
        0
176
     1
 40
-0.6
176
     1
 41
-30.0
176
     1
 62
     5
 63
     7
421
 16777215
176
     1
 74
     1
176
     1
 91
        4
176
     1
 64
     7
176
     1
 65
   257
176
     1
 75
     1
176
     1
175
     1
176
     1
 42
1.0
176
     1
 92
        0
176
     1
 66
   257
176
     1
 43
1.0
176
     1
 76
     1
176
     1
 77
     6
176
     1
 78
     2
176
     1
 67
     7
176
     1
 79
     5
176
     1
170
     0
176
     1
171
     0
176
     1
290
     0
176
     1
 93
        1
176
     1
 44
0.0
176
     1
173
     0
176
     1
  0
VISUALSTYLE
  5
31
102
{ACAD_REACTORS
330
2A
102
}
330
2A
100
AcDbVisualStyle
  2
3D Hidden
 70
     6
177
     2
291
     0
 71
     1
176
     1
 72
     2
176
     1
 73
     2
176
     1
 90
        0
176
     1
 40
-0.6
176
     1
 41
-30.0
176
     1
 62
     5
 63
     7
421
 16777215
176
     1
 74
     2
176
     1
 91
        2
176
     1
 64
     7
176
     1
 65
   257
176
     1
 75
     2
176
     1
175
     1
176
     1
 42
40.0
176
     1
 92
        0
176
     1
 66
   257
176
     1
 43
1.0
176
     1
 76
     1
176
     1
 77
     6
176
     1
 78
     2
176
     1
 67
     7
176
     1
 79
     3
176
     1
170
     0
176
     1
171
     0
176
     1
290
     0
176
     1
 93
        1
176
     1
 44
0.0
176
     1
173
     0
176
     1
  0
VISUALSTYLE
  5
30
102
{ACAD_REACTORS
330
2A
102
}
330
2A
100
AcDbVisualStyle
  2
3dWireframe
 70
     5
177
     2
291
     0
 71
     0
176
     1
 72
     2
176
     1
 73
     0
176
     1
 90
        0
176
     1
 40
-0.6
176
     1
 41
-30.0
176
     1
 62
     5
 63
     7
421
 16777215
176
     1
 74
     1
176
     1
 91
        4
176
     1
 64
     7
176
     1
 65
   257
176
     1
 75
     1
176
     1
175
     1
176
     1
 42
1.0
176
     1
 92
        0
176
     1
 66
   257
176
     1
 43
1.0
176
     1
 76
     1
176
     1
 77
     6
176
     1
 78
     2
176
     1
 67
     7
176
     1
 79
     5
176
     1
170
     0
176
     1
171
     0
176
     1
290
     0
176
     1
 93
        1
176
     1
 44
0.0
176
     1
173
     0
176
     1
  0
VISUALSTYLE
  5
32
102
{ACAD_REACTORS
330
2A
102
}
330
2A
100
AcDbVisualStyle
  2
Basic
 70
     7
177
     2
291
     1
 71
     1
176
     1
 72
     0
176
     1
 73
     1
176
     1
 90
        0
176
     1
 40
-0.6
176
     1
 41
-30.0
176
     1
 62
     5
 63
     7
421
 16777215
176
     1
 74
     0
176
     1
 91
        4
176
     1
 64
     7
176
     1
 65
   257
176
     1
 75
     1
176
     1
175
     1
176
     1
 42
1.0
176
     1
 92
        8
176
     1
 66
     7
176
     1
 43
1.0
176
     1
 76
     1
176
     1
 77
     6
176
     1
 78
     2
176
     1
 67
     7
176
     1
 79
     5
176
     1
170
     0
176
     1
171
     0
176
     1
290
     0
176
     1
 93
        1
176
     1
 44
0.0
176
     1
173
     0
176
     1
  0
VISUALSTYLE
  5
36
102
{ACAD_REACTORS
330
2A
102
}
330
2A
100
AcDbVisualStyle
  2
Brighten
 70
    12
177
     2
291
     1
 71
     2
176
     1
 72
     2
176
     1
 73
     0
176
     1
 90
        0
176
     1
 40
-0.6
176
     1
 41
-30.0
176
     1
 62
     5
 63
     7
421
 16777215
176
     1
 74
     1
176
     1
 91
        4
176
     1
 64
     7
176
     1
 65
   257
176
     1
 75
     1
176
     1
175
     1
176
     1
 42
1.0
176
     1
 92
        8
176
     1
 66
     7
176
     1
 43
1.0
176
     1
 76
     1
176
     1
 77
     6
176
     1
 78
     2
176
     1
 67
     7
176
     1
 79
     5
176
     1
170
     0
176
     1
171
     0
176
     1
290
     0
176
     1
 93
        1
176
     1
 44
50.0
176
     1
173
     0
176
     1
  0
VISUALSTYLE
  5
3A
102
{ACAD_REACTORS
330
2A
102
}
330
2A
100
AcDbVisualStyle
  2
ColorChange
 70
    16
177
     2
291
     1
 71
     2
176
     1
 72
     2
176
     1
 73
     3
176
     1
 90
        0
176
     1
 40
-0.6
176
     1
 41
-30.0
176
     1
 62
     5
 63
     8
421
  8421504
176
     1
 74
     1
176
     1
 91
        4
176
     1
 64
     7
176
     1
 65
   257
176
     1
 75
     1
176
     1
175
     1
176
     1
 42
1.0
176
     1
 92
        8
176
     1
 66
     8
424
  8421504
176
     1
 43
1.0
176
     1
 76
     1
176
     1
 77
     6
176
     1
 78
     2
176
     1
 67
     7
176
     1
 79
     5
176
     1
170
     0
176
     1
171
     0
176
     1
290
     0
176
     1
 93
        1
176
     1
 44
0.0
176
     1
173
     0
176
     1
  0
VISUALSTYLE
  5
34
102
{ACAD_REACTORS
330
2A
102
}
330
2A
100
AcDbVisualStyle
  2
Conceptual
 70
     9
177
     2
291
     0
 71
     3
176
     1
 72
     2
176
     1
 73
     0
176
     1
 90
        0
176
     1
 40
-0.6
176
     1
 41
-30.0
176
     1
 62
     5
 63
     7
421
 16777215
176
     1
 74
     2
176
     1
 91
        2
176
     1
 64
     7
176
     1
 65
   257
176
     1
 75
     1
176
     1
175
     1
176
     1
 42
40.0
176
     1
 92
        8
176
     1
 66
     7
176
     1
 43
1.0
176
     1
 76
     1
176
     1
 77
     6
176
     1
 78
     2
176
     1
 67
     7
176
     1
 79
     3
176
     1
170
     0
176
     1
171
     0
176
     1
290
     0
176
     1
 93
        1
176
     1
 44
0.0
176
     1
173
     0
176
     1
  0
VISUALSTYLE
  5
35
102
{ACAD_REACTORS
330
2A
102
}
330
2A
100
AcDbVisualStyle
  2
Dim
 70
    11
177
     2
291
     1
 71
     2
176
     1
 72
     2
176
     1
 73
     0
176
     1
 90
        0
176
     1
 40
-0.6
176
     1
 41
-30.0
176
     1
 62
     5
 63
     7
421
 16777215
176
     1
 74
     1
176
     1
 91
        4
176
     1
 64
     7
176
     1
 65
   257
176
     1
 75
     1
176
     1
175
     1
176
     1
 42
1.0
176
     1
 92
        8
176
     1
 66
     7
176
     1
 43
1.0
176
     1
 76
     1
176
     1
 77
     6
176
     1
 78
     2
176
     1
 67
     7
176
     1
 79
     5
176
     1
170
     0
176
     1
171
     0
176
     1
290
     0
176
     1
 93
        1
176
     1
 44
-50.0
176
     1
173
     0
176
     1
  0
VISUALSTYLE
  5
39
102
{ACAD_REACTORS
330
2A
102
}
330
2A
100
AcDbVisualStyle
  2
Facepattern
 70
    15
177
     2
291
     1
 71
     2
176
     1
 72
     2
176
     1
 73
     0
176
     1
 90
        0
176
     1
 40
-0.6
176
     1
 41
-30.0
176
     1
 62
     5
 63
     7
421
 16777215
176
     1
 74
     1
176
     1
 91
        4
176
     1
 64
     7
176
     1
 65
   257
176
     1
 75
     1
176
     1
175
     1
176
     1
 42
1.0
176
     1
 92
        8
176
     1
 66
     7
176
     1
 43
1.0
176
     1
 76
     1
176
     1
 77
     6
176
     1
 78
     2
176
     1
 67
     7
176
     1
 79
     5
176
     1
170
     0
176
     1
171
     0
176
     1
290
     0
176
     1
 93
        1
176
     1
 44
0.0
176
     1
173
     0
176
     1
  0
VISUALSTYLE
  5
2B
102
{ACAD_REACTORS
330
2A
102
}
330
2A
100
AcDbVisualStyle
  2
Flat
 70
     0
177
     2
291
     1
 71
     2
176
     1
 72
     1
176
     1
 73
     1
176
     1
 90
        2
176
     1
 40
-0.6
176
     1
 41
30.0
176
     1
 62
     5
 63
     7
421
 16777215
176
     1
 74
     0
176
     1
 91
        4
176
     1
 64
     7
176
     1
 65
   257
176
     1
 75
     1
176
     1
175
     1
176
     1
 42
1.0
176
     1
 92
        8
176
     1
 66
     7
176
     1
 43
1.0
176
     1
 76
     1
176
     1
 77
     6
176
     1
 78
     2
176
     1
 67
     7
176
     1
 79
     5
176
     1
170
     0
176
     1
171
     0
176
     1
290
     0
176
     1
 93
       13
176
     1
 44
0.0
176
     1
173
     0
176
     1
  0
VISUALSTYLE
  5
2C
102
{ACAD_REACTORS
330
2A
102
}
330
2A
100
AcDbVisualStyle
  2
FlatWithEdges
 70
     1
177
     2
291
     1
 71
     2
176
     1
 72
     1
176
     1
 73
     1
176
     1
 90
        2
176
     1
 40
-0.6
176
     1
 41
30.0
176
     1
 62
     5
 63
     7
421
 16777215
176
     1
 74
     1
176
     1
 91
        4
176
     1
 64
     7
176
     1
 65
   257
176
     1
 75
     1
176
     1
175
     1
176
     1
 42
1.0
176
     1
 92
        0
176
     1
 66
   257
176
     1
 43
1.0
176
     1
 76
     1
176
     1
 77
     6
176
     1
 78
     2
176
     1
 67
     7
176
     1
 79
     5
176
     1
170
     0
176
     1
171
     0
176
     1
290
     0
176
     1
 93
       13
176
     1
 44
0.0
176
     1
173
     0
176
     1
  0
VISUALSTYLE
  5
2D
102
{ACAD_REACTORS
330
2A
102
}
330
2A
100
AcDbVisualStyle
  2
Gouraud
 70
     2
177
     2
291
     1
 71
     2
176
     1
 72
     2
176
     1
 73
     1
176
     1
 90
        2
176
     1
 40
-0.6
176
     1
 41
30.0
176
     1
 62
     5
 63
     7
421
 16777215
176
     1
 74
     0
176
     1
 91
        4
176
     1
 64
     7
176
     1
 65
   257
176
     1
 75
     1
176
     1
175
     1
176
     1
 42
1.0
176
     1
 92
        0
176
     1
 66
     7
176
     1
 43
1.0
176
     1
 76
     1
176
     1
 77
     6
176
     1
 78
     2
176
     1
 67
     7
176
     1
 79
     5
176
     1
170
     0
176
     1
171
     0
176
     1
290
     0
176
     1
 93
       13
176
     1
 44
0.0
176
     1
173
     0
176
     1
  0
VISUALSTYLE
  5
2E
102
{ACAD_REACTORS
330
2A
102
}
330
2A
100
AcDbVisualStyle
  2
GouraudWithEdges
 70
     3
177
     2
291
     1
 71
     2
176
     1
 72
     2
176
     1
 73
     1
176
     1
 90
        2
176
     1
 40
-0.6
176
     1
 41
30.0
176
     1
 62
     5
 63
     7
421
 16777215
176
     1
 74
     1
176
     1
 91
        4
176
     1
 64
     7
176
     1
 65
   257
176
     1
 75
     1
176
     1
175
     1
176
     1
 42
1.0
176
     1
 92
        0
176
     1
 66
   257
176
     1
 43
1.0
176
     1
 76
     1
176
     1
 77
     6
176
     1
 78
     2
176
     1
 67
     7
176
     1
 79
     5
176
     1
170
     0
176
     1
171
     0
176
     1
290
     0
176
     1
 93
       13
176
     1
 44
0.0
176
     1
173
     0
176
     1
  0
VISUALSTYLE
  5
38
102
{ACAD_REACTORS
330
2A
102
}
330
2A
100
AcDbVisualStyle
  2
Linepattern
 70
    14
177
     2
291
     1
 71
     2
176
     1
 72
     2
176
     1
 73
     0
176
     1
 90
        0
176
     1
 40
-0.6
176
     1
 41
-30.0
176
     1
 62
     5
 63
     7
421
 16777215
176
     1
 74
     1
176
     1
 91
        4
176
     1
 64
     7
176
     1
 65
   257
176
     1
 75
     7
176
     1
175
     7
176
     1
 42
1.0
176
     1
 92
        8
176
     1
 66
     7
176
     1
 43
1.0
176
     1
 76
     1
176
     1
 77
     6
176
     1
 78
     2
176
     1
 67
     7
176
     1
 79
     5
176
     1
170
     0
176
     1
171
     0
176
     1
290
     0
176
     1
 93
        1
176
     1
 44
0.0
176
     1
173
     0
176
     1
  0
VISUALSTYLE
  5
33
102
{ACAD_REACTORS
330
2A
102
}
330
2A
100
AcDbVisualStyle
  2
Realistic
 70
     8
177
     2
291
     0
 71
     2
176
     1
 72
     2
176
     1
 73
     0
176
     1
 90
        0
176
     1
 40
-0.6
176
     1
 41
-30.0
176
     1
 62
     5
 63
     7
421
 16777215
176
     1
 74
     1
176
     1
 91
        0
176
     1
 64
     7
176
     1
 65
   257
176
     1
 75
     1
176
     1
175
     1
176
     1
 42
1.0
176
     1
 92
        8
176
     1
 66
     8
424
  7895160
176
     1
 43
1.0
176
     1
 76
     1
176
     1
 77
     6
176
     1
 78
     2
176
     1
 67
     7
176
     1
 79
     5
176
     1
170
     0
176
     1
171
     0
176
     1
290
     0
176
     1
 93
       13
176
     1
 44
0.0
176
     1
173
     0
176
     1
  0
VISUALSTYLE
  5
37
102
{ACAD_REACTORS
330
2A
102
}
330
2A
100
AcDbVisualStyle
  2
Thicken
 70
    13
177
     2
291
     1
 71
     2
176
     1
 72
     2
176
     1
 73
     0
176
     1
 90
        0
176
     1
 40
-0.6
176
     1
 41
-30.0
176
     1
 62
     5
 63
     7
421
 16777215
176
     1
 74
     1
176
     1
 91
        4
176
     1
 64
     7
176
     1
 65
   257
176
     1
 75
     1
176
     1
175
     1
176
     1
 42
1.0
176
     1
 92
       12
176
     1
 66
     7
176
     1
 43
1.0
176
     1
 76
     1
176
     1
 77
     6
176
     1
 78
     2
176
     1
 67
     7
176
     1
 79
     5
176
     1
170
     0
176
     1
171
     0
176
     1
290
     0
176
     1
 93
        1
176
     1
 44
0.0
176
     1
173
     0
176
     1
  0
ENDSEC
  0
EOF
