  0
SECTION
  2
HEADER
  9
$ACADVER
  1
AC1009
  9
$DWGCODEPAGE
  3
ansi_1252
  9
$INSBASE
 10
0.0
 20
0.0
 30
0.0
  9
$EXTMIN
 10
0.0
 20
0.0
 30
0.0
  9
$EXTMAX
 10
594.0
 20
841.0
 30
0.0
  9
$LIMMIN
 10
0.0
 20
0.0
  9
$LIMMAX
 10
594.0
 20
841.0
  9
$ORTHOMODE
 70
     0
  9
$REGENMODE
 70
     1
  9
$FILLMODE
 70
     1
  9
$QTEXTMODE
 70
     0
  9
$MIRRTEXT
 70
     1
  9
$DRAGMODE
 70
     2
  9
$LTSCALE
 40
1.0
  9
$OSMODE
 70
    37
  9
$ATTMODE
 70
     1
  9
$TEXTSIZE
 40
10.0
  9
$TRACEWID
 40
1.0
  9
$TEXTSTYLE
  7
STANDARD
  9
$CLAYER
  8
0
  9
$CELTYPE
  6
BYLAYER
  9
$CECOLOR
 62
   256
  9
$DIMSCALE
 40
1.0
  9
$DIMASZ
 40
2.5
  9
$DIMEXO
 40
0.0
  9
$DIMDLI
 40
3.75
  9
$DIMRND
 40
0.0
  9
$DIMDLE
 40
0.0
  9
$DIMEXE
 40
1.0
  9
$DIMTP
 40
0.0
  9
$DIMTM
 40
0.0
  9
$DIMTXT
 40
3.5
  9
$DIMCEN
 40
2.5
  9
$DIMTSZ
 40
0.0
  9
$DIMTOL
 70
     0
  9
$DIMLIM
 70
     0
  9
$DIMTIH
 70
     1
  9
$DIMTOH
 70
     1
  9
$DIMSE1
 70
     0
  9
$DIMSE2
 70
     0
  9
$DIMTAD
 70
     1
  9
$DIMZIN
 70
     0
  9
$DIMBLK
  1

  9
$DIMASO
 70
     1
  9
$DIMSHO
 70
     1
  9
$DIMPOST
  1

  9
$DIMAPOST
  1

  9
$DIMALT
 70
     0
  9
$DIMALTD
 70
     3
  9
$DIMALTF
 40
0.0393700787
  9
$DIMLFAC
 40
1.0
  9
$DIMTOFL
 70
     1
  9
$DIMTVP
 40
0.0
  9
$DIMTIX
 70
     0
  9
$DIMSOXD
 70
     0
  9
$DIMSAH
 70
     0
  9
$DIMBLK1
  1

  9
$DIMBLK2
  1

  9
$DIMSTYLE
  2
ISO-25
  9
$DIMCLRD
 70
     0
  9
$DIMCLRE
 70
     0
  9
$DIMCLRT
 70
     0
  9
$DIMTFAC
 40
1.0
  9
$DIMGAP
 40
1.5
  9
$LUNITS
 70
     2
  9
$LUPREC
 70
     2
  9
$SKETCHINC
 40
1.0
  9
$FILLETRAD
 40
10.0
  9
$AUNITS
 70
     0
  9
$AUPREC
 70
     2
  9
$MENU
  1
.
  9
$ELEVATION
 40
0.0
  9
$PELEVATION
 40
0.0
  9
$THICKNESS
 40
0.0
  9
$LIMCHECK
 70
     0
  9
$CHAMFERA
 40
0.0
  9
$CHAMFERB
 40
0.0
  9
$SKPOLY
 70
     0
  9
$TDCREATE
 40
2458400.480051261
  9
$TDUPDATE
 40
2458400.48005162
  9
$TDINDWG
 40
0.0000000116
  9
$TDUSRTIMER
 40
0.0000000116
  9
$USRTIMER
 70
     1
  9
$ANGBASE
 50
0.0
  9
$ANGDIR
 70
     0
  9
$PDMODE
 70
     0
  9
$PDSIZE
 40
-1.0
  9
$PLINEWID
 40
0.0
  9
$COORDS
 70
     1
  9
$SPLFRAME
 70
     0
  9
$SPLINETYPE
 70
     6
  9
$SPLINESEGS
 70
     8
  9
$ATTDIA
 70
     0
  9
$ATTREQ
 70
     1
  9
$HANDLING
 70
     1
  9
$HANDSEED
  5
4D6
  9
$SURFTAB1
 70
     6
  9
$SURFTAB2
 70
     6
  9
$SURFTYPE
 70
     6
  9
$SURFU
 70
     6
  9
$SURFV
 70
     6
  9
$UCSNAME
  2

  9
$UCSORG
 10
0.0
 20
0.0
 30
0.0
  9
$UCSXDIR
 10
1.0
 20
0.0
 30
0.0
  9
$UCSYDIR
 10
0.0
 20
1.0
 30
0.0
  9
$PUCSNAME
  2

  9
$PUCSORG
 10
0.0
 20
0.0
 30
0.0
  9
$PUCSXDIR
 10
1.0
 20
0.0
 30
0.0
  9
$PUCSYDIR
 10
0.0
 20
1.0
 30
0.0
  9
$USERI1
 70
     0
  9
$USERI2
 70
     0
  9
$USERI3
 70
     0
  9
$USERI4
 70
     0
  9
$USERI5
 70
     0
  9
$USERR1
 40
0.0
  9
$USERR2
 40
0.0
  9
$USERR3
 40
0.0
  9
$USERR4
 40
0.0
  9
$USERR5
 40
0.0
  9
$WORLDVIEW
 70
     1
  9
$SHADEDGE
 70
     3
  9
$SHADEDIF
 70
    70
  9
$TILEMODE
 70
     1
  9
$MAXACTVP
 70
    64
  9
$PLIMCHECK
 70
     0
  9
$PEXTMIN
 10
1.0000000000E+20
 20
1.0000000000E+20
 30
1.0000000000E+20
  9
$PEXTMAX
 10
-1.0000000000E+20
 20
-1.0000000000E+20
 30
-1.0000000000E+20
  9
$PLIMMIN
 10
0.0
 20
0.0
  9
$PLIMMAX
 10
420.0
 20
297.0
  9
$UNITMODE
 70
     0
  9
$VISRETAIN
 70
     1
  9
$PLINEGEN
 70
     0
  9
$PSLTSCALE
 70
     1
  0
ENDSEC
  0
SECTION
  2
TABLES
  0
TABLE
  2
VPORT
 70
     1
  0
VPORT
  2
*ACTIVE
 70
     0
 10
0.0
 20
0.0
 11
1.0
 21
1.0
 12
297.0
 22
420.5
 13
0.0
 23
0.0
 14
10.0
 24
10.0
 15
10.0
 25
10.0
 16
0.0
 26
0.0
 36
1.0
 17
0.0
 27
0.0
 37
0.0
 40
841.0
 41
0.7063020214
 42
50.0
 43
0.0
 44
0.0
 50
0.0
 51
0.0
 71
     0
 72
  2000
 73
     1
 74
     3
 75
     0
 76
     0
 77
     0
 78
     0
  0
ENDTAB
  0
TABLE
  2
LTYPE
 70
     6
  0
LTYPE
  2
CONTINUOUS
 70
     0
  3
Solid line
 72
    65
 73
     0
 40
0.0
  0
LTYPE
  2
HIDDEN
 70
     0
  3
Hidden __ __ __ __ __ __ __ __ __ __ __ __ __ __
 72
    65
 73
     2
 40
1.905
 49
1.27
 49
-0.635
  0
LTYPE
  2
PHANTOM
 70
     0
  3
Phantom ______  __  __  ______  __  __  ______
 72
    65
 73
     6
 40
12.7
 49
6.35
 49
-1.27
 49
1.27
 49
-1.27
 49
1.27
 49
-1.27
  0
LTYPE
  2
CENTER
 70
     0
  3
Center ____ _ ____ _ ____ _ ____ _ ____ _ ____
 72
    65
 73
     4
 40
10.16
 49
6.35
 49
-1.27
 49
1.27
 49
-1.27
  0
LTYPE
  2
CENTERX2
 70
     0
  3
Center (2x) ________  __  ________  __  _____
 72
    65
 73
     4
 40
20.32
 49
12.7
 49
-2.54
 49
2.54
 49
-2.54
  0
LTYPE
  2
DOT2
 70
     0
  3
Dot (.5x) ........................................
 72
    65
 73
     2
 40
0.635
 49
0.0
 49
-0.635
  0
ENDTAB
  0
TABLE
  2
LAYER
 70
     1
  0
LAYER
  2
0
 70
     0
 62
     7
  6
CONTINUOUS
  0
ENDTAB
  0
TABLE
  2
STYLE
 70
     1
  0
STYLE
  2
STANDARD
 70
     0
 40
0.0
 41
1.0
 50
0.0
 71
     0
 42
10.0
  3
txt
  4

  0
ENDTAB
  0
TABLE
  2
VIEW
 70
     0
  0
ENDTAB
  0
TABLE
  2
UCS
 70
     0
  0
ENDTAB
  0
TABLE
  2
APPID
 70
     1
  0
APPID
  2
ACAD
 70
     0
  0
ENDTAB
  0
TABLE
  2
DIMSTYLE
 70
     2
  0
DIMSTYLE
  2
ISO-25
 70
     0
  3

  4

  5

  6

  7

 40
1.0
 41
2.5
 42
0.625
 43
3.75
 44
1.25
 45
0.0
 46
0.0
 47
0.0
 48
0.0
140
2.5
141
2.5
142
0.0
143
0.0393700787
144
1.0
145
0.0
146
1.0
147
0.625
 71
     0
 72
     0
 73
     0
 74
     0
 75
     0
 76
     0
 77
     1
 78
     8
170
     0
171
     3
172
     1
173
     0
174
     0
175
     0
176
     0
177
     0
178
     0
  0
DIMSTYLE
  2
SLDDIMSTYLE0
 70
     0
  3

  4

  5

  6

  7

 40
1.0
 41
2.5
 42
0.0625
 43
0.38
 44
0.0
 45
0.000000001
 46
0.0
 47
0.0
 48
0.0
140
6.0
141
0.09
142
0.0
143
25.4
144
1.0
145
0.0
146
1.0
147
1.5
 71
     0
 72
     0
 73
     0
 74
     0
 75
     0
 76
     0
 77
     1
 78
    12
170
     0
171
     2
172
     0
173
     1
174
     0
175
     0
176
     0
177
     0
178
     0
  0
ENDTAB
  0
ENDSEC
  0
SECTION
  2
BLOCKS
  0
BLOCK
  8
0
  2
$MODEL_SPACE
 70
     0
 10
0.0
 20
0.0
 30
0.0
  3
$MODEL_SPACE
  1

  0
ENDBLK
  5
21
  8
0
  0
BLOCK
 67
     1
  8
0
  2
$PAPER_SPACE
 70
     0
 10
0.0
 20
0.0
 30
0.0
  3
$PAPER_SPACE
  1

  0
ENDBLK
  5
1D
 67
     1
  8
0
  0
BLOCK
  8
0
  2
_D
 70
     0
 10
0.0
 20
0.0
 30
0.0
  3
_D
  1

  0
SOLID
  5
7A
  8
0
  6
CONTINUOUS
 62
     7
 10
42.7614395004
 20
152.0299240879
 30
0.0
 11
42.4614395004
 21
149.5299240879
 31
0.0
 12
43.0614395004
 22
149.5299240879
 32
0.0
 13
43.0614395004
 23
149.5299240879
 33
0.0
  0
SOLID
  5
7B
  8
0
  6
CONTINUOUS
 62
     7
 10
42.7614395004
 20
52.0299240879
 30
0.0
 11
43.0614395004
 21
54.5299240879
 31
0.0
 12
42.4614395004
 22
54.5299240879
 32
0.0
 13
42.4614395004
 23
54.5299240879
 33
0.0
  0
LINE
  5
7C
  8
0
  6
CONTINUOUS
 62
     7
 10
56.6850079902
 20
152.0299240879
 30
0.0
 11
41.7614395004
 21
152.0299240879
 31
0.0
  0
LINE
  5
7D
  8
0
  6
CONTINUOUS
 62
     7
 10
56.6850079902
 20
52.0299240879
 30
0.0
 11
41.7614395004
 21
52.0299240879
 31
0.0
  0
LINE
  5
7E
  8
0
  6
CONTINUOUS
 62
     7
 10
42.7614395004
 20
152.0299240879
 30
0.0
 11
42.7614395004
 21
52.0299240879
 31
0.0
  0
TEXT
  5
7F
  8
0
  6
CONTINUOUS
 62
     7
 10
40.6418793617
 20
94.3680541463
 30
0.0
 40
6.0
  1
100
 50
90.0
 41
0.7
 11
42.7614397332
 21
94.3680541463
 31
0.0
 73
     1
  0
TEXT
  5
80
  8
0
  6
CONTINUOUS
 62
     7
 10
40.6418793617
 20
105.7430548466
 30
0.0
 40
6.0
  1
mm
 50
90.0
 41
0.7
 11
42.7614397332
 21
105.7430548466
 31
0.0
 73
     1
  0
ENDBLK
  5
79
  8
0
  0
BLOCK
  8
0
  2
_D_1
 70
     0
 10
0.0
 20
0.0
 30
0.0
  3
_D_1
  1

  0
SOLID
  5
85
  8
0
  6
CONTINUOUS
 62
     7
 10
56.6850079902
 20
38.4602342313
 30
0.0
 11
59.1850079902
 21
38.1602342313
 31
0.0
 12
59.1850079902
 22
38.7602342313
 32
0.0
 13
59.1850079902
 23
38.7602342313
 33
0.0
  0
SOLID
  5
86
  8
0
  6
CONTINUOUS
 62
     7
 10
156.6850079902
 20
38.4602342313
 30
0.0
 11
154.1850079902
 21
38.7602342313
 31
0.0
 12
154.1850079902
 22
38.1602342313
 32
0.0
 13
154.1850079902
 23
38.1602342313
 33
0.0
  0
LINE
  5
87
  8
0
  6
CONTINUOUS
 62
     7
 10
56.6850079902
 20
52.0299240879
 30
0.0
 11
56.6850079902
 21
37.4602342313
 31
0.0
  0
LINE
  5
88
  8
0
  6
CONTINUOUS
 62
     7
 10
156.6850079902
 20
52.0299240879
 30
0.0
 11
156.6850079902
 21
37.4602342313
 31
0.0
  0
LINE
  5
89
  8
0
  6
CONTINUOUS
 62
     7
 10
56.6850079902
 20
38.4602342313
 30
0.0
 11
156.6850079902
 21
38.4602342313
 31
0.0
  0
TEXT
  5
8A
  8
0
  6
CONTINUOUS
 62
     7
 10
93.9626484861
 20
40.57979437
 30
0.0
 40
6.0
  1
100
 41
0.7
 11
93.9626484861
 21
38.4602339984
 31
0.0
 73
     1
  0
TEXT
  5
8B
  8
0
  6
CONTINUOUS
 62
     7
 10
105.3376491864
 20
40.57979437
 30
0.0
 40
6.0
  1
mm
 41
0.7
 11
105.3376491864
 21
38.4602339984
 31
0.0
 73
     1
  0
ENDBLK
  5
84
  8
0
  0
ENDSEC
  0
SECTION
  2
ENTITIES
  0
LINE
  5
73
  8
0
  6
CONTINUOUS
 62
     7
 10
56.6850079902
 20
152.0299240879
 30
0.0
 11
56.6850079902
 21
52.0299240879
 31
0.0
  0
LINE
  5
74
  8
0
  6
CONTINUOUS
 62
     7
 10
56.6850079902
 20
52.0299240879
 30
0.0
 11
156.6850079902
 21
52.0299240879
 31
0.0
  0
DIMENSION
  5
75
  8
0
  6
CONTINUOUS
 62
     7
  2
_D
 10
42.7614395004
 20
52.0299240879
 30
0.0
 11
42.7614395004
 21
105.4472211621
 31
0.0
 70
   160
  1
<>mm
  3
SLDDIMSTYLE0
 13
56.6850079902
 23
152.0299240879
 33
0.0
 14
56.6850079902
 24
52.0299240879
 34
0.0
 50
90.0
  0
DIMENSION
  5
81
  8
0
  6
CONTINUOUS
 62
     7
  2
_D_1
 10
156.6850079902
 20
38.4602342313
 30
0.0
 11
105.0418155019
 21
38.4602342313
 31
0.0
 70
   160
  1
<>mm
  3
SLDDIMSTYLE0
 13
56.6850079902
 23
52.0299240879
 33
0.0
 14
156.6850079902
 24
52.0299240879
 34
0.0
  0
TEXT
  5
8C
  8
0
  6
CONTINUOUS
 62
     7
 10
412.8252631579
 20
39.0761681714
 30
0.0
 40
10.0
  1
KLUDI GmbH & Co KG
 41
0.6222222222
 11
412.8252631579
 21
35.5435675522
 31
0.0
 73
     1
  0
TEXT
  5
8D
  8
0
  6
CONTINUOUS
 62
     7
 10
210.0873490389
 20
39.0761681714
 30
0.0
 40
10.0
  1
48 262 05 65
 41
0.6125
 11
210.0873490389
 21
35.5435675522
 31
0.0
 73
     1
  0
LINE
  5
8E
  8
0
  6
CONTINUOUS
 62
     7
 10
247.2676788971
 20
398.6865487706
 30
0.0
 11
247.2676788971
 21
377.8140536681
 31
0.0
  0
ARC
  5
8F
  8
0
  6
CONTINUOUS
 62
     7
 10
248.7676788971
 20
398.6865487706
 30
0.0
 40
1.5
 50
90.0
 51
180.0
  0
ARC
  5
90
  8
0
  6
CONTINUOUS
 62
     7
 10
247.4676788971
 20
377.8140536681
 30
0.0
 40
0.200000000000024
 50
188.4750736119
 51
248.0
  0
LINE
  5
91
  8
0
  6
CONTINUOUS
 62
     7
 10
293.3163060427
 20
303.9956228335
 30
0.0
 11
293.3163060427
 21
311.5067044882
 31
0.0
  0
POLYLINE
  5
92
  8
0
  6
CONTINUOUS
 62
     7
 66
     1
 10
0.0
 20
0.0
 30
0.0
 70
   128
  0
VERTEX
  5
21F
  8
0
  6
CONTINUOUS
 62
     7
 10
353.6121044625
 20
400.1860870064
 30
0.0
  0
VERTEX
  5
220
  8
0
  6
CONTINUOUS
 62
     7
 10
343.5092154929
 20
400.3119914529
 30
0.0
  0
VERTEX
  5
221
  8
0
  6
CONTINUOUS
 62
     7
 10
331.8322883466
 20
400.3564532977
 30
0.0
  0
VERTEX
  5
222
  8
0
  6
CONTINUOUS
 62
     7
 10
320.42380179
 20
400.3929473039
 30
0.0
  0
VERTEX
  5
223
  8
0
  6
CONTINUOUS
 62
     7
 10
309.2837679729
 20
400.4088207175
 30
0.0
  0
VERTEX
  5
224
  8
0
  6
CONTINUOUS
 62
     7
 10
298.4121672375
 20
400.4245450898
 30
0.0
  0
VERTEX
  5
225
  8
0
  6
CONTINUOUS
 62
     7
 10
285.2001058567
 20
400.4903153683
 30
0.0
  0
VERTEX
  5
226
  8
0
  6
CONTINUOUS
 62
     7
 10
272.4074643203
 20
400.5629820509
 30
0.0
  0
VERTEX
  5
227
  8
0
  6
CONTINUOUS
 62
     7
 10
260.0344088851
 20
400.4694051246
 30
0.0
  0
VERTEX
  5
228
  8
0
  6
CONTINUOUS
 62
     7
 10
249.1301781436
 20
400.1857152056
 30
0.0
  0
SEQEND
  5
470
  8
0
  6
CONTINUOUS
 62
     7
  0
POLYLINE
  5
93
  8
0
  6
CONTINUOUS
 62
     7
 66
     1
 10
0.0
 20
0.0
 30
0.0
 70
   128
  0
VERTEX
  5
229
  8
0
  6
CONTINUOUS
 62
     7
 10
370.9089357802
 20
363.3036439489
 30
0.0
  0
VERTEX
  5
22A
  8
0
  6
CONTINUOUS
 62
     7
 10
370.3496342363
 20
363.3049921729
 30
0.0
  0
VERTEX
  5
22B
  8
0
  6
CONTINUOUS
 62
     7
 10
365.21716805
 20
363.3192286013
 30
0.0
  0
SEQEND
  5
471
  8
0
  6
CONTINUOUS
 62
     7
  0
ARC
  5
94
  8
0
  6
CONTINUOUS
 62
     7
 10
270.3163060427
 20
362.6865487706
 30
0.0
 40
21.64486082191339
 50
143.9171424534
 51
170.9531540197
  0
ARC
  5
95
  8
0
  6
CONTINUOUS
 62
     7
 10
270.3163060427
 20
362.6865487706
 30
0.0
 40
21.64486082191334
 50
9.0468459803
 51
15.2684548419
  0
LINE
  5
96
  8
0
  6
CONTINUOUS
 62
     7
 10
248.8163060427
 20
364.5176095456
 30
0.0
 11
248.8163060427
 21
363.1947264736
 31
0.0
  0
LINE
  5
97
  8
0
  6
CONTINUOUS
 62
     7
 10
291.8163060427
 20
363.4939804455
 30
0.0
 11
291.8163060427
 21
364.5176095456
 31
0.0
  0
ARC
  5
98
  8
0
  6
CONTINUOUS
 62
     7
 10
281.8163060427
 20
364.5176095456
 30
0.0
 40
10.0
 50
0.0
 51
9.0468459803
  0
ARC
  5
99
  8
0
  6
CONTINUOUS
 62
     7
 10
258.8163060427
 20
364.5176095456
 30
0.0
 40
10.00000000000003
 50
170.9531540197
 51
180.0
  0
POLYLINE
  5
9A
  8
0
  6
CONTINUOUS
 62
     7
 66
     1
 10
0.0
 20
0.0
 30
0.0
 70
   128
  0
VERTEX
  5
22C
  8
0
  6
CONTINUOUS
 62
     7
 10
344.18225209
 20
342.7923395195
 30
0.0
  0
VERTEX
  5
22D
  8
0
  6
CONTINUOUS
 62
     7
 10
349.6406285026
 20
342.7468912861
 30
0.0
  0
VERTEX
  5
22E
  8
0
  6
CONTINUOUS
 62
     7
 10
351.9352953983
 20
342.7473971063
 30
0.0
  0
SEQEND
  5
472
  8
0
  6
CONTINUOUS
 62
     7
  0
ARC
  5
9B
  8
0
  6
CONTINUOUS
 62
     7
 10
306.597006728
 20
569.4598966179
 30
0.0
 40
230.0546462232375
 50
286.4479982999
 51
287.8337599276
  0
LINE
  5
9C
  8
0
  6
CONTINUOUS
 62
     7
 10
293.2676788971
 20
368.5865487706
 30
0.0
 11
293.2676788971
 21
372.8505895499
 31
0.0
  0
ARC
  5
9D
  8
0
  6
CONTINUOUS
 62
     7
 10
293.0676788971
 20
368.5865487706
 30
0.0
 40
0.1999999999999886
 50
270.0
 51
0.0
  0
LINE
  5
9E
  8
0
  6
CONTINUOUS
 62
     7
 10
376.4340805057
 20
347.5595421498
 30
0.0
 11
375.3320158526
 21
349.9229274253
 31
0.0
  0
LINE
  5
9F
  8
0
  6
CONTINUOUS
 62
     7
 10
352.1649063003
 20
342.8161161928
 30
0.0
 11
354.6826936169
 21
337.416703868
 31
0.0
  0
LINE
  5
A0
  8
0
  6
CONTINUOUS
 62
     7
 10
375.7717714859
 20
346.6136668432
 30
0.0
 11
376.4340805057
 21
347.5595421498
 31
0.0
  0
LINE
  5
A1
  8
0
  6
CONTINUOUS
 62
     7
 10
354.6826936169
 20
337.416703868
 30
0.0
 11
355.8330001711
 21
337.3160650849
 31
0.0
  0
POLYLINE
  5
A2
  8
0
  6
CONTINUOUS
 62
     7
 66
     1
 10
0.0
 20
0.0
 30
0.0
 70
   128
  0
VERTEX
  5
22F
  8
0
  6
CONTINUOUS
 62
     7
 10
293.3319004217
 20
311.5061998567
 30
0.0
  0
VERTEX
  5
230
  8
0
  6
CONTINUOUS
 62
     7
 10
293.4088059645
 20
314.0991638913
 30
0.0
  0
VERTEX
  5
231
  8
0
  6
CONTINUOUS
 62
     7
 10
293.6374542264
 20
316.6858867947
 30
0.0
  0
VERTEX
  5
232
  8
0
  6
CONTINUOUS
 62
     7
 10
293.9289472234
 20
318.7424455276
 30
0.0
  0
VERTEX
  5
233
  8
0
  6
CONTINUOUS
 62
     7
 10
294.2632100724
 20
320.5021855419
 30
0.0
  0
VERTEX
  5
234
  8
0
  6
CONTINUOUS
 62
     7
 10
294.6363272346
 20
322.0828754597
 30
0.0
  0
VERTEX
  5
235
  8
0
  6
CONTINUOUS
 62
     7
 10
295.0315627581
 20
323.4894620255
 30
0.0
  0
VERTEX
  5
236
  8
0
  6
CONTINUOUS
 62
     7
 10
295.7930341992
 20
325.7151314768
 30
0.0
  0
VERTEX
  5
237
  8
0
  6
CONTINUOUS
 62
     7
 10
296.9011194356
 20
328.2596081956
 30
0.0
  0
VERTEX
  5
238
  8
0
  6
CONTINUOUS
 62
     7
 10
298.4715420504
 20
331.0364425207
 30
0.0
  0
VERTEX
  5
239
  8
0
  6
CONTINUOUS
 62
     7
 10
300.5150776211
 20
333.7726903835
 30
0.0
  0
VERTEX
  5
23A
  8
0
  6
CONTINUOUS
 62
     7
 10
302.8599124312
 20
336.1211369439
 30
0.0
  0
VERTEX
  5
23B
  8
0
  6
CONTINUOUS
 62
     7
 10
305.4264001595
 20
338.0211417832
 30
0.0
  0
VERTEX
  5
23C
  8
0
  6
CONTINUOUS
 62
     7
 10
308.1772841448
 20
339.4989212498
 30
0.0
  0
VERTEX
  5
23D
  8
0
  6
CONTINUOUS
 62
     7
 10
310.9092113813
 20
340.5599697484
 30
0.0
  0
VERTEX
  5
23E
  8
0
  6
CONTINUOUS
 62
     7
 10
312.5030854125
 20
341.036990402
 30
0.0
  0
VERTEX
  5
23F
  8
0
  6
CONTINUOUS
 62
     7
 10
313.8840630713
 20
341.3823536932
 30
0.0
  0
VERTEX
  5
240
  8
0
  6
CONTINUOUS
 62
     7
 10
315.0833228055
 20
341.6365770834
 30
0.0
  0
VERTEX
  5
241
  8
0
  6
CONTINUOUS
 62
     7
 10
316.4495653097
 20
341.8784681314
 30
0.0
  0
VERTEX
  5
242
  8
0
  6
CONTINUOUS
 62
     7
 10
318.4752239587
 20
342.1511399877
 30
0.0
  0
VERTEX
  5
243
  8
0
  6
CONTINUOUS
 62
     7
 10
321.1638457076
 20
342.373334807
 30
0.0
  0
VERTEX
  5
244
  8
0
  6
CONTINUOUS
 62
     7
 10
324.5139323936
 20
342.478965077
 30
0.0
  0
SEQEND
  5
473
  8
0
  6
CONTINUOUS
 62
     7
  0
LINE
  5
A3
  8
0
  6
CONTINUOUS
 62
     7
 10
293.2663598682
 20
375.3865487706
 30
0.0
 11
293.4176788971
 21
375.3865487706
 31
0.0
  0
LINE
  5
A4
  8
0
  6
CONTINUOUS
 62
     7
 10
293.4176788971
 20
375.3865487706
 30
0.0
 11
294.0182262671
 21
375.6051301375
 31
0.0
  0
ARC
  5
A5
  8
0
  6
CONTINUOUS
 62
     7
 10
293.9498222384
 20
375.7930686616
 30
0.0
 40
0.2000000000000455
 50
290.0
 51
0.0
  0
LINE
  5
A6
  8
0
  6
CONTINUOUS
 62
     7
 10
294.1498222384
 20
375.7930686616
 30
0.0
 11
294.1498222384
 21
382.8221134006
 31
0.0
  0
POLYLINE
  5
A7
  8
0
  6
CONTINUOUS
 62
     7
 66
     1
 10
0.0
 20
0.0
 30
0.0
 70
   128
  0
VERTEX
  5
245
  8
0
  6
CONTINUOUS
 62
     7
 10
294.1964741995
 20
382.7054614361
 30
0.0
  0
VERTEX
  5
246
  8
0
  6
CONTINUOUS
 62
     7
 10
294.4691232239
 20
383.7008432341
 30
0.0
  0
VERTEX
  5
247
  8
0
  6
CONTINUOUS
 62
     7
 10
294.7873392669
 20
384.4315312316
 30
0.0
  0
SEQEND
  5
474
  8
0
  6
CONTINUOUS
 62
     7
  0
ARC
  5
A8
  8
0
  6
CONTINUOUS
 62
     7
 10
310.7754947096
 20
377.9992621806
 30
0.0
 40
17.2137442785396
 50
91.3282034651
 51
157.6362739788
  0
POLYLINE
  5
A9
  8
0
  6
CONTINUOUS
 62
     7
 66
     1
 10
0.0
 20
0.0
 30
0.0
 70
   128
  0
VERTEX
  5
248
  8
0
  6
CONTINUOUS
 62
     7
 10
311.1363557947
 20
395.2534916697
 30
0.0
  0
VERTEX
  5
249
  8
0
  6
CONTINUOUS
 62
     7
 10
311.1568391794
 20
395.2576599967
 30
0.0
  0
VERTEX
  5
24A
  8
0
  6
CONTINUOUS
 62
     7
 10
311.1751214894
 20
395.2637956706
 30
0.0
  0
SEQEND
  5
475
  8
0
  6
CONTINUOUS
 62
     7
  0
POLYLINE
  5
AA
  8
0
  6
CONTINUOUS
 62
     7
 66
     1
 10
0.0
 20
0.0
 30
0.0
 70
   128
  0
VERTEX
  5
24B
  8
0
  6
CONTINUOUS
 62
     7
 10
309.4741853672
 20
395.1261712532
 30
0.0
  0
VERTEX
  5
24C
  8
0
  6
CONTINUOUS
 62
     7
 10
310.3548654796
 20
395.2067474046
 30
0.0
  0
VERTEX
  5
24D
  8
0
  6
CONTINUOUS
 62
     7
 10
311.2679925113
 20
395.2583221137
 30
0.0
  0
SEQEND
  5
476
  8
0
  6
CONTINUOUS
 62
     7
  0
LINE
  5
AB
  8
0
  6
CONTINUOUS
 62
     7
 10
365.5188009004
 20
363.3183919324
 30
0.0
 11
365.2170832646
 21
363.3192288416
 31
0.0
  0
POLYLINE
  5
AC
  8
0
  6
CONTINUOUS
 62
     7
 66
     1
 10
0.0
 20
0.0
 30
0.0
 70
   128
  0
VERTEX
  5
24E
  8
0
  6
CONTINUOUS
 62
     7
 10
273.726968162
 20
363.1939216448
 30
0.0
  0
VERTEX
  5
24F
  8
0
  6
CONTINUOUS
 62
     7
 10
279.9639520554
 20
363.1936416453
 30
0.0
  0
VERTEX
  5
250
  8
0
  6
CONTINUOUS
 62
     7
 10
286.2473917381
 20
363.1926873776
 30
0.0
  0
VERTEX
  5
251
  8
0
  6
CONTINUOUS
 62
     7
 10
292.5938496291
 20
363.1914307884
 30
0.0
  0
VERTEX
  5
252
  8
0
  6
CONTINUOUS
 62
     7
 10
298.9640907928
 20
363.1895331473
 30
0.0
  0
SEQEND
  5
477
  8
0
  6
CONTINUOUS
 62
     7
  0
ARC
  5
AD
  8
0
  6
CONTINUOUS
 62
     7
 10
273.8972266377
 20
387.0589531755
 30
0.0
 40
18.67418754378899
 50
247.2082048978
 51
270.7917951022
  0
LINE
  5
AE
  8
0
  6
CONTINUOUS
 62
     7
 10
248.8880383374
 20
400.1857152056
 30
0.0
 11
277.2974604353
 21
400.1857152056
 31
0.0
  0
LINE
  5
AF
  8
0
  6
CONTINUOUS
 62
     7
 10
247.3163060427
 20
361.6939316418
 30
0.0
 11
247.3163060427
 21
351.1537736546
 31
0.0
  0
ARC
  5
B0
  8
0
  6
CONTINUOUS
 62
     7
 10
248.8163060427
 20
361.6939316418
 30
0.0
 40
1.5
 50
91.8669251722
 51
180.0
  0
LINE
  5
B1
  8
0
  6
CONTINUOUS
 62
     7
 10
248.7674387043
 20
363.1931354249
 30
0.0
 11
270.3163060427
 21
363.1931354249
 31
0.0
  0
LINE
  5
B2
  8
0
  6
CONTINUOUS
 62
     7
 10
247.3163060427
 20
266.8442405412
 30
0.0
 11
274.7074112727
 21
266.8442405412
 31
0.0
  0
LINE
  5
B3
  8
0
  6
CONTINUOUS
 62
     7
 10
247.3163060427
 20
351.1537736546
 30
0.0
 11
247.3163060427
 21
266.8442405412
 31
0.0
  0
LINE
  5
B4
  8
0
  6
CONTINUOUS
 62
     7
 10
266.6631532116
 20
369.8428716792
 30
0.0
 11
247.3927576353
 21
377.6286168742
 31
0.0
  0
LINE
  5
B5
  8
0
  6
CONTINUOUS
 62
     7
 10
274.1552850799
 20
368.3865487706
 30
0.0
 11
284.1459397667
 21
368.3865487706
 31
0.0
  0
LINE
  5
B6
  8
0
  6
CONTINUOUS
 62
     7
 10
293.3163060427
 20
266.8442405412
 30
0.0
 11
293.3163060427
 21
303.9956228335
 31
0.0
  0
LINE
  5
B7
  8
0
  6
CONTINUOUS
 62
     7
 10
274.7074112727
 20
266.8442405412
 30
0.0
 11
293.3163060427
 21
266.8442405412
 31
0.0
  0
POLYLINE
  5
B8
  8
0
  6
CONTINUOUS
 62
     7
 66
     1
 10
0.0
 20
0.0
 30
0.0
 70
   128
  0
VERTEX
  5
253
  8
0
  6
CONTINUOUS
 62
     7
 10
277.2974605737
 20
400.1855482908
 30
0.0
  0
VERTEX
  5
254
  8
0
  6
CONTINUOUS
 62
     7
 10
282.2118396067
 20
400.1856188146
 30
0.0
  0
VERTEX
  5
255
  8
0
  6
CONTINUOUS
 62
     7
 10
287.1951205644
 20
400.1857403644
 30
0.0
  0
VERTEX
  5
256
  8
0
  6
CONTINUOUS
 62
     7
 10
292.319420595
 20
400.185795218
 30
0.0
  0
VERTEX
  5
257
  8
0
  6
CONTINUOUS
 62
     7
 10
297.4475196787
 20
400.1855108797
 30
0.0
  0
VERTEX
  5
258
  8
0
  6
CONTINUOUS
 62
     7
 10
302.6262630456
 20
400.1858171152
 30
0.0
  0
VERTEX
  5
259
  8
0
  6
CONTINUOUS
 62
     7
 10
307.7510628126
 20
400.1858259949
 30
0.0
  0
SEQEND
  5
478
  8
0
  6
CONTINUOUS
 62
     7
  0
POLYLINE
  5
B9
  8
0
  6
CONTINUOUS
 62
     7
 66
     1
 10
0.0
 20
0.0
 30
0.0
 70
   128
  0
VERTEX
  5
25A
  8
0
  6
CONTINUOUS
 62
     7
 10
365.217171912
 20
363.3182081575
 30
0.0
  0
VERTEX
  5
25B
  8
0
  6
CONTINUOUS
 62
     7
 10
348.7384290582
 20
363.3579772825
 30
0.0
  0
VERTEX
  5
25C
  8
0
  6
CONTINUOUS
 62
     7
 10
326.6157700392
 20
363.4115158154
 30
0.0
  0
VERTEX
  5
25D
  8
0
  6
CONTINUOUS
 62
     7
 10
309.2530839594
 20
363.4530652058
 30
0.0
  0
VERTEX
  5
25E
  8
0
  6
CONTINUOUS
 62
     7
 10
291.8163060427
 20
363.4939804455
 30
0.0
  0
SEQEND
  5
479
  8
0
  6
CONTINUOUS
 62
     7
  0
POLYLINE
  5
BA
  8
0
  6
CONTINUOUS
 62
     7
 66
     1
 10
0.0
 20
0.0
 30
0.0
 70
   128
  0
VERTEX
  5
25F
  8
0
  6
CONTINUOUS
 62
     7
 10
270.3163060427
 20
363.1947687249
 30
0.0
  0
VERTEX
  5
260
  8
0
  6
CONTINUOUS
 62
     7
 10
273.7227478863
 20
363.1950530728
 30
0.0
  0
VERTEX
  5
261
  8
0
  6
CONTINUOUS
 62
     7
 10
277.0436373405
 20
363.2039811323
 30
0.0
  0
VERTEX
  5
262
  8
0
  6
CONTINUOUS
 62
     7
 10
280.3748787057
 20
363.2333867642
 30
0.0
  0
VERTEX
  5
263
  8
0
  6
CONTINUOUS
 62
     7
 10
283.4225574197
 20
363.2793487904
 30
0.0
  0
VERTEX
  5
264
  8
0
  6
CONTINUOUS
 62
     7
 10
286.0952823759
 20
363.334342092
 30
0.0
  0
VERTEX
  5
265
  8
0
  6
CONTINUOUS
 62
     7
 10
288.3235681613
 20
363.3903257094
 30
0.0
  0
VERTEX
  5
266
  8
0
  6
CONTINUOUS
 62
     7
 10
290.0383167547
 20
363.439075295
 30
0.0
  0
VERTEX
  5
267
  8
0
  6
CONTINUOUS
 62
     7
 10
291.1970189113
 20
363.4745494702
 30
0.0
  0
VERTEX
  5
268
  8
0
  6
CONTINUOUS
 62
     7
 10
291.6603621735
 20
363.4890887562
 30
0.0
  0
VERTEX
  5
269
  8
0
  6
CONTINUOUS
 62
     7
 10
291.8163060427
 20
363.4939804455
 30
0.0
  0
SEQEND
  5
47A
  8
0
  6
CONTINUOUS
 62
     7
  0
POLYLINE
  5
BB
  8
0
  6
CONTINUOUS
 62
     7
 66
     1
 10
0.0
 20
0.0
 30
0.0
 70
   128
  0
VERTEX
  5
26A
  8
0
  6
CONTINUOUS
 62
     7
 10
248.8163060427
 20
363.1947264736
 30
0.0
  0
VERTEX
  5
26B
  8
0
  6
CONTINUOUS
 62
     7
 10
248.810197619
 20
363.19452779
 30
0.0
  0
VERTEX
  5
26C
  8
0
  6
CONTINUOUS
 62
     7
 10
248.8040891971
 20
363.19432905
 30
0.0
  0
VERTEX
  5
26D
  8
0
  6
CONTINUOUS
 62
     7
 10
248.797980777
 20
363.1941302536
 30
0.0
  0
VERTEX
  5
26E
  8
0
  6
CONTINUOUS
 62
     7
 10
248.7918723588
 20
363.1939314008
 30
0.0
  0
VERTEX
  5
26F
  8
0
  6
CONTINUOUS
 62
     7
 10
248.7857639424
 20
363.1937324915
 30
0.0
  0
VERTEX
  5
270
  8
0
  6
CONTINUOUS
 62
     7
 10
248.7796555278
 20
363.1935335257
 30
0.0
  0
VERTEX
  5
271
  8
0
  6
CONTINUOUS
 62
     7
 10
248.7735471151
 20
363.1933345035
 30
0.0
  0
VERTEX
  5
272
  8
0
  6
CONTINUOUS
 62
     7
 10
248.7674387043
 20
363.1931354249
 30
0.0
  0
SEQEND
  5
47B
  8
0
  6
CONTINUOUS
 62
     7
  0
LINE
  5
BC
  8
0
  6
CONTINUOUS
 62
     7
 10
270.3163060427
 20
363.1947264736
 30
0.0
 11
248.8163060427
 21
363.1947264736
 31
0.0
  0
LINE
  5
BD
  8
0
  6
CONTINUOUS
 62
     7
 10
378.8163060427
 20
361.6658848115
 30
0.0
 11
378.8163060427
 21
352.0828532027
 31
0.0
  0
POLYLINE
  5
BE
  8
0
  6
CONTINUOUS
 62
     7
 66
     1
 10
0.0
 20
0.0
 30
0.0
 70
   128
  0
VERTEX
  5
273
  8
0
  6
CONTINUOUS
 62
     7
 10
351.935258634
 20
342.7546687805
 30
0.0
  0
VERTEX
  5
274
  8
0
  6
CONTINUOUS
 62
     7
 10
351.9804146417
 20
342.7688287806
 30
0.0
  0
VERTEX
  5
275
  8
0
  6
CONTINUOUS
 62
     7
 10
352.379471564
 20
342.893015401
 30
0.0
  0
VERTEX
  5
276
  8
0
  6
CONTINUOUS
 62
     7
 10
353.1179918802
 20
343.1223878637
 30
0.0
  0
VERTEX
  5
277
  8
0
  6
CONTINUOUS
 62
     7
 10
354.1393229103
 20
343.4391009559
 30
0.0
  0
VERTEX
  5
278
  8
0
  6
CONTINUOUS
 62
     7
 10
355.4726256061
 20
343.8517692726
 30
0.0
  0
VERTEX
  5
279
  8
0
  6
CONTINUOUS
 62
     7
 10
357.0236507084
 20
344.3306867658
 30
0.0
  0
VERTEX
  5
27A
  8
0
  6
CONTINUOUS
 62
     7
 10
358.8273767576
 20
344.8860505893
 30
0.0
  0
VERTEX
  5
27B
  8
0
  6
CONTINUOUS
 62
     7
 10
360.6788350104
 20
345.4542698704
 30
0.0
  0
VERTEX
  5
27C
  8
0
  6
CONTINUOUS
 62
     7
 10
362.6760300367
 20
346.0646101171
 30
0.0
  0
VERTEX
  5
27D
  8
0
  6
CONTINUOUS
 62
     7
 10
363.7484673347
 20
346.3909010335
 30
0.0
  0
SEQEND
  5
47C
  8
0
  6
CONTINUOUS
 62
     7
  0
POLYLINE
  5
BF
  8
0
  6
CONTINUOUS
 62
     7
 66
     1
 10
0.0
 20
0.0
 30
0.0
 70
   128
  0
VERTEX
  5
27E
  8
0
  6
CONTINUOUS
 62
     7
 10
351.8938404953
 20
342.7416809282
 30
0.0
  0
VERTEX
  5
27F
  8
0
  6
CONTINUOUS
 62
     7
 10
348.1235838575
 20
342.7054893224
 30
0.0
  0
VERTEX
  5
280
  8
0
  6
CONTINUOUS
 62
     7
 10
344.3235807697
 20
342.6692384913
 30
0.0
  0
SEQEND
  5
47D
  8
0
  6
CONTINUOUS
 62
     7
  0
LINE
  5
C0
  8
0
  6
CONTINUOUS
 62
     7
 10
377.0680868626
 20
350.4657205997
 30
0.0
 11
377.8231413971
 21
350.7129527214
 31
0.0
  0
LINE
  5
C1
  8
0
  6
CONTINUOUS
 62
     7
 10
364.7096160978
 20
346.6643685739
 30
0.0
 11
371.7221307991
 21
348.8155483805
 31
0.0
  0
LINE
  5
C2
  8
0
  6
CONTINUOUS
 62
     7
 10
363.7483375292
 20
346.3913277751
 30
0.0
 11
364.7095593383
 21
346.6643511622
 31
0.0
  0
LINE
  5
C3
  8
0
  6
CONTINUOUS
 62
     7
 10
370.8657361314
 20
363.3050574682
 30
0.0
 11
375.6227328771
 21
363.2944962382
 31
0.0
  0
LINE
  5
C4
  8
0
  6
CONTINUOUS
 62
     7
 10
375.6227328771
 20
363.2944962382
 30
0.0
 11
377.3874498259
 21
363.2544449043
 31
0.0
  0
LINE
  5
C5
  8
0
  6
CONTINUOUS
 62
     7
 10
293.4176788971
 20
381.0186675952
 30
0.0
 11
293.5205262603
 21
381.3485987811
 31
0.0
  0
ARC
  5
C6
  8
0
  6
CONTINUOUS
 62
     7
 10
304.5669851597
 20
377.9828892322
 30
0.0
 40
11.55521442496719
 50
164.7685201714
 51
183.2651187792
  0
LINE
  5
C7
  8
0
  6
CONTINUOUS
 62
     7
 10
293.0676788971
 20
368.3865487706
 30
0.0
 11
284.1459397667
 21
368.3865487706
 31
0.0
  0
ARC
  5
C8
  8
0
  6
CONTINUOUS
 62
     7
 10
377.3613609775
 20
352.0926715285
 30
0.0
 40
1.454945065154902
 50
288.5049655597
 51
359.9999997924
  0
ARC
  5
C9
  8
0
  6
CONTINUOUS
 62
     7
 10
377.3162896327
 20
361.7561173578
 30
0.0
 40
1.500016410013992
 50
359.9996657151
 51
87.2808900125
  0
LINE
  5
CA
  8
0
  6
CONTINUOUS
 62
     7
 10
378.8163060427
 20
361.7561086061
 30
0.0
 11
378.8163060427
 21
361.6658848115
 31
0.0
  0
LINE
  5
CB
  8
0
  6
CONTINUOUS
 62
     7
 10
313.0799995013
 20
395.2850369914
 30
0.0
 11
308.51974497
 21
395.2531998916
 31
0.0
  0
LINE
  5
CC
  8
0
  6
CONTINUOUS
 62
     7
 10
353.5844339442
 20
395.5678158826
 30
0.0
 11
313.0799995013
 21
395.2850369914
 31
0.0
  0
LINE
  5
CD
  8
0
  6
CONTINUOUS
 62
     7
 10
356.2676788971
 20
398.6865487706
 30
0.0
 11
356.2676788971
 21
397.0761131797
 31
0.0
  0
ARC
  5
CE
  8
0
  6
CONTINUOUS
 62
     7
 10
354.7676788971
 20
397.0761131797
 30
0.0
 40
1.50000000000004
 50
270.4
 51
0.0
  0
LINE
  5
CF
  8
0
  6
CONTINUOUS
 62
     7
 10
354.7781507876
 20
395.5761497337
 30
0.0
 11
353.5844339442
 21
395.5678158826
 31
0.0
  0
ARC
  5
D0
  8
0
  6
CONTINUOUS
 62
     7
 10
354.7676788971
 20
398.6865487706
 30
0.0
 40
1.500000000000012
 50
0.0
 51
88.0897868283
  0
LINE
  5
D1
  8
0
  6
CONTINUOUS
 62
     7
 10
364.7095593383
 20
346.6643511622
 30
0.0
 11
363.7484610764
 21
346.3695218091
 31
0.0
  0
LINE
  5
D2
  8
0
  6
CONTINUOUS
 62
     7
 10
363.7484610764
 20
346.3695218091
 30
0.0
 11
351.9509063638
 21
342.7504689377
 31
0.0
  0
LINE
  5
D3
  8
0
  6
CONTINUOUS
 62
     7
 10
361.2118876064
 20
340.4613170269
 30
0.0
 11
359.7654133266
 21
343.5632911302
 31
0.0
  0
LINE
  5
D4
  8
0
  6
CONTINUOUS
 62
     7
 10
361.2118876064
 20
340.4613170269
 30
0.0
 11
354.6826936169
 21
337.416703868
 31
0.0
  0
LINE
  5
D5
  8
0
  6
CONTINUOUS
 62
     7
 10
376.4340805057
 20
347.5595421498
 30
0.0
 11
369.9048865162
 21
344.5149289909
 31
0.0
  0
LINE
  5
D6
  8
0
  6
CONTINUOUS
 62
     7
 10
368.4584122364
 20
347.6169030942
 30
0.0
 11
369.9048865162
 21
344.5149289909
 31
0.0
  0
LINE
  5
D7
  8
0
  6
CONTINUOUS
 62
     7
 10
359.7654133266
 20
343.5632911302
 30
0.0
 11
368.4584122364
 21
347.6169030942
 31
0.0
  0
LINE
  5
D8
  8
0
  6
CONTINUOUS
 62
     7
 10
375.7717714859
 20
346.6136668432
 30
0.0
 11
365.8023858285
 21
341.9648659641
 31
0.0
  0
POLYLINE
  5
D9
  8
0
  6
CONTINUOUS
 62
     7
 66
     1
 10
0.0
 20
0.0
 30
0.0
 70
   128
  0
VERTEX
  5
281
  8
0
  6
CONTINUOUS
 62
     7
 10
369.9048865162
 20
344.5149289909
 30
0.0
  0
VERTEX
  5
282
  8
0
  6
CONTINUOUS
 62
     7
 10
367.9393347971
 20
343.1301806218
 30
0.0
  0
VERTEX
  5
283
  8
0
  6
CONTINUOUS
 62
     7
 10
365.8023858285
 20
341.9648659641
 30
0.0
  0
SEQEND
  5
47E
  8
0
  6
CONTINUOUS
 62
     7
  0
POLYLINE
  5
DA
  8
0
  6
CONTINUOUS
 62
     7
 66
     1
 10
0.0
 20
0.0
 30
0.0
 70
   128
  0
VERTEX
  5
284
  8
0
  6
CONTINUOUS
 62
     7
 10
365.8023858285
 20
341.9648659641
 30
0.0
  0
VERTEX
  5
285
  8
0
  6
CONTINUOUS
 62
     7
 10
364.6888201073
 20
341.4879245442
 30
0.0
  0
VERTEX
  5
286
  8
0
  6
CONTINUOUS
 62
     7
 10
361.2118876064
 20
340.4613170269
 30
0.0
  0
SEQEND
  5
47F
  8
0
  6
CONTINUOUS
 62
     7
  0
LINE
  5
DB
  8
0
  6
CONTINUOUS
 62
     7
 10
365.8023858285
 20
341.9648659641
 30
0.0
 11
355.8330001711
 21
337.3160650849
 31
0.0
  0
LINE
  5
DC
  8
0
  6
CONTINUOUS
 62
     7
 10
324.5139323936
 20
342.478965077
 30
0.0
 11
344.3235822424
 21
342.6691299055
 31
0.0
  0
LINE
  5
DD
  8
0
  6
CONTINUOUS
 62
     7
 10
293.4176788971
 20
375.3865487706
 30
0.0
 11
293.4176788971
 21
381.0186675952
 31
0.0
  0
ARC
  5
DE
  8
0
  6
CONTINUOUS
 62
     7
 10
310.9583131034
 20
378.5201197688
 30
0.0
 40
17.96731689703081
 50
183.810912735
 51
190.0439734285
  0
POLYLINE
  5
DF
  8
0
  6
CONTINUOUS
 62
     7
 66
     1
 10
0.0
 20
0.0
 30
0.0
 70
   128
  0
VERTEX
  5
287
  8
0
  6
CONTINUOUS
 62
     7
 10
294.0182262671
 20
382.5959597055
 30
0.0
  0
VERTEX
  5
288
  8
0
  6
CONTINUOUS
 62
     7
 10
293.6658104811
 20
381.7621480196
 30
0.0
  0
VERTEX
  5
289
  8
0
  6
CONTINUOUS
 62
     7
 10
293.5204824811
 20
381.3488954214
 30
0.0
  0
SEQEND
  5
480
  8
0
  6
CONTINUOUS
 62
     7
  0
POLYLINE
  5
E0
  8
0
  6
CONTINUOUS
 62
     7
 66
     1
 10
0.0
 20
0.0
 30
0.0
 70
   128
  0
VERTEX
  5
28A
  8
0
  6
CONTINUOUS
 62
     7
 10
294.1484013431
 20
382.8004145994
 30
0.0
  0
VERTEX
  5
28B
  8
0
  6
CONTINUOUS
 62
     7
 10
294.1490641107
 20
382.8172664343
 30
0.0
  0
VERTEX
  5
28C
  8
0
  6
CONTINUOUS
 62
     7
 10
294.1229126075
 20
382.7925740404
 30
0.0
  0
VERTEX
  5
28D
  8
0
  6
CONTINUOUS
 62
     7
 10
294.0182262671
 20
382.5959597055
 30
0.0
  0
SEQEND
  5
481
  8
0
  6
CONTINUOUS
 62
     7
  0
LINE
  5
E1
  8
0
  6
CONTINUOUS
 62
     7
 10
294.8303852933
 20
384.6365487706
 30
0.0
 11
295.0548392229
 21
385.0704309313
 31
0.0
  0
LINE
  5
E2
  8
0
  6
CONTINUOUS
 62
     7
 10
308.5672642864
 20
394.966679045
 30
0.0
 11
310.282298213
 21
395.1746814575
 31
0.0
  0
LINE
  5
E3
  8
0
  6
CONTINUOUS
 62
     7
 10
293.2675839319
 20
372.8503040912
 30
0.0
 11
293.2663598682
 21
375.3865487706
 31
0.0
  0
POLYLINE
  5
E4
  8
0
  6
CONTINUOUS
 62
     8
 66
     1
 10
0.0
 20
0.0
 30
0.0
 70
   128
  0
VERTEX
  5
28E
  8
0
  6
CONTINUOUS
 62
     8
 10
270.3163060427
 20
363.1931726394
 30
0.0
  0
VERTEX
  5
28F
  8
0
  6
CONTINUOUS
 62
     8
 10
270.3163660427
 20
363.1931726394
 30
0.0
  0
VERTEX
  5
290
  8
0
  6
CONTINUOUS
 62
     8
 10
273.726968162
 20
363.1939216448
 30
0.0
  0
SEQEND
  5
482
  8
0
  6
CONTINUOUS
 62
     8
  0
POLYLINE
  5
E5
  8
0
  6
CONTINUOUS
 62
     8
 66
     1
 10
0.0
 20
0.0
 30
0.0
 70
   128
  0
VERTEX
  5
291
  8
0
  6
CONTINUOUS
 62
     8
 10
292.230090259
 20
312.0328285054
 30
0.0
  0
VERTEX
  5
292
  8
0
  6
CONTINUOUS
 62
     8
 10
293.0431293794
 20
311.6382386905
 30
0.0
  0
VERTEX
  5
293
  8
0
  6
CONTINUOUS
 62
     8
 10
293.3163060427
 20
311.5067043505
 30
0.0
  0
SEQEND
  5
483
  8
0
  6
CONTINUOUS
 62
     8
  0
POLYLINE
  5
E6
  8
0
  6
CONTINUOUS
 62
     8
 66
     1
 10
0.0
 20
0.0
 30
0.0
 70
   128
  0
VERTEX
  5
294
  8
0
  6
CONTINUOUS
 62
     8
 10
353.5742235172
 20
400.1860615836
 30
0.0
  0
VERTEX
  5
295
  8
0
  6
CONTINUOUS
 62
     8
 10
354.1255830991
 20
400.1864316135
 30
0.0
  0
VERTEX
  5
296
  8
0
  6
CONTINUOUS
 62
     8
 10
354.3983507057
 20
400.1860817474
 30
0.0
  0
VERTEX
  5
297
  8
0
  6
CONTINUOUS
 62
     8
 10
354.5305996133
 20
400.1854583507
 30
0.0
  0
VERTEX
  5
298
  8
0
  6
CONTINUOUS
 62
     8
 10
354.5937178227
 20
400.1850612753
 30
0.0
  0
VERTEX
  5
299
  8
0
  6
CONTINUOUS
 62
     8
 10
354.6508982228
 20
400.1847837677
 30
0.0
  0
VERTEX
  5
29A
  8
0
  6
CONTINUOUS
 62
     8
 10
354.6900835338
 20
400.1850169407
 30
0.0
  0
VERTEX
  5
29B
  8
0
  6
CONTINUOUS
 62
     8
 10
354.8011393705
 20
400.1864805371
 30
0.0
  0
VERTEX
  5
29C
  8
0
  6
CONTINUOUS
 62
     8
 10
354.8176785927
 20
400.1859663236
 30
0.0
  0
SEQEND
  5
484
  8
0
  6
CONTINUOUS
 62
     8
  0
LINE
  5
E7
  8
0
  6
CONTINUOUS
 62
     8
 10
313.069789409
 20
400.1857152056
 30
0.0
 11
353.5742238519
 21
400.1857152056
 31
0.0
  0
POLYLINE
  5
E8
  8
0
  6
CONTINUOUS
 62
     8
 66
     1
 10
0.0
 20
0.0
 30
0.0
 70
   128
  0
VERTEX
  5
29D
  8
0
  6
CONTINUOUS
 62
     8
 10
307.7510628126
 20
400.1858259949
 30
0.0
  0
VERTEX
  5
29E
  8
0
  6
CONTINUOUS
 62
     8
 10
310.4102849779
 20
400.1855929393
 30
0.0
  0
VERTEX
  5
29F
  8
0
  6
CONTINUOUS
 62
     8
 10
313.0697896398
 20
400.1854726291
 30
0.0
  0
SEQEND
  5
485
  8
0
  6
CONTINUOUS
 62
     8
  0
ARC
  5
E9
  8
0
  6
CONTINUOUS
 62
     8
 10
382.4316844739
 20
637.5333518933
 30
0.0
 40
274.4725900463349
 50
267.5939343886
 51
268.415471208
  0
POLYLINE
  5
EA
  8
0
  6
CONTINUOUS
 62
     8
 66
     1
 10
0.0
 20
0.0
 30
0.0
 70
   128
  0
VERTEX
  5
2A0
  8
0
  6
CONTINUOUS
 62
     8
 10
319.0954696247
 20
363.1830978347
 30
0.0
  0
VERTEX
  5
2A1
  8
0
  6
CONTINUOUS
 62
     8
 10
322.0954613764
 20
363.1821869327
 30
0.0
  0
VERTEX
  5
2A2
  8
0
  6
CONTINUOUS
 62
     8
 10
334.095428351
 20
363.1784845556
 30
0.0
  0
VERTEX
  5
2A3
  8
0
  6
CONTINUOUS
 62
     8
 10
374.8423280352
 20
363.1657070476
 30
0.0
  0
SEQEND
  5
486
  8
0
  6
CONTINUOUS
 62
     8
  0
POLYLINE
  5
EB
  8
0
  6
CONTINUOUS
 62
     8
 66
     1
 10
0.0
 20
0.0
 30
0.0
 70
   128
  0
VERTEX
  5
2A4
  8
0
  6
CONTINUOUS
 62
     8
 10
298.9640907928
 20
363.1895331473
 30
0.0
  0
VERTEX
  5
2A5
  8
0
  6
CONTINUOUS
 62
     8
 10
301.9640825387
 20
363.1886337515
 30
0.0
  0
VERTEX
  5
2A6
  8
0
  6
CONTINUOUS
 62
     8
 10
307.9640659019
 20
363.1867435492
 30
0.0
  0
VERTEX
  5
2A7
  8
0
  6
CONTINUOUS
 62
     8
 10
319.0954696247
 20
363.1830978347
 30
0.0
  0
SEQEND
  5
487
  8
0
  6
CONTINUOUS
 62
     8
  0
LINE
  5
EC
  8
0
  6
CONTINUOUS
 62
     8
 10
270.3163060427
 20
363.1947265182
 30
0.0
 11
270.3163060427
 21
363.1931341953
 31
0.0
  0
ARC
  5
ED
  8
0
  6
CONTINUOUS
 62
     8
 10
376.4296001023
 20
403.7232064747
 30
0.0
 40
40.56756113550963
 50
268.8635937682
 51
271.2785510854
  0
ARC
  5
EE
  8
0
  6
CONTINUOUS
 62
     8
 10
377.3163192189
 20
361.6658722178
 30
0.0
 40
1.499986823884004
 50
0.0004810485
 51
89.2945547806
  0
POLYLINE
  5
EF
  8
0
  6
CONTINUOUS
 62
     8
 66
     1
 10
0.0
 20
0.0
 30
0.0
 70
   128
  0
VERTEX
  5
2A8
  8
0
  6
CONTINUOUS
 62
     8
 10
374.840905142
 20
363.1656256923
 30
0.0
  0
VERTEX
  5
2A9
  8
0
  6
CONTINUOUS
 62
     8
 10
374.8423264553
 20
363.165623416
 30
0.0
  0
VERTEX
  5
2AA
  8
0
  6
CONTINUOUS
 62
     8
 10
375.6250346157
 20
363.1636244889
 30
0.0
  0
SEQEND
  5
488
  8
0
  6
CONTINUOUS
 62
     8
  0
ARC
  5
F0
  8
0
  6
CONTINUOUS
 62
     8
 10
377.4146276597
 20
352.0833872087
 30
0.0
 40
1.401678484698654
 50
285.3810054172
 51
359.9781716765
  0
POLYLINE
  5
F1
  8
0
  6
CONTINUOUS
 62
     8
 66
     1
 10
0.0
 20
0.0
 30
0.0
 70
   128
  0
VERTEX
  5
2AB
  8
0
  6
CONTINUOUS
 62
     8
 10
377.8231413971
 20
350.7129527214
 30
0.0
  0
VERTEX
  5
2AC
  8
0
  6
CONTINUOUS
 62
     8
 10
377.8225765903
 20
350.7150560045
 30
0.0
  0
VERTEX
  5
2AD
  8
0
  6
CONTINUOUS
 62
     8
 10
377.822445686
 20
350.7160673774
 30
0.0
  0
VERTEX
  5
2AE
  8
0
  6
CONTINUOUS
 62
     8
 10
377.8223529048
 20
350.717035282
 30
0.0
  0
VERTEX
  5
2AF
  8
0
  6
CONTINUOUS
 62
     8
 10
377.7864039382
 20
350.7319120986
 30
0.0
  0
SEQEND
  5
489
  8
0
  6
CONTINUOUS
 62
     8
  0
POLYLINE
  5
F2
  8
0
  6
CONTINUOUS
 62
     8
 66
     1
 10
0.0
 20
0.0
 30
0.0
 70
   128
  0
VERTEX
  5
2B0
  8
0
  6
CONTINUOUS
 62
     8
 10
377.3347871027
 20
363.1657453488
 30
0.0
  0
VERTEX
  5
2B1
  8
0
  6
CONTINUOUS
 62
     8
 10
377.3660454966
 20
363.2024507193
 30
0.0
  0
VERTEX
  5
2B2
  8
0
  6
CONTINUOUS
 62
     8
 10
377.3874498259
 20
363.2544449043
 30
0.0
  0
SEQEND
  5
48A
  8
0
  6
CONTINUOUS
 62
     8
  0
LINE
  5
F3
  8
0
  6
CONTINUOUS
 62
     8
 10
293.0107235982
 20
376.31458828
 30
0.0
 11
293.0107235982
 21
376.2789028037
 31
0.0
  0
LINE
  5
F4
  8
0
  6
CONTINUOUS
 62
     8
 10
310.282298213
 20
395.1746814575
 30
0.0
 11
310.7138889102
 21
395.2270255569
 31
0.0
  0
POLYLINE
  5
F5
  8
0
  6
CONTINUOUS
 62
     7
 66
     1
 10
0.0
 20
0.0
 30
0.0
 70
   128
  0
VERTEX
  5
2B3
  8
0
  6
CONTINUOUS
 62
     7
 10
143.8957218703
 20
363.3001835689
 30
0.0
  0
VERTEX
  5
2B4
  8
0
  6
CONTINUOUS
 62
     7
 10
141.8633866516
 20
363.2942947142
 30
0.0
  0
VERTEX
  5
2B5
  8
0
  6
CONTINUOUS
 62
     7
 10
139.591511511
 20
363.2831435558
 30
0.0
  0
VERTEX
  5
2B6
  8
0
  6
CONTINUOUS
 62
     7
 10
137.5807595699
 20
363.2698429103
 30
0.0
  0
VERTEX
  5
2B7
  8
0
  6
CONTINUOUS
 62
     7
 10
135.5862259474
 20
363.2535726881
 30
0.0
  0
VERTEX
  5
2B8
  8
0
  6
CONTINUOUS
 62
     7
 10
135.1429774958
 20
363.2493742378
 30
0.0
  0
SEQEND
  5
48B
  8
0
  6
CONTINUOUS
 62
     7
  0
LINE
  5
F6
  8
0
  6
CONTINUOUS
 62
     7
 10
150.5310734016
 20
363.2999466625
 30
0.0
 11
149.8764429417
 21
363.3018734283
 31
0.0
  0
POLYLINE
  5
F7
  8
0
  6
CONTINUOUS
 62
     7
 66
     1
 10
0.0
 20
0.0
 30
0.0
 70
   128
  0
VERTEX
  5
2B9
  8
0
  6
CONTINUOUS
 62
     7
 10
159.4159167947
 20
363.2474434605
 30
0.0
  0
VERTEX
  5
2BA
  8
0
  6
CONTINUOUS
 62
     7
 10
159.0540530605
 20
363.2510071314
 30
0.0
  0
VERTEX
  5
2BB
  8
0
  6
CONTINUOUS
 62
     7
 10
157.0595262368
 20
363.2677028621
 30
0.0
  0
VERTEX
  5
2BC
  8
0
  6
CONTINUOUS
 62
     7
 10
154.9622875667
 20
363.28196845
 30
0.0
  0
VERTEX
  5
2BD
  8
0
  6
CONTINUOUS
 62
     7
 10
152.6079467474
 20
363.2938338267
 30
0.0
  0
VERTEX
  5
2BE
  8
0
  6
CONTINUOUS
 62
     7
 10
150.5310734016
 20
363.2999466625
 30
0.0
  0
SEQEND
  5
48C
  8
0
  6
CONTINUOUS
 62
     7
  0
LINE
  5
F8
  8
0
  6
CONTINUOUS
 62
     7
 10
159.1776808287
 20
345.5900971122
 30
0.0
 11
159.1776808287
 21
346.3695218091
 31
0.0
  0
LINE
  5
F9
  8
0
  6
CONTINUOUS
 62
     7
 10
135.1776808287
 20
346.3695218091
 30
0.0
 11
135.1776808287
 21
345.5900971122
 31
0.0
  0
LINE
  5
FA
  8
0
  6
CONTINUOUS
 62
     7
 10
140.1020397586
 20
338.3920972351
 30
0.0
 11
140.6916765144
 21
338.2101756714
 31
0.0
  0
LINE
  5
FB
  8
0
  6
CONTINUOUS
 62
     7
 10
153.6636851429
 20
338.2101756714
 30
0.0
 11
154.2533218987
 21
338.3920972351
 31
0.0
  0
POLYLINE
  5
FC
  8
0
  6
CONTINUOUS
 62
     7
 66
     1
 10
0.0
 20
0.0
 30
0.0
 70
   128
  0
VERTEX
  5
2BF
  8
0
  6
CONTINUOUS
 62
     7
 10
159.1061815388
 20
345.073457108
 30
0.0
  0
VERTEX
  5
2C0
  8
0
  6
CONTINUOUS
 62
     7
 10
160.6437597284
 20
345.9036974924
 30
0.0
  0
VERTEX
  5
2C1
  8
0
  6
CONTINUOUS
 62
     7
 10
162.0994636018
 20
346.8025111996
 30
0.0
  0
VERTEX
  5
2C2
  8
0
  6
CONTINUOUS
 62
     7
 10
162.9914877643
 20
347.3933231439
 30
0.0
  0
VERTEX
  5
2C3
  8
0
  6
CONTINUOUS
 62
     7
 10
163.366048523
 20
347.6491511487
 30
0.0
  0
VERTEX
  5
2C4
  8
0
  6
CONTINUOUS
 62
     7
 10
163.6811877322
 20
347.8677925419
 30
0.0
  0
VERTEX
  5
2C5
  8
0
  6
CONTINUOUS
 62
     7
 10
163.9374629831
 20
348.0480953791
 30
0.0
  0
VERTEX
  5
2C6
  8
0
  6
CONTINUOUS
 62
     7
 10
164.1352282588
 20
348.1893283563
 30
0.0
  0
VERTEX
  5
2C7
  8
0
  6
CONTINUOUS
 62
     7
 10
164.3560281344
 20
348.3529335365
 30
0.0
  0
VERTEX
  5
2C8
  8
0
  6
CONTINUOUS
 62
     7
 10
164.3528517814
 20
348.355989233
 30
0.0
  0
SEQEND
  5
48D
  8
0
  6
CONTINUOUS
 62
     7
  0
POLYLINE
  5
FD
  8
0
  6
CONTINUOUS
 62
     7
 66
     1
 10
0.0
 20
0.0
 30
0.0
 70
   128
  0
VERTEX
  5
2C9
  8
0
  6
CONTINUOUS
 62
     7
 10
130.0025098759
 20
348.355989233
 30
0.0
  0
VERTEX
  5
2CA
  8
0
  6
CONTINUOUS
 62
     7
 10
129.9993335229
 20
348.3529335365
 30
0.0
  0
VERTEX
  5
2CB
  8
0
  6
CONTINUOUS
 62
     7
 10
130.2201333985
 20
348.1893283563
 30
0.0
  0
VERTEX
  5
2CC
  8
0
  6
CONTINUOUS
 62
     7
 10
130.4178986742
 20
348.0480953791
 30
0.0
  0
VERTEX
  5
2CD
  8
0
  6
CONTINUOUS
 62
     7
 10
130.6741739251
 20
347.8677925419
 30
0.0
  0
VERTEX
  5
2CE
  8
0
  6
CONTINUOUS
 62
     7
 10
130.9893131343
 20
347.6491511487
 30
0.0
  0
VERTEX
  5
2CF
  8
0
  6
CONTINUOUS
 62
     7
 10
131.571398388
 20
347.2534970985
 30
0.0
  0
VERTEX
  5
2D0
  8
0
  6
CONTINUOUS
 62
     7
 10
132.2558980555
 20
346.8025111996
 30
0.0
  0
VERTEX
  5
2D1
  8
0
  6
CONTINUOUS
 62
     7
 10
133.7116019289
 20
345.9036974924
 30
0.0
  0
VERTEX
  5
2D2
  8
0
  6
CONTINUOUS
 62
     7
 10
135.3039290205
 20
345.0438945468
 30
0.0
  0
SEQEND
  5
48E
  8
0
  6
CONTINUOUS
 62
     7
  0
POLYLINE
  5
FE
  8
0
  6
CONTINUOUS
 62
     7
 66
     1
 10
0.0
 20
0.0
 30
0.0
 70
   128
  0
VERTEX
  5
2D3
  8
0
  6
CONTINUOUS
 62
     7
 10
168.6526450566
 20
400.1849163551
 30
0.0
  0
VERTEX
  5
2D4
  8
0
  6
CONTINUOUS
 62
     7
 10
157.9636936966
 20
400.4665772177
 30
0.0
  0
VERTEX
  5
2D5
  8
0
  6
CONTINUOUS
 62
     7
 10
147.0181161592
 20
400.5695642715
 30
0.0
  0
SEQEND
  5
48F
  8
0
  6
CONTINUOUS
 62
     7
  0
POLYLINE
  5
FF
  8
0
  6
CONTINUOUS
 62
     7
 66
     1
 10
0.0
 20
0.0
 30
0.0
 70
   128
  0
VERTEX
  5
2D6
  8
0
  6
CONTINUOUS
 62
     7
 10
147.2847238597
 20
400.5695642715
 30
0.0
  0
VERTEX
  5
2D7
  8
0
  6
CONTINUOUS
 62
     7
 10
136.3391463223
 20
400.4665772177
 30
0.0
  0
VERTEX
  5
2D8
  8
0
  6
CONTINUOUS
 62
     7
 10
125.6501949623
 20
400.1849163551
 30
0.0
  0
SEQEND
  5
490
  8
0
  6
CONTINUOUS
 62
     7
  0
LINE
  5
100
  8
0
  6
CONTINUOUS
 62
     7
 10
125.6776808287
 20
364.5176095456
 30
0.0
 11
125.6776808287
 21
363.1947264736
 31
0.0
  0
LINE
  5
101
  8
0
  6
CONTINUOUS
 62
     7
 10
168.6776808287
 20
363.1947687249
 30
0.0
 11
168.6776808287
 21
364.5176095456
 31
0.0
  0
ARC
  5
102
  8
0
  6
CONTINUOUS
 62
     7
 10
158.6776808287
 20
364.5176095456
 30
0.0
 40
10.0
 50
0.0
 51
9.0468459803
  0
ARC
  5
103
  8
0
  6
CONTINUOUS
 62
     7
 10
135.6776808287
 20
364.5176095456
 30
0.0
 40
9.999999999999975
 50
170.9531540197
 51
180.0
  0
ARC
  5
104
  8
0
  6
CONTINUOUS
 62
     7
 10
147.1776808287
 20
362.6865487706
 30
0.0
 40
21.64486082191337
 50
164.6921297379
 51
170.9531540197
  0
ARC
  5
105
  8
0
  6
CONTINUOUS
 62
     7
 10
147.1776808287
 20
362.6865487706
 30
0.0
 40
21.64486082191334
 50
9.0468459803
 51
15.2684548419
  0
LINE
  5
106
  8
0
  6
CONTINUOUS
 62
     7
 10
170.1514200094
 20
368.8851344453
 30
0.0
 11
170.1514200094
 21
398.6865487706
 31
0.0
  0
LINE
  5
107
  8
0
  6
CONTINUOUS
 62
     7
 10
124.1514200094
 20
398.6865487706
 30
0.0
 11
124.1514200094
 21
368.8851344453
 31
0.0
  0
ARC
  5
108
  8
0
  6
CONTINUOUS
 62
     7
 10
125.6514200094
 20
398.6865487706
 30
0.0
 40
1.5
 50
90.0
 51
180.0
  0
ARC
  5
109
  8
0
  6
CONTINUOUS
 62
     7
 10
168.6514200094
 20
398.6865487706
 30
0.0
 40
1.5
 50
0.0
 51
90.0
  0
LINE
  5
10A
  8
0
  6
CONTINUOUS
 62
     7
 10
124.1776808287
 20
351.3398421887
 30
0.0
 11
124.1776808287
 21
266.8442405412
 31
0.0
  0
LINE
  5
10B
  8
0
  6
CONTINUOUS
 62
     7
 10
170.1776808287
 20
266.8442405412
 30
0.0
 11
170.1776808287
 21
351.3398421887
 31
0.0
  0
POLYLINE
  5
10C
  8
0
  6
CONTINUOUS
 62
     7
 66
     1
 10
0.0
 20
0.0
 30
0.0
 70
   128
  0
VERTEX
  5
2D9
  8
0
  6
CONTINUOUS
 62
     7
 10
124.1604228607
 20
368.8704804179
 30
0.0
  0
VERTEX
  5
2DA
  8
0
  6
CONTINUOUS
 62
     7
 10
124.1552262053
 20
368.7903811853
 30
0.0
  0
VERTEX
  5
2DB
  8
0
  6
CONTINUOUS
 62
     7
 10
124.22962525
 20
368.5584912316
 30
0.0
  0
VERTEX
  5
2DC
  8
0
  6
CONTINUOUS
 62
     7
 10
124.4239202265
 20
368.4140140362
 30
0.0
  0
VERTEX
  5
2DD
  8
0
  6
CONTINUOUS
 62
     7
 10
124.6227149646
 20
368.3870683704
 30
0.0
  0
VERTEX
  5
2DE
  8
0
  6
CONTINUOUS
 62
     7
 10
124.689895296
 20
368.3869281374
 30
0.0
  0
SEQEND
  5
491
  8
0
  6
CONTINUOUS
 62
     7
  0
POLYLINE
  5
10D
  8
0
  6
CONTINUOUS
 62
     7
 66
     1
 10
0.0
 20
0.0
 30
0.0
 70
   128
  0
VERTEX
  5
2DF
  8
0
  6
CONTINUOUS
 62
     7
 10
169.6199864648
 20
368.3865722814
 30
0.0
  0
VERTEX
  5
2E0
  8
0
  6
CONTINUOUS
 62
     7
 10
169.6348062995
 20
368.3865741271
 30
0.0
  0
VERTEX
  5
2E1
  8
0
  6
CONTINUOUS
 62
     7
 10
169.8521848827
 20
368.4063761992
 30
0.0
  0
VERTEX
  5
2E2
  8
0
  6
CONTINUOUS
 62
     7
 10
170.0654221205
 20
368.5472323893
 30
0.0
  0
VERTEX
  5
2E3
  8
0
  6
CONTINUOUS
 62
     7
 10
170.1466983536
 20
368.7812021419
 30
0.0
  0
VERTEX
  5
2E4
  8
0
  6
CONTINUOUS
 62
     7
 10
170.1437123149
 20
368.8750218113
 30
0.0
  0
SEQEND
  5
492
  8
0
  6
CONTINUOUS
 62
     7
  0
LINE
  5
10E
  8
0
  6
CONTINUOUS
 62
     7
 10
124.1776808287
 20
361.6939316418
 30
0.0
 11
124.1776808287
 21
351.3398421887
 31
0.0
  0
LINE
  5
10F
  8
0
  6
CONTINUOUS
 62
     7
 10
170.1776808287
 20
351.3398421887
 30
0.0
 11
170.1776808287
 21
361.6939713596
 31
0.0
  0
LINE
  5
110
  8
0
  6
CONTINUOUS
 62
     7
 10
159.6368882484
 20
346.6670104832
 30
0.0
 11
159.7205263051
 21
346.3913277751
 31
0.0
  0
POLYLINE
  5
111
  8
0
  6
CONTINUOUS
 62
     7
 66
     1
 10
0.0
 20
0.0
 30
0.0
 70
   128
  0
VERTEX
  5
2E5
  8
0
  6
CONTINUOUS
 62
     7
 10
159.6370032025
 20
346.6667516802
 30
0.0
  0
VERTEX
  5
2E6
  8
0
  6
CONTINUOUS
 62
     7
 10
159.4318305175
 20
347.0912202577
 30
0.0
  0
VERTEX
  5
2E7
  8
0
  6
CONTINUOUS
 62
     7
 10
158.694718932
 20
347.7809173521
 30
0.0
  0
VERTEX
  5
2E8
  8
0
  6
CONTINUOUS
 62
     7
 10
157.5499159717
 20
348.3946898582
 30
0.0
  0
VERTEX
  5
2E9
  8
0
  6
CONTINUOUS
 62
     7
 10
156.0147824377
 20
348.9340026723
 30
0.0
  0
VERTEX
  5
2EA
  8
0
  6
CONTINUOUS
 62
     7
 10
154.1558965733
 20
349.3795758647
 30
0.0
  0
VERTEX
  5
2EB
  8
0
  6
CONTINUOUS
 62
     7
 10
152.0412951388
 20
349.7117062859
 30
0.0
  0
VERTEX
  5
2EC
  8
0
  6
CONTINUOUS
 62
     7
 10
149.6643557269
 20
349.9256122358
 30
0.0
  0
VERTEX
  5
2ED
  8
0
  6
CONTINUOUS
 62
     7
 10
147.1776808287
 20
349.996956709
 30
0.0
  0
SEQEND
  5
493
  8
0
  6
CONTINUOUS
 62
     7
  0
POLYLINE
  5
112
  8
0
  6
CONTINUOUS
 62
     7
 66
     1
 10
0.0
 20
0.0
 30
0.0
 70
   128
  0
VERTEX
  5
2EE
  8
0
  6
CONTINUOUS
 62
     7
 10
134.7177037426
 20
346.6643685739
 30
0.0
  0
VERTEX
  5
2EF
  8
0
  6
CONTINUOUS
 62
     7
 10
134.9235311398
 20
347.0912202577
 30
0.0
  0
VERTEX
  5
2F0
  8
0
  6
CONTINUOUS
 62
     7
 10
135.6606427253
 20
347.7809173521
 30
0.0
  0
VERTEX
  5
2F1
  8
0
  6
CONTINUOUS
 62
     7
 10
136.8054456856
 20
348.3946898582
 30
0.0
  0
VERTEX
  5
2F2
  8
0
  6
CONTINUOUS
 62
     7
 10
138.3405792196
 20
348.9340026723
 30
0.0
  0
VERTEX
  5
2F3
  8
0
  6
CONTINUOUS
 62
     7
 10
140.199465084
 20
349.3795758647
 30
0.0
  0
VERTEX
  5
2F4
  8
0
  6
CONTINUOUS
 62
     7
 10
142.3140665185
 20
349.7117062859
 30
0.0
  0
VERTEX
  5
2F5
  8
0
  6
CONTINUOUS
 62
     7
 10
144.6910059304
 20
349.9256122358
 30
0.0
  0
VERTEX
  5
2F6
  8
0
  6
CONTINUOUS
 62
     7
 10
147.1776808287
 20
349.996956709
 30
0.0
  0
SEQEND
  5
494
  8
0
  6
CONTINUOUS
 62
     7
  0
LINE
  5
113
  8
0
  6
CONTINUOUS
 62
     7
 10
134.6348353522
 20
346.3913277751
 30
0.0
 11
134.718454978
 21
346.6643511622
 31
0.0
  0
POLYLINE
  5
114
  8
0
  6
CONTINUOUS
 62
     7
 66
     1
 10
0.0
 20
0.0
 30
0.0
 70
   128
  0
VERTEX
  5
2F7
  8
0
  6
CONTINUOUS
 62
     7
 10
135.1429907986
 20
363.2479445846
 30
0.0
  0
VERTEX
  5
2F8
  8
0
  6
CONTINUOUS
 62
     7
 10
136.5921763222
 20
363.2621494407
 30
0.0
  0
VERTEX
  5
2F9
  8
0
  6
CONTINUOUS
 62
     7
 10
139.9319772089
 20
363.285003605
 30
0.0
  0
VERTEX
  5
2FA
  8
0
  6
CONTINUOUS
 62
     7
 10
143.4505888884
 20
363.2995878068
 30
0.0
  0
VERTEX
  5
2FB
  8
0
  6
CONTINUOUS
 62
     7
 10
144.0312927286
 20
363.3003650157
 30
0.0
  0
SEQEND
  5
495
  8
0
  6
CONTINUOUS
 62
     7
  0
POLYLINE
  5
115
  8
0
  6
CONTINUOUS
 62
     7
 66
     1
 10
0.0
 20
0.0
 30
0.0
 70
   128
  0
VERTEX
  5
2FC
  8
0
  6
CONTINUOUS
 62
     7
 10
158.1776808287
 20
341.9648659641
 30
0.0
  0
VERTEX
  5
2FD
  8
0
  6
CONTINUOUS
 62
     7
 10
158.0752262351
 20
342.5978776021
 30
0.0
  0
VERTEX
  5
2FE
  8
0
  6
CONTINUOUS
 62
     7
 10
157.7697709895
 20
343.219097431
 30
0.0
  0
VERTEX
  5
2FF
  8
0
  6
CONTINUOUS
 62
     7
 10
157.2670051452
 20
343.8169533008
 30
0.0
  0
VERTEX
  5
300
  8
0
  6
CONTINUOUS
 62
     7
 10
156.5762942787
 20
344.3803082878
 30
0.0
  0
VERTEX
  5
301
  8
0
  6
CONTINUOUS
 62
     7
 10
155.7105050264
 20
344.8986681545
 30
0.0
  0
VERTEX
  5
302
  8
0
  6
CONTINUOUS
 62
     7
 10
154.6857654041
 20
345.3623768373
 30
0.0
  0
VERTEX
  5
303
  8
0
  6
CONTINUOUS
 62
     7
 10
153.5211643719
 20
345.7627963209
 30
0.0
  0
VERTEX
  5
304
  8
0
  6
CONTINUOUS
 62
     7
 10
152.2383962437
 20
346.092467548
 30
0.0
  0
VERTEX
  5
305
  8
0
  6
CONTINUOUS
 62
     7
 10
150.8613565625
 20
346.3452493672
 30
0.0
  0
VERTEX
  5
306
  8
0
  6
CONTINUOUS
 62
     7
 10
149.4156969722
 20
346.5164329316
 30
0.0
  0
VERTEX
  5
307
  8
0
  6
CONTINUOUS
 62
     7
 10
147.9283473757
 20
346.6028294154
 30
0.0
  0
VERTEX
  5
308
  8
0
  6
CONTINUOUS
 62
     7
 10
146.4270142816
 20
346.6028294154
 30
0.0
  0
VERTEX
  5
309
  8
0
  6
CONTINUOUS
 62
     7
 10
144.9396646851
 20
346.5164329316
 30
0.0
  0
VERTEX
  5
30A
  8
0
  6
CONTINUOUS
 62
     7
 10
143.4940050948
 20
346.3452493672
 30
0.0
  0
VERTEX
  5
30B
  8
0
  6
CONTINUOUS
 62
     7
 10
142.1169654136
 20
346.092467548
 30
0.0
  0
VERTEX
  5
30C
  8
0
  6
CONTINUOUS
 62
     7
 10
140.8341972854
 20
345.7627963209
 30
0.0
  0
VERTEX
  5
30D
  8
0
  6
CONTINUOUS
 62
     7
 10
139.6695962532
 20
345.3623768373
 30
0.0
  0
VERTEX
  5
30E
  8
0
  6
CONTINUOUS
 62
     7
 10
138.6448566309
 20
344.8986681545
 30
0.0
  0
VERTEX
  5
30F
  8
0
  6
CONTINUOUS
 62
     7
 10
137.7790673786
 20
344.3803082878
 30
0.0
  0
VERTEX
  5
310
  8
0
  6
CONTINUOUS
 62
     7
 10
137.0883565121
 20
343.8169533008
 30
0.0
  0
VERTEX
  5
311
  8
0
  6
CONTINUOUS
 62
     7
 10
136.5855906678
 20
343.219097431
 30
0.0
  0
VERTEX
  5
312
  8
0
  6
CONTINUOUS
 62
     7
 10
136.2801354223
 20
342.5978776021
 30
0.0
  0
VERTEX
  5
313
  8
0
  6
CONTINUOUS
 62
     7
 10
136.1776808287
 20
341.9648659641
 30
0.0
  0
SEQEND
  5
496
  8
0
  6
CONTINUOUS
 62
     7
  0
LINE
  5
116
  8
0
  6
CONTINUOUS
 62
     7
 10
136.1776808287
 20
344.5149289909
 30
0.0
 11
136.1776808287
 21
341.9648659641
 31
0.0
  0
POLYLINE
  5
117
  8
0
  6
CONTINUOUS
 62
     7
 66
     1
 10
0.0
 20
0.0
 30
0.0
 70
   128
  0
VERTEX
  5
314
  8
0
  6
CONTINUOUS
 62
     7
 10
158.1776808287
 20
344.5149289909
 30
0.0
  0
VERTEX
  5
315
  8
0
  6
CONTINUOUS
 62
     7
 10
157.4231972421
 20
345.128367592
 30
0.0
  0
VERTEX
  5
316
  8
0
  6
CONTINUOUS
 62
     7
 10
156.4783068504
 20
345.6927388239
 30
0.0
  0
VERTEX
  5
317
  8
0
  6
CONTINUOUS
 62
     7
 10
155.3605698774
 20
346.1975541844
 30
0.0
  0
VERTEX
  5
318
  8
0
  6
CONTINUOUS
 62
     7
 10
154.0907587973
 20
346.6334319814
 30
0.0
  0
VERTEX
  5
319
  8
0
  6
CONTINUOUS
 62
     7
 10
152.692472291
 20
346.9922716862
 30
0.0
  0
VERTEX
  5
31A
  8
0
  6
CONTINUOUS
 62
     7
 10
151.1916966781
 20
347.2674044772
 30
0.0
  0
VERTEX
  5
31B
  8
0
  6
CONTINUOUS
 62
     7
 10
149.6163229773
 20
347.4537171758
 30
0.0
  0
VERTEX
  5
31C
  8
0
  6
CONTINUOUS
 62
     7
 10
147.9956285683
 20
347.5477472717
 30
0.0
  0
VERTEX
  5
31D
  8
0
  6
CONTINUOUS
 62
     7
 10
146.359733089
 20
347.5477472717
 30
0.0
  0
VERTEX
  5
31E
  8
0
  6
CONTINUOUS
 62
     7
 10
144.73903868
 20
347.4537171758
 30
0.0
  0
VERTEX
  5
31F
  8
0
  6
CONTINUOUS
 62
     7
 10
143.1636649792
 20
347.2674044772
 30
0.0
  0
VERTEX
  5
320
  8
0
  6
CONTINUOUS
 62
     7
 10
141.6628893663
 20
346.9922716862
 30
0.0
  0
VERTEX
  5
321
  8
0
  6
CONTINUOUS
 62
     7
 10
140.26460286
 20
346.6334319814
 30
0.0
  0
VERTEX
  5
322
  8
0
  6
CONTINUOUS
 62
     7
 10
138.9947917799
 20
346.1975541844
 30
0.0
  0
VERTEX
  5
323
  8
0
  6
CONTINUOUS
 62
     7
 10
137.8770548069
 20
345.6927388239
 30
0.0
  0
VERTEX
  5
324
  8
0
  6
CONTINUOUS
 62
     7
 10
136.9321644152
 20
345.128367592
 30
0.0
  0
VERTEX
  5
325
  8
0
  6
CONTINUOUS
 62
     7
 10
136.1776808287
 20
344.5149289909
 30
0.0
  0
SEQEND
  5
497
  8
0
  6
CONTINUOUS
 62
     7
  0
LINE
  5
118
  8
0
  6
CONTINUOUS
 62
     7
 10
158.1776808287
 20
344.5149289909
 30
0.0
 11
158.1776808287
 21
341.9648659641
 31
0.0
  0
ARC
  5
119
  8
0
  6
CONTINUOUS
 62
     7
 10
142.6649536111
 20
348.0087294175
 30
0.0
 40
9.952293300945014
 50
229.3197543049
 51
255.0770458253
  0
ARC
  5
11A
  8
0
  6
CONTINUOUS
 62
     7
 10
151.6904080462
 20
348.0087294175
 30
0.0
 40
9.95229330094515
 50
284.9229541747
 51
310.6802456951
  0
ARC
  5
11B
  8
0
  6
CONTINUOUS
 62
     7
 10
156.5545318322
 20
345.5900971122
 30
0.0
 40
2.596643054663932
 50
308.6891720236
 51
51.3108279764
  0
LINE
  5
11C
  8
0
  6
CONTINUOUS
 62
     7
 10
158.1776808287
 20
347.6169030942
 30
0.0
 11
158.1776808287
 21
344.5149289909
 31
0.0
  0
LINE
  5
11D
  8
0
  6
CONTINUOUS
 62
     7
 10
136.1776808287
 20
347.6169030942
 30
0.0
 11
136.1776808287
 21
344.5149289909
 31
0.0
  0
ARC
  5
11E
  8
0
  6
CONTINUOUS
 62
     7
 10
137.8008298251
 20
345.5900971122
 30
0.0
 40
2.596643054663896
 50
128.6891720236
 51
231.3108279764
  0
POLYLINE
  5
11F
  8
0
  6
CONTINUOUS
 62
     7
 66
     1
 10
0.0
 20
0.0
 30
0.0
 70
   128
  0
VERTEX
  5
326
  8
0
  6
CONTINUOUS
 62
     7
 10
135.1776808287
 20
346.3695218091
 30
0.0
  0
VERTEX
  5
327
  8
0
  6
CONTINUOUS
 62
     7
 10
135.2803424922
 20
346.8333343136
 30
0.0
  0
VERTEX
  5
328
  8
0
  6
CONTINUOUS
 62
     7
 10
135.5865709132
 20
347.2892108575
 30
0.0
  0
VERTEX
  5
329
  8
0
  6
CONTINUOUS
 62
     7
 10
136.0911264385
 20
347.7293512669
 30
0.0
  0
VERTEX
  5
32A
  8
0
  6
CONTINUOUS
 62
     7
 10
136.7853759832
 20
348.1462246172
 30
0.0
  0
VERTEX
  5
32B
  8
0
  6
CONTINUOUS
 62
     7
 10
137.6574407452
 20
348.5326980899
 30
0.0
  0
VERTEX
  5
32C
  8
0
  6
CONTINUOUS
 62
     7
 10
138.6923994544
 20
348.8821590166
 30
0.0
  0
VERTEX
  5
32D
  8
0
  6
CONTINUOUS
 62
     7
 10
139.8725436805
 20
349.1886280241
 30
0.0
  0
VERTEX
  5
32E
  8
0
  6
CONTINUOUS
 62
     7
 10
141.1776808287
 20
349.4468613427
 30
0.0
  0
VERTEX
  5
32F
  8
0
  6
CONTINUOUS
 62
     7
 10
142.5854796403
 20
349.6524405286
 30
0.0
  0
VERTEX
  5
330
  8
0
  6
CONTINUOUS
 62
     7
 10
144.0718522874
 20
349.8018480651
 30
0.0
  0
VERTEX
  5
331
  8
0
  6
CONTINUOUS
 62
     7
 10
145.611366522
 20
349.8925275477
 30
0.0
  0
VERTEX
  5
332
  8
0
  6
CONTINUOUS
 62
     7
 10
147.1776808287
 20
349.9229274253
 30
0.0
  0
SEQEND
  5
498
  8
0
  6
CONTINUOUS
 62
     7
  0
POLYLINE
  5
120
  8
0
  6
CONTINUOUS
 62
     7
 66
     1
 10
0.0
 20
0.0
 30
0.0
 70
   128
  0
VERTEX
  5
333
  8
0
  6
CONTINUOUS
 62
     7
 10
147.1776808287
 20
349.9229274253
 30
0.0
  0
VERTEX
  5
334
  8
0
  6
CONTINUOUS
 62
     7
 10
148.7439951353
 20
349.8925275477
 30
0.0
  0
VERTEX
  5
335
  8
0
  6
CONTINUOUS
 62
     7
 10
150.2835093699
 20
349.8018480651
 30
0.0
  0
VERTEX
  5
336
  8
0
  6
CONTINUOUS
 62
     7
 10
151.769882017
 20
349.6524405286
 30
0.0
  0
VERTEX
  5
337
  8
0
  6
CONTINUOUS
 62
     7
 10
153.1776808287
 20
349.4468613427
 30
0.0
  0
VERTEX
  5
338
  8
0
  6
CONTINUOUS
 62
     7
 10
154.4828179768
 20
349.1886280241
 30
0.0
  0
VERTEX
  5
339
  8
0
  6
CONTINUOUS
 62
     7
 10
155.6629622029
 20
348.8821590166
 30
0.0
  0
VERTEX
  5
33A
  8
0
  6
CONTINUOUS
 62
     7
 10
156.6979209121
 20
348.5326980899
 30
0.0
  0
VERTEX
  5
33B
  8
0
  6
CONTINUOUS
 62
     7
 10
157.5699856741
 20
348.1462246172
 30
0.0
  0
VERTEX
  5
33C
  8
0
  6
CONTINUOUS
 62
     7
 10
158.2642352188
 20
347.7293512669
 30
0.0
  0
VERTEX
  5
33D
  8
0
  6
CONTINUOUS
 62
     7
 10
158.7687907441
 20
347.2892108575
 30
0.0
  0
VERTEX
  5
33E
  8
0
  6
CONTINUOUS
 62
     7
 10
159.0750191651
 20
346.8333343136
 30
0.0
  0
VERTEX
  5
33F
  8
0
  6
CONTINUOUS
 62
     7
 10
159.1776808287
 20
346.3695218091
 30
0.0
  0
SEQEND
  5
499
  8
0
  6
CONTINUOUS
 62
     7
  0
POLYLINE
  5
121
  8
0
  6
CONTINUOUS
 62
     7
 66
     1
 10
0.0
 20
0.0
 30
0.0
 70
   128
  0
VERTEX
  5
340
  8
0
  6
CONTINUOUS
 62
     7
 10
136.1776808287
 20
341.9648659641
 30
0.0
  0
VERTEX
  5
341
  8
0
  6
CONTINUOUS
 62
     7
 10
136.2801354223
 20
341.331854326
 30
0.0
  0
VERTEX
  5
342
  8
0
  6
CONTINUOUS
 62
     7
 10
136.5855906678
 20
340.7106344971
 30
0.0
  0
VERTEX
  5
343
  8
0
  6
CONTINUOUS
 62
     7
 10
137.0883565121
 20
340.1127786273
 30
0.0
  0
VERTEX
  5
344
  8
0
  6
CONTINUOUS
 62
     7
 10
137.7790673786
 20
339.5494236403
 30
0.0
  0
VERTEX
  5
345
  8
0
  6
CONTINUOUS
 62
     7
 10
138.6448566309
 20
339.0310637737
 30
0.0
  0
VERTEX
  5
346
  8
0
  6
CONTINUOUS
 62
     7
 10
139.6695962532
 20
338.5673550908
 30
0.0
  0
VERTEX
  5
347
  8
0
  6
CONTINUOUS
 62
     7
 10
140.8341972854
 20
338.1669356072
 30
0.0
  0
VERTEX
  5
348
  8
0
  6
CONTINUOUS
 62
     7
 10
142.1169654136
 20
337.8372643802
 30
0.0
  0
VERTEX
  5
349
  8
0
  6
CONTINUOUS
 62
     7
 10
143.4940050948
 20
337.5844825609
 30
0.0
  0
VERTEX
  5
34A
  8
0
  6
CONTINUOUS
 62
     7
 10
144.9396646851
 20
337.4132989965
 30
0.0
  0
VERTEX
  5
34B
  8
0
  6
CONTINUOUS
 62
     7
 10
146.4270142816
 20
337.3269025127
 30
0.0
  0
VERTEX
  5
34C
  8
0
  6
CONTINUOUS
 62
     7
 10
147.9283473757
 20
337.3269025127
 30
0.0
  0
VERTEX
  5
34D
  8
0
  6
CONTINUOUS
 62
     7
 10
149.4156969722
 20
337.4132989965
 30
0.0
  0
VERTEX
  5
34E
  8
0
  6
CONTINUOUS
 62
     7
 10
150.8613565625
 20
337.5844825609
 30
0.0
  0
VERTEX
  5
34F
  8
0
  6
CONTINUOUS
 62
     7
 10
152.2383962437
 20
337.8372643802
 30
0.0
  0
VERTEX
  5
350
  8
0
  6
CONTINUOUS
 62
     7
 10
153.5211643719
 20
338.1669356072
 30
0.0
  0
VERTEX
  5
351
  8
0
  6
CONTINUOUS
 62
     7
 10
154.6857654041
 20
338.5673550908
 30
0.0
  0
VERTEX
  5
352
  8
0
  6
CONTINUOUS
 62
     7
 10
155.7105050264
 20
339.0310637737
 30
0.0
  0
VERTEX
  5
353
  8
0
  6
CONTINUOUS
 62
     7
 10
156.5762942787
 20
339.5494236403
 30
0.0
  0
VERTEX
  5
354
  8
0
  6
CONTINUOUS
 62
     7
 10
157.2670051452
 20
340.1127786273
 30
0.0
  0
VERTEX
  5
355
  8
0
  6
CONTINUOUS
 62
     7
 10
157.7697709895
 20
340.7106344971
 30
0.0
  0
VERTEX
  5
356
  8
0
  6
CONTINUOUS
 62
     7
 10
158.0752262351
 20
341.331854326
 30
0.0
  0
VERTEX
  5
357
  8
0
  6
CONTINUOUS
 62
     7
 10
158.1776808287
 20
341.9648659641
 30
0.0
  0
SEQEND
  5
49A
  8
0
  6
CONTINUOUS
 62
     7
  0
ARC
  5
122
  8
0
  6
CONTINUOUS
 62
     7
 10
126.5725854125
 20
187.5655857959
 30
0.0
 40
175.6296239258617
 50
89.5594304675
 51
90.2194370305
  0
LINE
  5
123
  8
0
  6
CONTINUOUS
 62
     7
 10
125.6776822002
 20
363.1947265182
 30
0.0
 11
125.6287757667
 21
363.1931341953
 31
0.0
  0
POLYLINE
  5
124
  8
0
  6
CONTINUOUS
 62
     7
 66
     1
 10
0.0
 20
0.0
 30
0.0
 70
   128
  0
VERTEX
  5
358
  8
0
  6
CONTINUOUS
 62
     7
 10
125.6776808287
 20
363.1947687249
 30
0.0
  0
VERTEX
  5
359
  8
0
  6
CONTINUOUS
 62
     7
 10
125.942432928
 20
363.1955210127
 30
0.0
  0
VERTEX
  5
35A
  8
0
  6
CONTINUOUS
 62
     7
 10
126.7572740352
 20
363.2039811323
 30
0.0
  0
VERTEX
  5
35B
  8
0
  6
CONTINUOUS
 62
     7
 10
128.1519832451
 20
363.2329439779
 30
0.0
  0
VERTEX
  5
35C
  8
0
  6
CONTINUOUS
 62
     7
 10
130.1343192224
 20
363.2793487904
 30
0.0
  0
VERTEX
  5
35D
  8
0
  6
CONTINUOUS
 62
     7
 10
132.5374534166
 20
363.3335410008
 30
0.0
  0
VERTEX
  5
35E
  8
0
  6
CONTINUOUS
 62
     7
 10
135.4308297191
 20
363.3903257094
 30
0.0
  0
VERTEX
  5
35F
  8
0
  6
CONTINUOUS
 62
     7
 10
138.5734882977
 20
363.438588455
 30
0.0
  0
VERTEX
  5
360
  8
0
  6
CONTINUOUS
 62
     7
 10
142.0546124024
 20
363.4745494702
 30
0.0
  0
VERTEX
  5
361
  8
0
  6
CONTINUOUS
 62
     7
 10
144.5788183258
 20
363.4890547953
 30
0.0
  0
VERTEX
  5
362
  8
0
  6
CONTINUOUS
 62
     7
 10
147.1776808287
 20
363.4939804455
 30
0.0
  0
SEQEND
  5
49B
  8
0
  6
CONTINUOUS
 62
     7
  0
LINE
  5
125
  8
0
  6
CONTINUOUS
 62
     7
 10
168.677679456
 20
363.1947265182
 30
0.0
 11
168.7265858896
 21
363.1931341953
 31
0.0
  0
ARC
  5
126
  8
0
  6
CONTINUOUS
 62
     7
 10
167.7826198156
 20
187.3818085866
 30
0.0
 40
175.8134003872625
 50
89.7807413675
 51
90.4399655701
  0
POLYLINE
  5
127
  8
0
  6
CONTINUOUS
 62
     7
 66
     1
 10
0.0
 20
0.0
 30
0.0
 70
   128
  0
VERTEX
  5
363
  8
0
  6
CONTINUOUS
 62
     7
 10
147.1776808287
 20
363.4939804455
 30
0.0
  0
VERTEX
  5
364
  8
0
  6
CONTINUOUS
 62
     7
 10
150.5413467611
 20
363.4856792248
 30
0.0
  0
VERTEX
  5
365
  8
0
  6
CONTINUOUS
 62
     7
 10
153.9050132733
 20
363.4602836198
 30
0.0
  0
VERTEX
  5
366
  8
0
  6
CONTINUOUS
 62
     7
 10
157.1902931
 20
363.4187816569
 30
0.0
  0
VERTEX
  5
367
  8
0
  6
CONTINUOUS
 62
     7
 10
160.2819968412
 20
363.3650508956
 30
0.0
  0
VERTEX
  5
368
  8
0
  6
CONTINUOUS
 62
     7
 10
162.921973377
 20
363.309240859
 30
0.0
  0
VERTEX
  5
369
  8
0
  6
CONTINUOUS
 62
     7
 10
165.1847972554
 20
363.2567051561
 30
0.0
  0
VERTEX
  5
36A
  8
0
  6
CONTINUOUS
 62
     7
 10
166.8808135735
 20
363.217824745
 30
0.0
  0
VERTEX
  5
36B
  8
0
  6
CONTINUOUS
 62
     7
 10
168.0583386993
 20
363.1979326842
 30
0.0
  0
VERTEX
  5
36C
  8
0
  6
CONTINUOUS
 62
     7
 10
168.5200208313
 20
363.1952143186
 30
0.0
  0
VERTEX
  5
36D
  8
0
  6
CONTINUOUS
 62
     7
 10
168.6776808287
 20
363.1947687249
 30
0.0
  0
SEQEND
  5
49C
  8
0
  6
CONTINUOUS
 62
     7
  0
LINE
  5
128
  8
0
  6
CONTINUOUS
 62
     7
 10
136.1776808287
 20
341.9648659641
 30
0.0
 11
136.1776808287
 21
340.4613170269
 31
0.0
  0
LINE
  5
129
  8
0
  6
CONTINUOUS
 62
     7
 10
158.1776808287
 20
341.9648659641
 30
0.0
 11
158.1776808287
 21
340.4613170269
 31
0.0
  0
ARC
  5
12A
  8
0
  6
CONTINUOUS
 62
     7
 10
158.2369553754
 20
346.4712193136
 30
0.0
 40
1.48596086955548
 50
305.3465952106
 51
356.9015723784
  0
POLYLINE
  5
12B
  8
0
  6
CONTINUOUS
 62
     7
 66
     1
 10
0.0
 20
0.0
 30
0.0
 70
   128
  0
VERTEX
  5
36E
  8
0
  6
CONTINUOUS
 62
     7
 10
159.0921678509
 20
345.3455053771
 30
0.0
  0
VERTEX
  5
36F
  8
0
  6
CONTINUOUS
 62
     7
 10
159.468689088
 20
345.7949232267
 30
0.0
  0
VERTEX
  5
370
  8
0
  6
CONTINUOUS
 62
     7
 10
159.4776493422
 20
345.8263357313
 30
0.0
  0
SEQEND
  5
49D
  8
0
  6
CONTINUOUS
 62
     7
  0
POLYLINE
  5
12C
  8
0
  6
CONTINUOUS
 62
     7
 66
     1
 10
0.0
 20
0.0
 30
0.0
 70
   128
  0
VERTEX
  5
371
  8
0
  6
CONTINUOUS
 62
     7
 10
135.059696731
 20
345.5796036375
 30
0.0
  0
VERTEX
  5
372
  8
0
  6
CONTINUOUS
 62
     7
 10
135.1351790001
 20
345.4547880799
 30
0.0
  0
VERTEX
  5
373
  8
0
  6
CONTINUOUS
 62
     7
 10
135.2892447467
 20
345.3289609271
 30
0.0
  0
SEQEND
  5
49E
  8
0
  6
CONTINUOUS
 62
     7
  0
ARC
  5
12D
  8
0
  6
CONTINUOUS
 62
     7
 10
136.0472799259
 20
346.4595569071
 30
0.0
 40
1.414329633235277
 50
182.7824053565
 51
237.7523677585
  0
POLYLINE
  5
12E
  8
0
  6
CONTINUOUS
 62
     7
 66
     1
 10
0.0
 20
0.0
 30
0.0
 70
   128
  0
VERTEX
  5
374
  8
0
  6
CONTINUOUS
 62
     7
 10
167.5225925163
 20
400.1855482908
 30
0.0
  0
VERTEX
  5
375
  8
0
  6
CONTINUOUS
 62
     7
 10
165.8027617835
 20
400.1856188146
 30
0.0
  0
VERTEX
  5
376
  8
0
  6
CONTINUOUS
 62
     7
 10
164.3335924198
 20
400.1857403644
 30
0.0
  0
VERTEX
  5
377
  8
0
  6
CONTINUOUS
 62
     7
 10
163.1219721548
 20
400.185795218
 30
0.0
  0
VERTEX
  5
378
  8
0
  6
CONTINUOUS
 62
     7
 10
162.2491554413
 20
400.1855108797
 30
0.0
  0
VERTEX
  5
379
  8
0
  6
CONTINUOUS
 62
     7
 10
161.7171702303
 20
400.1858171152
 30
0.0
  0
VERTEX
  5
37A
  8
0
  6
CONTINUOUS
 62
     7
 10
161.4868098989
 20
400.1858259949
 30
0.0
  0
SEQEND
  5
49F
  8
0
  6
CONTINUOUS
 62
     7
  0
LINE
  5
12F
  8
0
  6
CONTINUOUS
 62
     7
 10
168.6526661631
 20
400.1857152056
 30
0.0
 11
167.5225925708
 21
400.1857152056
 31
0.0
  0
POLYLINE
  5
130
  8
0
  6
CONTINUOUS
 62
     7
 66
     1
 10
0.0
 20
0.0
 30
0.0
 70
   128
  0
VERTEX
  5
37B
  8
0
  6
CONTINUOUS
 62
     7
 10
126.7802475026
 20
400.1855482908
 30
0.0
  0
VERTEX
  5
37C
  8
0
  6
CONTINUOUS
 62
     7
 10
128.5000782354
 20
400.1856188146
 30
0.0
  0
VERTEX
  5
37D
  8
0
  6
CONTINUOUS
 62
     7
 10
129.9692475991
 20
400.1857403644
 30
0.0
  0
VERTEX
  5
37E
  8
0
  6
CONTINUOUS
 62
     7
 10
131.180867864
 20
400.185795218
 30
0.0
  0
VERTEX
  5
37F
  8
0
  6
CONTINUOUS
 62
     7
 10
132.0536845776
 20
400.1855108797
 30
0.0
  0
VERTEX
  5
380
  8
0
  6
CONTINUOUS
 62
     7
 10
132.5856697886
 20
400.1858171152
 30
0.0
  0
VERTEX
  5
381
  8
0
  6
CONTINUOUS
 62
     7
 10
132.81603012
 20
400.1858259949
 30
0.0
  0
SEQEND
  5
4A0
  8
0
  6
CONTINUOUS
 62
     7
  0
LINE
  5
131
  8
0
  6
CONTINUOUS
 62
     7
 10
133.2892001173
 20
400.1857152056
 30
0.0
 11
132.835723145
 21
400.1857152056
 31
0.0
  0
LINE
  5
132
  8
0
  6
CONTINUOUS
 62
     7
 10
125.6501738558
 20
400.1857152056
 30
0.0
 11
126.7802474481
 21
400.1857152056
 31
0.0
  0
LINE
  5
133
  8
0
  6
CONTINUOUS
 62
     7
 10
147.1514200115
 20
395.2784319792
 30
0.0
 11
148.3230922408
 21
395.2777058596
 31
0.0
  0
ARC
  5
134
  8
0
  6
CONTINUOUS
 62
     7
 10
161.5996634579
 20
396.6036640382
 30
0.0
 40
1.293571108314654
 50
281.4924071687
 51
345.4077192999
  0
ARC
  5
135
  8
0
  6
CONTINUOUS
 62
     7
 10
132.6888241388
 20
396.5796267472
 30
0.0
 40
1.267586562500589
 50
197.9210371521
 51
260.757607819
  0
POLYLINE
  5
136
  8
0
  6
CONTINUOUS
 62
     7
 66
     1
 10
0.0
 20
0.0
 30
0.0
 70
   128
  0
VERTEX
  5
382
  8
0
  6
CONTINUOUS
 62
     7
 10
150.593933461
 20
381.3489693207
 30
0.0
  0
VERTEX
  5
383
  8
0
  6
CONTINUOUS
 62
     7
 10
149.6203581316
 20
382.312407781
 30
0.0
  0
VERTEX
  5
384
  8
0
  6
CONTINUOUS
 62
     7
 10
149.1511149951
 20
382.5959641134
 30
0.0
  0
SEQEND
  5
4A1
  8
0
  6
CONTINUOUS
 62
     7
  0
ARC
  5
137
  8
0
  6
CONTINUOUS
 62
     7
 10
148.3968133036
 20
381.4067966563
 30
0.0
 40
1.4082223840225
 50
57.6126049082
 51
98.2578411345
  0
POLYLINE
  5
138
  8
0
  6
CONTINUOUS
 62
     7
 66
     1
 10
0.0
 20
0.0
 30
0.0
 70
   128
  0
VERTEX
  5
385
  8
0
  6
CONTINUOUS
 62
     7
 10
148.1945530574
 20
382.8004182246
 30
0.0
  0
VERTEX
  5
386
  8
0
  6
CONTINUOUS
 62
     7
 10
147.2369994264
 20
382.7120066279
 30
0.0
  0
VERTEX
  5
387
  8
0
  6
CONTINUOUS
 62
     7
 10
146.1082750974
 20
382.8004145994
 30
0.0
  0
SEQEND
  5
4A2
  8
0
  6
CONTINUOUS
 62
     7
  0
ARC
  5
139
  8
0
  6
CONTINUOUS
 62
     7
 10
145.8950826172
 20
381.4579625086
 30
0.0
 40
1.359275045610984
 50
80.9763127429
 51
123.1534481645
  0
POLYLINE
  5
13A
  8
0
  6
CONTINUOUS
 62
     7
 66
     1
 10
0.0
 20
0.0
 30
0.0
 70
   128
  0
VERTEX
  5
388
  8
0
  6
CONTINUOUS
 62
     7
 10
145.1517179493
 20
382.5959597055
 30
0.0
  0
VERTEX
  5
389
  8
0
  6
CONTINUOUS
 62
     7
 10
144.0462333046
 20
381.7621480196
 30
0.0
  0
VERTEX
  5
38A
  8
0
  6
CONTINUOUS
 62
     7
 10
143.7088546679
 20
381.3488954214
 30
0.0
  0
SEQEND
  5
4A3
  8
0
  6
CONTINUOUS
 62
     7
  0
LINE
  5
13B
  8
0
  6
CONTINUOUS
 62
     7
 10
143.4995454029
 20
381.0186675952
 30
0.0
 11
143.708703933
 21
381.3485987811
 31
0.0
  0
LINE
  5
13C
  8
0
  6
CONTINUOUS
 62
     7
 10
150.594087569
 20
381.3486673136
 30
0.0
 11
150.803294616
 21
381.0186675952
 31
0.0
  0
ARC
  5
13D
  8
0
  6
CONTINUOUS
 62
     7
 10
147.1514200094
 20
379.3865487706
 30
0.0
 40
4.00000000000002
 50
155.918876022
 51
24.081123978
  0
ARC
  5
13E
  8
0
  6
CONTINUOUS
 62
     7
 10
147.1514200094
 20
379.3865487706
 30
0.0
 40
3.569682227422049
 50
106.9911186602
 51
73.0090804585
  0
LINE
  5
13F
  8
0
  6
CONTINUOUS
 62
     7
 10
169.7546202771
 20
266.8442405412
 30
0.0
 11
147.1776808287
 21
266.8442405412
 31
0.0
  0
LINE
  5
140
  8
0
  6
CONTINUOUS
 62
     7
 10
124.6007413802
 20
266.8442405412
 30
0.0
 11
147.1776808287
 21
266.8442405412
 31
0.0
  0
LINE
  5
141
  8
0
  6
CONTINUOUS
 62
     7
 10
165.2410268387
 20
368.3865487706
 30
0.0
 11
129.0618131802
 21
368.3865487706
 31
0.0
  0
LINE
  5
142
  8
0
  6
CONTINUOUS
 62
     7
 10
124.1562436893
 20
368.8851344453
 30
0.0
 11
124.1517258878
 21
368.9009758599
 31
0.0
  0
LINE
  5
143
  8
0
  6
CONTINUOUS
 62
     7
 10
170.1465963296
 20
368.8851344453
 30
0.0
 11
170.1511141311
 21
368.9009758599
 31
0.0
  0
LINE
  5
144
  8
0
  6
CONTINUOUS
 62
     7
 10
169.6175393487
 20
368.3865487706
 30
0.0
 11
165.2410268387
 21
368.3865487706
 31
0.0
  0
LINE
  5
145
  8
0
  6
CONTINUOUS
 62
     7
 10
124.6853006701
 20
368.3865487706
 30
0.0
 11
129.0618131802
 21
368.3865487706
 31
0.0
  0
LINE
  5
146
  8
0
  6
CONTINUOUS
 62
     7
 10
124.1776808287
 20
266.8442405412
 30
0.0
 11
124.6007413802
 21
266.8442405412
 31
0.0
  0
LINE
  5
147
  8
0
  6
CONTINUOUS
 62
     7
 10
170.1776808287
 20
266.8442405412
 30
0.0
 11
169.7546202771
 21
266.8442405412
 31
0.0
  0
ARC
  5
148
  8
0
  6
CONTINUOUS
 62
     7
 10
125.6776808287
 20
361.6939316418
 30
0.0
 40
1.500000000000129
 50
91.8669251722
 51
180.0
  0
ARC
  5
149
  8
0
  6
CONTINUOUS
 62
     7
 10
168.6776808287
 20
361.6939316418
 30
0.0
 40
1.499999999999977
 50
0.0015171097
 51
88.1301915528
  0
ARC
  5
14A
  8
0
  6
CONTINUOUS
 62
     8
 10
165.4292787303
 20
403.1240862958
 30
0.0
 40
39.96856980078076
 50
268.7037132697
 51
271.1540971701
  0
ARC
  5
14B
  8
0
  6
CONTINUOUS
 62
     8
 10
166.2163107932
 20
361.6637261846
 30
0.0
 40
1.500006214510231
 50
0.0005930651
 51
89.3127339847
  0
LINE
  5
14C
  8
0
  6
CONTINUOUS
 62
     8
 10
167.7163170077
 20
352.0842781405
 30
0.0
 11
167.7163170077
 21
361.6637417111
 31
0.0
  0
LINE
  5
14D
  8
0
  6
CONTINUOUS
 62
     8
 10
126.6390446497
 20
352.0842781405
 30
0.0
 11
126.6390446497
 21
361.6637417111
 31
0.0
  0
ARC
  5
14E
  8
0
  6
CONTINUOUS
 62
     8
 10
128.926082927
 20
403.1240862957
 30
0.0
 40
39.96856980068202
 50
268.8459028299
 51
271.2962867303
  0
ARC
  5
14F
  8
0
  6
CONTINUOUS
 62
     8
 10
128.1390508641
 20
361.6637261846
 30
0.0
 40
1.500006214510103
 50
90.6872660153
 51
179.9994069349
  0
POLYLINE
  5
150
  8
0
  6
CONTINUOUS
 62
     8
 66
     1
 10
0.0
 20
0.0
 30
0.0
 70
   128
  0
VERTEX
  5
38B
  8
0
  6
CONTINUOUS
 62
     8
 10
147.1776820421
 20
363.2544449043
 30
0.0
  0
VERTEX
  5
38C
  8
0
  6
CONTINUOUS
 62
     8
 10
155.7990541551
 20
363.2024507193
 30
0.0
  0
VERTEX
  5
38D
  8
0
  6
CONTINUOUS
 62
     8
 10
164.5250881043
 20
363.1657453488
 30
0.0
  0
SEQEND
  5
4A4
  8
0
  6
CONTINUOUS
 62
     8
  0
POLYLINE
  5
151
  8
0
  6
CONTINUOUS
 62
     8
 66
     1
 10
0.0
 20
0.0
 30
0.0
 70
   128
  0
VERTEX
  5
38E
  8
0
  6
CONTINUOUS
 62
     8
 10
129.830273553
 20
363.1657453488
 30
0.0
  0
VERTEX
  5
38F
  8
0
  6
CONTINUOUS
 62
     8
 10
138.5563075022
 20
363.2024507193
 30
0.0
  0
VERTEX
  5
390
  8
0
  6
CONTINUOUS
 62
     8
 10
147.1776796152
 20
363.2544449043
 30
0.0
  0
SEQEND
  5
4A5
  8
0
  6
CONTINUOUS
 62
     8
  0
ARC
  5
152
  8
0
  6
CONTINUOUS
 62
     8
 10
128.710374014
 20
346.8488862336
 30
0.0
 40
4.026003394976561
 50
74.6846056083
 51
104.8513156684
  0
ARC
  5
153
  8
0
  6
CONTINUOUS
 62
     8
 10
128.0283550255
 20
352.0849271727
 30
0.0
 40
1.389310527418591
 50
180.0267663751
 51
255.4132258739
  0
ARC
  5
154
  8
0
  6
CONTINUOUS
 62
     8
 10
166.3270066318
 20
352.0849271727
 30
0.0
 40
1.389310527418833
 50
284.5867741261
 51
359.9732336249
  0
ARC
  5
155
  8
0
  6
CONTINUOUS
 62
     8
 10
165.6449876433
 20
346.8488862336
 30
0.0
 40
4.026003394976555
 50
75.1486843316
 51
105.3153943917
  0
POLYLINE
  5
156
  8
0
  6
CONTINUOUS
 62
     8
 66
     1
 10
0.0
 20
0.0
 30
0.0
 70
   128
  0
VERTEX
  5
391
  8
0
  6
CONTINUOUS
 62
     8
 10
147.1776808287
 20
350.7129527214
 30
0.0
  0
VERTEX
  5
392
  8
0
  6
CONTINUOUS
 62
     8
 10
155.8480358753
 20
350.7150560045
 30
0.0
  0
VERTEX
  5
393
  8
0
  6
CONTINUOUS
 62
     8
 10
158.7379683453
 20
350.7160673774
 30
0.0
  0
VERTEX
  5
394
  8
0
  6
CONTINUOUS
 62
     8
 10
161.6278956934
 20
350.717035282
 30
0.0
  0
VERTEX
  5
395
  8
0
  6
CONTINUOUS
 62
     8
 10
164.5815905076
 20
350.7319120986
 30
0.0
  0
SEQEND
  5
4A6
  8
0
  6
CONTINUOUS
 62
     8
  0
POLYLINE
  5
157
  8
0
  6
CONTINUOUS
 62
     8
 66
     1
 10
0.0
 20
0.0
 30
0.0
 70
   128
  0
VERTEX
  5
396
  8
0
  6
CONTINUOUS
 62
     8
 10
147.1776808287
 20
350.7129527214
 30
0.0
  0
VERTEX
  5
397
  8
0
  6
CONTINUOUS
 62
     8
 10
138.507325782
 20
350.7150560045
 30
0.0
  0
VERTEX
  5
398
  8
0
  6
CONTINUOUS
 62
     8
 10
135.617393312
 20
350.7160673774
 30
0.0
  0
VERTEX
  5
399
  8
0
  6
CONTINUOUS
 62
     8
 10
132.7274659639
 20
350.717035282
 30
0.0
  0
VERTEX
  5
39A
  8
0
  6
CONTINUOUS
 62
     8
 10
129.7737711497
 20
350.7319120986
 30
0.0
  0
SEQEND
  5
4A7
  8
0
  6
CONTINUOUS
 62
     8
  0
LINE
  5
158
  8
0
  6
CONTINUOUS
 62
     8
 10
166.6768988897
 20
350.7403978315
 30
0.0
 11
166.9127720761
 21
350.4427802497
 31
0.0
  0
LINE
  5
159
  8
0
  6
CONTINUOUS
 62
     8
 10
166.9126782485
 20
350.4427221649
 30
0.0
 11
159.7205118251
 21
346.3913579689
 31
0.0
  0
LINE
  5
15A
  8
0
  6
CONTINUOUS
 62
     8
 10
127.6784627676
 20
350.7403978315
 30
0.0
 11
127.4425895812
 21
350.4427802497
 31
0.0
  0
LINE
  5
15B
  8
0
  6
CONTINUOUS
 62
     8
 10
127.4426834088
 20
350.4427221649
 30
0.0
 11
134.6348501982
 21
346.3913577822
 31
0.0
  0
POLYLINE
  5
15C
  8
0
  6
CONTINUOUS
 62
     8
 66
     1
 10
0.0
 20
0.0
 30
0.0
 70
   128
  0
VERTEX
  5
39B
  8
0
  6
CONTINUOUS
 62
     8
 10
128.117167546
 20
363.1656256923
 30
0.0
  0
VERTEX
  5
39C
  8
0
  6
CONTINUOUS
 62
     8
 10
128.1171742025
 20
363.165623416
 30
0.0
  0
VERTEX
  5
39D
  8
0
  6
CONTINUOUS
 62
     8
 10
128.1210586388
 20
363.1636244889
 30
0.0
  0
SEQEND
  5
4A8
  8
0
  6
CONTINUOUS
 62
     8
  0
POLYLINE
  5
15D
  8
0
  6
CONTINUOUS
 62
     8
 66
     1
 10
0.0
 20
0.0
 30
0.0
 70
   128
  0
VERTEX
  5
39E
  8
0
  6
CONTINUOUS
 62
     8
 10
128.1170238989
 20
363.1657151982
 30
0.0
  0
VERTEX
  5
39F
  8
0
  6
CONTINUOUS
 62
     8
 10
132.2731539748
 20
363.2198145637
 30
0.0
  0
VERTEX
  5
3A0
  8
0
  6
CONTINUOUS
 62
     8
 10
135.1429907986
 20
363.2479445846
 30
0.0
  0
SEQEND
  5
4A9
  8
0
  6
CONTINUOUS
 62
     8
  0
LINE
  5
15E
  8
0
  6
CONTINUOUS
 62
     8
 10
144.0312927286
 20
363.3003650157
 30
0.0
 11
147.177678681
 21
363.3045761114
 31
0.0
  0
LINE
  5
15F
  8
0
  6
CONTINUOUS
 62
     8
 10
147.1776783548
 20
363.3050574682
 30
0.0
 11
147.1776819547
 21
363.2944962382
 31
0.0
  0
LINE
  5
160
  8
0
  6
CONTINUOUS
 62
     8
 10
147.1776819547
 20
363.2944962382
 30
0.0
 11
147.1776820421
 21
363.2544449043
 31
0.0
  0
POLYLINE
  5
161
  8
0
  6
CONTINUOUS
 62
     8
 66
     1
 10
0.0
 20
0.0
 30
0.0
 70
   128
  0
VERTEX
  5
3A1
  8
0
  6
CONTINUOUS
 62
     8
 10
166.2383596314
 20
363.1657149553
 30
0.0
  0
VERTEX
  5
3A2
  8
0
  6
CONTINUOUS
 62
     8
 10
163.495359653
 20
363.2028302339
 30
0.0
  0
VERTEX
  5
3A3
  8
0
  6
CONTINUOUS
 62
     8
 10
160.6826088029
 20
363.2350991205
 30
0.0
  0
VERTEX
  5
3A4
  8
0
  6
CONTINUOUS
 62
     8
 10
158.1394979505
 20
363.2586626644
 30
0.0
  0
SEQEND
  5
4AA
  8
0
  6
CONTINUOUS
 62
     8
  0
LINE
  5
162
  8
0
  6
CONTINUOUS
 62
     8
 10
150.5310693916
 20
363.2977833634
 30
0.0
 11
147.1776829763
 21
363.3045761114
 31
0.0
  0
LINE
  5
163
  8
0
  6
CONTINUOUS
 62
     8
 10
166.2343030185
 20
363.1636244889
 30
0.0
 11
166.2381941113
 21
363.1656256923
 31
0.0
  0
LINE
  5
164
  8
0
  6
CONTINUOUS
 62
     8
 10
126.6151357997
 20
351.9273341291
 30
0.0
 11
126.6390446497
 21
352.0842781405
 31
0.0
  0
LINE
  5
165
  8
0
  6
CONTINUOUS
 62
     8
 10
126.5760635366
 20
351.7916275118
 30
0.0
 11
126.615134004
 21
351.9270140178
 31
0.0
  0
LINE
  5
166
  8
0
  6
CONTINUOUS
 62
     8
 10
126.5255919595
 20
351.6372529714
 30
0.0
 11
126.5760604594
 21
351.7918125887
 31
0.0
  0
LINE
  5
167
  8
0
  6
CONTINUOUS
 62
     8
 10
126.5255919595
 20
361.6835941624
 30
0.0
 11
126.5255919595
 21
351.6372529714
 31
0.0
  0
ARC
  5
168
  8
0
  6
CONTINUOUS
 62
     8
 10
129.6664304493
 20
381.1324758098
 30
0.0
 40
19.70085946733619
 50
260.826391906
 51
261.1558663484
  0
LINE
  5
169
  8
0
  6
CONTINUOUS
 62
     8
 10
126.6390446497
 20
361.6637417111
 30
0.0
 11
126.63748239
 21
361.665760374
 31
0.0
  0
LINE
  5
16A
  8
0
  6
CONTINUOUS
 62
     8
 10
167.8297696978
 20
351.6372529714
 30
0.0
 11
167.7793011979
 21
351.7918125887
 31
0.0
  0
LINE
  5
16B
  8
0
  6
CONTINUOUS
 62
     8
 10
167.7792981207
 20
351.7916275118
 30
0.0
 11
167.7402276533
 21
351.9270140178
 31
0.0
  0
LINE
  5
16C
  8
0
  6
CONTINUOUS
 62
     8
 10
167.7402258576
 20
351.9273341291
 30
0.0
 11
167.7163170077
 21
352.0842781405
 31
0.0
  0
LINE
  5
16D
  8
0
  6
CONTINUOUS
 62
     8
 10
167.7178794876
 20
361.6657605543
 30
0.0
 11
167.7163170077
 21
361.6637417111
 31
0.0
  0
ARC
  5
16E
  8
0
  6
CONTINUOUS
 62
     8
 10
164.6898952708
 20
381.1264314536
 30
0.0
 40
19.6947387225183
 50
278.8440665345
 51
279.173642708
  0
LINE
  5
16F
  8
0
  6
CONTINUOUS
 62
     8
 10
167.8297696978
 20
361.6835941624
 30
0.0
 11
167.8297696978
 21
351.6372529714
 31
0.0
  0
ARC
  5
170
  8
0
  6
CONTINUOUS
 62
     8
 10
128.3609971874
 20
351.9275445993
 30
0.0
 40
1.745862332997375
 50
180.0172623001
 51
238.2681359604
  0
ARC
  5
171
  8
0
  6
CONTINUOUS
 62
     8
 10
165.9946564415
 20
351.927236414
 30
0.0
 40
1.745571225926671
 50
301.7289760316
 51
359.9927001756
  0
ARC
  5
172
  8
0
  6
CONTINUOUS
 62
     8
 10
166.2178789174
 20
361.6658539386
 30
0.0
 40
1.500000569898477
 50
0.0000316844
 51
89.1967773531
  0
ARC
  5
173
  8
0
  6
CONTINUOUS
 62
     8
 10
128.1374829603
 20
361.6658538709
 30
0.0
 40
1.500000570052679
 50
90.8032199703
 51
179.9999683079
  0
LINE
  5
174
  8
0
  6
CONTINUOUS
 62
     8
 10
159.6325903566
 20
346.3695218091
 30
0.0
 11
159.6370031295
 21
346.6667519451
 31
0.0
  0
LINE
  5
175
  8
0
  6
CONTINUOUS
 62
     8
 10
159.1776808287
 20
346.3695218091
 30
0.0
 11
159.6325903566
 21
346.3695218091
 31
0.0
  0
LINE
  5
176
  8
0
  6
CONTINUOUS
 62
     8
 10
147.1776808287
 20
349.996956709
 30
0.0
 11
147.1776808287
 21
349.9229274253
 31
0.0
  0
LINE
  5
177
  8
0
  6
CONTINUOUS
 62
     8
 10
134.718454978
 20
346.6643511622
 30
0.0
 11
134.7227713008
 21
346.3695218091
 31
0.0
  0
LINE
  5
178
  8
0
  6
CONTINUOUS
 62
     8
 10
135.1776808287
 20
346.3695218091
 30
0.0
 11
134.7227713008
 21
346.3695218091
 31
0.0
  0
ARC
  5
179
  8
0
  6
CONTINUOUS
 62
     8
 10
125.4025323553
 20
343.4553294807
 30
0.0
 40
19.89634041920347
 50
82.1602362862
 51
82.5363555849
  0
ARC
  5
17A
  8
0
  6
CONTINUOUS
 62
     8
 10
127.584316904
 20
360.4222721627
 30
0.0
 40
2.790039256660594
 50
81.7014049235
 51
82.6736312467
  0
LINE
  5
17B
  8
0
  6
CONTINUOUS
 62
     8
 10
127.9230565897
 20
363.1900175471
 30
0.0
 11
127.940105741
 21
363.1895331473
 31
0.0
  0
LINE
  5
17C
  8
0
  6
CONTINUOUS
 62
     8
 10
125.6287367511
 20
363.1931726394
 30
0.0
 11
125.8999433914
 21
363.1939216448
 31
0.0
  0
LINE
  5
17D
  8
0
  6
CONTINUOUS
 62
     8
 10
168.4554182659
 20
363.1939216448
 30
0.0
 11
168.7266249062
 21
363.1931726394
 31
0.0
  0
LINE
  5
17E
  8
0
  6
CONTINUOUS
 62
     8
 10
166.4152559163
 20
363.1895331473
 30
0.0
 11
166.4325887415
 21
363.1900256069
 31
0.0
  0
ARC
  5
17F
  8
0
  6
CONTINUOUS
 62
     8
 10
166.1814956863
 20
364.7191233897
 30
0.0
 40
1.547349396468343
 50
276.935943338
 51
278.6890204919
  0
POLYLINE
  5
180
  8
0
  6
CONTINUOUS
 62
     8
 66
     1
 10
0.0
 20
0.0
 30
0.0
 70
   128
  0
VERTEX
  5
3A5
  8
0
  6
CONTINUOUS
 62
     8
 10
166.2389065563
 20
363.1657071141
 30
0.0
  0
VERTEX
  5
3A6
  8
0
  6
CONTINUOUS
 62
     8
 10
166.2569875414
 20
363.1679031451
 30
0.0
  0
VERTEX
  5
3A7
  8
0
  6
CONTINUOUS
 62
     8
 10
166.3126912167
 20
363.1756239215
 30
0.0
  0
VERTEX
  5
3A8
  8
0
  6
CONTINUOUS
 62
     8
 10
166.3683529824
 20
363.1830978347
 30
0.0
  0
SEQEND
  5
4AB
  8
0
  6
CONTINUOUS
 62
     8
  0
ARC
  5
181
  8
0
  6
CONTINUOUS
 62
     8
 10
128.0255916166
 20
361.6835944742
 30
0.0
 40
1.499999657122505
 50
91.4739227088
 51
180.00001191
  0
ARC
  5
182
  8
0
  6
CONTINUOUS
 62
     8
 10
166.3297700407
 20
361.6835944742
 30
0.0
 40
1.499999657122402
 50
359.99998809
 51
88.5260772912
  0
LINE
  5
183
  8
0
  6
CONTINUOUS
 62
     8
 10
159.4776493422
 20
345.8263357313
 30
0.0
 11
159.6325903566
 21
346.3695218091
 31
0.0
  0
POLYLINE
  5
184
  8
0
  6
CONTINUOUS
 62
     8
 66
     1
 10
0.0
 20
0.0
 30
0.0
 70
   128
  0
VERTEX
  5
3A9
  8
0
  6
CONTINUOUS
 62
     8
 10
134.7227713008
 20
346.3695218091
 30
0.0
  0
VERTEX
  5
3AA
  8
0
  6
CONTINUOUS
 62
     8
 10
134.7781833071
 20
346.0451070646
 30
0.0
  0
VERTEX
  5
3AB
  8
0
  6
CONTINUOUS
 62
     8
 10
135.059696731
 20
345.5796036375
 30
0.0
  0
SEQEND
  5
4AC
  8
0
  6
CONTINUOUS
 62
     8
  0
POLYLINE
  5
185
  8
0
  6
CONTINUOUS
 62
     8
 66
     1
 10
0.0
 20
0.0
 30
0.0
 70
   128
  0
VERTEX
  5
3AC
  8
0
  6
CONTINUOUS
 62
     8
 10
166.9126555997
 20
350.4425490899
 30
0.0
  0
VERTEX
  5
3AD
  8
0
  6
CONTINUOUS
 62
     8
 10
167.0091152543
 20
350.3179544445
 30
0.0
  0
VERTEX
  5
3AE
  8
0
  6
CONTINUOUS
 62
     8
 10
167.0143446206
 20
350.2734695641
 30
0.0
  0
SEQEND
  5
4AD
  8
0
  6
CONTINUOUS
 62
     8
  0
POLYLINE
  5
186
  8
0
  6
CONTINUOUS
 62
     8
 66
     1
 10
0.0
 20
0.0
 30
0.0
 70
   128
  0
VERTEX
  5
3AF
  8
0
  6
CONTINUOUS
 62
     8
 10
164.3553933723
 20
348.3644483733
 30
0.0
  0
VERTEX
  5
3B0
  8
0
  6
CONTINUOUS
 62
     8
 10
164.4838581473
 20
348.447824493
 30
0.0
  0
VERTEX
  5
3B1
  8
0
  6
CONTINUOUS
 62
     8
 10
167.0074505359
 20
350.268588894
 30
0.0
  0
SEQEND
  5
4AE
  8
0
  6
CONTINUOUS
 62
     8
  0
POLYLINE
  5
187
  8
0
  6
CONTINUOUS
 62
     8
 66
     1
 10
0.0
 20
0.0
 30
0.0
 70
   128
  0
VERTEX
  5
3B2
  8
0
  6
CONTINUOUS
 62
     8
 10
129.999968285
 20
348.3644483733
 30
0.0
  0
VERTEX
  5
3B3
  8
0
  6
CONTINUOUS
 62
     8
 10
129.87150351
 20
348.447824493
 30
0.0
  0
VERTEX
  5
3B4
  8
0
  6
CONTINUOUS
 62
     8
 10
127.3479111214
 20
350.268588894
 30
0.0
  0
SEQEND
  5
4AF
  8
0
  6
CONTINUOUS
 62
     8
  0
POLYLINE
  5
188
  8
0
  6
CONTINUOUS
 62
     8
 66
     1
 10
0.0
 20
0.0
 30
0.0
 70
   128
  0
VERTEX
  5
3B5
  8
0
  6
CONTINUOUS
 62
     8
 10
127.4427060576
 20
350.4425490899
 30
0.0
  0
VERTEX
  5
3B6
  8
0
  6
CONTINUOUS
 62
     8
 10
127.346246403
 20
350.3179544445
 30
0.0
  0
VERTEX
  5
3B7
  8
0
  6
CONTINUOUS
 62
     8
 10
127.3410170367
 20
350.2734695641
 30
0.0
  0
SEQEND
  5
4B0
  8
0
  6
CONTINUOUS
 62
     8
  0
ARC
  5
189
  8
0
  6
CONTINUOUS
 62
     8
 10
128.4650879584
 20
351.7916449072
 30
0.0
 40
1.889027742114505
 50
179.9949333375
 51
233.4803512643
  0
ARC
  5
18A
  8
0
  6
CONTINUOUS
 62
     8
 10
165.8903410036
 20
351.7918449094
 30
0.0
 40
1.888960194592813
 50
306.5144798685
 51
359.9990196521
  0
ARC
  5
18B
  8
0
  6
CONTINUOUS
 62
     8
 10
133.8400569946
 20
380.7801221237
 30
0.0
 40
14.80438121838363
 50
88.0751363139
 51
92.7206859587
  0
ARC
  5
18C
  8
0
  6
CONTINUOUS
 62
     8
 10
133.1373923968
 20
397.0678515444
 30
0.0
 40
1.500035662881546
 50
180.0027583736
 51
269.9978524994
  0
LINE
  5
18D
  8
0
  6
CONTINUOUS
 62
     8
 10
131.6373567357
 20
397.0677793286
 30
0.0
 11
131.6373567357
 21
398.6865487706
 31
0.0
  0
ARC
  5
18E
  8
0
  6
CONTINUOUS
 62
     8
 10
160.4627830243
 20
380.7801221237
 30
0.0
 40
14.8043812183805
 50
87.2793140413
 51
91.9248636861
  0
ARC
  5
18F
  8
0
  6
CONTINUOUS
 62
     8
 10
161.1654476221
 20
397.0678515444
 30
0.0
 40
1.500035662881575
 50
270.0021475006
 51
359.9972416264
  0
LINE
  5
190
  8
0
  6
CONTINUOUS
 62
     8
 10
162.6654832832
 20
397.0677793286
 30
0.0
 11
162.6654832832
 21
398.6865487706
 31
0.0
  0
ARC
  5
191
  8
0
  6
CONTINUOUS
 62
     8
 10
133.678598729
 20
-42.407008047
 30
0.0
 40
442.5934645649257
 50
89.9147254756
 51
90.0765416088
  0
ARC
  5
192
  8
0
  6
CONTINUOUS
 62
     8
 10
133.1373472663
 20
398.6865585923
 30
0.0
 40
1.499990530677428
 50
91.9106229726
 51
180.0003751643
  0
ARC
  5
193
  8
0
  6
CONTINUOUS
 62
     8
 10
160.6242412899
 20
-42.4070080469
 30
0.0
 40
442.5934645647804
 50
89.9234583912
 51
90.0852745244
  0
ARC
  5
194
  8
0
  6
CONTINUOUS
 62
     8
 10
161.1654927526
 20
398.6865585923
 30
0.0
 40
1.499990530677426
 50
359.9996248357
 51
88.0893770274
  0
LINE
  5
195
  8
0
  6
CONTINUOUS
 62
     8
 10
134.3373197247
 20
400.1857152056
 30
0.0
 11
147.1514200094
 21
400.1857152056
 31
0.0
  0
LINE
  5
196
  8
0
  6
CONTINUOUS
 62
     8
 10
159.9655202941
 20
400.1857152056
 30
0.0
 11
147.1514200094
 21
400.1857152056
 31
0.0
  0
LINE
  5
197
  8
0
  6
CONTINUOUS
 62
     8
 10
134.3373197247
 20
395.5761497337
 30
0.0
 11
159.9655202941
 21
395.5761497337
 31
0.0
  0
POLYLINE
  5
198
  8
0
  6
CONTINUOUS
 62
     8
 66
     1
 10
0.0
 20
0.0
 30
0.0
 70
   128
  0
VERTEX
  5
3B8
  8
0
  6
CONTINUOUS
 62
     8
 10
161.4868098989
 20
400.1858259949
 30
0.0
  0
VERTEX
  5
3B9
  8
0
  6
CONTINUOUS
 62
     8
 10
161.4453837739
 20
400.1855929393
 30
0.0
  0
VERTEX
  5
3BA
  8
0
  6
CONTINUOUS
 62
     8
 10
161.4275857641
 20
400.1854726291
 30
0.0
  0
SEQEND
  5
4B1
  8
0
  6
CONTINUOUS
 62
     8
  0
LINE
  5
199
  8
0
  6
CONTINUOUS
 62
     8
 10
161.4275858204
 20
400.1857152056
 30
0.0
 11
161.2155031595
 21
400.1857152056
 31
0.0
  0
LINE
  5
19A
  8
0
  6
CONTINUOUS
 62
     8
 10
147.1514200094
 20
400.5599847476
 30
0.0
 11
147.1514200094
 21
400.1856250984
 31
0.0
  0
LINE
  5
19B
  8
0
  6
CONTINUOUS
 62
     8
 10
132.8752541985
 20
400.1857152056
 30
0.0
 11
133.0873368594
 21
400.1857152056
 31
0.0
  0
POLYLINE
  5
19C
  8
0
  6
CONTINUOUS
 62
     8
 66
     1
 10
0.0
 20
0.0
 30
0.0
 70
   128
  0
VERTEX
  5
3BB
  8
0
  6
CONTINUOUS
 62
     8
 10
132.81603012
 20
400.1858259949
 30
0.0
  0
VERTEX
  5
3BC
  8
0
  6
CONTINUOUS
 62
     8
 10
132.857456245
 20
400.1855929393
 30
0.0
  0
VERTEX
  5
3BD
  8
0
  6
CONTINUOUS
 62
     8
 10
132.8752542548
 20
400.1854726291
 30
0.0
  0
SEQEND
  5
4B2
  8
0
  6
CONTINUOUS
 62
     8
  0
LINE
  5
19D
  8
0
  6
CONTINUOUS
 62
     8
 10
147.1514200115
 20
395.2784319792
 30
0.0
 11
143.7230232756
 21
395.276307301
 31
0.0
  0
POLYLINE
  5
19E
  8
0
  6
CONTINUOUS
 62
     8
 66
     1
 10
0.0
 20
0.0
 30
0.0
 70
   128
  0
VERTEX
  5
3BE
  8
0
  6
CONTINUOUS
 62
     8
 10
143.7230322501
 20
395.2763073305
 30
0.0
  0
VERTEX
  5
3BF
  8
0
  6
CONTINUOUS
 62
     8
 10
142.4245985591
 20
395.2747138113
 30
0.0
  0
VERTEX
  5
3C0
  8
0
  6
CONTINUOUS
 62
     8
 10
141.1426008059
 20
395.2728110651
 30
0.0
  0
VERTEX
  5
3C1
  8
0
  6
CONTINUOUS
 62
     8
 10
139.8341712652
 20
395.2705519018
 30
0.0
  0
VERTEX
  5
3C2
  8
0
  6
CONTINUOUS
 62
     8
 10
136.2834978174
 20
395.2628712138
 30
0.0
  0
VERTEX
  5
3C3
  8
0
  6
CONTINUOUS
 62
     8
 10
132.8816552828
 20
395.2531998916
 30
0.0
  0
SEQEND
  5
4B3
  8
0
  6
CONTINUOUS
 62
     8
  0
LINE
  5
19F
  8
0
  6
CONTINUOUS
 62
     8
 10
132.9252535131
 20
395.2850369914
 30
0.0
 11
132.8816552828
 21
395.2531998916
 31
0.0
  0
LINE
  5
1A0
  8
0
  6
CONTINUOUS
 62
     8
 10
133.1373361741
 20
395.5678158826
 30
0.0
 11
132.9252535131
 21
395.2850369914
 31
0.0
  0
LINE
  5
1A1
  8
0
  6
CONTINUOUS
 62
     8
 10
161.1655038448
 20
395.5678158826
 30
0.0
 11
161.3775865058
 21
395.2850369914
 31
0.0
  0
LINE
  5
1A2
  8
0
  6
CONTINUOUS
 62
     8
 10
161.3775865058
 20
395.2850369914
 30
0.0
 11
161.4211847361
 21
395.2531998916
 31
0.0
  0
POLYLINE
  5
1A3
  8
0
  6
CONTINUOUS
 62
     8
 66
     1
 10
0.0
 20
0.0
 30
0.0
 70
   128
  0
VERTEX
  5
3C4
  8
0
  6
CONTINUOUS
 62
     8
 10
150.5798077688
 20
395.2763073305
 30
0.0
  0
VERTEX
  5
3C5
  8
0
  6
CONTINUOUS
 62
     8
 10
151.8782414598
 20
395.2747138113
 30
0.0
  0
VERTEX
  5
3C6
  8
0
  6
CONTINUOUS
 62
     8
 10
153.160239213
 20
395.2728110651
 30
0.0
  0
VERTEX
  5
3C7
  8
0
  6
CONTINUOUS
 62
     8
 10
154.4686687536
 20
395.2705519018
 30
0.0
  0
VERTEX
  5
3C8
  8
0
  6
CONTINUOUS
 62
     8
 10
158.0193422014
 20
395.2628712138
 30
0.0
  0
VERTEX
  5
3C9
  8
0
  6
CONTINUOUS
 62
     8
 10
161.4211847361
 20
395.2531998916
 30
0.0
  0
SEQEND
  5
4B4
  8
0
  6
CONTINUOUS
 62
     8
  0
LINE
  5
1A4
  8
0
  6
CONTINUOUS
 62
     8
 10
148.3230922408
 20
395.2777058596
 30
0.0
 11
150.5798168135
 21
395.2763073013
 31
0.0
  0
LINE
  5
1A5
  8
0
  6
CONTINUOUS
 62
     8
 10
131.4252740747
 20
398.6865487706
 30
0.0
 11
131.6373567357
 21
398.6865487706
 31
0.0
  0
ARC
  5
1A6
  8
0
  6
CONTINUOUS
 62
     8
 10
132.9252646054
 20
398.6865585923
 30
0.0
 40
1.499990530677319
 50
91.9106229627
 51
180.0003751643
  0
LINE
  5
1A7
  8
0
  6
CONTINUOUS
 62
     8
 10
162.8775659441
 20
398.6865487706
 30
0.0
 11
162.6654832832
 21
398.6865487706
 31
0.0
  0
ARC
  5
1A8
  8
0
  6
CONTINUOUS
 62
     8
 10
161.3775754135
 20
398.6865585923
 30
0.0
 40
1.499990530677291
 50
359.9996248357
 51
88.0893770373
  0
LINE
  5
1A9
  8
0
  6
CONTINUOUS
 62
     8
 10
131.4252740747
 20
396.7850004375
 30
0.0
 11
131.6373567357
 21
397.0677793286
 31
0.0
  0
ARC
  5
1AA
  8
0
  6
CONTINUOUS
 62
     8
 10
132.9253097359
 20
396.7850726532
 30
0.0
 40
1.500035662881365
 50
180.0027583731
 51
269.9978524994
  0
LINE
  5
1AB
  8
0
  6
CONTINUOUS
 62
     8
 10
162.8775659441
 20
396.7850004375
 30
0.0
 11
162.6654832832
 21
397.0677793286
 31
0.0
  0
ARC
  5
1AC
  8
0
  6
CONTINUOUS
 62
     8
 10
161.377530283
 20
396.7850726532
 30
0.0
 40
1.500035662881375
 50
270.0021475006
 51
359.9972416269
  0
LINE
  5
1AD
  8
0
  6
CONTINUOUS
 62
     8
 10
131.4252740747
 20
398.6865487706
 30
0.0
 11
131.4252740747
 21
396.7850004375
 31
0.0
  0
LINE
  5
1AE
  8
0
  6
CONTINUOUS
 62
     8
 10
162.8775659441
 20
398.6865487706
 30
0.0
 11
162.8775659441
 21
396.7850004375
 31
0.0
  0
LINE
  5
1AF
  8
0
  6
CONTINUOUS
 62
     8
 10
167.0143212804
 20
350.2736753029
 30
0.0
 11
167.0672790065
 21
350.1197132901
 31
0.0
  0
ARC
  5
1B0
  8
0
  6
CONTINUOUS
 62
     8
 10
142.6912796956
 20
380.1659929776
 30
0.0
 40
38.69054488509742
 50
296.8907051688
 51
309.0521229712
  0
POLYLINE
  5
1B1
  8
0
  6
CONTINUOUS
 62
     8
 66
     1
 10
0.0
 20
0.0
 30
0.0
 70
   128
  0
VERTEX
  5
3CA
  8
0
  6
CONTINUOUS
 62
     8
 10
127.3410403769
 20
350.2736753029
 30
0.0
  0
VERTEX
  5
3CB
  8
0
  6
CONTINUOUS
 62
     8
 10
127.2924889479
 20
350.1329887559
 30
0.0
  0
VERTEX
  5
3CC
  8
0
  6
CONTINUOUS
 62
     8
 10
127.2879896715
 20
350.1199553586
 30
0.0
  0
SEQEND
  5
4B5
  8
0
  6
CONTINUOUS
 62
     8
  0
ARC
  5
1B2
  8
0
  6
CONTINUOUS
 62
     8
 10
151.6640819617
 20
380.1659929776
 30
0.0
 40
38.69054488509165
 50
230.9478770288
 51
243.1092948313
  0
ARC
  5
1B3
  8
0
  6
CONTINUOUS
 62
     8
 10
165.9402953506
 20
351.6362956982
 30
0.0
 40
1.889474473592359
 50
306.6163160943
 51
0.0209554053
  0
ARC
  5
1B4
  8
0
  6
CONTINUOUS
 62
     8
 10
128.4150529511
 20
351.6362884579
 30
0.0
 40
1.889461181711233
 50
179.9788305718
 51
233.3787402143
  0
ARC
  5
1B5
  8
0
  6
CONTINUOUS
 62
     8
 10
147.1777676005
 20
357.9292261113
 30
0.0
 40
46.42484880625801
 50
261.3467818952
 51
278.6530014586
  0
POLYLINE
  5
1B6
  8
0
  6
CONTINUOUS
 62
     8
 66
     1
 10
0.0
 20
0.0
 30
0.0
 70
   128
  0
VERTEX
  5
3CD
  8
0
  6
CONTINUOUS
 62
     8
 10
140.1928872847
 20
312.0330604747
 30
0.0
  0
VERTEX
  5
3CE
  8
0
  6
CONTINUOUS
 62
     8
 10
137.9565706565
 20
312.8746265484
 30
0.0
  0
VERTEX
  5
3CF
  8
0
  6
CONTINUOUS
 62
     8
 10
135.8552349677
 20
313.9564281618
 30
0.0
  0
VERTEX
  5
3D0
  8
0
  6
CONTINUOUS
 62
     8
 10
133.9945036709
 20
315.2112749779
 30
0.0
  0
VERTEX
  5
3D1
  8
0
  6
CONTINUOUS
 62
     8
 10
132.3010753588
 20
316.6738933615
 30
0.0
  0
VERTEX
  5
3D2
  8
0
  6
CONTINUOUS
 62
     8
 10
130.432373772
 20
318.7864755967
 30
0.0
  0
VERTEX
  5
3D3
  8
0
  6
CONTINUOUS
 62
     8
 10
128.8714213577
 20
321.173270172
 30
0.0
  0
VERTEX
  5
3D4
  8
0
  6
CONTINUOUS
 62
     8
 10
127.5967651867
 20
323.8342770872
 30
0.0
  0
VERTEX
  5
3D5
  8
0
  6
CONTINUOUS
 62
     8
 10
126.6394821121
 20
326.5820319559
 30
0.0
  0
VERTEX
  5
3D6
  8
0
  6
CONTINUOUS
 62
     8
 10
125.9148926287
 20
329.4862582643
 30
0.0
  0
VERTEX
  5
3D7
  8
0
  6
CONTINUOUS
 62
     8
 10
125.3817338598
 20
332.5469560126
 30
0.0
  0
VERTEX
  5
3D8
  8
0
  6
CONTINUOUS
 62
     8
 10
124.8702842607
 20
337.3139234951
 30
0.0
  0
VERTEX
  5
3D9
  8
0
  6
CONTINUOUS
 62
     8
 10
124.6007413802
 20
342.2533185811
 30
0.0
  0
SEQEND
  5
4B6
  8
0
  6
CONTINUOUS
 62
     8
  0
POLYLINE
  5
1B7
  8
0
  6
CONTINUOUS
 62
     8
 66
     1
 10
0.0
 20
0.0
 30
0.0
 70
   128
  0
VERTEX
  5
3DA
  8
0
  6
CONTINUOUS
 62
     8
 10
154.1624743726
 20
312.0330604747
 30
0.0
  0
VERTEX
  5
3DB
  8
0
  6
CONTINUOUS
 62
     8
 10
156.3987910007
 20
312.8746265484
 30
0.0
  0
VERTEX
  5
3DC
  8
0
  6
CONTINUOUS
 62
     8
 10
158.5001266896
 20
313.9564281618
 30
0.0
  0
VERTEX
  5
3DD
  8
0
  6
CONTINUOUS
 62
     8
 10
160.3608579865
 20
315.211274978
 30
0.0
  0
VERTEX
  5
3DE
  8
0
  6
CONTINUOUS
 62
     8
 10
162.0542862985
 20
316.6738933615
 30
0.0
  0
VERTEX
  5
3DF
  8
0
  6
CONTINUOUS
 62
     8
 10
163.9229878853
 20
318.7864755968
 30
0.0
  0
VERTEX
  5
3E0
  8
0
  6
CONTINUOUS
 62
     8
 10
165.4839402996
 20
321.173270172
 30
0.0
  0
VERTEX
  5
3E1
  8
0
  6
CONTINUOUS
 62
     8
 10
166.7585964706
 20
323.8342770872
 30
0.0
  0
VERTEX
  5
3E2
  8
0
  6
CONTINUOUS
 62
     8
 10
168.1046376954
 20
328.0145861801
 30
0.0
  0
VERTEX
  5
3E3
  8
0
  6
CONTINUOUS
 62
     8
 10
168.9736277975
 20
332.5469560126
 30
0.0
  0
VERTEX
  5
3E4
  8
0
  6
CONTINUOUS
 62
     8
 10
169.4850773966
 20
337.3139234951
 30
0.0
  0
VERTEX
  5
3E5
  8
0
  6
CONTINUOUS
 62
     8
 10
169.7546202771
 20
342.2533185811
 30
0.0
  0
SEQEND
  5
4B7
  8
0
  6
CONTINUOUS
 62
     8
  0
POLYLINE
  5
1B8
  8
0
  6
CONTINUOUS
 62
     8
 66
     1
 10
0.0
 20
0.0
 30
0.0
 70
   128
  0
VERTEX
  5
3E6
  8
0
  6
CONTINUOUS
 62
     8
 10
124.6007416425
 20
342.253324113
 30
0.0
  0
VERTEX
  5
3E7
  8
0
  6
CONTINUOUS
 62
     8
 10
124.498657027
 20
346.3017814323
 30
0.0
  0
VERTEX
  5
3E8
  8
0
  6
CONTINUOUS
 62
     8
 10
124.4677443643
 20
350.4114863349
 30
0.0
  0
SEQEND
  5
4B8
  8
0
  6
CONTINUOUS
 62
     8
  0
LINE
  5
1B9
  8
0
  6
CONTINUOUS
 62
     8
 10
124.4677355884
 20
350.4120557321
 30
0.0
 11
124.4677355884
 21
351.3692993199
 31
0.0
  0
LINE
  5
1BA
  8
0
  6
CONTINUOUS
 62
     8
 10
126.5255919595
 20
351.6372529714
 30
0.0
 11
126.4851855447
 21
351.5135084572
 31
0.0
  0
LINE
  5
1BB
  8
0
  6
CONTINUOUS
 62
     8
 10
167.8701761126
 20
351.5135084572
 30
0.0
 11
167.8297696978
 21
351.6372529714
 31
0.0
  0
LINE
  5
1BC
  8
0
  6
CONTINUOUS
 62
     8
 10
169.8876260689
 20
350.4120557321
 30
0.0
 11
169.8876260689
 21
351.3692993199
 31
0.0
  0
POLYLINE
  5
1BD
  8
0
  6
CONTINUOUS
 62
     8
 66
     1
 10
0.0
 20
0.0
 30
0.0
 70
   128
  0
VERTEX
  5
3E9
  8
0
  6
CONTINUOUS
 62
     8
 10
169.7546202771
 20
342.2533185811
 30
0.0
  0
VERTEX
  5
3EA
  8
0
  6
CONTINUOUS
 62
     8
 10
169.8567038594
 20
346.302206894
 30
0.0
  0
VERTEX
  5
3EB
  8
0
  6
CONTINUOUS
 62
     8
 10
169.8876260689
 20
350.4120557321
 30
0.0
  0
SEQEND
  5
4B9
  8
0
  6
CONTINUOUS
 62
     8
  0
LINE
  5
1BE
  8
0
  6
CONTINUOUS
 62
     8
 10
126.4851855447
 20
361.6902107236
 30
0.0
 11
126.4851855447
 21
351.5135084572
 31
0.0
  0
POLYLINE
  5
1BF
  8
0
  6
CONTINUOUS
 62
     8
 66
     1
 10
0.0
 20
0.0
 30
0.0
 70
   128
  0
VERTEX
  5
3EC
  8
0
  6
CONTINUOUS
 62
     8
 10
126.5255919595
 20
361.6835941624
 30
0.0
  0
VERTEX
  5
3ED
  8
0
  6
CONTINUOUS
 62
     8
 10
126.5053887521
 20
361.6869581692
 30
0.0
  0
VERTEX
  5
3EE
  8
0
  6
CONTINUOUS
 62
     8
 10
126.4851855447
 20
361.6902107236
 30
0.0
  0
SEQEND
  5
4BA
  8
0
  6
CONTINUOUS
 62
     8
  0
POLYLINE
  5
1C0
  8
0
  6
CONTINUOUS
 62
     8
 66
     1
 10
0.0
 20
0.0
 30
0.0
 70
   128
  0
VERTEX
  5
3EF
  8
0
  6
CONTINUOUS
 62
     8
 10
167.8701761126
 20
361.6902107236
 30
0.0
  0
VERTEX
  5
3F0
  8
0
  6
CONTINUOUS
 62
     8
 10
167.8499729052
 20
361.6869581692
 30
0.0
  0
VERTEX
  5
3F1
  8
0
  6
CONTINUOUS
 62
     8
 10
167.8297696978
 20
361.6835941624
 30
0.0
  0
SEQEND
  5
4BB
  8
0
  6
CONTINUOUS
 62
     8
  0
LINE
  5
1C1
  8
0
  6
CONTINUOUS
 62
     8
 10
167.8701761126
 20
361.6902107236
 30
0.0
 11
167.8701761126
 21
351.5135084572
 31
0.0
  0
ARC
  5
1C2
  8
0
  6
CONTINUOUS
 62
     8
 10
127.9851852924
 20
361.6902109415
 30
0.0
 40
1.499999747650181
 50
91.7221716207
 51
180.0000083214
  0
ARC
  5
1C3
  8
0
  6
CONTINUOUS
 62
     8
 10
166.3701763649
 20
361.6902109415
 30
0.0
 40
1.499999747649911
 50
359.9999916786
 51
88.2778283793
  0
LINE
  5
1C4
  8
0
  6
CONTINUOUS
 62
     8
 10
162.9364259252
 20
398.6865487705
 30
0.0
 11
162.8775659441
 21
398.6865487706
 31
0.0
  0
ARC
  5
1C5
  8
0
  6
CONTINUOUS
 62
     8
 10
161.4366088599
 20
398.6867385164
 30
0.0
 40
1.499817077360742
 50
359.9927513582
 51
88.0818669728
  0
LINE
  5
1C6
  8
0
  6
CONTINUOUS
 62
     8
 10
131.3664140937
 20
398.6865487705
 30
0.0
 11
131.4252740747
 21
398.6865487706
 31
0.0
  0
ARC
  5
1C7
  8
0
  6
CONTINUOUS
 62
     8
 10
132.866231159
 20
398.6867385164
 30
0.0
 40
1.499817077360827
 50
91.9181330272
 51
180.0072486418
  0
LINE
  5
1C8
  8
0
  6
CONTINUOUS
 62
     8
 10
162.9364259252
 20
396.7478619127
 30
0.0
 11
162.8775659441
 21
396.7850004375
 31
0.0
  0
LINE
  5
1C9
  8
0
  6
CONTINUOUS
 62
     8
 10
161.4209501445
 20
395.2534146407
 30
0.0
 11
161.8573920729
 21
395.3360275867
 31
0.0
  0
POLYLINE
  5
1CA
  8
0
  6
CONTINUOUS
 62
     8
 66
     1
 10
0.0
 20
0.0
 30
0.0
 70
   128
  0
VERTEX
  5
3F2
  8
0
  6
CONTINUOUS
 62
     8
 10
162.8515080011
 20
396.2777630537
 30
0.0
  0
VERTEX
  5
3F3
  8
0
  6
CONTINUOUS
 62
     8
 10
162.8957165965
 20
396.401886023
 30
0.0
  0
VERTEX
  5
3F4
  8
0
  6
CONTINUOUS
 62
     8
 10
162.9362368664
 20
396.7480327016
 30
0.0
  0
SEQEND
  5
4BC
  8
0
  6
CONTINUOUS
 62
     8
  0
LINE
  5
1CB
  8
0
  6
CONTINUOUS
 62
     8
 10
131.3664140937
 20
396.7478619127
 30
0.0
 11
131.4252740747
 21
396.7850004375
 31
0.0
  0
LINE
  5
1CC
  8
0
  6
CONTINUOUS
 62
     8
 10
132.8818898744
 20
395.2534146407
 30
0.0
 11
132.4852351478
 21
395.3284963718
 31
0.0
  0
POLYLINE
  5
1CD
  8
0
  6
CONTINUOUS
 62
     8
 66
     1
 10
0.0
 20
0.0
 30
0.0
 70
   128
  0
VERTEX
  5
3F5
  8
0
  6
CONTINUOUS
 62
     8
 10
131.4827389897
 20
396.1895827669
 30
0.0
  0
VERTEX
  5
3F6
  8
0
  6
CONTINUOUS
 62
     8
 10
131.4071234224
 20
396.401886023
 30
0.0
  0
VERTEX
  5
3F7
  8
0
  6
CONTINUOUS
 62
     8
 10
131.3666031525
 20
396.7480327016
 30
0.0
  0
SEQEND
  5
4BD
  8
0
  6
CONTINUOUS
 62
     8
  0
LINE
  5
1CE
  8
0
  6
CONTINUOUS
 62
     8
 10
162.9364259252
 20
398.6865487705
 30
0.0
 11
162.9364259252
 21
396.7478619127
 31
0.0
  0
LINE
  5
1CF
  8
0
  6
CONTINUOUS
 62
     8
 10
131.3664140937
 20
398.6865487705
 30
0.0
 11
131.3664140937
 21
396.7478619127
 31
0.0
  0
POLYLINE
  5
1D0
  8
0
  6
CONTINUOUS
 62
     8
 66
     1
 10
0.0
 20
0.0
 30
0.0
 70
   128
  0
VERTEX
  5
3F8
  8
0
  6
CONTINUOUS
 62
     8
 10
128.9031324186
 20
382.4237795581
 30
0.0
  0
VERTEX
  5
3F9
  8
0
  6
CONTINUOUS
 62
     8
 10
130.3492145579
 20
380.7062727791
 30
0.0
  0
VERTEX
  5
3FA
  8
0
  6
CONTINUOUS
 62
     8
 10
132.0808701443
 20
379.2650958399
 30
0.0
  0
VERTEX
  5
3FB
  8
0
  6
CONTINUOUS
 62
     8
 10
134.0970299466
 20
378.1138863071
 30
0.0
  0
VERTEX
  5
3FC
  8
0
  6
CONTINUOUS
 62
     8
 10
136.3951043166
 20
377.2588350848
 30
0.0
  0
VERTEX
  5
3FD
  8
0
  6
CONTINUOUS
 62
     8
 10
137.6058236825
 20
376.9511576745
 30
0.0
  0
VERTEX
  5
3FE
  8
0
  6
CONTINUOUS
 62
     8
 10
138.8960975712
 20
376.7072022098
 30
0.0
  0
VERTEX
  5
3FF
  8
0
  6
CONTINUOUS
 62
     8
 10
140.1798457647
 20
376.5354135668
 30
0.0
  0
VERTEX
  5
400
  8
0
  6
CONTINUOUS
 62
     8
 10
141.5748398056
 20
376.4118661135
 30
0.0
  0
VERTEX
  5
401
  8
0
  6
CONTINUOUS
 62
     8
 10
143.7230873368
 20
376.3145865173
 30
0.0
  0
SEQEND
  5
4BE
  8
0
  6
CONTINUOUS
 62
     8
  0
LINE
  5
1D1
  8
0
  6
CONTINUOUS
 62
     8
 10
143.7229732622
 20
376.3128859214
 30
0.0
 11
143.7237424307
 21
377.3253470629
 31
0.0
  0
POLYLINE
  5
1D2
  8
0
  6
CONTINUOUS
 62
     8
 66
     1
 10
0.0
 20
0.0
 30
0.0
 70
   128
  0
VERTEX
  5
402
  8
0
  6
CONTINUOUS
 62
     8
 10
165.3997076003
 20
382.4237795581
 30
0.0
  0
VERTEX
  5
403
  8
0
  6
CONTINUOUS
 62
     8
 10
163.953625461
 20
380.7062727791
 30
0.0
  0
VERTEX
  5
404
  8
0
  6
CONTINUOUS
 62
     8
 10
162.2219698746
 20
379.2650958399
 30
0.0
  0
VERTEX
  5
405
  8
0
  6
CONTINUOUS
 62
     8
 10
160.2058100723
 20
378.1138863071
 30
0.0
  0
VERTEX
  5
406
  8
0
  6
CONTINUOUS
 62
     8
 10
157.9077357023
 20
377.2588350848
 30
0.0
  0
VERTEX
  5
407
  8
0
  6
CONTINUOUS
 62
     8
 10
156.6970163364
 20
376.9511576745
 30
0.0
  0
VERTEX
  5
408
  8
0
  6
CONTINUOUS
 62
     8
 10
155.4067424477
 20
376.7072022098
 30
0.0
  0
VERTEX
  5
409
  8
0
  6
CONTINUOUS
 62
     8
 10
154.1229942542
 20
376.5354135668
 30
0.0
  0
VERTEX
  5
40A
  8
0
  6
CONTINUOUS
 62
     8
 10
152.7280002133
 20
376.4118661135
 30
0.0
  0
VERTEX
  5
40B
  8
0
  6
CONTINUOUS
 62
     8
 10
150.5797526821
 20
376.3145865173
 30
0.0
  0
SEQEND
  5
4BF
  8
0
  6
CONTINUOUS
 62
     8
  0
LINE
  5
1D3
  8
0
  6
CONTINUOUS
 62
     8
 10
150.5798667566
 20
376.3128859214
 30
0.0
 11
150.5790975883
 21
377.3253468962
 31
0.0
  0
POLYLINE
  5
1D4
  8
0
  6
CONTINUOUS
 62
     8
 66
     1
 10
0.0
 20
0.0
 30
0.0
 70
   128
  0
VERTEX
  5
40C
  8
0
  6
CONTINUOUS
 62
     8
 10
125.4095653035
 20
396.5351463692
 30
0.0
  0
VERTEX
  5
40D
  8
0
  6
CONTINUOUS
 62
     8
 10
125.4593862603
 20
394.5380340701
 30
0.0
  0
VERTEX
  5
40E
  8
0
  6
CONTINUOUS
 62
     8
 10
125.614471449
 20
392.500605445
 30
0.0
  0
VERTEX
  5
40F
  8
0
  6
CONTINUOUS
 62
     8
 10
125.8630467351
 20
390.6050335431
 30
0.0
  0
VERTEX
  5
410
  8
0
  6
CONTINUOUS
 62
     8
 10
126.2304529154
 20
388.7230428173
 30
0.0
  0
VERTEX
  5
411
  8
0
  6
CONTINUOUS
 62
     8
 10
126.8840690788
 20
386.4396245343
 30
0.0
  0
VERTEX
  5
412
  8
0
  6
CONTINUOUS
 62
     8
 10
127.7721675219
 20
384.3203585003
 30
0.0
  0
VERTEX
  5
413
  8
0
  6
CONTINUOUS
 62
     8
 10
128.9031324186
 20
382.4237795581
 30
0.0
  0
SEQEND
  5
4C0
  8
0
  6
CONTINUOUS
 62
     8
  0
POLYLINE
  5
1D5
  8
0
  6
CONTINUOUS
 62
     8
 66
     1
 10
0.0
 20
0.0
 30
0.0
 70
   128
  0
VERTEX
  5
414
  8
0
  6
CONTINUOUS
 62
     8
 10
168.8932747153
 20
396.5351463692
 30
0.0
  0
VERTEX
  5
415
  8
0
  6
CONTINUOUS
 62
     8
 10
168.8434537586
 20
394.5380340701
 30
0.0
  0
VERTEX
  5
416
  8
0
  6
CONTINUOUS
 62
     8
 10
168.6883685699
 20
392.500605445
 30
0.0
  0
VERTEX
  5
417
  8
0
  6
CONTINUOUS
 62
     8
 10
168.4397932838
 20
390.6050335431
 30
0.0
  0
VERTEX
  5
418
  8
0
  6
CONTINUOUS
 62
     8
 10
168.0723871035
 20
388.7230428173
 30
0.0
  0
VERTEX
  5
419
  8
0
  6
CONTINUOUS
 62
     8
 10
167.4187709401
 20
386.4396245343
 30
0.0
  0
VERTEX
  5
41A
  8
0
  6
CONTINUOUS
 62
     8
 10
166.530672497
 20
384.3203585003
 30
0.0
  0
VERTEX
  5
41B
  8
0
  6
CONTINUOUS
 62
     8
 10
165.3997076003
 20
382.4237795581
 30
0.0
  0
SEQEND
  5
4C1
  8
0
  6
CONTINUOUS
 62
     8
  0
ARC
  5
1D6
  8
0
  6
CONTINUOUS
 62
     8
 10
167.4297825634
 20
398.7246714286
 30
0.0
 40
1.463988598294407
 50
358.507833775
 51
86.3652790211
  0
ARC
  5
1D7
  8
0
  6
CONTINUOUS
 62
     8
 10
126.8730574555
 20
398.7246714286
 30
0.0
 40
1.463988598294441
 50
93.6347209789
 51
181.492166225
  0
LINE
  5
1D8
  8
0
  6
CONTINUOUS
 62
     8
 10
168.8932747153
 20
396.5351463692
 30
0.0
 11
168.8932747153
 21
398.6865487706
 31
0.0
  0
LINE
  5
1D9
  8
0
  6
CONTINUOUS
 62
     8
 10
125.4095653035
 20
396.5351463692
 30
0.0
 11
125.4095653035
 21
398.6865487706
 31
0.0
  0
LINE
  5
1DA
  8
0
  6
CONTINUOUS
 62
     8
 10
169.8876260689
 20
351.3692993199
 30
0.0
 11
169.8876260689
 21
361.6947341256
 31
0.0
  0
LINE
  5
1DB
  8
0
  6
CONTINUOUS
 62
     8
 10
124.4677355884
 20
351.3692993199
 30
0.0
 11
124.4677355884
 21
361.6947341256
 31
0.0
  0
ARC
  5
1DC
  8
0
  6
CONTINUOUS
 62
     8
 10
125.9589103978
 20
361.7038850867
 30
0.0
 40
1.49120288769863
 50
92.2662521198
 51
180.3516052341
  0
ARC
  5
1DD
  8
0
  6
CONTINUOUS
 62
     8
 10
168.3964512596
 20
361.7038850868
 30
0.0
 40
1.491202887646589
 50
359.648394764
 51
87.7337478821
  0
ARC
  5
1DE
  8
0
  6
CONTINUOUS
 62
     8
 10
147.1514200094
 20
379.3865487706
 30
0.0
 40
3.781418633081862
 50
121.9259804473
 51
58.0741458494
  0
LINE
  5
1DF
  8
0
  6
CONTINUOUS
 62
     8
 10
169.7546202771
 20
342.253321347
 30
0.0
 11
169.7546202771
 21
266.8442405412
 31
0.0
  0
LINE
  5
1E0
  8
0
  6
CONTINUOUS
 62
     8
 10
124.6007413802
 20
342.2533217924
 30
0.0
 11
124.6007413802
 21
266.8442405412
 31
0.0
  0
LINE
  5
1E1
  8
0
  6
CONTINUOUS
 62
     8
 10
143.7230212976
 20
376.31458828
 30
0.0
 11
143.7230212976
 21
376.2789028037
 31
0.0
  0
LINE
  5
1E2
  8
0
  6
CONTINUOUS
 62
     8
 10
150.5798187212
 20
376.31458828
 30
0.0
 11
150.5798187212
 21
376.2789028037
 31
0.0
  0
ARC
  5
1E3
  8
0
  6
CONTINUOUS
 62
     8
 10
129.0851626016
 20
368.5680232507
 30
0.0
 40
0.1829704413973781
 50
174.1889191336
 51
262.6683170406
  0
ARC
  5
1E4
  8
0
  6
CONTINUOUS
 62
     8
 10
165.2176774173
 20
368.5680232507
 30
0.0
 40
0.1829704413974064
 50
277.3316829594
 51
5.8110808664
  0
POLYLINE
  5
1E5
  8
0
  6
CONTINUOUS
 62
     8
 66
     1
 10
0.0
 20
0.0
 30
0.0
 70
   128
  0
VERTEX
  5
41C
  8
0
  6
CONTINUOUS
 62
     8
 10
124.4882294479
 20
368.5865487706
 30
0.0
  0
VERTEX
  5
41D
  8
0
  6
CONTINUOUS
 62
     8
 10
124.2275997972
 20
368.6349283028
 30
0.0
  0
VERTEX
  5
41E
  8
0
  6
CONTINUOUS
 62
     8
 10
124.1562436893
 20
368.8851344453
 30
0.0
  0
SEQEND
  5
4C2
  8
0
  6
CONTINUOUS
 62
     8
  0
POLYLINE
  5
1E6
  8
0
  6
CONTINUOUS
 62
     8
 66
     1
 10
0.0
 20
0.0
 30
0.0
 70
   128
  0
VERTEX
  5
41F
  8
0
  6
CONTINUOUS
 62
     8
 10
169.814610571
 20
368.5865487706
 30
0.0
  0
VERTEX
  5
420
  8
0
  6
CONTINUOUS
 62
     8
 10
170.0752402217
 20
368.6349283028
 30
0.0
  0
VERTEX
  5
421
  8
0
  6
CONTINUOUS
 62
     8
 10
170.1465963296
 20
368.8851344453
 30
0.0
  0
SEQEND
  5
4C3
  8
0
  6
CONTINUOUS
 62
     8
  0
ARC
  5
1E7
  8
0
  6
CONTINUOUS
 62
     8
 10
169.6160640784
 20
368.5850951039
 30
0.0
 40
0.1985518141290418
 50
270.4257203327
 51
0.4194860196
  0
ARC
  5
1E8
  8
0
  6
CONTINUOUS
 62
     8
 10
124.6867759405
 20
368.5850951039
 30
0.0
 40
0.198551814129084
 50
179.5805139804
 51
269.5742796673
  0
POLYLINE
  5
1E9
  8
0
  6
CONTINUOUS
 62
     8
 66
     1
 10
0.0
 20
0.0
 30
0.0
 70
   128
  0
VERTEX
  5
422
  8
0
  6
CONTINUOUS
 62
     8
 10
124.1776808287
 20
351.3398421887
 30
0.0
  0
VERTEX
  5
423
  8
0
  6
CONTINUOUS
 62
     8
 10
124.2231405605
 20
351.3515351025
 30
0.0
  0
VERTEX
  5
424
  8
0
  6
CONTINUOUS
 62
     8
 10
124.4677355884
 20
351.3692993199
 30
0.0
  0
SEQEND
  5
4C4
  8
0
  6
CONTINUOUS
 62
     8
  0
POLYLINE
  5
1EA
  8
0
  6
CONTINUOUS
 62
     8
 66
     1
 10
0.0
 20
0.0
 30
0.0
 70
   128
  0
VERTEX
  5
425
  8
0
  6
CONTINUOUS
 62
     8
 10
170.1776808287
 20
351.3398421887
 30
0.0
  0
VERTEX
  5
426
  8
0
  6
CONTINUOUS
 62
     8
 10
170.1322210968
 20
351.3515351025
 30
0.0
  0
VERTEX
  5
427
  8
0
  6
CONTINUOUS
 62
     8
 10
169.8876260689
 20
351.3692993199
 30
0.0
  0
SEQEND
  5
4C5
  8
0
  6
CONTINUOUS
 62
     8
  0
LINE
  5
1EB
  8
0
  6
CONTINUOUS
 62
     8
 10
124.4677355884
 20
361.6947341256
 30
0.0
 11
124.1776808287
 21
361.6939713596
 31
0.0
  0
LINE
  5
1EC
  8
0
  6
CONTINUOUS
 62
     8
 10
170.1776808287
 20
361.6939713596
 30
0.0
 11
169.8876260689
 21
361.6947341256
 31
0.0
  0
ARC
  5
1ED
  8
0
  6
CONTINUOUS
 62
     7
 10
44.275770928
 20
153.7902565124
 30
0.0
 40
87.10697492831551
 50
1.1095183273
 51
21.3416270192
  0
ARC
  5
1EE
  8
0
  6
CONTINUOUS
 62
     7
 10
250.0270690909
 20
153.7902565124
 30
0.0
 40
87.10697492831652
 50
158.6583729808
 51
178.8904816727
  0
ARC
  5
1EF
  8
0
  6
CONTINUOUS
 62
     7
 10
160.4089884041
 20
109.2479135929
 30
0.0
 40
2.297411308281344
 50
258.870365772
 51
10.829634228
  0
ARC
  5
1F0
  8
0
  6
CONTINUOUS
 62
     7
 10
133.8938516148
 20
109.2479135929
 30
0.0
 40
2.297411308281317
 50
169.170365772
 51
281.129634228
  0
POLYLINE
  5
1F1
  8
0
  6
CONTINUOUS
 62
     7
 66
     1
 10
0.0
 20
0.0
 30
0.0
 70
   128
  0
VERTEX
  5
428
  8
0
  6
CONTINUOUS
 62
     7
 10
162.9364259252
 20
155.4769557027
 30
0.0
  0
VERTEX
  5
429
  8
0
  6
CONTINUOUS
 62
     7
 10
162.8920586269
 20
152.4771822641
 30
0.0
  0
VERTEX
  5
42A
  8
0
  6
CONTINUOUS
 62
     7
 10
162.8775659441
 20
150.1840071373
 30
0.0
  0
SEQEND
  5
4C6
  8
0
  6
CONTINUOUS
 62
     7
  0
POLYLINE
  5
1F2
  8
0
  6
CONTINUOUS
 62
     7
 66
     1
 10
0.0
 20
0.0
 30
0.0
 70
   128
  0
VERTEX
  5
42B
  8
0
  6
CONTINUOUS
 62
     7
 10
131.3664140937
 20
155.4769557027
 30
0.0
  0
VERTEX
  5
42C
  8
0
  6
CONTINUOUS
 62
     7
 10
131.410781392
 20
152.4771822641
 30
0.0
  0
VERTEX
  5
42D
  8
0
  6
CONTINUOUS
 62
     7
 10
131.4252740747
 20
150.1840071373
 30
0.0
  0
SEQEND
  5
4C7
  8
0
  6
CONTINUOUS
 62
     7
  0
LINE
  5
1F3
  8
0
  6
CONTINUOUS
 62
     7
 10
131.4252740747
 20
150.1840071373
 30
0.0
 11
131.6373567357
 21
109.6795726943
 31
0.0
  0
LINE
  5
1F4
  8
0
  6
CONTINUOUS
 62
     7
 10
162.8775659441
 20
150.1840071373
 30
0.0
 11
162.6654832832
 21
109.6795726943
 31
0.0
  0
LINE
  5
1F5
  8
0
  6
CONTINUOUS
 62
     7
 10
159.9655202941
 20
106.9937097967
 30
0.0
 11
134.3373197247
 21
106.9937097967
 31
0.0
  0
ARC
  5
1F6
  8
0
  6
CONTINUOUS
 62
     7
 10
147.1514200094
 20
192.9937097967
 30
0.0
 40
23.00000000000001
 50
340.9612250536
 51
199.0387749464
  0
LINE
  5
1F7
  8
0
  6
CONTINUOUS
 62
     7
 10
131.3664140937
 20
155.4769557027
 30
0.0
 11
131.4252740747
 21
150.1840071373
 31
0.0
  0
LINE
  5
1F8
  8
0
  6
CONTINUOUS
 62
     7
 10
162.9364259252
 20
155.4769557027
 30
0.0
 11
162.8775659441
 21
150.1840071373
 31
0.0
  0
ARC
  5
1F9
  8
0
  6
CONTINUOUS
 62
     7
 10
308.4092795496
 20
165.5436059548
 30
0.0
 40
140.5446509374069
 50
170.2669163957
 51
180.5090735911
  0
ARC
  5
1FA
  8
0
  6
CONTINUOUS
 62
     7
 10
-14.6857837087
 20
165.4926339862
 30
0.0
 40
141.1760502721333
 50
359.5138908243
 51
9.7101191889
  0
LINE
  5
1FB
  8
0
  6
CONTINUOUS
 62
     7
 10
164.5163234534
 20
84.4450826511
 30
0.0
 11
147.1776808287
 21
84.4450826511
 31
0.0
  0
LINE
  5
1FC
  8
0
  6
CONTINUOUS
 62
     7
 10
147.1776808287
 20
84.4450826511
 30
0.0
 11
129.839038204
 21
84.4450826511
 31
0.0
  0
ARC
  5
1FD
  8
0
  6
CONTINUOUS
 62
     7
 10
165.0175885393
 20
87.1428104506
 30
0.0
 40
2.743902688956957
 50
259.4739087682
 51
10.4110912318
  0
ARC
  5
1FE
  8
0
  6
CONTINUOUS
 62
     7
 10
129.337773118
 20
87.1428104506
 30
0.0
 40
2.743902688956894
 50
169.5889087682
 51
280.5260912318
  0
LINE
  5
1FF
  8
0
  6
CONTINUOUS
 62
     7
 10
167.8297696978
 20
144.1634563002
 30
0.0
 11
167.7178794873
 21
88.4171239143
 31
0.0
  0
LINE
  5
200
  8
0
  6
CONTINUOUS
 62
     7
 10
167.7178794876
 20
88.4171240691
 30
0.0
 11
167.7163170077
 21
87.6386598438
 31
0.0
  0
LINE
  5
201
  8
0
  6
CONTINUOUS
 62
     7
 10
126.6374823903
 20
88.4170141845
 30
0.0
 11
126.5255919595
 21
144.1634563002
 31
0.0
  0
LINE
  5
202
  8
0
  6
CONTINUOUS
 62
     7
 10
126.6390446497
 20
87.6386598438
 30
0.0
 11
126.63748239
 21
88.4170143395
 31
0.0
  0
ARC
  5
203
  8
0
  6
CONTINUOUS
 62
     7
 10
147.1776808287
 20
192.9450826511
 30
0.0
 40
22.99999999999997
 50
0.0
 51
28.4398539787
  0
LINE
  5
204
  8
0
  6
CONTINUOUS
 62
     7
 10
167.8701761126
 20
164.2948817137
 30
0.0
 11
167.8297696978
 21
144.1634563002
 31
0.0
  0
LINE
  5
205
  8
0
  6
CONTINUOUS
 62
     7
 10
126.5255919595
 20
144.1634563002
 30
0.0
 11
126.4851855447
 21
164.2948817137
 31
0.0
  0
ARC
  5
206
  8
0
  6
CONTINUOUS
 62
     8
 10
44.2741565786
 20
153.7866145036
 30
0.0
 40
88.55865034620359
 50
1.1152792378
 51
21.3057463407
  0
ARC
  5
207
  8
0
  6
CONTINUOUS
 62
     8
 10
250.0286834403
 20
153.7866145036
 30
0.0
 40
88.55865034620017
 50
158.6942536593
 51
178.8847207622
  0
LINE
  5
208
  8
0
  6
CONTINUOUS
 62
     8
 10
134.3373197247
 20
108.4437097967
 30
0.0
 11
147.1514200094
 21
108.4437097967
 31
0.0
  0
POLYLINE
  5
209
  8
0
  6
CONTINUOUS
 62
     8
 66
     1
 10
0.0
 20
0.0
 30
0.0
 70
   128
  0
VERTEX
  5
42E
  8
0
  6
CONTINUOUS
 62
     8
 10
133.0873369285
 20
109.6871651766
 30
0.0
  0
VERTEX
  5
42F
  8
0
  6
CONTINUOUS
 62
     8
 10
133.1065989925
 20
109.1358055947
 30
0.0
  0
VERTEX
  5
430
  8
0
  6
CONTINUOUS
 62
     8
 10
133.1514555525
 20
108.8630379881
 30
0.0
  0
VERTEX
  5
431
  8
0
  6
CONTINUOUS
 62
     8
 10
133.1928569745
 20
108.7307890805
 30
0.0
  0
VERTEX
  5
432
  8
0
  6
CONTINUOUS
 62
     8
 10
133.2214524822
 20
108.6676708711
 30
0.0
  0
VERTEX
  5
433
  8
0
  6
CONTINUOUS
 62
     8
 10
133.2608319919
 20
108.610490471
 30
0.0
  0
VERTEX
  5
434
  8
0
  6
CONTINUOUS
 62
     8
 10
133.3176295521
 20
108.57130516
 30
0.0
  0
VERTEX
  5
435
  8
0
  6
CONTINUOUS
 62
     8
 10
133.7840749279
 20
108.4602493233
 30
0.0
  0
VERTEX
  5
436
  8
0
  6
CONTINUOUS
 62
     8
 10
134.3373197302
 20
108.4437101011
 30
0.0
  0
SEQEND
  5
4C8
  8
0
  6
CONTINUOUS
 62
     8
  0
LINE
  5
20A
  8
0
  6
CONTINUOUS
 62
     8
 10
132.8752541985
 20
150.1915992848
 30
0.0
 11
133.0873368594
 21
109.6871648419
 31
0.0
  0
POLYLINE
  5
20B
  8
0
  6
CONTINUOUS
 62
     8
 66
     1
 10
0.0
 20
0.0
 30
0.0
 70
   128
  0
VERTEX
  5
437
  8
0
  6
CONTINUOUS
 62
     8
 10
132.81603012
 20
155.5103258813
 30
0.0
  0
VERTEX
  5
438
  8
0
  6
CONTINUOUS
 62
     8
 10
132.857456245
 20
152.8511037159
 30
0.0
  0
VERTEX
  5
439
  8
0
  6
CONTINUOUS
 62
     8
 10
132.8752542548
 20
150.191599054
 30
0.0
  0
SEQEND
  5
4C9
  8
0
  6
CONTINUOUS
 62
     8
  0
ARC
  5
20C
  8
0
  6
CONTINUOUS
 62
     8
 10
147.1514200094
 20
192.9937097967
 30
0.0
 40
21.55000000000007
 50
90.0
 51
199.0387749464
  0
POLYLINE
  5
20D
  8
0
  6
CONTINUOUS
 62
     8
 66
     1
 10
0.0
 20
0.0
 30
0.0
 70
   128
  0
VERTEX
  5
43A
  8
0
  6
CONTINUOUS
 62
     8
 10
161.4868098989
 20
155.5103258813
 30
0.0
  0
VERTEX
  5
43B
  8
0
  6
CONTINUOUS
 62
     8
 10
161.4453837739
 20
152.8511037159
 30
0.0
  0
VERTEX
  5
43C
  8
0
  6
CONTINUOUS
 62
     8
 10
161.4275857641
 20
150.191599054
 30
0.0
  0
SEQEND
  5
4CA
  8
0
  6
CONTINUOUS
 62
     8
  0
LINE
  5
20E
  8
0
  6
CONTINUOUS
 62
     8
 10
161.4275858204
 20
150.1915992848
 30
0.0
 11
161.2155031595
 21
109.6871648419
 31
0.0
  0
POLYLINE
  5
20F
  8
0
  6
CONTINUOUS
 62
     8
 66
     1
 10
0.0
 20
0.0
 30
0.0
 70
   128
  0
VERTEX
  5
43D
  8
0
  6
CONTINUOUS
 62
     8
 10
161.2155030904
 20
109.6871651766
 30
0.0
  0
VERTEX
  5
43E
  8
0
  6
CONTINUOUS
 62
     8
 10
161.1962410264
 20
109.1358055947
 30
0.0
  0
VERTEX
  5
43F
  8
0
  6
CONTINUOUS
 62
     8
 10
161.1513844664
 20
108.8630379881
 30
0.0
  0
VERTEX
  5
440
  8
0
  6
CONTINUOUS
 62
     8
 10
161.1099830443
 20
108.7307890805
 30
0.0
  0
VERTEX
  5
441
  8
0
  6
CONTINUOUS
 62
     8
 10
161.0813875367
 20
108.6676708711
 30
0.0
  0
VERTEX
  5
442
  8
0
  6
CONTINUOUS
 62
     8
 10
161.042008027
 20
108.610490471
 30
0.0
  0
VERTEX
  5
443
  8
0
  6
CONTINUOUS
 62
     8
 10
160.9852104668
 20
108.57130516
 30
0.0
  0
VERTEX
  5
444
  8
0
  6
CONTINUOUS
 62
     8
 10
160.518765091
 20
108.4602493233
 30
0.0
  0
VERTEX
  5
445
  8
0
  6
CONTINUOUS
 62
     8
 10
159.9655202886
 20
108.4437101011
 30
0.0
  0
SEQEND
  5
4CB
  8
0
  6
CONTINUOUS
 62
     8
  0
LINE
  5
210
  8
0
  6
CONTINUOUS
 62
     8
 10
159.9655202941
 20
108.4437097967
 30
0.0
 11
147.1514200094
 21
108.4437097967
 31
0.0
  0
ARC
  5
211
  8
0
  6
CONTINUOUS
 62
     8
 10
147.1514200094
 20
192.9937097967
 30
0.0
 40
21.55000000000009
 50
340.9612250536
 51
90.0
  0
POLYLINE
  5
212
  8
0
  6
CONTINUOUS
 62
     8
 66
     1
 10
0.0
 20
0.0
 30
0.0
 70
   128
  0
VERTEX
  5
446
  8
0
  6
CONTINUOUS
 62
     8
 10
169.8876260689
 20
189.3038758205
 30
0.0
  0
VERTEX
  5
447
  8
0
  6
CONTINUOUS
 62
     8
 10
169.860371035
 20
189.3084199453
 30
0.0
  0
VERTEX
  5
448
  8
0
  6
CONTINUOUS
 62
     8
 10
169.8544112817
 20
189.3093934027
 30
0.0
  0
SEQEND
  5
4CC
  8
0
  6
CONTINUOUS
 62
     8
  0
POLYLINE
  5
213
  8
0
  6
CONTINUOUS
 62
     8
 66
     1
 10
0.0
 20
0.0
 30
0.0
 70
   128
  0
VERTEX
  5
449
  8
0
  6
CONTINUOUS
 62
     8
 10
127.9870086749
 20
144.1659190691
 30
0.0
  0
VERTEX
  5
44A
  8
0
  6
CONTINUOUS
 62
     8
 10
127.9939843521
 20
141.1659273175
 30
0.0
  0
VERTEX
  5
44B
  8
0
  6
CONTINUOUS
 62
     8
 10
128.021893228
 20
129.1659603428
 30
0.0
  0
VERTEX
  5
44C
  8
0
  6
CONTINUOUS
 62
     8
 10
128.1164553914
 20
88.4190606586
 30
0.0
  0
SEQEND
  5
4CD
  8
0
  6
CONTINUOUS
 62
     8
  0
POLYLINE
  5
214
  8
0
  6
CONTINUOUS
 62
     8
 66
     1
 10
0.0
 20
0.0
 30
0.0
 70
   128
  0
VERTEX
  5
44D
  8
0
  6
CONTINUOUS
 62
     8
 10
127.940105741
 20
164.2972979011
 30
0.0
  0
VERTEX
  5
44E
  8
0
  6
CONTINUOUS
 62
     8
 10
127.9470859148
 20
161.2973061551
 30
0.0
  0
VERTEX
  5
44F
  8
0
  6
CONTINUOUS
 62
     8
 10
127.9610894731
 20
155.2973227919
 30
0.0
  0
VERTEX
  5
450
  8
0
  6
CONTINUOUS
 62
     8
 10
127.9870086749
 20
144.1659190691
 30
0.0
  0
SEQEND
  5
4CE
  8
0
  6
CONTINUOUS
 62
     8
  0
ARC
  5
215
  8
0
  6
CONTINUOUS
 62
     8
 10
8.0240425236
 20
166.6485118036
 30
0.0
 40
119.9391113206118
 50
358.8767361899
 51
6.615490108
  0
ARC
  5
216
  8
0
  6
CONTINUOUS
 62
     8
 10
287.2008210408
 20
166.6230158441
 30
0.0
 40
120.8079538208806
 50
173.316570851
 51
181.1030900749
  0
POLYLINE
  5
217
  8
0
  6
CONTINUOUS
 62
     8
 66
     1
 10
0.0
 20
0.0
 30
0.0
 70
   128
  0
VERTEX
  5
451
  8
0
  6
CONTINUOUS
 62
     8
 10
166.3683529824
 20
144.1659190691
 30
0.0
  0
VERTEX
  5
452
  8
0
  6
CONTINUOUS
 62
     8
 10
166.3753315891
 20
147.1659108088
 30
0.0
  0
VERTEX
  5
453
  8
0
  6
CONTINUOUS
 62
     8
 10
166.4032980119
 20
159.1658775598
 30
0.0
  0
VERTEX
  5
454
  8
0
  6
CONTINUOUS
 62
     8
 10
166.4152559163
 20
164.2972979011
 30
0.0
  0
SEQEND
  5
4CF
  8
0
  6
CONTINUOUS
 62
     8
  0
POLYLINE
  5
218
  8
0
  6
CONTINUOUS
 62
     8
 66
     1
 10
0.0
 20
0.0
 30
0.0
 70
   128
  0
VERTEX
  5
455
  8
0
  6
CONTINUOUS
 62
     8
 10
166.2389065563
 20
88.4191704638
 30
0.0
  0
VERTEX
  5
456
  8
0
  6
CONTINUOUS
 62
     8
 10
166.2569875414
 20
96.3473056075
 30
0.0
  0
VERTEX
  5
457
  8
0
  6
CONTINUOUS
 62
     8
 10
166.3126912167
 20
120.2566327889
 30
0.0
  0
VERTEX
  5
458
  8
0
  6
CONTINUOUS
 62
     8
 10
166.3683529824
 20
144.1659190691
 30
0.0
  0
SEQEND
  5
4D0
  8
0
  6
CONTINUOUS
 62
     8
  0
POLYLINE
  5
219
  8
0
  6
CONTINUOUS
 62
     8
 66
     1
 10
0.0
 20
0.0
 30
0.0
 70
   128
  0
VERTEX
  5
459
  8
0
  6
CONTINUOUS
 62
     8
 10
147.1776820421
 20
85.8739388679
 30
0.0
  0
VERTEX
  5
45A
  8
0
  6
CONTINUOUS
 62
     8
 10
155.7990541551
 20
85.8953431972
 30
0.0
  0
VERTEX
  5
45B
  8
0
  6
CONTINUOUS
 62
     8
 10
164.5250881043
 20
85.9266015911
 30
0.0
  0
SEQEND
  5
4D1
  8
0
  6
CONTINUOUS
 62
     8
  0
POLYLINE
  5
21A
  8
0
  6
CONTINUOUS
 62
     8
 66
     1
 10
0.0
 20
0.0
 30
0.0
 70
   128
  0
VERTEX
  5
45C
  8
0
  6
CONTINUOUS
 62
     8
 10
129.830273553
 20
85.9266015911
 30
0.0
  0
VERTEX
  5
45D
  8
0
  6
CONTINUOUS
 62
     8
 10
138.5563075022
 20
85.8953431972
 30
0.0
  0
VERTEX
  5
45E
  8
0
  6
CONTINUOUS
 62
     8
 10
147.1776796152
 20
85.8739388679
 30
0.0
  0
SEQEND
  5
4D2
  8
0
  6
CONTINUOUS
 62
     8
  0
POLYLINE
  5
21B
  8
0
  6
CONTINUOUS
 62
     8
 66
     1
 10
0.0
 20
0.0
 30
0.0
 70
   128
  0
VERTEX
  5
45F
  8
0
  6
CONTINUOUS
 62
     8
 10
128.117167546
 20
88.4204835518
 30
0.0
  0
VERTEX
  5
460
  8
0
  6
CONTINUOUS
 62
     8
 10
128.1171742025
 20
88.4190622385
 30
0.0
  0
VERTEX
  5
461
  8
0
  6
CONTINUOUS
 62
     8
 10
128.1210586388
 20
87.6363540781
 30
0.0
  0
SEQEND
  5
4D3
  8
0
  6
CONTINUOUS
 62
     8
  0
POLYLINE
  5
21C
  8
0
  6
CONTINUOUS
 62
     8
 66
     1
 10
0.0
 20
0.0
 30
0.0
 70
   128
  0
VERTEX
  5
462
  8
0
  6
CONTINUOUS
 62
     8
 10
128.1210586388
 20
87.6363540781
 30
0.0
  0
VERTEX
  5
463
  8
0
  6
CONTINUOUS
 62
     8
 10
128.172236624
 20
86.7563282299
 30
0.0
  0
VERTEX
  5
464
  8
0
  6
CONTINUOUS
 62
     8
 10
128.3018617018
 20
86.3285918614
 30
0.0
  0
VERTEX
  5
465
  8
0
  6
CONTINUOUS
 62
     8
 10
128.392066169
 20
86.1978917394
 30
0.0
  0
VERTEX
  5
466
  8
0
  6
CONTINUOUS
 62
     8
 10
128.5213122825
 20
86.1077088235
 30
0.0
  0
VERTEX
  5
467
  8
0
  6
CONTINUOUS
 62
     8
 10
128.73784927
 20
86.024796188
 30
0.0
  0
VERTEX
  5
468
  8
0
  6
CONTINUOUS
 62
     8
 10
129.830273553
 20
85.9266015911
 30
0.0
  0
SEQEND
  5
4D4
  8
0
  6
CONTINUOUS
 62
     8
  0
LINE
  5
21D
  8
0
  6
CONTINUOUS
 62
     8
 10
166.2343030185
 20
87.6363540781
 30
0.0
 11
166.2381941113
 21
88.4204835518
 31
0.0
  0
POLYLINE
  5
21E
  8
0
  6
CONTINUOUS
 62
     8
 66
     1
 10
0.0
 20
0.0
 30
0.0
 70
   128
  0
VERTEX
  5
469
  8
0
  6
CONTINUOUS
 62
     8
 10
164.5250881043
 20
85.9266015911
 30
0.0
  0
VERTEX
  5
46A
  8
0
  6
CONTINUOUS
 62
     8
 10
165.6175123873
 20
86.024796188
 30
0.0
  0
VERTEX
  5
46B
  8
0
  6
CONTINUOUS
 62
     8
 10
165.8340493748
 20
86.1077088235
 30
0.0
  0
VERTEX
  5
46C
  8
0
  6
CONTINUOUS
 62
     8
 10
165.9632954883
 20
86.1978917394
 30
0.0
  0
VERTEX
  5
46D
  8
0
  6
CONTINUOUS
 62
     8
 10
166.0534999555
 20
86.3285918614
 30
0.0
  0
VERTEX
  5
46E
  8
0
  6
CONTINUOUS
 62
     8
 10
166.1831250333
 20
86.7563282299
 30
0.0
  0
VERTEX
  5
46F
  8
0
  6
CONTINUOUS
 62
     8
 10
166.2343030185
 20
87.6363540781
 30
0.0
  0
SEQEND
  5
4D5
  8
0
  6
CONTINUOUS
 62
     8
  0
ENDSEC
  0
EOF
