  0
SECTION
  2
HEADER
  9
$ACADVER
  1
AC1015
  9
$ACADMAINTVER
 70
     6
  9
$DWGCODEPAGE
  3
ANSI_1252
  9
$INSBASE
 10
0.0
 20
0.0
 30
0.0
  9
$EXTMIN
 10
0.0
 20
0.0
 30
0.0
  9
$EXTMAX
 10
594.0
 20
841.0
 30
0.0
  9
$LIMMIN
 10
0.0
 20
0.0
  9
$LIMMAX
 10
594.0
 20
841.0
  9
$ORTHOMODE
 70
     0
  9
$REGENMODE
 70
     1
  9
$FILLMODE
 70
     1
  9
$QTEXTMODE
 70
     0
  9
$MIRRTEXT
 70
     1
  9
$LTSCALE
 40
1.0
  9
$ATTMODE
 70
     1
  9
$TEXTSIZE
 40
10.0
  9
$TRACEWID
 40
1.0
  9
$TEXTSTYLE
  7
Standard
  9
$CLAYER
  8
0
  9
$CELTYPE
  6
ByLayer
  9
$CECOLOR
 62
   256
  9
$CELTSCALE
 40
1.0
  9
$DISPSILH
 70
     0
  9
$DIMSCALE
 40
1.0
  9
$DIMASZ
 40
2.5
  9
$DIMEXO
 40
0.0
  9
$DIMDLI
 40
3.75
  9
$DIMRND
 40
0.0
  9
$DIMDLE
 40
0.0
  9
$DIMEXE
 40
1.0
  9
$DIMTP
 40
0.0
  9
$DIMTM
 40
0.0
  9
$DIMTXT
 40
3.5
  9
$DIMCEN
 40
2.5
  9
$DIMTSZ
 40
0.0
  9
$DIMTOL
 70
     0
  9
$DIMLIM
 70
     0
  9
$DIMTIH
 70
     1
  9
$DIMTOH
 70
     1
  9
$DIMSE1
 70
     0
  9
$DIMSE2
 70
     0
  9
$DIMTAD
 70
     1
  9
$DIMZIN
 70
     0
  9
$DIMBLK
  1

  9
$DIMASO
 70
     1
  9
$DIMSHO
 70
     1
  9
$DIMPOST
  1

  9
$DIMAPOST
  1

  9
$DIMALT
 70
     0
  9
$DIMALTD
 70
     3
  9
$DIMALTF
 40
0.0393700787
  9
$DIMLFAC
 40
2.0
  9
$DIMTOFL
 70
     1
  9
$DIMTVP
 40
0.0
  9
$DIMTIX
 70
     0
  9
$DIMSOXD
 70
     0
  9
$DIMSAH
 70
     0
  9
$DIMBLK1
  1

  9
$DIMBLK2
  1

  9
$DIMSTYLE
  2
ISO-25
  9
$DIMCLRD
 70
     0
  9
$DIMCLRE
 70
     0
  9
$DIMCLRT
 70
     0
  9
$DIMTFAC
 40
1.0
  9
$DIMGAP
 40
1.5
  9
$DIMJUST
 70
     0
  9
$DIMSD1
 70
     0
  9
$DIMSD2
 70
     0
  9
$DIMTOLJ
 70
     0
  9
$DIMTZIN
 70
     0
  9
$DIMALTZ
 70
     0
  9
$DIMALTTZ
 70
     0
  9
$DIMUPT
 70
     0
  9
$DIMDEC
 70
     2
  9
$DIMTDEC
 70
     2
  9
$DIMALTU
 70
     2
  9
$DIMALTTD
 70
     3
  9
$DIMTXSTY
  7
Standard
  9
$DIMAUNIT
 70
     0
  9
$DIMADEC
 70
     2
  9
$DIMALTRND
 40
0.0
  9
$DIMAZIN
 70
     0
  9
$DIMDSEP
 70
    44
  9
$DIMATFIT
 70
     3
  9
$DIMFRAC
 70
     0
  9
$DIMLDRBLK
  1

  9
$DIMLUNIT
 70
     2
  9
$DIMLWD
 70
    -2
  9
$DIMLWE
 70
    -2
  9
$DIMTMOVE
 70
     0
  9
$LUNITS
 70
     2
  9
$LUPREC
 70
     2
  9
$SKETCHINC
 40
1.0
  9
$FILLETRAD
 40
10.0
  9
$AUNITS
 70
     0
  9
$AUPREC
 70
     2
  9
$MENU
  1
.
  9
$ELEVATION
 40
0.0
  9
$PELEVATION
 40
0.0
  9
$THICKNESS
 40
0.0
  9
$LIMCHECK
 70
     0
  9
$CHAMFERA
 40
0.0
  9
$CHAMFERB
 40
0.0
  9
$CHAMFERC
 40
0.0
  9
$CHAMFERD
 40
0.0
  9
$SKPOLY
 70
     0
  9
$TDCREATE
 40
2460006.383932535
  9
$TDUCREATE
 40
2460006.342265868
  9
$TDUPDATE
 40
2460006.383933762
  9
$TDUUPDATE
 40
2460006.342267095
  9
$TDINDWG
 40
0.0000000116
  9
$TDUSRTIMER
 40
0.0000000116
  9
$USRTIMER
 70
     1
  9
$ANGBASE
 50
0.0
  9
$ANGDIR
 70
     0
  9
$PDMODE
 70
     0
  9
$PDSIZE
 40
-1.0
  9
$PLINEWID
 40
0.0
  9
$SPLFRAME
 70
     0
  9
$SPLINETYPE
 70
     6
  9
$SPLINESEGS
 70
     8
  9
$HANDSEED
  5
167
  9
$SURFTAB1
 70
     6
  9
$SURFTAB2
 70
     6
  9
$SURFTYPE
 70
     6
  9
$SURFU
 70
     6
  9
$SURFV
 70
     6
  9
$UCSBASE
  2

  9
$UCSNAME
  2

  9
$UCSORG
 10
0.0
 20
0.0
 30
0.0
  9
$UCSXDIR
 10
1.0
 20
0.0
 30
0.0
  9
$UCSYDIR
 10
0.0
 20
1.0
 30
0.0
  9
$UCSORTHOREF
  2

  9
$UCSORTHOVIEW
 70
     0
  9
$UCSORGTOP
 10
0.0
 20
0.0
 30
0.0
  9
$UCSORGBOTTOM
 10
0.0
 20
0.0
 30
0.0
  9
$UCSORGLEFT
 10
0.0
 20
0.0
 30
0.0
  9
$UCSORGRIGHT
 10
0.0
 20
0.0
 30
0.0
  9
$UCSORGFRONT
 10
0.0
 20
0.0
 30
0.0
  9
$UCSORGBACK
 10
0.0
 20
0.0
 30
0.0
  9
$PUCSBASE
  2

  9
$PUCSNAME
  2

  9
$PUCSORG
 10
0.0
 20
0.0
 30
0.0
  9
$PUCSXDIR
 10
1.0
 20
0.0
 30
0.0
  9
$PUCSYDIR
 10
0.0
 20
1.0
 30
0.0
  9
$PUCSORTHOREF
  2

  9
$PUCSORTHOVIEW
 70
     0
  9
$PUCSORGTOP
 10
0.0
 20
0.0
 30
0.0
  9
$PUCSORGBOTTOM
 10
0.0
 20
0.0
 30
0.0
  9
$PUCSORGLEFT
 10
0.0
 20
0.0
 30
0.0
  9
$PUCSORGRIGHT
 10
0.0
 20
0.0
 30
0.0
  9
$PUCSORGFRONT
 10
0.0
 20
0.0
 30
0.0
  9
$PUCSORGBACK
 10
0.0
 20
0.0
 30
0.0
  9
$USERI1
 70
     0
  9
$USERI2
 70
     0
  9
$USERI3
 70
     0
  9
$USERI4
 70
     0
  9
$USERI5
 70
     0
  9
$USERR1
 40
0.0
  9
$USERR2
 40
0.0
  9
$USERR3
 40
0.0
  9
$USERR4
 40
0.0
  9
$USERR5
 40
0.0
  9
$WORLDVIEW
 70
     1
  9
$SHADEDGE
 70
     3
  9
$SHADEDIF
 70
    70
  9
$TILEMODE
 70
     1
  9
$MAXACTVP
 70
    64
  9
$PINSBASE
 10
0.0
 20
0.0
 30
0.0
  9
$PLIMCHECK
 70
     0
  9
$PEXTMIN
 10
1.0000000000E+20
 20
1.0000000000E+20
 30
1.0000000000E+20
  9
$PEXTMAX
 10
-1.0000000000E+20
 20
-1.0000000000E+20
 30
-1.0000000000E+20
  9
$PLIMMIN
 10
0.0
 20
0.0
  9
$PLIMMAX
 10
420.0
 20
297.0
  9
$UNITMODE
 70
     0
  9
$VISRETAIN
 70
     1
  9
$PLINEGEN
 70
     0
  9
$PSLTSCALE
 70
     1
  9
$TREEDEPTH
 70
  3020
  9
$CMLSTYLE
  2
Standard
  9
$CMLJUST
 70
     0
  9
$CMLSCALE
 40
20.0
  9
$PROXYGRAPHICS
 70
     1
  9
$MEASUREMENT
 70
     1
  9
$CELWEIGHT
370
    -1
  9
$ENDCAPS
280
     0
  9
$JOINSTYLE
280
     0
  9
$LWDISPLAY
290
     1
  9
$INSUNITS
 70
     4
  9
$HYPERLINKBASE
  1

  9
$STYLESHEET
  1

  9
$XEDIT
290
     1
  9
$CEPSNTYPE
380
     0
  9
$PSTYLEMODE
290
     1
  9
$FINGERPRINTGUID
  2
{4e66fcb7-0fe1-421d-b79e-8699c5239cd4}
  9
$VERSIONGUID
  2
{FAEB1C32-E019-11D5-929B-00C0DF256EC4}
  9
$EXTNAMES
290
     1
  9
$PSVPSCALE
 40
0.0
  9
$OLESTARTUP
290
     0
  0
ENDSEC
  0
SECTION
  2
CLASSES
  0
CLASS
  1
ACDBDICTIONARYWDFLT
  2
AcDbDictionaryWithDefault
  3
ObjectDBX Classes
 90
        0
280
     0
281
     0
  0
CLASS
  1
VISUALSTYLE
  2
AcDbVisualStyle
  3
ObjectDBX Classes
 90
     4095
280
     0
281
     0
  0
CLASS
  1
MATERIAL
  2
AcDbMaterial
  3
ObjectDBX Classes
 90
     1153
280
     0
281
     0
  0
CLASS
  1
SCALE
  2
AcDbScale
  3
ObjectDBX Classes
 90
     1153
280
     0
281
     0
  0
CLASS
  1
TABLESTYLE
  2
AcDbTableStyle
  3
ObjectDBX Classes
 90
     4095
280
     0
281
     0
  0
CLASS
  1
MLEADERSTYLE
  2
AcDbMLeaderStyle
  3
ACDB_MLEADERSTYLE_CLASS
 90
     4095
280
     0
281
     0
  0
CLASS
  1
SUN
  2
AcDbSun
  3
SCENEOE
 90
     1153
280
     0
281
     0
  0
CLASS
  1
ACDBPLACEHOLDER
  2
AcDbPlaceHolder
  3
ObjectDBX Classes
 90
        0
280
     0
281
     0
  0
CLASS
  1
LAYOUT
  2
AcDbLayout
  3
ObjectDBX Classes
 90
        0
280
     0
281
     0
  0
ENDSEC
  0
SECTION
  2
TABLES
  0
TABLE
  2
VPORT
  5
8
330
0
100
AcDbSymbolTable
 70
     1
  0
VPORT
  5
29
330
8
100
AcDbSymbolTableRecord
100
AcDbViewportTableRecord
  2
*Active
 70
     0
 10
0.0
 20
0.0
 11
1.0
 21
1.0
 12
297.0
 22
420.5
 13
0.0
 23
0.0
 14
10.0
 24
10.0
 15
10.0
 25
10.0
 16
0.0
 26
0.0
 36
1.0
 17
0.0
 27
0.0
 37
0.0
 40
841.0
 41
0.7063020214
 42
50.0
 43
0.0
 44
0.0
 50
0.0
 51
0.0
 71
     0
 72
  2000
 73
     1
 74
     3
 75
     0
 76
     0
 77
     0
 78
     0
281
     0
 65
     1
110
0.0
120
0.0
130
0.0
111
1.0
121
0.0
131
0.0
112
0.0
122
1.0
132
0.0
 79
     0
146
0.0
  0
ENDTAB
  0
TABLE
  2
LTYPE
  5
5
330
0
100
AcDbSymbolTable
 70
     6
  0
LTYPE
  5
14
330
5
100
AcDbSymbolTableRecord
100
AcDbLinetypeTableRecord
  2
ByBlock
 70
     0
  3

 72
    65
 73
     0
 40
0.0
  0
LTYPE
  5
15
330
5
100
AcDbSymbolTableRecord
100
AcDbLinetypeTableRecord
  2
ByLayer
 70
     0
  3

 72
    65
 73
     0
 40
0.0
  0
LTYPE
  5
16
330
5
100
AcDbSymbolTableRecord
100
AcDbLinetypeTableRecord
  2
Continuous
 70
     0
  3
Solid line
 72
    65
 73
     0
 40
0.0
  0
LTYPE
  5
6E
330
5
100
AcDbSymbolTableRecord
100
AcDbLinetypeTableRecord
  2
HIDDEN
 70
     0
  3
Hidden __ __ __ __ __ __ __ __ __ __ __ __ __ __
 72
    65
 73
     2
 40
1.905
 49
1.27
 74
     0
 49
-0.635
 74
     0
  0
LTYPE
  5
6F
330
5
100
AcDbSymbolTableRecord
100
AcDbLinetypeTableRecord
  2
PHANTOM
 70
     0
  3
Phantom ______  __  __  ______  __  __  ______
 72
    65
 73
     6
 40
12.7
 49
6.35
 74
     0
 49
-1.27
 74
     0
 49
1.27
 74
     0
 49
-1.27
 74
     0
 49
1.27
 74
     0
 49
-1.27
 74
     0
  0
LTYPE
  5
70
330
5
100
AcDbSymbolTableRecord
100
AcDbLinetypeTableRecord
  2
CENTER
 70
     0
  3
Center ____ _ ____ _ ____ _ ____ _ ____ _ ____
 72
    65
 73
     4
 40
10.16
 49
6.35
 74
     0
 49
-1.27
 74
     0
 49
1.27
 74
     0
 49
-1.27
 74
     0
  0
LTYPE
  5
71
330
5
100
AcDbSymbolTableRecord
100
AcDbLinetypeTableRecord
  2
CENTERX2
 70
     0
  3
Center (2x) ________  __  ________  __  _____
 72
    65
 73
     4
 40
20.32
 49
12.7
 74
     0
 49
-2.54
 74
     0
 49
2.54
 74
     0
 49
-2.54
 74
     0
  0
LTYPE
  5
72
330
5
100
AcDbSymbolTableRecord
100
AcDbLinetypeTableRecord
  2
DOT2
 70
     0
  3
Dot (.5x) ........................................
 72
    65
 73
     2
 40
0.635
 49
0.0
 74
     0
 49
-0.635
 74
     0
  0
ENDTAB
  0
TABLE
  2
LAYER
  5
2
330
0
100
AcDbSymbolTable
 70
     1
  0
LAYER
  5
10
330
2
100
AcDbSymbolTableRecord
100
AcDbLayerTableRecord
  2
0
 70
     0
 62
     7
  6
Continuous
370
    -3
390
F
  0
ENDTAB
  0
TABLE
  2
STYLE
  5
3
330
0
100
AcDbSymbolTable
 70
     3
  0
STYLE
  5
11
330
3
100
AcDbSymbolTableRecord
100
AcDbTextStyleTableRecord
  2
Standard
 70
     0
 40
0.0
 41
1.0
 50
0.0
 71
     0
 42
10.0
  3
txt
  4

  0
STYLE
  5
76
330
3
100
AcDbSymbolTableRecord
100
AcDbTextStyleTableRecord
  2
SLDTEXTSTYLE0
 70
     0
 40
0.0
 41
0.96
 50
0.0
 71
     0
 42
10.0
  3
ISOCP3
  4

  0
STYLE
  5
8D
330
3
100
AcDbSymbolTableRecord
100
AcDbTextStyleTableRecord
  2
SLDTEXTSTYLE1
 70
     0
 40
0.0
 41
0.605
 50
0.0
 71
     0
 42
10.0
  3
TXT
  4

  0
ENDTAB
  0
TABLE
  2
VIEW
  5
6
330
0
100
AcDbSymbolTable
 70
     0
  0
ENDTAB
  0
TABLE
  2
UCS
  5
7
330
0
100
AcDbSymbolTable
 70
     0
  0
ENDTAB
  0
TABLE
  2
APPID
  5
9
330
0
100
AcDbSymbolTable
 70
     1
  0
APPID
  5
12
330
9
100
AcDbSymbolTableRecord
100
AcDbRegAppTableRecord
  2
ACAD
 70
     0
  0
ENDTAB
  0
TABLE
  2
DIMSTYLE
  5
A
330
0
100
AcDbSymbolTable
 70
     2
100
AcDbDimStyleTable
  0
DIMSTYLE
105
27
330
A
100
AcDbSymbolTableRecord
100
AcDbDimStyleTableRecord
  2
ISO-25
 70
     0
 41
2.5
 42
0.625
 43
3.75
 44
1.25
 73
     0
 74
     0
 77
     1
 78
     8
140
2.5
141
2.5
143
0.0393700787
147
0.625
171
     3
172
     1
178
     0
271
     2
272
     2
274
     3
278
    44
283
     0
284
     8
340
11
  0
DIMSTYLE
105
77
102
{ACAD_REACTORS
330
75
330
82
102
}
330
A
100
AcDbSymbolTableRecord
100
AcDbDimStyleTableRecord
  2
SLDDIMSTYLE0
 70
     0
 41
2.5
 44
0.0
 45
0.000000001
 73
     0
 74
     0
 77
     1
 78
    12
 79
     3
140
6.0
144
2.0
147
1.5
173
     1
178
     0
271
     2
272
     2
276
     2
284
    12
340
76
  0
ENDTAB
  0
TABLE
  2
BLOCK_RECORD
  5
1
330
0
100
AcDbSymbolTable
 70
     3
  0
BLOCK_RECORD
  5
1F
330
1
100
AcDbSymbolTableRecord
100
AcDbBlockTableRecord
  2
*Model_Space
340
22
  0
BLOCK_RECORD
  5
1B
330
1
100
AcDbSymbolTableRecord
100
AcDbBlockTableRecord
  2
*Paper_Space
340
1E
  0
BLOCK_RECORD
  5
23
330
1
100
AcDbSymbolTableRecord
100
AcDbBlockTableRecord
  2
*Paper_Space0
340
26
  0
BLOCK_RECORD
  5
78
330
1
100
AcDbSymbolTableRecord
100
AcDbBlockTableRecord
  2
_D
340
0
  0
BLOCK_RECORD
  5
83
330
1
100
AcDbSymbolTableRecord
100
AcDbBlockTableRecord
  2
_D_1
340
0
  0
ENDTAB
  0
ENDSEC
  0
SECTION
  2
BLOCKS
  0
BLOCK
  5
20
330
1F
100
AcDbEntity
  8
0
100
AcDbBlockBegin
  2
*Model_Space
 70
     0
 10
0.0
 20
0.0
 30
0.0
  3
*Model_Space
  1

  0
ENDBLK
  5
21
330
1F
100
AcDbEntity
  8
0
100
AcDbBlockEnd
  0
BLOCK
  5
1C
330
1B
100
AcDbEntity
 67
     1
  8
0
100
AcDbBlockBegin
  2
*Paper_Space
 70
     0
 10
0.0
 20
0.0
 30
0.0
  3
*Paper_Space
  1

  0
ENDBLK
  5
1D
330
1B
100
AcDbEntity
 67
     1
  8
0
100
AcDbBlockEnd
  0
BLOCK
  5
24
330
23
100
AcDbEntity
  8
0
100
AcDbBlockBegin
  2
*Paper_Space0
 70
     0
 10
0.0
 20
0.0
 30
0.0
  3
*Paper_Space0
  1

  0
ENDBLK
  5
25
330
23
100
AcDbEntity
  8
0
100
AcDbBlockEnd
  0
BLOCK
  5
79
330
78
100
AcDbEntity
  8
0
100
AcDbBlockBegin
  2
_D
 70
     0
 10
0.0
 20
0.0
 30
0.0
  3
_D
  1

  0
SOLID
  5
7B
330
78
100
AcDbEntity
  8
0
  6
Continuous
 62
     7
370
    18
100
AcDbTrace
 10
42.7614395004
 20
152.0299240879
 30
0.0
 11
42.4614395004
 21
149.5299240879
 31
0.0
 12
43.0614395004
 22
149.5299240879
 32
0.0
 13
43.0614395004
 23
149.5299240879
 33
0.0
  0
SOLID
  5
7C
330
78
100
AcDbEntity
  8
0
  6
Continuous
 62
     7
370
    18
100
AcDbTrace
 10
42.7614395004
 20
52.0299240879
 30
0.0
 11
43.0614395004
 21
54.5299240879
 31
0.0
 12
42.4614395004
 22
54.5299240879
 32
0.0
 13
42.4614395004
 23
54.5299240879
 33
0.0
  0
LINE
  5
7D
330
78
100
AcDbEntity
  8
0
  6
Continuous
 62
     7
370
     0
100
AcDbLine
 10
56.6850079902
 20
152.0299240879
 30
0.0
 11
41.7614395004
 21
152.0299240879
 31
0.0
  0
LINE
  5
7E
330
78
100
AcDbEntity
  8
0
  6
Continuous
 62
     7
370
     0
100
AcDbLine
 10
56.6850079902
 20
52.0299240879
 30
0.0
 11
41.7614395004
 21
52.0299240879
 31
0.0
  0
LINE
  5
7F
330
78
100
AcDbEntity
  8
0
  6
Continuous
 62
     7
370
     0
100
AcDbLine
 10
42.7614395004
 20
152.0299240879
 30
0.0
 11
42.7614395004
 21
52.0299240879
 31
0.0
  0
MTEXT
  5
80
330
78
100
AcDbEntity
  8
0
  6
Continuous
 62
     7
370
    18
100
AcDbMText
 10
35.0270332946
 20
94.3680541463
 30
0.0
 40
6.0
 41
0.0
 71
     1
 72
     1
  1
100
  7
SLDTEXTSTYLE0
 11
-7.044195017643634E-15
 21
1.0
 31
0.0
 73
     1
 44
1.0
  0
MTEXT
  5
81
330
78
100
AcDbEntity
  8
0
  6
Continuous
 62
     7
370
    18
100
AcDbMText
 10
35.0270332946
 20
105.7430548466
 30
0.0
 40
6.0
 41
0.0
 71
     1
 72
     1
  1
mm
  7
SLDTEXTSTYLE0
 11
-7.044195017643634E-15
 21
1.0
 31
0.0
 73
     1
 44
1.0
  0
ENDBLK
  5
7A
330
78
100
AcDbEntity
  8
0
100
AcDbBlockEnd
  0
BLOCK
  5
84
330
83
100
AcDbEntity
  8
0
100
AcDbBlockBegin
  2
_D_1
 70
     0
 10
0.0
 20
0.0
 30
0.0
  3
_D_1
  1

  0
SOLID
  5
86
330
83
100
AcDbEntity
  8
0
  6
Continuous
 62
     7
370
    18
100
AcDbTrace
 10
56.6850079902
 20
38.4602342313
 30
0.0
 11
59.1850079902
 21
38.1602342313
 31
0.0
 12
59.1850079902
 22
38.7602342313
 32
0.0
 13
59.1850079902
 23
38.7602342313
 33
0.0
  0
SOLID
  5
87
330
83
100
AcDbEntity
  8
0
  6
Continuous
 62
     7
370
    18
100
AcDbTrace
 10
156.6850079902
 20
38.4602342313
 30
0.0
 11
154.1850079902
 21
38.7602342313
 31
0.0
 12
154.1850079902
 22
38.1602342313
 32
0.0
 13
154.1850079902
 23
38.1602342313
 33
0.0
  0
LINE
  5
88
330
83
100
AcDbEntity
  8
0
  6
Continuous
 62
     7
370
     0
100
AcDbLine
 10
56.6850079902
 20
52.0299240879
 30
0.0
 11
56.6850079902
 21
37.4602342313
 31
0.0
  0
LINE
  5
89
330
83
100
AcDbEntity
  8
0
  6
Continuous
 62
     7
370
     0
100
AcDbLine
 10
156.6850079902
 20
52.0299240879
 30
0.0
 11
156.6850079902
 21
37.4602342313
 31
0.0
  0
LINE
  5
8A
330
83
100
AcDbEntity
  8
0
  6
Continuous
 62
     7
370
     0
100
AcDbLine
 10
56.6850079902
 20
38.4602342313
 30
0.0
 11
156.6850079902
 21
38.4602342313
 31
0.0
  0
MTEXT
  5
8B
330
83
100
AcDbEntity
  8
0
  6
Continuous
 62
     7
370
    18
100
AcDbMText
 10
93.9626484861
 20
46.1946404371
 30
0.0
 40
6.0
 41
0.0
 71
     1
 72
     1
  1
100
  7
SLDTEXTSTYLE0
 73
     1
 44
1.0
  0
MTEXT
  5
8C
330
83
100
AcDbEntity
  8
0
  6
Continuous
 62
     7
370
    18
100
AcDbMText
 10
105.3376491864
 20
46.1946404371
 30
0.0
 40
6.0
 41
0.0
 71
     1
 72
     1
  1
mm
  7
SLDTEXTSTYLE0
 73
     1
 44
1.0
  0
ENDBLK
  5
85
330
83
100
AcDbEntity
  8
0
100
AcDbBlockEnd
  0
ENDSEC
  0
SECTION
  2
ENTITIES
  0
LINE
  5
73
330
1F
100
AcDbEntity
  8
0
  6
Continuous
 62
     7
370
    18
100
AcDbLine
 10
56.6850079902
 20
152.0299240879
 30
0.0
 11
56.6850079902
 21
52.0299240879
 31
0.0
  0
LINE
  5
74
330
1F
100
AcDbEntity
  8
0
  6
Continuous
 62
     7
370
    18
100
AcDbLine
 10
56.6850079902
 20
52.0299240879
 30
0.0
 11
156.6850079902
 21
52.0299240879
 31
0.0
  0
DIMENSION
  5
75
330
1F
100
AcDbEntity
  8
0
  6
Continuous
 62
     7
370
    18
100
AcDbDimension
  2
_D
 10
42.7614395004
 20
52.0299240879
 30
0.0
 11
42.7614395004
 21
105.4472211621
 31
0.0
 70
   160
  1
<>mm
 71
     2
 42
-1.0
  3
SLDDIMSTYLE0
100
AcDbAlignedDimension
 13
56.6850079902
 23
152.0299240879
 33
0.0
 14
56.6850079902
 24
52.0299240879
 34
0.0
 50
90.0
100
AcDbRotatedDimension
  0
DIMENSION
  5
82
330
1F
100
AcDbEntity
  8
0
  6
Continuous
 62
     7
370
    18
100
AcDbDimension
  2
_D_1
 10
156.6850079902
 20
38.4602342313
 30
0.0
 11
105.0418155019
 21
38.4602342313
 31
0.0
 70
   160
  1
<>mm
 71
     2
 42
-1.0
  3
SLDDIMSTYLE0
100
AcDbAlignedDimension
 13
56.6850079902
 23
52.0299240879
 33
0.0
 14
156.6850079902
 24
52.0299240879
 34
0.0
100
AcDbRotatedDimension
  0
MTEXT
  5
8E
330
1F
100
AcDbEntity
  8
0
  6
Continuous
 62
     7
370
     0
100
AcDbMText
 10
412.8252631579
 20
48.4342449499
 30
0.0
 40
10.0
 41
0.0
 71
     1
 72
     1
  1
KLUDI GmbH & Co KG
  7
SLDTEXTSTYLE1
 73
     1
 44
1.0
  0
MTEXT
  5
8F
330
1F
100
AcDbEntity
  8
0
  6
Continuous
 62
     7
370
     0
100
AcDbMText
 10
210.0873490389
 20
48.4342449499
 30
0.0
 40
10.0
 41
0.0
 71
     1
 72
     1
  1
48 759 .. 65
  7
SLDTEXTSTYLE1
 73
     1
 44
1.0
  0
LINE
  5
90
330
1F
100
AcDbEntity
  8
0
  6
Continuous
 62
     7
370
    25
100
AcDbLine
 10
200.5037549424
 20
343.6751065773
 30
0.0
 11
200.5037549424
 21
343.7686536589
 31
0.0
  0
LINE
  5
91
330
1F
100
AcDbEntity
  8
0
  6
Continuous
 62
     7
370
    25
100
AcDbLine
 10
150.5037549424
 20
343.7686536578
 30
0.0
 11
150.5037549424
 21
343.6750904655
 31
0.0
  0
SPLINE
  5
92
330
1F
100
AcDbEntity
  8
0
  6
Continuous
 62
     7
370
    25
100
AcDbSpline
210
0.0
220
0.0
230
1.0
 70
     8
 71
     3
 72
    10
 73
     6
 74
     0
 42
0.00000001
 43
0.00000001
 40
0.0
 40
0.0
 40
0.0
 40
0.0
 40
0.2385395884042617
 40
0.6426336878872146
 40
1.0
 40
1.0
 40
1.0
 40
1.0
 10
157.553449275861
 20
316.7068986901224
 30
0.0
 10
157.7200487768371
 20
315.8933206960215
 30
0.0
 10
158.1688734454326
 20
313.7015141693545
 30
0.0
 10
158.631053438638
 20
310.2476475666168
 30
0.0
 10
158.8563861157669
 20
307.6067046398979
 30
0.0
 10
158.962138570652
 20
306.3672652418022
 30
0.0
  0
SPLINE
  5
93
330
1F
100
AcDbEntity
  8
0
  6
Continuous
 62
     7
370
    25
100
AcDbSpline
210
0.0
220
0.0
230
1.0
 70
     8
 71
     3
 72
    10
 73
     6
 74
     0
 42
0.00000001
 43
0.00000001
 40
0.0
 40
0.0
 40
0.0
 40
0.0
 40
0.23964070209771
 40
0.643150459256876
 40
1.0
 40
1.0
 40
1.0
 40
1.0
 10
193.456967848548
 20
316.7217393577768
 30
0.0
 10
193.2893316620066
 20
315.9032268386645
 30
0.0
 10
192.8394277457753
 20
313.7064935710414
 30
0.0
 10
192.3764245633462
 20
310.2476533975567
 30
0.0
 10
192.1511135852244
 20
307.6067065023683
 30
0.0
 10
192.0453713140521
 20
306.3672652418024
 30
0.0
  0
ARC
  5
94
330
1F
100
AcDbEntity
  8
0
  6
Continuous
 62
     7
370
    25
100
AcDbCircle
 10
175.5038443342
 20
343.7686351189
 30
0.0
 40
24.99989516968351
100
AcDbArc
 50
339.9506398181
 51
90.0002048718
  0
ARC
  5
95
330
1F
100
AcDbEntity
  8
0
  6
Continuous
 62
     7
370
    25
100
AcDbCircle
 10
175.5036655505
 20
343.7686351189
 30
0.0
 40
24.99989516968339
100
AcDbArc
 50
89.9997951282
 51
200.0493601819
  0
SPLINE
  5
96
330
1F
100
AcDbEntity
  8
0
  6
Continuous
 62
     7
370
    25
100
AcDbSpline
210
0.0
220
0.0
230
1.0
 70
     8
 71
     3
 72
    20
 73
    16
 74
     0
 42
0.00000001
 43
0.00000001
 40
0.0
 40
0.0
 40
0.0
 40
0.0
 40
0.2499999999999931
 40
0.2499999999999931
 40
0.3749999999999942
 40
0.3749999999999942
 40
0.4999999999999953
 40
0.4999999999999953
 40
0.6249999999999964
 40
0.6249999999999964
 40
0.7499999999999976
 40
0.7499999999999976
 40
0.8749999999999988
 40
0.8749999999999988
 40
1.0
 40
1.0
 40
1.0
 40
1.0
 10
191.5183390781079
 20
256.5493356587675
 30
0.0
 10
191.5163162012958
 20
256.1630085566019
 30
0.0
 10
191.5072907026075
 20
255.7771770031886
 30
0.0
 10
191.3787840985456
 20
255.2106041782636
 30
0.0
 10
191.3181215102875
 20
255.0259118779599
 30
0.0
 10
191.1477999224279
 20
254.678834901825
 30
0.0
 10
191.0370778930245
 20
254.5172147345968
 30
0.0
 10
190.7660645932147
 20
254.2448687619859
 30
0.0
 10
190.6034726265703
 20
254.1323604820673
 30
0.0
 10
190.2543743882778
 20
253.960484603181
 30
0.0
 10
190.0676880703414
 20
253.8994059876094
 30
0.0
 10
189.688694365495
 20
253.8142655093272
 30
0.0
 10
189.4950947621423
 20
253.7899985097361
 30
0.0
 10
189.1072049752544
 20
253.7646916377122
 30
0.0
 10
188.9128036404929
 20
253.7640384658985
 30
0.0
 10
188.7183774598152
 20
253.7640384658985
 30
0.0
  0
SPLINE
  5
97
330
1F
100
AcDbEntity
  8
0
  6
Continuous
 62
     7
370
    25
100
AcDbSpline
210
0.0
220
0.0
230
1.0
 70
     8
 71
     3
 72
    10
 73
     6
 74
     0
 42
0.00000001
 43
0.00000001
 40
0.0
 40
0.0
 40
0.0
 40
0.0
 40
0.5
 40
0.5
 40
1.0
 40
1.0
 40
1.0
 40
1.0
 10
158.9621397373581
 20
306.3672490845631
 30
0.0
 10
159.102398980797
 20
304.4248534385287
 30
0.0
 10
159.181518943087
 20
302.4786510766995
 30
0.0
 10
159.269309830183
 20
298.5818590800802
 30
0.0
 10
159.2792943070898
 20
296.6313512215648
 30
0.0
 10
159.2895074387305
 20
294.6808569912432
 30
0.0
  0
SPLINE
  5
98
330
1F
100
AcDbEntity
  8
0
  6
Continuous
 62
     7
370
    25
100
AcDbSpline
210
0.0
220
0.0
230
1.0
 70
     8
 71
     3
 72
    20
 73
    16
 74
     0
 42
0.00000001
 43
0.00000001
 40
0.0
 40
0.0
 40
0.0
 40
0.0
 40
0.2499999999999931
 40
0.2499999999999931
 40
0.3749999999999942
 40
0.3749999999999942
 40
0.4999999999999953
 40
0.4999999999999953
 40
0.6249999999999964
 40
0.6249999999999964
 40
0.7499999999999976
 40
0.7499999999999976
 40
0.8749999999999988
 40
0.8749999999999988
 40
1.0
 40
1.0
 40
1.0
 40
1.0
 10
159.4891708065972
 20
256.5493356587671
 30
0.0
 10
159.4911936834093
 20
256.1630085566015
 30
0.0
 10
159.5002191820976
 20
255.7771770031883
 30
0.0
 10
159.6287257861595
 20
255.2106041782634
 30
0.0
 10
159.6893883744176
 20
255.0259118779595
 30
0.0
 10
159.8597099622772
 20
254.6788349018246
 30
0.0
 10
159.9704319916806
 20
254.5172147345964
 30
0.0
 10
160.2414452914904
 20
254.2448687619856
 30
0.0
 10
160.4040372581349
 20
254.132360482067
 30
0.0
 10
160.7531354964274
 20
253.9604846031806
 30
0.0
 10
160.9398218143638
 20
253.8994059876091
 30
0.0
 10
161.3188155192102
 20
253.814265509327
 30
0.0
 10
161.5124151225628
 20
253.7899985097358
 30
0.0
 10
161.9003049094508
 20
253.7646916377119
 30
0.0
 10
162.0947062442123
 20
253.7640384658982
 30
0.0
 10
162.28913242489
 20
253.7640384658982
 30
0.0
  0
SPLINE
  5
99
330
1F
100
AcDbEntity
  8
0
  6
Continuous
 62
     7
370
    25
100
AcDbSpline
210
0.0
220
0.0
230
1.0
 70
     8
 71
     3
 72
    10
 73
     6
 74
     0
 42
0.00000001
 43
0.00000001
 40
0.0
 40
0.0
 40
0.0
 40
0.0
 40
0.5
 40
0.5
 40
1.0
 40
1.0
 40
1.0
 40
1.0
 10
192.0453701473461
 20
306.3672490845636
 30
0.0
 10
191.9051109039072
 20
304.4248534385291
 30
0.0
 10
191.8259909416172
 20
302.4786510766997
 30
0.0
 10
191.7382000545213
 20
298.5818590800804
 30
0.0
 10
191.7282155776145
 20
296.6313512215651
 30
0.0
 10
191.7180024459738
 20
294.6808569912434
 30
0.0
  0
LINE
  5
9A
330
1F
100
AcDbEntity
  8
0
  6
Continuous
 62
     7
370
    25
100
AcDbLine
 10
188.7183774598
 20
253.7640384659
 30
0.0
 11
175.5037549424
 21
253.7640384659
 31
0.0
  0
LINE
  5
9B
330
1F
100
AcDbEntity
  8
0
  6
Continuous
 62
     7
370
    25
100
AcDbLine
 10
162.2891324249
 20
253.7640384659
 30
0.0
 11
175.5037549424
 21
253.7640384659
 31
0.0
  0
LINE
  5
9C
330
1F
100
AcDbEntity
  8
0
  6
Continuous
 62
     7
370
    25
100
AcDbLine
 10
191.718002446
 20
294.6808569912
 30
0.0
 11
191.5183390781
 21
256.5493356588
 31
0.0
  0
LINE
  5
9D
330
1F
100
AcDbEntity
  8
0
  6
Continuous
 62
     7
370
    25
100
AcDbLine
 10
159.2895074387
 20
294.6808569912
 30
0.0
 11
159.4891708066
 21
256.5493356588
 31
0.0
  0
ARC
  5
9E
330
1F
100
AcDbEntity
  8
0
  6
Continuous
 62
     7
370
    25
100
AcDbCircle
 10
175.503965661
 20
343.673985548
 30
0.0
 40
24.99978988704425
100
AcDbArc
 50
332.8703105679
 51
351.824832578
  0
SPLINE
  5
9F
330
1F
100
AcDbEntity
  8
0
  6
Continuous
 62
     7
370
    25
100
AcDbSpline
210
0.0
220
0.0
230
1.0
 70
     8
 71
     3
 72
     9
 73
     5
 74
     0
 42
0.00000001
 43
0.00000001
 40
0.0
 40
0.0
 40
0.0
 40
0.0
 40
0.7375830094528708
 40
1.0
 40
1.0
 40
1.0
 40
1.0
 10
200.2497065529045
 20
340.1190168969818
 30
0.0
 10
200.3630960072748
 20
341.000593807433
 30
0.0
 10
200.5168271167459
 20
342.1958178014145
 30
0.0
 10
200.4808764438513
 20
343.3671862054347
 30
0.0
 10
200.4714423764621
 20
343.6745731768397
 30
0.0
  0
ARC
  5
A0
330
1F
100
AcDbEntity
  8
0
  6
Continuous
 62
     7
370
    25
100
AcDbCircle
 10
175.5035460052
 20
343.6739861141
 30
0.0
 40
24.99979173102653
100
AcDbArc
 50
188.1751681257
 51
207.1386769602
  0
SPLINE
  5
A1
330
1F
100
AcDbEntity
  8
0
  6
Continuous
 62
     7
370
    25
100
AcDbSpline
210
0.0
220
0.0
230
1.0
 70
     8
 71
     3
 72
     9
 73
     5
 74
     0
 42
0.00000001
 43
0.00000001
 40
0.0
 40
0.0
 40
0.0
 40
0.0
 40
0.5522642716076406
 40
0.9999999999999999
 40
0.9999999999999999
 40
0.9999999999999999
 40
0.9999999999999999
 10
150.5325349188892
 20
343.6757969146559
 30
0.0
 10
150.5328865124392
 20
343.0228915599233
 30
0.0
 10
150.533523152483
 20
341.8406580020072
 30
0.0
 10
150.6884410528436
 20
340.6514623005668
 30
0.0
 10
150.7578033318026
 20
340.1190168969813
 30
0.0
  0
SPLINE
  5
A2
330
1F
100
AcDbEntity
  8
0
  6
Continuous
 62
     7
370
    25
100
AcDbSpline
210
0.0
220
0.0
230
1.0
 70
    11
 71
     3
 72
    95
 73
    91
 74
     0
 42
0.00000001
 43
0.00000001
 40
0.0
 40
0.0
 40
0.0
 40
0.0
 40
0.03125
 40
0.03125
 40
0.0468749999999999
 40
0.0468749999999999
 40
0.0624999999999998
 40
0.0624999999999998
 40
0.0937499999999997
 40
0.0937499999999997
 40
0.1093749999999996
 40
0.1093749999999996
 40
0.1249999999999996
 40
0.1249999999999996
 40
0.1562499999999995
 40
0.1562499999999995
 40
0.1718749999999995
 40
0.1718749999999995
 40
0.1874999999999994
 40
0.2031249999999993
 40
0.2031249999999993
 40
0.2187499999999993
 40
0.2187499999999993
 40
0.2499999999999993
 40
0.2499999999999993
 40
0.2656249999999993
 40
0.2656249999999993
 40
0.2812499999999993
 40
0.2812499999999993
 40
0.3124999999999992
 40
0.3124999999999992
 40
0.3281249999999993
 40
0.3281249999999993
 40
0.3437499999999994
 40
0.3437499999999994
 40
0.3749999999999997
 40
0.3749999999999997
 40
0.4062499999999998
 40
0.4062499999999998
 40
0.4218749999999999
 40
0.4218749999999999
 40
0.4375000000000001
 40
0.4375000000000001
 40
0.46875
 40
0.46875
 40
0.5
 40
0.5
 40
0.53125
 40
0.53125
 40
0.546875
 40
0.546875
 40
0.5625
 40
0.578125
 40
0.578125
 40
0.5937499999999999
 40
0.5937499999999999
 40
0.6249999999999999
 40
0.6249999999999999
 40
0.6406249999999999
 40
0.6406249999999999
 40
0.6562499999999999
 40
0.6562499999999999
 40
0.6874999999999999
 40
0.6874999999999999
 40
0.7031249999999999
 40
0.7031249999999999
 40
0.7187499999999999
 40
0.7187499999999999
 40
0.7499999999999998
 40
0.7499999999999998
 40
0.7656249999999999
 40
0.7656249999999999
 40
0.78125
 40
0.7968750000000001
 40
0.7968750000000001
 40
0.8125000000000002
 40
0.8125000000000002
 40
0.8437500000000003
 40
0.8437500000000003
 40
0.8750000000000004
 40
0.8750000000000004
 40
0.9062500000000006
 40
0.9062500000000006
 40
0.9218750000000003
 40
0.9218750000000003
 40
0.9375000000000002
 40
0.9375000000000002
 40
0.9687500000000001
 40
0.9687500000000001
 40
1.0
 40
1.0
 40
1.0
 40
1.0
 10
167.4529055964184
 20
419.8891627856601
 30
0.0
 10
167.9865063087303
 20
420.4210411135069
 30
0.0
 10
168.5633806867897
 20
420.8916735103653
 30
0.0
 10
169.4909486829921
 20
421.5095095574126
 30
0.0
 10
169.8105912413137
 20
421.7006602833556
 30
0.0
 10
170.471259922856
 20
422.0526972240823
 30
0.0
 10
170.8134068347875
 20
422.2138355693749
 30
0.0
 10
171.8500892805295
 20
422.6410141227354
 30
0.0
 10
172.5612973920147
 20
422.8553476649234
 30
0.0
 10
173.6579695727524
 20
423.07211572312
 30
0.0
 10
174.0298321979048
 20
423.1269098293321
 30
0.0
 10
174.7782044804621
 20
423.1994160532746
 30
0.0
 10
175.1512718707284
 20
423.2169320314424
 30
0.0
 10
176.2672225893974
 20
423.2150237974649
 30
0.0
 10
177.0068852461198
 20
423.1416589358406
 30
0.0
 10
178.1097683666653
 20
422.9208911595391
 30
0.0
 10
178.4759496584097
 20
422.8285119127276
 30
0.0
 10
179.1899373508102
 20
422.6105846186006
 30
0.0
 10
179.8897164047894
 20
422.3587685864343
 30
0.0
 10
180.5615078060459
 20
422.0401997660439
 30
0.0
 10
181.2191147950641
 20
421.6877999889943
 30
0.0
 10
181.5424629304529
 20
421.4935450636018
 30
0.0
 10
182.4774745041128
 20
420.8667022844668
 30
0.0
 10
183.0511413857399
 20
420.3937867430587
 30
0.0
 10
183.8391186370576
 20
419.6040850561633
 30
0.0
 10
184.0896035309671
 20
419.3273667221195
 30
0.0
 10
184.565484398604
 20
418.746140936001
 30
0.0
 10
184.7892828912326
 20
418.4432889075981
 30
0.0
 10
185.4091793110325
 20
417.5123601149116
 30
0.0
 10
185.7586001927067
 20
416.8569413814866
 30
0.0
 10
186.1864323888731
 20
415.821322887183
 30
0.0
 10
186.3134001840227
 20
415.4652822779868
 30
0.0
 10
186.5298201599747
 20
414.7480585688127
 30
0.0
 10
186.6197027114491
 20
414.3864571721689
 30
0.0
 10
186.8356878515881
 20
413.2928996389458
 30
0.0
 10
186.9086517283693
 20
412.5522756008828
 30
0.0
 10
186.9069847942137
 20
411.0469521159368
 30
0.0
 10
186.8320982511457
 20
410.3044839821977
 30
0.0
 10
186.6135902680757
 20
409.2117907322668
 30
0.0
 10
186.5229259042211
 20
408.8507241426099
 30
0.0
 10
186.3051899675479
 20
408.1350531572576
 30
0.0
 10
186.1773691144502
 20
407.7790479877269
 30
0.0
 10
185.7465839864346
 20
406.743043523216
 30
0.0
 10
185.395437224087
 20
406.0884038605183
 30
0.0
 10
184.5668108596612
 20
404.850294113371
 30
0.0
 10
184.0843706379934
 20
404.2637504748068
 30
0.0
 10
183.0305463313074
 20
403.2125849693041
 30
0.0
 10
182.4559402998912
 20
402.7413382797426
 30
0.0
 10
181.5210351047553
 20
402.1176303507191
 30
0.0
 10
181.1966138708261
 20
401.9236799240664
 30
0.0
 10
180.5374145979466
 20
401.5723898001337
 30
0.0
 10
179.8644575598016
 20
401.2552455761623
 30
0.0
 10
179.1644470807753
 20
401.0052462749421
 30
0.0
 10
178.4507491243736
 20
400.7892184236042
 30
0.0
 10
178.0853466054406
 20
400.6978709337064
 30
0.0
 10
176.9800904340978
 20
400.4792182830253
 30
0.0
 10
176.239862513898
 20
400.4076912491367
 30
0.0
 10
175.1245877754881
 20
400.4084158132222
 30
0.0
 10
174.752001425911
 20
400.4267903694855
 30
0.0
 10
174.0051251487545
 20
400.5008428403478
 30
0.0
 10
173.6321192075295
 20
400.5566240369226
 30
0.0
 10
172.5348201181999
 20
400.776173652141
 30
0.0
 10
171.8242346945154
 20
400.9922931442335
 30
0.0
 10
170.7898439155523
 20
401.4213231219298
 30
0.0
 10
170.4484929322771
 20
401.5829859382757
 30
0.0
 10
169.7876037230401
 20
401.9370726889877
 30
0.0
 10
169.4681121017466
 20
402.1291665674739
 30
0.0
 10
168.5416512891348
 20
402.7494387363341
 30
0.0
 10
167.9663861008422
 20
403.2211815225721
 30
0.0
 10
167.1693010020425
 20
404.0192289630409
 30
0.0
 10
166.9172830525296
 20
404.2979787434468
 30
0.0
 10
166.4450915370498
 20
404.8744996201068
 30
0.0
 10
166.0029833084478
 20
405.4717931300622
 30
0.0
 10
165.6204575466303
 20
406.1102285783404
 30
0.0
 10
165.2682968866186
 20
406.7696312542779
 30
0.0
 10
165.1067849272438
 20
407.1116134652374
 30
0.0
 10
164.678034614537
 20
408.1493328555191
 30
0.0
 10
164.4631594505141
 20
408.8605522857445
 30
0.0
 10
164.1730889139239
 20
410.3211923625707
 30
0.0
 10
164.099076896521
 20
411.0770995584287
 30
0.0
 10
164.1003000464762
 20
412.5661205960635
 30
0.0
 10
164.1731160081606
 20
413.3055396211439
 30
0.0
 10
164.3924686787608
 20
414.4069024293576
 30
0.0
 10
164.4845751363724
 20
414.7736878423537
 30
0.0
 10
164.702104054647
 20
415.4887653011801
 30
0.0
 10
164.8277982998405
 20
415.8389907870924
 30
0.0
 10
165.2547297972396
 20
416.8681338283903
 30
0.0
 10
165.6067006895851
 20
417.5277723124105
 30
0.0
 10
166.443433904797
 20
418.7785576057435
 30
0.0
 10
166.9193048841065
 20
419.3572844578134
 30
0.0
 10
167.4529055964184
 20
419.8891627856601
 30
0.0
  0
ARC
  5
A3
330
1F
100
AcDbEntity
  8
0
  6
Continuous
 62
     7
370
    25
100
AcDbCircle
 10
175.5037549407
 20
373.9111644465
 30
0.0
 40
74.5
100
AcDbArc
 50
282.6567069364
 51
257.3362688676
  0
SPLINE
  5
A4
330
1F
100
AcDbEntity
  8
0
  6
Continuous
 62
     8
370
    18
100
AcDbSpline
210
0.0
220
0.0
230
1.0
 70
     8
 71
     3
 72
    12
 73
     8
 74
     0
 42
0.00000001
 43
0.00000001
 40
0.0
 40
0.0
 40
0.0
 40
0.0
 40
0.2381904313087751
 40
0.484048135972413
 40
0.722765936420753
 40
0.9703518114662463
 40
1.0
 40
1.0
 40
1.0
 40
1.0
 10
152.0188234641944
 20
335.191108400253
 30
0.0
 10
152.0324775429964
 20
335.1510935867802
 30
0.0
 10
152.0602252210044
 20
335.0697758958623
 30
0.0
 10
152.2773230267828
 20
334.4822728250301
 30
0.0
 10
152.6507930204219
 20
333.5986440094232
 30
0.0
 10
152.9828470296317
 20
332.8384793736635
 30
0.0
 10
153.2511545129318
 20
332.344487530507
 30
0.0
 10
153.2798480679272
 20
332.2916586569157
 30
0.0
  0
SPLINE
  5
A5
330
1F
100
AcDbEntity
  8
0
  6
Continuous
 62
     8
370
    18
100
AcDbSpline
210
0.0
220
0.0
230
1.0
 70
     8
 71
     3
 72
    15
 73
    11
 74
     0
 42
0.00000001
 43
0.00000001
 40
0.0
 40
0.0
 40
0.0
 40
0.0
 40
0.0884762307958559
 40
0.2094612940338669
 40
0.3642432795066487
 40
0.4640105465691448
 40
0.5815989891454664
 40
0.7292373083434613
 40
0.8802493767088247
 40
1.0
 40
1.0
 40
1.0
 40
1.0
 10
152.018823470182
 20
335.1911083850948
 30
0.0
 10
152.222644547661
 20
334.6588891444812
 30
0.0
 10
152.7051767063673
 20
333.3988972817419
 30
0.0
 10
153.5401256848646
 20
331.2060930382215
 30
0.0
 10
154.3290336464206
 20
328.9188194973497
 30
0.0
 10
155.0604051253939
 20
326.6359627644003
 30
0.0
 10
155.7350975202743
 20
324.3834582384403
 30
0.0
 10
156.4366820018676
 20
321.7957335183632
 30
0.0
 10
157.0920139558954
 20
319.180171776666
 30
0.0
 10
157.4119504714429
 20
317.4653260787571
 30
0.0
 10
157.553449275861
 20
316.7068986901224
 30
0.0
  0
SPLINE
  5
A6
330
1F
100
AcDbEntity
  8
0
  6
Continuous
 62
     8
370
    18
100
AcDbSpline
210
0.0
220
0.0
230
1.0
 70
     8
 71
     3
 72
    15
 73
    11
 74
     0
 42
0.00000001
 43
0.00000001
 40
0.0
 40
0.0
 40
0.0
 40
0.0
 40
0.0885455243680134
 40
0.2096253417239841
 40
0.3645285506777222
 40
0.4643739543228569
 40
0.5820544908226779
 40
0.7298084386638973
 40
0.8809387779542523
 40
1.0
 40
1.0
 40
1.0
 40
1.0
 10
198.9886864145216
 20
335.1911083850953
 30
0.0
 10
198.7848653320362
 20
334.6588891455498
 30
0.0
 10
198.3023331614776
 20
333.3988972853389
 30
0.0
 10
197.4673843087521
 20
331.206093014987
 30
0.0
 10
196.6784757888684
 20
328.9188195932259
 30
0.0
 10
195.9471058570046
 20
326.6359625302243
 30
0.0
 10
195.2724068209774
 20
324.383459421052
 30
0.0
 10
194.5708546603142
 20
321.7957278057958
 30
0.0
 10
193.9166291441608
 20
319.185083650081
 30
0.0
 10
193.5975650078215
 20
317.4752054710132
 30
0.0
 10
193.456967848548
 20
316.7217393577768
 30
0.0
  0
SPLINE
  5
A7
330
1F
100
AcDbEntity
  8
0
  6
Continuous
 62
     8
370
    18
100
AcDbSpline
210
0.0
220
0.0
230
1.0
 70
     8
 71
     3
 72
    22
 73
    18
 74
     0
 42
0.00000001
 43
0.00000001
 40
0.0
 40
0.0
 40
0.0
 40
0.0
 40
0.1249999999999998
 40
0.1249999999999998
 40
0.2499999999999997
 40
0.2499999999999997
 40
0.3749999999999996
 40
0.3749999999999996
 40
0.4999999999999996
 40
0.4999999999999996
 40
0.6249999999999996
 40
0.6249999999999996
 40
0.7499999999999997
 40
0.7499999999999997
 40
0.8749999999999997
 40
0.8749999999999997
 40
1.0
 40
1.0
 40
1.0
 40
1.0
 10
175.5037549423512
 20
367.32324720638
 30
0.0
 10
177.388466088522
 20
367.32324720638
 30
0.0
 10
179.2730731464191
 20
367.0959170516037
 30
0.0
 10
182.9343749767425
 20
366.1995882079719
 30
0.0
 10
184.7108675438666
 20
365.5306390213025
 30
0.0
 10
188.0540105483161
 20
363.7894011438547
 30
0.0
 10
189.6204763515215
 20
362.7172086176503
 30
0.0
 10
192.4536740237308
 20
360.2309515193031
 30
0.0
 10
193.7202494217256
 20
358.8170242574371
 30
0.0
 10
195.880969353516
 20
355.7283773627129
 30
0.0
 10
196.7749945557058
 20
354.0538283087384
 30
0.0
 10
198.139282454245
 20
350.5399784135805
 30
0.0
 10
198.609469804103
 20
348.7008716342672
 30
0.0
 10
199.0990603934545
 20
344.9633982087703
 30
0.0
 10
199.1184365939825
 20
343.0652379746716
 30
0.0
 10
198.7052434690606
 20
339.3185491281985
 30
0.0
 10
198.2726969633192
 20
337.4702274368556
 30
0.0
 10
197.6265603947759
 20
335.699743688921
 30
0.0
  0
SPLINE
  5
A8
330
1F
100
AcDbEntity
  8
0
  6
Continuous
 62
     8
370
    18
100
AcDbSpline
210
0.0
220
0.0
230
1.0
 70
     8
 71
     3
 72
    18
 73
    14
 74
     0
 42
0.00000001
 43
0.00000001
 40
0.0
 40
0.0
 40
0.0
 40
0.0
 40
0.0625000000000003
 40
0.0625000000000003
 40
0.1250000000000006
 40
0.1250000000000006
 40
0.2500000000000006
 40
0.2500000000000006
 40
0.5000000000000004
 40
0.5000000000000004
 40
0.7500000000000002
 40
0.7500000000000002
 40
1.0
 40
1.0
 40
1.0
 40
1.0
 10
197.6265657258176
 20
335.6997417427863
 30
0.0
 10
197.4102656187562
 20
335.1070567090784
 30
0.0
 10
197.1766058694975
 20
334.5219932427044
 30
0.0
 10
196.7238791804795
 20
333.3467256879368
 30
0.0
 10
196.5015100003551
 20
332.7578747571696
 30
0.0
 10
195.8521528869293
 20
330.9852086681791
 30
0.0
 10
195.441829360535
 20
329.7957143654523
 30
0.0
 10
194.273353093484
 20
326.2057797722336
 30
0.0
 10
193.5735421404121
 20
323.7808679926133
 30
0.0
 10
192.3602334612313
 20
318.9031052649387
 30
0.0
 10
191.8511770041722
 20
316.4470589055815
 30
0.0
 10
191.0626664992695
 20
311.4939148647235
 30
0.0
 10
190.7807160362496
 20
308.9972984715671
 30
0.0
 10
190.5991322795703
 20
306.4825700324315
 30
0.0
  0
SPLINE
  5
A9
330
1F
100
AcDbEntity
  8
0
  6
Continuous
 62
     8
370
    18
100
AcDbSpline
210
0.0
220
0.0
230
1.0
 70
     8
 71
     3
 72
    10
 73
     6
 74
     0
 42
0.00000001
 43
0.00000001
 40
0.0
 40
0.0
 40
0.0
 40
0.0
 40
0.5
 40
0.5
 40
1.0
 40
1.0
 40
1.0
 40
1.0
 10
190.5991322795703
 20
306.4825700324315
 30
0.0
 10
190.4575322202502
 20
304.5215428207009
 30
0.0
 10
190.3774241686014
 20
302.5586452449628
 30
0.0
 10
190.2884432045882
 20
298.6302654042755
 30
0.0
 10
190.2783187758741
 20
296.6648161016793
 30
0.0
 10
190.2680274760611
 20
294.6990828764626
 30
0.0
  0
LINE
  5
AA
330
1F
100
AcDbEntity
  8
0
  6
Continuous
 62
     8
370
    18
100
AcDbLine
 10
190.2680223222
 20
294.699082904
 30
0.0
 11
190.0683589543
 21
256.566725219
 31
0.0
  0
SPLINE
  5
AB
330
1F
100
AcDbEntity
  8
0
  6
Continuous
 62
     8
370
    18
100
AcDbSpline
210
0.0
220
0.0
230
1.0
 70
     8
 71
     3
 72
    28
 73
    24
 74
     0
 42
0.00000001
 43
0.00000001
 40
0.0
 40
0.0
 40
0.0
 40
0.0
 40
0.2499999999999996
 40
0.2499999999999996
 40
0.3749999999999992
 40
0.3749999999999992
 40
0.4374999999999908
 40
0.4374999999999908
 40
0.4687499999999941
 40
0.4687499999999941
 40
0.4843749999999951
 40
0.4843749999999951
 40
0.4999999999999961
 40
0.4999999999999961
 40
0.5312499999999969
 40
0.5312499999999969
 40
0.5624999999999976
 40
0.5624999999999976
 40
0.624999999999997
 40
0.624999999999997
 40
0.749999999999998
 40
0.749999999999998
 40
1.0
 40
1.0
 40
1.0
 40
1.0
 10
190.0683494510098
 20
256.5667252697389
 30
0.0
 10
190.0673374127659
 20
256.3734048213969
 30
0.0
 10
190.0672878054414
 20
256.1787568315579
 30
0.0
 10
190.0374329226274
 20
255.8846267368249
 30
0.0
 10
190.0226536277998
 20
255.7867293984987
 30
0.0
 10
189.9853601140602
 20
255.641006023776
 30
0.0
 10
189.9704545878582
 20
255.5925934081668
 30
0.0
 10
189.9411273336517
 20
255.5209955355715
 30
0.0
 10
189.9302013880914
 20
255.4972259610495
 30
0.0
 10
189.9102865817968
 20
255.4618805966467
 30
0.0
 10
189.9031190177178
 20
255.4501671133662
 30
0.0
 10
189.8856587793646
 20
255.4261327191556
 30
0.0
 10
189.8738621321921
 20
255.4127654138034
 30
0.0
 10
189.8374432039911
 20
255.3822301773109
 30
0.0
 10
189.8143679127435
 20
255.369987244385
 30
0.0
 10
189.7675857874099
 20
255.3466742237039
 30
0.0
 10
189.7441956742462
 20
255.3368733919522
 30
0.0
 10
189.6735535417747
 20
255.3104044445005
 30
0.0
 10
189.6257400485295
 20
255.2967227245614
 30
0.0
 10
189.4816319373768
 20
255.262593161444
 30
0.0
 10
189.3858793644454
 20
255.2493403395697
 30
0.0
 10
189.0987996978972
 20
255.2229814600652
 30
0.0
 10
188.9078868028765
 20
255.2238077069583
 30
0.0
 10
188.7183774598149
 20
255.2238075074391
 30
0.0
  0
LINE
  5
AC
330
1F
100
AcDbEntity
  8
0
  6
Continuous
 62
     8
370
    18
100
AcDbLine
 10
188.7183774598
 20
255.2238003973
 30
0.0
 11
175.5037549424
 21
255.2238003973
 31
0.0
  0
LINE
  5
AD
330
1F
100
AcDbEntity
  8
0
  6
Continuous
 62
     8
370
    18
100
AcDbLine
 10
175.5037549424
 20
255.2238003973
 30
0.0
 11
162.2891324249
 21
255.2238003973
 31
0.0
  0
SPLINE
  5
AE
330
1F
100
AcDbEntity
  8
0
  6
Continuous
 62
     8
370
    18
100
AcDbSpline
210
0.0
220
0.0
230
1.0
 70
     8
 71
     3
 72
    28
 73
    24
 74
     0
 42
0.00000001
 43
0.00000001
 40
0.0
 40
0.0
 40
0.0
 40
0.0
 40
0.2500000000000297
 40
0.2500000000000297
 40
0.3750000000000454
 40
0.3750000000000454
 40
0.4375000000000542
 40
0.4375000000000542
 40
0.4687500000000557
 40
0.4687500000000557
 40
0.5000000000000571
 40
0.5000000000000571
 40
0.5156250000000585
 40
0.5156250000000585
 40
0.5312500000000598
 40
0.5312500000000598
 40
0.5625000000000485
 40
0.5625000000000485
 40
0.6250000000000414
 40
0.6250000000000414
 40
0.7500000000000278
 40
0.7500000000000278
 40
1.0
 40
1.0
 40
1.0
 40
1.0
 10
162.2891324248898
 20
255.2238076588431
 30
0.0
 10
162.0996230818283
 20
255.2238078476644
 30
0.0
 10
161.9087101907775
 20
255.2229815902556
 30
0.0
 10
161.6216305346355
 20
255.2493404526903
 30
0.0
 10
161.5258779657597
 20
255.2625932686952
 30
0.0
 10
161.3817698626529
 20
255.2967228216617
 30
0.0
 10
161.3339563723618
 20
255.3104045380339
 30
0.0
 10
161.263314245863
 20
255.3368734789637
 30
0.0
 10
161.2399241349208
 20
255.346674308375
 30
0.0
 10
161.1931420157065
 20
255.3699873230184
 30
0.0
 10
161.1700667271014
 20
255.3822302539759
 30
0.0
 10
161.1336478133644
 20
255.4127654757237
 30
0.0
 10
161.1218511721084
 20
255.4261327733579
 30
0.0
 10
161.1043909380838
 20
255.4501671593352
 30
0.0
 10
161.0972233748078
 20
255.4618806398915
 30
0.0
 10
161.077308570263
 20
255.497225997103
 30
0.0
 10
161.0663826246247
 20
255.5209955684011
 30
0.0
 10
161.0370553695327
 20
255.5925934325752
 30
0.0
 10
161.0221498415575
 20
255.6410060445066
 30
0.0
 10
160.9848563219014
 20
255.7867294099886
 30
0.0
 10
160.9700770220386
 20
255.8846267448623
 30
0.0
 10
160.9402221238477
 20
256.1787568321969
 30
0.0
 10
160.940172505662
 20
256.3734048215767
 30
0.0
 10
160.9391604567214
 20
256.5667252698616
 30
0.0
  0
LINE
  5
AF
330
1F
100
AcDbEntity
  8
0
  6
Continuous
 62
     8
370
    18
100
AcDbLine
 10
160.9391509304
 20
256.566725219
 30
0.0
 11
160.7394875625
 21
294.699082904
 31
0.0
  0
SPLINE
  5
B0
330
1F
100
AcDbEntity
  8
0
  6
Continuous
 62
     8
370
    18
100
AcDbSpline
210
0.0
220
0.0
230
1.0
 70
     8
 71
     3
 72
    10
 73
     6
 74
     0
 42
0.00000001
 43
0.00000001
 40
0.0
 40
0.0
 40
0.0
 40
0.0
 40
0.5
 40
0.5
 40
1.0
 40
1.0
 40
1.0
 40
1.0
 10
160.7394824297812
 20
294.6990828765751
 30
0.0
 10
160.729191137795
 20
296.6648161018337
 30
0.0
 10
160.7190667169106
 20
298.630265404593
 30
0.0
 10
160.6300857685236
 20
302.5586452466749
 30
0.0
 10
160.5499777246701
 20
304.5215428236667
 30
0.0
 10
160.4083776730569
 20
306.4825700373429
 30
0.0
  0
SPLINE
  5
B1
330
1F
100
AcDbEntity
  8
0
  6
Continuous
 62
     8
370
    18
100
AcDbSpline
210
0.0
220
0.0
230
1.0
 70
     8
 71
     3
 72
    18
 73
    14
 74
     0
 42
0.00000001
 43
0.00000001
 40
0.0
 40
0.0
 40
0.0
 40
0.0
 40
0.2500000000000001
 40
0.2500000000000001
 40
0.5000000000000002
 40
0.5000000000000002
 40
0.7500000000000003
 40
0.7500000000000003
 40
0.8750000000000004
 40
0.8750000000000004
 40
0.9375000000000002
 40
0.9375000000000002
 40
1.0
 40
1.0
 40
1.0
 40
1.0
 10
160.4083776730569
 20
306.4825700373429
 30
0.0
 10
160.226793871987
 20
308.9972984750488
 30
0.0
 10
159.9448433647306
 20
311.4939148633899
 30
0.0
 10
159.1563327727861
 20
316.4470588864528
 30
0.0
 10
158.6472762730079
 20
318.9031052327178
 30
0.0
 10
157.4339675101425
 20
323.7808679291233
 30
0.0
 10
156.7341565159946
 20
326.2057796907466
 30
0.0
 10
155.565680189232
 20
329.7957142523364
 30
0.0
 10
155.1553566433145
 20
330.9852085435739
 30
0.0
 10
154.505999501193
 20
332.757874614133
 30
0.0
 10
154.28363031166
 20
333.3467255384178
 30
0.0
 10
153.8309036031061
 20
334.5219930821698
 30
0.0
 10
153.5972438443476
 20
335.1070565419245
 30
0.0
 10
153.3809437225984
 20
335.6997415835161
 30
0.0
  0
SPLINE
  5
B2
330
1F
100
AcDbEntity
  8
0
  6
Continuous
 62
     8
370
    18
100
AcDbSpline
210
0.0
220
0.0
230
1.0
 70
     8
 71
     3
 72
    22
 73
    18
 74
     0
 42
0.00000001
 43
0.00000001
 40
0.0
 40
0.0
 40
0.0
 40
0.0
 40
0.1250000000000002
 40
0.1250000000000002
 40
0.2500000000000001
 40
0.2500000000000001
 40
0.3750000000000001
 40
0.3750000000000001
 40
0.5
 40
0.5
 40
0.6249999999999999
 40
0.6249999999999999
 40
0.7499999999999999
 40
0.7499999999999999
 40
0.8749999999999999
 40
0.8749999999999999
 40
1.0
 40
1.0
 40
1.0
 40
1.0
 10
153.3809494899273
 20
335.6997436889205
 30
0.0
 10
152.7348129213839
 20
337.4702274368551
 30
0.0
 10
152.3022664156425
 20
339.318549128198
 30
0.0
 10
151.8890732907205
 20
343.065237974671
 30
0.0
 10
151.9084494912485
 20
344.9633982087699
 30
0.0
 10
152.3980400805999
 20
348.7008716342667
 30
0.0
 10
152.8682274304579
 20
350.53997841358
 30
0.0
 10
154.232515328997
 20
354.0538283087379
 30
0.0
 10
155.1265405311867
 20
355.7283773627125
 30
0.0
 10
157.2872604629771
 20
358.8170242574367
 30
0.0
 10
158.5538358609719
 20
360.2309515193027
 30
0.0
 10
161.3870335331811
 20
362.7172086176499
 30
0.0
 10
162.9534993363864
 20
363.7894011438543
 30
0.0
 10
166.2966423408359
 20
365.5306390213023
 30
0.0
 10
168.0731349079599
 20
366.1995882079717
 30
0.0
 10
171.7344367382833
 20
367.0959170516035
 30
0.0
 10
173.6190437961804
 20
367.3232472063799
 30
0.0
 10
175.5037549423512
 20
367.3232472063799
 30
0.0
  0
SPLINE
  5
B3
330
1F
100
AcDbEntity
  8
0
  6
Continuous
 62
     8
370
    25
100
AcDbSpline
210
0.0
220
0.0
230
1.0
 70
     8
 71
     3
 72
    26
 73
    22
 74
     0
 42
0.00000001
 43
0.00000001
 40
0.0
 40
0.0
 40
0.0
 40
0.0
 40
0.1250000000000004
 40
0.1250000000000004
 40
0.2500000000000002
 40
0.2500000000000002
 40
0.3749999999999999
 40
0.3749999999999999
 40
0.4999999999999997
 40
0.4999999999999997
 40
0.6249999999999994
 40
0.6249999999999994
 40
0.7499999999999991
 40
0.7499999999999991
 40
0.8124999999999993
 40
0.8124999999999993
 40
0.8749999999999996
 40
0.8749999999999996
 40
0.9374999999999998
 40
0.9374999999999998
 40
1.0
 40
1.0
 40
1.0
 40
1.0
 10
158.9621397373579
 20
306.3734316437803
 30
0.0
 10
158.8750931141256
 20
307.5789332898634
 30
0.0
 10
158.7630050064938
 20
308.8124642662701
 30
0.0
 10
158.4718977642272
 20
311.3584548564158
 30
0.0
 10
158.292873007165
 20
312.6711770930574
 30
0.0
 10
157.8504431961595
 20
315.3877146423099
 30
0.0
 10
157.5856391692661
 20
316.7942270765312
 30
0.0
 10
156.9623584763211
 20
319.6762900089081
 30
0.0
 10
156.6043437971224
 20
321.1502542212377
 30
0.0
 10
155.8308908867343
 20
324.0516326190844
 30
0.0
 10
155.4161583498185
 20
325.4769968367324
 30
0.0
 10
154.5882682613208
 20
328.1381244863917
 30
0.0
 10
154.1758164040127
 20
329.3718379505338
 30
0.0
 10
153.6033871653743
 20
330.9991422874606
 30
0.0
 10
153.4202278765995
 20
331.5048314285331
 30
0.0
 10
153.0749602587047
 20
332.4378986028152
 30
0.0
 10
152.9128739825307
 20
332.8652125745288
 30
0.0
 10
152.6136299758078
 20
333.6445322229316
 30
0.0
 10
152.4764942982048
 20
333.9964738381247
 30
0.0
 10
152.2284509215124
 20
334.6379241990883
 30
0.0
 10
152.1175652753689
 20
334.9273688833628
 30
0.0
 10
152.0188234641943
 20
335.1979320745475
 30
0.0
  0
ARC
  5
B4
330
1F
100
AcDbEntity
  8
0
  6
Continuous
 62
     8
370
    18
100
AcDbCircle
 10
194.8368874274
 20
221.0714393065
 30
0.0
 40
121.8943926236622
100
AcDbArc
 50
109.8827960604
 51
110.5651244561
  0
ARC
  5
B5
330
1F
100
AcDbEntity
  8
0
  6
Continuous
 62
     8
370
    18
100
AcDbCircle
 10
168.2963700561
 20
192.3185961429
 30
0.0
 40
114.4361540632325
100
AcDbArc
 50
93.9524879091
 51
94.6786509416
  0
LINE
  5
B6
330
1F
100
AcDbEntity
  8
0
  6
Continuous
 62
     8
370
    18
100
AcDbLine
 10
152.0188234642
 20
335.1911084003
 30
0.0
 11
152.0188234642
 21
335.1979320745
 31
0.0
  0
LINE
  5
B7
330
1F
100
AcDbEntity
  8
0
  6
Continuous
 62
     8
370
    18
100
AcDbLine
 10
158.9621397374
 20
306.3734316438
 30
0.0
 11
158.9621397374
 21
306.3672490846
 31
0.0
  0
SPLINE
  5
B8
330
1F
100
AcDbEntity
  8
0
  6
Continuous
 62
     8
370
    18
100
AcDbSpline
210
0.0
220
0.0
230
1.0
 70
     8
 71
     3
 72
    22
 73
    18
 74
     0
 42
0.00000001
 43
0.00000001
 40
0.0
 40
0.0
 40
0.0
 40
0.0
 40
0.125
 40
0.125
 40
0.25
 40
0.25
 40
0.375
 40
0.375
 40
0.5
 40
0.5
 40
0.625
 40
0.625
 40
0.75
 40
0.75
 40
0.875
 40
0.875
 40
1.0
 40
1.0
 40
1.0
 40
1.0
 10
191.5183390781078
 20
256.5544233463822
 30
0.0
 10
191.5173161186481
 20
256.3590552303628
 30
0.0
 10
191.5157286366713
 20
256.1626194216155
 30
0.0
 10
191.4871961741324
 20
255.7662860626407
 30
0.0
 10
191.4603710459624
 20
255.5668451523775
 30
0.0
 10
191.3687657396183
 20
255.1814936203826
 30
0.0
 10
191.3041054138364
 20
254.9960396386155
 30
0.0
 10
191.1320277864356
 20
254.6593599008011
 30
0.0
 10
191.024730337209
 20
254.5085907847184
 30
0.0
 10
190.7667765909087
 20
254.2519854237057
 30
0.0
 10
190.6154469919597
 20
254.1454793964086
 30
0.0
 10
190.2778692156027
 20
253.9751678198922
 30
0.0
 10
190.0920783016958
 20
253.9114797298801
 30
0.0
 10
189.7062505083183
 20
253.8218938179703
 30
0.0
 10
189.5066708923488
 20
253.7961134552799
 30
0.0
 10
189.1101916154638
 20
253.7696567117897
 30
0.0
 10
188.9137492180492
 20
253.7690977901973
 30
0.0
 10
188.7183774598151
 20
253.7690977901974
 30
0.0
  0
LINE
  5
B9
330
1F
100
AcDbEntity
  8
0
  6
Continuous
 62
     8
370
    18
100
AcDbLine
 10
188.7183774598
 20
253.7690977902
 30
0.0
 11
188.7183774598
 21
255.2238003973
 31
0.0
  0
ARC
  5
BA
330
1F
100
AcDbEntity
  8
0
  6
Continuous
 62
     8
370
    18
100
AcDbCircle
 10
189.8257876134
 20
142.5173836165
 30
0.0
 40
114.0495995644858
100
AcDbArc
 50
89.1496715821
 51
89.8781378926
  0
SPLINE
  5
BB
330
1F
100
AcDbEntity
  8
0
  6
Continuous
 62
     8
370
    18
100
AcDbSpline
210
0.0
220
0.0
230
1.0
 70
     8
 71
     3
 72
    22
 73
    18
 74
     0
 42
0.00000001
 43
0.00000001
 40
0.0
 40
0.0
 40
0.0
 40
0.0
 40
0.125
 40
0.125
 40
0.25
 40
0.25
 40
0.375
 40
0.375
 40
0.5
 40
0.5
 40
0.625
 40
0.625
 40
0.75
 40
0.75
 40
0.875
 40
0.875
 40
1.0
 40
1.0
 40
1.0
 40
1.0
 10
162.2891324248899
 20
253.7690977901971
 30
0.0
 10
162.0937606666557
 20
253.7690977901971
 30
0.0
 10
161.8973182692412
 20
253.7696567117894
 30
0.0
 10
161.5008389923561
 20
253.7961134552796
 30
0.0
 10
161.3012593763866
 20
253.8218938179701
 30
0.0
 10
160.9154315830092
 20
253.9114797298798
 30
0.0
 10
160.7296406691022
 20
253.9751678198918
 30
0.0
 10
160.3920628927452
 20
254.1454793964083
 30
0.0
 10
160.2407332937963
 20
254.2519854237054
 30
0.0
 10
159.982779547496
 20
254.5085907847181
 30
0.0
 10
159.8754820982693
 20
254.6593599008009
 30
0.0
 10
159.7034044708686
 20
254.9960396386151
 30
0.0
 10
159.6387441450866
 20
255.1814936203823
 30
0.0
 10
159.5471388387425
 20
255.5668451523771
 30
0.0
 10
159.5203137105725
 20
255.7662860626403
 30
0.0
 10
159.4917812480336
 20
256.1626194216153
 30
0.0
 10
159.4901937660568
 20
256.3590552303625
 30
0.0
 10
159.4891708065971
 20
256.5544233463819
 30
0.0
  0
ARC
  5
BC
330
1F
100
AcDbEntity
  8
0
  6
Continuous
 62
     8
370
    18
100
AcDbCircle
 10
161.1817222713
 20
142.5173836147
 30
0.0
 40
114.0495995662267
100
AcDbArc
 50
90.1218621074
 51
90.8503284179
  0
LINE
  5
BD
330
1F
100
AcDbEntity
  8
0
  6
Continuous
 62
     8
370
    18
100
AcDbLine
 10
162.2891324249
 20
253.7690977902
 30
0.0
 11
162.2891324249
 21
255.2238003973
 31
0.0
  0
LINE
  5
BE
330
1F
100
AcDbEntity
  8
0
  6
Continuous
 62
     8
370
    18
100
AcDbLine
 10
175.5037549424
 20
253.7690977902
 30
0.0
 11
162.2891324249
 21
253.7690977902
 31
0.0
  0
LINE
  5
BF
330
1F
100
AcDbEntity
  8
0
  6
Continuous
 62
     8
370
    18
100
AcDbLine
 10
175.5037549424
 20
253.7690977902
 30
0.0
 11
175.5037549424
 21
255.2238003973
 31
0.0
  0
LINE
  5
C0
330
1F
100
AcDbEntity
  8
0
  6
Continuous
 62
     8
370
    18
100
AcDbLine
 10
188.7183774598
 20
253.7690977902
 30
0.0
 11
175.5037549424
 21
253.7690977902
 31
0.0
  0
LINE
  5
C1
330
1F
100
AcDbEntity
  8
0
  6
Continuous
 62
     8
370
    18
100
AcDbLine
 10
159.4891708066
 20
256.5544233464
 30
0.0
 11
159.2895074387
 21
294.6867810314
 31
0.0
  0
ARC
  5
C2
330
1F
100
AcDbEntity
  8
0
  6
Continuous
 62
     8
370
    18
100
AcDbCircle
 10
160.9820589036
 20
180.6497412913
 30
0.0
 40
114.0495995746229
100
AcDbArc
 50
90.1218621074
 51
90.8503284179
  0
LINE
  5
C3
330
1F
100
AcDbEntity
  8
0
  6
Continuous
 62
     8
370
    18
100
AcDbLine
 10
191.718002446
 20
294.6867810314
 30
0.0
 11
191.5183390781
 21
256.5544233464
 31
0.0
  0
ARC
  5
C4
330
1F
100
AcDbEntity
  8
0
  6
Continuous
 62
     8
370
    18
100
AcDbCircle
 10
190.0254509812
 20
180.6497412932
 30
0.0
 40
114.0495995727989
100
AcDbArc
 50
89.1496715821
 51
89.8781378926
  0
SPLINE
  5
C5
330
1F
100
AcDbEntity
  8
0
  6
Continuous
 62
     8
370
    25
100
AcDbSpline
210
0.0
220
0.0
230
1.0
 70
     8
 71
     3
 72
    26
 73
    22
 74
     0
 42
0.00000001
 43
0.00000001
 40
0.0
 40
0.0
 40
0.0
 40
0.0
 40
0.0625000000000002
 40
0.0625000000000002
 40
0.1250000000000006
 40
0.1250000000000006
 40
0.1875000000000008
 40
0.1875000000000008
 40
0.250000000000001
 40
0.250000000000001
 40
0.3750000000000009
 40
0.3750000000000009
 40
0.5000000000000007
 40
0.5000000000000007
 40
0.6250000000000004
 40
0.6250000000000004
 40
0.7500000000000003
 40
0.7500000000000003
 40
0.8750000000000002
 40
0.8750000000000002
 40
1.0
 40
1.0
 40
1.0
 40
1.0
 10
198.988686420509
 20
335.197932074548
 30
0.0
 10
198.8899446093344
 20
334.9273688833634
 30
0.0
 10
198.7790589631909
 20
334.6379241990888
 30
0.0
 10
198.5310155864984
 20
333.9964738381252
 30
0.0
 10
198.3938799088956
 20
333.6445322229321
 30
0.0
 10
198.0946359021726
 20
332.8652125745293
 30
0.0
 10
197.9325496259987
 20
332.4378986028157
 30
0.0
 10
197.5872820081038
 20
331.5048314285335
 30
0.0
 10
197.4041227193291
 20
330.9991422874611
 30
0.0
 10
196.8316934806907
 20
329.3718379505343
 30
0.0
 10
196.4192416233825
 20
328.1381244863921
 30
0.0
 10
195.591351534885
 20
325.4769968367329
 30
0.0
 10
195.1766189979692
 20
324.0516326190848
 30
0.0
 10
194.4031660875812
 20
321.1502542212381
 30
0.0
 10
194.0451514083825
 20
319.6762900089084
 30
0.0
 10
193.4218707154376
 20
316.7942270765316
 30
0.0
 10
193.1570666885442
 20
315.3877146423103
 30
0.0
 10
192.7146368775387
 20
312.6711770930578
 30
0.0
 10
192.5356121204765
 20
311.3584548564162
 30
0.0
 10
192.24450487821
 20
308.8124642662705
 30
0.0
 10
192.1324167705782
 20
307.5789332898638
 30
0.0
 10
192.0453701473459
 20
306.3734316437807
 30
0.0
  0
ARC
  5
C6
330
1F
100
AcDbEntity
  8
0
  6
Continuous
 62
     8
370
    18
100
AcDbCircle
 10
182.7111398286
 20
192.318596143
 30
0.0
 40
114.4361540630649
100
AcDbArc
 50
85.3213490584
 51
86.0475120909
  0
ARC
  5
C7
330
1F
100
AcDbEntity
  8
0
  6
Continuous
 62
     8
370
    18
100
AcDbCircle
 10
156.1706110138
 20
221.0714084561
 30
0.0
 40
121.8944255278393
100
AcDbArc
 50
69.4348756016
 51
70.1172039495
  0
SPLINE
  5
C8
330
1F
100
AcDbEntity
  8
0
  6
Continuous
 62
     8
370
    18
100
AcDbSpline
210
0.0
220
0.0
230
1.0
 70
     8
 71
     3
 72
    12
 73
     8
 74
     0
 42
0.00000001
 43
0.00000001
 40
0.0
 40
0.0
 40
0.0
 40
0.0
 40
0.25
 40
0.25
 40
0.5
 40
0.5
 40
1.0
 40
1.0
 40
1.0
 40
1.0
 10
159.2895074387304
 20
294.6867810313864
 30
0.0
 10
159.2844697993445
 20
295.6488857429542
 30
0.0
 10
159.2794586633938
 20
296.6105622525867
 30
0.0
 10
159.2614343172673
 20
298.5338335584436
 30
0.0
 10
159.2484187369866
 20
299.495539061993
 30
0.0
 10
159.1843890220203
 20
302.394453332097
 30
0.0
 10
159.1086104100172
 20
304.3449711425346
 30
0.0
 10
158.9621397373579
 20
306.3734316437803
 30
0.0
  0
SPLINE
  5
C9
330
1F
100
AcDbEntity
  8
0
  6
Continuous
 62
     8
370
    18
100
AcDbSpline
210
0.0
220
0.0
230
1.0
 70
     8
 71
     3
 72
    12
 73
     8
 74
     0
 42
0.00000001
 43
0.00000001
 40
0.0
 40
0.0
 40
0.0
 40
0.0
 40
0.5000000000000018
 40
0.5000000000000018
 40
0.7500000000000009
 40
0.7500000000000009
 40
1.0
 40
1.0
 40
1.0
 40
1.0
 10
192.0453701473459
 20
306.3734316437807
 30
0.0
 10
191.8988994746867
 20
304.344971142535
 30
0.0
 10
191.8231208626837
 20
302.3944533320974
 30
0.0
 10
191.7590911477174
 20
299.4955390619934
 30
0.0
 10
191.7460755674367
 20
298.5338335584439
 30
0.0
 10
191.7280512213103
 20
296.610562252587
 30
0.0
 10
191.7230400853596
 20
295.6488857429546
 30
0.0
 10
191.7180024459737
 20
294.6867810313867
 30
0.0
  0
LINE
  5
CA
330
1F
100
AcDbEntity
  8
0
  6
Continuous
 62
     8
370
    18
100
AcDbLine
 10
175.5037549424
 20
367.3232470596
 30
0.0
 11
175.5037549424
 21
368.7685302884
 31
0.0
  0
LINE
  5
CB
330
1F
100
AcDbEntity
  8
0
  6
Continuous
 62
     8
370
    18
100
AcDbLine
 10
192.0453701473
 20
306.3734316438
 30
0.0
 11
192.0453701473
 21
306.3672490846
 31
0.0
  0
LINE
  5
CC
330
1F
100
AcDbEntity
  8
0
  6
Continuous
 62
     8
370
    18
100
AcDbLine
 10
198.9886864205
 20
335.1911084003
 30
0.0
 11
198.9886864205
 21
335.1979320745
 31
0.0
  0
LINE
  5
CD
330
1F
100
AcDbEntity
  8
0
  6
Continuous
 62
     8
370
    18
100
AcDbLine
 10
188.7183774598
 20
253.7690977902
 30
0.0
 11
188.7183774598
 21
253.7640384659
 31
0.0
  0
LINE
  5
CE
330
1F
100
AcDbEntity
  8
0
  6
Continuous
 62
     8
370
    18
100
AcDbLine
 10
191.5183390781
 20
256.5493356588
 30
0.0
 11
191.5183390781
 21
256.5544233464
 31
0.0
  0
LINE
  5
CF
330
1F
100
AcDbEntity
  8
0
  6
Continuous
 62
     8
370
    18
100
AcDbLine
 10
159.2895074387
 20
294.6867810314
 30
0.0
 11
159.2895074387
 21
294.6808569912
 31
0.0
  0
LINE
  5
D0
330
1F
100
AcDbEntity
  8
0
  6
Continuous
 62
     8
370
    18
100
AcDbLine
 10
159.4891708066
 20
256.5493356588
 30
0.0
 11
159.4891708066
 21
256.5544233464
 31
0.0
  0
LINE
  5
D1
330
1F
100
AcDbEntity
  8
0
  6
Continuous
 62
     8
370
    18
100
AcDbLine
 10
162.2891324249
 20
253.7690977902
 30
0.0
 11
162.2891324249
 21
253.7640384659
 31
0.0
  0
LINE
  5
D2
330
1F
100
AcDbEntity
  8
0
  6
Continuous
 62
     8
370
    18
100
AcDbLine
 10
191.718002446
 20
294.6867810314
 30
0.0
 11
191.718002446
 21
294.6808569912
 31
0.0
  0
LINE
  5
D3
330
1F
100
AcDbEntity
  8
0
  6
Continuous
 62
     8
370
    18
100
AcDbLine
 10
175.5037549424
 20
253.7690977902
 30
0.0
 11
175.5037549424
 21
253.7640384659
 31
0.0
  0
CIRCLE
  5
D4
330
1F
100
AcDbEntity
  8
0
  6
Continuous
 62
     8
370
    18
100
AcDbCircle
 10
175.5037549386
 20
411.8111644466
 30
0.0
 40
10.77434613606391
  0
CIRCLE
  5
D5
330
1F
100
AcDbEntity
  8
0
  6
Continuous
 62
     8
370
    18
100
AcDbCircle
 10
175.5037549386
 20
411.8111644466
 30
0.0
 40
11.25844862367722
  0
ARC
  5
D6
330
1F
100
AcDbEntity
  8
0
  6
Continuous
 62
     8
370
    18
100
AcDbCircle
 10
175.5037549407
 20
373.9111644465
 30
0.0
 40
73.35275294427505
100
AcDbArc
 50
282.8994954045
 51
257.0912171621
  0
ARC
  5
D7
330
1F
100
AcDbEntity
  8
0
  6
Continuous
 62
     8
370
    18
100
AcDbCircle
 10
175.5037549407
 20
373.9111644465
 30
0.0
 40
74.34193130454271
100
AcDbArc
 50
282.6897056434
 51
257.3067786081
  0
LINE
  5
D8
330
1F
100
AcDbEntity
  8
0
  6
Continuous
 62
     7
370
    25
100
AcDbLine
 10
330.3328197584
 20
299.4111644465
 30
0.0
 11
336.369219701
 21
299.569233142
 31
0.0
  0
LINE
  5
D9
330
1F
100
AcDbEntity
  8
0
  6
Continuous
 62
     7
370
    25
100
AcDbLine
 10
336.369219701
 20
448.253095751
 30
0.0
 11
330.3328197584
 21
448.4111644465
 31
0.0
  0
ARC
  5
DA
330
1F
100
AcDbEntity
  8
0
  6
Continuous
 62
     7
370
    25
100
AcDbCircle
 10
336.3430427527
 20
447.2534384261
 30
0.0
 40
0.9999999999996357
100
AcDbArc
 50
0.6004114401
 51
88.5
  0
ARC
  5
DB
330
1F
100
AcDbEntity
  8
0
  6
Continuous
 62
     7
370
    25
100
AcDbCircle
 10
336.3430427527
 20
300.5688904669
 30
0.0
 40
0.9999999999996363
100
AcDbArc
 50
271.5
 51
359.3995885599
  0
ARC
  5
DC
330
1F
100
AcDbEntity
  8
0
  6
Continuous
 62
     7
370
    25
100
AcDbCircle
 10
-6662.2726711472
 20
373.9111644465
 30
0.0
 40
7000.000000000001
100
AcDbArc
 50
0.4032803623
 51
0.6004114401
  0
ARC
  5
DD
330
1F
100
AcDbEntity
  8
0
  6
Continuous
 62
     7
370
    25
100
AcDbCircle
 10
-6662.2726711472
 20
373.9111644465
 30
0.0
 40
7000.000000000002
100
AcDbArc
 50
359.9534981523
 51
0.2171582193
  0
ARC
  5
DE
330
1F
100
AcDbEntity
  8
0
  6
Continuous
 62
     7
370
    25
100
AcDbCircle
 10
-6662.2726711472
 20
373.9111644465
 30
0.0
 40
7000.000000000001
100
AcDbArc
 50
359.3995885599
 51
359.5531794891
  0
LINE
  5
DF
330
1F
100
AcDbEntity
  8
0
  6
Continuous
 62
     7
370
    25
100
AcDbLine
 10
362.3328197584
 20
368.3111644451
 30
0.0
 11
337.7247397857
 21
368.3111644451
 31
0.0
  0
LINE
  5
E0
330
1F
100
AcDbEntity
  8
0
  6
Continuous
 62
     7
370
    25
100
AcDbLine
 10
337.514432716
 20
319.3111644451
 30
0.0
 11
362.3328197584
 21
319.3111644451
 31
0.0
  0
ARC
  5
E1
330
1F
100
AcDbEntity
  8
0
  6
Continuous
 62
     7
370
    25
100
AcDbCircle
 10
362.3328197584
 20
343.8111644451
 30
0.0
 40
24.50000000000006
100
AcDbArc
 50
54.5294781163
 51
90.0
  0
ARC
  5
E2
330
1F
100
AcDbEntity
  8
0
  6
Continuous
 62
     7
370
    25
100
AcDbCircle
 10
362.3328197584
 20
343.8111644451
 30
0.0
 40
24.49999999999997
100
AcDbArc
 50
270.0
 51
286.7214707892
  0
SPLINE
  5
E3
330
1F
100
AcDbEntity
  8
0
  6
Continuous
 62
     7
370
    25
100
AcDbSpline
210
0.0
220
0.0
230
1.0
 70
     8
 71
     3
 72
    16
 73
    12
 74
     0
 42
0.00000001
 43
0.00000001
 40
0.0
 40
0.0
 40
0.0
 40
0.0
 40
0.0785689134477875
 40
0.1630578323118297
 40
0.2472760978041861
 40
0.3313223821937385
 40
0.4155027483185401
 40
0.4999245779160676
 40
0.6688330108390768
 40
0.8374530314792283
 40
1.0
 40
1.0
 40
1.0
 40
1.0
 10
401.408518433053
 20
255.2239699310435
 30
0.0
 10
401.4545117479205
 20
258.1113528122454
 30
0.0
 10
401.549963878974
 20
264.1036769135063
 30
0.0
 10
401.5132785378518
 20
273.2275418072056
 30
0.0
 10
401.5463987915517
 20
282.6143385801093
 30
0.0
 10
401.5451173643631
 20
292.0599181081
 30
0.0
 10
401.5290955238853
 20
301.5446396279687
 30
0.0
 10
401.5100394847822
 20
314.2067034793086
 30
0.0
 10
401.602277722421
 20
330.0360488613984
 30
0.0
 10
401.5476716312704
 20
348.8041112089559
 30
0.0
 10
401.2208039778992
 20
361.2262261462059
 30
0.0
 10
401.0603672559372
 20
367.3233831448021
 30
0.0
  0
LINE
  5
E4
330
1F
100
AcDbEntity
  8
0
  6
Continuous
 62
     7
370
    25
100
AcDbLine
 10
337.6775845243
 20
400.4081789586
 30
0.0
 11
345.9580959322
 21
400.5527158229
 31
0.0
  0
LINE
  5
E5
330
1F
100
AcDbEntity
  8
0
  6
Continuous
 62
     7
370
    25
100
AcDbLine
 10
345.9580959322
 20
423.0696130702
 30
0.0
 11
337.5544966331
 21
423.2162984416
 31
0.0
  0
ARC
  5
E6
330
1F
100
AcDbEntity
  8
0
  6
Continuous
 62
     7
370
    25
100
AcDbCircle
 10
345.9493697289
 20
401.0526396705
 30
0.0
 40
0.5000000000000268
100
AcDbArc
 50
271.0
 51
358.1867030124
  0
ARC
  5
E7
330
1F
100
AcDbEntity
  8
0
  6
Continuous
 62
     7
370
    25
100
AcDbCircle
 10
345.9493697289
 20
422.5696892227
 30
0.0
 40
0.5000000000000636
100
AcDbArc
 50
1.8132969877
 51
89.0
  0
ARC
  5
E8
330
1F
100
AcDbEntity
  8
0
  6
Continuous
 62
     7
370
    25
100
AcDbCircle
 10
6.1196268508
 20
411.8111644466
 30
0.0
 40
340.5000000000001
100
AcDbArc
 50
0.0002325202
 51
1.8132969877
  0
ARC
  5
E9
330
1F
100
AcDbEntity
  8
0
  6
Continuous
 62
     7
370
    25
100
AcDbCircle
 10
6.1196268508
 20
411.8111644466
 30
0.0
 40
340.5000000000001
100
AcDbArc
 50
358.1867030123
 51
0.0002325202
  0
LINE
  5
EA
330
1F
100
AcDbEntity
  8
0
  6
Continuous
 62
     7
370
    25
100
AcDbLine
 10
375.9076939602
 20
318.6876286882
 30
0.0
 11
376.1074816393
 21
318.1440362142
 31
0.0
  0
ARC
  5
EB
330
1F
100
AcDbEntity
  8
0
  6
Continuous
 62
     7
370
    25
100
AcDbCircle
 10
376.2952043387
 20
318.2130303306
 30
0.0
 40
0.1999999999999858
100
AcDbArc
 50
200.18
 51
270.18
  0
LINE
  5
EC
330
1F
100
AcDbEntity
  8
0
  6
Continuous
 62
     7
370
    25
100
AcDbLine
 10
376.2958326562
 20
318.0130313175
 30
0.0
 11
382.6321064399
 21
318.0329373742
 31
0.0
  0
LINE
  5
ED
330
1F
100
AcDbEntity
  8
0
  6
Continuous
 62
     7
370
    25
100
AcDbLine
 10
376.2958326562
 20
318.0130313175
 30
0.0
 11
382.6320816373
 21
318.0329372963
 31
0.0
  0
SPLINE
  5
EE
330
1F
100
AcDbEntity
  8
0
  6
Continuous
 62
     7
370
    25
100
AcDbSpline
210
0.0
220
0.0
230
1.0
 70
     8
 71
     3
 72
    15
 73
    11
 74
     0
 42
0.00000001
 43
0.00000001
 40
0.0
 40
0.0
 40
0.0
 40
0.0
 40
0.0959137721657859
 40
0.2202536133706186
 40
0.3403398005381827
 40
0.4593416212731811
 40
0.5805694096804938
 40
0.7076791245730143
 40
0.8453911769765102
 40
1.0
 40
1.0
 40
1.0
 40
1.0
 10
382.1381829460565
 20
317.9844074683282
 30
0.0
 10
382.8796743032307
 20
317.7995072255828
 30
0.0
 10
384.5824136180645
 20
317.374907653924
 30
0.0
 10
387.0468383651043
 20
316.2104012703098
 30
0.0
 10
389.4701825786393
 20
314.6184861080893
 30
0.0
 10
391.5787451858738
 20
312.6557506026194
 30
0.0
 10
393.3618314097056
 20
310.3232907794947
 30
0.0
 10
394.7974800114285
 20
307.5953307312629
 30
0.0
 10
395.8656413122123
 20
304.4109700155511
 30
0.0
 10
396.1407823703932
 20
302.0967408052208
 30
0.0
 10
396.2863047697383
 20
300.8727425057729
 30
0.0
  0
SPLINE
  5
EF
330
1F
100
AcDbEntity
  8
0
  6
Continuous
 62
     7
370
    25
100
AcDbSpline
210
0.0
220
0.0
230
1.0
 70
     8
 71
     3
 72
     9
 73
     5
 74
     0
 42
0.00000001
 43
0.00000001
 40
0.0
 40
0.0
 40
0.0
 40
0.0
 40
0.7871383746030589
 40
1.0
 40
1.0
 40
1.0
 40
1.0
 10
372.8513183103497
 20
318.6842414453678
 30
0.0
 10
373.6587610613644
 20
318.6951152832809
 30
0.0
 10
374.6845562418139
 20
318.7089296750879
 30
0.0
 10
375.710069203911
 20
318.6862427221059
 30
0.0
 10
375.9283615598886
 20
318.6814135404189
 30
0.0
  0
LINE
  5
F0
330
1F
100
AcDbEntity
  8
0
  6
Continuous
 62
     7
370
    25
100
AcDbLine
 10
330.3328197584
 20
448.4111644465
 30
0.0
 11
330.3328197584
 21
299.4111644465
 31
0.0
  0
SPLINE
  5
F1
330
1F
100
AcDbEntity
  8
0
  6
Continuous
 62
     7
370
    25
100
AcDbSpline
210
0.0
220
0.0
230
1.0
 70
     8
 71
     3
 72
    21
 73
    17
 74
     0
 42
0.00000001
 43
0.00000001
 40
0.0
 40
0.0
 40
0.0
 40
0.0
 40
0.0705704432210617
 40
0.1431874458664973
 40
0.2137578850178999
 40
0.2863748513826853
 40
0.3569456463235945
 40
0.4295629897490412
 40
0.5001339282570864
 40
0.5727514432172105
 40
0.6433221067155754
 40
0.7159393561606542
 40
0.7865094465919332
 40
0.8591261098291881
 40
0.9296955802963097
 40
1.0
 40
1.0
 40
1.0
 40
1.0
 10
337.6942310050223
 20
361.1349389830271
 30
0.0
 10
337.6899033938128
 20
360.128523023043
 30
0.0
 10
337.6811226696527
 20
358.0865048039144
 30
0.0
 10
337.6657171323101
 20
354.5038492582689
 30
0.0
 10
337.6490124900527
 20
350.6190873220039
 30
0.0
 10
337.631591313521
 20
346.5677011796251
 30
0.0
 10
337.6136843762296
 20
342.4033594243476
 30
0.0
 10
337.5961071347617
 20
338.3157004311421
 30
0.0
 10
337.5790443545793
 20
334.3476914085205
 30
0.0
 10
337.5632855544439
 20
330.6829361755139
 30
0.0
 10
337.5489919161038
 20
327.3589158111737
 30
0.0
 10
337.5368309514971
 20
324.5308593161651
 30
0.0
 10
337.5269067235731
 20
322.2229640544847
 30
0.0
 10
337.5197580560985
 20
320.560531908593
 30
0.0
 10
337.5152113352561
 20
319.5031868221473
 30
0.0
 10
337.5146921440314
 20
319.3824483642978
 30
0.0
 10
337.5144330368418
 20
319.3221927185943
 30
0.0
  0
SPLINE
  5
F2
330
1F
100
AcDbEntity
  8
0
  6
Continuous
 62
     7
370
    25
100
AcDbSpline
210
0.0
220
0.0
230
1.0
 70
     8
 71
     3
 72
    13
 73
     9
 74
     0
 42
0.00000001
 43
0.00000001
 40
0.0
 40
0.0
 40
0.0
 40
0.0
 40
0.0845922536547844
 40
0.3023787123215304
 40
0.5140269308997846
 40
0.7318129166779579
 40
0.8651621294068156
 40
1.0
 40
1.0
 40
1.0
 40
1.0
 10
337.7247396874142
 20
368.2299633149775
 30
0.0
 10
337.7248265798655
 20
368.2501708544203
 30
0.0
 10
337.7251371807349
 20
368.3224035884113
 30
0.0
 10
337.7225420753294
 20
367.7188909128686
 30
0.0
 10
337.7170483516459
 20
366.441281947878
 30
0.0
 10
337.7096616379906
 20
364.7234449507371
 30
0.0
 10
337.7018480246662
 20
362.9063311210206
 30
0.0
 10
337.6967793899276
 20
361.7275840327994
 30
0.0
 10
337.6942310050223
 20
361.1349389830271
 30
0.0
  0
SPLINE
  5
F3
330
1F
100
AcDbEntity
  8
0
  6
Continuous
 62
     7
370
    25
100
AcDbSpline
210
0.0
220
0.0
230
1.0
 70
     8
 71
     3
 72
    12
 73
     8
 74
     0
 42
0.00000001
 43
0.00000001
 40
0.0
 40
0.0
 40
0.0
 40
0.0
 40
0.2121550963987647
 40
0.4304626508104178
 40
0.6426177665841222
 40
0.860925493612479
 40
1.0
 40
1.0
 40
1.0
 40
1.0
 10
337.5716990865357
 20
419.8891627856602
 30
0.0
 10
337.5694009395611
 20
420.3136010075399
 30
0.0
 10
337.5647379997806
 20
421.1747860801445
 30
0.0
 10
337.5595163871628
 20
422.1391496616777
 30
0.0
 10
337.5558205098399
 20
422.8217295469408
 30
0.0
 10
337.553860041516
 20
423.1838020591799
 30
0.0
 10
337.5538719567079
 20
423.1816014806851
 30
0.0
 10
337.5538765934784
 20
423.1807451304267
 30
0.0
  0
SPLINE
  5
F4
330
1F
100
AcDbEntity
  8
0
  6
Continuous
 62
     7
370
    25
100
AcDbSpline
210
0.0
220
0.0
230
1.0
 70
     8
 71
     3
 72
    21
 73
    17
 74
     0
 42
0.00000001
 43
0.00000001
 40
0.0
 40
0.0
 40
0.0
 40
0.0
 40
0.0521579952299593
 40
0.1226832162820998
 40
0.1952536618821215
 40
0.2657791223272284
 40
0.3383497818602967
 40
0.408876041041582
 40
0.4814475093727537
 40
0.5519747766051526
 40
0.6245472941618606
 40
0.6950753369921975
 40
0.7676486843915794
 40
0.8381769304412138
 40
0.910750524602975
 40
1.0
 40
1.0
 40
1.0
 40
1.0
 10
337.6769967423475
 20
400.4418860865758
 30
0.0
 10
337.6769794804218
 20
400.4450741922921
 30
0.0
 10
337.6769388778538
 20
400.4525730821824
 30
0.0
 10
337.6748267666714
 20
400.8426588502866
 30
0.0
 10
337.6710667011579
 20
401.537104963875
 30
0.0
 10
337.665623002311
 20
402.5425004798157
 30
0.0
 10
337.658826645002
 20
403.7977170758156
 30
0.0
 10
337.6507264865751
 20
405.2937305841378
 30
0.0
 10
337.6417031497299
 20
406.9602433180726
 30
0.0
 10
337.6318482951124
 20
408.7803259104145
 30
0.0
 10
337.621617952808
 20
410.6697541884434
 30
0.0
 10
337.6111198482513
 20
412.6086322191907
 30
0.0
 10
337.6008313129442
 20
414.5088023955517
 30
0.0
 10
337.5908912448173
 20
416.3446121339185
 30
0.0
 10
337.5808267123771
 20
418.2034064272604
 30
0.0
 10
337.5749437097904
 20
419.2899221531934
 30
0.0
 10
337.5716990865357
 20
419.8891627856602
 30
0.0
  0
SPLINE
  5
F5
330
1F
100
AcDbEntity
  8
0
  6
Continuous
 62
     7
370
    25
100
AcDbSpline
210
0.0
220
0.0
230
1.0
 70
     8
 71
     3
 72
    12
 73
     8
 74
     0
 42
0.00000001
 43
0.00000001
 40
0.0
 40
0.0
 40
0.0
 40
0.0
 40
0.2500000000000002
 40
0.2500000000000002
 40
0.5000000000000004
 40
0.5000000000000004
 40
1.0
 40
1.0
 40
1.0
 40
1.0
 10
369.3197430800395
 20
340.1468282747375
 30
0.0
 10
369.3179142463572
 20
340.7289622008349
 30
0.0
 10
369.3415460959814
 20
341.3135041158554
 30
0.0
 10
369.4403490791346
 20
342.4804530942496
 30
0.0
 10
369.5150016315478
 20
343.0579668124661
 30
0.0
 10
369.8126893606888
 20
344.7731685618864
 30
0.0
 10
370.1088942784904
 20
345.8936431260612
 30
0.0
 10
370.5043949881826
 20
346.9909866034004
 30
0.0
  0
LINE
  5
F6
330
1F
100
AcDbEntity
  8
0
  6
Continuous
 62
     7
370
    25
100
AcDbLine
 10
378.4693762304
 20
368.7022531772
 30
0.0
 11
399.5659665607
 21
368.7685302884
 31
0.0
  0
SPLINE
  5
F7
330
1F
100
AcDbEntity
  8
0
  6
Continuous
 62
     7
370
    18
100
AcDbSpline
210
0.0
220
0.0
230
1.0
 70
     8
 71
     3
 72
    18
 73
    14
 74
     0
 42
0.00000001
 43
0.00000001
 40
0.0
 40
0.0
 40
0.0
 40
0.0
 40
0.2500000000000001
 40
0.2500000000000001
 40
0.5000000000000002
 40
0.5000000000000002
 40
0.7500000000000003
 40
0.7500000000000003
 40
0.8750000000000004
 40
0.8750000000000004
 40
0.9375000000000002
 40
0.9375000000000002
 40
1.0
 40
1.0
 40
1.0
 40
1.0
 10
401.2608182633451
 20
306.482570037343
 30
0.0
 10
401.2529179586937
 20
308.9972984750489
 30
0.0
 10
401.2450745549099
 20
311.4939148633899
 30
0.0
 10
401.2295136902895
 20
316.4470588864529
 30
0.0
 10
401.2217977414701
 20
318.9031052327178
 30
0.0
 10
401.2064736950484
 20
323.7808679291234
 30
0.0
 10
401.1988555587319
 20
326.2057796907467
 30
0.0
 10
401.1875773701646
 20
329.7957142523365
 30
0.0
 10
401.1838404382042
 20
330.9852085435741
 30
0.0
 10
401.178271405469
 20
332.757874614133
 30
0.0
 10
401.1764214630753
 20
333.3467255384179
 30
0.0
 10
401.172729225907
 20
334.5219930821699
 30
0.0
 10
401.1708911822233
 20
335.1070565419245
 30
0.0
 10
401.1690291945549
 20
335.6997415835162
 30
0.0
  0
ARC
  5
F8
330
1F
100
AcDbEntity
  8
0
  6
Continuous
 62
     7
370
    25
100
AcDbCircle
 10
399.5706789419
 20
367.2685376906
 30
0.0
 40
1.500000000000029
100
AcDbArc
 50
2.0902075604
 51
90.18
  0
SPLINE
  5
F9
330
1F
100
AcDbEntity
  8
0
  6
Continuous
 62
     7
370
    18
100
AcDbSpline
210
0.0
220
0.0
230
1.0
 70
    24
 71
     3
 72
    22
 73
    18
 74
     0
 42
0.00000001
 43
0.00000001
 40
0.0
 40
0.0
 40
0.0
 40
0.0
 40
0.1250000000000002
 40
0.1250000000000002
 40
0.2500000000000001
 40
0.2500000000000001
 40
0.3750000000000001
 40
0.3750000000000001
 40
0.5
 40
0.5
 40
0.6249999999999999
 40
0.6249999999999999
 40
0.7499999999999999
 40
0.7499999999999999
 40
0.8749999999999999
 40
0.8749999999999999
 40
1.0
 40
1.0
 40
1.0
 40
1.0
 10
401.1690293927143
 20
335.6997436889206
 30
0.0
 10
401.1634672356796
 20
337.4702274368552
 30
0.0
 10
401.1576605427294
 20
339.3185491281981
 30
0.0
 10
401.1458899338502
 20
343.0652379746711
 30
0.0
 10
401.1399266679849
 20
344.9633982087699
 30
0.0
 10
401.1281850102999
 20
348.7008716342668
 30
0.0
 10
401.1224072669449
 20
350.5399784135801
 30
0.0
 10
401.1113681456113
 20
354.0538283087379
 30
0.0
 10
401.1061073772982
 20
355.7283773627125
 30
0.0
 10
401.0964040749817
 20
358.8170242574367
 30
0.0
 10
401.0919620768696
 20
360.2309515193027
 30
0.0
 10
401.084151244138
 20
362.71720861765
 30
0.0
 10
401.0807828408929
 20
363.7894011438544
 30
0.0
 10
401.0753125627726
 20
365.5306390213024
 30
0.0
 10
401.0732109900084
 20
366.1995882079718
 30
0.0
 10
401.0703950806342
 20
367.0959170516036
 30
0.0
 10
401.0696808995406
 20
367.3232472063799
 30
0.0
 10
401.0696808995408
 20
367.32324720638
 30
0.0
  0
LINE
  5
FA
330
1F
100
AcDbEntity
  8
0
  6
Continuous
 62
     7
370
    25
100
AcDbLine
 10
370.5043949882
 20
346.9909866034
 30
0.0
 11
378.2818520539
 21
368.5700674299
 31
0.0
  0
ARC
  5
FB
330
1F
100
AcDbEntity
  8
0
  6
Continuous
 62
     7
370
    25
100
AcDbCircle
 10
378.4700045479
 20
368.5022541641
 30
0.0
 40
0.2000000000000349
100
AcDbArc
 50
90.18
 51
160.18
  0
LINE
  5
FC
330
1F
100
AcDbEntity
  8
0
  6
Continuous
 62
     7
370
    25
100
AcDbLine
 10
369.3616438787
 20
326.8094337066
 30
0.0
 11
369.31974308
 21
340.1468282747
 31
0.0
  0
SPLINE
  5
FD
330
1F
100
AcDbEntity
  8
0
  6
Continuous
 62
     7
370
    18
100
AcDbSpline
210
0.0
220
0.0
230
1.0
 70
    24
 71
     3
 72
    10
 73
     6
 74
     0
 42
0.00000001
 43
0.00000001
 40
0.0
 40
0.0
 40
0.0
 40
0.0
 40
0.5
 40
0.5
 40
1.0
 40
1.0
 40
1.0
 40
1.0
 10
401.2978370200789
 20
294.6990828765752
 30
0.0
 10
401.2916615136654
 20
296.6648161018337
 30
0.0
 10
401.2854868992216
 20
298.6302654045931
 30
0.0
 10
401.2731455832849
 20
302.558645246675
 30
0.0
 10
401.2669789853466
 20
304.5215428236668
 30
0.0
 10
401.2608182633451
 20
306.482570037343
 30
0.0
  0
LINE
  5
FE
330
1F
100
AcDbEntity
  8
0
  6
Continuous
 62
     7
370
    25
100
AcDbLine
 10
372.8800972643
 20
318.6844471405
 30
0.0
 11
369.5872028475
 21
318.6741021736
 31
0.0
  0
SPLINE
  5
FF
330
1F
100
AcDbEntity
  8
0
  6
Continuous
 62
     7
370
    25
100
AcDbSpline
210
0.0
220
0.0
230
1.0
 70
     8
 71
     3
 72
    10
 73
     6
 74
     0
 42
0.00000001
 43
0.00000001
 40
0.0
 40
0.0
 40
0.0
 40
0.0
 40
0.5
 40
0.5
 40
1.0
 40
1.0
 40
1.0
 40
1.0
 10
380.1774104885683
 20
318.7573726482355
 30
0.0
 10
380.4464862233853
 20
318.7126249762356
 30
0.0
 10
380.7045588763118
 20
318.6597754342661
 30
0.0
 10
381.2009626159451
 20
318.5409251498123
 30
0.0
 10
381.4410195315331
 20
318.4742551043962
 30
0.0
 10
381.6631892160696
 20
318.4052437539212
 30
0.0
  0
SPLINE
  5
100
330
1F
100
AcDbEntity
  8
0
  6
Continuous
 62
     7
370
    25
100
AcDbSpline
210
0.0
220
0.0
230
1.0
 70
     8
 71
     3
 72
    12
 73
     8
 74
     0
 42
0.00000001
 43
0.00000001
 40
0.0
 40
0.0
 40
0.0
 40
0.0
 40
0.2499999999999916
 40
0.2499999999999916
 40
0.4999999999999832
 40
0.4999999999999832
 40
1.0
 40
1.0
 40
1.0
 40
1.0
 10
377.83819085959
 20
318.897047742767
 30
0.0
 10
378.0138635533698
 20
318.9027912508961
 30
0.0
 10
378.1960841827098
 20
318.9052224758496
 30
0.0
 10
378.5734368628729
 20
318.9016434750429
 30
0.0
 10
378.7703053948244
 20
318.8955298874185
 30
0.0
 10
379.3681626018019
 20
318.8622094826669
 30
0.0
 10
379.7708813612479
 20
318.8206992001757
 30
0.0
 10
380.1774104885697
 20
318.7573726482354
 30
0.0
  0
ARC
  5
101
330
1F
100
AcDbEntity
  8
0
  6
Continuous
 62
     7
370
    25
100
AcDbCircle
 10
369.58657453
 20
318.8741011866
 30
0.0
 40
0.1999999999999547
100
AcDbArc
 50
180.18
 51
270.18
  0
LINE
  5
102
330
1F
100
AcDbEntity
  8
0
  6
Continuous
 62
     7
370
    25
100
AcDbLine
 10
369.386575517
 20
318.8734728691
 30
0.0
 11
369.3616438787
 21
326.8094337066
 31
0.0
  0
SPLINE
  5
103
330
1F
100
AcDbEntity
  8
0
  6
Continuous
 62
     7
370
    25
100
AcDbSpline
210
0.0
220
0.0
230
1.0
 70
    24
 71
     3
 72
    10
 73
     6
 74
     0
 42
0.00000001
 43
0.00000001
 40
0.0
 40
0.0
 40
0.0
 40
0.0
 40
0.5
 40
0.5
 40
1.0
 40
1.0
 40
1.0
 40
1.0
 10
396.4130798459731
 20
294.673526793071
 30
0.0
 10
396.3950487161759
 20
296.4546860143486
 30
0.0
 10
396.377017501172
 20
298.2358536525556
 30
0.0
 10
396.3409873912092
 20
301.7949962756423
 30
0.0
 10
396.3229890056496
 20
303.5729209408414
 30
0.0
 10
396.3050204287071
 20
305.3479010377348
 30
0.0
  0
LINE
  5
104
330
1F
100
AcDbEntity
  8
0
  6
Continuous
 62
     7
370
    25
100
AcDbLine
 10
396.7990949772
 20
256.5420054606
 30
0.0
 11
396.413079846
 21
294.6735267931
 31
0.0
  0
ARC
  5
105
330
1F
100
AcDbEntity
  8
0
  6
Continuous
 62
     7
370
    25
100
AcDbCircle
 10
398.3121090967
 20
255.2640310637
 30
0.0
 40
1.500000000000029
100
AcDbArc
 50
180.58
 51
270.18
  0
SPLINE
  5
106
330
1F
100
AcDbEntity
  8
0
  6
Continuous
 62
     7
370
    25
100
AcDbSpline
210
0.0
220
0.0
230
1.0
 70
    24
 71
     3
 72
    24
 73
    20
 74
     0
 42
0.00000001
 43
0.00000001
 40
0.0
 40
0.0
 40
0.0
 40
0.0
 40
0.2499999999999441
 40
0.2499999999999441
 40
0.374999999999917
 40
0.374999999999917
 40
0.4374999999999047
 40
0.4374999999999047
 40
0.4687499999999018
 40
0.4687499999999018
 40
0.4999999999998989
 40
0.4999999999998989
 40
0.5624999999999047
 40
0.5624999999999047
 40
0.6249999999999106
 40
0.6249999999999106
 40
0.7499999999999407
 40
0.7499999999999407
 40
1.0
 40
1.0
 40
1.0
 40
1.0
 10
396.8121859510405
 20
255.2488469585393
 30
0.0
 10
396.8121859510404
 20
255.2488469585393
 30
0.0
 10
396.8121946869364
 20
255.2479840053148
 30
0.0
 10
396.8119131523188
 20
255.2757946852713
 30
0.0
 10
396.8117712311819
 20
255.2898140032174
 30
0.0
 10
396.8114143482774
 20
255.3250677717503
 30
0.0
 10
396.8112714400787
 20
255.3391845940999
 30
0.0
 10
396.8109961785683
 20
255.3663756011628
 30
0.0
 10
396.8108939454624
 20
255.3764744381032
 30
0.0
 10
396.8106557346478
 20
255.4000054865618
 30
0.0
 10
396.8105188255312
 20
255.4135297048399
 30
0.0
 10
396.8099667179961
 20
255.4680682411503
 30
0.0
 10
396.8095074851832
 20
255.5134323846372
 30
0.0
 10
396.8086080813736
 20
255.6022776986676
 30
0.0
 10
396.8081433998929
 20
255.6481800749399
 30
0.0
 10
396.8067348741073
 20
255.7873177063422
 30
0.0
 10
396.8057875228746
 20
255.8808993843772
 30
0.0
 10
396.802933231294
 20
256.1628533066361
 30
0.0
 10
396.8010133276842
 20
256.352506093634
 30
0.0
 10
396.7990949771844
 20
256.542005460595
 30
0.0
  0
LINE
  5
107
330
1F
100
AcDbEntity
  8
0
  6
Continuous
 62
     7
370
    25
100
AcDbLine
 10
399.9272491216
 20
253.7690977902
 30
0.0
 11
398.316821478
 21
253.7640384659
 31
0.0
  0
ARC
  5
108
330
1F
100
AcDbEntity
  8
0
  6
Continuous
 62
     7
370
    25
100
AcDbCircle
 10
399.9225367404
 20
255.269090388
 30
0.0
 40
1.499999999999972
100
AcDbArc
 50
270.18
 51
358.2697868283
  0
LINE
  5
109
330
1F
100
AcDbEntity
  8
0
  6
Continuous
 62
     7
370
    25
100
AcDbLine
 10
376.2344779428
 20
318.7449855196
 30
0.0
 11
380.1774104886
 21
318.7573726482
 31
0.0
  0
SPLINE
  5
10A
330
1F
100
AcDbEntity
  8
0
  6
Continuous
 62
     7
370
    25
100
AcDbSpline
210
0.0
220
0.0
230
1.0
 70
     8
 71
     3
 72
    10
 73
     6
 74
     0
 42
0.00000001
 43
0.00000001
 40
0.0
 40
0.0
 40
0.0
 40
0.0
 40
0.5
 40
0.5
 40
1.0
 40
1.0
 40
1.0
 40
1.0
 10
377.8382312865353
 20
318.8976147535095
 30
0.0
 10
377.4849867565123
 20
318.8848393037808
 30
0.0
 10
377.171367225732
 20
318.858242312941
 30
0.0
 10
376.6236013798265
 20
318.7996155136502
 30
0.0
 10
376.4026429180298
 20
318.7693001235439
 30
0.0
 10
376.2344779427804
 20
318.7449855196126
 30
0.0
  0
SPLINE
  5
10B
330
1F
100
AcDbEntity
  8
0
  6
Continuous
 62
     7
370
    25
100
AcDbSpline
210
0.0
220
0.0
230
1.0
 70
     8
 71
     3
 72
     8
 73
     4
 74
     0
 42
0.00000001
 43
0.00000001
 40
0.0
 40
0.0
 40
0.0
 40
0.0
 40
1.0
 40
1.0
 40
1.0
 40
1.0
 10
382.3606998111034
 20
318.1636813430044
 30
0.0
 10
382.1508863423654
 20
318.2443151584625
 30
0.0
 10
381.9192189365996
 20
318.3261447162172
 30
0.0
 10
381.6640338232157
 20
318.4051870902475
 30
0.0
  0
SPLINE
  5
10C
330
1F
100
AcDbEntity
  8
0
  6
Continuous
 62
     7
370
    25
100
AcDbSpline
210
0.0
220
0.0
230
1.0
 70
     8
 71
     3
 72
     9
 73
     5
 74
     0
 42
0.00000001
 43
0.00000001
 40
0.0
 40
0.0
 40
0.0
 40
0.0
 40
0.9101150303430989
 40
1.0
 40
1.0
 40
1.0
 40
1.0
 10
376.234477942768
 20
318.7449855196116
 30
0.0
 10
376.0467152708374
 20
318.7143050732937
 30
0.0
 10
375.8404087429034
 20
318.6805945583642
 30
0.0
 10
375.9211626506823
 20
318.6940382345003
 30
0.0
 10
375.9284212132326
 20
318.6952466189218
 30
0.0
  0
SPLINE
  5
10D
330
1F
100
AcDbEntity
  8
0
  6
Continuous
 62
     7
370
    25
100
AcDbSpline
210
0.0
220
0.0
230
1.0
 70
     8
 71
     3
 72
    14
 73
    10
 74
     0
 42
0.00000001
 43
0.00000001
 40
0.0
 40
0.0
 40
0.0
 40
0.0
 40
0.1250000000000096
 40
0.1250000000000096
 40
0.2500000000000192
 40
0.2500000000000192
 40
0.499999999999993
 40
0.499999999999993
 40
1.0
 40
1.0
 40
1.0
 40
1.0
 10
382.6124983929312
 20
318.0342966757374
 30
0.0
 10
382.6325868150079
 20
318.0310270882147
 30
0.0
 10
382.6343079756468
 20
318.03386225421
 30
0.0
 10
382.6303175823146
 20
318.0408188258782
 30
0.0
 10
382.6238251037572
 20
318.0454713016764
 30
0.0
 10
382.5996748225198
 20
318.0604127963469
 30
0.0
 10
382.5763673598944
 20
318.0721495442597
 30
0.0
 10
382.497918311176
 20
318.1088875678942
 30
0.0
 10
382.4335069661277
 20
318.1357006860068
 30
0.0
 10
382.3606998111034
 20
318.1636813430045
 30
0.0
  0
LINE
  5
10E
330
1F
100
AcDbEntity
  8
0
  6
Continuous
 62
     8
370
    18
100
AcDbLine
 10
337.3429878469
 20
447.2639173908
 30
0.0
 11
337.3429878469
 21
300.5584115022
 31
0.0
  0
ARC
  5
10F
330
1F
100
AcDbEntity
  8
0
  6
Continuous
 62
     8
370
    18
100
AcDbCircle
 10
370.5137831851
 20
346.5878551096
 30
0.0
 40
0.4032407960070642
100
AcDbArc
 50
63.6971958206
 51
91.3340730274
  0
ARC
  5
110
330
1F
100
AcDbEntity
  8
0
  6
Continuous
 62
     8
370
    18
100
AcDbCircle
 10
369.4696710584
 20
340.4918105029
 30
0.0
 40
0.3761530758274315
100
AcDbArc
 50
246.5104155662
 51
277.6632757977
  0
ARC
  5
111
330
1F
100
AcDbEntity
  8
0
  6
Continuous
 62
     8
370
    18
100
AcDbCircle
 10
400.1004869397
 20
312.0712446016
 30
0.0
 40
5.707859019198525
100
AcDbArc
 50
266.600127394
 51
281.7292161954
  0
LINE
  5
112
330
1F
100
AcDbEntity
  8
0
  6
Continuous
 62
     8
370
    18
100
AcDbLine
 10
399.7619871891
 20
306.3734316438
 30
0.0
 11
397.7940239428
 21
306.3672490846
 31
0.0
  0
ARC
  5
113
330
1F
100
AcDbEntity
  8
0
  6
Continuous
 62
     8
370
    18
100
AcDbCircle
 10
369.5346388393
 20
326.8495067949
 30
0.0
 40
0.1775756424581683
100
AcDbArc
 50
193.0421449211
 51
278.886450814
  0
LINE
  5
114
330
1F
100
AcDbEntity
  8
0
  6
Continuous
 62
     8
370
    18
100
AcDbLine
 10
362.3328197584
 20
368.3111644451
 30
0.0
 11
362.3328197584
 21
319.3111644451
 31
0.0
  0
SPLINE
  5
115
330
1F
100
AcDbEntity
  8
0
  6
Continuous
 62
     8
370
    18
100
AcDbSpline
210
0.0
220
0.0
230
1.0
 70
     8
 71
     3
 72
    28
 73
    24
 74
     0
 42
0.00000001
 43
0.00000001
 40
0.0
 40
0.0
 40
0.0
 40
0.0
 40
0.2500000000000297
 40
0.2500000000000297
 40
0.3750000000000454
 40
0.3750000000000454
 40
0.4375000000000542
 40
0.4375000000000542
 40
0.4687500000000557
 40
0.4687500000000557
 40
0.5000000000000571
 40
0.5000000000000571
 40
0.5156250000000585
 40
0.5156250000000585
 40
0.5312500000000598
 40
0.5312500000000598
 40
0.5625000000000485
 40
0.5625000000000485
 40
0.6250000000000414
 40
0.6250000000000414
 40
0.7500000000000278
 40
0.7500000000000278
 40
1.0
 40
1.0
 40
1.0
 40
1.0
 10
401.4218530760413
 20
255.2238076588432
 30
0.0
 10
401.4218530817441
 20
255.2238078476645
 30
0.0
 10
401.4218556838128
 20
255.2229815902557
 30
0.0
 10
401.4217728841758
 20
255.2493404526904
 30
0.0
 10
401.4217312522374
 20
255.2625932686953
 30
0.0
 10
401.4216240354536
 20
255.2967228216617
 30
0.0
 10
401.4215810545065
 20
255.310404538034
 30
0.0
 10
401.4214979019636
 20
255.3368734789637
 30
0.0
 10
401.4214671124356
 20
255.346674308375
 30
0.0
 10
401.4213938737731
 20
255.3699873230184
 30
0.0
 10
401.4213554121315
 20
255.382230253976
 30
0.0
 10
401.4212594837681
 20
255.4127654757238
 30
0.0
 10
401.4212174894193
 20
255.426132773358
 30
0.0
 10
401.4211419837075
 20
255.4501671593352
 30
0.0
 10
401.4211051849956
 20
255.4618806398916
 30
0.0
 10
401.4209941450961
 20
255.497225997103
 30
0.0
 10
401.4209194713268
 20
255.5209955684012
 30
0.0
 10
401.4206945416237
 20
255.5925934325752
 30
0.0
 10
401.4205424499915
 20
255.6410060445066
 30
0.0
 10
401.4200846497527
 20
255.7867294099887
 30
0.0
 10
401.4197770983408
 20
255.8846267448624
 30
0.0
 10
401.4188530678228
 20
256.1787568321969
 30
0.0
 10
401.4182415674134
 20
256.3734048215768
 30
0.0
 10
401.417634237611
 20
256.5667252698617
 30
0.0
  0
LINE
  5
116
330
1F
100
AcDbEntity
  8
0
  6
Continuous
 62
     8
370
    18
100
AcDbLine
 10
401.4176339201
 20
256.566725219
 30
0.0
 11
401.2978371912
 21
294.699082904
 31
0.0
  0
SPLINE
  5
117
330
1F
100
AcDbEntity
  8
0
  6
Continuous
 62
     8
370
    18
100
AcDbSpline
210
0.0
220
0.0
230
1.0
 70
     8
 71
     3
 72
    36
 73
    32
 74
     0
 42
0.00000001
 43
0.00000001
 40
0.0
 40
0.0
 40
0.0
 40
0.0
 40
0.0423234961534899
 40
0.0834443287306787
 40
0.1228604652317272
 40
0.2005414244082423
 40
0.2265590609642492
 40
0.2522901220160662
 40
0.3025607383107463
 40
0.3524321447795201
 40
0.3894051009781105
 40
0.4515779291607719
 40
0.4765864466009684
 40
0.5139366295950953
 40
0.5510324758338824
 40
0.6008740257325286
 40
0.6267134165505329
 40
0.652226205651405
 40
0.7039409534006683
 40
0.7429001608487482
 40
0.7684923379785336
 40
0.781339772804335
 40
0.8324171688219658
 40
0.8707232247774386
 40
0.8770374129249121
 40
0.9084700121332551
 40
0.9313433499752
 40
0.9430621035956965
 40
0.9783118965102349
 40
0.9950192458598262
 40
1.0
 40
1.0
 40
1.0
 40
1.0
 10
397.7941129798682
 20
306.367289491506
 30
0.0
 10
397.7567473461361
 20
306.3665834233692
 30
0.0
 10
397.6830778597341
 20
306.365191350713
 30
0.0
 10
397.5755461849727
 20
306.3561632214902
 30
0.0
 10
397.4394183836465
 20
306.3383998649129
 30
0.0
 10
397.3204155460289
 20
306.3137675594161
 30
0.0
 10
397.2181171558678
 20
306.2856390370442
 30
0.0
 10
397.1395895366975
 20
306.2612371844672
 30
0.0
 10
397.0467709463879
 20
306.2272723045606
 30
0.0
 10
396.9520665823222
 20
306.1854571307418
 30
0.0
 10
396.855610948713
 20
306.1360431088444
 30
0.0
 10
396.7815426867
 20
306.0914563535771
 30
0.0
 10
396.7130962663336
 20
306.0443568094917
 30
0.0
 10
396.6616894290062
 20
306.0054197639812
 30
0.0
 10
396.6022798289822
 20
305.9550011268827
 30
0.0
 10
396.5534635693449
 20
305.907621123118
 30
0.0
 10
396.5136941644893
 20
305.8640670975985
 30
0.0
 10
396.4759750579707
 20
305.8190350420181
 30
0.0
 10
396.4381492618303
 20
305.7672778412604
 30
0.0
 10
396.4057594431652
 20
305.714567870796
 30
0.0
 10
396.386754281719
 20
305.6790834841744
 30
0.0
 10
396.3665280728388
 20
305.6378050009675
 30
0.0
 10
396.3467381587074
 20
305.5902584724126
 30
0.0
 10
396.3326053926722
 20
305.5454322825975
 30
0.0
 10
396.3231450210984
 20
305.5097259686608
 30
0.0
 10
396.3167992529121
 20
305.4812094405875
 30
0.0
 10
396.3117667415326
 20
305.4501491039047
 30
0.0
 10
396.3076978080168
 20
305.4172891871522
 30
0.0
 10
396.3055448676448
 20
305.3873343985849
 30
0.0
 10
396.3050457373853
 20
305.3605346676015
 30
0.0
 10
396.3051053395739
 20
305.3502960354307
 30
0.0
 10
396.3051190274397
 20
305.3479446952317
 30
0.0
  0
LINE
  5
118
330
1F
100
AcDbEntity
  8
0
  6
Continuous
 62
     8
370
    18
100
AcDbLine
 10
376.30776769
 20
318.9314107934
 30
0.0
 11
376.3395425493
 21
318.9315106174
 31
0.0
  0
SPLINE
  5
119
330
1F
100
AcDbEntity
  8
0
  6
Continuous
 62
     8
370
    18
100
AcDbSpline
210
0.0
220
0.0
230
1.0
 70
     8
 71
     3
 72
    23
 73
    19
 74
     0
 42
0.00000001
 43
0.00000001
 40
0.0
 40
0.0
 40
0.0
 40
0.0
 40
0.0361811974784559
 40
0.0720312010610146
 40
0.1076649013561223
 40
0.1431992870629518
 40
0.1787523272274273
 40
0.2144418058297184
 40
0.2503841654355328
 40
0.2866934156262483
 40
0.4173046539638178
 40
0.548225913001264
 40
0.6649330549857144
 40
0.7815757540459052
 40
0.8363700958229372
 40
0.8907681661960217
 40
0.9451761470575908
 40
1.0
 40
1.0
 40
1.0
 40
1.0
 10
376.3076371347317
 20
318.931416121367
 30
0.0
 10
376.2426543418239
 20
318.9310730243678
 30
0.0
 10
376.1132835927149
 20
318.9303899709963
 30
0.0
 10
375.9205137817476
 20
318.9274984563278
 30
0.0
 10
375.7301303610546
 20
318.9232616057597
 30
0.0
 10
375.5421393388266
 20
318.9175829353965
 30
0.0
 10
375.3565459973638
 20
318.910545652429
 30
0.0
 10
375.1733595060437
 20
318.9022044333555
 30
0.0
 10
374.992571584932
 20
318.892633983577
 30
0.0
 10
374.6607830058932
 20
318.8727419086401
 30
0.0
 10
374.2019828969826
 20
318.8377298363059
 30
0.0
 10
373.7084795452588
 20
318.7882958424975
 30
0.0
 10
373.3269687757381
 20
318.7439973544574
 30
0.0
 10
373.1090760895676
 20
318.7156618263954
 30
0.0
 10
372.9885496036194
 20
318.6995114467311
 30
0.0
 10
372.9261721303258
 20
318.6909547999391
 30
0.0
 10
372.8872171138241
 20
318.685476978482
 30
0.0
 10
372.8824687346191
 20
318.6847912654518
 30
0.0
 10
372.880085505901
 20
318.6844471035989
 30
0.0
  0
SPLINE
  5
11A
330
1F
100
AcDbEntity
  8
0
  6
Continuous
 62
     8
370
    18
100
AcDbSpline
210
0.0
220
0.0
230
1.0
 70
     8
 71
     3
 72
    28
 73
    24
 74
     0
 42
0.00000001
 43
0.00000001
 40
0.0
 40
0.0
 40
0.0
 40
0.0
 40
0.0191424607211535
 40
0.0380532105540525
 40
0.0567375018289008
 40
0.0751996813694058
 40
0.0934433177581951
 40
0.1362858336970275
 40
0.1794711951790849
 40
0.2567390999250979
 40
0.3385165637935374
 40
0.4058085720415583
 40
0.48074121495259
 40
0.5413251532780397
 40
0.6176530775285223
 40
0.6844405162575085
 40
0.7519290448594593
 40
0.8247587908036053
 40
0.8912609794852112
 40
0.9312696856299273
 40
0.9709682474652522
 40
0.9854252642756361
 40
1.0
 40
1.0
 40
1.0
 40
1.0
 10
396.3636127867217
 20
299.5600040885316
 30
0.0
 10
396.3610959085452
 20
299.7262010701785
 30
0.0
 10
396.356092617872
 20
300.0565832936651
 30
0.0
 10
396.3375817087992
 20
300.5489200948683
 30
0.0
 10
396.3111019765071
 20
301.0349581571255
 30
0.0
 10
396.2759514727651
 20
301.5146500059803
 30
0.0
 10
396.2126553555905
 20
302.2024786635372
 30
0.0
 10
396.1007967697847
 20
303.1012946698475
 30
0.0
 10
395.8582693871309
 20
304.4987585794829
 30
0.0
 10
395.4340983187843
 20
306.2056242144716
 30
0.0
 10
394.7614570128449
 20
308.0568626719706
 30
0.0
 10
393.9032727277315
 20
309.8056466784915
 30
0.0
 10
392.9599318196327
 20
311.297602819996
 30
0.0
 10
391.8164922307282
 20
312.7416223934271
 30
0.0
 10
390.5736699893476
 20
314.0063308681943
 30
0.0
 10
389.1532088231745
 20
315.1628076288283
 30
0.0
 10
387.6489201634192
 20
316.1535626104031
 30
0.0
 10
386.0541305217973
 20
316.9860758689498
 30
0.0
 10
384.6092125080863
 20
317.5722324806543
 30
0.0
 10
383.4025534536656
 20
317.9683155217519
 30
0.0
 10
382.6132950232418
 20
318.1831803445212
 30
0.0
 10
382.0333908777988
 20
318.3239247172953
 30
0.0
 10
381.7871974382113
 20
318.378005366862
 30
0.0
 10
381.6636015817516
 20
318.405155335652
 30
0.0
  0
SPLINE
  5
11B
330
1F
100
AcDbEntity
  8
0
  6
Continuous
 62
     8
370
    18
100
AcDbSpline
210
0.0
220
0.0
230
1.0
 70
     8
 71
     3
 72
    13
 73
     9
 74
     0
 42
0.00000001
 43
0.00000001
 40
0.0
 40
0.0
 40
0.0
 40
0.0
 40
0.1543345263213719
 40
0.3094569045917605
 40
0.482937542921022
 40
0.6558649424060284
 40
0.8282242185629407
 40
1.0
 40
1.0
 40
1.0
 40
1.0
 10
377.8381972531132
 20
318.8970474302346
 30
0.0
 10
377.7611329204595
 20
318.9006168899656
 30
0.0
 10
377.6066108546208
 20
318.9077740309228
 30
0.0
 10
377.3653520752638
 20
318.9161794946895
 30
0.0
 10
377.1147173300327
 20
318.9237563907786
 30
0.0
 10
376.8554121921478
 20
318.9287847555365
 30
0.0
 10
376.5969216742824
 20
318.9316529448321
 30
0.0
 10
376.4248734252043
 20
318.9315616895444
 30
0.0
 10
376.3389951580004
 20
318.931516139264
 30
0.0
  0
LINE
  5
11C
330
1F
100
AcDbEntity
  8
0
  6
Continuous
 62
     8
370
    18
100
AcDbLine
 10
346.4491193508
 20
422.5855105826
 30
0.0
 11
346.4491193508
 21
401.0368183105
 31
0.0
  0
LINE
  5
11D
330
1F
100
AcDbEntity
  8
0
  6
Continuous
 62
     8
370
    18
100
AcDbLine
 10
376.1074816393
 20
318.1440362142
 30
0.0
 11
382.3606998111
 21
318.163681343
 31
0.0
  0
LINE
  5
11E
330
1F
100
AcDbEntity
  8
0
  6
Continuous
 62
     7
370
    25
100
AcDbLine
 10
101.0037549407
 20
190.5127928898
 30
0.0
 11
101.1618236362
 21
184.4763929472
 31
0.0
  0
LINE
  5
11F
330
1F
100
AcDbEntity
  8
0
  6
Continuous
 62
     7
370
    25
100
AcDbLine
 10
249.8456862453
 20
184.4763929472
 30
0.0
 11
250.0037549407
 21
190.5127928898
 31
0.0
  0
ARC
  5
120
330
1F
100
AcDbEntity
  8
0
  6
Continuous
 62
     7
370
    25
100
AcDbCircle
 10
248.8460289203
 20
184.5025698955
 30
0.0
 40
0.999999999999589
100
AcDbArc
 50
270.6004114401
 51
358.5
  0
ARC
  5
121
330
1F
100
AcDbEntity
  8
0
  6
Continuous
 62
     7
370
    25
100
AcDbCircle
 10
102.1614809611
 20
184.5025698955
 30
0.0
 40
0.999999999999589
100
AcDbArc
 50
181.5
 51
269.3995885599
  0
ARC
  5
122
330
1F
100
AcDbEntity
  8
0
  6
Continuous
 62
     7
370
    25
100
AcDbCircle
 10
175.5037549407
 20
7183.1182837955
 30
0.0
 40
7000.000000000001
100
AcDbArc
 50
269.3995885599
 51
269.9066710329
  0
ARC
  5
123
330
1F
100
AcDbEntity
  8
0
  6
Continuous
 62
     7
370
    25
100
AcDbCircle
 10
175.5037549407
 20
7183.1182837955
 30
0.0
 40
7000.000000000002
100
AcDbArc
 50
270.093328967
 51
270.6004114401
  0
LINE
  5
124
330
1F
100
AcDbEntity
  8
0
  6
Continuous
 62
     7
370
    25
100
AcDbLine
 10
164.0996968411
 20
183.2294778884
 30
0.0
 11
164.245306315
 21
174.8875167161
 31
0.0
  0
LINE
  5
125
330
1F
100
AcDbEntity
  8
0
  6
Continuous
 62
     7
370
    25
100
AcDbLine
 10
186.7622035623
 20
174.8875167161
 30
0.0
 11
186.9078232126
 21
183.2300608928
 31
0.0
  0
ARC
  5
126
330
1F
100
AcDbEntity
  8
0
  6
Continuous
 62
     7
370
    25
100
AcDbCircle
 10
164.7452301625
 20
174.8962429193
 30
0.0
 40
0.5000000000000063
100
AcDbArc
 50
181.0
 51
268.1867030124
  0
ARC
  5
127
330
1F
100
AcDbEntity
  8
0
  6
Continuous
 62
     7
370
    25
100
AcDbCircle
 10
186.2622797147
 20
174.8962429193
 30
0.0
 40
0.4999999999999983
100
AcDbArc
 50
271.8132969877
 51
359.0
  0
ARC
  5
128
330
1F
100
AcDbEntity
  8
0
  6
Continuous
 62
     7
370
    25
100
AcDbCircle
 10
175.5037549386
 20
514.7259857975
 30
0.0
 40
340.5000000000001
100
AcDbArc
 50
268.1867030123
 51
270.0
  0
ARC
  5
129
330
1F
100
AcDbEntity
  8
0
  6
Continuous
 62
     7
370
    25
100
AcDbCircle
 10
175.5037549386
 20
514.7259857975
 30
0.0
 40
340.5000000000001
100
AcDbArc
 50
270.0
 51
271.8132969877
  0
SPLINE
  5
12A
330
1F
100
AcDbEntity
  8
0
  6
Continuous
 62
     7
370
    25
100
AcDbSpline
210
0.0
220
0.0
230
1.0
 70
     8
 71
     3
 72
    19
 73
    15
 74
     0
 42
0.00000001
 43
0.00000001
 40
0.0
 40
0.0
 40
0.0
 40
0.0
 40
0.0307584183042292
 40
0.1595025753589945
 40
0.2618451200016952
 40
0.3479400825148825
 40
0.4203489090053045
 40
0.4773214186349625
 40
0.5168800739151991
 40
0.5527984787890085
 40
0.6035639655052253
 40
0.7055377572639294
 40
0.9058022869578105
 40
1.0
 40
1.0
 40
1.0
 40
1.0
 10
150.5215225202133
 20
121.2105475073087
 30
0.0
 10
150.515804467365
 20
121.1682842304012
 30
0.0
 10
150.4861526125031
 20
120.9491214163969
 30
0.0
 10
150.6133058209338
 20
120.5894200646209
 30
0.0
 10
150.8462290746344
 20
120.2185757905406
 30
0.0
 10
151.1177134814105
 20
119.976118300355
 30
0.0
 10
151.3743446409705
 20
119.8307344388261
 30
0.0
 10
151.5839002383515
 20
119.7572988571199
 30
0.0
 10
151.7187349390993
 20
119.7268267812476
 30
0.0
 10
151.8047080529538
 20
119.7129729976014
 30
0.0
 10
151.8811473011184
 20
119.7042478637055
 30
0.0
 10
151.9552719295862
 20
119.6991820182781
 30
0.0
 10
152.0028014580262
 20
119.6964997172823
 30
0.0
 10
152.0638394797251
 20
119.6951470528901
 30
0.0
 10
152.0833653856587
 20
119.6947143390349
 30
0.0
  0
SPLINE
  5
12B
330
1F
100
AcDbEntity
  8
0
  6
Continuous
 62
     7
370
    25
100
AcDbSpline
210
0.0
220
0.0
230
1.0
 70
     8
 71
     3
 72
    17
 73
    13
 74
     0
 42
0.00000001
 43
0.00000001
 40
0.0
 40
0.0
 40
0.0
 40
0.0
 40
0.0380955956882104
 40
0.3341547635518165
 40
0.4611349366297436
 40
0.5029443498115994
 40
0.5493707421195405
 40
0.6324689946574321
 40
0.7335743437171932
 40
0.8485955974506697
 40
0.97599942199396
 40
1.0
 40
1.0
 40
1.0
 40
1.0
 10
198.9206193648308
 20
119.6943279479861
 30
0.0
 10
198.9291734248717
 20
119.6945011677583
 30
0.0
 10
199.0042051932098
 20
119.6960205615619
 30
0.0
 10
199.0483013115872
 20
119.7003594839062
 30
0.0
 10
199.1560344978928
 20
119.704886878759
 30
0.0
 10
199.3188513617196
 20
119.7321384010782
 30
0.0
 10
199.5173492749647
 20
119.7837519393907
 30
0.0
 10
199.8112420759702
 20
119.9168866872489
 30
0.0
 10
200.1413694360654
 20
120.1856989129395
 30
0.0
 10
200.3979807546535
 20
120.595017029287
 30
0.0
 10
200.5279136487534
 20
120.9702094106775
 30
0.0
 10
200.4928381737237
 20
121.1807865750342
 30
0.0
 10
200.4872780205156
 20
121.2141672005269
 30
0.0
  0
LINE
  5
12C
330
1F
100
AcDbEntity
  8
0
  6
Continuous
 62
     7
370
    25
100
AcDbLine
 10
200.5037549424
 20
121.2011064004
 30
0.0
 11
200.5037549424
 21
150.9779693246
 31
0.0
  0
LINE
  5
12D
330
1F
100
AcDbEntity
  8
0
  6
Continuous
 62
     7
370
    25
100
AcDbLine
 10
150.5037549424
 20
150.983097528
 30
0.0
 11
150.5037549424
 21
121.2011064004
 31
0.0
  0
LINE
  5
12E
330
1F
100
AcDbEntity
  8
0
  6
Continuous
 62
     7
370
    25
100
AcDbLine
 10
200.0037549429
 20
158.5127928898
 30
0.0
 11
200.0037549429
 21
183.1611589268
 31
0.0
  0
LINE
  5
12F
330
1F
100
AcDbEntity
  8
0
  6
Continuous
 62
     7
370
    25
100
AcDbLine
 10
151.0037549429
 20
183.1611589268
 30
0.0
 11
151.0037549429
 21
158.5127928898
 31
0.0
  0
ARC
  5
130
330
1F
100
AcDbEntity
  8
0
  6
Continuous
 62
     7
370
    25
100
AcDbCircle
 10
175.5037549429
 20
158.5127928898
 30
0.0
 40
24.5
100
AcDbArc
 50
180.0
 51
197.4658489214
  0
ARC
  5
131
330
1F
100
AcDbEntity
  8
0
  6
Continuous
 62
     7
370
    25
100
AcDbCircle
 10
175.5037549429
 20
158.5127928898
 30
0.0
 40
24.50000000000003
100
AcDbArc
 50
342.5440365595
 51
0.0
  0
SPLINE
  5
132
330
1F
100
AcDbEntity
  8
0
  6
Continuous
 62
     7
370
    25
100
AcDbSpline
210
0.0
220
0.0
230
1.0
 70
     8
 71
     3
 72
    13
 73
     9
 74
     0
 42
0.00000001
 43
0.00000001
 40
0.0
 40
0.0
 40
0.0
 40
0.0
 40
0.0625165211557361
 40
0.2133931208008289
 40
0.3686256032534475
 40
0.5847478482254296
 40
0.8140663329835583
 40
1.0
 40
1.0
 40
1.0
 40
1.0
 10
191.6513754562627
 20
119.6060103864061
 30
0.0
 10
191.6405131707234
 20
119.604150089779
 30
0.0
 10
191.6034359794882
 20
119.5978001762597
 30
0.0
 10
191.9481471448486
 20
119.5946099216843
 30
0.0
 10
192.7504606592139
 20
119.5960011111082
 30
0.0
 10
194.2315816884747
 20
119.6131734075338
 30
0.0
 10
196.261832880176
 20
119.6289732038195
 30
0.0
 10
197.9582296676811
 20
119.6739315417119
 30
0.0
 10
198.7178097783868
 20
119.6940621264459
 30
0.0
  0
SPLINE
  5
133
330
1F
100
AcDbEntity
  8
0
  6
Continuous
 62
     7
370
    25
100
AcDbSpline
210
0.0
220
0.0
230
1.0
 70
     8
 71
     3
 72
    46
 73
    42
 74
     0
 42
0.00000001
 43
0.00000001
 40
0.0
 40
0.0
 40
0.0
 40
0.0
 40
0.0056879553806196
 40
0.0082610323273172
 40
0.0107512560914782
 40
0.0158802513167577
 40
0.0218644560359863
 40
0.038130052725721
 40
0.0615046576371605
 40
0.0925748297471195
 40
0.1506666176168585
 40
0.2153939449979522
 40
0.2867343994906135
 40
0.3320168127625794
 40
0.3794166545373192
 40
0.4204237767422844
 40
0.4517436500139491
 40
0.4655567809445446
 40
0.4768646260612637
 40
0.4862824459981217
 40
0.49476594638201
 40
0.503034197745928
 40
0.5119872754837472
 40
0.5346557828852162
 40
0.5662801611647117
 40
0.6080842537087289
 40
0.6418812700829545
 40
0.680516994308427
 40
0.7238803135756594
 40
0.7844659008041021
 40
0.8338319232668354
 40
0.8722427730373087
 40
0.9002744830478697
 40
0.9108464130031662
 40
0.9195964815792161
 40
0.9272359991222049
 40
0.9347965200474142
 40
0.9433382763763245
 40
0.9536223804270949
 40
0.9809443454672606
 40
1.0
 40
1.0
 40
1.0
 40
1.0
 10
160.7860266466361
 20
119.5196802962156
 30
0.0
 10
160.8762153787182
 20
119.5164035955262
 30
0.0
 10
161.0072030502862
 20
119.5116446041997
 30
0.0
 10
161.2339503176681
 20
119.5040622017698
 30
0.0
 10
161.4673057747306
 20
119.4965608573276
 30
0.0
 10
161.8026500553098
 20
119.4864512512839
 30
0.0
 10
162.4216247597327
 20
119.4693339177175
 30
0.0
 10
163.2585857770653
 20
119.4491002210216
 30
0.0
 10
164.3108300151212
 20
119.4265254421923
 30
0.0
 10
165.7635602488247
 20
119.3983370773233
 30
0.0
 10
167.4939344533614
 20
119.3705445060492
 30
0.0
 10
169.28644892923
 20
119.3513385155679
 30
0.0
 10
170.6502931202019
 20
119.3431705841952
 30
0.0
 10
171.7190534382479
 20
119.3384297748523
 30
0.0
 10
172.4315927220475
 20
119.3351324367379
 30
0.0
 10
173.2174833713057
 20
119.3296026933454
 30
0.0
 10
174.0116620846627
 20
119.3240494639409
 30
0.0
 10
174.7403704770049
 20
119.3205049674724
 30
0.0
 10
175.3078430311257
 20
119.3187888121776
 30
0.0
 10
175.9183402356655
 20
119.3182713389004
 30
0.0
 10
176.552637746776
 20
119.3192757609173
 30
0.0
 10
177.1684109346143
 20
119.3216570608544
 30
0.0
 10
178.0016672487629
 20
119.3267463396875
 30
0.0
 10
178.9273254113057
 20
119.3356518108416
 30
0.0
 10
179.8353957122852
 20
119.3465000532883
 30
0.0
 10
180.5414274041737
 20
119.3548356862321
 30
0.0
 10
181.1168152186079
 20
119.3600638230928
 30
0.0
 10
181.5926649839438
 20
119.3626353506058
 30
0.0
 10
182.0366824216429
 20
119.3624809406749
 30
0.0
 10
182.5860995451268
 20
119.3629427821811
 30
0.0
 10
183.3205205757398
 20
119.3681070597802
 30
0.0
 10
184.1203257115303
 20
119.3776792584314
 30
0.0
 10
184.8982106042812
 20
119.3896258330077
 30
0.0
 10
185.6068156939301
 20
119.4025516216242
 30
0.0
 10
186.120159478803
 20
119.412806238374
 30
0.0
 10
186.6768030210592
 20
119.4250219383885
 30
0.0
 10
187.2580418160934
 20
119.4390844579816
 30
0.0
 10
187.8373739311797
 20
119.4544767863046
 30
0.0
 10
188.6930862826717
 20
119.4793489012996
 30
0.0
 10
189.5173695503984
 20
119.5066596956601
 30
0.0
 10
190.0346945139104
 20
119.527267518987
 30
0.0
 10
190.2472531979616
 20
119.5357348695238
 30
0.0
  0
SPLINE
  5
134
330
1F
100
AcDbEntity
  8
0
  6
Continuous
 62
     7
370
    25
100
AcDbSpline
210
0.0
220
0.0
230
1.0
 70
     8
 71
     3
 72
    17
 73
    13
 74
     0
 42
0.00000001
 43
0.00000001
 40
0.0
 40
0.0
 40
0.0
 40
0.0
 40
0.060389794231891
 40
0.1418780378777907
 40
0.232968396422536
 40
0.3410649590494424
 40
0.4484048936397617
 40
0.5725670213267201
 40
0.7141016934342932
 40
0.8569838857653921
 40
0.9931797297949724
 40
0.9999999999999999
 40
0.9999999999999999
 40
0.9999999999999999
 40
0.9999999999999999
 10
152.1004624061355
 20
119.6946531307214
 30
0.0
 10
152.6479386424904
 20
119.6764481833013
 30
0.0
 10
153.9341634953272
 20
119.6336780057823
 30
0.0
 10
155.6576399660904
 20
119.5900665235666
 30
0.0
 10
157.1003002141869
 20
119.561561789737
 30
0.0
 10
158.0569034858981
 20
119.5502543048396
 30
0.0
 10
158.665335032426
 20
119.5510508211231
 30
0.0
 10
158.9933132433619
 20
119.5627636623588
 30
0.0
 10
159.0203422919171
 20
119.5849038731568
 30
0.0
 10
159.0216224662713
 20
119.6044376096738
 30
0.0
 10
159.0343850465559
 20
119.615429298972
 30
0.0
 10
159.0462681514959
 20
119.6182346442547
 30
0.0
 10
159.046834842788
 20
119.6183684278703
 30
0.0
  0
SPLINE
  5
135
330
1F
100
AcDbEntity
  8
0
  6
Continuous
 62
     7
370
    25
100
AcDbSpline
210
0.0
220
0.0
230
1.0
 70
     8
 71
     3
 72
    10
 73
     6
 74
     0
 42
0.00000001
 43
0.00000001
 40
0.0
 40
0.0
 40
0.0
 40
0.0
 40
0.310941220624292
 40
0.7021393203515495
 40
1.0
 40
1.0
 40
1.0
 40
1.0
 10
200.4872210974605
 20
151.0353214454553
 30
0.0
 10
200.4871005012443
 20
151.1127387842461
 30
0.0
 10
200.4868281817841
 20
151.2875556114677
 30
0.0
 10
200.2964533085349
 20
151.509869180227
 30
0.0
 10
200.1221060990841
 20
151.5102526107465
 30
0.0
 10
200.0467407168319
 20
151.5104183569477
 30
0.0
  0
SPLINE
  5
136
330
1F
100
AcDbEntity
  8
0
  6
Continuous
 62
     7
370
    25
100
AcDbSpline
210
0.0
220
0.0
230
1.0
 70
     8
 71
     3
 72
    11
 73
     7
 74
     0
 42
0.00000001
 43
0.00000001
 40
0.0
 40
0.0
 40
0.0
 40
0.0
 40
0.1299102978906915
 40
0.4844276737853722
 40
0.8409806839070684
 40
0.9999999999999999
 40
0.9999999999999999
 40
0.9999999999999999
 40
0.9999999999999999
 10
150.9375203158281
 20
151.5086415823632
 30
0.0
 10
150.902352572127
 20
151.5130905485683
 30
0.0
 10
150.7712141747095
 20
151.529680475499
 30
0.0
 10
150.5563222633019
 20
151.3568607069492
 30
0.0
 10
150.4929881508835
 20
151.1366943933496
 30
0.0
 10
150.5138652504845
 20
150.9802127773539
 30
0.0
 10
150.5203044287176
 20
150.9319487447604
 30
0.0
  0
LINE
  5
137
330
1F
100
AcDbEntity
  8
0
  6
Continuous
 62
     7
370
    25
100
AcDbLine
 10
190.6151656831
 20
119.584823981
 30
0.0
 11
190.6346463812
 21
119.5855622721
 31
0.0
  0
SPLINE
  5
138
330
1F
100
AcDbEntity
  8
0
  6
Continuous
 62
     7
370
    25
100
AcDbSpline
210
0.0
220
0.0
230
1.0
 70
     8
 71
     3
 72
    12
 73
     8
 74
     0
 42
0.00000001
 43
0.00000001
 40
0.0
 40
0.0
 40
0.0
 40
0.0
 40
0.009363340851829
 40
0.2790996095042306
 40
0.4412081730772735
 40
0.7388535867129801
 40
1.0
 40
1.0
 40
1.0
 40
1.0
 10
190.0473930498682
 20
119.4261719399239
 30
0.0
 10
190.0480771597511
 20
119.4261844656357
 30
0.0
 10
190.068468898577
 20
119.4265578282321
 30
0.0
 10
190.1043819253609
 20
119.4275535305628
 30
0.0
 10
190.2452413545421
 20
119.4420367690492
 30
0.0
 10
190.4328110113045
 20
119.4734148685543
 30
0.0
 10
190.5646593404098
 20
119.5399039349856
 30
0.0
 10
190.6262774897542
 20
119.5709770115497
 30
0.0
  0
SPLINE
  5
139
330
1F
100
AcDbEntity
  8
0
  6
Continuous
 62
     7
370
    25
100
AcDbSpline
210
0.0
220
0.0
230
1.0
 70
     8
 71
     3
 72
    12
 73
     8
 74
     0
 42
0.00000001
 43
0.00000001
 40
0.0
 40
0.0
 40
0.0
 40
0.0
 40
0.2538585248712195
 40
0.5437533819851289
 40
0.7236378966595148
 40
0.8717291828867287
 40
1.0
 40
1.0
 40
1.0
 40
1.0
 10
160.4169966848367
 20
119.5480978852024
 30
0.0
 10
160.47593204726
 20
119.5229378499951
 30
0.0
 10
160.6021689055747
 20
119.4690462021105
 30
0.0
 10
160.7798476573507
 20
119.4395176581176
 30
0.0
 10
160.8884064970911
 20
119.4293018399441
 30
0.0
 10
160.9352970107523
 20
119.4269699269638
 30
0.0
 10
160.9526479610392
 20
119.4264924108646
 30
0.0
 10
160.960701238041
 20
119.4262707763515
 30
0.0
  0
LINE
  5
13A
330
1F
100
AcDbEntity
  8
0
  6
Continuous
 62
     7
370
    25
100
AcDbLine
 10
250.0037549407
 20
190.5127928898
 30
0.0
 11
101.0037549407
 21
190.5127928898
 31
0.0
  0
SPLINE
  5
13B
330
1F
100
AcDbEntity
  8
0
  6
Continuous
 62
     7
370
    25
100
AcDbSpline
210
0.0
220
0.0
230
1.0
 70
     8
 71
     3
 72
    21
 73
    17
 74
     0
 42
0.00000001
 43
0.00000001
 40
0.0
 40
0.0
 40
0.0
 40
0.0
 40
0.071637141077824
 40
0.1432742775033325
 40
0.2149114492831378
 40
0.2865486184599771
 40
0.358185197524576
 40
0.4298217771764926
 40
0.5014581080991121
 40
0.573094442541742
 40
0.6447312048220885
 40
0.7163679720124108
 40
0.7880056561006372
 40
0.8596433443370778
 40
0.9312820367039164
 40
1.0
 40
1.0
 40
1.0
 40
1.0
 10
167.4529055964184
 20
183.273913561686
 30
0.0
 10
167.9295120746379
 20
183.2762416208478
 30
0.0
 10
168.8827250001247
 20
183.2808977390203
 30
0.0
 10
170.5591352075595
 20
183.286132356994
 30
0.0
 10
172.3620553314529
 20
183.2898369493071
 30
0.0
 10
174.2568065268015
 20
183.291858590664
 30
0.0
 10
176.186477409741
 20
183.292099864078
 30
0.0
 10
178.0974790437971
 20
183.2906179264863
 30
0.0
 10
179.9332571032772
 20
183.2873855349458
 30
0.0
 10
181.6458741797742
 20
183.2825626426931
 30
0.0
 10
183.1806773861788
 20
183.2762222429633
 30
0.0
 10
184.5015551300172
 20
183.2686017736388
 30
0.0
 10
185.5636347885468
 20
183.2598682529964
 30
0.0
 10
186.3390359670488
 20
183.2503091117886
 30
0.0
 10
186.8200204218376
 20
183.2403053618685
 30
0.0
 10
186.874683927472
 20
183.2335027287698
 30
0.0
 10
186.9014469246101
 20
183.2301721913658
 30
0.0
  0
SPLINE
  5
13C
330
1F
100
AcDbEntity
  8
0
  6
Continuous
 62
     7
370
    25
100
AcDbSpline
210
0.0
220
0.0
230
1.0
 70
     8
 71
     3
 72
    12
 73
     8
 74
     0
 42
0.00000001
 43
0.00000001
 40
0.0
 40
0.0
 40
0.0
 40
0.0
 40
0.089555445278922
 40
0.3039074144359624
 40
0.5182600635612463
 40
0.7326127019331041
 40
1.0
 40
1.0
 40
1.0
 40
1.0
 10
164.1397930462707
 20
183.2301777703002
 30
0.0
 10
164.1305125572874
 20
183.2316273913772
 30
0.0
 10
164.0990191131668
 20
183.2365466968652
 30
0.0
 10
164.3816752398544
 20
183.2448793987772
 30
0.0
 10
164.9868146632146
 20
183.2547635924146
 30
0.0
 10
165.9600585585918
 20
183.2648250804942
 30
0.0
 10
166.9200610841841
 20
183.2706695941496
 30
0.0
 10
167.4529055964184
 20
183.273913561686
 30
0.0
  0
SPLINE
  5
13D
330
1F
100
AcDbEntity
  8
0
  6
Continuous
 62
     7
370
    25
100
AcDbSpline
210
0.0
220
0.0
230
1.0
 70
     8
 71
     3
 72
     9
 73
     5
 74
     0
 42
0.00000001
 43
0.00000001
 40
0.0
 40
0.0
 40
0.0
 40
0.0
 40
0.102093973378523
 40
1.0
 40
1.0
 40
1.0
 40
1.0
 10
152.100432579696
 20
119.6937501716091
 30
0.0
 10
152.0987878350138
 20
119.6937792312432
 30
0.0
 10
152.0826777295129
 20
119.6940638673797
 30
0.0
 10
152.083022059397
 20
119.6943542043115
 30
0.0
 10
152.0833312352751
 20
119.6946148995924
 30
0.0
  0
SPLINE
  5
13E
330
1F
100
AcDbEntity
  8
0
  6
Continuous
 62
     7
370
    25
100
AcDbSpline
210
0.0
220
0.0
230
1.0
 70
     8
 71
     3
 72
    20
 73
    16
 74
     0
 42
0.00000001
 43
0.00000001
 40
0.0
 40
0.0
 40
0.0
 40
0.0
 40
0.0700558931762533
 40
0.1475512354115653
 40
0.2250465776468777
 40
0.3025419198821903
 40
0.3800372621175022
 40
0.4575326043528142
 40
0.5350279465881267
 40
0.6125232888234391
 40
0.690018631058751
 40
0.7675139732940629
 40
0.8450093155293755
 40
0.9225046577646874
 40
1.0
 40
1.0
 40
1.0
 40
1.0
 10
151.9740147811392
 20
119.7035525419343
 30
0.0
 10
152.0132751933668
 20
119.706227406824
 30
0.0
 10
152.0959652007921
 20
119.7118611886677
 30
0.0
 10
152.6378413484304
 20
119.7203163533627
 30
0.0
 10
153.4962129940406
 20
119.7287894604027
 30
0.0
 10
154.679534953772
 20
119.7368754566883
 30
0.0
 10
156.160399235936
 20
119.7444589086364
 30
0.0
 10
157.9202710849757
 20
119.751430441257
 30
0.0
 10
159.9330747070413
 20
119.7576896444707
 30
0.0
 10
162.1700382693179
 20
119.7631469071679
 30
0.0
 10
164.5989103836866
 20
119.767721819814
 30
0.0
 10
167.1847452276023
 20
119.7713554919093
 30
0.0
 10
169.890319552924
 20
119.7739696465349
 30
0.0
 10
172.6766914994313
 20
119.7756235993531
 30
0.0
 10
174.5614004613779
 20
119.7758290322382
 30
0.0
 10
175.5037549423512
 20
119.7759317486808
 30
0.0
  0
SPLINE
  5
13F
330
1F
100
AcDbEntity
  8
0
  6
Continuous
 62
     7
370
    25
100
AcDbSpline
210
0.0
220
0.0
230
1.0
 70
     8
 71
     3
 72
    20
 73
    16
 74
     0
 42
0.00000001
 43
0.00000001
 40
0.0
 40
0.0
 40
0.0
 40
0.0
 40
0.0774934139647668
 40
0.1549868279295342
 40
0.2324802418943016
 40
0.3099736558590684
 40
0.3874670698238352
 40
0.4649604837886026
 40
0.5424538977533697
 40
0.6199473117181369
 40
0.6974407256829037
 40
0.7749341396476711
 40
0.8524275536124378
 40
0.9299209675772049
 40
1.0
 40
1.0
 40
1.0
 40
1.0
 10
175.5037549423512
 20
119.7759317486808
 30
0.0
 10
176.4461094233267
 20
119.7758290322381
 30
0.0
 10
178.3308183852776
 20
119.7756235993527
 30
0.0
 10
181.1171903317525
 20
119.7739696465341
 30
0.0
 10
183.8227646571972
 20
119.7713554919082
 30
0.0
 10
186.4085995006535
 20
119.7677218198125
 30
0.0
 10
188.8374716167371
 20
119.7631469071666
 30
0.0
 10
191.074435172614
 20
119.757689644467
 30
0.0
 10
193.0872388185638
 20
119.7514304412609
 30
0.0
 10
194.847110578467
 20
119.7444589086105
 30
0.0
 10
196.327975193293
 20
119.7368754567725
 30
0.0
 10
197.511295911513
 20
119.7287894600756
 30
0.0
 10
198.3696721905073
 20
119.7203163545688
 30
0.0
 10
198.9115915119491
 20
119.7118602494622
 30
0.0
 10
198.9942879670991
 20
119.7062255150581
 30
0.0
 10
199.0335587639421
 20
119.7035496989103
 30
0.0
  0
SPLINE
  5
140
330
1F
100
AcDbEntity
  8
0
  6
Continuous
 62
     7
370
    25
100
AcDbSpline
210
0.0
220
0.0
230
1.0
 70
     8
 71
     3
 72
     9
 73
     5
 74
     0
 42
0.00000001
 43
0.00000001
 40
0.0
 40
0.0
 40
0.0
 40
0.0
 40
0.1332123084929322
 40
1.0
 40
1.0
 40
1.0
 40
1.0
 10
198.9206192124012
 20
119.6943906098426
 30
0.0
 10
198.918159611901
 20
119.6942060481465
 30
0.0
 10
198.8996958488441
 20
119.6928205778528
 30
0.0
 10
198.8023175514584
 20
119.6914624482491
 30
0.0
 10
198.7179112418646
 20
119.6902852382252
 30
0.0
  0
LINE
  5
141
330
1F
100
AcDbEntity
  8
0
  6
Continuous
 62
     7
370
    25
100
AcDbLine
 10
150.5242139453
 20
150.9339253537
 30
0.0
 11
150.5325349189
 21
150.9830997474
 31
0.0
  0
LWPOLYLINE
  5
142
330
1F
100
AcDbEntity
  8
0
  6
Continuous
 62
     7
370
    25
100
AcDbPolyline
 90
       26
 70
   128
 43
0.0
 10
198.3809070669
 20
150.34121766
 10
197.6434737697
 20
149.5320618392
 10
196.6578656515
 20
148.7538768291
 10
195.4351308706
 20
148.0153856821
 10
193.9889756528
 20
147.3248665027
 10
192.3356106517
 20
146.6900596546
 10
190.4935692355
 20
146.1180809949
 10
188.4834997379
 20
145.6153421091
 10
186.3279340004
 20
145.1874784407
 10
184.0510348023
 20
144.8392861206
 10
181.6783250086
 20
144.5746682049
 10
179.2364014714
 20
144.396590924
 10
176.7526368931
 20
144.3070504322
 10
174.2548729927
 20
144.3070504322
 10
171.7711084144
 20
144.396590924
 10
169.3291848771
 20
144.5746682049
 10
166.9564750834
 20
144.8392861206
 10
164.6795758854
 20
145.1874784407
 10
162.5240101479
 20
145.6153421091
 10
160.5139406502
 20
146.1180809949
 10
158.6718992341
 20
146.6900596546
 10
157.018534233
 20
147.3248665027
 10
155.5723790151
 20
148.0153856821
 10
154.3496442342
 20
148.7538768291
 10
153.3640361161
 20
149.5320618392
 10
152.6266028189
 20
150.34121766
  0
SPLINE
  5
143
330
1F
100
AcDbEntity
  8
0
  6
Continuous
 62
     7
370
    25
100
AcDbSpline
210
0.0
220
0.0
230
1.0
 70
     8
 71
     3
 72
     9
 73
     5
 74
     0
 42
0.00000001
 43
0.00000001
 40
0.0
 40
0.0
 40
0.0
 40
0.0
 40
0.659303380391902
 40
1.0
 40
1.0
 40
1.0
 40
1.0
 10
152.6266028188718
 20
150.3412176600389
 30
0.0
 10
152.4613893879973
 20
150.5729924663227
 30
0.0
 10
152.2108015163315
 20
150.9245374654489
 30
0.0
 10
152.1716124096521
 20
151.105253718279
 30
0.0
 10
152.158260813481
 20
151.1668231347265
 30
0.0
  0
SPLINE
  5
144
330
1F
100
AcDbEntity
  8
0
  6
Continuous
 62
     7
370
    25
100
AcDbSpline
210
0.0
220
0.0
230
1.0
 70
     8
 71
     3
 72
     9
 73
     5
 74
     0
 42
0.00000001
 43
0.00000001
 40
0.0
 40
0.0
 40
0.0
 40
0.0
 40
0.2267211764819567
 40
1.0
 40
1.0
 40
1.0
 40
1.0
 10
198.8533003735717
 20
151.1702079855647
 30
0.0
 10
198.8484835985277
 20
151.1327163489985
 30
0.0
 10
198.8272382295741
 20
150.9673518376286
 30
0.0
 10
198.5755399874454
 20
150.614257801153
 30
0.0
 10
198.3809070668905
 20
150.3412176600359
 30
0.0
  0
SPLINE
  5
145
330
1F
100
AcDbEntity
  8
0
  6
Continuous
 62
     7
370
    25
100
AcDbSpline
210
0.0
220
0.0
230
1.0
 70
     8
 71
     3
 72
     9
 73
     5
 74
     0
 42
0.00000001
 43
0.00000001
 40
0.0
 40
0.0
 40
0.0
 40
0.0
 40
0.4220507647820409
 40
1.0
 40
1.0
 40
1.0
 40
1.0
 10
191.6672749332251
 20
119.6117955029365
 30
0.0
 10
191.4617952190451
 20
119.6080834288917
 30
0.0
 10
190.9749350322471
 20
119.5992881029391
 30
0.0
 10
190.7367780815873
 20
119.5900425838732
 30
0.0
 10
190.5991354540917
 20
119.5846991431999
 30
0.0
  0
LINE
  5
146
330
1F
100
AcDbEntity
  8
0
  6
Continuous
 62
     7
370
    25
100
AcDbLine
 10
190.24726695
 20
119.535322368
 30
0.0
 11
190.0683589543
 21
119.4279787281
 31
0.0
  0
LINE
  5
147
330
1F
100
AcDbEntity
  8
0
  6
Continuous
 62
     7
370
    25
100
AcDbLine
 10
190.0683588856
 20
119.427695518
 30
0.0
 11
190.0473966242
 21
119.4255545991
 31
0.0
  0
LINE
  5
148
330
1F
100
AcDbEntity
  8
0
  6
Continuous
 62
     7
370
    25
100
AcDbLine
 10
160.9606848829
 20
119.42552978
 30
0.0
 11
160.9391509846
 21
119.427694389
 31
0.0
  0
LINE
  5
149
330
1F
100
AcDbEntity
  8
0
  6
Continuous
 62
     7
370
    25
100
AcDbLine
 10
160.9391509304
 20
119.4279787281
 30
0.0
 11
160.7860321439
 21
119.5198490093
 31
0.0
  0
SPLINE
  5
14A
330
1F
100
AcDbEntity
  8
0
  6
Continuous
 62
     7
370
    25
100
AcDbSpline
210
0.0
220
0.0
230
1.0
 70
     8
 71
     3
 72
    10
 73
     6
 74
     0
 42
0.00000001
 43
0.00000001
 40
0.0
 40
0.0
 40
0.0
 40
0.0
 40
0.5
 40
0.5
 40
1.0
 40
1.0
 40
1.0
 40
1.0
 10
160.7394824297812
 20
119.5477756281428
 30
0.0
 10
160.729191137795
 20
119.5539511345563
 30
0.0
 10
160.7190667169106
 20
119.5601257490001
 30
0.0
 10
160.6300857685236
 20
119.5724670649367
 30
0.0
 10
160.5499777246701
 20
119.5786336628751
 30
0.0
 10
160.4083776730569
 20
119.5847943848765
 30
0.0
  0
SPLINE
  5
14B
330
1F
100
AcDbEntity
  8
0
  6
Continuous
 62
     7
370
    25
100
AcDbSpline
210
0.0
220
0.0
230
1.0
 70
     8
 71
     3
 72
     9
 73
     5
 74
     0
 42
0.00000001
 43
0.00000001
 40
0.0
 40
0.0
 40
0.0
 40
0.0
 40
0.7505597294191676
 40
1.0
 40
1.0
 40
1.0
 40
1.0
 10
160.408374425589
 20
119.5846969529363
 30
0.0
 10
160.2047846949867
 20
119.5927211991045
 30
0.0
 10
159.9335341567252
 20
119.603412215227
 30
0.0
 10
159.2238075234096
 20
119.6135421560913
 30
0.0
 10
159.0467731199569
 20
119.6160689712815
 30
0.0
  0
LINE
  5
14C
330
1F
100
AcDbEntity
  8
0
  6
Continuous
 62
     7
370
    25
100
AcDbLine
 10
198.9863634542
 20
151.5258695682
 30
0.0
 11
200.05173894
 21
151.5258695682
 31
0.0
  0
LINE
  5
14D
330
1F
100
AcDbEntity
  8
0
  6
Continuous
 62
     7
370
    25
100
AcDbLine
 10
150.9557709447
 20
151.5258695682
 30
0.0
 11
152.0211464315
 21
151.5258695682
 31
0.0
  0
LWPOLYLINE
  5
14E
330
1F
100
AcDbEntity
  8
0
  6
Continuous
 62
     7
370
    25
100
AcDbPolyline
 90
        3
 70
   128
 43
0.0
 10
160.4047856849
 20
119.5971082444
 10
160.4540692818
 20
119.5849206143
 10
160.7394875626
 20
119.547775457
  0
ARC
  5
14F
330
1F
100
AcDbEntity
  8
0
  6
Continuous
 62
     7
370
    25
100
AcDbCircle
 10
190.0183857262
 20
120.9270971654
 30
0.0
 40
1.499951136669827
100
AcDbArc
 50
271.9092522107
 51
294.2003412593
  0
ARC
  5
150
330
1F
100
AcDbEntity
  8
0
  6
Continuous
 62
     7
370
    25
100
AcDbCircle
 10
160.9891239274
 20
120.9270958374
 30
0.0
 40
1.499949801751392
100
AcDbArc
 50
239.0365379218
 51
268.0907549225
  0
LINE
  5
151
330
1F
100
AcDbEntity
  8
0
  6
Continuous
 62
     8
370
    18
100
AcDbLine
 10
248.856507885
 20
183.5026248014
 30
0.0
 11
102.1510019964
 21
183.5026248014
 31
0.0
  0
LINE
  5
152
330
1F
100
AcDbEntity
  8
0
  6
Continuous
 62
     8
370
    18
100
AcDbLine
 10
186.2781010747
 20
174.3964932974
 30
0.0
 11
164.7294088026
 21
174.3964932974
 31
0.0
  0
SPLINE
  5
153
330
1F
100
AcDbEntity
  8
0
  6
Continuous
 62
     8
370
    18
100
AcDbSpline
210
0.0
220
0.0
230
1.0
 70
     8
 71
     3
 72
     9
 73
     5
 74
     0
 42
0.00000001
 43
0.00000001
 40
0.0
 40
0.0
 40
0.0
 40
0.0
 40
0.9047912578769588
 40
1.0
 40
1.0
 40
1.0
 40
1.0
 10
152.0833312352751
 20
119.6946148995924
 30
0.0
 10
151.9939175059293
 20
119.6973122765764
 30
0.0
 10
151.8950950111635
 20
119.7002934912604
 30
0.0
 10
151.9671541236782
 20
119.7032692259752
 30
0.0
 10
151.9740147811392
 20
119.7035525419343
 30
0.0
  0
SPLINE
  5
154
330
1F
100
AcDbEntity
  8
0
  6
Continuous
 62
     8
370
    18
100
AcDbSpline
210
0.0
220
0.0
230
1.0
 70
     8
 71
     3
 72
     9
 73
     5
 74
     0
 42
0.00000001
 43
0.00000001
 40
0.0
 40
0.0
 40
0.0
 40
0.0
 40
0.0925963506415852
 40
1.0
 40
1.0
 40
1.0
 40
1.0
 10
199.0335587639421
 20
119.7035496989103
 30
0.0
 10
199.0403823543047
 20
119.7032673301167
 30
0.0
 10
199.1140741392983
 20
119.7002178709135
 30
0.0
 10
199.0126509680875
 20
119.6971627959832
 30
0.0
 10
198.9206192124012
 20
119.6943906098426
 30
0.0
  0
ELLIPSE
  5
155
330
1F
100
AcDbEntity
  8
0
  6
Continuous
 62
     8
370
    25
100
AcDbEllipse
 10
175.5037549424
 20
151.3241139967
 30
0.0
 11
25.0
 21
-1.506350599811412E-12
 31
0.0
210
0.0
220
0.0
230
1.0
 40
0.3579151032
 41
4.712388980384682
 42
6.151943580442869
  0
SPLINE
  5
156
330
1F
100
AcDbEntity
  8
0
  6
Continuous
 62
     8
370
    25
100
AcDbSpline
210
0.0
220
0.0
230
1.0
 70
     8
 71
     3
 72
     9
 73
     5
 74
     0
 42
0.00000001
 43
0.00000001
 40
0.0
 40
0.0
 40
0.0
 40
0.0
 40
0.5262671259326919
 40
0.9999999999999999
 40
0.9999999999999999
 40
0.9999999999999999
 40
0.9999999999999999
 10
200.4714423764707
 20
150.9779676488711
 30
0.0
 10
200.4742784564747
 20
150.8783745474919
 30
0.0
 10
200.4796675067577
 20
150.6891301571976
 30
0.0
 10
200.3501266725175
 20
150.3254395755461
 30
0.0
 10
200.2887589208038
 20
150.1531473910292
 30
0.0
  0
ELLIPSE
  5
157
330
1F
100
AcDbEntity
  8
0
  6
Continuous
 62
     8
370
    25
100
AcDbEllipse
 10
175.5037549424
 20
151.3241139967
 30
0.0
 11
25.0
 21
-1.506350599811412E-12
 31
0.0
210
0.0
220
0.0
230
1.0
 40
0.3579151032
 41
3.272834380326563
 42
4.712388980384682
  0
SPLINE
  5
158
330
1F
100
AcDbEntity
  8
0
  6
Continuous
 62
     8
370
    25
100
AcDbSpline
210
0.0
220
0.0
230
1.0
 70
     8
 71
     3
 72
     9
 73
     5
 74
     0
 42
0.00000001
 43
0.00000001
 40
0.0
 40
0.0
 40
0.0
 40
0.0
 40
0.8691487283297975
 40
1.0
 40
1.0
 40
1.0
 40
1.0
 10
150.7187509639029
 20
150.1531473910324
 30
0.0
 10
150.6117819778438
 20
150.4441096284224
 30
0.0
 10
150.488708696399
 20
150.7788765421924
 30
0.0
 10
150.5201056181461
 20
150.915984591181
 30
0.0
 10
150.5242139452833
 20
150.9339253537473
 30
0.0
  0
ELLIPSE
  5
159
330
1F
100
AcDbEntity
  8
0
  6
Continuous
 62
     8
370
    18
100
AcDbEllipse
 10
175.5037549424
 20
151.5122664907
 30
0.0
 11
24.80000000000001
 21
-1.506350599811412E-12
 31
0.0
210
0.0
220
0.0
230
1.0
 40
0.3608268507
 41
3.272834380326565
 42
4.712388980384683
  0
LINE
  5
15A
330
1F
100
AcDbEntity
  8
0
  6
Continuous
 62
     8
370
    18
100
AcDbLine
 10
175.5037549424
 20
142.5637605943
 30
0.0
 11
175.5037549424
 21
142.3762364178
 31
0.0
  0
ARC
  5
15B
330
1F
100
AcDbEntity
  8
0
  6
Continuous
 62
     8
370
    18
100
AcDbCircle
 10
150.9222239321
 20
150.1371856547
 30
0.0
 40
0.2040980788915017
100
AcDbArc
 50
91.4579532015
 51
175.5145341818
  0
ELLIPSE
  5
15C
330
1F
100
AcDbEntity
  8
0
  6
Continuous
 62
     8
370
    18
100
AcDbEllipse
 10
175.5037549424
 20
151.5122664907
 30
0.0
 11
24.80000000000001
 21
-1.506350599811412E-12
 31
0.0
210
0.0
220
0.0
230
1.0
 40
0.3608268507
 41
4.712388980384683
 42
6.151943580442864
  0
ARC
  5
15D
330
1F
100
AcDbEntity
  8
0
  6
Continuous
 62
     8
370
    18
100
AcDbCircle
 10
200.0852859526
 20
150.1371856547
 30
0.0
 40
0.2040980788913671
100
AcDbArc
 50
4.4854658182
 51
88.5420467985
  0
LINE
  5
15E
330
1F
100
AcDbEntity
  8
0
  6
Continuous
 62
     8
370
    18
100
AcDbLine
 10
199.0778843488
 20
158.5127928898
 30
0.0
 11
151.0037549429
 21
158.5127928898
 31
0.0
  0
LINE
  5
15F
330
1F
100
AcDbEntity
  8
0
  6
Continuous
 62
     8
370
    18
100
AcDbLine
 10
200.0037549429
 20
158.5127928898
 30
0.0
 11
199.0778843488
 21
158.5127928898
 31
0.0
  0
SPLINE
  5
160
330
1F
100
AcDbEntity
  8
0
  6
Continuous
 62
     8
370
    18
100
AcDbSpline
210
0.0
220
0.0
230
1.0
 70
     8
 71
     3
 72
    10
 73
     6
 74
     0
 42
0.00000001
 43
0.00000001
 40
0.0
 40
0.0
 40
0.0
 40
0.0
 40
0.5
 40
0.5
 40
1.0
 40
1.0
 40
1.0
 40
1.0
 10
190.5991322795703
 20
119.5847943871303
 30
0.0
 10
190.4575322202502
 20
119.578633664874
 30
0.0
 10
190.3774241686014
 20
119.5724670666786
 30
0.0
 10
190.2884432045882
 20
119.5601257502243
 30
0.0
 10
190.2783187758741
 20
119.5539511355201
 30
0.0
 10
190.2680274760611
 20
119.5477756288457
 30
0.0
  0
LINE
  5
161
330
1F
100
AcDbEntity
  8
0
  6
Continuous
 62
     8
370
    18
100
AcDbLine
 10
190.2680223222
 20
119.547775457
 30
0.0
 11
190.24726695
 21
119.535322368
 31
0.0
  0
LINE
  5
162
330
1F
100
AcDbEntity
  8
0
  6
Continuous
 62
     8
370
    18
100
AcDbLine
 10
160.7860321439
 20
119.5198490093
 30
0.0
 11
160.7394875625
 21
119.547775457
 31
0.0
  0
SPLINE
  5
163
330
1F
100
AcDbEntity
  8
0
  6
Continuous
 62
     8
370
    18
100
AcDbSpline
210
0.0
220
0.0
230
1.0
 70
     8
 71
     3
 72
    12
 73
     8
 74
     0
 42
0.00000001
 43
0.00000001
 40
0.0
 40
0.0
 40
0.0
 40
0.0
 40
0.25
 40
0.25
 40
0.5
 40
0.5
 40
1.0
 40
1.0
 40
1.0
 40
1.0
 10
200.0904788889762
 20
150.3412176600358
 30
0.0
 10
200.1621325311347
 20
150.5390632762641
 30
0.0
 10
200.2167967108388
 20
150.7134029756956
 30
0.0
 10
200.288761495359
 20
151.0126032980518
 30
0.0
 10
200.3058343493346
 20
151.1363505785029
 30
0.0
 10
200.2989915662816
 20
151.4322232517985
 30
0.0
 10
200.2173414605621
 20
151.5295276041449
 30
0.0
 10
200.0517389400202
 20
151.525869568179
 30
0.0
  0
SPLINE
  5
164
330
1F
100
AcDbEntity
  8
0
  6
Continuous
 62
     8
370
    18
100
AcDbSpline
210
0.0
220
0.0
230
1.0
 70
     8
 71
     3
 72
    12
 73
     8
 74
     0
 42
0.00000001
 43
0.00000001
 40
0.0
 40
0.0
 40
0.0
 40
0.0
 40
0.2500000000000002
 40
0.2500000000000002
 40
0.5000000000000004
 40
0.5000000000000004
 40
1.0
 40
1.0
 40
1.0
 40
1.0
 10
150.955770944687
 20
151.5258695681822
 30
0.0
 10
150.8729780278717
 20
151.5276984018644
 30
0.0
 10
150.8106235960872
 20
151.5040665522403
 30
0.0
 10
150.7268496777358
 20
151.405263569087
 30
0.0
 10
150.7056939743235
 20
151.3306110166739
 30
0.0
 10
150.7002584682302
 20
151.0329232875329
 30
0.0
 10
150.7737927129425
 20
150.7367183697313
 30
0.0
 10
150.9170309957306
 20
150.341217660039
 30
0.0
  0
LINE
  5
165
330
1F
100
AcDbEntity
  8
0
  6
Continuous
 62
     8
370
    18
100
AcDbLine
 10
190.2680223221
 20
119.547775457
 30
0.0
 11
190.4778222078
 21
119.5696088083
 31
0.0
  0
ENDSEC
  0
SECTION
  2
OBJECTS
  0
DICTIONARY
  5
C
330
0
100
AcDbDictionary
281
     1
  3
ACAD_GROUP
350
D
  3
ACAD_LAYOUT
350
1A
  3
ACAD_MLINESTYLE
350
17
  3
ACAD_PLOTSETTINGS
350
19
  3
ACAD_PLOTSTYLENAME
350
E
  3
ACAD_SCALELIST
350
47
  3
DWGPROPS
350
166
  0
DICTIONARY
  5
D
102
{ACAD_REACTORS
330
C
102
}
330
C
100
AcDbDictionary
281
     1
  0
DICTIONARY
  5
1A
102
{ACAD_REACTORS
330
C
102
}
330
C
100
AcDbDictionary
281
     1
  3
Layout1
350
1E
  3
Layout2
350
26
  3
Model
350
22
  0
DICTIONARY
  5
17
102
{ACAD_REACTORS
330
C
102
}
330
C
100
AcDbDictionary
281
     1
  3
Standard
350
18
  0
DICTIONARY
  5
19
102
{ACAD_REACTORS
330
C
102
}
330
C
100
AcDbDictionary
281
     1
  0
ACDBDICTIONARYWDFLT
  5
E
102
{ACAD_REACTORS
330
C
102
}
330
C
100
AcDbDictionary
281
     1
  3
Normal
350
F
100
AcDbDictionaryWithDefault
340
F
  0
DICTIONARY
  5
47
102
{ACAD_REACTORS
330
C
102
}
330
C
100
AcDbDictionary
281
     1
  3
A0
350
48
  3
A1
350
49
  3
A2
350
4A
  3
A3
350
4B
  3
A4
350
4C
  3
A5
350
4D
  3
A6
350
4E
  3
A7
350
4F
  3
A8
350
50
  3
A9
350
51
  3
B0
350
52
  3
B1
350
53
  3
B2
350
54
  3
B3
350
55
  3
B4
350
56
  3
B5
350
57
  3
B6
350
58
  3
B7
350
59
  3
B8
350
5A
  3
B9
350
5B
  3
C0
350
5C
  3
C1
350
5D
  3
C2
350
5E
  3
C3
350
5F
  3
C4
350
60
  3
C5
350
61
  3
C6
350
62
  3
C7
350
63
  3
C8
350
64
  3
C9
350
65
  3
D0
350
66
  3
D1
350
67
  3
D2
350
68
  0
XRECORD
  5
166
102
{ACAD_REACTORS
330
C
102
}
330
C
100
AcDbXrecord
280
     1
  1
DWGPROPS COOKIE
  2

  3

  4

  6

  7

  8
estudent
  9

300
=
301
=
302
=
303
=
304
=
305
=
306
=
307
=
308
=
309
=
 40
0.0
 41
2460006.342265868
 42
2460006.342267095
  1

 90
        0
  0
LAYOUT
  5
1E
102
{ACAD_REACTORS
330
1A
102
}
330
1A
100
AcDbPlotSettings
  1

  2
none_device
  4

  6

 40
0.0
 41
0.0
 42
0.0
 43
0.0
 44
0.0
 45
0.0
 46
0.0
 47
0.0
 48
0.0
 49
0.0
140
0.0
141
0.0
142
1.0
143
1.0
 70
   688
 72
     1
 73
     0
 74
     5
  7

 75
    16
147
1.0
148
0.0
149
0.0
100
AcDbLayout
  1
Layout1
 70
     1
 71
     1
 10
0.0
 20
0.0
 11
420.0
 21
297.0
 12
0.0
 22
0.0
 32
0.0
 14
1.0000000000E+20
 24
1.0000000000E+20
 34
1.0000000000E+20
 15
-1.0000000000E+20
 25
-1.0000000000E+20
 35
-1.0000000000E+20
146
0.0
 13
0.0
 23
0.0
 33
0.0
 16
1.0
 26
0.0
 36
0.0
 17
0.0
 27
1.0
 37
0.0
 76
     0
330
1B
  0
LAYOUT
  5
26
102
{ACAD_REACTORS
330
1A
102
}
330
1A
100
AcDbPlotSettings
  1

  2
none_device
  4

  6

 40
0.0
 41
0.0
 42
0.0
 43
0.0
 44
0.0
 45
0.0
 46
0.0
 47
0.0
 48
0.0
 49
0.0
140
0.0
141
0.0
142
1.0
143
1.0
 70
   688
 72
     1
 73
     0
 74
     5
  7

 75
    16
147
1.0
148
0.0
149
0.0
100
AcDbLayout
  1
Layout2
 70
     1
 71
     2
 10
0.0
 20
0.0
 11
0.0
 21
0.0
 12
0.0
 22
0.0
 32
0.0
 14
0.0
 24
0.0
 34
0.0
 15
0.0
 25
0.0
 35
0.0
146
0.0
 13
0.0
 23
0.0
 33
0.0
 16
1.0
 26
0.0
 36
0.0
 17
0.0
 27
1.0
 37
0.0
 76
     0
330
23
  0
LAYOUT
  5
22
102
{ACAD_REACTORS
330
1A
102
}
330
1A
100
AcDbPlotSettings
  1

  2
none_device
  4
Letter_(8.50_x_11.00_Inches)
  6

 40
6.35
 41
6.35
 42
6.35000508
 43
6.35000508
 44
215.9
 45
279.4
 46
0.0
 47
0.0
 48
0.0
 49
0.0
140
0.0
141
0.0
142
1.0
143
1.0
 70
  1712
 72
     1
 73
     0
 74
     0
  7

 75
     0
147
1.0
148
0.0
149
0.0
100
AcDbLayout
  1
Model
 70
     1
 71
     0
 10
0.0
 20
0.0
 11
594.0
 21
841.0
 12
0.0
 22
0.0
 32
0.0
 14
0.0
 24
0.0
 34
0.0
 15
594.0
 25
841.0
 35
0.0
146
0.0
 13
0.0
 23
0.0
 33
0.0
 16
1.0
 26
0.0
 36
0.0
 17
0.0
 27
1.0
 37
0.0
 76
     0
330
1F
331
29
  0
MLINESTYLE
  5
18
102
{ACAD_REACTORS
330
17
102
}
330
17
100
AcDbMlineStyle
  2
Standard
 70
     0
  3

 62
   256
 51
90.0
 52
90.0
 71
     2
 49
0.5
 62
   256
  6
BYLAYER
 49
-0.5
 62
   256
  6
BYLAYER
  0
ACDBPLACEHOLDER
  5
F
102
{ACAD_REACTORS
330
E
102
}
330
E
  0
SCALE
  5
48
102
{ACAD_REACTORS
330
47
102
}
330
47
100
AcDbScale
 70
     0
300
1:1
140
1.0
141
1.0
290
     1
  0
SCALE
  5
49
102
{ACAD_REACTORS
330
47
102
}
330
47
100
AcDbScale
 70
     0
300
1:2
140
1.0
141
2.0
290
     0
  0
SCALE
  5
4A
102
{ACAD_REACTORS
330
47
102
}
330
47
100
AcDbScale
 70
     0
300
1:4
140
1.0
141
4.0
290
     0
  0
SCALE
  5
4B
102
{ACAD_REACTORS
330
47
102
}
330
47
100
AcDbScale
 70
     0
300
1:5
140
1.0
141
5.0
290
     0
  0
SCALE
  5
4C
102
{ACAD_REACTORS
330
47
102
}
330
47
100
AcDbScale
 70
     0
300
1:8
140
1.0
141
8.0
290
     0
  0
SCALE
  5
4D
102
{ACAD_REACTORS
330
47
102
}
330
47
100
AcDbScale
 70
     0
300
1:10
140
1.0
141
10.0
290
     0
  0
SCALE
  5
4E
102
{ACAD_REACTORS
330
47
102
}
330
47
100
AcDbScale
 70
     0
300
1:16
140
1.0
141
16.0
290
     0
  0
SCALE
  5
4F
102
{ACAD_REACTORS
330
47
102
}
330
47
100
AcDbScale
 70
     0
300
1:20
140
1.0
141
20.0
290
     0
  0
SCALE
  5
50
102
{ACAD_REACTORS
330
47
102
}
330
47
100
AcDbScale
 70
     0
300
1:30
140
1.0
141
30.0
290
     0
  0
SCALE
  5
51
102
{ACAD_REACTORS
330
47
102
}
330
47
100
AcDbScale
 70
     0
300
1:40
140
1.0
141
40.0
290
     0
  0
SCALE
  5
52
102
{ACAD_REACTORS
330
47
102
}
330
47
100
AcDbScale
 70
     0
300
1:50
140
1.0
141
50.0
290
     0
  0
SCALE
  5
53
102
{ACAD_REACTORS
330
47
102
}
330
47
100
AcDbScale
 70
     0
300
1:100
140
1.0
141
100.0
290
     0
  0
SCALE
  5
54
102
{ACAD_REACTORS
330
47
102
}
330
47
100
AcDbScale
 70
     0
300
2:1
140
2.0
141
1.0
290
     0
  0
SCALE
  5
55
102
{ACAD_REACTORS
330
47
102
}
330
47
100
AcDbScale
 70
     0
300
4:1
140
4.0
141
1.0
290
     0
  0
SCALE
  5
56
102
{ACAD_REACTORS
330
47
102
}
330
47
100
AcDbScale
 70
     0
300
8:1
140
8.0
141
1.0
290
     0
  0
SCALE
  5
57
102
{ACAD_REACTORS
330
47
102
}
330
47
100
AcDbScale
 70
     0
300
10:1
140
10.0
141
1.0
290
     0
  0
SCALE
  5
58
102
{ACAD_REACTORS
330
47
102
}
330
47
100
AcDbScale
 70
     0
300
100:1
140
100.0
141
1.0
290
     0
  0
SCALE
  5
59
102
{ACAD_REACTORS
330
47
102
}
330
47
100
AcDbScale
 70
     0
300
1/128" = 1'-0"
140
0.0078125
141
12.0
290
     0
  0
SCALE
  5
5A
102
{ACAD_REACTORS
330
47
102
}
330
47
100
AcDbScale
 70
     0
300
1/64" = 1'-0"
140
0.015625
141
12.0
290
     0
  0
SCALE
  5
5B
102
{ACAD_REACTORS
330
47
102
}
330
47
100
AcDbScale
 70
     0
300
1/32" = 1'-0"
140
0.03125
141
12.0
290
     0
  0
SCALE
  5
5C
102
{ACAD_REACTORS
330
47
102
}
330
47
100
AcDbScale
 70
     0
300
1/16" = 1'-0"
140
0.0625
141
12.0
290
     0
  0
SCALE
  5
5D
102
{ACAD_REACTORS
330
47
102
}
330
47
100
AcDbScale
 70
     0
300
3/32" = 1'-0"
140
0.09375
141
12.0
290
     0
  0
SCALE
  5
5E
102
{ACAD_REACTORS
330
47
102
}
330
47
100
AcDbScale
 70
     0
300
1/8" = 1'-0"
140
0.125
141
12.0
290
     0
  0
SCALE
  5
5F
102
{ACAD_REACTORS
330
47
102
}
330
47
100
AcDbScale
 70
     0
300
3/16" = 1'-0"
140
0.1875
141
12.0
290
     0
  0
SCALE
  5
60
102
{ACAD_REACTORS
330
47
102
}
330
47
100
AcDbScale
 70
     0
300
1/4" = 1'-0"
140
0.25
141
12.0
290
     0
  0
SCALE
  5
61
102
{ACAD_REACTORS
330
47
102
}
330
47
100
AcDbScale
 70
     0
300
3/8" = 1'-0"
140
0.375
141
12.0
290
     0
  0
SCALE
  5
62
102
{ACAD_REACTORS
330
47
102
}
330
47
100
AcDbScale
 70
     0
300
1/2" = 1'-0"
140
0.5
141
12.0
290
     0
  0
SCALE
  5
63
102
{ACAD_REACTORS
330
47
102
}
330
47
100
AcDbScale
 70
     0
300
3/4" = 1'-0"
140
0.75
141
12.0
290
     0
  0
SCALE
  5
64
102
{ACAD_REACTORS
330
47
102
}
330
47
100
AcDbScale
 70
     0
300
1" = 1'-0"
140
1.0
141
12.0
290
     0
  0
SCALE
  5
65
102
{ACAD_REACTORS
330
47
102
}
330
47
100
AcDbScale
 70
     0
300
1-1/2" = 1'-0"
140
1.5
141
12.0
290
     0
  0
SCALE
  5
66
102
{ACAD_REACTORS
330
47
102
}
330
47
100
AcDbScale
 70
     0
300
3" = 1'-0"
140
3.0
141
12.0
290
     0
  0
SCALE
  5
67
102
{ACAD_REACTORS
330
47
102
}
330
47
100
AcDbScale
 70
     0
300
6" = 1'-0"
140
6.0
141
12.0
290
     0
  0
SCALE
  5
68
102
{ACAD_REACTORS
330
47
102
}
330
47
100
AcDbScale
 70
     0
300
1'-0" = 1'-0"
140
12.0
141
12.0
290
     0
  0
ENDSEC
  0
EOF
