  0
SECTION
  2
HEADER
  9
$ACADVER
  1
AC1015
  9
$ACADMAINTVER
 70
     6
  9
$DWGCODEPAGE
  3
ANSI_1252
  9
$INSBASE
 10
0.0
 20
0.0
 30
0.0
  9
$EXTMIN
 10
0.0
 20
0.0
 30
0.0
  9
$EXTMAX
 10
594.0
 20
841.0
 30
0.0
  9
$LIMMIN
 10
0.0
 20
0.0
  9
$LIMMAX
 10
594.0
 20
841.0
  9
$ORTHOMODE
 70
     0
  9
$REGENMODE
 70
     1
  9
$FILLMODE
 70
     1
  9
$QTEXTMODE
 70
     0
  9
$MIRRTEXT
 70
     1
  9
$LTSCALE
 40
1.0
  9
$ATTMODE
 70
     1
  9
$TEXTSIZE
 40
10.0
  9
$TRACEWID
 40
1.0
  9
$TEXTSTYLE
  7
Standard
  9
$CLAYER
  8
0
  9
$CELTYPE
  6
ByLayer
  9
$CECOLOR
 62
   256
  9
$CELTSCALE
 40
1.0
  9
$DISPSILH
 70
     0
  9
$DIMSCALE
 40
1.0
  9
$DIMASZ
 40
2.5
  9
$DIMEXO
 40
0.0
  9
$DIMDLI
 40
3.75
  9
$DIMRND
 40
0.0
  9
$DIMDLE
 40
0.0
  9
$DIMEXE
 40
1.0
  9
$DIMTP
 40
0.0
  9
$DIMTM
 40
0.0
  9
$DIMTXT
 40
3.5
  9
$DIMCEN
 40
2.5
  9
$DIMTSZ
 40
0.0
  9
$DIMTOL
 70
     0
  9
$DIMLIM
 70
     0
  9
$DIMTIH
 70
     1
  9
$DIMTOH
 70
     1
  9
$DIMSE1
 70
     0
  9
$DIMSE2
 70
     0
  9
$DIMTAD
 70
     1
  9
$DIMZIN
 70
     0
  9
$DIMBLK
  1

  9
$DIMASO
 70
     1
  9
$DIMSHO
 70
     1
  9
$DIMPOST
  1

  9
$DIMAPOST
  1

  9
$DIMALT
 70
     0
  9
$DIMALTD
 70
     3
  9
$DIMALTF
 40
0.0393700787
  9
$DIMLFAC
 40
1.0
  9
$DIMTOFL
 70
     1
  9
$DIMTVP
 40
0.0
  9
$DIMTIX
 70
     0
  9
$DIMSOXD
 70
     0
  9
$DIMSAH
 70
     0
  9
$DIMBLK1
  1

  9
$DIMBLK2
  1

  9
$DIMSTYLE
  2
ISO-25
  9
$DIMCLRD
 70
     0
  9
$DIMCLRE
 70
     0
  9
$DIMCLRT
 70
     0
  9
$DIMTFAC
 40
1.0
  9
$DIMGAP
 40
1.5
  9
$DIMJUST
 70
     0
  9
$DIMSD1
 70
     0
  9
$DIMSD2
 70
     0
  9
$DIMTOLJ
 70
     0
  9
$DIMTZIN
 70
     0
  9
$DIMALTZ
 70
     0
  9
$DIMALTTZ
 70
     0
  9
$DIMUPT
 70
     0
  9
$DIMDEC
 70
     2
  9
$DIMTDEC
 70
     2
  9
$DIMALTU
 70
     2
  9
$DIMALTTD
 70
     3
  9
$DIMTXSTY
  7
Standard
  9
$DIMAUNIT
 70
     0
  9
$DIMADEC
 70
     2
  9
$DIMALTRND
 40
0.0
  9
$DIMAZIN
 70
     0
  9
$DIMDSEP
 70
    44
  9
$DIMATFIT
 70
     3
  9
$DIMFRAC
 70
     0
  9
$DIMLDRBLK
  1

  9
$DIMLUNIT
 70
     2
  9
$DIMLWD
 70
    -2
  9
$DIMLWE
 70
    -2
  9
$DIMTMOVE
 70
     0
  9
$LUNITS
 70
     2
  9
$LUPREC
 70
     2
  9
$SKETCHINC
 40
1.0
  9
$FILLETRAD
 40
10.0
  9
$AUNITS
 70
     0
  9
$AUPREC
 70
     2
  9
$MENU
  1
.
  9
$ELEVATION
 40
0.0
  9
$PELEVATION
 40
0.0
  9
$THICKNESS
 40
0.0
  9
$LIMCHECK
 70
     0
  9
$CHAMFERA
 40
0.0
  9
$CHAMFERB
 40
0.0
  9
$CHAMFERC
 40
0.0
  9
$CHAMFERD
 40
0.0
  9
$SKPOLY
 70
     0
  9
$TDCREATE
 40
2459220.413919364
  9
$TDUCREATE
 40
2459220.372252697
  9
$TDUPDATE
 40
2459220.413921713
  9
$TDUUPDATE
 40
2459220.372255046
  9
$TDINDWG
 40
0.0000000116
  9
$TDUSRTIMER
 40
0.0000000116
  9
$USRTIMER
 70
     1
  9
$ANGBASE
 50
0.0
  9
$ANGDIR
 70
     0
  9
$PDMODE
 70
     0
  9
$PDSIZE
 40
-1.0
  9
$PLINEWID
 40
0.0
  9
$SPLFRAME
 70
     0
  9
$SPLINETYPE
 70
     6
  9
$SPLINESEGS
 70
     8
  9
$HANDSEED
  5
1CA
  9
$SURFTAB1
 70
     6
  9
$SURFTAB2
 70
     6
  9
$SURFTYPE
 70
     6
  9
$SURFU
 70
     6
  9
$SURFV
 70
     6
  9
$UCSBASE
  2

  9
$UCSNAME
  2

  9
$UCSORG
 10
0.0
 20
0.0
 30
0.0
  9
$UCSXDIR
 10
1.0
 20
0.0
 30
0.0
  9
$UCSYDIR
 10
0.0
 20
1.0
 30
0.0
  9
$UCSORTHOREF
  2

  9
$UCSORTHOVIEW
 70
     0
  9
$UCSORGTOP
 10
0.0
 20
0.0
 30
0.0
  9
$UCSORGBOTTOM
 10
0.0
 20
0.0
 30
0.0
  9
$UCSORGLEFT
 10
0.0
 20
0.0
 30
0.0
  9
$UCSORGRIGHT
 10
0.0
 20
0.0
 30
0.0
  9
$UCSORGFRONT
 10
0.0
 20
0.0
 30
0.0
  9
$UCSORGBACK
 10
0.0
 20
0.0
 30
0.0
  9
$PUCSBASE
  2

  9
$PUCSNAME
  2

  9
$PUCSORG
 10
0.0
 20
0.0
 30
0.0
  9
$PUCSXDIR
 10
1.0
 20
0.0
 30
0.0
  9
$PUCSYDIR
 10
0.0
 20
1.0
 30
0.0
  9
$PUCSORTHOREF
  2

  9
$PUCSORTHOVIEW
 70
     0
  9
$PUCSORGTOP
 10
0.0
 20
0.0
 30
0.0
  9
$PUCSORGBOTTOM
 10
0.0
 20
0.0
 30
0.0
  9
$PUCSORGLEFT
 10
0.0
 20
0.0
 30
0.0
  9
$PUCSORGRIGHT
 10
0.0
 20
0.0
 30
0.0
  9
$PUCSORGFRONT
 10
0.0
 20
0.0
 30
0.0
  9
$PUCSORGBACK
 10
0.0
 20
0.0
 30
0.0
  9
$USERI1
 70
     0
  9
$USERI2
 70
     0
  9
$USERI3
 70
     0
  9
$USERI4
 70
     0
  9
$USERI5
 70
     0
  9
$USERR1
 40
0.0
  9
$USERR2
 40
0.0
  9
$USERR3
 40
0.0
  9
$USERR4
 40
0.0
  9
$USERR5
 40
0.0
  9
$WORLDVIEW
 70
     1
  9
$SHADEDGE
 70
     3
  9
$SHADEDIF
 70
    70
  9
$TILEMODE
 70
     1
  9
$MAXACTVP
 70
    64
  9
$PINSBASE
 10
0.0
 20
0.0
 30
0.0
  9
$PLIMCHECK
 70
     0
  9
$PEXTMIN
 10
1.0000000000E+20
 20
1.0000000000E+20
 30
1.0000000000E+20
  9
$PEXTMAX
 10
-1.0000000000E+20
 20
-1.0000000000E+20
 30
-1.0000000000E+20
  9
$PLIMMIN
 10
0.0
 20
0.0
  9
$PLIMMAX
 10
420.0
 20
297.0
  9
$UNITMODE
 70
     0
  9
$VISRETAIN
 70
     1
  9
$PLINEGEN
 70
     0
  9
$PSLTSCALE
 70
     1
  9
$TREEDEPTH
 70
  3020
  9
$CMLSTYLE
  2
Standard
  9
$CMLJUST
 70
     0
  9
$CMLSCALE
 40
20.0
  9
$PROXYGRAPHICS
 70
     1
  9
$MEASUREMENT
 70
     1
  9
$CELWEIGHT
370
    -1
  9
$ENDCAPS
280
     0
  9
$JOINSTYLE
280
     0
  9
$LWDISPLAY
290
     1
  9
$INSUNITS
 70
     4
  9
$HYPERLINKBASE
  1

  9
$STYLESHEET
  1

  9
$XEDIT
290
     1
  9
$CEPSNTYPE
380
     0
  9
$PSTYLEMODE
290
     1
  9
$FINGERPRINTGUID
  2
{19671d25-e971-46d2-be9a-d0183505609e}
  9
$VERSIONGUID
  2
{FAEB1C32-E019-11D5-929B-00C0DF256EC4}
  9
$EXTNAMES
290
     1
  9
$PSVPSCALE
 40
0.0
  9
$OLESTARTUP
290
     0
  0
ENDSEC
  0
SECTION
  2
CLASSES
  0
CLASS
  1
ACDBDICTIONARYWDFLT
  2
AcDbDictionaryWithDefault
  3
ObjectDBX Classes
 90
        0
280
     0
281
     0
  0
CLASS
  1
VISUALSTYLE
  2
AcDbVisualStyle
  3
ObjectDBX Classes
 90
     4095
280
     0
281
     0
  0
CLASS
  1
MATERIAL
  2
AcDbMaterial
  3
ObjectDBX Classes
 90
     1153
280
     0
281
     0
  0
CLASS
  1
SCALE
  2
AcDbScale
  3
ObjectDBX Classes
 90
     1153
280
     0
281
     0
  0
CLASS
  1
TABLESTYLE
  2
AcDbTableStyle
  3
ObjectDBX Classes
 90
     4095
280
     0
281
     0
  0
CLASS
  1
MLEADERSTYLE
  2
AcDbMLeaderStyle
  3
ACDB_MLEADERSTYLE_CLASS
 90
     4095
280
     0
281
     0
  0
CLASS
  1
SUN
  2
AcDbSun
  3
SCENEOE
 90
     1153
280
     0
281
     0
  0
CLASS
  1
ACDBPLACEHOLDER
  2
AcDbPlaceHolder
  3
ObjectDBX Classes
 90
        0
280
     0
281
     0
  0
CLASS
  1
LAYOUT
  2
AcDbLayout
  3
ObjectDBX Classes
 90
        0
280
     0
281
     0
  0
ENDSEC
  0
SECTION
  2
TABLES
  0
TABLE
  2
VPORT
  5
8
330
0
100
AcDbSymbolTable
 70
     1
  0
VPORT
  5
29
330
8
100
AcDbSymbolTableRecord
100
AcDbViewportTableRecord
  2
*Active
 70
     0
 10
0.0
 20
0.0
 11
1.0
 21
1.0
 12
297.0
 22
420.5
 13
0.0
 23
0.0
 14
10.0
 24
10.0
 15
10.0
 25
10.0
 16
0.0
 26
0.0
 36
1.0
 17
0.0
 27
0.0
 37
0.0
 40
841.0
 41
0.7063020214
 42
50.0
 43
0.0
 44
0.0
 50
0.0
 51
0.0
 71
     0
 72
  2000
 73
     1
 74
     3
 75
     0
 76
     0
 77
     0
 78
     0
281
     0
 65
     1
110
0.0
120
0.0
130
0.0
111
1.0
121
0.0
131
0.0
112
0.0
122
1.0
132
0.0
 79
     0
146
0.0
  0
ENDTAB
  0
TABLE
  2
LTYPE
  5
5
330
0
100
AcDbSymbolTable
 70
     6
  0
LTYPE
  5
14
330
5
100
AcDbSymbolTableRecord
100
AcDbLinetypeTableRecord
  2
ByBlock
 70
     0
  3

 72
    65
 73
     0
 40
0.0
  0
LTYPE
  5
15
330
5
100
AcDbSymbolTableRecord
100
AcDbLinetypeTableRecord
  2
ByLayer
 70
     0
  3

 72
    65
 73
     0
 40
0.0
  0
LTYPE
  5
16
330
5
100
AcDbSymbolTableRecord
100
AcDbLinetypeTableRecord
  2
Continuous
 70
     0
  3
Solid line
 72
    65
 73
     0
 40
0.0
  0
LTYPE
  5
6E
330
5
100
AcDbSymbolTableRecord
100
AcDbLinetypeTableRecord
  2
HIDDEN
 70
     0
  3
Hidden __ __ __ __ __ __ __ __ __ __ __ __ __ __
 72
    65
 73
     2
 40
1.905
 49
1.27
 74
     0
 49
-0.635
 74
     0
  0
LTYPE
  5
6F
330
5
100
AcDbSymbolTableRecord
100
AcDbLinetypeTableRecord
  2
PHANTOM
 70
     0
  3
Phantom ______  __  __  ______  __  __  ______
 72
    65
 73
     6
 40
12.7
 49
6.35
 74
     0
 49
-1.27
 74
     0
 49
1.27
 74
     0
 49
-1.27
 74
     0
 49
1.27
 74
     0
 49
-1.27
 74
     0
  0
LTYPE
  5
70
330
5
100
AcDbSymbolTableRecord
100
AcDbLinetypeTableRecord
  2
CENTER
 70
     0
  3
Center ____ _ ____ _ ____ _ ____ _ ____ _ ____
 72
    65
 73
     4
 40
10.16
 49
6.35
 74
     0
 49
-1.27
 74
     0
 49
1.27
 74
     0
 49
-1.27
 74
     0
  0
LTYPE
  5
71
330
5
100
AcDbSymbolTableRecord
100
AcDbLinetypeTableRecord
  2
CENTERX2
 70
     0
  3
Center (2x) ________  __  ________  __  _____
 72
    65
 73
     4
 40
20.32
 49
12.7
 74
     0
 49
-2.54
 74
     0
 49
2.54
 74
     0
 49
-2.54
 74
     0
  0
LTYPE
  5
72
330
5
100
AcDbSymbolTableRecord
100
AcDbLinetypeTableRecord
  2
DOT2
 70
     0
  3
Dot (.5x) ........................................
 72
    65
 73
     2
 40
0.635
 49
0.0
 74
     0
 49
-0.635
 74
     0
  0
ENDTAB
  0
TABLE
  2
LAYER
  5
2
330
0
100
AcDbSymbolTable
 70
     1
  0
LAYER
  5
10
330
2
100
AcDbSymbolTableRecord
100
AcDbLayerTableRecord
  2
0
 70
     0
 62
     7
  6
Continuous
370
    -3
390
F
  0
ENDTAB
  0
TABLE
  2
STYLE
  5
3
330
0
100
AcDbSymbolTable
 70
     3
  0
STYLE
  5
11
330
3
100
AcDbSymbolTableRecord
100
AcDbTextStyleTableRecord
  2
Standard
 70
     0
 40
0.0
 41
1.0
 50
0.0
 71
     0
 42
10.0
  3
txt
  4

  0
STYLE
  5
76
330
3
100
AcDbSymbolTableRecord
100
AcDbTextStyleTableRecord
  2
SLDTEXTSTYLE0
 70
     0
 40
0.0
 41
0.96
 50
0.0
 71
     0
 42
10.0
  3
ISOCP3
  4

  0
STYLE
  5
8D
330
3
100
AcDbSymbolTableRecord
100
AcDbTextStyleTableRecord
  2
SLDTEXTSTYLE1
 70
     0
 40
0.0
 41
0.605
 50
0.0
 71
     0
 42
10.0
  3
TXT
  4

  0
ENDTAB
  0
TABLE
  2
VIEW
  5
6
330
0
100
AcDbSymbolTable
 70
     0
  0
ENDTAB
  0
TABLE
  2
UCS
  5
7
330
0
100
AcDbSymbolTable
 70
     0
  0
ENDTAB
  0
TABLE
  2
APPID
  5
9
330
0
100
AcDbSymbolTable
 70
     1
  0
APPID
  5
12
330
9
100
AcDbSymbolTableRecord
100
AcDbRegAppTableRecord
  2
ACAD
 70
     0
  0
ENDTAB
  0
TABLE
  2
DIMSTYLE
  5
A
330
0
100
AcDbSymbolTable
 70
     2
100
AcDbDimStyleTable
  0
DIMSTYLE
105
27
330
A
100
AcDbSymbolTableRecord
100
AcDbDimStyleTableRecord
  2
ISO-25
 70
     0
 41
2.5
 42
0.625
 43
3.75
 44
1.25
 73
     0
 74
     0
 77
     1
 78
     8
140
2.5
141
2.5
143
0.0393700787
147
0.625
171
     3
172
     1
178
     0
271
     2
272
     2
274
     3
278
    44
283
     0
284
     8
340
11
  0
DIMSTYLE
105
77
102
{ACAD_REACTORS
330
75
330
82
102
}
330
A
100
AcDbSymbolTableRecord
100
AcDbDimStyleTableRecord
  2
SLDDIMSTYLE0
 70
     0
 41
2.5
 44
0.0
 45
0.000000001
 73
     0
 74
     0
 77
     1
 78
    12
 79
     3
140
6.0
147
1.5
173
     1
178
     0
271
     2
272
     2
276
     2
284
    12
340
76
  0
ENDTAB
  0
TABLE
  2
BLOCK_RECORD
  5
1
330
0
100
AcDbSymbolTable
 70
     3
  0
BLOCK_RECORD
  5
1F
330
1
100
AcDbSymbolTableRecord
100
AcDbBlockTableRecord
  2
*Model_Space
340
22
  0
BLOCK_RECORD
  5
1B
330
1
100
AcDbSymbolTableRecord
100
AcDbBlockTableRecord
  2
*Paper_Space
340
1E
  0
BLOCK_RECORD
  5
23
330
1
100
AcDbSymbolTableRecord
100
AcDbBlockTableRecord
  2
*Paper_Space0
340
26
  0
BLOCK_RECORD
  5
78
330
1
100
AcDbSymbolTableRecord
100
AcDbBlockTableRecord
  2
_D
340
0
  0
BLOCK_RECORD
  5
83
330
1
100
AcDbSymbolTableRecord
100
AcDbBlockTableRecord
  2
_D_1
340
0
  0
ENDTAB
  0
ENDSEC
  0
SECTION
  2
BLOCKS
  0
BLOCK
  5
20
330
1F
100
AcDbEntity
  8
0
100
AcDbBlockBegin
  2
*Model_Space
 70
     0
 10
0.0
 20
0.0
 30
0.0
  3
*Model_Space
  1

  0
ENDBLK
  5
21
330
1F
100
AcDbEntity
  8
0
100
AcDbBlockEnd
  0
BLOCK
  5
1C
330
1B
100
AcDbEntity
 67
     1
  8
0
100
AcDbBlockBegin
  2
*Paper_Space
 70
     0
 10
0.0
 20
0.0
 30
0.0
  3
*Paper_Space
  1

  0
ENDBLK
  5
1D
330
1B
100
AcDbEntity
 67
     1
  8
0
100
AcDbBlockEnd
  0
BLOCK
  5
24
330
23
100
AcDbEntity
  8
0
100
AcDbBlockBegin
  2
*Paper_Space0
 70
     0
 10
0.0
 20
0.0
 30
0.0
  3
*Paper_Space0
  1

  0
ENDBLK
  5
25
330
23
100
AcDbEntity
  8
0
100
AcDbBlockEnd
  0
BLOCK
  5
79
330
78
100
AcDbEntity
  8
0
100
AcDbBlockBegin
  2
_D
 70
     0
 10
0.0
 20
0.0
 30
0.0
  3
_D
  1

  0
SOLID
  5
7B
330
78
100
AcDbEntity
  8
0
  6
Continuous
 62
     7
370
    18
100
AcDbTrace
 10
42.7614395004
 20
152.0299240879
 30
0.0
 11
42.4614395004
 21
149.5299240879
 31
0.0
 12
43.0614395004
 22
149.5299240879
 32
0.0
 13
43.0614395004
 23
149.5299240879
 33
0.0
  0
SOLID
  5
7C
330
78
100
AcDbEntity
  8
0
  6
Continuous
 62
     7
370
    18
100
AcDbTrace
 10
42.7614395004
 20
52.0299240879
 30
0.0
 11
43.0614395004
 21
54.5299240879
 31
0.0
 12
42.4614395004
 22
54.5299240879
 32
0.0
 13
42.4614395004
 23
54.5299240879
 33
0.0
  0
LINE
  5
7D
330
78
100
AcDbEntity
  8
0
  6
Continuous
 62
     7
370
     0
100
AcDbLine
 10
56.6850079902
 20
152.0299240879
 30
0.0
 11
41.7614395004
 21
152.0299240879
 31
0.0
  0
LINE
  5
7E
330
78
100
AcDbEntity
  8
0
  6
Continuous
 62
     7
370
     0
100
AcDbLine
 10
56.6850079902
 20
52.0299240879
 30
0.0
 11
41.7614395004
 21
52.0299240879
 31
0.0
  0
LINE
  5
7F
330
78
100
AcDbEntity
  8
0
  6
Continuous
 62
     7
370
     0
100
AcDbLine
 10
42.7614395004
 20
152.0299240879
 30
0.0
 11
42.7614395004
 21
52.0299240879
 31
0.0
  0
MTEXT
  5
80
330
78
100
AcDbEntity
  8
0
  6
Continuous
 62
     7
370
    18
100
AcDbMText
 10
35.0270332946
 20
94.3680541463
 30
0.0
 40
6.0
 41
0.0
 71
     1
 72
     1
  1
100
  7
SLDTEXTSTYLE0
 11
-7.044195017643634E-15
 21
1.0
 31
0.0
 73
     1
 44
1.0
  0
MTEXT
  5
81
330
78
100
AcDbEntity
  8
0
  6
Continuous
 62
     7
370
    18
100
AcDbMText
 10
35.0270332946
 20
105.7430548466
 30
0.0
 40
6.0
 41
0.0
 71
     1
 72
     1
  1
mm
  7
SLDTEXTSTYLE0
 11
-7.044195017643634E-15
 21
1.0
 31
0.0
 73
     1
 44
1.0
  0
ENDBLK
  5
7A
330
78
100
AcDbEntity
  8
0
100
AcDbBlockEnd
  0
BLOCK
  5
84
330
83
100
AcDbEntity
  8
0
100
AcDbBlockBegin
  2
_D_1
 70
     0
 10
0.0
 20
0.0
 30
0.0
  3
_D_1
  1

  0
SOLID
  5
86
330
83
100
AcDbEntity
  8
0
  6
Continuous
 62
     7
370
    18
100
AcDbTrace
 10
56.6850079902
 20
38.4602342313
 30
0.0
 11
59.1850079902
 21
38.1602342313
 31
0.0
 12
59.1850079902
 22
38.7602342313
 32
0.0
 13
59.1850079902
 23
38.7602342313
 33
0.0
  0
SOLID
  5
87
330
83
100
AcDbEntity
  8
0
  6
Continuous
 62
     7
370
    18
100
AcDbTrace
 10
156.6850079902
 20
38.4602342313
 30
0.0
 11
154.1850079902
 21
38.7602342313
 31
0.0
 12
154.1850079902
 22
38.1602342313
 32
0.0
 13
154.1850079902
 23
38.1602342313
 33
0.0
  0
LINE
  5
88
330
83
100
AcDbEntity
  8
0
  6
Continuous
 62
     7
370
     0
100
AcDbLine
 10
56.6850079902
 20
52.0299240879
 30
0.0
 11
56.6850079902
 21
37.4602342313
 31
0.0
  0
LINE
  5
89
330
83
100
AcDbEntity
  8
0
  6
Continuous
 62
     7
370
     0
100
AcDbLine
 10
156.6850079902
 20
52.0299240879
 30
0.0
 11
156.6850079902
 21
37.4602342313
 31
0.0
  0
LINE
  5
8A
330
83
100
AcDbEntity
  8
0
  6
Continuous
 62
     7
370
     0
100
AcDbLine
 10
56.6850079902
 20
38.4602342313
 30
0.0
 11
156.6850079902
 21
38.4602342313
 31
0.0
  0
MTEXT
  5
8B
330
83
100
AcDbEntity
  8
0
  6
Continuous
 62
     7
370
    18
100
AcDbMText
 10
93.9626484861
 20
46.1946404371
 30
0.0
 40
6.0
 41
0.0
 71
     1
 72
     1
  1
100
  7
SLDTEXTSTYLE0
 73
     1
 44
1.0
  0
MTEXT
  5
8C
330
83
100
AcDbEntity
  8
0
  6
Continuous
 62
     7
370
    18
100
AcDbMText
 10
105.3376491864
 20
46.1946404371
 30
0.0
 40
6.0
 41
0.0
 71
     1
 72
     1
  1
mm
  7
SLDTEXTSTYLE0
 73
     1
 44
1.0
  0
ENDBLK
  5
85
330
83
100
AcDbEntity
  8
0
100
AcDbBlockEnd
  0
ENDSEC
  0
SECTION
  2
ENTITIES
  0
LINE
  5
73
330
1F
100
AcDbEntity
  8
0
  6
Continuous
 62
     7
370
    18
100
AcDbLine
 10
56.6850079902
 20
152.0299240879
 30
0.0
 11
56.6850079902
 21
52.0299240879
 31
0.0
  0
LINE
  5
74
330
1F
100
AcDbEntity
  8
0
  6
Continuous
 62
     7
370
    18
100
AcDbLine
 10
56.6850079902
 20
52.0299240879
 30
0.0
 11
156.6850079902
 21
52.0299240879
 31
0.0
  0
DIMENSION
  5
75
330
1F
100
AcDbEntity
  8
0
  6
Continuous
 62
     7
370
    18
100
AcDbDimension
  2
_D
 10
42.7614395004
 20
52.0299240879
 30
0.0
 11
42.7614395004
 21
105.4472211621
 31
0.0
 70
   160
  1
<>mm
 71
     2
 42
-1.0
  3
SLDDIMSTYLE0
100
AcDbAlignedDimension
 13
56.6850079902
 23
152.0299240879
 33
0.0
 14
56.6850079902
 24
52.0299240879
 34
0.0
 50
90.0
100
AcDbRotatedDimension
  0
DIMENSION
  5
82
330
1F
100
AcDbEntity
  8
0
  6
Continuous
 62
     7
370
    18
100
AcDbDimension
  2
_D_1
 10
156.6850079902
 20
38.4602342313
 30
0.0
 11
105.0418155019
 21
38.4602342313
 31
0.0
 70
   160
  1
<>mm
 71
     2
 42
-1.0
  3
SLDDIMSTYLE0
100
AcDbAlignedDimension
 13
56.6850079902
 23
52.0299240879
 33
0.0
 14
156.6850079902
 24
52.0299240879
 34
0.0
100
AcDbRotatedDimension
  0
MTEXT
  5
8E
330
1F
100
AcDbEntity
  8
0
  6
Continuous
 62
     7
370
     0
100
AcDbMText
 10
412.8252631579
 20
48.4342449499
 30
0.0
 40
10.0
 41
0.0
 71
     1
 72
     1
  1
KLUDI GmbH & Co KG
  7
SLDTEXTSTYLE1
 73
     1
 44
1.0
  0
MTEXT
  5
8F
330
1F
100
AcDbEntity
  8
0
  6
Continuous
 62
     7
370
     0
100
AcDbMText
 10
210.0873490389
 20
48.4342449499
 30
0.0
 40
10.0
 41
0.0
 71
     1
 72
     1
  1
59 574 05 75
  7
SLDTEXTSTYLE1
 73
     1
 44
1.0
  0
SPLINE
  5
90
330
1F
100
AcDbEntity
  8
0
  6
Continuous
 62
     7
370
    25
100
AcDbSpline
210
0.0
220
0.0
230
1.0
 70
     8
 71
     3
 72
     9
 73
     5
 74
     0
 42
0.00000001
 43
0.00000001
 40
0.0
 40
0.0
 40
0.0
 40
0.0
 40
0.1919682045812378
 40
1.0
 40
1.0
 40
1.0
 40
1.0
 10
139.2568922385856
 20
562.9554940255235
 30
0.0
 10
139.2838720709232
 20
562.9340040595438
 30
0.0
 10
139.4244153051349
 20
562.8220586151059
 30
0.0
 10
139.6387668881592
 20
562.7258719687877
 30
0.0
 10
139.8119697826412
 20
562.6481501002681
 30
0.0
  0
LINE
  5
91
330
1F
100
AcDbEntity
  8
0
  6
Continuous
 62
     7
370
    25
100
AcDbLine
 10
170.8732653061
 20
564.8904060712
 30
0.0
 11
170.8732653061
 21
574.2910440276
 31
0.0
  0
LINE
  5
92
330
1F
100
AcDbEntity
  8
0
  6
Continuous
 62
     7
370
    25
100
AcDbLine
 10
137.8732653061
 20
574.2910440276
 30
0.0
 11
137.8732653061
 21
564.8904060712
 31
0.0
  0
LINE
  5
93
330
1F
100
AcDbEntity
  8
0
  6
Continuous
 62
     7
370
    25
100
AcDbLine
 10
164.0600125546
 20
559.270996878
 30
0.0
 11
164.9406259408
 21
559.7028519493
 31
0.0
  0
LINE
  5
94
330
1F
100
AcDbEntity
  8
0
  6
Continuous
 62
     7
370
    25
100
AcDbLine
 10
143.8059046714
 20
559.7028519493
 30
0.0
 11
144.6865180576
 21
559.270996878
 31
0.0
  0
SPLINE
  5
95
330
1F
100
AcDbEntity
  8
0
  6
Continuous
 62
     7
370
    25
100
AcDbSpline
210
0.0
220
0.0
230
1.0
 70
     8
 71
     3
 72
    31
 73
    27
 74
     0
 42
0.00000001
 43
0.00000001
 40
0.0
 40
0.0
 40
0.0
 40
0.0
 40
0.0274586854734172
 40
0.0568695783955114
 40
0.0878695401152671
 40
0.1231182529131023
 40
0.1652977358373574
 40
0.2152664148757712
 40
0.264568194141232
 40
0.3127859433720151
 40
0.3593004742160382
 40
0.4052415023705498
 40
0.4509845217582655
 40
0.4963102607593914
 40
0.5418503897810703
 40
0.5870983317226739
 40
0.632569435064014
 40
0.6785220409414267
 40
0.7244407655004973
 40
0.7716511190948305
 40
0.8199009124576518
 40
0.8709073469059995
 40
0.9106348872819495
 40
0.9430524991792016
 40
0.9734053357732801
 40
1.0
 40
1.0
 40
1.0
 40
1.0
 10
170.8588955616394
 20
581.9737706222257
 30
0.0
 10
170.8390708587363
 20
582.2875461768792
 30
0.0
 10
170.7980119924258
 20
582.9374055272565
 30
0.0
 10
170.3994074901337
 20
583.8120148083581
 30
0.0
 10
169.825821481963
 20
584.5939008333477
 30
0.0
 10
169.0304605191543
 20
585.3083197526727
 30
0.0
 10
167.9612629995108
 20
585.9834449879712
 30
0.0
 10
166.5793267051779
 20
586.6137330877564
 30
0.0
 10
164.8918173607871
 20
587.1731141824683
 30
0.0
 10
163.0335499022271
 20
587.6302193352078
 30
0.0
 10
161.0351509935025
 20
587.9870443110915
 30
0.0
 10
158.9382150007469
 20
588.2451043129781
 30
0.0
 10
156.7648368719244
 20
588.4045537685118
 30
0.0
 10
154.5492321353675
 20
588.4624390758113
 30
0.0
 10
152.3375881931397
 20
588.4211170562139
 30
0.0
 10
150.1663027123494
 20
588.2776610482058
 30
0.0
 10
148.0718606797902
 20
588.0398070903428
 30
0.0
 10
146.0961770125076
 20
587.7063717338822
 30
0.0
 10
144.2603049209006
 20
587.2840246049611
 30
0.0
 10
142.5908514914631
 20
586.7679948093687
 30
0.0
 10
141.0935770943108
 20
586.1463339889549
 30
0.0
 10
139.8806701030656
 20
585.4391170113311
 30
0.0
 10
138.9728275651218
 20
584.6563780896377
 30
0.0
 10
138.3478895347552
 20
583.8240634795418
 30
0.0
 10
137.9434047568952
 20
582.920232557019
 30
0.0
 10
137.9032967386948
 20
582.2743312376763
 30
0.0
 10
137.8845661664754
 20
581.9726932647375
 30
0.0
  0
LINE
  5
96
330
1F
100
AcDbEntity
  8
0
  6
Continuous
 62
     7
370
    25
100
AcDbLine
 10
166.3732653061
 20
561.2032409151
 30
0.0
 11
166.3732653061
 21
564.5045831038
 31
0.0
  0
LINE
  5
97
330
1F
100
AcDbEntity
  8
0
  6
Continuous
 62
     7
370
    25
100
AcDbLine
 10
142.3732653061
 20
564.5045831038
 30
0.0
 11
142.3732653061
 21
561.2032409151
 31
0.0
  0
SPLINE
  5
98
330
1F
100
AcDbEntity
  8
0
  6
Continuous
 62
     7
370
    25
100
AcDbSpline
210
0.0
220
0.0
230
1.0
 70
     8
 71
     3
 72
    17
 73
    13
 74
     0
 42
0.00000001
 43
0.00000001
 40
0.0
 40
0.0
 40
0.0
 40
0.0
 40
0.0547783187202382
 40
0.1613988762150934
 40
0.262762356816477
 40
0.3794724510440013
 40
0.498347654701605
 40
0.6096422877963141
 40
0.7262563914488347
 40
0.8430931878778192
 40
0.961000855862661
 40
1.0
 40
1.0
 40
1.0
 40
1.0
 10
163.87867945397
 20
620.9922193081649
 30
0.0
 10
163.8489917240555
 20
621.1254847936416
 30
0.0
 10
163.7615197760744
 20
621.5181383123459
 30
0.0
 10
163.3478066172768
 20
622.1276792069625
 30
0.0
 10
162.6772706217838
 20
622.644197582383
 30
0.0
 10
161.8459755444154
 20
623.0696766135893
 30
0.0
 10
160.7839139851112
 20
623.4314038595976
 30
0.0
 10
159.5283965967409
 20
623.7204687128113
 30
0.0
 10
158.1093943217505
 20
623.9302883559461
 30
0.0
 10
156.5443778078483
 20
624.0595629054213
 30
0.0
 10
155.2805166649247
 20
624.1057704282176
 30
0.0
 10
154.553899877056
 20
624.1048326142261
 30
0.0
 10
154.3732994782623
 20
624.1045995208216
 30
0.0
  0
SPLINE
  5
99
330
1F
100
AcDbEntity
  8
0
  6
Continuous
 62
     7
370
    25
100
AcDbSpline
210
0.0
220
0.0
230
1.0
 70
     8
 71
     3
 72
    17
 73
    13
 74
     0
 42
0.00000001
 43
0.00000001
 40
0.0
 40
0.0
 40
0.0
 40
0.0
 40
0.0295866367453388
 40
0.1462163000874012
 40
0.2585086772074778
 40
0.3784040796361262
 40
0.4972390449445062
 40
0.6157842479538631
 40
0.7442666910606477
 40
0.8501835984922406
 40
0.9503674866857222
 40
1.0
 40
1.0
 40
1.0
 40
1.0
 10
154.2721617336996
 20
624.104668508235
 30
0.0
 10
154.1352829229784
 20
624.1047810045812
 30
0.0
 10
153.4588318130978
 20
624.1053369582596
 30
0.0
 10
152.26603946167
 20
624.0622574853451
 30
0.0
 10
150.7102359766166
 20
623.9384049723113
 30
0.0
 10
149.2578478373775
 20
623.7293492784106
 30
0.0
 10
147.9625636747669
 20
623.4329681902464
 30
0.0
 10
146.8470211051785
 20
623.0489912287619
 30
0.0
 10
145.9929113711585
 20
622.6034219311094
 30
0.0
 10
145.3151908160994
 20
622.0372529706158
 30
0.0
 10
144.9515114830849
 20
621.4289091676604
 30
0.0
 10
144.8838401407383
 20
621.0665829557599
 30
0.0
 10
144.861421375061
 20
620.9465482976364
 30
0.0
  0
LINE
  5
9A
330
1F
100
AcDbEntity
  8
0
  6
Continuous
 62
     7
370
    25
100
AcDbLine
 10
144.8277619963
 20
620.7844181589
 30
0.0
 11
144.8268791658
 21
620.7382925954
 31
0.0
  0
LINE
  5
9B
330
1F
100
AcDbEntity
  8
0
  6
Continuous
 62
     7
370
    25
100
AcDbLine
 10
163.9196514464
 20
620.7382925954
 30
0.0
 11
163.9187686159
 21
620.7844181589
 31
0.0
  0
SPLINE
  5
9C
330
1F
100
AcDbEntity
  8
0
  6
Continuous
 62
     7
370
    25
100
AcDbSpline
210
0.0
220
0.0
230
1.0
 70
     8
 71
     3
 72
    16
 73
    12
 74
     0
 42
0.00000001
 43
0.00000001
 40
0.0
 40
0.0
 40
0.0
 40
0.0
 40
0.0199612804034786
 40
0.1672619557364619
 40
0.3269490615707716
 40
0.4429241119101153
 40
0.5591472203818323
 40
0.683050808402944
 40
0.8165172825985662
 40
0.9728047628679934
 40
1.0
 40
1.0
 40
1.0
 40
1.0
 10
144.5277375144571
 20
605.1214869602971
 30
0.0
 10
144.5274492963594
 20
605.1038994303243
 30
0.0
 10
144.5250342246942
 20
604.956527889001
 30
0.0
 10
144.5009316424851
 20
604.9647440116368
 30
0.0
 10
144.5630488771369
 20
605.029975142815
 30
0.0
 10
144.4296532585217
 20
604.900092793525
 30
0.0
 10
143.9862769944957
 20
604.6704771847407
 30
0.0
 10
143.2776545033266
 20
604.4325727701327
 30
0.0
 10
142.2772915923188
 20
604.1875006255019
 30
0.0
 10
141.4070986216279
 20
604.0300135433396
 30
0.0
 10
140.8904153919782
 20
603.9399305378386
 30
0.0
 10
140.813834212282
 20
603.9265787152208
 30
0.0
  0
SPLINE
  5
9D
330
1F
100
AcDbEntity
  8
0
  6
Continuous
 62
     7
370
    25
100
AcDbSpline
210
0.0
220
0.0
230
1.0
 70
     8
 71
     3
 72
    14
 73
    10
 74
     0
 42
0.00000001
 43
0.00000001
 40
0.0
 40
0.0
 40
0.0
 40
0.0
 40
0.0546389315215785
 40
0.2954159197304985
 40
0.4812838445833609
 40
0.6564059664815501
 40
0.8172021648877893
 40
0.9868461860975138
 40
0.9999999999999999
 40
0.9999999999999999
 40
0.9999999999999999
 40
0.9999999999999999
 10
167.6723444409843
 20
603.974040182017
 30
0.0
 10
167.5656682837674
 20
603.9926612332713
 30
0.0
 10
166.9889030685636
 20
604.0933395377225
 30
0.0
 10
166.0987946511399
 20
604.2723757085755
 30
0.0
 10
165.155082526426
 20
604.525293339728
 30
0.0
 10
164.5544578055465
 20
604.7662273172668
 30
0.0
 10
164.2403431628162
 20
604.9556024081347
 30
0.0
 10
164.2049064544524
 20
605.0170100366128
 30
0.0
 10
164.2097186120844
 20
605.0055059639859
 30
0.0
 10
164.210064886568
 20
605.0046781509521
 30
0.0
  0
SPLINE
  5
9E
330
1F
100
AcDbEntity
  8
0
  6
Continuous
 62
     7
370
    25
100
AcDbSpline
210
0.0
220
0.0
230
1.0
 70
     8
 71
     3
 72
     9
 73
     5
 74
     0
 42
0.00000001
 43
0.00000001
 40
0.0
 40
0.0
 40
0.0
 40
0.0
 40
0.6659739204039049
 40
1.0
 40
1.0
 40
1.0
 40
1.0
 10
164.2221803500638
 20
604.9962881135873
 30
0.0
 10
164.2218474470683
 20
604.9938590139747
 30
0.0
 10
164.2213475731465
 20
604.9902115744305
 30
0.0
 10
164.2194785165111
 20
605.0862032819979
 30
0.0
 10
164.2188542028507
 20
605.1182670157505
 30
0.0
  0
LINE
  5
9F
330
1F
100
AcDbEntity
  8
0
  6
Continuous
 62
     7
370
    25
100
AcDbLine
 10
167.9377588442
 20
603.9272968923
 30
0.0
 11
167.672344441
 21
603.974040182
 31
0.0
  0
LINE
  5
A0
330
1F
100
AcDbEntity
  8
0
  6
Continuous
 62
     7
370
    25
100
AcDbLine
 10
180.3732653061
 20
390.6577469761
 30
0.0
 11
180.3732653061
 21
558.0530365292
 31
0.0
  0
LINE
  5
A1
330
1F
100
AcDbEntity
  8
0
  6
Continuous
 62
     7
370
    25
100
AcDbLine
 10
128.3732653061
 20
558.0530365292
 30
0.0
 11
128.3732653061
 21
390.6577469761
 31
0.0
  0
LINE
  5
A2
330
1F
100
AcDbEntity
  8
0
  6
Continuous
 62
     7
370
    25
100
AcDbLine
 10
180.3732653061
 20
566.6151310285
 30
0.0
 11
180.3732653061
 21
597.0275421255
 31
0.0
  0
LINE
  5
A3
330
1F
100
AcDbEntity
  8
0
  6
Continuous
 62
     7
370
    25
100
AcDbLine
 10
128.3732653061
 20
597.0275421255
 30
0.0
 11
128.3732653061
 21
566.6151310285
 31
0.0
  0
LINE
  5
A4
330
1F
100
AcDbEntity
  8
0
  6
Continuous
 62
     7
370
    25
100
AcDbLine
 10
180.2732653061
 20
558.6577469761
 30
0.0
 11
180.2207477949
 21
561.6664731793
 31
0.0
  0
LINE
  5
A5
330
1F
100
AcDbEntity
  8
0
  6
Continuous
 62
     7
370
    25
100
AcDbLine
 10
128.5257828174
 20
561.6664731793
 30
0.0
 11
128.4732653061
 21
558.6577469761
 31
0.0
  0
LINE
  5
A6
330
1F
100
AcDbEntity
  8
0
  6
Continuous
 62
     7
370
    25
100
AcDbLine
 10
180.2732653061
 20
558.0530365292
 30
0.0
 11
180.2732653061
 21
558.6577469761
 31
0.0
  0
LINE
  5
A7
330
1F
100
AcDbEntity
  8
0
  6
Continuous
 62
     7
370
    25
100
AcDbLine
 10
128.4732653061
 20
558.6577469761
 30
0.0
 11
128.4732653061
 21
558.0530365292
 31
0.0
  0
ARC
  5
A8
330
1F
100
AcDbEntity
  8
0
  6
Continuous
 62
     7
370
    25
100
AcDbCircle
 10
129.0257066649
 20
561.6577469761
 30
0.0
 40
0.5000000000000352
100
AcDbArc
 50
90.0
 51
179.0
  0
ARC
  5
A9
330
1F
100
AcDbEntity
  8
0
  6
Continuous
 62
     7
370
    25
100
AcDbCircle
 10
179.7208239473
 20
561.6577469761
 30
0.0
 40
0.5000000000000352
100
AcDbArc
 50
1.0
 51
90.0
  0
ARC
  5
AA
330
1F
100
AcDbEntity
  8
0
  6
Continuous
 62
     7
370
    25
100
AcDbCircle
 10
130.2416399609
 20
562.4577469761
 30
0.0
 40
0.3000000000000682
100
AcDbArc
 50
270.0
 51
358.1874303925
  0
ARC
  5
AB
330
1F
100
AcDbEntity
  8
0
  6
Continuous
 62
     7
370
    25
100
AcDbCircle
 10
178.5048906514
 20
562.4577469761
 30
0.0
 40
0.3000000000000682
100
AcDbArc
 50
181.8125696075
 51
270.0
  0
ARC
  5
AC
330
1F
100
AcDbEntity
  8
0
  6
Continuous
 62
     7
370
    25
100
AcDbCircle
 10
157.7244850264
 20
561.8001330596
 30
0.0
 40
20.4908084018758
100
AcDbArc
 50
1.8125696075
 51
8.9877082873
  0
ARC
  5
AD
330
1F
100
AcDbEntity
  8
0
  6
Continuous
 62
     7
370
    25
100
AcDbCircle
 10
151.0220455859
 20
561.8001330596
 30
0.0
 40
20.49080840187577
100
AcDbArc
 50
171.0101056174
 51
178.1874303925
  0
SPLINE
  5
AE
330
1F
100
AcDbEntity
  8
0
  6
Continuous
 62
     7
370
    25
100
AcDbSpline
210
0.0
220
0.0
230
1.0
 70
     8
 71
     3
 72
    18
 73
    14
 74
     0
 42
0.00000001
 43
0.00000001
 40
0.0
 40
0.0
 40
0.0
 40
0.0
 40
0.005239048901926
 40
0.0967478377467306
 40
0.1878807080974864
 40
0.2853257433858664
 40
0.3932433795955525
 40
0.5082408679407463
 40
0.6232779295276872
 40
0.7362086503583036
 40
0.8472552727887592
 40
0.9568139979694815
 40
1.0
 40
1.0
 40
1.0
 40
1.0
 10
180.3651460130666
 20
597.0011193424166
 30
0.0
 10
180.3679494525518
 20
597.0197284665506
 30
0.0
 10
180.4197196714456
 20
597.363377200516
 30
0.0
 10
180.2337037556791
 20
598.0450408176993
 30
0.0
 10
179.7992999424109
 20
598.9482636852587
 30
0.0
 10
179.0704583564287
 20
599.7884555562424
 30
0.0
 10
178.0583865536702
 20
600.5931790910876
 30
0.0
 10
176.7264861975421
 20
601.3614882952941
 30
0.0
 10
175.1035779684113
 20
602.0726779230291
 30
0.0
 10
173.2399805385678
 20
602.7119275126836
 30
0.0
 10
171.1668822699222
 20
603.275322513589
 30
0.0
 10
169.3622126859475
 20
603.6692615360714
 30
0.0
 10
168.248349114492
 20
603.8699130026856
 30
0.0
 10
167.9334229279266
 20
603.9266438293587
 30
0.0
  0
SPLINE
  5
AF
330
1F
100
AcDbEntity
  8
0
  6
Continuous
 62
     7
370
    25
100
AcDbSpline
210
0.0
220
0.0
230
1.0
 70
     8
 71
     3
 72
    17
 73
    13
 74
     0
 42
0.00000001
 43
0.00000001
 40
0.0
 40
0.0
 40
0.0
 40
0.0
 40
0.0575511608503161
 40
0.1679501435500497
 40
0.2793089620604299
 40
0.3920102119919885
 40
0.506383188093951
 40
0.6228641919462392
 40
0.7417460079391718
 40
0.8433721497284271
 40
0.9352954650564078
 40
1.0
 40
1.0
 40
1.0
 40
1.0
 10
140.8131076843177
 20
603.9266438293586
 30
0.0
 10
140.4009192038025
 20
603.8517472062989
 30
0.0
 10
139.1980396536877
 20
603.6331782250927
 30
0.0
 10
137.3377486192967
 20
603.2151762219952
 30
0.0
 10
135.3147800947213
 20
602.6520403644894
 30
0.0
 10
133.5057285782733
 20
602.0179668823739
 30
0.0
 10
131.9232589271904
 20
601.3119876950211
 30
0.0
 10
130.5836418787271
 20
600.5247554129528
 30
0.0
 10
129.5552407473749
 20
599.682502334721
 30
0.0
 10
128.8557407575852
 20
598.7910876673845
 30
0.0
 10
128.4542750152908
 20
597.9497509518729
 30
0.0
 10
128.4185430398774
 20
597.3935431954347
 30
0.0
 10
128.4037818026662
 20
597.1637681959696
 30
0.0
  0
SPLINE
  5
B0
330
1F
100
AcDbEntity
  8
0
  6
Continuous
 62
     7
370
    25
100
AcDbSpline
210
0.0
220
0.0
230
1.0
 70
     8
 71
     3
 72
    10
 73
     6
 74
     0
 42
0.00000001
 43
0.00000001
 40
0.0
 40
0.0
 40
0.0
 40
0.0
 40
0.34824200222645
 40
0.7919008290582633
 40
1.0
 40
1.0
 40
1.0
 40
1.0
 10
179.504130509461
 20
565.0826441838148
 30
0.0
 10
179.6646171366062
 20
565.1839434582738
 30
0.0
 10
180.0295630428336
 20
565.4142975767155
 30
0.0
 10
180.3084538033198
 20
565.9080389245061
 30
0.0
 10
180.3267374910165
 20
566.2753524445803
 30
0.0
 10
180.3325752717026
 20
566.3926316176236
 30
0.0
  0
SPLINE
  5
B1
330
1F
100
AcDbEntity
  8
0
  6
Continuous
 62
     7
370
    25
100
AcDbSpline
210
0.0
220
0.0
230
1.0
 70
     8
 71
     3
 72
    10
 73
     6
 74
     0
 42
0.00000001
 43
0.00000001
 40
0.0
 40
0.0
 40
0.0
 40
0.0
 40
0.1528756299021416
 40
0.5956132144660639
 40
1.0
 40
1.0
 40
1.0
 40
1.0
 10
128.4262018570807
 20
566.2763736602765
 30
0.0
 10
128.4305244767874
 20
566.1978563958077
 30
0.0
 10
128.4473656791429
 20
565.8919481204904
 30
0.0
 10
128.7032467906002
 20
565.4336691565215
 30
0.0
 10
129.0562977486763
 20
565.20118553642
 30
0.0
 10
129.2248316111239
 20
565.0902061960295
 30
0.0
  0
ARC
  5
B2
330
1F
100
AcDbEntity
  8
0
  6
Continuous
 62
     7
370
    25
100
AcDbCircle
 10
163.8530994773
 20
571.5833058078
 30
0.0
 40
10.227210873479
100
AcDbArc
 50
284.1517179691
 51
304.1132276839
  0
LWPOLYLINE
  5
B3
330
1F
100
AcDbEntity
  8
0
  6
Continuous
 62
     7
370
    25
100
AcDbPolyline
 90
       21
 70
   128
 43
0.0
 10
170.1276001574
 20
565.3801858291
 10
170.0696046922
 20
565.4499312719
 10
169.3603326593
 20
566.0566818748
 10
168.3162743071
 20
566.628761156
 10
166.9607521739
 20
567.1533898096
 10
165.3240463842
 20
567.6188484983
 10
163.4427182409
 20
568.0147396444
 10
161.3587935059
 20
568.3322196936
 10
159.1188236141
 20
568.5641966665
 10
156.7728457916
 20
568.7054885806
 10
154.3732653061
 20
568.7529392082
 10
151.9736848207
 20
568.7054885806
 10
149.6277069981
 20
568.5641966665
 10
147.3877371063
 20
568.3322196936
 10
145.3038123713
 20
568.0147396444
 10
143.422484228
 20
567.6188484983
 10
141.7857784384
 20
567.1533898096
 10
140.4302563052
 20
566.628761156
 10
139.386197953
 20
566.0566818748
 10
138.67692592
 20
565.4499312719
 10
138.3712778085
 20
564.9726433279
  0
ARC
  5
B4
330
1F
100
AcDbEntity
  8
0
  6
Continuous
 62
     7
370
    25
100
AcDbCircle
 10
145.9716151182
 20
574.4853050249
 30
0.0
 40
13.30898581825097
100
AcDbArc
 50
243.1737291061
 51
254.4018395542
  0
LWPOLYLINE
  5
B5
330
1F
100
AcDbEntity
  8
0
  6
Continuous
 62
     7
370
    25
100
AcDbPolyline
 90
       29
 70
   128
 43
0.0
 10
139.0835519507
 20
563.2536556426
 10
138.4097843047
 20
563.7891580708
 10
137.9722492147
 20
564.4142141847
 10
137.884273308
 20
565.0494195018
 10
138.1477316384
 20
565.6812357238
 10
138.757009049
 20
566.2961967846
 10
139.6991198496
 20
566.8811958572
 10
140.953984584
 20
567.4237647017
 10
142.4948579891
 20
567.9123394053
 10
144.2888990235
 20
568.3365068464
 10
146.2978708172
 20
568.6872266324
 10
148.4789556244
 20
568.9570237801
 10
150.785667409
 20
569.1401480315
 10
153.1688426142
 20
569.2326964112
 10
155.577687998
 20
569.2326964112
 10
157.9608632032
 20
569.1401480315
 10
160.2675749878
 20
568.9570237801
 10
162.448659795
 20
568.6872266324
 10
164.4576315887
 20
568.3365068464
 10
166.2516726231
 20
567.9123394053
 10
167.7925460283
 20
567.4237647017
 10
169.0474107627
 20
566.8811958572
 10
169.9895215632
 20
566.2961967846
 10
170.5987989738
 20
565.6812357238
 10
170.8622573042
 20
565.0494195018
 10
170.7742813976
 20
564.4142141847
 10
170.3367463076
 20
563.7891580708
 10
169.558977335
 20
563.1875731462
 10
169.1702262908
 20
562.9639530627
  0
LINE
  5
B6
330
1F
100
AcDbEntity
  8
0
  6
Continuous
 62
     7
370
    25
100
AcDbLine
 10
137.8732653061
 20
574.2910440276
 30
0.0
 11
137.8732653061
 21
581.972665329
 31
0.0
  0
LINE
  5
B7
330
1F
100
AcDbEntity
  8
0
  6
Continuous
 62
     7
370
    25
100
AcDbLine
 10
170.8732653061
 20
574.2910440276
 30
0.0
 11
170.8732653061
 21
581.972665329
 31
0.0
  0
LWPOLYLINE
  5
B8
330
1F
100
AcDbEntity
  8
0
  6
Continuous
 62
     7
370
    25
100
AcDbPolyline
 90
        8
 70
   128
 43
0.0
 10
142.3732653061
 20
564.5045831038
 10
142.4209783081
 20
564.7866725909
 10
142.8004088103
 20
565.3418965127
 10
143.54722463
 20
565.8705395595
 10
144.6377177771
 20
566.3558197298
 10
146.0372700765
 20
566.7823315956
 10
147.7014521373
 20
567.1365353538
 10
149.5774337828
 20
567.4071866534
  0
LWPOLYLINE
  5
B9
330
1F
100
AcDbEntity
  8
0
  6
Continuous
 62
     7
370
    25
100
AcDbPolyline
 90
        8
 70
   128
 43
0.0
 10
159.1690968294
 20
567.4071866534
 10
161.0450784749
 20
567.1365353538
 10
162.7092605358
 20
566.7823315956
 10
164.1088128352
 20
566.3558197298
 10
165.1993059822
 20
565.8705395595
 10
165.9461218019
 20
565.3418965127
 10
166.3255523042
 20
564.7866725909
 10
166.3732653061
 20
564.5045831038
  0
LWPOLYLINE
  5
BA
330
1F
100
AcDbEntity
  8
0
  6
Continuous
 62
     7
370
    25
100
AcDbPolyline
 90
       18
 70
   128
 43
0.0
 10
154.3732653061
 20
557.7437498803
 10
156.3945100021
 20
557.7931722216
 10
158.3469236342
 20
557.939756227
 10
160.1640190978
 20
558.1785101538
 10
161.7839173862
 20
558.5013035236
 10
163.1514548062
 20
558.8971439953
 10
164.220061511
 20
559.3525516963
 10
164.953347381
 20
559.8520182636
 10
165.3263412454
 20
560.3785349623
 10
165.3263412454
 20
560.9141718976
 10
164.953347381
 20
561.4406885963
 10
164.220061511
 20
561.9401551636
 10
163.1514548062
 20
562.3955628646
 10
161.7839173862
 20
562.7914033363
 10
160.1640190978
 20
563.1141967061
 10
158.3469236342
 20
563.3529506329
 10
156.3945100021
 20
563.4995346383
 10
154.3732653061
 20
563.5489569796
  0
SPLINE
  5
BB
330
1F
100
AcDbEntity
  8
0
  6
Continuous
 62
     7
370
    25
100
AcDbSpline
210
0.0
220
0.0
230
1.0
 70
     8
 71
     3
 72
     8
 73
     4
 74
     0
 42
0.00000001
 43
0.00000001
 40
0.0
 40
0.0
 40
0.0
 40
0.0
 40
1.0
 40
1.0
 40
1.0
 40
1.0
 10
159.1690968294351
 20
564.105844464762
 30
0.0
 10
157.588310395017
 20
563.7540221914373
 30
0.0
 10
155.9917843875003
 20
563.5489569795666
 30
0.0
 10
154.3732653061224
 20
563.5489569795666
 30
0.0
  0
LWPOLYLINE
  5
BC
330
1F
100
AcDbEntity
  8
0
  6
Continuous
 62
     7
370
    25
100
AcDbPolyline
 90
       11
 70
   128
 43
0.0
 10
164.9406259408
 20
559.7028519493
 10
165.1993059822
 20
559.8372844594
 10
165.9461218019
 20
560.3659275062
 10
166.3255523042
 20
560.9211514281
 10
166.3255523042
 20
561.4853304022
 10
165.9461218019
 20
562.0405543241
 10
165.1993059822
 20
562.5691973708
 10
164.1088128352
 20
563.0544775412
 10
162.7092605358
 20
563.480989407
 10
161.0450784749
 20
563.8351931652
 10
159.1690968294
 20
564.1058444648
  0
LINE
  5
BD
330
1F
100
AcDbEntity
  8
0
  6
Continuous
 62
     7
370
    25
100
AcDbLine
 10
159.1690968294
 20
567.4071866534
 30
0.0
 11
159.1690968294
 21
564.1058444648
 31
0.0
  0
SPLINE
  5
BE
330
1F
100
AcDbEntity
  8
0
  6
Continuous
 62
     7
370
    25
100
AcDbSpline
210
0.0
220
0.0
230
1.0
 70
     8
 71
     3
 72
    10
 73
     6
 74
     0
 42
0.00000001
 43
0.00000001
 40
0.0
 40
0.0
 40
0.0
 40
0.0
 40
0.5
 40
0.5
 40
1.0
 40
1.0
 40
1.0
 40
1.0
 10
154.3732653061224
 20
563.5489569795666
 30
0.0
 10
153.5658904548466
 20
563.5489569795666
 30
0.0
 10
152.7490543180026
 20
563.6000434442708
 30
0.0
 10
151.147584726356
 20
563.7920389150089
 30
0.0
 10
150.3581743577704
 20
563.9320816350851
 30
0.0
 10
149.5774337828096
 20
564.105844464762
 30
0.0
  0
LINE
  5
BF
330
1F
100
AcDbEntity
  8
0
  6
Continuous
 62
     7
370
    25
100
AcDbLine
 10
149.5774337828
 20
564.1058444648
 30
0.0
 11
149.5774337828
 21
567.4071866534
 31
0.0
  0
LINE
  5
C0
330
1F
100
AcDbEntity
  8
0
  6
Continuous
 62
     7
370
    25
100
AcDbLine
 10
149.5774337828
 20
567.4071866534
 30
0.0
 11
159.1690968294
 21
567.4071866534
 31
0.0
  0
LWPOLYLINE
  5
C1
330
1F
100
AcDbEntity
  8
0
  6
Continuous
 62
     7
370
    25
100
AcDbPolyline
 90
       11
 70
   128
 43
0.0
 10
149.5774337828
 20
564.1058444648
 10
147.7014521373
 20
563.8351931652
 10
146.0372700765
 20
563.480989407
 10
144.6377177771
 20
563.0544775412
 10
143.54722463
 20
562.5691973708
 10
142.8004088103
 20
562.0405543241
 10
142.4209783081
 20
561.4853304022
 10
142.4209783081
 20
560.9211514281
 10
142.8004088103
 20
560.3659275062
 10
143.54722463
 20
559.8372844594
 10
143.8059046714
 20
559.7028519493
  0
LWPOLYLINE
  5
C2
330
1F
100
AcDbEntity
  8
0
  6
Continuous
 62
     7
370
    25
100
AcDbPolyline
 90
       18
 70
   128
 43
0.0
 10
154.3732653061
 20
563.5489569796
 10
152.3520206101
 20
563.4995346383
 10
150.3996069781
 20
563.3529506329
 10
148.5825115145
 20
563.1141967061
 10
146.962613226
 20
562.7914033363
 10
145.595075806
 20
562.3955628646
 10
144.5264691012
 20
561.9401551636
 10
143.7931832312
 20
561.4406885963
 10
143.4201893669
 20
560.9141718976
 10
143.4201893669
 20
560.3785349623
 10
143.7931832312
 20
559.8520182636
 10
144.5264691012
 20
559.3525516963
 10
145.595075806
 20
558.8971439953
 10
146.962613226
 20
558.5013035236
 10
148.5825115145
 20
558.1785101538
 10
150.3996069781
 20
557.939756227
 10
152.3520206101
 20
557.7931722216
 10
154.3732653061
 20
557.7437498803
  0
LINE
  5
C3
330
1F
100
AcDbEntity
  8
0
  6
Continuous
 62
     7
370
    25
100
AcDbLine
 10
170.8732653061
 20
564.8704060712
 30
0.0
 11
170.8732653061
 21
520.6734542229
 31
0.0
  0
LINE
  5
C4
330
1F
100
AcDbEntity
  8
0
  6
Continuous
 62
     7
370
    25
100
AcDbLine
 10
137.8732653061
 20
520.6734542229
 30
0.0
 11
137.8732653061
 21
564.8704060712
 31
0.0
  0
SPLINE
  5
C5
330
1F
100
AcDbEntity
  8
0
  6
Continuous
 62
     7
370
    25
100
AcDbSpline
210
0.0
220
0.0
230
1.0
 70
     8
 71
     3
 72
     8
 73
     4
 74
     0
 42
0.00000001
 43
0.00000001
 40
0.0
 40
0.0
 40
0.0
 40
0.0
 40
0.0000016590601283
 40
0.0000016590601283
 40
0.0000016590601283
 40
0.0000016590601283
 10
144.8275577390044
 20
620.763063074555
 30
0.0
 10
144.8275577390044
 20
620.7625296549702
 30
0.0
 10
144.8275582246143
 20
620.7620012302232
 30
0.0
 10
144.8275591899572
 20
620.7614798477414
 30
0.0
  0
SPLINE
  5
C6
330
1F
100
AcDbEntity
  8
0
  6
Continuous
 62
     7
370
    25
100
AcDbSpline
210
0.0
220
0.0
230
1.0
 70
     8
 71
     3
 72
    10
 73
     6
 74
     0
 42
0.00000001
 43
0.00000001
 40
0.0
 40
0.0
 40
0.0
 40
0.0
 40
0.5
 40
0.5
 40
1.0
 40
1.0
 40
1.0
 40
1.0
 10
144.8336269682397
 20
617.2094063088673
 30
0.0
 10
144.8326533099166
 20
617.8037439274639
 30
0.0
 10
144.831669987081
 20
618.3975130497838
 30
0.0
 10
144.8296629952473
 20
619.5825635803222
 30
0.0
 10
144.8286462759067
 20
620.1743438992108
 30
0.0
 10
144.8275591899572
 20
620.7614798477415
 30
0.0
  0
LINE
  5
C7
330
1F
100
AcDbEntity
  8
0
  6
Continuous
 62
     7
370
    25
100
AcDbLine
 10
144.8336281624
 20
617.2086664329
 30
0.0
 11
144.8336269682
 21
617.2094063089
 31
0.0
  0
SPLINE
  5
C8
330
1F
100
AcDbEntity
  8
0
  6
Continuous
 62
     7
370
    25
100
AcDbSpline
210
0.0
220
0.0
230
1.0
 70
     8
 71
     3
 72
    12
 73
     8
 74
     0
 42
0.00000001
 43
0.00000001
 40
0.0
 40
0.0
 40
0.0
 40
0.0
 40
0.2500000000000029
 40
0.2500000000000029
 40
0.5000000000000058
 40
0.5000000000000058
 40
1.0
 40
1.0
 40
1.0
 40
1.0
 10
144.8336281460222
 20
617.2086654560409
 30
0.0
 10
144.8337632484575
 20
617.1210240964209
 30
0.0
 10
144.844190452866
 20
617.0350070241686
 30
0.0
 10
144.8848577635087
 20
616.8660958475159
 30
0.0
 10
144.9156659682408
 20
616.7825034235948
 30
0.0
 10
145.0343041212435
 20
616.5483783724789
 30
0.0
 10
145.1526421914315
 20
616.4073393150012
 30
0.0
 10
145.2944997646391
 20
616.2998364264245
 30
0.0
  0
SPLINE
  5
C9
330
1F
100
AcDbEntity
  8
0
  6
Continuous
 62
     7
370
    25
100
AcDbSpline
210
0.0
220
0.0
230
1.0
 70
     8
 71
     3
 72
     8
 73
     4
 74
     0
 42
0.00000001
 43
0.00000001
 40
0.0000000000000009
 40
0.0000000000000009
 40
0.0000000000000009
 40
0.0000000000000009
 40
0.0000016590601283
 40
0.0000016590601283
 40
0.0000016590601283
 40
0.0000016590601283
 10
163.9189714222876
 20
620.7614798477414
 30
0.0
 10
163.9189723876306
 20
620.7620012302222
 30
0.0
 10
163.9189728732404
 20
620.7625296549696
 30
0.0
 10
163.9189728732404
 20
620.7630630745545
 30
0.0
  0
SPLINE
  5
CA
330
1F
100
AcDbEntity
  8
0
  6
Continuous
 62
     7
370
    25
100
AcDbSpline
210
0.0
220
0.0
230
1.0
 70
     8
 71
     3
 72
    10
 73
     6
 74
     0
 42
0.00000001
 43
0.00000001
 40
0.0
 40
0.0
 40
0.0
 40
0.0
 40
0.5
 40
0.5
 40
1.0
 40
1.0
 40
1.0
 40
1.0
 10
163.9189714222876
 20
620.7614798477418
 30
0.0
 10
163.9178837749344
 20
620.1740406846445
 30
0.0
 10
163.9168667821628
 20
619.582082415953
 30
0.0
 10
163.9148589208918
 20
618.396494955898
 30
0.0
 10
163.913875125674
 20
617.8024277170782
 30
0.0
 10
163.9129010661617
 20
617.2078327328696
 30
0.0
  0
SPLINE
  5
CB
330
1F
100
AcDbEntity
  8
0
  6
Continuous
 62
     7
370
    25
100
AcDbSpline
210
0.0
220
0.0
230
1.0
 70
     8
 71
     3
 72
     8
 73
     4
 74
     0
 42
0.00000001
 43
0.00000001
 40
0.0000000000000003
 40
0.0000000000000003
 40
0.0000000000000003
 40
0.0000000000000003
 40
0.0000011376110685
 40
0.0000011376110685
 40
0.0000011376110685
 40
0.0000011376110685
 10
163.9129010661617
 20
617.20783273287
 30
0.0
 10
163.9129004732943
 20
617.2074708289576
 30
0.0
 10
163.9128999038929
 20
617.2071074921666
 30
0.0
 10
163.9128993582657
 20
617.206742887975
 30
0.0
  0
SPLINE
  5
CC
330
1F
100
AcDbEntity
  8
0
  6
Continuous
 62
     7
370
    25
100
AcDbSpline
210
0.0
220
0.0
230
1.0
 70
     8
 71
     3
 72
    12
 73
     8
 74
     0
 42
0.00000001
 43
0.00000001
 40
0.0
 40
0.0
 40
0.0
 40
0.0
 40
0.2500000000000006
 40
0.2500000000000006
 40
0.5000000000000011
 40
0.5000000000000011
 40
1.0
 40
1.0
 40
1.0
 40
1.0
 10
163.9128993582657
 20
617.2067428879755
 30
0.0
 10
163.9127679261143
 20
617.118916041817
 30
0.0
 10
163.9023481755816
 20
617.0327182192746
 30
0.0
 10
163.8617032042693
 20
616.8634547506913
 30
0.0
 10
163.8309099851531
 20
616.7796885122818
 30
0.0
 10
163.712324219683
 20
616.5450764311287
 30
0.0
 10
163.594034679619
 20
616.40374607503
 30
0.0
 10
163.4522271641128
 20
616.2960170049869
 30
0.0
  0
LINE
  5
CD
330
1F
100
AcDbEntity
  8
0
  6
Continuous
 62
     7
370
    25
100
AcDbLine
 10
164.2190854126
 20
605.0813158197
 30
0.0
 11
163.9198547341
 21
620.7153291339
 31
0.0
  0
LINE
  5
CE
330
1F
100
AcDbEntity
  8
0
  6
Continuous
 62
     7
370
    25
100
AcDbLine
 10
144.8266758781
 20
620.7153291339
 30
0.0
 11
144.5274451996
 21
605.0813158197
 31
0.0
  0
LINE
  5
CF
330
1F
100
AcDbEntity
  8
0
  6
Continuous
 62
     7
370
    25
100
AcDbLine
 10
128.3732653061
 20
558.0530365292
 30
0.0
 11
137.8732653061
 21
558.0530365292
 31
0.0
  0
LINE
  5
D0
330
1F
100
AcDbEntity
  8
0
  6
Continuous
 62
     7
370
    25
100
AcDbLine
 10
170.8732653061
 20
558.0530365292
 30
0.0
 11
180.3732653061
 21
558.0530365292
 31
0.0
  0
LINE
  5
D1
330
1F
100
AcDbEntity
  8
0
  6
Continuous
 62
     7
370
    25
100
AcDbLine
 10
128.3732653061
 20
390.6577469761
 30
0.0
 11
180.3732653061
 21
390.6577469761
 31
0.0
  0
ELLIPSE
  5
D2
330
1F
100
AcDbEntity
  8
0
  6
Continuous
 62
     7
370
    25
100
AcDbEllipse
 10
154.3732653061
 20
597.0275421255
 30
0.0
 11
26.0
 21
0.0
 31
0.0
210
0.0
220
0.0
230
1.0
 40
0.2609427796
 41
3.12916381290345
 42
3.141592653589793
  0
ELLIPSE
  5
D3
330
1F
100
AcDbEntity
  8
0
  6
Continuous
 62
     7
370
    25
100
AcDbEllipse
 10
154.3732653061
 20
597.0275421255
 30
0.0
 11
26.0
 21
0.0
 31
0.0
210
0.0
220
0.0
230
1.0
 40
0.2609427796
 41
6.274265461489536
 42
6.283185307179586
  0
ELLIPSE
  5
D4
330
1F
100
AcDbEntity
  8
0
  6
Continuous
 62
     7
370
    25
100
AcDbEllipse
 10
154.3732653061
 20
566.6151310285
 30
0.0
 11
26.0
 21
0.0
 31
0.0
210
0.0
220
0.0
230
1.0
 40
0.2627963233
 41
6.256571170946729
 42
6.283185307179586
  0
ELLIPSE
  5
D5
330
1F
100
AcDbEntity
  8
0
  6
Continuous
 62
     7
370
    25
100
AcDbEllipse
 10
154.3732653061
 20
566.6151310285
 30
0.0
 11
26.0
 21
0.0
 31
0.0
210
0.0
220
0.0
230
1.0
 40
0.2627963233
 41
3.141592653589793
 42
3.168206789822772
  0
LINE
  5
D6
330
1F
100
AcDbEntity
  8
0
  6
Continuous
 62
     7
370
    25
100
AcDbLine
 10
177.9940074663
 20
564.7577469761
 30
0.0
 11
170.8732653061
 21
564.7577469761
 31
0.0
  0
LINE
  5
D7
330
1F
100
AcDbEntity
  8
0
  6
Continuous
 62
     7
370
    25
100
AcDbLine
 10
137.8732653061
 20
564.7577469761
 30
0.0
 11
130.752523146
 21
564.7577469761
 31
0.0
  0
LINE
  5
D8
330
1F
100
AcDbEntity
  8
0
  6
Continuous
 62
     7
370
    25
100
AcDbLine
 10
180.2732653061
 20
558.6577469761
 30
0.0
 11
170.8732653061
 21
558.6577469761
 31
0.0
  0
LINE
  5
D9
330
1F
100
AcDbEntity
  8
0
  6
Continuous
 62
     7
370
    25
100
AcDbLine
 10
137.8732653061
 20
558.6577469761
 30
0.0
 11
128.4732653061
 21
558.6577469761
 31
0.0
  0
LINE
  5
DA
330
1F
100
AcDbEntity
  8
0
  6
Continuous
 62
     7
370
    25
100
AcDbLine
 10
129.0257066649
 20
562.1577469761
 30
0.0
 11
137.8732653061
 21
562.1577469761
 31
0.0
  0
LINE
  5
DB
330
1F
100
AcDbEntity
  8
0
  6
Continuous
 62
     7
370
    25
100
AcDbLine
 10
170.8732653061
 20
562.1577469761
 30
0.0
 11
179.7208238851
 21
562.1577469761
 31
0.0
  0
LINE
  5
DC
330
1F
100
AcDbEntity
  8
0
  6
Continuous
 62
     7
370
    25
100
AcDbLine
 10
179.2529757719
 20
565.0287182497
 30
0.0
 11
177.9940074663
 21
564.7577469761
 31
0.0
  0
LINE
  5
DD
330
1F
100
AcDbEntity
  8
0
  6
Continuous
 62
     7
370
    25
100
AcDbLine
 10
130.752523146
 20
564.7577469761
 30
0.0
 11
129.4717241859
 21
565.0311610572
 31
0.0
  0
LWPOLYLINE
  5
DE
330
1F
100
AcDbEntity
  8
0
  6
Continuous
 62
     8
370
    18
100
AcDbPolyline
 90
        5
 70
   128
 43
0.0
 10
169.588827697
 20
563.1158821123
 10
170.0696046922
 20
563.5592349356
 10
170.4282464407
 20
564.1871030545
 10
170.4282464407
 20
564.8220631531
 10
170.1276001574
 20
565.3801858291
  0
LWPOLYLINE
  5
DF
330
1F
100
AcDbEntity
  8
0
  6
Continuous
 62
     8
370
    18
100
AcDbPolyline
 90
        6
 70
   128
 43
0.0
 10
138.3712778085
 20
564.9726433279
 10
138.3182841715
 20
564.8220631531
 10
138.3182841715
 20
564.1871030545
 10
138.67692592
 20
563.5592349356
 10
139.386197953
 20
562.9524843327
 10
139.9654460825
 20
562.6086456871
  0
SPLINE
  5
E0
330
1F
100
AcDbEntity
  8
0
  6
Continuous
 62
     8
370
    18
100
AcDbSpline
210
0.0
220
0.0
230
1.0
 70
     8
 71
     3
 72
    51
 73
    47
 74
     0
 42
0.00000001
 43
0.00000001
 40
0.0
 40
0.0
 40
0.0
 40
0.0
 40
0.0625000000000021
 40
0.0625000000000021
 40
0.0937500000000022
 40
0.0937500000000022
 40
0.1250000000000023
 40
0.1250000000000023
 40
0.1875000000000024
 40
0.1875000000000024
 40
0.2187500000000032
 40
0.2187500000000032
 40
0.2500000000000039
 40
0.2500000000000039
 40
0.312500000000004
 40
0.312500000000004
 40
0.3437500000000044
 40
0.3437500000000044
 40
0.3750000000000048
 40
0.4062500000000053
 40
0.4062500000000053
 40
0.4375000000000057
 40
0.4375000000000057
 40
0.5000000000000063
 40
0.5000000000000063
 40
0.5312500000000066
 40
0.5312500000000066
 40
0.5625000000000069
 40
0.5625000000000069
 40
0.6250000000000079
 40
0.6250000000000079
 40
0.6562500000000079
 40
0.6562500000000079
 40
0.687500000000008
 40
0.687500000000008
 40
0.7500000000000069
 40
0.7500000000000069
 40
0.8125000000000059
 40
0.8125000000000059
 40
0.8437500000000048
 40
0.8437500000000048
 40
0.8750000000000036
 40
0.8750000000000036
 40
0.9375000000000018
 40
0.9375000000000018
 40
1.0
 40
1.0
 40
1.0
 40
1.0
 10
170.8732653061225
 20
581.9726653290451
 30
0.0
 10
170.8732653061224
 20
582.260301633086
 30
0.0
 10
170.7663069568349
 20
582.5467902159119
 30
0.0
 10
170.4520032064347
 20
582.9745693876362
 30
0.0
 10
170.3214001956233
 20
583.1168287370739
 30
0.0
 10
170.0073465231835
 20
583.4005393011324
 30
0.0
 10
169.8230158315894
 20
583.542383006759
 30
0.0
 10
169.2019646078257
 20
583.9572568671209
 30
0.0
 10
168.6952436291462
 20
584.2226838896945
 30
0.0
 10
167.7973703749619
 20
584.6029431894017
 30
0.0
 10
167.4737264885808
 20
584.7271133814927
 30
0.0
 10
166.7838250973678
 20
584.967061784667
 30
0.0
 10
166.4208187332267
 20
585.0817943866083
 30
0.0
 10
165.2793139041356
 20
585.4103680387245
 30
0.0
 10
164.4488272424986
 20
585.608736123329
 30
0.0
 10
163.0963358058714
 20
585.8729598766563
 30
0.0
 10
162.6277740419263
 20
585.9552720387004
 30
0.0
 10
161.6753984428894
 20
586.1048257354945
 30
0.0
 10
160.7027848886863
 20
586.2403373088897
 30
0.0
 10
159.6902963088381
 20
586.3477851154014
 30
0.0
 10
158.6575932607411
 20
586.4408406448505
 30
0.0
 10
158.1282837979516
 20
586.4803254838503
 30
0.0
 10
156.5310565858191
 20
586.5748329170502
 30
0.0
 10
155.4605493844803
 20
586.6061255512262
 30
0.0
 10
153.8464806807968
 20
586.606452906672
 30
0.0
 10
153.3070631776737
 20
586.5987440434984
 30
0.0
 10
152.2253539388694
 20
586.5672394011365
 30
0.0
 10
151.6864560502977
 20
586.5434626015748
 30
0.0
 10
150.0993605782545
 20
586.4497588174689
 30
0.0
 10
149.0708185599511
 20
586.3573954322702
 30
0.0
 10
147.5725298986411
 20
586.1746283873712
 30
0.0
 10
147.0779827470616
 20
586.1058396919252
 30
0.0
 10
146.1220484098391
 20
585.9558501166659
 30
0.0
 10
145.6597200150938
 20
585.8746405568563
 30
0.0
 10
144.3185251553895
 20
585.6131563076503
 30
0.0
 10
143.4850015879378
 20
585.4151857761946
 30
0.0
 10
141.9439033389713
 20
584.9721919455492
 30
0.0
 10
141.2596740935581
 20
584.7337608736842
 30
0.0
 10
140.3629230345719
 20
584.3549991669706
 30
0.0
 10
140.085436959185
 20
584.2251014670917
 30
0.0
 10
139.5742382349936
 20
583.9580971079266
 30
0.0
 10
139.3398831077297
 20
583.820402708293
 30
0.0
 10
138.7179652133232
 20
583.4053145361268
 30
0.0
 10
138.405525013475
 20
583.1236834885491
 30
0.0
 10
137.9825590407908
 20
582.5518871844212
 30
0.0
 10
137.8732653061223
 20
582.260301535118
 30
0.0
 10
137.8732653061223
 20
581.9726653290452
 30
0.0
  0
LWPOLYLINE
  5
E1
330
1F
100
AcDbEntity
  8
0
  6
Continuous
 62
     8
370
    18
100
AcDbPolyline
 90
       33
 70
   128
 43
0.0
 10
142.3732653061
 20
561.7520697031
 10
141.9421447349
 20
561.8886808291
 10
140.6034613859
 20
562.4067923566
 10
139.5723727027
 20
562.9717650628
 10
138.8719115024
 20
563.5709783911
 10
138.5177249309
 20
564.191046906
 10
138.5177249309
 20
564.8181193015
 10
138.8719115024
 20
565.4381878164
 10
139.5723727027
 20
566.0374011448
 10
140.6034613859
 20
566.602373851
 10
141.9421447349
 20
567.1204853784
 10
143.5585187756
 20
567.5801619717
 10
145.4164763829
 20
567.9711352153
 10
147.4745138542
 20
568.284671413
 10
149.686658033
 20
568.5137666843
 10
152.0034932739
 20
568.6533034194
 10
154.3732653061
 20
568.7001645982
 10
156.7430373383
 20
568.6533034194
 10
159.0598725793
 20
568.5137666843
 10
161.2720167581
 20
568.284671413
 10
163.3300542293
 20
567.9711352153
 10
165.1880118367
 20
567.5801619717
 10
166.8043858774
 20
567.1204853784
 10
168.1430692263
 20
566.602373851
 10
169.1741579096
 20
566.0374011448
 10
169.8746191098
 20
565.4381878164
 10
170.2288056813
 20
564.8181193015
 10
170.2288056813
 20
564.191046906
 10
169.8746191098
 20
563.5709783911
 10
169.1741579096
 20
562.9717650628
 10
168.1430692263
 20
562.4067923566
 10
166.8043858774
 20
561.8886808291
 10
166.3732653061
 20
561.7520697031
  0
ARC
  5
E2
330
1F
100
AcDbEntity
  8
0
  6
Continuous
 62
     8
370
    18
100
AcDbCircle
 10
154.3732653061
 20
524.2545050889
 30
0.0
 40
43.41835932186717
100
AcDbArc
 50
83.6583798094
 51
96.3416201906
  0
SPLINE
  5
E3
330
1F
100
AcDbEntity
  8
0
  6
Continuous
 62
     8
370
    18
100
AcDbSpline
210
0.0
220
0.0
230
1.0
 70
     8
 71
     3
 72
    19
 73
    15
 74
     0
 42
0.00000001
 43
0.00000001
 40
0.0
 40
0.0
 40
0.0
 40
0.0
 40
0.072281656539242
 40
0.1419748148895924
 40
0.2091727296774835
 40
0.2739794295508446
 40
0.3365108799629429
 40
0.3968961575949059
 40
0.4552785771527571
 40
0.5118166876281592
 40
0.6324174085501474
 40
0.7526949988096142
 40
0.8745982023728062
 40
1.0
 40
1.0
 40
1.0
 40
1.0
 10
169.9656015758046
 20
518.8851484645746
 30
0.0
 10
170.0027338704073
 20
518.9089539166899
 30
0.0
 10
170.075668704846
 20
518.9557123173582
 30
0.0
 10
170.1783889962777
 20
519.0358316084303
 30
0.0
 10
170.273535170339
 20
519.120933850444
 30
0.0
 10
170.3608570695424
 20
519.2111650849678
 30
0.0
 10
170.4405171295141
 20
519.3057343597644
 30
0.0
 10
170.5126229880726
 20
519.4041216525345
 30
0.0
 10
170.5773512390684
 20
519.5057940060051
 30
0.0
 10
170.6571412969963
 20
519.6506261439331
 30
0.0
 10
170.7429746329857
 20
519.8493389937423
 30
0.0
 10
170.8180254150954
 20
520.1111258550826
 30
0.0
 10
170.8649210304538
 20
520.3886616996166
 30
0.0
 10
170.8704577716957
 20
520.5776322671879
 30
0.0
 10
170.8732653061224
 20
520.6734542229025
 30
0.0
  0
SPLINE
  5
E4
330
1F
100
AcDbEntity
  8
0
  6
Continuous
 62
     8
370
    18
100
AcDbSpline
210
0.0
220
0.0
230
1.0
 70
     8
 71
     3
 72
    20
 73
    16
 74
     0
 42
0.00000001
 43
0.00000001
 40
0.0
 40
0.0
 40
0.0
 40
0.0
 40
0.0563038304495105
 40
0.111724994968726
 40
0.1664174716781046
 40
0.2205414582192257
 40
0.2742622382596544
 40
0.3277488335500719
 40
0.3811724886283442
 40
0.4347050520513181
 40
0.4885173289953603
 40
0.6033274934835257
 40
0.7261519744438816
 40
0.8580823087454789
 40
1.0
 40
1.0
 40
1.0
 40
1.0
 10
137.8732653061224
 20
520.6734542229148
 30
0.0
 10
137.8738293757912
 20
520.6305324818674
 30
0.0
 10
137.8749486723011
 20
520.5453618768788
 30
0.0
 10
137.8841956130424
 20
520.4183867684897
 30
0.0
 10
137.8990046529645
 20
520.2937895396956
 30
0.0
 10
137.9198675740816
 20
520.1718053153514
 30
0.0
 10
137.9466061836791
 20
520.0527317817517
 30
0.0
 10
137.979199943902
 20
519.936847587514
 30
0.0
 10
138.0175668657306
 20
519.8244357724449
 30
0.0
 10
138.0616255686341
 20
519.7157644963605
 30
0.0
 10
138.1298631638023
 20
519.5719327554142
 30
0.0
 10
138.233591449032
 20
519.3973689938745
 30
0.0
 10
138.3863761344946
 20
519.2044223883544
 30
0.0
 10
138.569025433139
 20
519.0269940585858
 30
0.0
 10
138.7085977476083
 20
518.9335661151956
 30
0.0
 10
138.7809290364402
 20
518.8851484645746
 30
0.0
  0
SPLINE
  5
E5
330
1F
100
AcDbEntity
  8
0
  6
Continuous
 62
     8
370
    18
100
AcDbSpline
210
0.0
220
0.0
230
1.0
 70
     8
 71
     3
 72
    34
 73
    30
 74
     0
 42
0.00000001
 43
0.00000001
 40
0.0
 40
0.0
 40
0.0
 40
0.0
 40
0.0271982581395316
 40
0.0543790796191066
 40
0.081555060564409
 40
0.1087391745031004
 40
0.1359447612884649
 40
0.1631855143494691
 40
0.1904754663191751
 40
0.2178289731160774
 40
0.2452606965752138
 40
0.272785585747188
 40
0.3004188570029717
 40
0.3281759730999646
 40
0.3560726213797466
 40
0.3841246912798546
 40
0.4123482513503848
 40
0.4407595259710915
 40
0.4693748719657551
 40
0.4982107553079971
 40
0.5528771788065421
 40
0.6076160597386858
 40
0.6625226709440286
 40
0.7176858401003067
 40
0.7731878240656714
 40
0.8291042826645935
 40
0.8855043417805634
 40
0.9424507334981111
 40
1.0
 40
1.0
 40
1.0
 40
1.0
 10
154.3732653061224
 20
514.3812865483935
 30
0.0
 10
154.531975074002
 20
514.3819203324521
 30
0.0
 10
154.8492928617655
 20
514.3831874942537
 30
0.0
 10
155.324942140127
 20
514.3935766974389
 30
0.0
 10
155.8000041578881
 20
514.4103238401999
 30
0.0
 10
156.2744430602094
 20
514.4341417300456
 30
0.0
 10
156.74822271932
 20
514.4649826017919
 30
0.0
 10
157.2213068465572
 20
514.5030031189161
 30
0.0
 10
157.6936589657378
 20
514.548305727236
 30
0.0
 10
158.1652424243167
 20
514.601008025766
 30
0.0
 10
158.6360203951831
 20
514.6612241435042
 30
0.0
 10
159.1059558808447
 20
514.7290697393148
 30
0.0
 10
159.5750117198116
 20
514.8046606572068
 30
0.0
 10
160.0431505835888
 20
514.8881132813485
 30
0.0
 10
160.5103350105676
 20
514.9795444593477
 30
0.0
 10
160.9765273014079
 20
515.0790714478811
 30
0.0
 10
161.4416899356551
 20
515.1868122084122
 30
0.0
 10
161.9057840245204
 20
515.3028842698795
 30
0.0
 10
162.368775165246
 20
515.4274090267215
 30
0.0
 10
162.9672203420286
 20
515.5998618839922
 30
0.0
 10
163.6938202843153
 20
515.8299212602395
 30
0.0
 10
164.5384352345562
 20
516.1291209174393
 30
0.0
 10
165.3654413391298
 20
516.4535822178998
 30
0.0
 10
166.1751031976576
 20
516.8024631175748
 30
0.0
 10
166.9676471403957
 20
517.1749582664643
 30
0.0
 10
167.7434818666641
 20
517.570158722321
 30
0.0
 10
168.5023121866892
 20
517.9875845755378
 30
0.0
 10
169.2465030218186
 20
518.4251704215534
 30
0.0
 10
169.7250621097814
 20
518.7312851697071
 30
0.0
 10
169.9656015758046
 20
518.8851484645746
 30
0.0
  0
SPLINE
  5
E6
330
1F
100
AcDbEntity
  8
0
  6
Continuous
 62
     8
370
    18
100
AcDbSpline
210
0.0
220
0.0
230
1.0
 70
     8
 71
     3
 72
    33
 73
    29
 74
     0
 42
0.00000001
 43
0.00000001
 40
0.0
 40
0.0
 40
0.0
 40
0.0
 40
0.0325268008395072
 40
0.0648546707885014
 40
0.0969930393599327
 40
0.1289519398699902
 40
0.1607420242383275
 40
0.1923745763042296
 40
0.2238615234184627
 40
0.2552154460655734
 40
0.2864495852704619
 40
0.3175778475472075
 40
0.3486148071577954
 40
0.3795757054642253
 40
0.4104764471799059
 40
0.4413335933553547
 40
0.4721643509691423
 40
0.5029865590372739
 40
0.554595580817982
 40
0.6055379968017184
 40
0.655908363201906
 40
0.7057997077628285
 40
0.7553030960578537
 40
0.8045072105784576
 40
0.8534979540637088
 40
0.9023580875355145
 40
0.9511669119104001
 40
1.0
 40
1.0
 40
1.0
 40
1.0
 10
138.7809290364402
 20
518.8851484645746
 30
0.0
 10
138.9163190241781
 20
518.7978545774134
 30
0.0
 10
139.1862709670738
 20
518.623800684391
 30
0.0
 10
139.5995494365317
 20
518.3694706624483
 30
0.0
 10
140.0173916642962
 20
518.1213279124318
 30
0.0
 10
140.4405210064415
 20
517.8799209784206
 30
0.0
 10
140.8688030136462
 20
517.6452850488702
 30
0.0
 10
141.3023313795425
 20
517.4175926098903
 30
0.0
 10
141.7411394174154
 20
517.1969805791863
 30
0.0
 10
142.1852767418549
 20
516.9835962544253
 30
0.0
 10
142.6347888716516
 20
516.7775850920885
 30
0.0
 10
143.0897226397893
 20
516.5790939630944
 30
0.0
 10
143.5501247792504
 20
516.388270263384
 30
0.0
 10
144.0160421657835
 20
516.2052622228632
 30
0.0
 10
144.4875222151882
 20
516.0302185381677
 30
0.0
 10
144.9646110237734
 20
515.8632895091501
 30
0.0
 10
145.4473603660513
 20
515.7046228404022
 30
0.0
 10
146.0455305987248
 20
515.5206268090105
 30
0.0
 10
146.7607876502915
 20
515.3205115955611
 30
0.0
 10
147.5952034904765
 20
515.1154089624215
 30
0.0
 10
148.4330092474652
 20
514.9369676809539
 30
0.0
 10
149.2739756081286
 20
514.7845088881702
 30
0.0
 10
150.1178811971847
 20
514.6573457011865
 30
0.0
 10
150.9645045217045
 20
514.554843325515
 30
0.0
 10
151.8136265489723
 20
514.4761933161063
 30
0.0
 10
152.6650300244191
 20
514.4212522742695
 30
0.0
 10
153.5185011952749
 20
514.387422790069
 30
0.0
 10
154.0882967383603
 20
514.38333230111
 30
0.0
 10
154.3732653061224
 20
514.3812865483935
 30
0.0
  0
SPLINE
  5
E7
330
1F
100
AcDbEntity
  8
0
  6
Continuous
 62
     8
370
    18
100
AcDbSpline
210
0.0
220
0.0
230
1.0
 70
     8
 71
     3
 72
    30
 73
    26
 74
     0
 42
0.00000001
 43
0.00000001
 40
0.0
 40
0.0
 40
0.0
 40
0.0
 40
0.0312499999999997
 40
0.0312499999999997
 40
0.0624999999999994
 40
0.0624999999999994
 40
0.1249999999999991
 40
0.1249999999999991
 40
0.1874999999999988
 40
0.1874999999999988
 40
0.2499999999999984
 40
0.2499999999999984
 40
0.3749999999999974
 40
0.3749999999999974
 40
0.4374999999999968
 40
0.4374999999999968
 40
0.4999999999999963
 40
0.4999999999999963
 40
0.6249999999999971
 40
0.6249999999999971
 40
0.7499999999999981
 40
0.7499999999999981
 40
0.874999999999999
 40
0.874999999999999
 40
1.0
 40
1.0
 40
1.0
 40
1.0
 10
154.3732653061224
 20
623.2237614729825
 30
0.0
 10
154.2192385836103
 20
623.2237614722477
 30
0.0
 10
154.062071136447
 20
623.2229881045084
 30
0.0
 10
153.7522542478885
 20
623.2198399957895
 30
0.0
 10
153.5978103983003
 20
623.2174652829141
 30
0.0
 10
153.1359247964496
 20
623.2078492739906
 30
0.0
 10
152.8299268681879
 20
623.1981197661648
 30
0.0
 10
152.2221056522914
 20
623.1714663902793
 30
0.0
 10
151.9202815031106
 20
623.1545440069638
 30
0.0
 10
151.3212076262707
 20
623.1128159183339
 30
0.0
 10
151.0223083321066
 20
623.0878267098066
 30
0.0
 10
150.1496554927909
 20
623.0014768562452
 30
0.0
 10
149.5980068703155
 20
622.9288748392341
 30
0.0
 10
148.8175193652675
 20
622.7965173501032
 30
0.0
 10
148.563905469251
 20
622.7481899664657
 30
0.0
 10
148.0795261994525
 20
622.6447962833145
 30
0.0
 10
147.8498494209972
 20
622.590037174708
 30
0.0
 10
147.1964688643803
 20
622.4170352908634
 30
0.0
 10
146.8074405471585
 20
622.2898577736856
 30
0.0
 10
146.123368737701
 20
622.0143453406671
 30
0.0
 10
145.8369945022641
 20
621.8697281768552
 30
0.0
 10
145.3649342098174
 20
621.5680828616515
 30
0.0
 10
145.1786976315479
 20
621.4098188192736
 30
0.0
 10
144.9186522905412
 20
621.0900455104924
 30
0.0
 10
144.8425313577821
 20
620.9278588699194
 30
0.0
 10
144.8275577390044
 20
620.7630630745555
 30
0.0
  0
SPLINE
  5
E8
330
1F
100
AcDbEntity
  8
0
  6
Continuous
 62
     8
370
    18
100
AcDbSpline
210
0.0
220
0.0
230
1.0
 70
     8
 71
     3
 72
    30
 73
    26
 74
     0
 42
0.00000001
 43
0.00000001
 40
0.0
 40
0.0
 40
0.0
 40
0.0
 40
0.1249999999999992
 40
0.1249999999999992
 40
0.1874999999999989
 40
0.1874999999999989
 40
0.2499999999999986
 40
0.2499999999999986
 40
0.3749999999999977
 40
0.3749999999999977
 40
0.4999999999999969
 40
0.4999999999999969
 40
0.5624999999999969
 40
0.5624999999999969
 40
0.624999999999997
 40
0.624999999999997
 40
0.749999999999998
 40
0.749999999999998
 40
0.8124999999999984
 40
0.8124999999999984
 40
0.874999999999999
 40
0.874999999999999
 40
0.9374999999999994
 40
0.9374999999999994
 40
1.0
 40
1.0
 40
1.0
 40
1.0
 10
144.8336269682397
 20
617.2094063088674
 30
0.0
 10
144.8602607280365
 20
617.3733069383734
 30
0.0
 10
144.9454653036883
 20
617.531243829229
 30
0.0
 10
145.1522207870058
 20
617.76512926218
 30
0.0
 10
145.2349060061447
 20
617.8427789114207
 30
0.0
 10
145.425724150111
 20
617.9953786160369
 30
0.0
 10
145.5335725474188
 20
618.0701985702445
 30
0.0
 10
145.8944053415801
 20
618.289800964804
 30
0.0
 10
146.1847575950665
 20
618.4298804452002
 30
0.0
 10
146.8730060449567
 20
618.6958407781375
 30
0.0
 10
147.2615739951747
 20
618.818038134775
 30
0.0
 10
147.9138792296019
 20
618.9875583048264
 30
0.0
 10
148.1429568409515
 20
619.0417464971206
 30
0.0
 10
148.6256601024348
 20
619.1439424896164
 30
0.0
 10
148.8770713861591
 20
619.1914199023223
 30
0.0
 10
149.651419149022
 20
619.3207206861184
 30
0.0
 10
150.1981437369835
 20
619.3898172186143
 30
0.0
 10
151.0622988706861
 20
619.4734049307918
 30
0.0
 10
151.3577512942496
 20
619.4979756530757
 30
0.0
 10
151.9498171827589
 20
619.5391808106169
 30
0.0
 10
152.2480736809322
 20
619.5559891422746
 30
0.0
 10
152.8486496926244
 20
619.5823147392642
 30
0.0
 10
153.1509700071395
 20
619.5918322782452
 30
0.0
 10
153.759365132415
 20
619.604155743072
 30
0.0
 10
154.0672478703518
 20
619.6069602255436
 30
0.0
 10
154.3732653061224
 20
619.606840490151
 30
0.0
  0
SPLINE
  5
E9
330
1F
100
AcDbEntity
  8
0
  6
Continuous
 62
     8
370
    18
100
AcDbSpline
210
0.0
220
0.0
230
1.0
 70
     8
 71
     3
 72
    28
 73
    24
 74
     0
 42
0.00000001
 43
0.00000001
 40
0.0
 40
0.0
 40
0.0
 40
0.0
 40
0.1250000000000012
 40
0.1250000000000012
 40
0.1875000000000015
 40
0.1875000000000015
 40
0.2500000000000019
 40
0.2500000000000019
 40
0.3750000000000023
 40
0.3750000000000023
 40
0.437500000000002
 40
0.437500000000002
 40
0.5000000000000017
 40
0.5000000000000017
 40
0.6250000000000022
 40
0.6250000000000022
 40
0.7500000000000028
 40
0.7500000000000028
 40
0.812500000000001
 40
0.812500000000001
 40
0.8749999999999992
 40
0.8749999999999992
 40
1.0
 40
1.0
 40
1.0
 40
1.0
 10
154.3728610348152
 20
618.635499462474
 30
0.0
 10
153.7855168096927
 20
618.63576172517
 30
0.0
 10
153.2048068135269
 20
618.6245667520076
 30
0.0
 10
152.3453745502795
 20
618.5861790322502
 30
0.0
 10
152.0608412989911
 20
618.5698208627116
 30
0.0
 10
151.4960300060231
 20
618.529747808554
 30
0.0
 10
151.2141887088321
 20
618.5058669337873
 30
0.0
 10
150.3890666717889
 20
618.4247970426967
 30
0.0
 10
149.8671386029192
 20
618.3581509433959
 30
0.0
 10
149.1287001383145
 20
618.2323368170762
 30
0.0
 10
148.889184981878
 20
618.1860381220635
 30
0.0
 10
148.4290171274527
 20
618.0860805620134
 30
0.0
 10
148.2108542536513
 20
618.0330239668963
 30
0.0
 10
147.5900274835704
 20
617.8671870704362
 30
0.0
 10
147.2209053818453
 20
617.7477244253527
 30
0.0
 10
146.568724102062
 20
617.4872346831766
 30
0.0
 10
146.2942033518005
 20
617.3497028871175
 30
0.0
 10
145.9541901146944
 20
617.1346559786293
 30
0.0
 10
145.8527269572427
 20
617.0614586952506
 30
0.0
 10
145.6733342847006
 20
616.9125011681084
 30
0.0
 10
145.5955976606665
 20
616.8368025462039
 30
0.0
 10
145.4011013879432
 20
616.6094500222332
 30
0.0
 10
145.3207408851794
 20
616.4568012616726
 30
0.0
 10
145.2944997646926
 20
616.2998364263494
 30
0.0
  0
SPLINE
  5
EA
330
1F
100
AcDbEntity
  8
0
  6
Continuous
 62
     8
370
    18
100
AcDbSpline
210
0.0
220
0.0
230
1.0
 70
     8
 71
     3
 72
    26
 73
    22
 74
     0
 42
0.00000001
 43
0.00000001
 40
0.0
 40
0.0
 40
0.0
 40
0.0
 40
0.1250000000000003
 40
0.1250000000000003
 40
0.2500000000000006
 40
0.2500000000000006
 40
0.3750000000000009
 40
0.3750000000000009
 40
0.5000000000000012
 40
0.5000000000000012
 40
0.5625000000000008
 40
0.5625000000000008
 40
0.6250000000000004
 40
0.6250000000000004
 40
0.7500000000000002
 40
0.7500000000000002
 40
0.8125000000000002
 40
0.8125000000000002
 40
0.8750000000000001
 40
0.8750000000000001
 40
1.0
 40
1.0
 40
1.0
 40
1.0
 10
163.9189728732404
 20
620.763063074555
 30
0.0
 10
163.903999253603
 20
620.9278588793828
 30
0.0
 10
163.8278783131001
 20
621.0900455291263
 30
0.0
 10
163.5678329444998
 20
621.4098188557307
 30
0.0
 10
163.3815963463717
 20
621.5680829064017
 30
0.0
 10
162.9095360033827
 20
621.8697282360397
 30
0.0
 10
162.623161736821
 20
622.0143454063477
 30
0.0
 10
161.9390898492513
 20
622.289857850402
 30
0.0
 10
161.5500614945858
 20
622.4170353690749
 30
0.0
 10
160.8966808676263
 20
622.590037254822
 30
0.0
 10
160.667004064137
 20
622.6447963636743
 30
0.0
 10
160.182624740604
 20
622.7481900464205
 30
0.0
 10
159.929010822739
 20
622.7965174280874
 30
0.0
 10
159.1485232457722
 20
622.9288749112927
 30
0.0
 10
158.5968745723354
 20
623.001476922848
 30
0.0
 10
157.7242216516466
 20
623.0878267657641
 30
0.0
 10
157.4253223325441
 20
623.1128159695397
 30
0.0
 10
156.826248517469
 20
623.154544042483
 30
0.0
 10
156.5244244397542
 20
623.1714664164141
 30
0.0
 10
155.6126929459745
 20
623.2114464557982
 30
0.0
 10
154.9965520524142
 20
623.2237614729826
 30
0.0
 10
154.3732653061224
 20
623.2237614729825
 30
0.0
  0
SPLINE
  5
EB
330
1F
100
AcDbEntity
  8
0
  6
Continuous
 62
     8
370
    18
100
AcDbSpline
210
0.0
220
0.0
230
1.0
 70
     8
 71
     3
 72
    32
 73
    28
 74
     0
 42
0.00000001
 43
0.00000001
 40
0.0
 40
0.0
 40
0.0
 40
0.0
 40
0.0312500000000005
 40
0.0312500000000005
 40
0.0625000000000011
 40
0.0625000000000011
 40
0.1250000000000019
 40
0.1250000000000019
 40
0.1875000000000028
 40
0.1875000000000028
 40
0.2500000000000036
 40
0.2500000000000036
 40
0.3750000000000039
 40
0.3750000000000039
 40
0.4375000000000041
 40
0.4375000000000041
 40
0.5000000000000042
 40
0.5000000000000042
 40
0.6250000000000034
 40
0.6250000000000034
 40
0.7500000000000029
 40
0.7500000000000029
 40
0.8125000000000019
 40
0.8125000000000019
 40
0.8750000000000008
 40
0.8750000000000008
 40
1.0
 40
1.0
 40
1.0
 40
1.0
 10
154.3732653061224
 20
619.606840490151
 30
0.0
 10
154.52540451127
 20
619.6067804998332
 30
0.0
 10
154.6806513027624
 20
619.6059888929334
 30
0.0
 10
154.9866940091091
 20
619.6028408077203
 30
0.0
 10
155.1392622849382
 20
619.6004839093545
 30
0.0
 10
155.59555766278
 20
619.590929189114
 30
0.0
 10
155.8978773159233
 20
619.5812406644512
 30
0.0
 10
156.4984519680965
 20
619.5546661795017
 30
0.0
 10
156.7967077680165
 20
619.5377804220223
 30
0.0
 10
157.3887723675007
 20
619.4964639130893
 30
0.0
 10
157.684224264098
 20
619.4718595733895
 30
0.0
 10
158.5483777992441
 20
619.3880321671426
 30
0.0
 10
159.0951013292151
 20
619.318590410245
 30
0.0
 10
159.8694474379018
 20
619.189594472298
 30
0.0
 10
160.120857819975
 20
619.1423449892853
 30
0.0
 10
160.6035610855497
 20
619.040853601648
 30
0.0
 10
160.8326385860161
 20
618.9871385809221
 30
0.0
 10
161.4849443908418
 20
618.8191354154258
 30
0.0
 10
161.8735136528755
 20
618.6947218391349
 30
0.0
 10
162.5617640590418
 20
618.4236220843857
 30
0.0
 10
162.8521182470633
 20
618.2807596969833
 30
0.0
 10
163.212950487599
 20
618.0594366658705
 30
0.0
 10
163.320798489627
 20
617.984416360976
 30
0.0
 10
163.5116160756506
 20
617.8320263291025
 30
0.0
 10
163.594302561529
 20
617.7547878897778
 30
0.0
 10
163.8010593018836
 20
617.5229998858736
 30
0.0
 10
163.8862639371858
 20
617.367582660255
 30
0.0
 10
163.9129010661617
 20
617.20783273287
 30
0.0
  0
SPLINE
  5
EC
330
1F
100
AcDbEntity
  8
0
  6
Continuous
 62
     8
370
    18
100
AcDbSpline
210
0.0
220
0.0
230
1.0
 70
     8
 71
     3
 72
    28
 73
    24
 74
     0
 42
0.00000001
 43
0.00000001
 40
0.0
 40
0.0
 40
0.0
 40
0.0
 40
0.1250000000000029
 40
0.1250000000000029
 40
0.187500000000005
 40
0.187500000000005
 40
0.250000000000007
 40
0.250000000000007
 40
0.3750000000000072
 40
0.3750000000000072
 40
0.5000000000000073
 40
0.5000000000000073
 40
0.5625000000000063
 40
0.5625000000000063
 40
0.6250000000000053
 40
0.6250000000000053
 40
0.7500000000000034
 40
0.7500000000000034
 40
0.8125000000000027
 40
0.8125000000000027
 40
0.8750000000000018
 40
0.8750000000000018
 40
1.0
 40
1.0
 40
1.0
 40
1.0
 10
163.4522271640967
 20
616.296017004977
 30
0.0
 10
163.4261945919249
 20
616.4487271131649
 30
0.0
 10
163.3460132520981
 20
616.5988842553927
 30
0.0
 10
163.1516762254188
 20
616.8240812700167
 30
0.0
 10
163.0739821726912
 20
616.8993467594727
 30
0.0
 10
162.8946584559374
 20
617.0480976388467
 30
0.0
 10
162.7932324939235
 20
617.1215084745545
 30
0.0
 10
162.4534196415465
 20
617.3384329656978
 30
0.0
 10
162.1792885373641
 20
617.4789972592512
 30
0.0
 10
161.5276627423265
 20
617.7454613475239
 30
0.0
 10
161.1589200593033
 20
617.8676726080317
 30
0.0
 10
160.5378316130371
 20
618.0318979692069
 30
0.0
 10
160.3195745122129
 20
618.0844543267273
 30
0.0
 10
159.8592292054387
 20
618.1836952762386
 30
0.0
 10
159.6196039960161
 20
618.2297883273303
 30
0.0
 10
158.8808666468424
 20
618.3554222743965
 30
0.0
 10
158.3587491478677
 20
618.4225865307046
 30
0.0
 10
157.5332527239167
 20
618.5040258844194
 30
0.0
 10
157.2512583486881
 20
618.5279723342799
 30
0.0
 10
156.6861442793364
 20
618.5682141770768
 30
0.0
 10
156.4014570283584
 20
618.5846758539493
 30
0.0
 10
155.5415578131308
 20
618.6235177832162
 30
0.0
 10
154.9605303035597
 20
618.6352370546385
 30
0.0
 10
154.3728610348152
 20
618.635499462474
 30
0.0
  0
LWPOLYLINE
  5
ED
330
1F
100
AcDbEntity
  8
0
  6
Continuous
 62
     8
370
    18
100
AcDbPolyline
 90
        5
 70
   128
 43
0.0
 10
145.2924548198
 20
616.1984965015
 10
145.2924463675
 20
616.1980791022
 10
145.2924421425
 20
616.1978704704
 10
145.2924379183
 20
616.1976618838
 10
145.2924375637
 20
616.197645769
  0
SPLINE
  5
EE
330
1F
100
AcDbEntity
  8
0
  6
Continuous
 62
     8
370
    18
100
AcDbSpline
210
0.0
220
0.0
230
1.0
 70
     8
 71
     3
 72
    11
 73
     7
 74
     0
 42
0.00000001
 43
0.00000001
 40
0.0
 40
0.0
 40
0.0
 40
0.0
 40
0.0001617110882319
 40
0.0001617110882319
 40
0.0001617110882319
 40
0.0003586156020098
 40
0.0003586156020098
 40
0.0003586156020098
 40
0.0003586156020098
 10
145.2944997646926
 20
616.2998364263494
 30
0.0
 10
145.2941778434166
 20
616.2838834461219
 30
0.0
 10
145.2938628689058
 20
616.2682538445305
 30
0.0
 10
145.2935543416752
 20
616.2529498892455
 30
0.0
 10
145.2931786728194
 20
616.2343154907219
 30
0.0
 10
145.2928125508975
 20
616.2161628877083
 30
0.0
 10
145.2924548197819
 20
616.1984965014985
 30
0.0
  0
SPLINE
  5
EF
330
1F
100
AcDbEntity
  8
0
  6
Continuous
 62
     8
370
    18
100
AcDbSpline
210
0.0
220
0.0
230
1.0
 70
     8
 71
     3
 72
    11
 73
     7
 74
     0
 42
0.00000001
 43
0.00000001
 40
0.0
 40
0.0
 40
0.0
 40
0.0
 40
0.0001814186732651
 40
0.0001814186732651
 40
0.0001814186732651
 40
0.0003512745242343
 40
0.0003512745242343
 40
0.0003512745242343
 40
0.0003512745242343
 10
163.4540765067004
 20
616.1984595670104
 30
0.0
 10
163.4537468528485
 20
616.2147282646104
 30
0.0
 10
163.4534415674458
 20
616.2312010592096
 30
0.0
 10
163.4531324498537
 20
616.2479830060005
 30
0.0
 10
163.4528430352171
 20
616.2636952823494
 30
0.0
 10
163.4525502022781
 20
616.2796789765389
 30
0.0
 10
163.4522271640967
 20
616.296017004977
 30
0.0
  0
LINE
  5
F0
330
1F
100
AcDbEntity
  8
0
  6
Continuous
 62
     8
370
    18
100
AcDbLine
 10
163.4540930207
 20
616.197645748
 30
0.0
 11
163.4540765067
 21
616.198459567
 31
0.0
  0
LWPOLYLINE
  5
F1
330
1F
100
AcDbEntity
  8
0
  6
Continuous
 62
     8
370
    18
100
AcDbPolyline
 90
        5
 70
   128
 43
0.0
 10
144.9588249275
 20
599.9660264782
 10
144.9587629854
 20
599.9629976261
 10
144.9587009489
 20
599.9599688501
 10
144.958638724
 20
599.9569402259
 10
144.9585762169
 20
599.9539118289
  0
LWPOLYLINE
  5
F2
330
1F
100
AcDbEntity
  8
0
  6
Continuous
 62
     8
370
    18
100
AcDbPolyline
 90
        5
 70
   128
 43
0.0
 10
145.2924375637
 20
616.197645769
 10
145.2791026759
 20
615.5522624393
 10
145.2258239977
 20
612.970748867
 10
145.0136429432
 20
602.6449819757
 10
144.9588249275
 20
599.9660264782
  0
LWPOLYLINE
  5
F3
330
1F
100
AcDbEntity
  8
0
  6
Continuous
 62
     8
370
    18
100
AcDbPolyline
 90
        6
 70
   128
 43
0.0
 10
163.7877056847
 20
599.9660264782
 10
163.7745087739
 20
600.6113684146
 10
163.7216676045
 20
603.1927508802
 10
163.5094090024
 20
613.5185409936
 10
163.4772482494
 20
615.0767894263
 10
163.4540930207
 20
616.197645748
  0
LWPOLYLINE
  5
F4
330
1F
100
AcDbEntity
  8
0
  6
Continuous
 62
     8
370
    18
100
AcDbPolyline
 90
        5
 70
   128
 43
0.0
 10
163.7879543974
 20
599.9539117293
 10
163.7878918898
 20
599.9569401512
 10
163.7878296643
 20
599.9599688003
 10
163.7877676273
 20
599.9629976012
 10
163.7877056847
 20
599.9660264782
  0
SPLINE
  5
F5
330
1F
100
AcDbEntity
  8
0
  6
Continuous
 62
     8
370
    18
100
AcDbSpline
210
0.0
220
0.0
230
1.0
 70
     8
 71
     3
 72
    11
 73
     7
 74
     0
 42
0.00000001
 43
0.00000001
 40
0.0000000000000001
 40
0.0000000000000001
 40
0.0000000000000001
 40
0.0000000000000001
 40
0.0001821937262777
 40
0.0001821937262777
 40
0.0001821937262777
 40
0.0003554954508276
 40
0.0003554954508276
 40
0.0003554954508276
 40
0.0003554954508276
 10
144.8318435351576
 20
617.1076812493285
 30
0.0
 10
144.832149758825
 20
617.1240466400665
 30
0.0
 10
144.8324553240487
 20
617.140868267924
 30
0.0
 10
144.8327601756621
 20
617.1581427718775
 30
0.0
 10
144.8330501497714
 20
617.1745742377981
 30
0.0
 10
144.8333394945441
 20
617.1914163840509
 30
0.0
 10
144.8336281623692
 20
617.2086664328957
 30
0.0
  0
ARC
  5
F6
330
1F
100
AcDbEntity
  8
0
  6
Continuous
 62
     8
370
    18
100
AcDbCircle
 10
145.974689871
 20
617.1154003496
 30
0.0
 40
1.142872403997834
100
AcDbArc
 50
180.3869856604
 51
233.3483959952
  0
SPLINE
  5
F7
330
1F
100
AcDbEntity
  8
0
  6
Continuous
 62
     8
370
    18
100
AcDbSpline
210
0.0
220
0.0
230
1.0
 70
     8
 71
     3
 72
    11
 73
     7
 74
     0
 42
0.00000001
 43
0.00000001
 40
0.0000000141196916
 40
0.0000000141196916
 40
0.0000000141196916
 40
0.0000000141196916
 40
0.0001822000519825
 40
0.0001822000519825
 40
0.0001822000519825
 40
0.0003555289562028
 40
0.0003555289562028
 40
0.0003555289562028
 40
0.0003555289562028
 10
163.9128993582657
 20
617.2067428879752
 30
0.0
 10
163.9132035593696
 20
617.1890639595232
 30
0.0
 10
163.9135085418545
 20
617.1718722764925
 30
0.0
 10
163.913814019926
 20
617.155015630939
 30
0.0
 10
163.9141046502859
 20
617.1389782998722
 30
0.0
 10
163.9143957377657
 20
617.123242293169
 30
0.0
 10
163.9146870767947
 20
617.10768104517
 30
0.0
  0
ARC
  5
F8
330
1F
100
AcDbEntity
  8
0
  6
Continuous
 62
     8
370
    18
100
AcDbCircle
 10
162.7717807751
 20
617.1153929465
 30
0.0
 40
1.142932319867066
100
AcDbArc
 50
306.6531607556
 51
359.6133955219
  0
LINE
  5
F9
330
1F
100
AcDbEntity
  8
0
  6
Continuous
 62
     8
370
    18
100
AcDbLine
 10
163.9198547341
 20
620.7153291339
 30
0.0
 11
163.9189714223
 21
620.7614798477
 31
0.0
  0
LINE
  5
FA
330
1F
100
AcDbEntity
  8
0
  6
Continuous
 62
     8
370
    18
100
AcDbLine
 10
163.9146870768
 20
617.1076810452
 30
0.0
 11
163.9198547341
 21
620.7153291339
 31
0.0
  0
LINE
  5
FB
330
1F
100
AcDbEntity
  8
0
  6
Continuous
 62
     8
370
    18
100
AcDbLine
 10
144.82755919
 20
620.7614798477
 30
0.0
 11
144.8266758781
 21
620.7153291339
 31
0.0
  0
LINE
  5
FC
330
1F
100
AcDbEntity
  8
0
  6
Continuous
 62
     8
370
    18
100
AcDbLine
 10
144.8266758781
 20
620.7153291339
 30
0.0
 11
144.8318435352
 21
617.1076812493
 31
0.0
  0
LINE
  5
FD
330
1F
100
AcDbEntity
  8
0
  6
Continuous
 62
     8
370
    18
100
AcDbLine
 10
144.8318284479
 20
617.1068753462
 30
0.0
 11
144.8318435352
 21
617.1076812493
 31
0.0
  0
ARC
  5
FE
330
1F
100
AcDbEntity
  8
0
  6
Continuous
 62
     8
370
    18
100
AcDbCircle
 10
145.9747494688
 20
617.1145854452
 30
0.0
 40
1.142947026556542
100
AcDbArc
 50
180.3865091487
 51
233.3463772193
  0
LINE
  5
FF
330
1F
100
AcDbEntity
  8
0
  6
Continuous
 62
     8
370
    18
100
AcDbLine
 10
163.9146870768
 20
617.1076810452
 30
0.0
 11
163.9147021643
 21
617.1068753462
 31
0.0
  0
ARC
  5
100
330
1F
100
AcDbEntity
  8
0
  6
Continuous
 62
     8
370
    18
100
AcDbCircle
 10
162.7717811316
 20
617.1145854509
 30
0.0
 40
1.142947038498475
100
AcDbArc
 50
306.6536213401
 51
359.6134905677
  0
LWPOLYLINE
  5
101
330
1F
100
AcDbEntity
  8
0
  6
Continuous
 62
     8
370
    18
100
AcDbPolyline
 90
        5
 70
   128
 43
0.0
 10
163.9147021643
 20
617.1068753462
 10
163.9907976364
 20
613.0430458618
 10
164.066893341
 20
608.979375165
 10
164.1429892693
 20
604.9158571982
 10
164.2190854126
 20
600.8524861844
  0
LWPOLYLINE
  5
102
330
1F
100
AcDbEntity
  8
0
  6
Continuous
 62
     8
370
    18
100
AcDbPolyline
 90
        5
 70
   128
 43
0.0
 10
144.5274451996
 20
600.8524861844
 10
144.6035413429
 20
604.915857196
 10
144.6796372711
 20
608.9793751614
 10
144.7557329758
 20
613.0430458595
 10
144.8318284479
 20
617.1068753462
  0
LINE
  5
103
330
1F
100
AcDbEntity
  8
0
  6
Continuous
 62
     8
370
    18
100
AcDbLine
 10
164.2190854126
 20
600.8524861844
 30
0.0
 11
164.2190854126
 21
605.0813158197
 31
0.0
  0
LINE
  5
104
330
1F
100
AcDbEntity
  8
0
  6
Continuous
 62
     8
370
    18
100
AcDbLine
 10
144.5274451996
 20
605.0813158197
 30
0.0
 11
144.5274451996
 21
600.8524861844
 31
0.0
  0
SPLINE
  5
105
330
1F
100
AcDbEntity
  8
0
  6
Continuous
 62
     8
370
    18
100
AcDbSpline
210
0.0
220
0.0
230
1.0
 70
     8
 71
     3
 72
    30
 73
    26
 74
     0
 42
0.00000001
 43
0.00000001
 40
0.0
 40
0.0
 40
0.0
 40
0.0
 40
0.0227543682165217
 40
0.0452309025433259
 40
0.0674379645389452
 40
0.0893842237823886
 40
0.1110786625328024
 40
0.1325305793855801
 40
0.1537495917824843
 40
0.1747456372302496
 40
0.195528973081633
 40
0.216110174735413
 40
0.236500132117875
 40
0.3578934373440739
 40
0.480156344990473
 40
0.5420962266512364
 40
0.6064629231240456
 40
0.6714839248912069
 40
0.7374085032353506
 40
0.7705258157515885
 40
0.8036436423089971
 40
0.8368091592851034
 40
0.8696337529907556
 40
0.9356446913682013
 40
1.0
 40
1.0
 40
1.0
 40
1.0
 10
154.3732653061224
 20
588.5042014361535
 30
0.0
 10
154.2441031738337
 20
588.5048899884715
 30
0.0
 10
153.9873559962259
 20
588.5062586857916
 30
0.0
 10
153.6047733069764
 20
588.51748593174
 30
0.0
 10
153.2272186204189
 20
588.5354586054211
 30
0.0
 10
152.8547637048731
 20
588.5608126349564
 30
0.0
 10
152.4874745282075
 20
588.5933810157528
 30
0.0
 10
152.1254111207788
 20
588.6332081160053
 30
0.0
 10
151.7686282867372
 20
588.6802825452264
 30
0.0
 10
151.4171740554783
 20
588.7346080363532
 30
0.0
 10
151.071096206695
 20
588.7961827697658
 30
0.0
 10
150.7304191747357
 20
588.8650121674335
 30
0.0
 10
149.840882099933
 20
589.0668796057224
 30
0.0
 10
148.4302218876374
 20
589.516430164912
 30
0.0
 10
146.9153166723625
 20
590.268718735207
 30
0.0
 10
145.7720111885327
 20
591.0055704689064
 30
0.0
 10
144.9374275192357
 20
591.6295671404637
 30
0.0
 10
144.1309681114961
 20
592.315920055397
 30
0.0
 10
143.4862342832583
 20
592.9230076137973
 30
0.0
 10
142.9798161488004
 20
593.4208319202685
 30
0.0
 10
142.601665999345
 20
593.7949503282567
 30
0.0
 10
142.2248120914465
 20
594.1642605088301
 30
0.0
 10
141.7238490174481
 20
594.6515143269785
 30
0.0
 10
141.1059685010778
 20
595.2460299888451
 30
0.0
 10
140.6156504296718
 20
595.7077327249558
 30
0.0
 10
140.3736048731187
 20
595.9356523188707
 30
0.0
  0
SPLINE
  5
106
330
1F
100
AcDbEntity
  8
0
  6
Continuous
 62
     8
370
    18
100
AcDbSpline
210
0.0
220
0.0
230
1.0
 70
     8
 71
     3
 72
    24
 73
    20
 74
     0
 42
0.00000001
 43
0.00000001
 40
0.0
 40
0.0
 40
0.0
 40
0.0
 40
0.125000000000002
 40
0.125000000000002
 40
0.2500000000000039
 40
0.2500000000000039
 40
0.3750000000000059
 40
0.3750000000000059
 40
0.4375000000000066
 40
0.4375000000000066
 40
0.5000000000000072
 40
0.5000000000000072
 40
0.6250000000000054
 40
0.6250000000000054
 40
0.7500000000000036
 40
0.7500000000000036
 40
0.8750000000000018
 40
0.8750000000000018
 40
1.0
 40
1.0
 40
1.0
 40
1.0
 10
144.9584906261875
 20
599.9540225710299
 30
0.0
 10
144.9561561090229
 20
599.8375340879691
 30
0.0
 10
144.9480948244102
 20
599.7234556272497
 30
0.0
 10
144.8855759510393
 20
599.4871382342659
 30
0.0
 10
144.8315876754777
 20
599.3649161120378
 30
0.0
 10
144.6589236104284
 20
599.1026327808813
 30
0.0
 10
144.5387039943944
 20
598.9642113314594
 30
0.0
 10
144.3017497711197
 20
598.7483166617307
 30
0.0
 10
144.2128051963698
 20
598.6744660174015
 30
0.0
 10
144.0187331103344
 20
598.5253275753417
 30
0.0
 10
143.9134420265162
 20
598.4498701758
 30
0.0
 10
143.5755865371527
 20
598.2187971827688
 30
0.0
 10
143.321574270315
 20
598.0576698641868
 30
0.0
 10
142.7765070886671
 20
597.7077091411795
 30
0.0
 10
142.485022232234
 20
597.5189484845425
 30
0.0
 10
141.8900226770371
 20
597.1177951991328
 30
0.0
 10
141.5841757001845
 20
596.9046229888575
 30
0.0
 10
140.9708660927743
 20
596.446653744344
 30
0.0
 10
140.6621258606303
 20
596.2008515880464
 30
0.0
 10
140.3736048731253
 20
595.9356523188954
 30
0.0
  0
SPLINE
  5
107
330
1F
100
AcDbEntity
  8
0
  6
Continuous
 62
     8
370
    18
100
AcDbSpline
210
0.0
220
0.0
230
1.0
 70
     8
 71
     3
 72
    30
 73
    26
 74
     0
 42
0.00000001
 43
0.00000001
 40
0.0
 40
0.0
 40
0.0
 40
0.0
 40
0.0312500000000004
 40
0.0312500000000004
 40
0.0625000000000007
 40
0.0625000000000007
 40
0.1250000000000015
 40
0.1250000000000015
 40
0.2500000000000024
 40
0.2500000000000024
 40
0.3750000000000034
 40
0.3750000000000034
 40
0.5000000000000044
 40
0.5000000000000044
 40
0.5625000000000036
 40
0.5625000000000036
 40
0.6250000000000026
 40
0.6250000000000026
 40
0.7500000000000024
 40
0.7500000000000024
 40
0.8750000000000024
 40
0.8750000000000024
 40
0.9375000000000012
 40
0.9375000000000012
 40
1.0
 40
1.0
 40
1.0
 40
1.0
 10
168.3725843220329
 20
595.9358322084429
 30
0.0
 10
168.2988856436063
 20
596.001436386373
 30
0.0
 10
168.2256763692633
 20
596.0681865076244
 30
0.0
 10
168.0761252736555
 20
596.196618795145
 30
0.0
 10
168.0005802070814
 20
596.2595509465535
 30
0.0
 10
167.7725672547219
 20
596.4447533911164
 30
0.0
 10
167.6187542440342
 20
596.5634741398931
 30
0.0
 10
167.1570219685611
 20
596.9080573790536
 30
0.0
 10
166.8500684923955
 20
597.1218733293471
 30
0.0
 10
166.2531292588937
 20
597.5241380175638
 30
0.0
 10
165.9608140998228
 20
597.7133517572308
 30
0.0
 10
165.414706756229
 20
598.0640028093596
 30
0.0
 10
165.1604014431943
 20
598.2254206036354
 30
0.0
 10
164.822693477093
 20
598.4570713685683
 30
0.0
 10
164.7175440903389
 20
598.5327410399389
 30
0.0
 10
164.5239166499795
 20
598.6823133578498
 30
0.0
 10
164.4353123747974
 20
598.7563940873032
 30
0.0
 10
164.2012083639499
 20
598.9712441443456
 30
0.0
 10
164.0847243148594
 20
599.1065756974976
 30
0.0
 10
163.9152871486303
 20
599.3648167859706
 30
0.0
 10
163.8612417217607
 20
599.4863786413683
 30
0.0
 10
163.8142052849054
 20
599.6636883342636
 30
0.0
 10
163.804129502901
 20
599.7219941935899
 30
0.0
 10
163.7916436915165
 20
599.8378685968747
 30
0.0
 10
163.7892188420106
 20
599.8952093659925
 30
0.0
 10
163.7880401070553
 20
599.9540224721804
 30
0.0
  0
SPLINE
  5
108
330
1F
100
AcDbEntity
  8
0
  6
Continuous
 62
     8
370
    18
100
AcDbSpline
210
0.0
220
0.0
230
1.0
 70
     8
 71
     3
 72
    27
 73
    23
 74
     0
 42
0.00000001
 43
0.00000001
 40
0.0
 40
0.0
 40
0.0
 40
0.0
 40
0.0321529045716328
 40
0.0646830233899313
 40
0.097593034576086
 40
0.1308855245728704
 40
0.1636463881052578
 40
0.1968117887560476
 40
0.2298922350513682
 40
0.262972757873303
 40
0.3286945902322937
 40
0.3933724735441754
 40
0.4577138910134602
 40
0.5196187256890649
 40
0.6418623361323154
 40
0.7632408764675587
 40
0.8008060866855226
 40
0.8390461897237238
 40
0.8780261249034208
 40
0.917807208198431
 40
0.9584471291487349
 40
1.0
 40
1.0
 40
1.0
 40
1.0
 10
168.372925739126
 20
595.9356523188707
 30
0.0
 10
168.2521047659673
 20
595.8221789765416
 30
0.0
 10
168.0090453616322
 20
595.5939010354415
 30
0.0
 10
167.6409938241499
 20
595.2444163452165
 30
0.0
 10
167.2678032030162
 20
594.8872628585456
 30
0.0
 10
166.8928909792958
 20
594.5254219949923
 30
0.0
 10
166.5163307209077
 20
594.1590192691423
 30
0.0
 10
166.1398815427728
 20
593.79004503392
 30
0.0
 10
165.7620063933781
 20
593.4161670510316
 30
0.0
 10
165.2565744429082
 20
592.9194361065221
 30
0.0
 10
164.6140093910499
 20
592.3146230348364
 30
0.0
 10
163.8099265886201
 20
591.6302808052861
 30
0.0
 10
162.9772223990207
 20
591.0074836796811
 30
0.0
 10
161.8345192706771
 20
590.2705877590017
 30
0.0
 10
160.3201821971537
 20
589.5180397717371
 30
0.0
 10
158.8183170479139
 20
589.0388834945322
 30
0.0
 10
157.7346497138397
 20
588.8042700760578
 30
0.0
 10
157.0965676598328
 20
588.6945579309246
 30
0.0
 10
156.4405224764252
 20
588.6092005870854
 30
0.0
 10
155.7667822300696
 20
588.5487188244103
 30
0.0
 10
155.0757270564445
 20
588.5110311486346
 30
0.0
 10
154.6091467242128
 20
588.5064948026811
 30
0.0
 10
154.3732653061224
 20
588.5042014361534
 30
0.0
  0
SPLINE
  5
109
330
1F
100
AcDbEntity
  8
0
  6
Continuous
 62
     8
370
    18
100
AcDbSpline
210
0.0
220
0.0
230
1.0
 70
     8
 71
     3
 72
    11
 73
     7
 74
     0
 42
0.00000001
 43
0.00000001
 40
0.0
 40
0.0
 40
0.0
 40
0.0
 40
0.0000001009166611
 40
0.0000001009166611
 40
0.0000001009166611
 40
0.0000450792145548
 40
0.0000450792145548
 40
0.0000450792145548
 40
0.0000450792145548
 10
144.5272169241644
 20
600.8403277689093
 30
0.0
 10
144.5272170959608
 20
600.8403368563469
 30
0.0
 10
144.5272172677523
 20
600.8403459437535
 30
0.0
 10
144.5272174395389
 20
600.8403550311284
 30
0.0
 10
144.5272940043879
 20
600.8444052504939
 30
0.0
 10
144.5273695972626
 20
600.8484492575266
 30
0.0
 10
144.5274451996137
 20
600.8524861843799
 30
0.0
  0
SPLINE
  5
10A
330
1F
100
AcDbEntity
  8
0
  6
Continuous
 62
     8
370
    18
100
AcDbSpline
210
0.0
220
0.0
230
1.0
 70
     8
 71
     3
 72
     8
 73
     4
 74
     0
 42
0.00000001
 43
0.00000001
 40
0.0
 40
0.0
 40
0.0
 40
0.0
 40
0.0000450790496444
 40
0.0000450790496444
 40
0.0000450790496444
 40
0.0000450790496444
 10
164.219085412631
 20
600.8524861843799
 30
0.0
 10
164.2191611843398
 20
600.8484402143636
 30
0.0
 10
164.2192369465336
 20
600.8443871324088
 30
0.0
 10
164.2193136872618
 20
600.840327812213
 30
0.0
  0
SPLINE
  5
10B
330
1F
100
AcDbEntity
  8
0
  6
Continuous
 62
     8
370
    18
100
AcDbSpline
210
0.0
220
0.0
230
1.0
 70
     8
 71
     3
 72
    24
 73
    20
 74
     0
 42
0.00000001
 43
0.00000001
 40
0.0
 40
0.0
 40
0.0
 40
0.0
 40
0.1250000000000004
 40
0.1250000000000004
 40
0.2500000000000008
 40
0.2500000000000008
 40
0.3750000000000012
 40
0.3750000000000012
 40
0.5000000000000016
 40
0.5000000000000016
 40
0.5625000000000014
 40
0.5625000000000014
 40
0.6250000000000012
 40
0.6250000000000012
 40
0.7500000000000009
 40
0.7500000000000009
 40
0.8750000000000004
 40
0.8750000000000004
 40
1.0
 40
1.0
 40
1.0
 40
1.0
 10
140.3736048731124
 20
595.9356523188694
 30
0.0
 10
140.6642344179934
 20
596.2047740736984
 30
0.0
 10
140.957464661463
 20
596.4739455517318
 30
0.0
 10
141.5344577566401
 20
596.9998753549304
 30
0.0
 10
141.8186723301851
 20
597.2556229087589
 30
0.0
 10
142.3673101909522
 20
597.7509864490611
 30
0.0
 10
142.6333918736705
 20
597.9922672672911
 30
0.0
 10
143.1245197717037
 20
598.4555041488472
 30
0.0
 10
143.3496454313611
 20
598.6779422862323
 30
0.0
 10
143.6452194184938
 20
598.9990448148085
 30
0.0
 10
143.7367342901138
 20
599.1039028918564
 30
0.0
 10
143.9048652150433
 20
599.3084839321317
 30
0.0
 10
143.9816483586868
 20
599.4085559495346
 30
0.0
 10
144.1842960290938
 20
599.6938483751015
 30
0.0
 10
144.2846339714937
 20
599.8666447367958
 30
0.0
 10
144.4289397343129
 20
600.1844535134179
 30
0.0
 10
144.472622377721
 20
600.3295141335453
 30
0.0
 10
144.5209293528795
 20
600.5989209040018
 30
0.0
 10
144.5249917122524
 20
600.7227023212982
 30
0.0
 10
144.5272168183377
 20
600.840398875459
 30
0.0
  0
SPLINE
  5
10C
330
1F
100
AcDbEntity
  8
0
  6
Continuous
 62
     8
370
    18
100
AcDbSpline
210
0.0
220
0.0
230
1.0
 70
     8
 71
     3
 72
    24
 73
    20
 74
     0
 42
0.00000001
 43
0.00000001
 40
0.0
 40
0.0
 40
0.0
 40
0.0
 40
0.1250000000000004
 40
0.1250000000000004
 40
0.2500000000000007
 40
0.2500000000000007
 40
0.3750000000000011
 40
0.3750000000000011
 40
0.4374999999999992
 40
0.4374999999999992
 40
0.4999999999999972
 40
0.4999999999999972
 40
0.6249999999999979
 40
0.6249999999999979
 40
0.7499999999999986
 40
0.7499999999999986
 40
0.8749999999999993
 40
0.8749999999999993
 40
1.0
 40
1.0
 40
1.0
 40
1.0
 10
164.219313792758
 20
600.840398696756
 30
0.0
 10
164.2215357612567
 20
600.7228681247441
 30
0.0
 10
164.2255309799392
 20
600.5997896487055
 30
0.0
 10
164.2736191426548
 20
600.3306529986243
 30
0.0
 10
164.3171748887874
 20
600.185022197405
 30
0.0
 10
164.4638714083478
 20
599.862645941297
 30
0.0
 10
164.56738808616
 20
599.6855736619293
 30
0.0
 10
164.772348804779
 20
599.3985622343051
 30
0.0
 10
164.8493533740404
 20
599.2987071418156
 30
0.0
 10
165.0178117824044
 20
599.0945048502449
 30
0.0
 10
165.1094277690277
 20
598.9898590225148
 30
0.0
 10
165.4051006826036
 20
598.6694684590038
 30
0.0
 10
165.6299950527539
 20
598.4475628408694
 30
0.0
 10
166.1201985038259
 20
597.9854654795919
 30
0.0
 10
166.3855228342739
 20
597.7448672878887
 30
0.0
 10
166.9328376921562
 20
597.2506385517436
 30
0.0
 10
167.2165498997987
 20
596.9952869364994
 30
0.0
 10
167.7918242074976
 20
596.4708823993317
 30
0.0
 10
168.0842846799351
 20
596.2013152050793
 30
0.0
 10
168.3725843220292
 20
595.9358322085525
 30
0.0
  0
SPLINE
  5
10D
330
1F
100
AcDbEntity
  8
0
  6
Continuous
 62
     8
370
    18
100
AcDbSpline
210
0.0
220
0.0
230
1.0
 70
     8
 71
     3
 72
    28
 73
    24
 74
     0
 42
0.00000001
 43
0.00000001
 40
0.0
 40
0.0
 40
0.0
 40
0.0
 40
0.0624999999999994
 40
0.0624999999999994
 40
0.1249999999999988
 40
0.1249999999999988
 40
0.2499999999999991
 40
0.2499999999999991
 40
0.3124999999999996
 40
0.3124999999999996
 40
0.3750000000000001
 40
0.3750000000000001
 40
0.5000000000000007
 40
0.5000000000000007
 40
0.562500000000001
 40
0.562500000000001
 40
0.6250000000000012
 40
0.6250000000000012
 40
0.7500000000000008
 40
0.7500000000000008
 40
0.8750000000000004
 40
0.8750000000000004
 40
1.0
 40
1.0
 40
1.0
 40
1.0
 10
168.3729257391259
 20
602.7445686088629
 30
0.0
 10
168.2094667743392
 20
602.7718237720119
 30
0.0
 10
168.0429467979206
 20
602.8008171479775
 30
0.0
 10
167.7158222071954
 20
602.8614567549016
 30
0.0
 10
167.5541194699798
 20
602.8932509363531
 30
0.0
 10
167.0785530338823
 20
602.9931496635005
 30
0.0
 10
166.7741753638659
 20
603.0656581477367
 30
0.0
 10
166.3436381544459
 20
603.1852592701329
 30
0.0
 10
166.20442806215
 20
603.2269585390112
 30
0.0
 10
165.9359022619244
 20
603.3146770038999
 30
0.0
 10
165.8059564674873
 20
603.3609587429895
 30
0.0
 10
165.4387162659807
 20
603.5054254495865
 30
0.0
 10
165.2249958977281
 20
603.6092248320564
 30
0.0
 10
164.9550848296353
 20
603.7742476652917
 30
0.0
 10
164.8734266564334
 20
603.8306722004733
 30
0.0
 10
164.7261903862137
 20
603.9457304199453
 30
0.0
 10
164.6605334184333
 20
604.0045204564263
 30
0.0
 10
164.4893872137884
 20
604.1799030861034
 30
0.0
 10
164.4079513733732
 20
604.2966190201873
 30
0.0
 10
164.2930179654013
 20
604.5278699819926
 30
0.0
 10
164.2598187921232
 20
604.6425107986196
 30
0.0
 10
164.2236774993965
 20
604.8671464131304
 30
0.0
 10
164.2210867011092
 20
604.9767537779156
 30
0.0
 10
164.219085412631
 20
605.0813158197249
 30
0.0
  0
LINE
  5
10E
330
1F
100
AcDbEntity
  8
0
  6
Continuous
 62
     8
370
    18
100
AcDbLine
 10
168.3729257391
 20
602.7445686089
 30
0.0
 11
168.3729257391
 21
595.9356523189
 31
0.0
  0
SPLINE
  5
10F
330
1F
100
AcDbEntity
  8
0
  6
Continuous
 62
     8
370
    18
100
AcDbSpline
210
0.0
220
0.0
230
1.0
 70
     8
 71
     3
 72
    26
 73
    22
 74
     0
 42
0.00000001
 43
0.00000001
 40
0.0
 40
0.0
 40
0.0
 40
0.0
 40
0.1250000000000002
 40
0.1250000000000002
 40
0.2500000000000004
 40
0.2500000000000004
 40
0.3750000000000006
 40
0.3750000000000006
 40
0.5000000000000008
 40
0.5000000000000008
 40
0.625000000000001
 40
0.625000000000001
 40
0.7500000000000011
 40
0.7500000000000011
 40
0.8750000000000013
 40
0.8750000000000013
 40
0.9375000000000011
 40
0.9375000000000011
 40
0.9687500000000007
 40
0.9687500000000007
 40
1.0
 40
1.0
 40
1.0
 40
1.0
 10
144.5274451996137
 20
605.0813158197244
 30
0.0
 10
144.525454135423
 20
604.9772879699486
 30
0.0
 10
144.5228753991098
 20
604.8684500217274
 30
0.0
 10
144.4873896431196
 20
604.645581368625
 30
0.0
 10
144.4548194668212
 20
604.5316042654661
 30
0.0
 10
144.3412232359803
 20
604.3008715686099
 30
0.0
 10
144.2605109222837
 20
604.1840166586136
 30
0.0
 10
144.0322137836311
 20
603.9487619761417
 30
0.0
 10
143.8870770956871
 20
603.833368573787
 30
0.0
 10
143.5291791933757
 20
603.6132701963153
 30
0.0
 10
143.3146533861228
 20
603.508471772809
 30
0.0
 10
142.8247373091367
 20
603.3150439482358
 30
0.0
 10
142.5559138246113
 20
603.2280451245339
 30
0.0
 10
141.9820925090178
 20
603.0680949762913
 30
0.0
 10
141.6767447151933
 20
602.9951162324974
 30
0.0
 10
141.1981437794039
 20
602.8943946469727
 30
0.0
 10
141.0350253242532
 20
602.8622805218384
 30
0.0
 10
140.787922326739
 20
602.8164396796669
 30
0.0
 10
140.7051614682676
 20
602.8015470775547
 30
0.0
 10
140.5393861977656
 20
602.7725107661093
 30
0.0
 10
140.4553611985115
 20
602.7582006662357
 30
0.0
 10
140.3736048731189
 20
602.7445686088629
 30
0.0
  0
LINE
  5
110
330
1F
100
AcDbEntity
  8
0
  6
Continuous
 62
     8
370
    18
100
AcDbLine
 10
140.3736048731
 20
595.9356523189
 30
0.0
 11
140.3736048731
 21
602.7445686089
 31
0.0
  0
LWPOLYLINE
  5
111
330
1F
100
AcDbEntity
  8
0
  6
Continuous
 62
     8
370
    18
100
AcDbPolyline
 90
        8
 70
   128
 43
0.0
 10
140.3736048731
 20
602.7445686089
 10
140.3570193362
 20
603.003892069
 10
140.3724413111
 20
603.2506910055
 10
140.419125964
 20
603.4730457909
 10
140.49481857
 20
603.6602173746
 10
140.5958634097
 20
603.8031659462
 10
140.7173803289
 20
603.8949875305
 10
140.8140683209
 20
603.9268103388
  0
LWPOLYLINE
  5
112
330
1F
100
AcDbEntity
  8
0
  6
Continuous
 62
     8
370
    18
100
AcDbPolyline
 90
        8
 70
   128
 43
0.0
 10
168.3729257391
 20
602.7445686089
 10
168.389511276
 20
603.0038920768
 10
168.3740892992
 20
603.25069102
 10
168.3274046426
 20
603.4730458099
 10
168.2517120313
 20
603.660217395
 10
168.1506671853
 20
603.8031659644
 10
168.0291502594
 20
603.8949875424
 10
167.9371732039
 20
603.9259666061
  0
SPLINE
  5
113
330
1F
100
AcDbEntity
  8
0
  6
Continuous
 62
     8
370
    18
100
AcDbSpline
210
0.0
220
0.0
230
1.0
 70
     8
 71
     3
 72
    35
 73
    31
 74
     0
 42
0.00000001
 43
0.00000001
 40
0.0
 40
0.0
 40
0.0
 40
0.0
 40
0.0307820850155429
 40
0.0612042028989215
 40
0.0912691216999818
 40
0.1209797093091882
 40
0.1503389374561713
 40
0.1793498858478862
 40
0.2080157464463182
 40
0.2363398278848395
 40
0.2643255600212361
 40
0.2919764986243295
 40
0.3192963301897168
 40
0.3462888768786803
 40
0.372958101572574
 40
0.3993081130330983
 40
0.4253431711567098
 40
0.4510676923090512
 40
0.4764862547226604
 40
0.5016036039383532
 40
0.5513484183733482
 40
0.6010130731615525
 40
0.6506355435150034
 40
0.7002539014952439
 40
0.7499062286158934
 40
0.7996305283367902
 40
0.8494646394515272
 40
0.8994461513465012
 40
0.9496123220603174
 40
1.0
 40
1.0
 40
1.0
 40
1.0
 10
170.0208484154168
 20
517.7148887531813
 30
0.0
 10
169.8925452221397
 20
517.631786968343
 30
0.0
 10
169.6374392190881
 20
517.4665551947986
 30
0.0
 10
169.2481217775633
 20
517.2258066445124
 30
0.0
 10
168.8570595859102
 20
516.9921406198772
 30
0.0
 10
168.4638494990245
 20
516.7659471288425
 30
0.0
 10
168.0688868231343
 20
516.5471235136489
 30
0.0
 10
167.6723508157137
 20
516.3356968041597
 30
0.0
 10
167.2744716669757
 20
516.1316598984807
 30
0.0
 10
166.8754601744465
 20
515.9350146823411
 30
0.0
 10
166.4755262069251
 20
515.7457606802616
 30
0.0
 10
166.0748738075187
 20
515.563898044563
 30
0.0
 10
165.6737024524257
 20
515.3894267628469
 30
0.0
 10
165.2722066965281
 20
515.2223468905099
 30
0.0
 10
164.8705762523006
 20
515.062658404209
 30
0.0
 10
164.4689959550988
 20
514.9103615558164
 30
0.0
 10
164.0676457883908
 20
514.765455625917
 30
0.0
 10
163.6667008135483
 20
514.6279434822085
 30
0.0
 10
163.2663314461599
 20
514.497814875776
 30
0.0
 10
162.7345281650144
 20
514.334523174835
 30
0.0
 10
162.0645941084101
 20
514.1463795845567
 30
0.0
 10
161.2490708480228
 20
513.9445492322886
 30
0.0
 10
160.4217806835521
 20
513.766478457979
 30
0.0
 10
159.5835200286898
 20
513.6121546418719
 30
0.0
 10
158.735103300475
 20
513.4815714277247
 30
0.0
 10
157.877384620952
 20
513.3747682520215
 30
0.0
 10
157.011251530234
 20
513.2915936177095
 30
0.0
 10
156.1376261803755
 20
513.232615571885
 30
0.0
 10
155.257464105675
 20
513.1957013657628
 30
0.0
 10
154.6684307609319
 20
513.1911504758046
 30
0.0
 10
154.3732653061224
 20
513.1888700183123
 30
0.0
  0
SPLINE
  5
114
330
1F
100
AcDbEntity
  8
0
  6
Continuous
 62
     8
370
    18
100
AcDbSpline
210
0.0
220
0.0
230
1.0
 70
     8
 71
     3
 72
    35
 73
    31
 74
     0
 42
0.00000001
 43
0.00000001
 40
0.0
 40
0.0
 40
0.0
 40
0.0
 40
0.0264879596487835
 40
0.0529101150970318
 40
0.0792717523604134
 40
0.105578193936353
 40
0.1318347958887502
 40
0.1580469448336512
 40
0.184220054833535
 40
0.2103595642085076
 40
0.2364709322732588
 40
0.2625596360091753
 40
0.2886311666814499
 40
0.3146910264114283
 40
0.3407447247147638
 40
0.3667977750161977
 40
0.3928556911519512
 40
0.4189239838708146
 40
0.4450081573450222
 40
0.471113705701932
 40
0.4972461095873718
 40
0.5478871892998269
 40
0.5997569375444399
 40
0.652891664424802
 40
0.7073251484905626
 40
0.7630888080130044
 40
0.8202118662946852
 40
0.8787215095938297
 40
0.9386430367502364
 40
1.0
 40
1.0
 40
1.0
 40
1.0
 10
154.3732653061224
 20
513.1888700183123
 30
0.0
 10
154.2181102308365
 20
513.1895022200865
 30
0.0
 10
153.9081855329695
 20
513.1907650530525
 30
0.0
 10
153.4440865332675
 20
513.2009531420379
 30
0.0
 10
152.9815307157035
 20
513.2172183071018
 30
0.0
 10
152.5206618342637
 20
513.2401517411137
 30
0.0
 10
152.0616211501215
 20
513.2695955909027
 30
0.0
 10
151.6045474046876
 20
513.3055920483276
 30
0.0
 10
151.1495767957485
 20
513.348129859
 30
0.0
 10
150.6968429550252
 20
513.3972120469293
 30
0.0
 10
150.2464769275584
 20
513.4528378149504
 30
0.0
 10
149.7986071528284
 20
513.5150073836362
 30
0.0
 10
149.353359447449
 20
513.5837206955632
 30
0.0
 10
148.910856990034
 20
513.6589777681045
 30
0.0
 10
148.4712203058735
 20
513.7407785757505
 30
0.0
 10
148.0345672601334
 20
513.8291231683987
 30
0.0
 10
147.6010130269499
 20
513.9240113158347
 30
0.0
 10
147.1706701561089
 20
514.0254438122083
 30
0.0
 10
146.7436482827876
 20
514.1334176108259
 30
0.0
 10
146.3200551780101
 20
514.2479439981225
 30
0.0
 10
145.7688544577152
 20
514.4067668515945
 30
0.0
 10
145.0896257900494
 20
514.621046325675
 30
0.0
 10
144.2850175808884
 20
514.9039320337628
 30
0.0
 10
143.4794866887718
 20
515.2165144296131
 30
0.0
 10
142.6745053134658
 20
515.5588039599838
 30
0.0
 10
141.8716574488541
 20
515.9308204595511
 30
0.0
 10
141.0724038306499
 20
516.3324635703788
 30
0.0
 10
140.279083769146
 20
516.7641232723544
 30
0.0
 10
139.4910097919949
 20
517.2242872465206
 30
0.0
 10
138.9827964437647
 20
517.5500696120349
 30
0.0
 10
138.725682196828
 20
517.7148887531813
 30
0.0
  0
SPLINE
  5
115
330
1F
100
AcDbEntity
  8
0
  6
Continuous
 62
     8
370
    18
100
AcDbSpline
210
0.0
220
0.0
230
1.0
 70
     8
 71
     3
 72
    10
 73
     6
 74
     0
 42
0.00000001
 43
0.00000001
 40
0.0
 40
0.0
 40
0.0
 40
0.0
 40
0.383190681981143
 40
0.7864770305008626
 40
1.0
 40
1.0
 40
1.0
 40
1.0
 10
137.2533971943969
 20
528.9299682264448
 30
0.0
 10
137.2825736181057
 20
529.2082513396514
 30
0.0
 10
137.3424565645295
 20
529.7794115656303
 30
0.0
 10
137.551336487232
 20
530.4810017473436
 30
0.0
 10
137.7904801387741
 20
530.816431754919
 30
0.0
 10
137.8732653061224
 20
530.9325486960615
 30
0.0
  0
LINE
  5
116
330
1F
100
AcDbEntity
  8
0
  6
Continuous
 62
     8
370
    18
100
AcDbLine
 10
137.2533971944
 20
520.6734542229
 30
0.0
 11
137.2533971944
 21
528.9299682264
 31
0.0
  0
SPLINE
  5
117
330
1F
100
AcDbEntity
  8
0
  6
Continuous
 62
     8
370
    18
100
AcDbSpline
210
0.0
220
0.0
230
1.0
 70
     8
 71
     3
 72
    23
 73
    19
 74
     0
 42
0.00000001
 43
0.00000001
 40
0.0
 40
0.0
 40
0.0
 40
0.0
 40
0.0515414021659153
 40
0.1020767310507879
 40
0.1517422140668249
 40
0.2006813432616149
 40
0.2490440765393902
 40
0.2969857810244506
 40
0.3446659399644802
 40
0.3922466667966411
 40
0.4398910900705372
 40
0.4877616872847257
 40
0.5738614963631501
 40
0.6582913985997408
 40
0.7420796117122082
 40
0.8262778708740558
 40
0.9119228101326651
 40
1.0
 40
1.0
 40
1.0
 40
1.0
 10
138.725682196828
 20
517.7148887531813
 30
0.0
 10
138.6789936922885
 20
517.7417402222039
 30
0.0
 10
138.5865280293308
 20
517.7949190273308
 30
0.0
 10
138.4541767956856
 20
517.8848611479682
 30
0.0
 10
138.3283173872269
 20
517.9812485978938
 30
0.0
 10
138.2091981156998
 20
518.084832624823
 30
0.0
 10
138.0966577713241
 20
518.1954179403891
 30
0.0
 10
137.9906465457163
 20
518.3130552156899
 30
0.0
 10
137.891088772219
 20
518.4377291415917
 30
0.0
 10
137.7979214806078
 20
518.5694387990119
 30
0.0
 10
137.7110741731234
 20
518.7081828473894
 30
0.0
 10
137.6093056381073
 20
518.892305995064
 30
0.0
 10
137.5011638818958
 20
519.1261042551102
 30
0.0
 10
137.3991325862512
 20
519.414708243641
 30
0.0
 10
137.3230363307867
 20
519.7143485575826
 30
0.0
 10
137.2732057999786
 20
520.0248277119533
 30
0.0
 10
137.2473803745951
 20
520.3461593260294
 30
0.0
 10
137.2513729546778
 20
520.5633423445345
 30
0.0
 10
137.2533971943977
 20
520.6734542229295
 30
0.0
  0
SPLINE
  5
118
330
1F
100
AcDbEntity
  8
0
  6
Continuous
 62
     8
370
    18
100
AcDbSpline
210
0.0
220
0.0
230
1.0
 70
     8
 71
     3
 72
    23
 73
    19
 74
     0
 42
0.00000001
 43
0.00000001
 40
0.0
 40
0.0
 40
0.0
 40
0.0
 40
0.0484090618048804
 40
0.0959695665458549
 40
0.1428333705456061
 40
0.1891591819791892
 40
0.2351112836275701
 40
0.2808579845112111
 40
0.3265698624427195
 40
0.3724178837982822
 40
0.4185715018978943
 40
0.4651968380756622
 40
0.512455039220144
 40
0.607907013819206
 40
0.7031127618963334
 40
0.7993722434124957
 40
0.8979437288381688
 40
1.0
 40
1.0
 40
1.0
 40
1.0
 10
171.4931334178478
 20
520.6734542229092
 30
0.0
 10
171.4948153540401
 20
520.6129967418018
 30
0.0
 10
171.498149743952
 20
520.493141532054
 30
0.0
 10
171.4937359172825
 20
520.3146379014233
 30
0.0
 10
171.4822862632573
 20
520.1393596208278
 30
0.0
 10
171.46314980189
 20
519.9672670823505
 30
0.0
 10
171.4364726368554
 20
519.7983785332847
 30
0.0
 10
171.4021832426035
 20
519.6326978559505
 30
0.0
 10
171.3602599235018
 20
519.470232993266
 30
0.0
 10
171.3106591280346
 20
519.3109903427236
 30
0.0
 10
171.2533385675925
 20
519.1549759103432
 30
0.0
 10
171.1882354076419
 20
519.0021934116415
 30
0.0
 10
171.0909794852587
 20
518.8026988478256
 30
0.0
 10
170.951958352962
 20
518.5661168487017
 30
0.0
 10
170.7583553946597
 20
518.3083972838028
 30
0.0
 10
170.5384632761773
 20
518.0797469998174
 30
0.0
 10
170.2930673682822
 20
517.8773635925635
 30
0.0
 10
170.1126327473341
 20
517.7696705544816
 30
0.0
 10
170.0208484154168
 20
517.7148887531813
 30
0.0
  0
LINE
  5
119
330
1F
100
AcDbEntity
  8
0
  6
Continuous
 62
     8
370
    18
100
AcDbLine
 10
171.4931334178
 20
528.9299682265
 30
0.0
 11
171.4931334178
 21
520.6734542229
 31
0.0
  0
SPLINE
  5
11A
330
1F
100
AcDbEntity
  8
0
  6
Continuous
 62
     8
370
    18
100
AcDbSpline
210
0.0
220
0.0
230
1.0
 70
     8
 71
     3
 72
    10
 73
     6
 74
     0
 42
0.00000001
 43
0.00000001
 40
0.0
 40
0.0
 40
0.0
 40
0.0
 40
0.2102236943237058
 40
0.6159093928170944
 40
1.0
 40
1.0
 40
1.0
 40
1.0
 10
170.8732653061224
 20
530.9320912216524
 30
0.0
 10
170.9545076478861
 20
530.8176144170305
 30
0.0
 10
171.1925299200551
 20
530.4822224458587
 30
0.0
 10
171.4032124853841
 20
529.7820841853929
 30
0.0
 10
171.4637111850797
 20
529.2087815505897
 30
0.0
 10
171.4931334178471
 20
528.9299682264642
 30
0.0
  0
ELLIPSE
  5
11B
330
1F
100
AcDbEntity
  8
0
  6
Continuous
 62
     8
370
    18
100
AcDbEllipse
 10
154.3732653061
 20
597.0275421255
 30
0.0
 11
26.0
 21
0.0
 31
0.0
210
0.0
220
0.0
230
1.0
 40
0.2609427796
 41
2.139391128093856
 42
3.12916381290345
  0
ELLIPSE
  5
11C
330
1F
100
AcDbEntity
  8
0
  6
Continuous
 62
     8
370
    18
100
AcDbEllipse
 10
154.3732653061
 20
597.0275421255
 30
0.0
 11
26.0
 21
0.0
 31
0.0
210
0.0
220
0.0
230
1.0
 40
0.2609427796
 41
0.0
 42
1.002201525495936
  0
SPLINE
  5
11D
330
1F
100
AcDbEntity
  8
0
  6
Continuous
 62
     8
370
    18
100
AcDbSpline
210
0.0
220
0.0
230
1.0
 70
     8
 71
     3
 72
    12
 73
     8
 74
     0
 42
0.00000001
 43
0.00000001
 40
0.0
 40
0.0
 40
0.0
 40
0.0
 40
0.2500000000000001
 40
0.2500000000000001
 40
0.5000000000000001
 40
0.5000000000000001
 40
1.0
 40
1.0
 40
1.0
 40
1.0
 10
178.4571592733321
 20
565.257746976092
 30
0.0
 10
178.7561730592437
 20
565.257746976092
 30
0.0
 10
179.0210878444706
 20
565.2803863717185
 30
0.0
 10
179.4810292405108
 20
565.3751569540532
 30
0.0
 10
179.6740094273713
 20
565.4467864676886
 30
0.0
 10
180.1474841143551
 20
565.736846866129
 30
0.0
 10
180.3232111957885
 20
566.030069123356
 30
0.0
 10
180.3640577904081
 20
566.433305969119
 30
0.0
  0
LINE
  5
11E
330
1F
100
AcDbEntity
  8
0
  6
Continuous
 62
     8
370
    18
100
AcDbLine
 10
130.2893713389
 20
565.2577469761
 30
0.0
 11
137.8732653061
 21
565.2577469761
 31
0.0
  0
LINE
  5
11F
330
1F
100
AcDbEntity
  8
0
  6
Continuous
 62
     8
370
    18
100
AcDbLine
 10
170.8732653061
 20
565.2577469761
 30
0.0
 11
178.4571592733
 21
565.2577469761
 31
0.0
  0
SPLINE
  5
120
330
1F
100
AcDbEntity
  8
0
  6
Continuous
 62
     8
370
    18
100
AcDbSpline
210
0.0
220
0.0
230
1.0
 70
     8
 71
     3
 72
    12
 73
     8
 74
     0
 42
0.00000001
 43
0.00000001
 40
0.0
 40
0.0
 40
0.0
 40
0.0
 40
0.2499999999999998
 40
0.2499999999999998
 40
0.4999999999999996
 40
0.4999999999999996
 40
1.0
 40
1.0
 40
1.0
 40
1.0
 10
128.3824728218366
 20
566.433305969119
 30
0.0
 10
128.4028992101593
 20
566.2316570318137
 30
0.0
 10
128.457491239384
 20
566.056119402635
 30
0.0
 10
128.6374376243857
 20
565.7576262573233
 30
0.0
 10
128.7618495577439
 20
565.6359851194177
 30
0.0
 10
129.2378873443375
 20
565.3477935523872
 30
0.0
 10
129.6914875979425
 20
565.2577469760919
 30
0.0
 10
130.2893713389127
 20
565.257746976092
 30
0.0
  0
ARC
  5
121
330
1F
100
AcDbEntity
  8
0
  6
Continuous
 62
     8
370
    18
100
AcDbCircle
 10
130.7716801497
 20
565.2400017743
 30
0.0
 40
0.4826351429105227
100
AcDbArc
 50
177.8929126922
 51
267.7251886889
  0
ARC
  5
122
330
1F
100
AcDbEntity
  8
0
  6
Continuous
 62
     8
370
    18
100
AcDbCircle
 10
177.9748504625
 20
565.2400017743
 30
0.0
 40
0.4826351429105227
100
AcDbArc
 50
272.2748113111
 51
2.1070873078
  0
LINE
  5
123
330
1F
100
AcDbEntity
  8
0
  6
Continuous
 62
     8
370
    18
100
AcDbLine
 10
180.2207477949
 20
561.6664731793
 30
0.0
 11
170.8732653061
 21
561.6664731793
 31
0.0
  0
LINE
  5
124
330
1F
100
AcDbEntity
  8
0
  6
Continuous
 62
     8
370
    18
100
AcDbLine
 10
137.8732653061
 20
561.6664731793
 30
0.0
 11
128.5257828174
 21
561.6664731793
 31
0.0
  0
LINE
  5
125
330
1F
100
AcDbEntity
  8
0
  6
Continuous
 62
     8
370
    18
100
AcDbLine
 10
130.5414898545
 20
562.4482579668
 30
0.0
 11
137.8732653061
 21
562.4482579668
 31
0.0
  0
LINE
  5
126
330
1F
100
AcDbEntity
  8
0
  6
Continuous
 62
     8
370
    18
100
AcDbLine
 10
170.8732653061
 20
562.4482579668
 30
0.0
 11
178.2050407578
 21
562.4482579668
 31
0.0
  0
LINE
  5
127
330
1F
100
AcDbEntity
  8
0
  6
Continuous
 62
     7
370
    25
100
AcDbLine
 10
316.631502383
 20
583.2540632795
 30
0.0
 11
316.631502383
 21
588.5042014362
 31
0.0
  0
LINE
  5
128
330
1F
100
AcDbEntity
  8
0
  6
Continuous
 62
     7
370
    25
100
AcDbLine
 10
316.631502383
 20
565.2577469761
 30
0.0
 11
316.631502383
 21
575.3090653672
 31
0.0
  0
LINE
  5
129
330
1F
100
AcDbEntity
  8
0
  6
Continuous
 62
     7
370
    25
100
AcDbLine
 10
264.631502383
 20
590.2430298571
 30
0.0
 11
264.631502383
 21
573.4478354354
 31
0.0
  0
ARC
  5
12A
330
1F
100
AcDbEntity
  8
0
  6
Continuous
 62
     7
370
    25
100
AcDbCircle
 10
265.831502383
 20
590.2430298571
 30
0.0
 40
1.200000000000046
100
AcDbArc
 50
105.3
 51
178.5515658523
  0
LINE
  5
12B
330
1F
100
AcDbEntity
  8
0
  6
Continuous
 62
     7
370
    25
100
AcDbLine
 10
316.631502383
 20
534.4444109887
 30
0.0
 11
316.631502383
 21
558.0530365292
 31
0.0
  0
LINE
  5
12C
330
1F
100
AcDbEntity
  8
0
  6
Continuous
 62
     7
370
    25
100
AcDbLine
 10
316.631502383
 20
390.6577469761
 30
0.0
 11
316.631502383
 21
513.1888700183
 31
0.0
  0
LINE
  5
12D
330
1F
100
AcDbEntity
  8
0
  6
Continuous
 62
     7
370
    25
100
AcDbLine
 10
264.631502383
 20
558.0530365292
 30
0.0
 11
264.631502383
 21
390.6577469761
 31
0.0
  0
ARC
  5
12E
330
1F
100
AcDbEntity
  8
0
  6
Continuous
 62
     7
370
    25
100
AcDbCircle
 10
265.131502383
 20
573.4478354354
 30
0.0
 40
0.5000000000000006
100
AcDbArc
 50
180.0812207424
 51
255.0
  0
LINE
  5
12F
330
1F
100
AcDbEntity
  8
0
  6
Continuous
 62
     7
370
    25
100
AcDbLine
 10
316.531502383
 20
558.6577469761
 30
0.0
 11
316.4789848717
 21
561.6664731793
 31
0.0
  0
LINE
  5
130
330
1F
100
AcDbEntity
  8
0
  6
Continuous
 62
     7
370
    25
100
AcDbLine
 10
264.7840198942
 20
561.6664731793
 30
0.0
 11
264.731502383
 21
558.6577469761
 31
0.0
  0
LINE
  5
131
330
1F
100
AcDbEntity
  8
0
  6
Continuous
 62
     7
370
    25
100
AcDbLine
 10
316.531502383
 20
558.0530365292
 30
0.0
 11
316.531502383
 21
558.6577469761
 31
0.0
  0
LINE
  5
132
330
1F
100
AcDbEntity
  8
0
  6
Continuous
 62
     7
370
    25
100
AcDbLine
 10
264.731502383
 20
558.6577469761
 30
0.0
 11
264.731502383
 21
558.0530365292
 31
0.0
  0
ARC
  5
133
330
1F
100
AcDbEntity
  8
0
  6
Continuous
 62
     7
370
    25
100
AcDbCircle
 10
265.2839437418
 20
561.6577469761
 30
0.0
 40
0.49999999999995
100
AcDbArc
 50
90.0
 51
179.0
  0
ARC
  5
134
330
1F
100
AcDbEntity
  8
0
  6
Continuous
 62
     7
370
    25
100
AcDbCircle
 10
315.9790610242
 20
561.6577469761
 30
0.0
 40
0.5000000000000068
100
AcDbArc
 50
1.0
 51
90.0
  0
SPLINE
  5
135
330
1F
100
AcDbEntity
  8
0
  6
Continuous
 62
     7
370
    25
100
AcDbSpline
210
0.0
220
0.0
230
1.0
 70
     8
 71
     3
 72
    26
 73
    22
 74
     0
 42
0.00000001
 43
0.00000001
 40
0.0
 40
0.0
 40
0.0
 40
0.0
 40
0.0927357463961394
 40
0.1838313959148439
 40
0.2672821309861887
 40
0.3430888456971413
 40
0.4112510364380645
 40
0.4707549763271662
 40
0.522885192364192
 40
0.5676414065929926
 40
0.6050234431379198
 40
0.630959475572719
 40
0.6515873073188615
 40
0.6678507549829161
 40
0.6887236758278817
 40
0.7164337942913633
 40
0.750980677298752
 40
0.8004743742228554
 40
0.8594695050885113
 40
0.9279754362532463
 40
0.9999999999999999
 40
0.9999999999999999
 40
0.9999999999999999
 40
0.9999999999999999
 10
384.9564438683676
 20
624.0606333448144
 30
0.0
 10
381.2466681597045
 20
623.111411913745
 30
0.0
 10
373.892726734126
 20
621.2297567000112
 30
0.0
 10
363.2615514648947
 20
618.2649035812008
 30
0.0
 10
353.2826053495099
 20
615.566506584822
 30
0.0
 10
344.2265786476707
 20
613.0827465581814
 30
0.0
 10
336.1220243590058
 20
610.8683061015953
 30
0.0
 10
328.9588019943022
 20
608.9178671687181
 30
0.0
 10
322.7294028949452
 20
607.2165402374221
 30
0.0
 10
317.3812693308554
 20
605.7554994770834
 30
0.0
 10
313.0705363432402
 20
604.6013883505863
 30
0.0
 10
309.7162951640003
 20
603.7273915423496
 30
0.0
 10
307.2041834870806
 20
603.0799096300218
 30
0.0
 10
304.8940475019257
 20
602.4864682416186
 30
0.0
 10
302.3007882456656
 20
601.8197614561356
 30
0.0
 10
298.9778381835885
 20
600.9593309799626
 30
0.0
 10
294.5155682821608
 20
599.784478373709
 30
0.0
 10
288.8140578290373
 20
598.2430713191417
 30
0.0
 10
281.777589319635
 20
596.2679573833802
 30
0.0
 10
273.8675704807755
 20
593.9633043198328
 30
0.0
 10
268.3207687029033
 20
592.2589803335212
 30
0.0
 10
265.4779268094582
 20
591.3854817261582
 30
0.0
  0
ARC
  5
136
330
1F
100
AcDbEntity
  8
0
  6
Continuous
 62
     7
370
    25
100
AcDbCircle
 10
266.4998770377
 20
562.4577469761
 30
0.0
 40
0.3000000000000682
100
AcDbArc
 50
270.0
 51
358.1874303925
  0
ARC
  5
137
330
1F
100
AcDbEntity
  8
0
  6
Continuous
 62
     7
370
    25
100
AcDbCircle
 10
314.7631277282
 20
562.4577469761
 30
0.0
 40
0.3000000000000682
100
AcDbArc
 50
181.8125696075
 51
270.0
  0
ARC
  5
138
330
1F
100
AcDbEntity
  8
0
  6
Continuous
 62
     7
370
    25
100
AcDbCircle
 10
316.131502383
 20
565.2577469761
 30
0.0
 40
0.5000000000001137
100
AcDbArc
 50
270.0
 51
0.0
  0
ARC
  5
139
330
1F
100
AcDbEntity
  8
0
  6
Continuous
 62
     7
370
    25
100
AcDbCircle
 10
293.9827221032
 20
561.8001330596
 30
0.0
 40
20.49080840187575
100
AcDbArc
 50
1.8125696075
 51
8.2989789389
  0
ARC
  5
13A
330
1F
100
AcDbEntity
  8
0
  6
Continuous
 62
     7
370
    25
100
AcDbCircle
 10
287.2802826627
 20
561.8001330596
 30
0.0
 40
20.49080840187578
100
AcDbArc
 50
150.8014635515
 51
178.1874303925
  0
LINE
  5
13B
330
1F
100
AcDbEntity
  8
0
  6
Continuous
 62
     7
370
    25
100
AcDbLine
 10
526.0453409926
 20
569.2443113956
 30
0.0
 11
521.2961147332
 21
586.6045587609
 31
0.0
  0
LINE
  5
13C
330
1F
100
AcDbEntity
  8
0
  6
Continuous
 62
     7
370
    25
100
AcDbLine
 10
494.0566223535
 20
561.1152351978
 30
0.0
 11
494.2149461835
 21
560.5365007467
 31
0.0
  0
SPLINE
  5
13D
330
1F
100
AcDbEntity
  8
0
  6
Continuous
 62
     7
370
    25
100
AcDbSpline
210
0.0
220
0.0
230
1.0
 70
     8
 71
     3
 72
    15
 73
    11
 74
     0
 42
0.00000001
 43
0.00000001
 40
0.0
 40
0.0
 40
0.0
 40
0.0
 40
0.0079301556938242
 40
0.2578290920001299
 40
0.456914108741852
 40
0.6253123995456691
 40
0.7694182169519943
 40
0.889806695145696
 40
0.9850533977774155
 40
1.0
 40
1.0
 40
1.0
 40
1.0
 10
521.2925524414139
 20
586.5956497563916
 30
0.0
 10
521.2915781633337
 20
586.6051617769988
 30
0.0
 10
521.2599019589201
 20
586.91442123305
 30
0.0
 10
520.9458650242515
 20
587.4097135634747
 30
0.0
 10
520.4347150481974
 20
587.9477505154495
 30
0.0
 10
519.8906588256817
 20
588.2570396176045
 30
0.0
 10
519.3885839251809
 20
588.4112120779843
 30
0.0
 10
518.9555195073116
 20
588.4530740400448
 30
0.0
 10
518.6760249200355
 20
588.445342496678
 30
0.0
 10
518.5452795778942
 20
588.4219307511204
 30
0.0
 10
518.5275453006255
 20
588.4187551857024
 30
0.0
  0
ARC
  5
13E
330
1F
100
AcDbEntity
  8
0
  6
Continuous
 62
     7
370
    25
100
AcDbCircle
 10
494.6007691509
 20
560.6420499667
 30
0.0
 40
0.4000000000000086
100
AcDbArc
 50
195.3
 51
285.3
  0
ARC
  5
13F
330
1F
100
AcDbEntity
  8
0
  6
Continuous
 62
     7
370
    25
100
AcDbCircle
 10
525.6595180252
 20
569.1387621756
 30
0.0
 40
0.4000000000000934
100
AcDbArc
 50
285.3
 51
15.3
  0
LINE
  5
140
330
1F
100
AcDbEntity
  8
0
  6
Continuous
 62
     7
370
    25
100
AcDbLine
 10
518.1850306554
 20
588.3472446011
 30
0.0
 11
317.8231514495
 21
533.5344370366
 31
0.0
  0
SPLINE
  5
141
330
1F
100
AcDbEntity
  8
0
  6
Continuous
 62
     7
370
    25
100
AcDbSpline
210
0.0
220
0.0
230
1.0
 70
     8
 71
     3
 72
    15
 73
    11
 74
     0
 42
0.00000001
 43
0.00000001
 40
0.0
 40
0.0
 40
0.0
 40
0.0
 40
0.1133635907779859
 40
0.2361428199098486
 40
0.3661123937580874
 40
0.4999999990934026
 40
0.6338876045980382
 40
0.7638571788976277
 40
0.8866364086261969
 40
1.0
 40
1.0
 40
1.0
 40
1.0
 10
317.8239188759509
 20
533.5346469767688
 30
0.0
 10
317.7597020178591
 20
533.5211990172769
 30
0.0
 10
317.6259346428888
 20
533.4931861512882
 30
0.0
 10
317.4126260865055
 20
533.5071697214685
 30
0.0
 10
317.1968669091619
 20
533.5700010313611
 30
0.0
 10
316.996806449575
 20
533.6871017909097
 30
0.0
 10
316.8310654796244
 20
533.849171857151
 30
0.0
 10
316.7135280410133
 20
534.0407044834677
 30
0.0
 10
316.6437537046139
 20
534.2427629473582
 30
0.0
 10
316.6354761164047
 20
534.379181102261
 30
0.0
 10
316.6315023469591
 20
534.4446705035317
 30
0.0
  0
SPLINE
  5
142
330
1F
100
AcDbEntity
  8
0
  6
Continuous
 62
     7
370
    25
100
AcDbSpline
210
0.0
220
0.0
230
1.0
 70
     8
 71
     3
 72
    11
 73
     7
 74
     0
 42
0.00000001
 43
0.00000001
 40
0.0
 40
0.0
 40
0.0
 40
0.0
 40
0.270548340245728
 40
0.5219564892566397
 40
0.7621075103055109
 40
0.9999999999999999
 40
0.9999999999999999
 40
0.9999999999999999
 40
0.9999999999999999
 10
379.2956989720576
 20
613.1488757721389
 30
0.0
 10
380.14703906062
 20
613.4267385392441
 30
0.0
 10
381.7894903999476
 20
613.9628064163622
 30
0.0
 10
383.985419499957
 20
615.2211662008386
 30
0.0
 10
385.8630554901974
 20
616.76441288544
 30
0.0
 10
386.7942841026816
 20
618.0460035067996
 30
0.0
 10
387.2576985997305
 20
618.6837713602117
 30
0.0
  0
LINE
  5
143
330
1F
100
AcDbEntity
  8
0
  6
Continuous
 62
     7
370
    25
100
AcDbLine
 10
316.981502383
 20
575.2592051753
 30
0.0
 11
317.5820497529
 21
575.4777865422
 31
0.0
  0
LINE
  5
144
330
1F
100
AcDbEntity
  8
0
  6
Continuous
 62
     7
370
    25
100
AcDbLine
 10
317.5820497529
 20
583.0406238084
 30
0.0
 11
316.981502383
 21
583.2592051753
 31
0.0
  0
LINE
  5
145
330
1F
100
AcDbEntity
  8
0
  6
Continuous
 62
     7
370
    25
100
AcDbLine
 10
316.6239279362
 20
575.2592051753
 30
0.0
 11
316.981502383
 21
575.2592051753
 31
0.0
  0
LINE
  5
146
330
1F
100
AcDbEntity
  8
0
  6
Continuous
 62
     7
370
    25
100
AcDbLine
 10
316.981502383
 20
583.2592051753
 30
0.0
 11
316.6307502155
 21
583.2592051753
 31
0.0
  0
ARC
  5
147
330
1F
100
AcDbEntity
  8
0
  6
Continuous
 62
     7
370
    25
100
AcDbCircle
 10
317.5136457242
 20
582.8526852842
 30
0.0
 40
0.2000000000000019
100
AcDbArc
 50
0.0
 51
70.0
  0
ARC
  5
148
330
1F
100
AcDbEntity
  8
0
  6
Continuous
 62
     7
370
    25
100
AcDbCircle
 10
317.5136457242
 20
575.6657250664
 30
0.0
 40
0.2000000000001087
100
AcDbArc
 50
290.0
 51
0.0
  0
LINE
  5
149
330
1F
100
AcDbEntity
  8
0
  6
Continuous
 62
     7
370
    25
100
AcDbLine
 10
317.7136457242
 20
575.6657250664
 30
0.0
 11
317.7136457242
 21
582.8526852842
 31
0.0
  0
SPLINE
  5
14A
330
1F
100
AcDbEntity
  8
0
  6
Continuous
 62
     7
370
    25
100
AcDbSpline
210
0.0
220
0.0
230
1.0
 70
     8
 71
     3
 72
    12
 73
     8
 74
     0
 42
0.00000001
 43
0.00000001
 40
0.0
 40
0.0
 40
0.0
 40
0.0
 40
0.2131045574868116
 40
0.4261476636243132
 40
0.6407821562773344
 40
0.856482390014762
 40
1.0
 40
1.0
 40
1.0
 40
1.0
 10
316.3219675402937
 20
579.259205175294
 30
0.0
 10
316.3289303074274
 20
578.8126282035989
 30
0.0
 10
316.3428538338945
 20
577.919603036232
 30
0.0
 10
316.4404587949292
 20
576.7247952552605
 30
0.0
 10
316.5466567998273
 20
575.8258748931387
 30
0.0
 10
316.6236575216483
 20
575.3096221421166
 30
0.0
 10
316.6238330840467
 20
575.3092243116128
 30
0.0
 10
316.623903226152
 20
575.3090653671615
 30
0.0
  0
SPLINE
  5
14B
330
1F
100
AcDbEntity
  8
0
  6
Continuous
 62
     7
370
    25
100
AcDbSpline
210
0.0
220
0.0
230
1.0
 70
     8
 71
     3
 72
    12
 73
     8
 74
     0
 42
0.00000001
 43
0.00000001
 40
0.0
 40
0.0
 40
0.0
 40
0.0
 40
0.2074148013954357
 40
0.4197306813773221
 40
0.6341544906226103
 40
0.8497435190301197
 40
1.0
 40
1.0
 40
1.0
 40
1.0
 10
316.6307312623405
 20
583.2540632794833
 30
0.0
 10
316.6245149384847
 20
583.2146998266672
 30
0.0
 10
316.6119354030313
 20
583.1350427879185
 30
0.0
 10
316.5172512080678
 20
582.4705144731853
 30
0.0
 10
316.4096464337129
 20
581.4749481923005
 30
0.0
 10
316.333813021291
 20
580.3386956323988
 30
0.0
 10
316.3254162002937
 20
579.5734849888945
 30
0.0
 10
316.3219675402937
 20
579.259205175294
 30
0.0
  0
SPLINE
  5
14C
330
1F
100
AcDbEntity
  8
0
  6
Continuous
 62
     7
370
    25
100
AcDbSpline
210
0.0
220
0.0
230
1.0
 70
     8
 71
     3
 72
    34
 73
    30
 74
     0
 42
0.00000001
 43
0.00000001
 40
0.0
 40
0.0
 40
0.0
 40
0.0
 40
0.0615524382716651
 40
0.123456350999169
 40
0.1857046227582918
 40
0.2482557268756002
 40
0.3110383244745767
 40
0.373958569862414
 40
0.3949626913120799
 40
0.4159661056665354
 40
0.4369647053986463
 40
0.4579544352266176
 40
0.4789313358393307
 40
0.4998915867587875
 40
0.5470596993708388
 40
0.5920515387989117
 40
0.675372793331232
 40
0.7500691655397116
 40
0.8163036806969647
 40
0.8742601083544339
 40
0.9240936493261319
 40
0.9368631996184444
 40
0.9489794020660105
 40
0.960443793447173
 40
0.971257626651334
 40
0.9814218972053464
 40
0.9909373713034628
 40
0.9998046144061716
 40
1.0
 40
1.0
 40
1.0
 40
1.0
 10
311.2451297294215
 20
603.910194735567
 30
0.0
 10
310.4806767888321
 20
603.7010634294177
 30
0.0
 10
308.9474057567535
 20
603.2816066432717
 30
0.0
 10
306.0398199056021
 20
602.4861808565473
 30
0.0
 10
302.771298522724
 20
601.5920151209456
 30
0.0
 10
299.1766323301592
 20
600.608626883263
 30
0.0
 10
295.3609668664919
 20
599.5647802538354
 30
0.0
 10
292.2919140313553
 20
598.7251831946854
 30
0.0
 10
290.0906924181299
 20
598.122997343446
 30
0.0
 10
288.7692361273238
 20
597.7614878327319
 30
0.0
 10
287.452224518246
 20
597.4011941060135
 30
0.0
 10
286.143306240914
 20
597.0431142870923
 30
0.0
 10
284.8461459063099
 20
596.6882509044195
 30
0.0
 10
283.0300860745066
 20
596.1914320365597
 30
0.0
 10
280.7748376504697
 20
595.5744647144096
 30
0.0
 10
277.4363311801549
 20
594.6611521307923
 30
0.0
 10
273.8909678546419
 20
593.6912506285944
 30
0.0
 10
270.6005876003857
 20
592.7911041288246
 30
0.0
 10
268.2868852513431
 20
592.1581452610843
 30
0.0
 10
266.795434350587
 20
591.7501282814286
 30
0.0
 10
266.1091110353199
 20
591.5623702172019
 30
0.0
 10
265.8146001171212
 20
591.4818012505008
 30
0.0
 10
265.6967009017275
 20
591.4495479806704
 30
0.0
 10
265.6079697951338
 20
591.4252744961543
 30
0.0
 10
265.5450821972979
 20
591.4080713209759
 30
0.0
 10
265.503161367142
 20
591.3966044036955
 30
0.0
 10
265.4834193466986
 20
591.391205241013
 30
0.0
 10
265.4721934836077
 20
591.388135864201
 30
0.0
 10
265.4766372720613
 20
591.3893522906053
 30
0.0
 10
265.4767330778452
 20
591.3893785161304
 30
0.0
  0
SPLINE
  5
14D
330
1F
100
AcDbEntity
  8
0
  6
Continuous
 62
     7
370
    25
100
AcDbSpline
210
0.0
220
0.0
230
1.0
 70
     8
 71
     3
 72
     9
 73
     5
 74
     0
 42
0.00000001
 43
0.00000001
 40
0.0
 40
0.0
 40
0.0
 40
0.0
 40
0.7829683098067701
 40
1.0
 40
1.0
 40
1.0
 40
1.0
 10
265.5013165130551
 20
591.3961079657705
 30
0.0
 10
265.5201813063589
 20
591.401270133203
 30
0.0
 10
265.5442752486903
 20
591.4078632064701
 30
0.0
 10
265.6020600285317
 20
591.4236727537974
 30
0.0
 10
265.6146011569681
 20
591.4271039265749
 30
0.0
  0
LINE
  5
14E
330
1F
100
AcDbEntity
  8
0
  6
Continuous
 62
     7
370
    25
100
AcDbLine
 10
290.631502383
 20
390.6577469761
 30
0.0
 11
316.631502383
 21
390.6577469761
 31
0.0
  0
LINE
  5
14F
330
1F
100
AcDbEntity
  8
0
  6
Continuous
 62
     7
370
    25
100
AcDbLine
 10
264.631502383
 20
390.6577469761
 30
0.0
 11
290.631502383
 21
390.6577469761
 31
0.0
  0
LINE
  5
150
330
1F
100
AcDbEntity
  8
0
  6
Continuous
 62
     7
370
    25
100
AcDbLine
 10
290.631502383
 20
558.0530365292
 30
0.0
 11
316.631502383
 21
558.0530365292
 31
0.0
  0
LINE
  5
151
330
1F
100
AcDbEntity
  8
0
  6
Continuous
 62
     7
370
    25
100
AcDbLine
 10
264.631502383
 20
558.0530365292
 30
0.0
 11
290.631502383
 21
558.0530365292
 31
0.0
  0
LINE
  5
152
330
1F
100
AcDbEntity
  8
0
  6
Continuous
 62
     7
370
    25
100
AcDbLine
 10
291.1806732199
 20
565.950343056
 30
0.0
 11
265.0020929179
 21
572.9648725069
 31
0.0
  0
SPLINE
  5
153
330
1F
100
AcDbEntity
  8
0
  6
Continuous
 62
     7
370
    25
100
AcDbSpline
210
0.0
220
0.0
230
1.0
 70
     8
 71
     3
 72
    23
 73
    19
 74
     0
 42
0.00000001
 43
0.00000001
 40
0.0
 40
0.0
 40
0.0
 40
0.0
 40
0.0499414924701705
 40
0.0998190580938015
 40
0.1496488915391596
 40
0.1994472340415631
 40
0.2492303576559464
 40
0.2990145493590043
 40
0.3488160950783115
 40
0.3986512637265696
 40
0.448536291319121
 40
0.4984873652519051
 40
0.5813963260791074
 40
0.6644794489918466
 40
0.7478095927453801
 40
0.8314589706160174
 40
0.915498972941921
 40
1.0
 40
1.0
 40
1.0
 40
1.0
 10
300.2393397985221
 20
564.7577469760919
 30
0.0
 10
300.0937675997789
 20
564.7582691539237
 30
0.0
 10
299.8028095397675
 20
564.7593128411813
 30
0.0
 10
299.3628339029392
 20
564.7678610241883
 30
0.0
 10
298.9207818489417
 20
564.7816385940756
 30
0.0
 10
298.476442346893
 20
564.8012287302353
 30
0.0
 10
298.0299675434343
 20
564.8265893118484
 30
0.0
 10
297.5814154189626
 20
564.857844898636
 30
0.0
 10
297.1308719898302
 20
564.8950746931918
 30
0.0
 10
296.6784194731529
 20
564.9383692117133
 30
0.0
 10
296.2241415859818
 20
564.9878151977896
 30
0.0
 10
295.6681033783853
 20
565.0557139113424
 30
0.0
 10
295.0092953777462
 20
565.1478626838962
 30
0.0
 10
294.2472934127726
 20
565.2715999199962
 30
0.0
 10
293.4827254273865
 20
565.4130962441974
 30
0.0
 10
292.7161416361049
 20
565.5730664479439
 30
0.0
 10
291.9476311585694
 20
565.7502132661817
 30
0.0
 10
291.436791647188
 20
565.8835115852688
 30
0.0
 10
291.1806732199341
 20
565.9503430559746
 30
0.0
  0
LINE
  5
154
330
1F
100
AcDbEntity
  8
0
  6
Continuous
 62
     7
370
    25
100
AcDbLine
 10
316.531502383
 20
558.6577469761
 30
0.0
 11
264.731502383
 21
558.6577469761
 31
0.0
  0
LINE
  5
155
330
1F
100
AcDbEntity
  8
0
  6
Continuous
 62
     7
370
    25
100
AcDbLine
 10
290.631502383
 20
562.1577469761
 30
0.0
 11
315.9790610242
 21
562.1577469761
 31
0.0
  0
LINE
  5
156
330
1F
100
AcDbEntity
  8
0
  6
Continuous
 62
     7
370
    25
100
AcDbLine
 10
265.2839437418
 20
562.1577469761
 30
0.0
 11
290.631502383
 21
562.1577469761
 31
0.0
  0
SPLINE
  5
157
330
1F
100
AcDbEntity
  8
0
  6
Continuous
 62
     7
370
    25
100
AcDbSpline
210
0.0
220
0.0
230
1.0
 70
     8
 71
     3
 72
    15
 73
    11
 74
     0
 42
0.00000001
 43
0.00000001
 40
0.0
 40
0.0
 40
0.0
 40
0.0
 40
0.0909572758568153
 40
0.2042799150559152
 40
0.3404868606858587
 40
0.500019000128537
 40
0.6313085218076615
 40
0.7582389449325451
 40
0.8807080217256382
 40
1.0
 40
1.0
 40
1.0
 40
1.0
 10
319.7548639123111
 20
606.2381947851891
 30
0.0
 10
319.4455116212441
 20
606.1535656834559
 30
0.0
 10
318.7507408165313
 20
605.9634981429491
 30
0.0
 10
317.5936632260476
 20
605.6469571749427
 30
0.0
 10
316.2194960092049
 20
605.2710262170591
 30
0.0
 10
314.8490930491721
 20
604.8961273961104
 30
0.0
 10
313.6549278238864
 20
604.5694452186317
 30
0.0
 10
312.7084718951426
 20
604.310527184541
 30
0.0
 10
311.9174041719688
 20
604.094113313436
 30
0.0
 10
311.4672495601041
 20
603.970961531976
 30
0.0
 10
311.245130103504
 20
603.9101948396966
 30
0.0
  0
LINE
  5
158
330
1F
100
AcDbEntity
  8
0
  6
Continuous
 62
     7
370
    25
100
AcDbLine
 10
316.131502383
 20
564.7577469761
 30
0.0
 11
300.2393397985
 21
564.7577469761
 31
0.0
  0
SPLINE
  5
159
330
1F
100
AcDbEntity
  8
0
  6
Continuous
 62
     7
370
    25
100
AcDbSpline
210
0.0
220
0.0
230
1.0
 70
     8
 71
     3
 72
    17
 73
    13
 74
     0
 42
0.00000001
 43
0.00000001
 40
0.0
 40
0.0
 40
0.0
 40
0.0
 40
0.0673946095655477
 40
0.172995262269531
 40
0.2817046742252043
 40
0.3875147472486745
 40
0.4964126785308595
 40
0.6024149813722102
 40
0.7114751942599039
 40
0.8176548785322819
 40
0.9268751128314291
 40
1.0
 40
1.0
 40
1.0
 40
1.0
 10
504.7978497296835
 20
584.3819896153668
 30
0.0
 10
505.2752435358423
 20
584.5132686224704
 30
0.0
 10
506.5006659729581
 20
584.850248781726
 30
0.0
 10
508.4652309537161
 20
585.4051529578531
 30
0.0
 10
510.5887881768002
 20
586.0197980612405
 30
0.0
 10
512.5626470541021
 20
586.6051034191996
 30
0.0
 10
514.2969775495965
 20
587.130343043753
 30
0.0
 10
515.7731403900651
 20
587.5855166677327
 30
0.0
 10
516.9299087915502
 20
587.9474871577982
 30
0.0
 10
517.7384389048915
 20
588.2031889736849
 30
0.0
 10
518.1784520707888
 20
588.3433460397633
 30
0.0
 10
518.1830962553844
 20
588.3448359497175
 30
0.0
 10
518.184958687852
 20
588.3454334403244
 30
0.0
  0
LINE
  5
15A
330
1F
100
AcDbEntity
  8
0
  6
Continuous
 62
     7
370
    25
100
AcDbLine
 10
525.765067089
 20
568.7529391655
 30
0.0
 11
494.7063183708
 21
560.2562269993
 31
0.0
  0
LINE
  5
15B
330
1F
100
AcDbEntity
  8
0
  6
Continuous
 62
     7
370
    25
100
AcDbLine
 10
317.5415259095
 20
514.3812865484
 30
0.0
 11
492.2139766509
 21
562.1662617505
 31
0.0
  0
ARC
  5
15C
330
1F
100
AcDbEntity
  8
0
  6
Continuous
 62
     7
370
    25
100
AcDbCircle
 10
317.8677341586
 20
513.1888700183
 30
0.0
 40
1.236231775592734
100
AcDbArc
 50
105.3
 51
180.0
  0
ARC
  5
15D
330
1F
100
AcDbEntity
  8
0
  6
Continuous
 62
     7
370
    25
100
AcDbCircle
 10
492.6097862258
 20
560.7194256229
 30
0.0
 40
1.499999999999989
100
AcDbArc
 50
15.3
 51
105.3
  0
SPLINE
  5
15E
330
1F
100
AcDbEntity
  8
0
  6
Continuous
 62
     7
370
    25
100
AcDbSpline
210
0.0
220
0.0
230
1.0
 70
     8
 71
     3
 72
    22
 73
    18
 74
     0
 42
0.00000001
 43
0.00000001
 40
0.0
 40
0.0
 40
0.0
 40
0.0
 40
0.1250000000000001
 40
0.1250000000000001
 40
0.2500000000000002
 40
0.2500000000000002
 40
0.3750000000000003
 40
0.3750000000000003
 40
0.5000000000000004
 40
0.5000000000000004
 40
0.6250000000000006
 40
0.6250000000000006
 40
0.7500000000000007
 40
0.7500000000000007
 40
0.8750000000000008
 40
0.8750000000000008
 40
1.0
 40
1.0
 40
1.0
 40
1.0
 10
316.6315023829634
 20
588.5042014361535
 30
0.0
 10
316.6315023829634
 20
588.9992478052964
 30
0.0
 10
316.6323970472621
 20
589.4967684641442
 30
0.0
 10
316.6876606183031
 20
590.5072089229686
 30
0.0
 10
316.7419082491423
 20
591.0191086207565
 30
0.0
 10
316.9360311383901
 20
592.02569640128
 30
0.0
 10
317.0757851208956
 20
592.5193643818271
 30
0.0
 10
317.4574233987808
 20
593.4464599238235
 30
0.0
 10
317.6991864182573
 20
593.8788673830842
 30
0.0
 10
318.2893330326604
 20
594.6605980962539
 30
0.0
 10
318.6389639408641
 20
595.0115735889018
 30
0.0
 10
319.4260366970683
 20
595.6325972563877
 30
0.0
 10
319.8625306953059
 20
595.9022493287815
 30
0.0
 10
320.7774259904542
 20
596.3647093323978
 30
0.0
 10
321.254879437602
 20
596.5571211611759
 30
0.0
 10
322.2115218029487
 20
596.887089898994
 30
0.0
 10
322.6897628713845
 20
597.0242507055896
 30
0.0
 10
323.1658694147317
 20
597.1598732220964
 30
0.0
  0
LINE
  5
15F
330
1F
100
AcDbEntity
  8
0
  6
Continuous
 62
     7
370
    25
100
AcDbLine
 10
521.7489694345
 20
564.1058444648
 30
0.0
 11
520.8458244111
 21
567.4071866534
 31
0.0
  0
LINE
  5
160
330
1F
100
AcDbEntity
  8
0
  6
Continuous
 62
     7
370
    25
100
AcDbLine
 10
521.7489694345
 20
564.1058444648
 30
0.0
 11
500.5287062284
 21
558.3006373655
 31
0.0
  0
LINE
  5
161
330
1F
100
AcDbEntity
  8
0
  6
Continuous
 62
     7
370
    25
100
AcDbLine
 10
500.5287062284
 20
558.3006373655
 30
0.0
 11
499.625561205
 21
561.6019795542
 31
0.0
  0
SPLINE
  5
162
330
1F
100
AcDbEntity
  8
0
  6
Continuous
 62
     7
370
    25
100
AcDbSpline
210
0.0
220
0.0
230
1.0
 70
    24
 71
     3
 72
    10
 73
     6
 74
     0
 42
0.00000001
 43
0.00000001
 40
0.0
 40
0.0
 40
0.0
 40
0.0
 40
0.5
 40
0.5
 40
1.0
 40
1.0
 40
1.0
 40
1.0
 10
521.9013166109125
 20
563.5489569795666
 30
0.0
 10
521.9013166109125
 20
563.5489569795666
 30
0.0
 10
521.887340935649
 20
563.6000434442708
 30
0.0
 10
521.834816918443
 20
563.7920389150089
 30
0.0
 10
521.7965055655211
 20
563.9320816350851
 30
0.0
 10
521.7489694344832
 20
564.105844464762
 30
0.0
  0
LINE
  5
163
330
1F
100
AcDbEntity
  8
0
  6
Continuous
 62
     7
370
    25
100
AcDbLine
 10
521.9013166109
 20
563.5489569796
 30
0.0
 11
500.6810534048
 21
557.7437498803
 31
0.0
  0
SPLINE
  5
164
330
1F
100
AcDbEntity
  8
0
  6
Continuous
 62
     7
370
    25
100
AcDbSpline
210
0.0
220
0.0
230
1.0
 70
    24
 71
     3
 72
    10
 73
     6
 74
     0
 42
0.00000001
 43
0.00000001
 40
0.0
 40
0.0
 40
0.0
 40
0.0
 40
0.5
 40
0.5
 40
1.0
 40
1.0
 40
1.0
 40
1.0
 10
500.681053404841
 20
557.7437498803282
 30
0.0
 10
500.681053404841
 20
557.7437498803282
 30
0.0
 10
500.6670777295775
 20
557.7948363450325
 30
0.0
 10
500.6145537123714
 20
557.9868318157706
 30
0.0
 10
500.5762423594496
 20
558.1268745358467
 30
0.0
 10
500.5287062284116
 20
558.3006373655237
 30
0.0
  0
ARC
  5
165
330
1F
100
AcDbEntity
  8
0
  6
Continuous
 62
     7
370
    25
100
AcDbCircle
 10
385.2312838346
 20
622.907113813
 30
0.0
 40
1.199999999999951
100
AcDbArc
 50
15.3
 51
103.3897868283
  0
SPLINE
  5
166
330
1F
100
AcDbEntity
  8
0
  6
Continuous
 62
     7
370
    25
100
AcDbSpline
210
0.0
220
0.0
230
1.0
 70
     8
 71
     3
 72
     8
 73
     4
 74
     0
 42
0.00000001
 43
0.00000001
 40
0.0
 40
0.0
 40
0.0
 40
0.0
 40
0.0000016590601283
 40
0.0000016590601283
 40
0.0000016590601283
 40
0.0000016590601283
 10
377.3939543095763
 20
620.763063074555
 30
0.0
 10
377.3941002366617
 20
620.7625296549702
 30
0.0
 10
377.3942657984038
 20
620.7620012302232
 30
0.0
 10
377.3944501636486
 20
620.7614798477414
 30
0.0
  0
LINE
  5
167
330
1F
100
AcDbEntity
  8
0
  6
Continuous
 62
     7
370
    25
100
AcDbLine
 10
386.3887527367
 20
623.223761473
 30
0.0
 11
387.3782303489
 21
619.6068404901
 31
0.0
  0
LINE
  5
168
330
1F
100
AcDbEntity
  8
0
  6
Continuous
 62
     7
370
    25
100
AcDbLine
 10
378.5535279219
 20
617.2086664329
 30
0.0
 11
378.553299862
 21
617.2094063089
 31
0.0
  0
ARC
  5
169
330
1F
100
AcDbEntity
  8
0
  6
Continuous
 62
     7
370
    25
100
AcDbCircle
 10
386.2207616114
 20
619.2901928886
 30
0.0
 40
1.199999825747613
100
AcDbArc
 50
326.9358335087
 51
15.2999993856
  0
LINE
  5
16A
330
1F
100
AcDbEntity
  8
0
  6
Continuous
 62
     7
370
    25
100
AcDbLine
 10
379.2956989721
 20
613.1488757721
 30
0.0
 11
323.1658694147
 21
597.1598732221
 31
0.0
  0
LINE
  5
16B
330
1F
100
AcDbEntity
  8
0
  6
Continuous
 62
     7
370
    25
100
AcDbLine
 10
316.981502383
 20
579.2592051753
 30
0.0
 11
316.981502383
 21
583.2592051753
 31
0.0
  0
LINE
  5
16C
330
1F
100
AcDbEntity
  8
0
  6
Continuous
 62
     7
370
    25
100
AcDbLine
 10
316.981502383
 20
575.2592051753
 30
0.0
 11
316.981502383
 21
579.2592051753
 31
0.0
  0
SPLINE
  5
16D
330
1F
100
AcDbEntity
  8
0
  6
Continuous
 62
     8
370
    18
100
AcDbSpline
210
0.0
220
0.0
230
1.0
 70
     8
 71
     3
 72
    30
 73
    26
 74
     0
 42
0.00000001
 43
0.00000001
 40
0.0
 40
0.0
 40
0.0
 40
0.0
 40
0.0227543682165217
 40
0.0452309025433259
 40
0.0674379645389452
 40
0.0893842237823886
 40
0.1110786625328024
 40
0.1325305793855801
 40
0.1537495917824843
 40
0.1747456372302496
 40
0.195528973081633
 40
0.216110174735413
 40
0.236500132117875
 40
0.3578934373440739
 40
0.480156344990473
 40
0.5420962266512364
 40
0.6064629231240456
 40
0.6714839248912069
 40
0.7374085032353506
 40
0.7705258157515885
 40
0.8036436423089971
 40
0.8368091592851034
 40
0.8696337529907556
 40
0.9356446913682013
 40
1.0
 40
1.0
 40
1.0
 40
1.0
 10
316.6315023829634
 20
588.5042014361535
 30
0.0
 10
316.630947151568
 20
588.5048899884715
 30
0.0
 10
316.6298434682271
 20
588.5062586857916
 30
0.0
 10
316.6210027194763
 20
588.51748593174
 30
0.0
 10
316.6071535927751
 20
588.5354586054211
 30
0.0
 10
316.5879980043183
 20
588.5608126349564
 30
0.0
 10
316.5638839854917
 20
588.5933810157528
 30
0.0
 10
316.5349869896393
 20
588.6332081160053
 30
0.0
 10
316.5015253856741
 20
588.6802825452264
 30
0.0
 10
316.4637029776989
 20
588.7346080363532
 30
0.0
 10
316.421726167749
 20
588.7961827697658
 30
0.0
 10
316.3757913653749
 20
588.8650121674335
 30
0.0
 10
316.2439648225176
 20
589.0668796057224
 30
0.0
 10
315.967960857215
 20
589.516430164912
 30
0.0
 10
315.551712744682
 20
590.268718735207
 30
0.0
 10
315.1730613263433
 20
591.0055704689064
 30
0.0
 10
314.8642352061256
 20
591.6295671404637
 30
0.0
 10
314.5342504574153
 20
592.315920055397
 30
0.0
 10
314.2452764853634
 20
592.9230076137973
 30
0.0
 10
314.0034652180684
 20
593.4208319202685
 30
0.0
 10
313.8153089873411
 20
593.7949503282567
 30
0.0
 10
313.620132516481
 20
594.1642605088301
 30
0.0
 10
313.3498953255738
 20
594.6515143269785
 30
0.0
 10
312.9987785552228
 20
595.2460299888451
 30
0.0
 10
312.692042128503
 20
595.7077327249558
 30
0.0
 10
312.5406216660517
 20
595.9356523188707
 30
0.0
  0
LINE
  5
16E
330
1F
100
AcDbEntity
  8
0
  6
Continuous
 62
     8
370
    18
100
AcDbLine
 10
312.5406216661
 20
602.7445686089
 30
0.0
 11
264.631502383
 21
590.2430298571
 31
0.0
  0
LINE
  5
16F
330
1F
100
AcDbEntity
  8
0
  6
Continuous
 62
     8
370
    18
100
AcDbLine
 10
312.5406216661
 20
595.9356523189
 30
0.0
 11
312.5406216661
 21
602.7445686089
 31
0.0
  0
LINE
  5
170
330
1F
100
AcDbEntity
  8
0
  6
Continuous
 62
     8
370
    18
100
AcDbLine
 10
300.4277287675
 20
565.2577469761
 30
0.0
 11
316.631502383
 21
565.2577469761
 31
0.0
  0
SPLINE
  5
171
330
1F
100
AcDbEntity
  8
0
  6
Continuous
 62
     8
370
    18
100
AcDbSpline
210
0.0
220
0.0
230
1.0
 70
     8
 71
     3
 72
    12
 73
     8
 74
     0
 42
0.00000001
 43
0.00000001
 40
0.0
 40
0.0
 40
0.0
 40
0.0
 40
0.2499999999999998
 40
0.2499999999999998
 40
0.4999999999999996
 40
0.4999999999999996
 40
1.0
 40
1.0
 40
1.0
 40
1.0
 10
291.3233882397309
 20
566.433305969119
 30
0.0
 10
292.090708477465
 20
566.2316570318137
 30
0.0
 10
292.8628261413505
 20
566.056119402635
 30
0.0
 10
294.4095077732355
 20
565.7576262573233
 30
0.0
 10
295.1768146437822
 20
565.6359851194177
 30
0.0
 10
297.4601695630776
 20
565.3477935523872
 30
0.0
 10
298.9578394389432
 20
565.2577469760919
 30
0.0
 10
300.4277287674547
 20
565.257746976092
 30
0.0
  0
LINE
  5
172
330
1F
100
AcDbEntity
  8
0
  6
Continuous
 62
     8
370
    18
100
AcDbLine
 10
264.631502383
 20
573.4478354354
 30
0.0
 11
291.3233882397
 21
566.4333059691
 31
0.0
  0
ARC
  5
173
330
1F
100
AcDbEntity
  8
0
  6
Continuous
 62
     8
370
    18
100
AcDbCircle
 10
311.3709485267
 20
602.7473049003
 30
0.0
 40
1.169676339891998
100
AcDbArc
 50
359.8659645495
 51
96.1751694883
  0
SPLINE
  5
174
330
1F
100
AcDbEntity
  8
0
  6
Continuous
 62
     8
370
    18
100
AcDbSpline
210
0.0
220
0.0
230
1.0
 70
     8
 71
     3
 72
    24
 73
    20
 74
     0
 42
0.00000001
 43
0.00000001
 40
0.0
 40
0.0
 40
0.0
 40
0.0
 40
0.02887713996786
 40
0.0577906946219115
 40
0.0868293591412957
 40
0.1160806906212981
 40
0.1456303557360833
 40
0.1755614595948641
 40
0.2059539783779484
 40
0.2368843091572129
 40
0.2684249411134165
 40
0.3925266964405993
 40
0.5225992255424398
 40
0.6444004394628446
 40
0.7655287140887941
 40
0.8256661250278146
 40
0.8845563719579456
 40
0.9425465327701642
 40
1.0
 40
1.0
 40
1.0
 40
1.0
 10
310.1995916059082
 20
528.9299682264447
 30
0.0
 10
310.2024053101202
 20
528.9920551671755
 30
0.0
 10
310.208036266685
 20
529.1163073415867
 30
0.0
 10
310.2251211398235
 20
529.3017229590357
 30
0.0
 10
310.2484984838975
 20
529.4862823354747
 30
0.0
 10
310.2787578797311
 20
529.6699310487945
 30
0.0
 10
310.3156866896565
 20
529.8526788387953
 30
0.0
 10
310.3592782594636
 20
530.0345189908594
 30
0.0
 10
310.4094512316289
 20
530.2154513822215
 30
0.0
 10
310.466156599418
 20
530.3954718750281
 30
0.0
 10
310.5904350511781
 20
530.7484001874698
 30
0.0
 10
310.818467230584
 20
531.2543529512186
 30
0.0
 10
311.1765098553061
 20
531.8295319991988
 30
0.0
 10
311.566097146566
 20
532.3127207986869
 30
0.0
 10
311.9024227919317
 20
532.6239877879008
 30
0.0
 10
312.1736725026731
 20
532.8197088436166
 30
0.0
 10
312.3750094408088
 20
532.9364263691673
 30
0.0
 10
312.5735948098742
 20
533.0252037758917
 30
0.0
 10
312.7037771852438
 20
533.0589906900822
 30
0.0
 10
312.7685657661647
 20
533.0758056100578
 30
0.0
  0
LINE
  5
175
330
1F
100
AcDbEntity
  8
0
  6
Continuous
 62
     8
370
    18
100
AcDbLine
 10
310.1995916059
 20
520.6734542229
 30
0.0
 11
310.1995916059
 21
528.9299682264
 31
0.0
  0
SPLINE
  5
176
330
1F
100
AcDbEntity
  8
0
  6
Continuous
 62
     8
370
    18
100
AcDbSpline
210
0.0
220
0.0
230
1.0
 70
     8
 71
     3
 72
    23
 73
    19
 74
     0
 42
0.00000001
 43
0.00000001
 40
0.0
 40
0.0
 40
0.0
 40
0.0
 40
0.0515414021659153
 40
0.1020767310507879
 40
0.1517422140668249
 40
0.2006813432616149
 40
0.2490440765393902
 40
0.2969857810244506
 40
0.3446659399644802
 40
0.3922466667966411
 40
0.4398910900705372
 40
0.4877616872847257
 40
0.5738614963631501
 40
0.6582913985997408
 40
0.7420796117122082
 40
0.8262778708740558
 40
0.9119228101326651
 40
1.0
 40
1.0
 40
1.0
 40
1.0
 10
311.39572986288
 20
517.7148887531813
 30
0.0
 10
311.3604014742203
 20
517.7417402222039
 30
0.0
 10
311.2904342968417
 20
517.7949190273308
 30
0.0
 10
311.1885149498765
 20
517.8848611479682
 30
0.0
 10
311.0904345960705
 20
517.9812485978938
 30
0.0
 10
310.9964270840905
 20
518.084832624823
 30
0.0
 10
310.9065756511379
 20
518.1954179403891
 30
0.0
 10
310.8209954159526
 20
518.3130552156899
 30
0.0
 10
310.7397848218744
 20
518.4377291415917
 30
0.0
 10
310.6630404742809
 20
518.5694387990119
 30
0.0
 10
310.5908445355174
 20
518.7081828473894
 30
0.0
 10
310.5055208601594
 20
518.892305995064
 30
0.0
 10
310.4138112720099
 20
519.1261042551102
 30
0.0
 10
310.3262567177595
 20
519.414708243641
 30
0.0
 10
310.260356893773
 20
519.7143485575826
 30
0.0
 10
310.2169238657343
 20
520.0248277119533
 30
0.0
 10
310.1943270340003
 20
520.3461593260294
 30
0.0
 10
310.1978204450771
 20
520.5633423445345
 30
0.0
 10
310.1995916059089
 20
520.6734542229295
 30
0.0
  0
SPLINE
  5
177
330
1F
100
AcDbEntity
  8
0
  6
Continuous
 62
     8
370
    18
100
AcDbSpline
210
0.0
220
0.0
230
1.0
 70
     8
 71
     3
 72
    35
 73
    31
 74
     0
 42
0.00000001
 43
0.00000001
 40
0.0
 40
0.0
 40
0.0
 40
0.0
 40
0.0264879596487835
 40
0.0529101150970318
 40
0.0792717523604134
 40
0.105578193936353
 40
0.1318347958887502
 40
0.1580469448336512
 40
0.184220054833535
 40
0.2103595642085076
 40
0.2364709322732588
 40
0.2625596360091753
 40
0.2886311666814499
 40
0.3146910264114283
 40
0.3407447247147638
 40
0.3667977750161977
 40
0.3928556911519512
 40
0.4189239838708146
 40
0.4450081573450222
 40
0.471113705701932
 40
0.4972461095873718
 40
0.5478871892998269
 40
0.5997569375444399
 40
0.652891664424802
 40
0.7073251484905626
 40
0.7630888080130044
 40
0.8202118662946852
 40
0.8787215095938297
 40
0.9386430367502364
 40
1.0
 40
1.0
 40
1.0
 40
1.0
 10
316.6315023829634
 20
513.1888700183123
 30
0.0
 10
316.6307006190563
 20
513.1895022200865
 30
0.0
 10
316.629099083069
 20
513.1907650530525
 30
0.0
 10
316.6161733310495
 20
513.2009531420379
 30
0.0
 10
316.5956259345871
 20
513.2172183071018
 30
0.0
 10
316.5667751142468
 20
513.2401517411137
 30
0.0
 10
316.5298979683393
 20
513.2695955909027
 30
0.0
 10
316.4850183417977
 20
513.3055920483276
 30
0.0
 10
316.4322304816424
 20
513.348129859
 30
0.0
 10
316.3716124762531
 20
513.3972120469293
 30
0.0
 10
316.3032492985258
 20
513.4528378149504
 30
0.0
 10
316.2272265559557
 20
513.5150073836362
 30
0.0
 10
316.1436320724785
 20
513.5837206955632
 30
0.0
 10
316.0525553763562
 20
513.6589777681045
 30
0.0
 10
315.9540877482871
 20
513.7407785757505
 30
0.0
 10
315.8483221214707
 20
513.8291231683987
 30
0.0
 10
315.7353530166378
 20
513.9240113158347
 30
0.0
 10
315.615276487633
 20
514.0254438122083
 30
0.0
 10
315.4881899924969
 20
514.1334176108259
 30
0.0
 10
315.3541925551426
 20
514.2479439981225
 30
0.0
 10
315.1694250822394
 20
514.4067668515945
 30
0.0
 10
314.9226673082268
 20
514.621046325675
 30
0.0
 10
314.5998487749279
 20
514.9039320337628
 30
0.0
 10
314.2447973697417
 20
515.2165144296131
 30
0.0
 10
313.8566933377999
 20
515.5588039599838
 30
0.0
 10
313.4347196465733
 20
515.9308204595511
 30
0.0
 10
312.978283699641
 20
516.3324635703788
 30
0.0
 10
312.4862196277649
 20
516.7641232723544
 30
0.0
 10
311.9598955601692
 20
517.2242872465206
 30
0.0
 10
311.5852631285326
 20
517.5500696120349
 30
0.0
 10
311.39572986288
 20
517.7148887531813
 30
0.0
  0
SPLINE
  5
178
330
1F
100
AcDbEntity
  8
0
  6
Continuous
 62
     8
370
    18
100
AcDbSpline
210
0.0
220
0.0
230
1.0
 70
     8
 71
     3
 72
    12
 73
     8
 74
     0
 42
0.00000001
 43
0.00000001
 40
0.0
 40
0.0
 40
0.0
 40
0.0
 40
0.2598423026210935
 40
0.5126685482061859
 40
0.7589677494472714
 40
0.99926882107403
 40
0.9999999999999999
 40
0.9999999999999999
 40
0.9999999999999999
 40
0.9999999999999999
 10
312.7685657661884
 20
533.0758056100245
 30
0.0
 10
313.3713980309562
 20
533.2861460053089
 30
0.0
 10
314.5607853588583
 20
533.7011473503238
 30
0.0
 10
315.7639080978693
 20
534.1280183389157
 30
0.0
 10
316.4383359324981
 20
534.3720652444352
 30
0.0
 10
316.7081158349339
 20
534.4730095194112
 30
0.0
 10
316.6310345148828
 20
534.4444974808434
 30
0.0
 10
316.6308006862699
 20
534.4444109886762
 30
0.0
  0
ARC
  5
179
330
1F
100
AcDbEntity
  8
0
  6
Continuous
 62
     8
370
    18
100
AcDbCircle
 10
286.5407613315
 20
567.5839995371
 30
0.0
 40
4.919107218850322
100
AcDbArc
 50
340.6034544028
 51
346.4718392037
  0
LWPOLYLINE
  5
17A
330
1F
100
AcDbEntity
  8
0
  6
Continuous
 62
     8
370
    18
100
AcDbPolyline
 90
        9
 70
   128
 43
0.0
 10
300.2393397985
 20
564.7577469761
 10
300.2760926631
 20
564.7673543359
 10
300.3114331358
 20
564.7958072098
 10
300.3440031019
 20
564.8420121699
 10
300.372550916
 20
564.9041935855
 10
300.3959795015
 20
564.9799618596
 10
300.4133885111
 20
565.0664052599
 10
300.4241089262
 20
565.1602018151
 10
300.4277287675
 20
565.2577469761
  0
LINE
  5
17B
330
1F
100
AcDbEntity
  8
0
  6
Continuous
 62
     8
370
    18
100
AcDbLine
 10
290.631502383
 20
561.6664731793
 30
0.0
 11
264.7840198942
 21
561.6664731793
 31
0.0
  0
LINE
  5
17C
330
1F
100
AcDbEntity
  8
0
  6
Continuous
 62
     8
370
    18
100
AcDbLine
 10
316.4789848717
 20
561.6664731793
 30
0.0
 11
290.631502383
 21
561.6664731793
 31
0.0
  0
SPLINE
  5
17D
330
1F
100
AcDbEntity
  8
0
  6
Continuous
 62
     8
370
    18
100
AcDbSpline
210
0.0
220
0.0
230
1.0
 70
     8
 71
     3
 72
    26
 73
    22
 74
     0
 42
0.00000001
 43
0.00000001
 40
0.0
 40
0.0
 40
0.0
 40
0.0
 40
0.1249999999999997
 40
0.1249999999999997
 40
0.1874999999999993
 40
0.1874999999999993
 40
0.2499999999999989
 40
0.2499999999999989
 40
0.3749999999999993
 40
0.3749999999999993
 40
0.4374999999999991
 40
0.4374999999999991
 40
0.4999999999999988
 40
0.4999999999999988
 40
0.6249999999999991
 40
0.6249999999999991
 40
0.7499999999999994
 40
0.7499999999999994
 40
0.8749999999999997
 40
0.8749999999999997
 40
1.0
 40
1.0
 40
1.0
 40
1.0
 10
384.9533870192946
 20
624.0744926547321
 30
0.0
 10
384.9533879031534
 20
624.0744928651364
 30
0.0
 10
384.9151457099642
 20
624.0640309535472
 30
0.0
 10
384.7896178275763
 20
624.0296903637909
 30
0.0
 10
384.7363738475403
 20
624.0151244434251
 30
0.0
 10
384.6046313740077
 20
623.9790837496122
 30
0.0
 10
384.5255483828005
 20
623.9574490756856
 30
0.0
 10
384.2509600316492
 20
623.8823301561251
 30
0.0
 10
384.0190207879645
 20
623.8188787277796
 30
0.0
 10
383.5942267305901
 20
623.702668176899
 30
0.0
 10
383.4388397096761
 20
623.6601590825805
 30
0.0
 10
383.1060545209513
 20
623.5691193255497
 30
0.0
 10
382.929657125629
 20
623.520862443209
 30
0.0
 10
382.3721195622422
 20
623.3683373784099
 30
0.0
 10
381.9615343845158
 20
623.2560139528339
 30
0.0
 10
381.0743511612409
 20
623.0133080245985
 30
0.0
 10
380.6088722562178
 20
622.8859673745725
 30
0.0
 10
379.638571806685
 20
622.6205231462816
 30
0.0
 10
379.1294973232468
 20
622.481256095584
 30
0.0
 10
378.1046217096652
 20
622.200881791884
 30
0.0
 10
377.5862283545551
 20
622.0590653863782
 30
0.0
 10
377.0608936326256
 20
621.9153500377929
 30
0.0
  0
LINE
  5
17E
330
1F
100
AcDbEntity
  8
0
  6
Continuous
 62
     8
370
    18
100
AcDbLine
 10
377.0608949426
 20
621.9153508864
 30
0.0
 11
376.9031915698
 21
621.8722081256
 31
0.0
  0
LINE
  5
17F
330
1F
100
AcDbEntity
  8
0
  6
Continuous
 62
     8
370
    18
100
AcDbLine
 10
376.9031915698
 20
621.8722081256
 30
0.0
 11
319.7548639007
 21
606.2381948114
 31
0.0
  0
LINE
  5
180
330
1F
100
AcDbEntity
  8
0
  6
Continuous
 62
     8
370
    18
100
AcDbLine
 10
266.7997269313
 20
562.4482579668
 30
0.0
 11
314.4632778346
 21
562.4482579668
 31
0.0
  0
SPLINE
  5
181
330
1F
100
AcDbEntity
  8
0
  6
Continuous
 62
     8
370
    18
100
AcDbSpline
210
0.0
220
0.0
230
1.0
 70
     8
 71
     3
 72
    26
 73
    22
 74
     0
 42
0.00000001
 43
0.00000001
 40
0.0
 40
0.0
 40
0.0
 40
0.0
 40
0.1249999999999995
 40
0.1249999999999995
 40
0.249999999999999
 40
0.249999999999999
 40
0.3749999999999985
 40
0.3749999999999985
 40
0.499999999999998
 40
0.499999999999998
 40
0.5624999999999987
 40
0.5624999999999987
 40
0.6249999999999992
 40
0.6249999999999992
 40
0.7500000000000008
 40
0.7500000000000008
 40
0.8125000000000006
 40
0.8125000000000006
 40
0.8750000000000002
 40
0.8750000000000002
 40
1.0
 40
1.0
 40
1.0
 40
1.0
 10
502.1092707085284
 20
569.6033445348988
 30
0.0
 10
501.4706709652725
 20
569.1325813871113
 30
0.0
 10
500.8798614409961
 20
568.645456510502
 30
0.0
 10
499.771937912877
 20
567.6592535496732
 30
0.0
 10
499.2549671071966
 20
567.1600571087273
 30
0.0
 10
498.2825977475328
 20
566.1673334782639
 30
0.0
 10
497.8347137782678
 20
565.681483767611
 30
0.0
 10
497.0068873751882
 20
564.7493351413335
 30
0.0
 10
496.62651146361
 20
564.3024475863194
 30
0.0
 10
496.103760673006
 20
563.6736831503187
 30
0.0
 10
495.9379148813866
 20
563.4714837200572
 30
0.0
 10
495.6268218393553
 20
563.0887721966234
 30
0.0
 10
495.4809661098702
 20
562.9075290421807
 30
0.0
 10
495.0723339244864
 20
562.3967862001884
 30
0.0
 10
494.838198333902
 20
562.1001135900839
 30
0.0
 10
494.5488090019579
 20
561.7335928026826
 30
0.0
 10
494.4636002730984
 20
561.6256565736137
 30
0.0
 10
494.3174320629443
 20
561.4409457876476
 30
0.0
 10
494.2561533411721
 20
561.363765320562
 30
0.0
 10
494.1080350156913
 20
561.1780477469844
 30
0.0
 10
494.056622353496
 20
561.1152351978083
 30
0.0
 10
494.056622353496
 20
561.1152351978084
 30
0.0
  0
SPLINE
  5
182
330
1F
100
AcDbEntity
  8
0
  6
Continuous
 62
     8
370
    18
100
AcDbSpline
210
0.0
220
0.0
230
1.0
 70
     8
 71
     3
 72
    16
 73
    12
 74
     0
 42
0.00000001
 43
0.00000001
 40
0.0
 40
0.0
 40
0.0
 40
0.0
 40
0.5000000000000038
 40
0.5000000000000038
 40
0.7500000000000058
 40
0.7500000000000058
 40
0.8750000000000029
 40
0.8750000000000029
 40
0.9375000000000016
 40
0.9375000000000016
 40
1.0
 40
1.0
 40
1.0
 40
1.0
 10
502.1092707085284
 20
569.6033445348988
 30
0.0
 10
503.0339552546312
 20
570.2850037623433
 30
0.0
 10
503.9349313684068
 20
571.0412722717356
 30
0.0
 10
505.2894796498407
 20
572.2286728799636
 30
0.0
 10
505.7411794599493
 20
572.6339056254859
 30
0.0
 10
506.4223558572983
 20
573.2517108762428
 30
0.0
 10
506.6499243694329
 20
573.4592352603448
 30
0.0
 10
506.9906806144432
 20
573.7708115115937
 30
0.0
 10
507.1042455426088
 20
573.8747905440971
 30
0.0
 10
507.3314036741417
 20
574.0829129960849
 30
0.0
 10
507.4460776092158
 20
574.1880473697429
 30
0.0
 10
507.5584200579283
 20
574.2910440275841
 30
0.0
  0
SPLINE
  5
183
330
1F
100
AcDbEntity
  8
0
  6
Continuous
 62
     8
370
    18
100
AcDbSpline
210
0.0
220
0.0
230
1.0
 70
     8
 71
     3
 72
    17
 73
    13
 74
     0
 42
0.00000001
 43
0.00000001
 40
0.0
 40
0.0
 40
0.0
 40
0.0
 40
0.0736218645417739
 40
0.1793740881813052
 40
0.2881903805768816
 40
0.3939730313465465
 40
0.502818933472019
 40
0.6086792007571665
 40
0.7176093474107983
 40
0.8234733920444876
 40
0.9324110714802901
 40
1.0
 40
1.0
 40
1.0
 40
1.0
 10
521.245161696509
 20
586.5906195873761
 30
0.0
 10
521.2449049557928
 20
586.5905357123912
 30
0.0
 10
521.2442794265139
 20
586.590331357353
 30
0.0
 10
520.7279761980282
 20
586.4295725837926
 30
0.0
 10
519.7882880183712
 20
586.1387285201376
 30
0.0
 10
518.4155108868147
 20
585.7177205224992
 30
0.0
 10
516.6934804576268
 20
585.196127117591
 30
0.0
 10
514.6327299032467
 20
584.581498425618
 30
0.0
 10
512.3287071847802
 20
583.906474895469
 30
0.0
 10
509.8044391817944
 20
583.1819923767133
 30
0.0
 10
507.4891195093836
 20
582.5310360306793
 30
0.0
 10
506.0196140304581
 20
582.1272629346919
 30
0.0
 10
505.4569662691674
 20
581.9726653290451
 30
0.0
  0
LINE
  5
184
330
1F
100
AcDbEntity
  8
0
  6
Continuous
 62
     8
370
    18
100
AcDbLine
 10
494.2149461835
 20
560.5365007467
 30
0.0
 11
526.0453409926
 21
569.2443113956
 31
0.0
  0
SPLINE
  5
185
330
1F
100
AcDbEntity
  8
0
  6
Continuous
 62
     8
370
    18
100
AcDbSpline
210
0.0
220
0.0
230
1.0
 70
     8
 71
     3
 72
    20
 73
    16
 74
     0
 42
0.00000001
 43
0.00000001
 40
0.0
 40
0.0
 40
0.0
 40
0.0
 40
0.0563038304495105
 40
0.111724994968726
 40
0.1664174716781046
 40
0.2205414582192257
 40
0.2742622382596544
 40
0.3277488335500719
 40
0.3811724886283442
 40
0.4347050520513181
 40
0.4885173289953603
 40
0.6033274934835257
 40
0.7261519744438816
 40
0.8580823087454789
 40
1.0
 40
1.0
 40
1.0
 40
1.0
 10
311.5655211517006
 20
520.6734542229148
 30
0.0
 10
311.5624045904128
 20
520.6305324818674
 30
0.0
 10
311.5562203256581
 20
520.5453618768788
 30
0.0
 10
311.5552281649296
 20
520.4183867684897
 30
0.0
 10
311.5603677998123
 20
520.2937895396956
 30
0.0
 10
311.5721296138655
 20
520.1718053153514
 30
0.0
 10
311.5902892548477
 20
520.0527317817517
 30
0.0
 10
311.61481045228
 20
519.936847587514
 30
0.0
 10
311.6456063950072
 20
519.8244357724449
 30
0.0
 10
311.6826063329405
 20
519.7157644963605
 30
0.0
 10
311.7418822571507
 20
519.5719327554142
 30
0.0
 10
311.8356059861075
 20
519.3973689938745
 30
0.0
 10
311.9755356762547
 20
519.2044223883544
 30
0.0
 10
312.1422590045999
 20
519.0269940585858
 30
0.0
 10
312.2675284797849
 20
518.9335661151956
 30
0.0
 10
312.3324475335805
 20
518.8851484645746
 30
0.0
  0
LINE
  5
186
330
1F
100
AcDbEntity
  8
0
  6
Continuous
 62
     8
370
    18
100
AcDbLine
 10
311.5655211517
 20
520.6734542229
 30
0.0
 11
507.5584200579
 21
574.2910440276
 31
0.0
  0
LINE
  5
187
330
1F
100
AcDbEntity
  8
0
  6
Continuous
 62
     8
370
    18
100
AcDbLine
 10
501.2347842709
 20
570.5629799618
 30
0.0
 11
312.3324475336
 21
518.8851484646
 31
0.0
  0
LINE
  5
188
330
1F
100
AcDbEntity
  8
0
  6
Continuous
 62
     8
370
    18
100
AcDbLine
 10
311.5655211517
 20
528.9299682264
 30
0.0
 11
311.5655211517
 21
520.6734542229
 31
0.0
  0
SPLINE
  5
189
330
1F
100
AcDbEntity
  8
0
  6
Continuous
 62
     8
370
    18
100
AcDbSpline
210
0.0
220
0.0
230
1.0
 70
     8
 71
     3
 72
    24
 73
    20
 74
     0
 42
0.00000001
 43
0.00000001
 40
0.0
 40
0.0
 40
0.0
 40
0.0
 40
0.0363183907851009
 40
0.0751218601797025
 40
0.11642160720405
 40
0.1602269069237058
 40
0.2065455198874976
 40
0.2553839992439104
 40
0.3415663784588101
 40
0.4281310523610985
 40
0.5150799720815717
 40
0.591502979127918
 40
0.663196095180969
 40
0.730237971818879
 40
0.7927248529396494
 40
0.8507756697962111
 40
0.9045388296443205
 40
0.9542012228893855
 40
1.0
 40
1.0
 40
1.0
 40
1.0
 10
313.8469936364311
 20
532.1437466381861
 30
0.0
 10
313.8124542857436
 20
532.1314821612591
 30
0.0
 10
313.7410122362213
 20
532.1061140130294
 30
0.0
 10
313.6296624045806
 20
532.0556585856848
 30
0.0
 10
313.5112163687778
 20
531.9933080474458
 30
0.0
 10
313.3858995031241
 20
531.9169841873237
 30
0.0
 10
313.254125332659
 20
531.8257425358881
 30
0.0
 10
313.0831054942831
 20
531.6928799163846
 30
0.0
 10
312.8781526138424
 20
531.507713049803
 30
0.0
 10
312.6459438903054
 20
531.2588309430353
 30
0.0
 10
312.4269779288207
 20
530.9921183667179
 30
0.0
 10
312.2305709144736
 20
530.7180637363753
 30
0.0
 10
312.066044357154
 20
530.4464036369653
 30
0.0
 10
311.9257944480815
 20
530.1751581941916
 30
0.0
 10
311.8092614206357
 20
529.9078711317918
 30
0.0
 10
311.7152546901731
 20
529.6478182160794
 30
0.0
 10
311.6436930662387
 20
529.3976787323845
 30
0.0
 10
311.5917452445157
 20
529.1599459479706
 30
0.0
 10
311.5740234299699
 20
529.0045307517527
 30
0.0
 10
311.5655211516995
 20
528.9299682264382
 30
0.0
  0
LINE
  5
18A
330
1F
100
AcDbEntity
  8
0
  6
Continuous
 62
     8
370
    18
100
AcDbLine
 10
505.4569662692
 20
581.972665329
 30
0.0
 11
311.5655211517
 21
528.9299682264
 31
0.0
  0
LINE
  5
18B
330
1F
100
AcDbEntity
  8
0
  6
Continuous
 62
     8
370
    18
100
AcDbLine
 10
313.8469936364
 20
532.1437466382
 30
0.0
 11
504.7978497297
 21
584.3819896154
 31
0.0
  0
SPLINE
  5
18C
330
1F
100
AcDbEntity
  8
0
  6
Continuous
 62
     8
370
    18
100
AcDbSpline
210
0.0
220
0.0
230
1.0
 70
     8
 71
     3
 72
    33
 73
    29
 74
     0
 42
0.00000001
 43
0.00000001
 40
0.0
 40
0.0
 40
0.0
 40
0.0
 40
0.0325268008395072
 40
0.0648546707885014
 40
0.0969930393599327
 40
0.1289519398699902
 40
0.1607420242383275
 40
0.1923745763042296
 40
0.2238615234184627
 40
0.2552154460655734
 40
0.2864495852704619
 40
0.3175778475472075
 40
0.3486148071577954
 40
0.3795757054642253
 40
0.4104764471799059
 40
0.4413335933553547
 40
0.4721643509691423
 40
0.5029865590372739
 40
0.554595580817982
 40
0.6055379968017184
 40
0.655908363201906
 40
0.7057997077628285
 40
0.7553030960578537
 40
0.8045072105784576
 40
0.8534979540637088
 40
0.9023580875355145
 40
0.9511669119104001
 40
1.0
 40
1.0
 40
1.0
 40
1.0
 10
312.3324475335805
 20
518.8851484645746
 30
0.0
 10
312.4328218024838
 20
518.7978545774134
 30
0.0
 10
312.632956460592
 20
518.623800684391
 30
0.0
 10
312.924328752142
 20
518.3694706624483
 30
0.0
 10
313.2079593550168
 20
518.1213279124318
 30
0.0
 10
313.4832582032764
 20
517.8799209784206
 30
0.0
 10
313.7503323371117
 20
517.6452850488702
 30
0.0
 10
314.0091033291628
 20
517.4175926098903
 30
0.0
 10
314.2595417678991
 20
517.1969805791863
 30
0.0
 10
314.5016049329683
 20
516.9835962544253
 30
0.0
 10
314.7352533678289
 20
516.7775850920885
 30
0.0
 10
314.9604464814734
 20
516.5790939630944
 30
0.0
 10
315.1771436877987
 20
516.388270263384
 30
0.0
 10
315.3853042331679
 20
516.2052622228632
 30
0.0
 10
315.5848867729155
 20
516.0302185381677
 30
0.0
 10
315.7758512537334
 20
515.8632895091501
 30
0.0
 10
315.9581518462117
 20
515.7046228404022
 30
0.0
 10
316.1707654164554
 20
515.5206268090105
 30
0.0
 10
316.4040761218638
 20
515.3205115955611
 30
0.0
 10
316.6457410643533
 20
515.1154089624215
 30
0.0
 10
316.8582933490306
 20
514.9369676809539
 30
0.0
 10
317.041902138182
 20
514.7845088881702
 30
0.0
 10
317.1967674736777
 20
514.6573457011865
 30
0.0
 10
317.3230229337385
 20
514.554843325515
 30
0.0
 10
317.4210335138216
 20
514.4761933161063
 30
0.0
 10
317.490306931386
 20
514.4212522742695
 30
0.0
 10
317.5335380141612
 20
514.387422790069
 30
0.0
 10
317.5388628366307
 20
514.38333230111
 30
0.0
 10
317.5415259094664
 20
514.3812865483935
 30
0.0
  0
SPLINE
  5
18D
330
1F
100
AcDbEntity
  8
0
  6
Continuous
 62
     8
370
    18
100
AcDbSpline
210
0.0
220
0.0
230
1.0
 70
     8
 71
     3
 72
    31
 73
    27
 74
     0
 42
0.00000001
 43
0.00000001
 40
0.0
 40
0.0
 40
0.0
 40
0.0
 40
0.0156249999999999
 40
0.0156249999999999
 40
0.0312499999999997
 40
0.0624999999999995
 40
0.0624999999999995
 40
0.1249999999999995
 40
0.1249999999999995
 40
0.1874999999999994
 40
0.1874999999999994
 40
0.2499999999999993
 40
0.2499999999999993
 40
0.3749999999999982
 40
0.3749999999999982
 40
0.4374999999999984
 40
0.4374999999999984
 40
0.4999999999999986
 40
0.4999999999999986
 40
0.6249999999999989
 40
0.6249999999999989
 40
0.7499999999999992
 40
0.7499999999999992
 40
0.8749999999999997
 40
0.8749999999999997
 40
1.0
 40
1.0
 40
1.0
 40
1.0
 10
492.2139766508612
 20
562.1662617505469
 30
0.0
 10
492.2139768472082
 20
562.1662618042615
 30
0.0
 10
492.2149000617338
 20
562.1672450365122
 30
0.0
 10
492.2185698291594
 20
562.17116889411
 30
0.0
 10
492.2268094880876
 20
562.1799907874247
 30
0.0
 10
492.2431542380058
 20
562.1975817061385
 30
0.0
 10
492.2864391910149
 20
562.2443688194522
 30
0.0
 10
492.3294059799569
 20
562.2910289364771
 30
0.0
 10
492.4428705628353
 20
562.4149591922186
 30
0.0
 10
492.5133692607478
 20
562.4922303467735
 30
0.0
 10
492.6817496997106
 20
562.6772057739969
 30
0.0
 10
492.7800939133083
 20
562.7854200414115
 30
0.0
 10
493.1135472621638
 20
563.1520758640283
 30
0.0
 10
493.3833096527648
 20
563.4485591292959
 30
0.0
 10
493.8530470235149
 20
563.9581382414524
 30
0.0
 10
494.0205535372021
 20
564.1388476556191
 30
0.0
 10
494.3772768409794
 20
564.520130711976
 30
0.0
 10
494.5672496737203
 20
564.7214925471825
 30
0.0
 10
495.1635971728095
 20
565.3458113277962
 30
0.0
 10
495.5958395833927
 20
565.7886476926058
 30
0.0
 10
496.5308869037748
 20
566.710380982967
 30
0.0
 10
497.0347918975991
 20
567.1903795304631
 30
0.0
 10
498.1178097662006
 20
568.1668477970198
 30
0.0
 10
498.6899020140037
 20
568.6570173432124
 30
0.0
 10
499.9049864004897
 20
569.6243307431787
 30
0.0
 10
500.5479002998514
 20
570.1015603287519
 30
0.0
 10
501.2347842709115
 20
570.5629799618057
 30
0.0
  0
SPLINE
  5
18E
330
1F
100
AcDbEntity
  8
0
  6
Continuous
 62
     8
370
    18
100
AcDbSpline
210
0.0
220
0.0
230
1.0
 70
     8
 71
     3
 72
    12
 73
     8
 74
     0
 42
0.00000001
 43
0.00000001
 40
0.0
 40
0.0
 40
0.0
 40
0.0
 40
0.0007373128984327
 40
0.2501260329999018
 40
0.50025981069927
 40
0.7492529279454428
 40
1.0
 40
1.0
 40
1.0
 40
1.0
 10
317.8231671819673
 20
533.5343795284036
 30
0.0
 10
317.8234177779341
 20
533.5344686823231
 30
0.0
 10
317.9084299555008
 20
533.5647132586103
 30
0.0
 10
317.6150827289454
 20
533.4600289719899
 30
0.0
 10
316.8881083410515
 20
533.2028530844076
 30
0.0
 10
315.6459188648552
 20
532.7651019800942
 30
0.0
 10
314.4480367947817
 20
532.3513491395319
 30
0.0
 10
313.84699363642
 20
532.1437466381792
 30
0.0
  0
SPLINE
  5
18F
330
1F
100
AcDbEntity
  8
0
  6
Continuous
 62
     8
370
    18
100
AcDbSpline
210
0.0
220
0.0
230
1.0
 70
     8
 71
     3
 72
    24
 73
    20
 74
     0
 42
0.00000001
 43
0.00000001
 40
0.0
 40
0.0
 40
0.0
 40
0.0
 40
0.125000000000002
 40
0.125000000000002
 40
0.2500000000000039
 40
0.2500000000000039
 40
0.3750000000000059
 40
0.3750000000000059
 40
0.4375000000000066
 40
0.4375000000000066
 40
0.5000000000000072
 40
0.5000000000000072
 40
0.6250000000000054
 40
0.6250000000000054
 40
0.7500000000000036
 40
0.7500000000000036
 40
0.8750000000000018
 40
0.8750000000000018
 40
1.0
 40
1.0
 40
1.0
 40
1.0
 10
320.2794700188371
 20
599.9540225710299
 30
0.0
 10
319.8623501023981
 20
599.8375340879691
 30
0.0
 10
319.4412092445102
 20
599.7234556272497
 30
0.0
 10
318.6099306874131
 20
599.4871382342659
 30
0.0
 10
318.1977931448429
 20
599.3649161120378
 30
0.0
 10
317.3853269047873
 20
599.1026327808813
 30
0.0
 10
316.9863273531536
 20
598.9642113314594
 30
0.0
 10
316.4157544585931
 20
598.7483166617307
 30
0.0
 10
316.2288992859168
 20
598.6744660174015
 30
0.0
 10
315.8695784519233
 20
598.5253275753417
 30
0.0
 10
315.6965416137767
 20
598.4498701758
 30
0.0
 10
315.1962519480026
 20
598.2187971827688
 30
0.0
 10
314.8878310559622
 20
598.0576698641868
 30
0.0
 10
314.3127254659161
 20
597.7077091411795
 30
0.0
 10
314.0460612861938
 20
597.5189484845425
 30
0.0
 10
313.556880669636
 20
597.1177951991328
 30
0.0
 10
313.3326674788317
 20
596.9046229888575
 30
0.0
 10
312.9163864192357
 20
596.446653744344
 30
0.0
 10
312.7249830637313
 20
596.2008515880464
 30
0.0
 10
312.540621666056
 20
595.9356523188954
 30
0.0
  0
SPLINE
  5
190
330
1F
100
AcDbEntity
  8
0
  6
Continuous
 62
     8
370
    18
100
AcDbSpline
210
0.0
220
0.0
230
1.0
 70
     8
 71
     3
 72
    24
 73
    20
 74
     0
 42
0.00000001
 43
0.00000001
 40
0.0
 40
0.0
 40
0.0
 40
0.0
 40
0.1250000000000004
 40
0.1250000000000004
 40
0.2500000000000008
 40
0.2500000000000008
 40
0.3750000000000012
 40
0.3750000000000012
 40
0.5000000000000016
 40
0.5000000000000016
 40
0.5625000000000014
 40
0.5625000000000014
 40
0.6250000000000012
 40
0.6250000000000012
 40
0.7500000000000009
 40
0.7500000000000009
 40
0.8750000000000004
 40
0.8750000000000004
 40
1.0
 40
1.0
 40
1.0
 40
1.0
 10
312.5406216660477
 20
595.9356523188694
 30
0.0
 10
312.7263304062102
 20
596.2047740736984
 30
0.0
 10
312.9080800670965
 20
596.4739455517318
 30
0.0
 10
313.3029212156029
 20
596.9998753549304
 30
0.0
 10
313.5147030661754
 20
597.2556229087589
 30
0.0
 10
313.9786822327591
 20
597.7509864490611
 30
0.0
 10
314.232179755916
 20
597.9922672672911
 30
0.0
 10
314.7809040596717
 20
598.4555041488472
 30
0.0
 10
315.0759635976437
 20
598.6779422862323
 30
0.0
 10
315.5566438476755
 20
598.9990448148085
 30
0.0
 10
315.7232725929939
 20
599.1039028918564
 30
0.0
 10
316.0705023947326
 20
599.3084839321317
 30
0.0
 10
316.2518476645374
 20
599.4085559495346
 30
0.0
 10
316.8033023807187
 20
599.6938483751015
 30
0.0
 10
317.1846366068942
 20
599.8666447367958
 30
0.0
 10
317.9693424253231
 20
600.1844535134179
 30
0.0
 10
318.372748446496
 20
600.3295141335453
 30
0.0
 10
319.195427298126
 20
600.5989209040018
 30
0.0
 10
319.6145154685663
 20
600.7227023212982
 30
0.0
 10
320.0339959289278
 20
600.840398875459
 30
0.0
  0
SPLINE
  5
191
330
1F
100
AcDbEntity
  8
0
  6
Continuous
 62
     8
370
    18
100
AcDbSpline
210
0.0
220
0.0
230
1.0
 70
     8
 71
     3
 72
    26
 73
    22
 74
     0
 42
0.00000001
 43
0.00000001
 40
0.0
 40
0.0
 40
0.0
 40
0.0
 40
0.1250000000000002
 40
0.1250000000000002
 40
0.2500000000000004
 40
0.2500000000000004
 40
0.3750000000000006
 40
0.3750000000000006
 40
0.5000000000000008
 40
0.5000000000000008
 40
0.625000000000001
 40
0.625000000000001
 40
0.7500000000000011
 40
0.7500000000000011
 40
0.8750000000000013
 40
0.8750000000000013
 40
0.9375000000000011
 40
0.9375000000000011
 40
0.9687500000000007
 40
0.9687500000000007
 40
1.0
 40
1.0
 40
1.0
 40
1.0
 10
320.0774238972536
 20
605.0813158197244
 30
0.0
 10
319.6971621227346
 20
604.9772879699486
 30
0.0
 10
319.3184244514081
 20
604.8684500217274
 30
0.0
 10
318.5660431532252
 20
604.645581368625
 30
0.0
 10
318.192344181438
 20
604.5316042654661
 30
0.0
 10
317.4514149366386
 20
604.3008715686099
 30
0.0
 10
317.0841782848437
 20
604.1840166586136
 30
0.0
 10
316.3579392418978
 20
603.9487619761417
 30
0.0
 10
316.0085029595272
 20
603.833368573787
 30
0.0
 10
315.3444914809483
 20
603.6132701963153
 30
0.0
 10
315.0278588691539
 20
603.508471772809
 30
0.0
 10
314.4302830118271
 20
603.3150439482358
 30
0.0
 10
314.1557096954054
 20
603.2280451245339
 30
0.0
 10
313.6434778458809
 20
603.0680949762913
 30
0.0
 10
313.4062272895556
 20
602.9951162324974
 30
0.0
 10
313.07111683999
 20
602.8943946469727
 30
0.0
 10
312.9627926856314
 20
602.8622805218384
 30
0.0
 10
312.8034994091482
 20
602.8164396796669
 30
0.0
 10
312.7509079732831
 20
602.8015470775547
 30
0.0
 10
312.6459122304403
 20
602.7725107661093
 30
0.0
 10
312.5928629624252
 20
602.7582006662357
 30
0.0
 10
312.5406216660518
 20
602.7445686088629
 30
0.0
  0
SPLINE
  5
192
330
1F
100
AcDbEntity
  8
0
  6
Continuous
 62
     8
370
    18
100
AcDbSpline
210
0.0
220
0.0
230
1.0
 70
     8
 71
     3
 72
    11
 73
     7
 74
     0
 42
0.00000001
 43
0.00000001
 40
0.0
 40
0.0
 40
0.0
 40
0.0
 40
0.0000001009166611
 40
0.0000001009166611
 40
0.0000001009166611
 40
0.0000450792145548
 40
0.0000450792145548
 40
0.0000450792145548
 40
0.0000450792145548
 10
320.0340158796486
 20
600.8403277689093
 30
0.0
 10
320.0340482673575
 20
600.8403368563469
 30
0.0
 10
320.0340806550751
 20
600.8403459437535
 30
0.0
 10
320.0341130428016
 20
600.8403550311284
 30
0.0
 10
320.048548168231
 20
600.8444052504939
 30
0.0
 10
320.0629850437287
 20
600.8484492575266
 30
0.0
 10
320.0774238972535
 20
600.8524861843799
 30
0.0
  0
SPLINE
  5
193
330
1F
100
AcDbEntity
  8
0
  6
Continuous
 62
     8
370
    18
100
AcDbSpline
210
0.0
220
0.0
230
1.0
 70
     8
 71
     3
 72
    30
 73
    26
 74
     0
 42
0.00000001
 43
0.00000001
 40
0.0
 40
0.0
 40
0.0
 40
0.0
 40
0.0312499999999997
 40
0.0312499999999997
 40
0.0624999999999994
 40
0.0624999999999994
 40
0.1249999999999991
 40
0.1249999999999991
 40
0.1874999999999988
 40
0.1874999999999988
 40
0.2499999999999984
 40
0.2499999999999984
 40
0.3749999999999974
 40
0.3749999999999974
 40
0.4374999999999968
 40
0.4374999999999968
 40
0.4999999999999963
 40
0.4999999999999963
 40
0.6249999999999971
 40
0.6249999999999971
 40
0.7499999999999981
 40
0.7499999999999981
 40
0.874999999999999
 40
0.874999999999999
 40
1.0
 40
1.0
 40
1.0
 40
1.0
 10
386.3887527367059
 20
623.2237614729825
 30
0.0
 10
386.388752736907
 20
623.2237614722477
 30
0.0
 10
386.3859257776848
 20
623.2229881045084
 30
0.0
 10
386.3744182303274
 20
623.2198399957895
 30
0.0
 10
386.3657377420354
 20
623.2174652829141
 30
0.0
 10
386.3305875334622
 20
623.2078492739906
 30
0.0
 10
386.2950224427773
 20
623.1981197661648
 30
0.0
 10
386.197594109567
 20
623.1714663902793
 30
0.0
 10
386.135736294351
 20
623.1545440069638
 30
0.0
 10
385.9832040920241
 20
623.1128159183339
 30
0.0
 10
385.8918589301377
 20
623.0878267098066
 30
0.0
 10
385.5762170264033
 20
623.0014768562452
 30
0.0
 10
385.3108287493051
 20
622.9288748392341
 30
0.0
 10
384.827011254314
 20
622.7965173501032
 30
0.0
 10
384.6503560922649
 20
622.7481899664657
 30
0.0
 10
384.2724124405036
 20
622.6447962833145
 30
0.0
 10
384.0722468516295
 20
622.590037174708
 30
0.0
 10
383.4398584720989
 20
622.4170352908634
 30
0.0
 10
382.9749757655441
 20
622.2898577736856
 30
0.0
 10
381.9678719283762
 20
622.0143453406671
 30
0.0
 10
381.4392406103628
 20
621.8697281768552
 30
0.0
 10
380.3366110445131
 20
621.5680828616515
 30
0.0
 10
379.758095140101
 20
621.4098188192736
 30
0.0
 10
378.5892007901475
 20
621.0900455104924
 30
0.0
 10
377.9963462816624
 20
620.9278588699194
 30
0.0
 10
377.3939543095762
 20
620.7630630745555
 30
0.0
  0
SPLINE
  5
194
330
1F
100
AcDbEntity
  8
0
  6
Continuous
 62
     8
370
    18
100
AcDbSpline
210
0.0
220
0.0
230
1.0
 70
     8
 71
     3
 72
    30
 73
    26
 74
     0
 42
0.00000001
 43
0.00000001
 40
0.0
 40
0.0
 40
0.0
 40
0.0
 40
0.1249999999999992
 40
0.1249999999999992
 40
0.1874999999999989
 40
0.1874999999999989
 40
0.2499999999999986
 40
0.2499999999999986
 40
0.3749999999999977
 40
0.3749999999999977
 40
0.4999999999999969
 40
0.4999999999999969
 40
0.5624999999999969
 40
0.5624999999999969
 40
0.624999999999997
 40
0.624999999999997
 40
0.749999999999998
 40
0.749999999999998
 40
0.8124999999999984
 40
0.8124999999999984
 40
0.874999999999999
 40
0.874999999999999
 40
0.9374999999999994
 40
0.9374999999999994
 40
1.0
 40
1.0
 40
1.0
 40
1.0
 10
378.5532998620427
 20
617.2094063088674
 30
0.0
 10
379.1474851097346
 20
617.3733069383734
 30
0.0
 10
379.732906127493
 20
617.531243829229
 30
0.0
 10
380.597861078473
 20
617.76512926218
 30
0.0
 10
380.8850500301083
 20
617.8427789114207
 30
0.0
 10
381.4491182476956
 20
617.9953786160369
 30
0.0
 10
381.7255325145956
 20
618.0701985702445
 30
0.0
 10
382.538043266392
 20
618.289800964804
 30
0.0
 10
383.0584362387981
 20
618.4298804452002
 30
0.0
 10
384.0464848910154
 20
618.6958407781375
 30
0.0
 10
384.5007238464802
 20
618.818038134775
 30
0.0
 10
385.1190713360226
 20
618.9875583048264
 30
0.0
 10
385.3146270973634
 20
619.0417464971206
 30
0.0
 10
385.6838247479438
 20
619.1439424896164
 30
0.0
 10
385.8555955802435
 20
619.1914199023223
 30
0.0
 10
386.3271660536194
 20
619.3207206861184
 30
0.0
 10
386.5864178083752
 20
619.3898172186143
 30
0.0
 10
386.8943523247299
 20
619.4734049307918
 30
0.0
 10
386.9832179095891
 20
619.4979756530757
 30
0.0
 10
387.131635475297
 20
619.5391808106169
 30
0.0
 10
387.1918263972986
 20
619.5559891422746
 30
0.0
 10
387.2866925429827
 20
619.5823147392642
 30
0.0
 10
387.3213622651211
 20
619.5918322782452
 30
0.0
 10
387.3671163970373
 20
619.604155743072
 30
0.0
 10
387.3781971628198
 20
619.6069602255436
 30
0.0
 10
387.3782303488839
 20
619.606840490151
 30
0.0
  0
SPLINE
  5
195
330
1F
100
AcDbEntity
  8
0
  6
Continuous
 62
     8
370
    18
100
AcDbSpline
210
0.0
220
0.0
230
1.0
 70
     8
 71
     3
 72
    28
 73
    24
 74
     0
 42
0.00000001
 43
0.00000001
 40
0.0
 40
0.0
 40
0.0
 40
0.0
 40
0.1250000000000012
 40
0.1250000000000012
 40
0.1875000000000015
 40
0.1875000000000015
 40
0.2500000000000019
 40
0.2500000000000019
 40
0.3750000000000023
 40
0.3750000000000023
 40
0.437500000000002
 40
0.437500000000002
 40
0.5000000000000017
 40
0.5000000000000017
 40
0.6250000000000022
 40
0.6250000000000022
 40
0.7500000000000028
 40
0.7500000000000028
 40
0.812500000000001
 40
0.812500000000001
 40
0.8749999999999992
 40
0.8749999999999992
 40
1.0
 40
1.0
 40
1.0
 40
1.0
 10
387.2264335756278
 20
618.635499462474
 30
0.0
 10
387.2263682016674
 20
618.63576172517
 30
0.0
 10
387.1847292078219
 20
618.6245667520076
 30
0.0
 10
387.0497984522972
 20
618.5861790322502
 30
0.0
 10
386.9926960599469
 20
618.5698208627116
 30
0.0
 10
386.8518281217067
 20
618.529747808554
 30
0.0
 10
386.7674659977241
 20
618.5058669337873
 30
0.0
 10
386.474774351685
 20
618.4247970426967
 30
0.0
 10
386.2282052224311
 20
618.3581509433959
 30
0.0
 10
385.778781818253
 20
618.2323368170762
 30
0.0
 10
385.6150480461638
 20
618.1860381220635
 30
0.0
 10
385.2624720079301
 20
618.0860805620134
 30
0.0
 10
385.0756906676735
 20
618.0330239668963
 30
0.0
 10
384.4851517449904
 20
617.8671870704362
 30
0.0
 10
384.0513178353277
 20
617.7477244253527
 30
0.0
 10
383.1077115938666
 20
617.4872346831766
 30
0.0
 10
382.6102321224132
 20
617.3497028871175
 30
0.0
 10
381.8346543514242
 20
617.1346559786293
 30
0.0
 10
381.5709057084396
 20
617.0614586952506
 30
0.0
 10
381.0329361120992
 20
616.9125011681084
 30
0.0
 10
380.7589188904212
 20
616.8368025462039
 30
0.0
 10
379.9337218435219
 20
616.6094500222332
 30
0.0
 10
379.3753119930298
 20
616.4568012616726
 30
0.0
 10
378.8086773640979
 20
616.2998364263494
 30
0.0
  0
LWPOLYLINE
  5
196
330
1F
100
AcDbEntity
  8
0
  6
Continuous
 62
     8
370
    18
100
AcDbPolyline
 90
        5
 70
   128
 43
0.0
 10
320.3230084698
 20
599.9660264782
 10
320.3121592659
 20
599.9629976261
 10
320.3013100413
 20
599.9599688501
 10
320.2904607753
 20
599.9569402259
 10
320.2796114476
 20
599.9539118289
  0
LINE
  5
197
330
1F
100
AcDbEntity
  8
0
  6
Continuous
 62
     8
370
    18
100
AcDbLine
 10
377.2257515664
 20
620.7153291339
 30
0.0
 11
320.0774238973
 21
605.0813158197
 31
0.0
  0
LWPOLYLINE
  5
198
330
1F
100
AcDbEntity
  8
0
  6
Continuous
 62
     8
370
    18
100
AcDbPolyline
 90
        6
 70
   128
 43
0.0
 10
378.2098109247
 20
617.1068753462
 10
378.2098746914
 20
617.1068931726
 10
378.2105791235
 20
617.1070901257
 10
378.2112835433
 20
617.1072871228
 10
378.2119879508
 20
617.107484164
 10
378.2126923459
 20
617.1076812493
  0
LWPOLYLINE
  5
199
330
1F
100
AcDbEntity
  8
0
  6
Continuous
 62
     8
370
    18
100
AcDbPolyline
 90
        5
 70
   128
 43
0.0
 10
320.0774238973
 20
600.8524861844
 10
334.6105839172
 20
604.915857196
 10
349.1437028518
 20
608.9793751614
 10
363.6767790871
 20
613.0430458595
 10
378.2098109247
 20
617.1068753462
  0
LWPOLYLINE
  5
19A
330
1F
100
AcDbEntity
  8
0
  6
Continuous
 62
     8
370
    18
100
AcDbPolyline
 90
        5
 70
   128
 43
0.0
 10
378.4616498814
 20
616.197645769
 10
376.1500914161
 20
615.5522624393
 10
366.9038516906
 20
612.970748867
 10
329.9188071738
 20
602.6449819757
 10
320.3230084698
 20
599.9660264782
  0
LINE
  5
19B
330
1F
100
AcDbEntity
  8
0
  6
Continuous
 62
     8
370
    18
100
AcDbLine
 10
377.3944501636
 20
620.7614798477
 30
0.0
 11
377.2257515664
 21
620.7153291339
 31
0.0
  0
SPLINE
  5
19C
330
1F
100
AcDbEntity
  8
0
  6
Continuous
 62
     8
370
    18
100
AcDbSpline
210
0.0
220
0.0
230
1.0
 70
     8
 71
     3
 72
    11
 73
     7
 74
     0
 42
0.00000001
 43
0.00000001
 40
0.0000000000000001
 40
0.0000000000000001
 40
0.0000000000000001
 40
0.0000000000000001
 40
0.0001821937262777
 40
0.0001821937262777
 40
0.0001821937262777
 40
0.0003554954508276
 40
0.0003554954508276
 40
0.0003554954508276
 40
0.0003554954508276
 10
378.2126923459141
 20
617.1076812493285
 30
0.0
 10
378.2711762238563
 20
617.1240466400665
 30
0.0
 10
378.3295343495083
 20
617.140868267924
 30
0.0
 10
378.3877561868613
 20
617.1581427718775
 30
0.0
 10
378.4431366561867
 20
617.1745742377981
 30
0.0
 10
378.4983969321918
 20
617.1914163840509
 30
0.0
 10
378.5535279218956
 20
617.2086664328957
 30
0.0
  0
SPLINE
  5
19D
330
1F
100
AcDbEntity
  8
0
  6
Continuous
 62
     8
370
    18
100
AcDbSpline
210
0.0
220
0.0
230
1.0
 70
     8
 71
     3
 72
    11
 73
     7
 74
     0
 42
0.00000001
 43
0.00000001
 40
0.0
 40
0.0
 40
0.0
 40
0.0
 40
0.0001617110882319
 40
0.0001617110882319
 40
0.0001617110882319
 40
0.0003586156020098
 40
0.0003586156020098
 40
0.0003586156020098
 40
0.0003586156020098
 10
378.8086773640979
 20
616.2998364263494
 30
0.0
 10
378.7571894311491
 20
616.2838834461219
 30
0.0
 10
378.7056001410158
 20
616.2682538445305
 30
0.0
 10
378.6539154990573
 20
616.2529498892455
 30
0.0
 10
378.590983257172
 20
616.2343154907219
 30
0.0
 10
378.5279062764268
 20
616.2161628877083
 30
0.0
 10
378.4646953609859
 20
616.1984965014985
 30
0.0
  0
LWPOLYLINE
  5
19E
330
1F
100
AcDbEntity
  8
0
  6
Continuous
 62
     8
370
    18
100
AcDbPolyline
 90
        5
 70
   128
 43
0.0
 10
378.464695361
 20
616.1984965015
 10
378.4632015437
 20
616.1980791022
 10
378.4624546161
 20
616.1978704704
 10
378.4617076759
 20
616.1976618838
 10
378.4616498814
 20
616.197645769
  0
LINE
  5
19F
330
1F
100
AcDbEntity
  8
0
  6
Continuous
 62
     8
370
    18
100
AcDbLine
 10
317.5820497529
 20
575.4777865422
 30
0.0
 11
317.5820497529
 21
583.0406238084
 31
0.0
  0
LINE
  5
1A0
330
1F
100
AcDbEntity
  8
0
  6
Continuous
 62
     7
370
    25
100
AcDbLine
 10
170.8732653061
 20
105.4200604936
 30
0.0
 11
170.8732653061
 21
107.9917840237
 31
0.0
  0
LINE
  5
1A1
330
1F
100
AcDbEntity
  8
0
  6
Continuous
 62
     7
370
    25
100
AcDbLine
 10
137.8732653061
 20
107.9917840237
 30
0.0
 11
137.8732653061
 21
105.4200604936
 31
0.0
  0
SPLINE
  5
1A2
330
1F
100
AcDbEntity
  8
0
  6
Continuous
 62
     7
370
    25
100
AcDbSpline
210
0.0
220
0.0
230
1.0
 70
     8
 71
     3
 72
     8
 73
     4
 74
     0
 42
0.00000001
 43
0.00000001
 40
0.0000000000000009
 40
0.0000000000000009
 40
0.0000000000000009
 40
0.0000000000000009
 40
0.0000016590601283
 40
0.0000016590601283
 40
0.0000016590601283
 40
0.0000016590601283
 10
163.9189714222876
 20
238.1557539179843
 30
0.0
 10
163.9189723876306
 20
238.1559382832322
 30
0.0
 10
163.9189728732404
 20
238.1561038449728
 30
0.0
 10
163.9189728732404
 20
238.1562497720582
 30
0.0
  0
SPLINE
  5
1A3
330
1F
100
AcDbEntity
  8
0
  6
Continuous
 62
     7
370
    25
100
AcDbSpline
210
0.0
220
0.0
230
1.0
 70
    24
 71
     3
 72
    10
 73
     6
 74
     0
 42
0.00000001
 43
0.00000001
 40
0.0
 40
0.0
 40
0.0
 40
0.0
 40
0.5
 40
0.5
 40
1.0
 40
1.0
 40
1.0
 40
1.0
 10
163.9189714222876
 20
238.1557539179856
 30
0.0
 10
163.9178837749344
 20
237.9480304731761
 30
0.0
 10
163.9168667821628
 20
237.7538009361865
 30
0.0
 10
163.9148589208918
 20
237.3703311849925
 30
0.0
 10
163.913875125674
 20
237.1824418556992
 30
0.0
 10
163.9129010661617
 20
236.9964118922701
 30
0.0
  0
SPLINE
  5
1A4
330
1F
100
AcDbEntity
  8
0
  6
Continuous
 62
     7
370
    25
100
AcDbSpline
210
0.0
220
0.0
230
1.0
 70
     8
 71
     3
 72
    32
 73
    28
 74
     0
 42
0.00000001
 43
0.00000001
 40
0.0
 40
0.0
 40
0.0
 40
0.0
 40
0.0312500000000005
 40
0.0312500000000005
 40
0.0625000000000011
 40
0.0625000000000011
 40
0.1250000000000019
 40
0.1250000000000019
 40
0.1875000000000028
 40
0.1875000000000028
 40
0.2500000000000036
 40
0.2500000000000036
 40
0.3750000000000039
 40
0.3750000000000039
 40
0.4375000000000041
 40
0.4375000000000041
 40
0.5000000000000042
 40
0.5000000000000042
 40
0.6250000000000034
 40
0.6250000000000034
 40
0.7500000000000029
 40
0.7500000000000029
 40
0.8125000000000019
 40
0.8125000000000019
 40
0.8750000000000008
 40
0.8750000000000008
 40
1.0
 40
1.0
 40
1.0
 40
1.0
 10
154.3732653061224
 20
228.1719737327491
 30
0.0
 10
154.52540451127
 20
228.1719575353177
 30
0.0
 10
154.6806513027624
 20
228.1747052935912
 30
0.0
 10
154.9866940091091
 20
228.1859089511322
 30
0.0
 10
155.1392622849382
 20
228.1943644200233
 30
0.0
 10
155.59555766278
 20
228.2285944568303
 30
0.0
 10
155.8978773159233
 20
228.2632172269045
 30
0.0
 10
156.4984519680965
 20
228.358014784855
 30
0.0
 10
156.7967077680165
 20
228.4181841990785
 30
0.0
 10
157.3887723675007
 20
228.5665705094202
 30
0.0
 10
157.684224264098
 20
228.655426452969
 30
0.0
 10
158.5483777992441
 20
228.9632938232998
 30
0.0
 10
159.0951013292151
 20
229.222449778367
 30
0.0
 10
159.8694474379018
 20
229.6941008217151
 30
0.0
 10
160.120857819975
 20
229.8659326351968
 30
0.0
 10
160.6035610855497
 20
230.2353215092593
 30
0.0
 10
160.8326385860161
 20
230.4310057749147
 30
0.0
 10
161.4849443908418
 20
231.0497661722666
 30
0.0
 10
161.8735136528755
 20
231.5033984201062
 30
0.0
 10
162.5617640590418
 20
232.4900397827139
 30
0.0
 10
162.8521182470633
 20
233.009673385775
 30
0.0
 10
163.212950487599
 20
233.8217076363231
 30
0.0
 10
163.320798489627
 20
234.0980642224241
 30
0.0
 10
163.5116160756506
 20
234.6621827619367
 30
0.0
 10
163.594302561529
 20
234.9494854422083
 30
0.0
 10
163.8010593018836
 20
235.8150073719357
 30
0.0
 10
163.8862639371858
 20
236.4011036162043
 30
0.0
 10
163.9129010661617
 20
236.9964118922693
 30
0.0
  0
SPLINE
  5
1A5
330
1F
100
AcDbEntity
  8
0
  6
Continuous
 62
     7
370
    25
100
AcDbSpline
210
0.0
220
0.0
230
1.0
 70
     8
 71
     3
 72
     8
 73
     4
 74
     0
 42
0.00000001
 43
0.00000001
 40
0.0
 40
0.0
 40
0.0
 40
0.0
 40
0.0000016590601283
 40
0.0000016590601283
 40
0.0000016590601283
 40
0.0000016590601283
 10
144.8275577390044
 20
238.1562497720567
 30
0.0
 10
144.8275577390044
 20
238.1561038449713
 30
0.0
 10
144.8275582246143
 20
238.1559382832293
 30
0.0
 10
144.8275591899572
 20
238.1557539179844
 30
0.0
  0
SPLINE
  5
1A6
330
1F
100
AcDbEntity
  8
0
  6
Continuous
 62
     7
370
    25
100
AcDbSpline
210
0.0
220
0.0
230
1.0
 70
     8
 71
     3
 72
    30
 73
    26
 74
     0
 42
0.00000001
 43
0.00000001
 40
0.0
 40
0.0
 40
0.0
 40
0.0
 40
0.1249999999999992
 40
0.1249999999999992
 40
0.1874999999999989
 40
0.1874999999999989
 40
0.2499999999999986
 40
0.2499999999999986
 40
0.3749999999999977
 40
0.3749999999999977
 40
0.4999999999999969
 40
0.4999999999999969
 40
0.5624999999999969
 40
0.5624999999999969
 40
0.624999999999997
 40
0.624999999999997
 40
0.749999999999998
 40
0.749999999999998
 40
0.8124999999999984
 40
0.8124999999999984
 40
0.874999999999999
 40
0.874999999999999
 40
0.9374999999999994
 40
0.9374999999999994
 40
1.0
 40
1.0
 40
1.0
 40
1.0
 10
144.8336269682397
 20
236.9969042195903
 30
0.0
 10
144.8602607280365
 20
236.4027189718984
 30
0.0
 10
144.9454653036883
 20
235.81729795414
 30
0.0
 10
145.1522207870058
 20
234.95234300316
 30
0.0
 10
145.2349060061447
 20
234.6651540515247
 30
0.0
 10
145.425724150111
 20
234.1010858339374
 30
0.0
 10
145.5335725474188
 20
233.8246715670374
 30
0.0
 10
145.8944053415801
 20
233.012160815241
 30
0.0
 10
146.1847575950665
 20
232.491767842835
 30
0.0
 10
146.8730060449567
 20
231.5037191906176
 30
0.0
 10
147.2615739951747
 20
231.0494802351528
 30
0.0
 10
147.9138792296019
 20
230.4311327456104
 30
0.0
 10
148.1429568409515
 20
230.2355769842696
 30
0.0
 10
148.6256601024348
 20
229.8663793336892
 30
0.0
 10
148.8770713861591
 20
229.6946085013896
 30
0.0
 10
149.651419149022
 20
229.2230380280136
 30
0.0
 10
150.1981437369835
 20
228.9637862732578
 30
0.0
 10
151.0622988706861
 20
228.6558517569032
 30
0.0
 10
151.3577512942496
 20
228.5669861720439
 30
0.0
 10
151.9498171827589
 20
228.418568606336
 30
0.0
 10
152.2480736809322
 20
228.3583776843344
 30
0.0
 10
152.8486496926244
 20
228.2635115386503
 30
0.0
 10
153.1509700071395
 20
228.2288418165119
 30
0.0
 10
153.759365132415
 20
228.1830876845958
 30
0.0
 10
154.0672478703518
 20
228.1720069188132
 30
0.0
 10
154.3732653061224
 20
228.1719737327491
 30
0.0
  0
SPLINE
  5
1A7
330
1F
100
AcDbEntity
  8
0
  6
Continuous
 62
     7
370
    25
100
AcDbSpline
210
0.0
220
0.0
230
1.0
 70
    24
 71
     3
 72
    10
 73
     6
 74
     0
 42
0.00000001
 43
0.00000001
 40
0.0
 40
0.0
 40
0.0
 40
0.0
 40
0.5
 40
0.5
 40
1.0
 40
1.0
 40
1.0
 40
1.0
 10
144.8336269682397
 20
236.9969042195904
 30
0.0
 10
144.8326533099166
 20
237.1828575622346
 30
0.0
 10
144.831669987081
 20
237.3706566739466
 30
0.0
 10
144.8296629952473
 20
237.7539603763746
 30
0.0
 10
144.8286462759067
 20
237.9481376924046
 30
0.0
 10
144.8275591899572
 20
238.1557539179847
 30
0.0
  0
LINE
  5
1A8
330
1F
100
AcDbEntity
  8
0
  6
Continuous
 62
     7
370
    25
100
AcDbLine
 10
163.9198547341
 20
238.3244525153
 30
0.0
 11
163.9189714223
 21
238.155753918
 31
0.0
  0
LINE
  5
1A9
330
1F
100
AcDbEntity
  8
0
  6
Continuous
 62
     7
370
    25
100
AcDbLine
 10
144.82755919
 20
238.155753918
 30
0.0
 11
144.8266758781
 21
238.3244525153
 31
0.0
  0
LINE
  5
1AA
330
1F
100
AcDbEntity
  8
0
  6
Continuous
 62
     7
370
    25
100
AcDbLine
 10
144.8266758781
 20
238.3244525153
 30
0.0
 11
144.5274451996
 21
295.4727801844
 31
0.0
  0
LINE
  5
1AB
330
1F
100
AcDbEntity
  8
0
  6
Continuous
 62
     7
370
    25
100
AcDbLine
 10
164.2190854126
 20
295.4727801844
 30
0.0
 11
163.9198547341
 21
238.3244525153
 31
0.0
  0
SPLINE
  5
1AC
330
1F
100
AcDbEntity
  8
0
  6
Continuous
 62
     7
370
    25
100
AcDbSpline
210
0.0
220
0.0
230
1.0
 70
     8
 71
     3
 72
    26
 73
    22
 74
     0
 42
0.00000001
 43
0.00000001
 40
0.0
 40
0.0
 40
0.0
 40
0.0
 40
0.1250000000000002
 40
0.1250000000000002
 40
0.2500000000000004
 40
0.2500000000000004
 40
0.3750000000000006
 40
0.3750000000000006
 40
0.5000000000000008
 40
0.5000000000000008
 40
0.625000000000001
 40
0.625000000000001
 40
0.7500000000000011
 40
0.7500000000000011
 40
0.8750000000000013
 40
0.8750000000000013
 40
0.9375000000000011
 40
0.9375000000000011
 40
0.9687500000000007
 40
0.9687500000000007
 40
1.0
 40
1.0
 40
1.0
 40
1.0
 10
144.5274451996137
 20
295.4727801843795
 30
0.0
 10
144.525454135423
 20
295.8530419588985
 30
0.0
 10
144.5228753991098
 20
296.2317796302249
 30
0.0
 10
144.4873896431196
 20
296.9841609284078
 30
0.0
 10
144.4548194668212
 20
297.357859900195
 30
0.0
 10
144.3412232359803
 20
298.0987891449944
 30
0.0
 10
144.2605109222837
 20
298.4660257967893
 30
0.0
 10
144.0322137836311
 20
299.1922648397352
 30
0.0
 10
143.8870770956871
 20
299.5417011221058
 30
0.0
 10
143.5291791933757
 20
300.2057126006848
 30
0.0
 10
143.3146533861228
 20
300.5223452124793
 30
0.0
 10
142.8247373091367
 20
301.1199210698059
 30
0.0
 10
142.5559138246113
 20
301.3944943862276
 30
0.0
 10
141.9820925090178
 20
301.9067262357522
 30
0.0
 10
141.6767447151933
 20
302.1439767920775
 30
0.0
 10
141.1981437794039
 20
302.479087241643
 30
0.0
 10
141.0350253242532
 20
302.5874113960016
 30
0.0
 10
140.787922326739
 20
302.7467046724848
 30
0.0
 10
140.7051614682676
 20
302.7992961083499
 30
0.0
 10
140.5393861977656
 20
302.9042918511927
 30
0.0
 10
140.4553611985115
 20
302.9573411192079
 30
0.0
 10
140.3736048731189
 20
303.0095824155812
 30
0.0
  0
SPLINE
  5
1AD
330
1F
100
AcDbEntity
  8
0
  6
Continuous
 62
     7
370
    25
100
AcDbSpline
210
0.0
220
0.0
230
1.0
 70
     8
 71
     3
 72
    28
 73
    24
 74
     0
 42
0.00000001
 43
0.00000001
 40
0.0
 40
0.0
 40
0.0
 40
0.0
 40
0.0624999999999994
 40
0.0624999999999994
 40
0.1249999999999988
 40
0.1249999999999988
 40
0.2499999999999991
 40
0.2499999999999991
 40
0.3124999999999996
 40
0.3124999999999996
 40
0.3750000000000001
 40
0.3750000000000001
 40
0.5000000000000007
 40
0.5000000000000007
 40
0.562500000000001
 40
0.562500000000001
 40
0.6250000000000012
 40
0.6250000000000012
 40
0.7500000000000008
 40
0.7500000000000008
 40
0.8750000000000004
 40
0.8750000000000004
 40
1.0
 40
1.0
 40
1.0
 40
1.0
 10
168.3729257391259
 20
303.0095824155812
 30
0.0
 10
168.2094667743392
 20
302.9051341275338
 30
0.0
 10
168.0429467979206
 20
302.8010352451932
 30
0.0
 10
167.7158222071954
 20
302.5902312294462
 30
0.0
 10
167.5541194699798
 20
302.4829383152702
 30
0.0
 10
167.0785530338823
 20
302.1504309429212
 30
0.0
 10
166.7741753638659
 20
301.9146238768294
 30
0.0
 10
166.3436381544459
 20
301.5314692215447
 30
0.0
 10
166.20442806215
 20
301.3988966601881
 30
0.0
 10
165.9359022619244
 20
301.1226198503457
 30
0.0
 10
165.8059564674873
 20
300.9781255770241
 30
0.0
 10
165.4387162659807
 20
300.5316535029737
 30
0.0
 10
165.2249958977281
 20
300.2178955237751
 30
0.0
 10
164.9550848296353
 20
299.7200722407133
 30
0.0
 10
164.8734266564334
 20
299.5496342909136
 30
0.0
 10
164.7261903862137
 20
299.1998842809887
 30
0.0
 10
164.6605334184333
 20
299.0200737559614
 30
0.0
 10
164.4893872137884
 20
298.4788447877743
 30
0.0
 10
164.4079513733732
 20
298.1122576368713
 30
0.0
 10
164.2930179654013
 20
297.3700323748764
 30
0.0
 10
164.2598187921232
 20
296.9943751144677
 30
0.0
 10
164.2236774993965
 20
296.2363292862138
 30
0.0
 10
164.2210867011092
 20
295.8549946361004
 30
0.0
 10
164.219085412631
 20
295.4727801843795
 30
0.0
  0
ARC
  5
1AE
330
1F
100
AcDbEntity
  8
0
  6
Continuous
 62
     7
370
    25
100
AcDbCircle
 10
154.3732653061
 20
324.9187016987
 30
0.0
 40
26.00000000000005
100
AcDbArc
 50
302.5780823675
 51
237.4219176325
  0
LINE
  5
1AF
330
1F
100
AcDbEntity
  8
0
  6
Continuous
 62
     7
370
    25
100
AcDbLine
 10
137.8732653061
 20
107.9917840237
 30
0.0
 11
137.8732653061
 21
110.0932378125
 31
0.0
  0
LINE
  5
1B0
330
1F
100
AcDbEntity
  8
0
  6
Continuous
 62
     7
370
    25
100
AcDbLine
 10
170.8732653061
 20
107.9917840237
 30
0.0
 11
170.8732653061
 21
110.0932378125
 31
0.0
  0
LWPOLYLINE
  5
1B1
330
1F
100
AcDbEntity
  8
0
  6
Continuous
 62
     7
370
    25
100
AcDbPolyline
 90
       24
 70
   128
 43
0.0
 10
137.8732653061
 20
105.4200604936
 10
137.884273308
 20
104.838805287
 10
138.1477316384
 20
102.5292741543
 10
138.757009049
 20
100.2813551136
 10
139.6991198496
 20
98.1429586565
 10
140.953984584
 20
96.1596609909
 10
142.4948579891
 20
94.3737326633
 10
144.2888990235
 20
92.8232376352
 10
146.2978708172
 20
91.5412220165
 10
148.4789556244
 20
90.5550097441
 10
150.785667409
 20
89.8856202205
 10
153.1688426142
 20
89.5473203212
 10
155.577687998
 20
89.5473203212
 10
157.9608632032
 20
89.8856202205
 10
160.2675749878
 20
90.5550097441
 10
162.448659795
 20
91.5412220165
 10
164.4576315887
 20
92.8232376352
 10
166.2516726231
 20
94.3737326633
 10
167.7925460283
 20
96.1596609909
 10
169.0474107627
 20
98.1429586565
 10
169.9895215632
 20
100.2813551136
 10
170.5987989738
 20
102.5292741543
 10
170.8622573042
 20
104.838805287
 10
170.8732653061
 20
105.4200604936
  0
LINE
  5
1B2
330
1F
100
AcDbEntity
  8
0
  6
Continuous
 62
     7
370
    25
100
AcDbLine
 10
170.8732653061
 20
303.9846829299
 30
0.0
 11
170.8732653061
 21
110.0932378125
 31
0.0
  0
LINE
  5
1B3
330
1F
100
AcDbEntity
  8
0
  6
Continuous
 62
     7
370
    25
100
AcDbLine
 10
137.8732653061
 20
110.0932378125
 30
0.0
 11
137.8732653061
 21
303.9846829299
 31
0.0
  0
ARC
  5
1B4
330
1F
100
AcDbEntity
  8
0
  6
Continuous
 62
     7
370
    25
100
AcDbCircle
 10
154.3732653061
 20
324.9187016987
 30
0.0
 40
26.00000000000014
100
AcDbArc
 50
180.0
 51
237.4219176325
  0
ARC
  5
1B5
330
1F
100
AcDbEntity
  8
0
  6
Continuous
 62
     7
370
    25
100
AcDbCircle
 10
172.7099166682
 20
303.9748130126
 30
0.0
 40
1.836677881700745
100
AcDbArc
 50
131.4901569276
 51
179.6921031524
  0
ARC
  5
1B6
330
1F
100
AcDbEntity
  8
0
  6
Continuous
 62
     7
370
    25
100
AcDbCircle
 10
136.0392089179
 20
303.9759906294
 30
0.0
 40
1.834076986205057
100
AcDbArc
 50
0.2715447636
 51
48.5461951564
  0
SPLINE
  5
1B7
330
1F
100
AcDbEntity
  8
0
  6
Continuous
 62
     8
370
    18
100
AcDbSpline
210
0.0
220
0.0
230
1.0
 70
     8
 71
     3
 72
    26
 73
    22
 74
     0
 42
0.00000001
 43
0.00000001
 40
0.0
 40
0.0
 40
0.0
 40
0.0
 40
0.1249999999999997
 40
0.1249999999999997
 40
0.1874999999999993
 40
0.1874999999999993
 40
0.2499999999999989
 40
0.2499999999999989
 40
0.3749999999999993
 40
0.3749999999999993
 40
0.4374999999999991
 40
0.4374999999999991
 40
0.4999999999999988
 40
0.4999999999999988
 40
0.6249999999999991
 40
0.6249999999999991
 40
0.7499999999999994
 40
0.7499999999999994
 40
0.8749999999999997
 40
0.8749999999999997
 40
1.0
 40
1.0
 40
1.0
 40
1.0
 10
154.3732653061224
 20
230.5968170623384
 30
0.0
 10
153.8260314257708
 20
230.5968161784797
 30
0.0
 10
153.2846100169273
 20
230.6350583716688
 30
0.0
 10
152.482884963004
 20
230.7605862540568
 30
0.0
 10
152.2173848183246
 20
230.8138302340927
 30
0.0
 10
151.6902634615656
 20
230.9455727076253
 30
0.0
 10
151.4271454797075
 20
231.0246556988325
 30
0.0
 10
150.6578565522509
 20
231.2992440499837
 30
0.0
 10
150.1715825839187
 20
231.5311832936686
 30
0.0
 10
149.4842406616079
 20
231.955977351043
 30
0.0
 10
149.2609795783619
 20
232.1113643719569
 30
0.0
 10
148.8349703473091
 20
232.4441495606818
 30
0.0
 10
148.6331787830381
 20
232.620546956004
 30
0.0
 10
148.059629641983
 20
233.1780845193909
 30
0.0
 10
147.7185571908782
 20
233.5886696971172
 30
0.0
 10
147.1205792522488
 20
234.4758529203921
 30
0.0
 10
146.8705144002532
 20
234.9413318254153
 30
0.0
 10
146.4581196920154
 20
235.9116322749481
 30
0.0
 10
146.2953117255469
 20
236.4207067583863
 30
0.0
 10
146.0679938947688
 20
237.4455823719678
 30
0.0
 10
146.0012383147165
 20
237.9639757270779
 30
0.0
 10
145.9874714611499
 20
238.4893104490075
 30
0.0
  0
SPLINE
  5
1B8
330
1F
100
AcDbEntity
  8
0
  6
Continuous
 62
     8
370
    18
100
AcDbSpline
210
0.0
220
0.0
230
1.0
 70
     8
 71
     3
 72
    26
 73
    22
 74
     0
 42
0.00000001
 43
0.00000001
 40
0.0
 40
0.0
 40
0.0
 40
0.0
 40
0.1250000000000003
 40
0.1250000000000003
 40
0.2500000000000007
 40
0.2500000000000007
 40
0.3750000000000011
 40
0.3750000000000011
 40
0.5000000000000014
 40
0.5000000000000014
 40
0.5625000000000018
 40
0.5625000000000018
 40
0.625000000000002
 40
0.625000000000002
 40
0.7500000000000009
 40
0.7500000000000009
 40
0.8125000000000006
 40
0.8125000000000006
 40
0.8750000000000003
 40
0.8750000000000003
 40
1.0
 40
1.0
 40
1.0
 40
1.0
 10
162.7590592162954
 20
238.4893104602833
 30
0.0
 10
162.7452923608319
 20
237.9639757335934
 30
0.0
 10
162.6785367782819
 20
237.4455823747139
 30
0.0
 10
162.4512189420076
 20
236.4207067546509
 30
0.0
 10
162.2884109724775
 20
235.9116322683822
 30
0.0
 10
161.8760162577236
 20
234.9413318141081
 30
0.0
 10
161.6259514022994
 20
234.4758529072105
 30
0.0
 10
161.0279734566558
 20
233.588669681091
 30
0.0
 10
160.6869010017903
 20
233.1780845022291
 30
0.0
 10
160.1133518553566
 20
232.6205469381818
 30
0.0
 10
159.9115602893159
 20
232.4441495427807
 30
0.0
 10
159.485551054818
 20
232.111364354178
 30
0.0
 10
159.2622899698209
 20
231.9559773334145
 30
0.0
 10
158.5749480425977
 20
231.5311832770182
 30
0.0
 10
158.0886740713522
 20
231.2992440345951
 30
0.0
 10
157.319385140252
 20
231.0246556859688
 30
0.0
 10
157.0562671572641
 20
230.945572695698
 30
0.0
 10
156.5291457985267
 20
230.8138302242162
 30
0.0
 10
156.2636456529921
 20
230.7605862452899
 30
0.0
 10
155.4619205968739
 20
230.6350583664008
 30
0.0
 10
154.9204991870612
 20
230.5968161757641
 30
0.0
 10
154.3732653061224
 20
230.5968170622501
 30
0.0
  0
LINE
  5
1B9
330
1F
100
AcDbEntity
  8
0
  6
Continuous
 62
     8
370
    18
100
AcDbLine
 10
145.9874856794
 20
238.489309139
 30
0.0
 11
145.9866599389
 21
238.6470125118
 31
0.0
  0
LINE
  5
1BA
330
1F
100
AcDbEntity
  8
0
  6
Continuous
 62
     8
370
    18
100
AcDbLine
 10
145.9866599389
 20
238.6470125118
 30
0.0
 11
145.6874292604
 21
295.7953401809
 31
0.0
  0
SPLINE
  5
1BB
330
1F
100
AcDbEntity
  8
0
  6
Continuous
 62
     8
370
    18
100
AcDbSpline
210
0.0
220
0.0
230
1.0
 70
     8
 71
     3
 72
    15
 73
    11
 74
     0
 42
0.00000001
 43
0.00000001
 40
0.0
 40
0.0
 40
0.0
 40
0.0
 40
0.0909572758568153
 40
0.2042799150559152
 40
0.3404868606858587
 40
0.500019000128537
 40
0.6313085218076615
 40
0.7582389449325451
 40
0.8807080217256382
 40
1.0
 40
1.0
 40
1.0
 40
1.0
 10
145.6874284113356
 20
295.7953401693219
 30
0.0
 10
145.6856127743019
 20
296.1046924603889
 30
0.0
 10
145.6815350556639
 20
296.7994632651017
 30
0.0
 10
145.6070695042929
 20
297.9565408555855
 30
0.0
 10
145.3528026638267
 20
299.3307080724281
 30
0.0
 10
144.814456087229
 20
300.701111032461
 30
0.0
 10
143.9998300251516
 20
301.8952762577467
 30
0.0
 10
143.0763238856458
 20
302.8417321864904
 30
0.0
 10
142.0635138489957
 20
303.6327999096643
 30
0.0
 10
141.3498104073379
 20
304.0829545215289
 30
0.0
 10
140.9976482469237
 20
304.305073978129
 30
0.0
  0
SPLINE
  5
1BC
330
1F
100
AcDbEntity
  8
0
  6
Continuous
 62
     8
370
    18
100
AcDbSpline
210
0.0
220
0.0
230
1.0
 70
     8
 71
     3
 72
   167
 73
   163
 74
     0
 42
0.00000001
 43
0.00000001
 40
0.0
 40
0.0
 40
0.0
 40
0.0
 40
0.0037234577405281
 40
0.0074493381423075
 40
0.0111776767579762
 40
0.0149085053940006
 40
0.0186418520696512
 40
0.0223777409819924
 40
0.0261161924768923
 40
0.0298572230260523
 40
0.0336008452100452
 40
0.0373470677073342
 40
0.0410958952892471
 40
0.044847328820861
 40
0.0486013652677471
 40
0.0523579977085198
 40
0.0561172153531218
 40
0.0598790035667712
 40
0.0636433438994902
 40
0.0674102141211251
 40
0.0711795882617654
 40
0.0749514366574568
 40
0.0787257260011068
 40
0.0825024193984642
 40
0.0862814764290597
 40
0.0900628532119832
 40
0.0938465024763699
 40
0.0976323736364687
 40
0.1014204128711527
 40
0.105210563207737
 40
0.1090027646099614
 40
0.1127969540699941
 40
0.1165930657043085
 40
0.1203910308532839
 40
0.1241907781843779
 40
0.1279922337987181
 40
0.1317953213409543
 40
0.1355999621122189
 40
0.1394060751860306
 40
0.1432135775269862
 40
0.1470223841120775
 40
0.1508324080544701
 40
0.1546435607295826
 40
0.1584557519033014
 40
0.1622688898621657
 40
0.1660828815453599
 40
0.1698976326783439
 40
0.1737130479079596
 40
0.1775290309388416
 40
0.181345484670972
 40
0.1851623113382051
 40
0.1889794126475993
 40
0.1927966899193881
 40
0.1966140442274194
 40
0.2004313765399004
 40
0.2042485878602746
 40
0.2080655793680685
 40
0.211882252559536
 40
0.2156985093879346
 40
0.2195142524032641
 40
0.2233293848913027
 40
0.2271438110117714
 40
0.2309574359354558
 40
0.2347701659801268
 40
0.2385819087450838
 40
0.2423925732441583
 40
0.2462020700370127
 40
0.2500103113585676
 40
0.2959907603123932
 40
0.3376295238093499
 40
0.3749581093416652
 40
0.4080579867672823
 40
0.4370209926401926
 40
0.4619246866422018
 40
0.4828225326394991
 40
0.4997444603088509
 40
0.4998350780786675
 40
0.5038380313084301
 40
0.5078829421645006
 40
0.5119699528582278
 40
0.5160992136857143
 40
0.5202708829064672
 40
0.5244851265798196
 40
0.5287421183570885
 40
0.5330420392275447
 40
0.5373850772164042
 40
0.5417714270332128
 40
0.5462012896691522
 40
0.5506748719420138
 40
0.5551923859877923
 40
0.559754048698101
 40
0.5643600811028753
 40
0.5690107076981034
 40
0.573706155718649
 40
0.57844665435654
 40
0.5832324339254467
 40
0.588063724972435
 40
0.5929407573384543
 40
0.5978637591694137
 40
0.6028329558801016
 40
0.6078485690736137
 40
0.6129108154193876
 40
0.6180199054933555
 40
0.6231760425841636
 40
0.6283794214698523
 40
0.6336302271697971
 40
0.6389286336771678
 40
0.6442748026775539
 40
0.6496688822598554
 40
0.6551110056259055
 40
0.6606012898056992
 40
0.6661398343854739
 40
0.6717267202562376
 40
0.6773620083906707
 40
0.6830457386566482
 40
0.6887779286758977
 40
0.694558572736577
 40
0.7003876407687674
 40
0.7062650773920776
 40
0.7121908010447063
 40
0.7181647032034202
 40
0.72418664770399
 40
0.7302564701716457
 40
0.7363739775711043
 40
0.7425389478856503
 40
0.7487511299346283
 40
0.7550102433385305
 40
0.7613159786406166
 40
0.7676679975937037
 40
0.7740659336203847
 40
0.7805093924544787
 40
0.7869979529709965
 40
0.7935311682112787
 40
0.8001085666092681
 40
0.8067296534240641
 40
0.8133939123830177
 40
0.8201008075386013
 40
0.8268497853411707
 40
0.833640276928483
 40
0.8404717006314758
 40
0.847343464694302
 40
0.8542549702049813
 40
0.8612056142312651
 40
0.8681947931543867
 40
0.8752219061913247
 40
0.8822863590940063
 40
0.8893875680115583
 40
0.8965249634992384
 40
0.9036979946551209
 40
0.9109061333629073
 40
0.9181488786164653
 40
0.9254257608988664
 40
0.9327363465857855
 40
0.9400802423402832
 40
0.9474570994630857
 40
0.9548666181597574
 40
0.9623085516834784
 40
0.9697827103097213
 40
0.9772889650968948
 40
0.9848272513851836
 40
0.9923975719843147
 40
1.0
 40
1.0
 40
1.0
 40
1.0
 10
140.9976475669358
 20
304.3050743522115
 30
0.0
 10
140.863073794549
 20
304.3921254733485
 30
0.0
 10
140.5938386895862
 20
304.5662843552818
 30
0.0
 10
140.1966919760409
 20
304.8372385490764
 30
0.0
 10
139.8044775838045
 20
305.1152812044346
 30
0.0
 10
139.4178231740735
 20
305.4010080761975
 30
0.0
 10
139.0367446144705
 20
305.6941242960348
 30
0.0
 10
138.6614192109343
 20
305.9945703371101
 30
0.0
 10
138.2919782461944
 20
306.3022200638956
 30
0.0
 10
137.928562558217
 20
306.6169617747348
 30
0.0
 10
137.5713075670968
 20
306.9386765193047
 30
0.0
 10
137.2203472265566
 20
307.2672439705204
 30
0.0
 10
136.875812900512
 20
307.6025409068875
 30
0.0
 10
136.5378336020005
 20
307.944441678133
 30
0.0
 10
136.2065358678422
 20
308.2928181400496
 30
0.0
 10
135.8820437321844
 20
308.6475397328715
 30
0.0
 10
135.5644786747219
 20
309.0084735222901
 30
0.0
 10
135.2539595769279
 20
309.3754842516029
 30
0.0
 10
134.9506026773763
 20
309.748434391967
 30
0.0
 10
134.6545215285672
 20
310.1271841942262
 30
0.0
 10
134.3658269546267
 20
310.5115917413573
 30
0.0
 10
134.0846270100711
 20
310.9015130017667
 30
0.0
 10
133.811026939601
 20
311.2968018833502
 30
0.0
 10
133.5451291389535
 20
311.6973102883133
 30
0.0
 10
133.2870331168226
 20
312.102888168728
 30
0.0
 10
133.0368354578615
 20
312.5133835828054
 30
0.0
 10
132.7946297867811
 20
312.9286427518646
 30
0.0
 10
132.5605067335558
 20
313.3485101179744
 30
0.0
 10
132.3345538997495
 20
313.77282840225
 30
0.0
 10
132.1168558259749
 20
314.2014386637798
 30
0.0
 10
131.9074939604952
 20
314.6341803591628
 30
0.0
 10
131.7065466289822
 20
315.0708914026337
 30
0.0
 10
131.514089005439
 20
315.5114082267543
 30
0.0
 10
131.3301930842999
 20
315.9555658436478
 30
0.0
 10
131.154927653715
 20
316.4031979067551
 30
0.0
 10
130.9883582700323
 20
316.8541367730884
 30
0.0
 10
130.830547233483
 20
317.308213565962
 30
0.0
 10
130.6815535650815
 20
317.7652582381733
 30
0.0
 10
130.5414329847466
 20
318.2250996356159
 30
0.0
 10
130.4102378906528
 20
318.6875655612964
 30
0.0
 10
130.288017339819
 20
319.1524828397346
 30
0.0
 10
130.1748170299414
 20
319.619677381723
 30
0.0
 10
130.0706792824773
 20
320.0889742494206
 30
0.0
 10
129.9756430269859
 20
320.5601977217576
 30
0.0
 10
129.8897437867323
 20
321.0331713601287
 30
0.0
 10
129.8130136655593
 20
321.5077180743471
 30
0.0
 10
129.7454813360318
 20
321.9836601888392
 30
0.0
 10
129.6871720288597
 20
322.4608195090518
 30
0.0
 10
129.6381075236003
 20
322.9390173880507
 30
0.0
 10
129.5983061406469
 20
323.4180747932837
 30
0.0
 10
129.567782734504
 20
323.8978123734837
 30
0.0
 10
129.5465486883537
 20
324.3780505256891
 30
0.0
 10
129.5346119099129
 20
324.858609462355
 30
0.0
 10
129.5319768285852
 20
325.3393092785291
 30
0.0
 10
129.5386443939107
 20
325.8199700190756
 30
0.0
 10
129.5546120752965
 20
326.3004117458922
 30
0.0
 10
129.5798738630978
 20
326.780454605211
 30
0.0
 10
129.614420270793
 20
327.2599188945179
 30
0.0
 10
129.658238339202
 20
327.7386251307178
 30
0.0
 10
129.7113116392069
 20
328.2163941133518
 30
0.0
 10
129.7736202861781
 20
328.693047005862
 30
0.0
 10
129.8451409168325
 20
329.1684053489827
 30
0.0
 10
129.9258468123598
 20
329.6422913267187
 30
0.0
 10
130.0157074819216
 20
330.1145270891856
 30
0.0
 10
130.1146902654253
 20
330.5849375931604
 30
0.0
 10
130.2227544092503
 20
331.0533403184728
 30
0.0
 10
130.3398732273778
 20
331.5195839424703
 30
0.0
 10
130.9313639052488
 20
333.6955771559038
 30
0.0
 10
132.4191527876479
 20
337.2974871337785
 30
0.0
 10
135.5087103171266
 20
341.6581563657629
 30
0.0
 10
139.0356508314333
 20
344.9498630074334
 30
0.0
 10
142.6613250990391
 20
347.2632518434617
 30
0.0
 10
146.132097105375
 20
348.7548227137544
 30
0.0
 10
149.2737862907092
 20
349.6063333705591
 30
0.0
 10
151.9784386553687
 20
349.9995343573837
 30
0.0
 10
153.62900876406
 20
350.0736655448952
 30
0.0
 10
154.5435134153257
 20
350.0737769279169
 30
0.0
 10
154.8976775286522
 20
350.070015259995
 30
0.0
 10
155.4254902714534
 20
350.0532414951898
 30
0.0
 10
155.9582805841862
 20
350.0249081531015
 30
0.0
 10
156.4957807045711
 20
349.9846759622411
 30
0.0
 10
157.0377120376419
 20
349.9322097806732
 30
0.0
 10
157.5837794744976
 20
349.8671774343692
 30
0.0
 10
158.1336726636674
 20
349.7892507881518
 30
0.0
 10
158.6870654128286
 20
349.698106236614
 30
0.0
 10
159.243615623109
 20
349.5934253801665
 30
0.0
 10
159.8029651040532
 20
349.4748956777748
 30
0.0
 10
160.3647394483208
 20
349.3422111327642
 30
0.0
 10
160.9285479191485
 20
349.1950729959421
 30
0.0
 10
161.4939833651255
 20
349.0331904898252
 30
0.0
 10
162.0606221601234
 20
348.8562815523558
 30
0.0
 10
162.6280241707936
 20
348.6640735998663
 30
0.0
 10
163.1957327528157
 20
348.4563043085834
 30
0.0
 10
163.763274777439
 20
348.2327224139894
 30
0.0
 10
164.3301606897659
 20
347.9930885272477
 30
0.0
 10
164.8958846002665
 20
347.7371759678236
 30
0.0
 10
165.4599244110007
 20
347.4647716113403
 30
0.0
 10
166.0217419780294
 20
347.1756767516234
 30
0.0
 10
166.5807833114884
 20
346.8697079757929
 30
0.0
 10
167.1364788147863
 20
346.5466980511681
 30
0.0
 10
167.6882435643763
 20
346.2064968226532
 30
0.0
 10
168.2354776315303
 20
345.8489721191752
 30
0.0
 10
168.7775664475176
 20
345.474010667643
 30
0.0
 10
169.3138812135643
 20
345.081519012793
 30
0.0
 10
169.8437793569298
 20
344.6714244411877
 30
0.0
 10
170.3666050343999
 20
344.2436759075234
 30
0.0
 10
170.881689684444
 20
343.7982449613008
 30
0.0
 10
171.3883526292359
 20
343.335126671804
 30
0.0
 10
171.8859017276739
 20
342.8543405492247
 30
0.0
 10
172.3736340804712
 20
342.3559314596639
 30
0.0
 10
172.8508367883146
 20
341.8399705316333
 30
0.0
 10
173.3167877640085
 20
341.3065560515713
 30
0.0
 10
173.7707565994358
 20
340.7558143457845
 30
0.0
 10
174.2120054880679
 20
340.1879006461167
 30
0.0
 10
174.63979020366
 20
339.6029999365464
 30
0.0
 10
175.0533611356519
 20
339.0013277778103
 30
0.0
 10
175.4519643816797
 20
338.3831311070512
 30
0.0
 10
175.8348428974772
 20
337.7486890093901
 30
0.0
 10
176.2012377043108
 20
337.0983134582335
 30
0.0
 10
176.5503891539499
 20
336.432350021029
 30
0.0
 10
176.8815382510249
 20
335.7511785271051
 30
0.0
 10
177.1939280324646
 20
335.0552136941453
 30
0.0
 10
177.4868050035382
 20
334.3449057097712
 30
0.0
 10
177.759420629853
 20
333.6207407646427
 30
0.0
 10
178.0110328844734
 20
332.8832415334178
 30
0.0
 10
178.2409078491355
 20
332.1329675998597
 30
0.0
 10
178.4483213683333
 20
331.3705158223294
 30
0.0
 10
178.6325607548436
 20
330.5965206358663
 30
0.0
 10
178.792926545041
 20
329.8116542870215
 30
0.0
 10
178.9287343021348
 20
329.0166269975938
 30
0.0
 10
179.0393164652258
 20
328.2121870534045
 30
0.0
 10
179.1240242418478
 20
327.3991208142457
 30
0.0
 10
179.1822295414144
 20
326.5782526411513
 30
0.0
 10
179.2133269467422
 20
325.7504447371602
 30
0.0
 10
179.2167357205677
 20
324.9165968977809
 30
0.0
 10
179.1919018437149
 20
324.0776461674122
 30
0.0
 10
179.1383000813056
 20
323.2345663980413
 30
0.0
 10
179.0554360731368
 20
322.3883677066194
 30
0.0
 10
178.9428484440763
 20
321.540095827605
 30
0.0
 10
178.8001109300517
 20
320.6908313572781
 30
0.0
 10
178.6268345149335
 20
319.841688886551
 30
0.0
 10
178.4226695733293
 20
318.9938160191462
 30
0.0
 10
178.1873080140292
 20
318.1483922721711
 30
0.0
 10
177.920485418561
 20
317.3066278562966
 30
0.0
 10
177.6219831690357
 20
316.4697623329418
 30
0.0
 10
177.2916305591723
 20
315.6390631460991
 30
0.0
 10
176.9293068821711
 20
314.815824026593
 30
0.0
 10
176.5349434886148
 20
314.0013632671283
 30
0.0
 10
176.1085258081229
 20
313.197021865582
 30
0.0
 10
175.6500953251551
 20
312.4041615387482
 30
0.0
 10
175.1597515106245
 20
311.6241625922879
 30
0.0
 10
174.6376536674173
 20
310.8584216960563
 30
0.0
 10
174.0840228104735
 20
310.1083493772618
 30
0.0
 10
173.4991430900075
 20
309.3753679353118
 30
0.0
 10
172.8833645654151
 20
308.6609071344016
 30
0.0
 10
172.2371004982611
 20
307.9664076108629
 30
0.0
 10
171.5608447893266
 20
307.2932946673993
 30
0.0
 10
170.8551132535966
 20
306.6430626893995
 30
0.0
 10
170.1206704544653
 20
306.0169434139357
 30
0.0
 10
169.3576833603597
 20
305.4171367088712
 30
0.0
 10
168.5689052358242
 20
304.8421719804118
 30
0.0
 10
168.0226090773197
 20
304.4843593274889
 30
0.0
 10
167.7488829828783
 20
304.3050744130673
 30
0.0
  0
SPLINE
  5
1BD
330
1F
100
AcDbEntity
  8
0
  6
Continuous
 62
     8
370
    18
100
AcDbSpline
210
0.0
220
0.0
230
1.0
 70
     8
 71
     3
 72
    16
 73
    12
 74
     0
 42
0.00000001
 43
0.00000001
 40
0.0
 40
0.0
 40
0.0
 40
0.0
 40
0.0486821170829467
 40
0.1229768340660994
 40
0.2226290364729237
 40
0.3485629295061136
 40
0.4999689486000783
 40
0.5953228304110874
 40
0.7503817081495135
 40
0.874096276647043
 40
1.0
 40
1.0
 40
1.0
 40
1.0
 10
167.7488823176301
 20
304.3050740483275
 30
0.0
 10
167.6052755258729
 20
304.2143685444842
 30
0.0
 10
167.2425076419169
 20
303.9852356233332
 30
0.0
 10
166.5944614090774
 20
303.5574553404459
 30
0.0
 10
165.7676737344877
 20
302.9191296271186
 30
0.0
 10
164.8309401714371
 20
302.0034530157985
 30
0.0
 10
164.0852479868812
 20
300.9463243503183
 30
0.0
 10
163.5171727422155
 20
299.6899855437961
 30
0.0
 10
163.2027039506597
 20
298.4454377125611
 30
0.0
 10
163.0681930844925
 20
297.0729242074432
 30
0.0
 10
163.0621501938916
 20
296.2236841295008
 30
0.0
 10
163.0591022504864
 20
295.7953401686441
 30
0.0
  0
LINE
  5
1BE
330
1F
100
AcDbEntity
  8
0
  6
Continuous
 62
     8
370
    18
100
AcDbLine
 10
163.0591013518
 20
295.7953401809
 30
0.0
 11
162.7598706733
 21
238.6470125118
 31
0.0
  0
LINE
  5
1BF
330
1F
100
AcDbEntity
  8
0
  6
Continuous
 62
     8
370
    18
100
AcDbLine
 10
162.7598706733
 20
238.6470125118
 30
0.0
 11
162.7590449328
 21
238.4893091389
 31
0.0
  0
ARC
  5
1C0
330
1F
100
AcDbEntity
  8
0
  6
Continuous
 62
     8
370
    18
100
AcDbCircle
 10
145.4325160944
 20
294.4650178177
 30
0.0
 40
1.354525124326894
100
AcDbArc
 50
79.1526076085
 51
131.9269955836
  0
ARC
  5
1C1
330
1F
100
AcDbEntity
  8
0
  6
Continuous
 62
     8
370
    18
100
AcDbCircle
 10
143.0596998232
 20
302.5137283584
 30
0.0
 40
2.731478963252422
100
AcDbArc
 50
139.0184496817
 51
169.5409241577
  0
SPLINE
  5
1C2
330
1F
100
AcDbEntity
  8
0
  6
Continuous
 62
     8
370
    18
100
AcDbSpline
210
0.0
220
0.0
230
1.0
 70
     8
 71
     3
 72
    51
 73
    47
 74
     0
 42
0.00000001
 43
0.00000001
 40
0.0
 40
0.0
 40
0.0
 40
0.0
 40
0.0624999999999998
 40
0.0624999999999998
 40
0.1249999999999997
 40
0.1249999999999997
 40
0.1562499999999985
 40
0.1562499999999985
 40
0.1874999999999973
 40
0.1874999999999973
 40
0.2499999999999966
 40
0.2499999999999966
 40
0.3124999999999958
 40
0.3124999999999958
 40
0.343749999999996
 40
0.343749999999996
 40
0.3749999999999961
 40
0.3749999999999961
 40
0.4374999999999961
 40
0.4374999999999961
 40
0.4687499999999962
 40
0.4687499999999962
 40
0.4999999999999963
 40
0.4999999999999963
 40
0.5624999999999966
 40
0.5624999999999966
 40
0.5937499999999967
 40
0.5937499999999967
 40
0.6249999999999968
 40
0.6562499999999969
 40
0.6562499999999969
 40
0.6874999999999971
 40
0.6874999999999971
 40
0.749999999999997
 40
0.749999999999997
 40
0.7812499999999966
 40
0.7812499999999966
 40
0.8124999999999962
 40
0.8124999999999962
 40
0.8749999999999968
 40
0.8749999999999968
 40
0.9062499999999979
 40
0.9062499999999979
 40
0.937499999999999
 40
0.937499999999999
 40
1.0
 40
1.0
 40
1.0
 40
1.0
 10
140.2697188396455
 20
110.7523543519494
 30
0.0
 10
140.2697188396455
 20
109.8568153974439
 30
0.0
 10
140.3638868148211
 20
108.9617009395539
 30
0.0
 10
140.7279311871718
 20
107.2303045436801
 30
0.0
 10
140.9967408493184
 20
106.3893224947964
 30
0.0
 10
141.5314777042231
 20
105.1650494491947
 30
0.0
 10
141.7329070911664
 20
104.7616389674202
 30
0.0
 10
142.1719251515505
 20
103.9843553325293
 30
0.0
 10
142.4101299182618
 20
103.6086063441975
 30
0.0
 10
143.1795745349703
 20
102.5190672163123
 30
0.0
 10
143.7666039455305
 20
101.8412095296959
 30
0.0
 10
145.0858286786017
 20
100.5947333255688
 30
0.0
 10
145.7987526874584
 20
100.0437563613464
 30
0.0
 10
146.9448744638089
 20
99.32083416905
 30
0.0
 10
147.3397992509148
 20
99.097246559344
 30
0.0
 10
148.1560099874597
 20
98.68557205046795
 30
0.0
 10
148.5779098979394
 20
98.49755213502588
 30
0.0
 10
149.8557727518926
 20
97.99912361045148
 30
0.0
 10
150.7325912528858
 20
97.74886307825102
 30
0.0
 10
152.0849221719976
 20
97.49537815124447
 30
0.0
 10
152.5439922297767
 20
97.43117781742131
 30
0.0
 10
153.4652188564263
 20
97.3461513957843
 30
0.0
 10
153.9246301939106
 20
97.32536172577673
 30
0.0
 10
155.2993635848856
 20
97.32624832283427
 30
0.0
 10
156.2112180953098
 20
97.41057439255503
 30
0.0
 10
157.5718585605101
 20
97.66619064036912
 30
0.0
 10
158.0229556259838
 20
97.77311847283697
 30
0.0
 10
158.9033547747952
 20
98.0257540749981
 30
0.0
 10
159.7667921510698
 20
98.31798792315345
 30
0.0
 10
160.5967326631439
 20
98.68852441540905
 30
0.0
 10
161.4096556666237
 20
99.09890436127034
 30
0.0
 10
161.8097042406289
 20
99.32540807576336
 30
0.0
 10
162.9656358019317
 20
100.0560477082135
 30
0.0
 10
163.6761073840503
 20
100.608383738021
 30
0.0
 10
164.6534527469705
 20
101.5331994462861
 30
0.0
 10
164.9644027573196
 20
101.857637294916
 30
0.0
 10
165.5556395942813
 20
102.5400168468336
 30
0.0
 10
165.8334022991587
 20
102.8953381539157
 30
0.0
 10
166.6039499676733
 20
103.9895583917493
 30
0.0
 10
167.0392080691289
 20
104.761693051648
 30
0.0
 10
167.5730355787724
 20
105.9850299539965
 30
0.0
 10
167.7315846906387
 20
106.4060491218614
 30
0.0
 10
168.0017968337619
 20
107.2539992579778
 30
0.0
 10
168.1141858699885
 20
107.6819542231062
 30
0.0
 10
168.384692338221
 20
108.9775504755658
 30
0.0
 10
168.4768117725993
 20
109.8568129526222
 30
0.0
 10
168.4768117725993
 20
110.7523543519494
 30
0.0
  0
LINE
  5
1C3
330
1F
100
AcDbEntity
  8
0
  6
Continuous
 62
     8
370
    18
100
AcDbLine
 10
140.2697188396
 20
301.7032104452
 30
0.0
 11
140.2697188396
 21
110.7523543519
 31
0.0
  0
LINE
  5
1C4
330
1F
100
AcDbEntity
  8
0
  6
Continuous
 62
     8
370
    18
100
AcDbLine
 10
168.4768117726
 20
301.7032104449
 30
0.0
 11
165.221326148
 21
300.0025488392
 31
0.0
  0
LINE
  5
1C5
330
1F
100
AcDbEntity
  8
0
  6
Continuous
 62
     8
370
    18
100
AcDbLine
 10
143.5278135882
 20
300.0005965732
 30
0.0
 11
140.2697188392
 21
301.7032104452
 31
0.0
  0
LINE
  5
1C6
330
1F
100
AcDbEntity
  8
0
  6
Continuous
 62
     8
370
    18
100
AcDbLine
 10
168.4768117726
 20
110.7523543519
 30
0.0
 11
168.4768117726
 21
301.7032104449
 31
0.0
  0
SPLINE
  5
1C7
330
1F
100
AcDbEntity
  8
0
  6
Continuous
 62
     8
370
    18
100
AcDbSpline
210
0.0
220
0.0
230
1.0
 70
     8
 71
     3
 72
    27
 73
    23
 74
     0
 42
0.00000001
 43
0.00000001
 40
0.0
 40
0.0
 40
0.0
 40
0.0
 40
0.0261138398255659
 40
0.0539181105946664
 40
0.0834765135668799
 40
0.1148420610186907
 40
0.1480591109150734
 40
0.1831650004164956
 40
0.2201913499721875
 40
0.2591651029341835
 40
0.3001093554029379
 40
0.3430440206665275
 40
0.3879863634429932
 40
0.4349514315488378
 40
0.4839524065426057
 40
0.5705894902936317
 40
0.6575900891238095
 40
0.74495595808849
 40
0.8094467472904284
 40
0.8734239388108638
 40
0.936927923411254
 40
1.0
 40
1.0
 40
1.0
 40
1.0
 10
170.8732653061224
 20
303.9846829299325
 30
0.0
 10
170.8727055659242
 20
303.9802304267262
 30
0.0
 10
170.8715498517853
 20
303.971037195784
 30
0.0
 10
170.8621507160508
 20
303.9477065221057
 30
0.0
 10
170.8463623150233
 20
303.9169930682739
 30
0.0
 10
170.8228706883534
 20
303.8779978989535
 30
0.0
 10
170.7911375588324
 20
303.8308140088012
 30
0.0
 10
170.7504078282404
 20
303.7752133825951
 30
0.0
 10
170.7000129279404
 20
303.7110300878509
 30
0.0
 10
170.6392958414851
 20
303.6380479359678
 30
0.0
 10
170.5676500364821
 20
303.5560295230674
 30
0.0
 10
170.4845183872075
 20
303.4647181627762
 30
0.0
 10
170.3894382968847
 20
303.3637931986972
 30
0.0
 10
170.2819418927157
 20
303.2530588239932
 30
0.0
 10
170.1330007017095
 20
303.1023108042184
 30
0.0
 10
169.934183007101
 20
302.9105966621352
 30
0.0
 10
169.677006206126
 20
302.6773108011962
 30
0.0
 10
169.4251855031258
 20
302.4528637542995
 30
0.0
 10
169.1840454799028
 20
302.246169856936
 30
0.0
 10
168.9565152180309
 20
302.0639346170711
 30
0.0
 10
168.7210467025572
 20
301.8830937882153
 30
0.0
 10
168.5580380076071
 20
301.76303500285
 30
0.0
 10
168.4768117725992
 20
301.7032104449156
 30
0.0
  0
SPLINE
  5
1C8
330
1F
100
AcDbEntity
  8
0
  6
Continuous
 62
     8
370
    18
100
AcDbSpline
210
0.0
220
0.0
230
1.0
 70
     8
 71
     3
 72
    24
 73
    20
 74
     0
 42
0.00000001
 43
0.00000001
 40
0.0
 40
0.0
 40
0.0
 40
0.0
 40
0.0363183907851009
 40
0.0751218601797025
 40
0.11642160720405
 40
0.1602269069237058
 40
0.2065455198874976
 40
0.2553839992439104
 40
0.3415663784588101
 40
0.4281310523610985
 40
0.5150799720815717
 40
0.591502979127918
 40
0.663196095180969
 40
0.730237971818879
 40
0.7927248529396494
 40
0.8507756697962111
 40
0.9045388296443205
 40
0.9542012228893855
 40
1.0
 40
1.0
 40
1.0
 40
1.0
 10
140.2697188392541
 20
301.703210445202
 30
0.0
 10
140.2228744751151
 20
301.7377497958894
 30
0.0
 10
140.125980430611
 20
301.8091918454118
 30
0.0
 10
139.9795585605748
 20
301.9205416770525
 30
0.0
 10
139.8270041165433
 20
302.0389877128552
 30
0.0
 10
139.6694548996652
 20
302.164304578509
 30
0.0
 10
139.5078020166402
 20
302.296078748974
 30
0.0
 10
139.3044828512232
 20
302.46709858735
 30
0.0
 10
139.0683739651427
 20
302.6720514677906
 30
0.0
 10
138.8125482407782
 20
302.9042601913276
 30
0.0
 10
138.5914969814661
 20
303.1232261528123
 30
0.0
 10
138.4049137906663
 20
303.3196331671595
 30
0.0
 10
138.2513863485801
 20
303.4841597244791
 30
0.0
 10
138.1264926383893
 20
303.6244096335515
 30
0.0
 10
138.028713116628
 20
303.7409426609974
 30
0.0
 10
137.9562105420041
 20
303.8349493914599
 30
0.0
 10
137.9075402774998
 20
303.9065110153944
 30
0.0
 10
137.8785896516203
 20
303.9584588371173
 30
0.0
 10
137.8749915457048
 20
303.9761806516631
 30
0.0
 10
137.8732653061224
 20
303.9846829299335
 30
0.0
  0
ENDSEC
  0
SECTION
  2
OBJECTS
  0
DICTIONARY
  5
C
330
0
100
AcDbDictionary
281
     1
  3
ACAD_GROUP
350
D
  3
ACAD_LAYOUT
350
1A
  3
ACAD_MLINESTYLE
350
17
  3
ACAD_PLOTSETTINGS
350
19
  3
ACAD_PLOTSTYLENAME
350
E
  3
ACAD_SCALELIST
350
47
  3
DWGPROPS
350
1C9
  0
DICTIONARY
  5
D
102
{ACAD_REACTORS
330
C
102
}
330
C
100
AcDbDictionary
281
     1
  0
DICTIONARY
  5
1A
102
{ACAD_REACTORS
330
C
102
}
330
C
100
AcDbDictionary
281
     1
  3
Layout1
350
1E
  3
Layout2
350
26
  3
Model
350
22
  0
DICTIONARY
  5
17
102
{ACAD_REACTORS
330
C
102
}
330
C
100
AcDbDictionary
281
     1
  3
Standard
350
18
  0
DICTIONARY
  5
19
102
{ACAD_REACTORS
330
C
102
}
330
C
100
AcDbDictionary
281
     1
  0
ACDBDICTIONARYWDFLT
  5
E
102
{ACAD_REACTORS
330
C
102
}
330
C
100
AcDbDictionary
281
     1
  3
Normal
350
F
100
AcDbDictionaryWithDefault
340
F
  0
DICTIONARY
  5
47
102
{ACAD_REACTORS
330
C
102
}
330
C
100
AcDbDictionary
281
     1
  3
A0
350
48
  3
A1
350
49
  3
A2
350
4A
  3
A3
350
4B
  3
A4
350
4C
  3
A5
350
4D
  3
A6
350
4E
  3
A7
350
4F
  3
A8
350
50
  3
A9
350
51
  3
B0
350
52
  3
B1
350
53
  3
B2
350
54
  3
B3
350
55
  3
B4
350
56
  3
B5
350
57
  3
B6
350
58
  3
B7
350
59
  3
B8
350
5A
  3
B9
350
5B
  3
C0
350
5C
  3
C1
350
5D
  3
C2
350
5E
  3
C3
350
5F
  3
C4
350
60
  3
C5
350
61
  3
C6
350
62
  3
C7
350
63
  3
C8
350
64
  3
C9
350
65
  3
D0
350
66
  3
D1
350
67
  3
D2
350
68
  0
XRECORD
  5
1C9
102
{ACAD_REACTORS
330
C
102
}
330
C
100
AcDbXrecord
280
     1
  1
DWGPROPS COOKIE
  2

  3

  4

  6

  7

  8
mwolf
  9

300
=
301
=
302
=
303
=
304
=
305
=
306
=
307
=
308
=
309
=
 40
0.0
 41
2459220.372252697
 42
2459220.372255046
  1

 90
        0
  0
LAYOUT
  5
1E
102
{ACAD_REACTORS
330
1A
102
}
330
1A
100
AcDbPlotSettings
  1

  2
none_device
  4

  6

 40
0.0
 41
0.0
 42
0.0
 43
0.0
 44
0.0
 45
0.0
 46
0.0
 47
0.0
 48
0.0
 49
0.0
140
0.0
141
0.0
142
1.0
143
1.0
 70
   688
 72
     1
 73
     0
 74
     5
  7

 75
    16
147
1.0
148
0.0
149
0.0
100
AcDbLayout
  1
Layout1
 70
     1
 71
     1
 10
0.0
 20
0.0
 11
420.0
 21
297.0
 12
0.0
 22
0.0
 32
0.0
 14
1.0000000000E+20
 24
1.0000000000E+20
 34
1.0000000000E+20
 15
-1.0000000000E+20
 25
-1.0000000000E+20
 35
-1.0000000000E+20
146
0.0
 13
0.0
 23
0.0
 33
0.0
 16
1.0
 26
0.0
 36
0.0
 17
0.0
 27
1.0
 37
0.0
 76
     0
330
1B
  0
LAYOUT
  5
26
102
{ACAD_REACTORS
330
1A
102
}
330
1A
100
AcDbPlotSettings
  1

  2
none_device
  4

  6

 40
0.0
 41
0.0
 42
0.0
 43
0.0
 44
0.0
 45
0.0
 46
0.0
 47
0.0
 48
0.0
 49
0.0
140
0.0
141
0.0
142
1.0
143
1.0
 70
   688
 72
     1
 73
     0
 74
     5
  7

 75
    16
147
1.0
148
0.0
149
0.0
100
AcDbLayout
  1
Layout2
 70
     1
 71
     2
 10
0.0
 20
0.0
 11
0.0
 21
0.0
 12
0.0
 22
0.0
 32
0.0
 14
0.0
 24
0.0
 34
0.0
 15
0.0
 25
0.0
 35
0.0
146
0.0
 13
0.0
 23
0.0
 33
0.0
 16
1.0
 26
0.0
 36
0.0
 17
0.0
 27
1.0
 37
0.0
 76
     0
330
23
  0
LAYOUT
  5
22
102
{ACAD_REACTORS
330
1A
102
}
330
1A
100
AcDbPlotSettings
  1

  2
none_device
  4
Letter_(8.50_x_11.00_Inches)
  6

 40
6.35
 41
6.35
 42
6.35000508
 43
6.35000508
 44
215.9
 45
279.4
 46
0.0
 47
0.0
 48
0.0
 49
0.0
140
0.0
141
0.0
142
1.0
143
1.0
 70
  1712
 72
     1
 73
     0
 74
     0
  7

 75
     0
147
1.0
148
0.0
149
0.0
100
AcDbLayout
  1
Model
 70
     1
 71
     0
 10
0.0
 20
0.0
 11
594.0
 21
841.0
 12
0.0
 22
0.0
 32
0.0
 14
0.0
 24
0.0
 34
0.0
 15
594.0
 25
841.0
 35
0.0
146
0.0
 13
0.0
 23
0.0
 33
0.0
 16
1.0
 26
0.0
 36
0.0
 17
0.0
 27
1.0
 37
0.0
 76
     0
330
1F
331
29
  0
MLINESTYLE
  5
18
102
{ACAD_REACTORS
330
17
102
}
330
17
100
AcDbMlineStyle
  2
Standard
 70
     0
  3

 62
   256
 51
90.0
 52
90.0
 71
     2
 49
0.5
 62
   256
  6
BYLAYER
 49
-0.5
 62
   256
  6
BYLAYER
  0
ACDBPLACEHOLDER
  5
F
102
{ACAD_REACTORS
330
E
102
}
330
E
  0
SCALE
  5
48
102
{ACAD_REACTORS
330
47
102
}
330
47
100
AcDbScale
 70
     0
300
1:1
140
1.0
141
1.0
290
     1
  0
SCALE
  5
49
102
{ACAD_REACTORS
330
47
102
}
330
47
100
AcDbScale
 70
     0
300
1:2
140
1.0
141
2.0
290
     0
  0
SCALE
  5
4A
102
{ACAD_REACTORS
330
47
102
}
330
47
100
AcDbScale
 70
     0
300
1:4
140
1.0
141
4.0
290
     0
  0
SCALE
  5
4B
102
{ACAD_REACTORS
330
47
102
}
330
47
100
AcDbScale
 70
     0
300
1:5
140
1.0
141
5.0
290
     0
  0
SCALE
  5
4C
102
{ACAD_REACTORS
330
47
102
}
330
47
100
AcDbScale
 70
     0
300
1:8
140
1.0
141
8.0
290
     0
  0
SCALE
  5
4D
102
{ACAD_REACTORS
330
47
102
}
330
47
100
AcDbScale
 70
     0
300
1:10
140
1.0
141
10.0
290
     0
  0
SCALE
  5
4E
102
{ACAD_REACTORS
330
47
102
}
330
47
100
AcDbScale
 70
     0
300
1:16
140
1.0
141
16.0
290
     0
  0
SCALE
  5
4F
102
{ACAD_REACTORS
330
47
102
}
330
47
100
AcDbScale
 70
     0
300
1:20
140
1.0
141
20.0
290
     0
  0
SCALE
  5
50
102
{ACAD_REACTORS
330
47
102
}
330
47
100
AcDbScale
 70
     0
300
1:30
140
1.0
141
30.0
290
     0
  0
SCALE
  5
51
102
{ACAD_REACTORS
330
47
102
}
330
47
100
AcDbScale
 70
     0
300
1:40
140
1.0
141
40.0
290
     0
  0
SCALE
  5
52
102
{ACAD_REACTORS
330
47
102
}
330
47
100
AcDbScale
 70
     0
300
1:50
140
1.0
141
50.0
290
     0
  0
SCALE
  5
53
102
{ACAD_REACTORS
330
47
102
}
330
47
100
AcDbScale
 70
     0
300
1:100
140
1.0
141
100.0
290
     0
  0
SCALE
  5
54
102
{ACAD_REACTORS
330
47
102
}
330
47
100
AcDbScale
 70
     0
300
2:1
140
2.0
141
1.0
290
     0
  0
SCALE
  5
55
102
{ACAD_REACTORS
330
47
102
}
330
47
100
AcDbScale
 70
     0
300
4:1
140
4.0
141
1.0
290
     0
  0
SCALE
  5
56
102
{ACAD_REACTORS
330
47
102
}
330
47
100
AcDbScale
 70
     0
300
8:1
140
8.0
141
1.0
290
     0
  0
SCALE
  5
57
102
{ACAD_REACTORS
330
47
102
}
330
47
100
AcDbScale
 70
     0
300
10:1
140
10.0
141
1.0
290
     0
  0
SCALE
  5
58
102
{ACAD_REACTORS
330
47
102
}
330
47
100
AcDbScale
 70
     0
300
100:1
140
100.0
141
1.0
290
     0
  0
SCALE
  5
59
102
{ACAD_REACTORS
330
47
102
}
330
47
100
AcDbScale
 70
     0
300
1/128" = 1'-0"
140
0.0078125
141
12.0
290
     0
  0
SCALE
  5
5A
102
{ACAD_REACTORS
330
47
102
}
330
47
100
AcDbScale
 70
     0
300
1/64" = 1'-0"
140
0.015625
141
12.0
290
     0
  0
SCALE
  5
5B
102
{ACAD_REACTORS
330
47
102
}
330
47
100
AcDbScale
 70
     0
300
1/32" = 1'-0"
140
0.03125
141
12.0
290
     0
  0
SCALE
  5
5C
102
{ACAD_REACTORS
330
47
102
}
330
47
100
AcDbScale
 70
     0
300
1/16" = 1'-0"
140
0.0625
141
12.0
290
     0
  0
SCALE
  5
5D
102
{ACAD_REACTORS
330
47
102
}
330
47
100
AcDbScale
 70
     0
300
3/32" = 1'-0"
140
0.09375
141
12.0
290
     0
  0
SCALE
  5
5E
102
{ACAD_REACTORS
330
47
102
}
330
47
100
AcDbScale
 70
     0
300
1/8" = 1'-0"
140
0.125
141
12.0
290
     0
  0
SCALE
  5
5F
102
{ACAD_REACTORS
330
47
102
}
330
47
100
AcDbScale
 70
     0
300
3/16" = 1'-0"
140
0.1875
141
12.0
290
     0
  0
SCALE
  5
60
102
{ACAD_REACTORS
330
47
102
}
330
47
100
AcDbScale
 70
     0
300
1/4" = 1'-0"
140
0.25
141
12.0
290
     0
  0
SCALE
  5
61
102
{ACAD_REACTORS
330
47
102
}
330
47
100
AcDbScale
 70
     0
300
3/8" = 1'-0"
140
0.375
141
12.0
290
     0
  0
SCALE
  5
62
102
{ACAD_REACTORS
330
47
102
}
330
47
100
AcDbScale
 70
     0
300
1/2" = 1'-0"
140
0.5
141
12.0
290
     0
  0
SCALE
  5
63
102
{ACAD_REACTORS
330
47
102
}
330
47
100
AcDbScale
 70
     0
300
3/4" = 1'-0"
140
0.75
141
12.0
290
     0
  0
SCALE
  5
64
102
{ACAD_REACTORS
330
47
102
}
330
47
100
AcDbScale
 70
     0
300
1" = 1'-0"
140
1.0
141
12.0
290
     0
  0
SCALE
  5
65
102
{ACAD_REACTORS
330
47
102
}
330
47
100
AcDbScale
 70
     0
300
1-1/2" = 1'-0"
140
1.5
141
12.0
290
     0
  0
SCALE
  5
66
102
{ACAD_REACTORS
330
47
102
}
330
47
100
AcDbScale
 70
     0
300
3" = 1'-0"
140
3.0
141
12.0
290
     0
  0
SCALE
  5
67
102
{ACAD_REACTORS
330
47
102
}
330
47
100
AcDbScale
 70
     0
300
6" = 1'-0"
140
6.0
141
12.0
290
     0
  0
SCALE
  5
68
102
{ACAD_REACTORS
330
47
102
}
330
47
100
AcDbScale
 70
     0
300
1'-0" = 1'-0"
140
12.0
141
12.0
290
     0
  0
ENDSEC
  0
EOF
