  0
SECTION
  2
HEADER
  9
$ACADVER
  1
AC1015
  9
$ACADMAINTVER
 70
     6
  9
$DWGCODEPAGE
  3
ANSI_1252
  9
$INSBASE
 10
0.0
 20
0.0
 30
0.0
  9
$EXTMIN
 10
0.0
 20
0.0
 30
0.0
  9
$EXTMAX
 10
841.0
 20
1189.0
 30
0.0
  9
$LIMMIN
 10
0.0
 20
0.0
  9
$LIMMAX
 10
841.0
 20
1189.0
  9
$ORTHOMODE
 70
     0
  9
$REGENMODE
 70
     1
  9
$FILLMODE
 70
     1
  9
$QTEXTMODE
 70
     0
  9
$MIRRTEXT
 70
     1
  9
$LTSCALE
 40
1.0
  9
$ATTMODE
 70
     1
  9
$TEXTSIZE
 40
10.0
  9
$TRACEWID
 40
1.0
  9
$TEXTSTYLE
  7
Standard
  9
$CLAYER
  8
0
  9
$CELTYPE
  6
ByLayer
  9
$CECOLOR
 62
   256
  9
$CELTSCALE
 40
1.0
  9
$DISPSILH
 70
     0
  9
$DIMSCALE
 40
1.0
  9
$DIMASZ
 40
2.5
  9
$DIMEXO
 40
0.0
  9
$DIMDLI
 40
3.75
  9
$DIMRND
 40
0.0
  9
$DIMDLE
 40
0.0
  9
$DIMEXE
 40
1.0
  9
$DIMTP
 40
0.0
  9
$DIMTM
 40
0.0
  9
$DIMTXT
 40
3.5
  9
$DIMCEN
 40
2.5
  9
$DIMTSZ
 40
0.0
  9
$DIMTOL
 70
     0
  9
$DIMLIM
 70
     0
  9
$DIMTIH
 70
     1
  9
$DIMTOH
 70
     1
  9
$DIMSE1
 70
     0
  9
$DIMSE2
 70
     0
  9
$DIMTAD
 70
     1
  9
$DIMZIN
 70
     0
  9
$DIMBLK
  1

  9
$DIMASO
 70
     1
  9
$DIMSHO
 70
     1
  9
$DIMPOST
  1

  9
$DIMAPOST
  1

  9
$DIMALT
 70
     0
  9
$DIMALTD
 70
     3
  9
$DIMALTF
 40
0.0393700787
  9
$DIMLFAC
 40
1.0
  9
$DIMTOFL
 70
     1
  9
$DIMTVP
 40
0.0
  9
$DIMTIX
 70
     0
  9
$DIMSOXD
 70
     0
  9
$DIMSAH
 70
     0
  9
$DIMBLK1
  1

  9
$DIMBLK2
  1

  9
$DIMSTYLE
  2
ISO-25
  9
$DIMCLRD
 70
     0
  9
$DIMCLRE
 70
     0
  9
$DIMCLRT
 70
     0
  9
$DIMTFAC
 40
1.0
  9
$DIMGAP
 40
1.5
  9
$DIMJUST
 70
     0
  9
$DIMSD1
 70
     0
  9
$DIMSD2
 70
     0
  9
$DIMTOLJ
 70
     0
  9
$DIMTZIN
 70
     0
  9
$DIMALTZ
 70
     0
  9
$DIMALTTZ
 70
     0
  9
$DIMUPT
 70
     0
  9
$DIMDEC
 70
     2
  9
$DIMTDEC
 70
     2
  9
$DIMALTU
 70
     2
  9
$DIMALTTD
 70
     3
  9
$DIMTXSTY
  7
Standard
  9
$DIMAUNIT
 70
     0
  9
$DIMADEC
 70
     2
  9
$DIMALTRND
 40
0.0
  9
$DIMAZIN
 70
     0
  9
$DIMDSEP
 70
    44
  9
$DIMATFIT
 70
     3
  9
$DIMFRAC
 70
     0
  9
$DIMLDRBLK
  1

  9
$DIMLUNIT
 70
     2
  9
$DIMLWD
 70
    -2
  9
$DIMLWE
 70
    -2
  9
$DIMTMOVE
 70
     0
  9
$LUNITS
 70
     2
  9
$LUPREC
 70
     2
  9
$SKETCHINC
 40
1.0
  9
$FILLETRAD
 40
10.0
  9
$AUNITS
 70
     0
  9
$AUPREC
 70
     2
  9
$MENU
  1
.
  9
$ELEVATION
 40
0.0
  9
$PELEVATION
 40
0.0
  9
$THICKNESS
 40
0.0
  9
$LIMCHECK
 70
     0
  9
$CHAMFERA
 40
0.0
  9
$CHAMFERB
 40
0.0
  9
$CHAMFERC
 40
0.0
  9
$CHAMFERD
 40
0.0
  9
$SKPOLY
 70
     0
  9
$TDCREATE
 40
2459571.361120093
  9
$TDUCREATE
 40
2459571.319453426
  9
$TDUPDATE
 40
2459571.361120822
  9
$TDUUPDATE
 40
2459571.319454155
  9
$TDINDWG
 40
0.0000000116
  9
$TDUSRTIMER
 40
0.0000000116
  9
$USRTIMER
 70
     1
  9
$ANGBASE
 50
0.0
  9
$ANGDIR
 70
     0
  9
$PDMODE
 70
     0
  9
$PDSIZE
 40
-1.0
  9
$PLINEWID
 40
0.0
  9
$SPLFRAME
 70
     0
  9
$SPLINETYPE
 70
     6
  9
$SPLINESEGS
 70
     8
  9
$HANDSEED
  5
12D
  9
$SURFTAB1
 70
     6
  9
$SURFTAB2
 70
     6
  9
$SURFTYPE
 70
     6
  9
$SURFU
 70
     6
  9
$SURFV
 70
     6
  9
$UCSBASE
  2

  9
$UCSNAME
  2

  9
$UCSORG
 10
0.0
 20
0.0
 30
0.0
  9
$UCSXDIR
 10
1.0
 20
0.0
 30
0.0
  9
$UCSYDIR
 10
0.0
 20
1.0
 30
0.0
  9
$UCSORTHOREF
  2

  9
$UCSORTHOVIEW
 70
     0
  9
$UCSORGTOP
 10
0.0
 20
0.0
 30
0.0
  9
$UCSORGBOTTOM
 10
0.0
 20
0.0
 30
0.0
  9
$UCSORGLEFT
 10
0.0
 20
0.0
 30
0.0
  9
$UCSORGRIGHT
 10
0.0
 20
0.0
 30
0.0
  9
$UCSORGFRONT
 10
0.0
 20
0.0
 30
0.0
  9
$UCSORGBACK
 10
0.0
 20
0.0
 30
0.0
  9
$PUCSBASE
  2

  9
$PUCSNAME
  2

  9
$PUCSORG
 10
0.0
 20
0.0
 30
0.0
  9
$PUCSXDIR
 10
1.0
 20
0.0
 30
0.0
  9
$PUCSYDIR
 10
0.0
 20
1.0
 30
0.0
  9
$PUCSORTHOREF
  2

  9
$PUCSORTHOVIEW
 70
     0
  9
$PUCSORGTOP
 10
0.0
 20
0.0
 30
0.0
  9
$PUCSORGBOTTOM
 10
0.0
 20
0.0
 30
0.0
  9
$PUCSORGLEFT
 10
0.0
 20
0.0
 30
0.0
  9
$PUCSORGRIGHT
 10
0.0
 20
0.0
 30
0.0
  9
$PUCSORGFRONT
 10
0.0
 20
0.0
 30
0.0
  9
$PUCSORGBACK
 10
0.0
 20
0.0
 30
0.0
  9
$USERI1
 70
     0
  9
$USERI2
 70
     0
  9
$USERI3
 70
     0
  9
$USERI4
 70
     0
  9
$USERI5
 70
     0
  9
$USERR1
 40
0.0
  9
$USERR2
 40
0.0
  9
$USERR3
 40
0.0
  9
$USERR4
 40
0.0
  9
$USERR5
 40
0.0
  9
$WORLDVIEW
 70
     1
  9
$SHADEDGE
 70
     3
  9
$SHADEDIF
 70
    70
  9
$TILEMODE
 70
     1
  9
$MAXACTVP
 70
    64
  9
$PINSBASE
 10
0.0
 20
0.0
 30
0.0
  9
$PLIMCHECK
 70
     0
  9
$PEXTMIN
 10
1.0000000000E+20
 20
1.0000000000E+20
 30
1.0000000000E+20
  9
$PEXTMAX
 10
-1.0000000000E+20
 20
-1.0000000000E+20
 30
-1.0000000000E+20
  9
$PLIMMIN
 10
0.0
 20
0.0
  9
$PLIMMAX
 10
420.0
 20
297.0
  9
$UNITMODE
 70
     0
  9
$VISRETAIN
 70
     1
  9
$PLINEGEN
 70
     0
  9
$PSLTSCALE
 70
     1
  9
$TREEDEPTH
 70
  3020
  9
$CMLSTYLE
  2
Standard
  9
$CMLJUST
 70
     0
  9
$CMLSCALE
 40
20.0
  9
$PROXYGRAPHICS
 70
     1
  9
$MEASUREMENT
 70
     1
  9
$CELWEIGHT
370
    -1
  9
$ENDCAPS
280
     0
  9
$JOINSTYLE
280
     0
  9
$LWDISPLAY
290
     1
  9
$INSUNITS
 70
     4
  9
$HYPERLINKBASE
  1

  9
$STYLESHEET
  1

  9
$XEDIT
290
     1
  9
$CEPSNTYPE
380
     0
  9
$PSTYLEMODE
290
     1
  9
$FINGERPRINTGUID
  2
{9513f39c-6459-44a0-9346-07ee0c93beb0}
  9
$VERSIONGUID
  2
{FAEB1C32-E019-11D5-929B-00C0DF256EC4}
  9
$EXTNAMES
290
     1
  9
$PSVPSCALE
 40
0.0
  9
$OLESTARTUP
290
     0
  0
ENDSEC
  0
SECTION
  2
CLASSES
  0
CLASS
  1
ACDBDICTIONARYWDFLT
  2
AcDbDictionaryWithDefault
  3
ObjectDBX Classes
 90
        0
280
     0
281
     0
  0
CLASS
  1
VISUALSTYLE
  2
AcDbVisualStyle
  3
ObjectDBX Classes
 90
     4095
280
     0
281
     0
  0
CLASS
  1
MATERIAL
  2
AcDbMaterial
  3
ObjectDBX Classes
 90
     1153
280
     0
281
     0
  0
CLASS
  1
SCALE
  2
AcDbScale
  3
ObjectDBX Classes
 90
     1153
280
     0
281
     0
  0
CLASS
  1
TABLESTYLE
  2
AcDbTableStyle
  3
ObjectDBX Classes
 90
     4095
280
     0
281
     0
  0
CLASS
  1
MLEADERSTYLE
  2
AcDbMLeaderStyle
  3
ACDB_MLEADERSTYLE_CLASS
 90
     4095
280
     0
281
     0
  0
CLASS
  1
SUN
  2
AcDbSun
  3
SCENEOE
 90
     1153
280
     0
281
     0
  0
CLASS
  1
ACDBPLACEHOLDER
  2
AcDbPlaceHolder
  3
ObjectDBX Classes
 90
        0
280
     0
281
     0
  0
CLASS
  1
LAYOUT
  2
AcDbLayout
  3
ObjectDBX Classes
 90
        0
280
     0
281
     0
  0
ENDSEC
  0
SECTION
  2
TABLES
  0
TABLE
  2
VPORT
  5
8
330
0
100
AcDbSymbolTable
 70
     1
  0
VPORT
  5
29
330
8
100
AcDbSymbolTableRecord
100
AcDbViewportTableRecord
  2
*Active
 70
     0
 10
0.0
 20
0.0
 11
1.0
 21
1.0
 12
420.5
 22
594.5
 13
0.0
 23
0.0
 14
10.0
 24
10.0
 15
10.0
 25
10.0
 16
0.0
 26
0.0
 36
1.0
 17
0.0
 27
0.0
 37
0.0
 40
1189.0
 41
0.7073170732
 42
50.0
 43
0.0
 44
0.0
 50
0.0
 51
0.0
 71
     0
 72
  2000
 73
     1
 74
     3
 75
     0
 76
     0
 77
     0
 78
     0
281
     0
 65
     1
110
0.0
120
0.0
130
0.0
111
1.0
121
0.0
131
0.0
112
0.0
122
1.0
132
0.0
 79
     0
146
0.0
  0
ENDTAB
  0
TABLE
  2
LTYPE
  5
5
330
0
100
AcDbSymbolTable
 70
     6
  0
LTYPE
  5
14
330
5
100
AcDbSymbolTableRecord
100
AcDbLinetypeTableRecord
  2
ByBlock
 70
     0
  3

 72
    65
 73
     0
 40
0.0
  0
LTYPE
  5
15
330
5
100
AcDbSymbolTableRecord
100
AcDbLinetypeTableRecord
  2
ByLayer
 70
     0
  3

 72
    65
 73
     0
 40
0.0
  0
LTYPE
  5
16
330
5
100
AcDbSymbolTableRecord
100
AcDbLinetypeTableRecord
  2
Continuous
 70
     0
  3
Solid line
 72
    65
 73
     0
 40
0.0
  0
LTYPE
  5
6E
330
5
100
AcDbSymbolTableRecord
100
AcDbLinetypeTableRecord
  2
HIDDEN
 70
     0
  3
Hidden __ __ __ __ __ __ __ __ __ __ __ __ __ __
 72
    65
 73
     2
 40
1.905
 49
1.27
 74
     0
 49
-0.635
 74
     0
  0
LTYPE
  5
6F
330
5
100
AcDbSymbolTableRecord
100
AcDbLinetypeTableRecord
  2
PHANTOM
 70
     0
  3
Phantom ______  __  __  ______  __  __  ______
 72
    65
 73
     6
 40
12.7
 49
6.35
 74
     0
 49
-1.27
 74
     0
 49
1.27
 74
     0
 49
-1.27
 74
     0
 49
1.27
 74
     0
 49
-1.27
 74
     0
  0
LTYPE
  5
70
330
5
100
AcDbSymbolTableRecord
100
AcDbLinetypeTableRecord
  2
CENTER
 70
     0
  3
Center ____ _ ____ _ ____ _ ____ _ ____ _ ____
 72
    65
 73
     4
 40
10.16
 49
6.35
 74
     0
 49
-1.27
 74
     0
 49
1.27
 74
     0
 49
-1.27
 74
     0
  0
LTYPE
  5
71
330
5
100
AcDbSymbolTableRecord
100
AcDbLinetypeTableRecord
  2
CENTERX2
 70
     0
  3
Center (2x) ________  __  ________  __  _____
 72
    65
 73
     4
 40
20.32
 49
12.7
 74
     0
 49
-2.54
 74
     0
 49
2.54
 74
     0
 49
-2.54
 74
     0
  0
LTYPE
  5
72
330
5
100
AcDbSymbolTableRecord
100
AcDbLinetypeTableRecord
  2
DOT2
 70
     0
  3
Dot (.5x) ........................................
 72
    65
 73
     2
 40
0.635
 49
0.0
 74
     0
 49
-0.635
 74
     0
  0
ENDTAB
  0
TABLE
  2
LAYER
  5
2
330
0
100
AcDbSymbolTable
 70
     1
  0
LAYER
  5
10
330
2
100
AcDbSymbolTableRecord
100
AcDbLayerTableRecord
  2
0
 70
     0
 62
     7
  6
Continuous
370
    -3
390
F
  0
ENDTAB
  0
TABLE
  2
STYLE
  5
3
330
0
100
AcDbSymbolTable
 70
     3
  0
STYLE
  5
11
330
3
100
AcDbSymbolTableRecord
100
AcDbTextStyleTableRecord
  2
Standard
 70
     0
 40
0.0
 41
1.0
 50
0.0
 71
     0
 42
10.0
  3
txt
  4

  0
STYLE
  5
76
330
3
100
AcDbSymbolTableRecord
100
AcDbTextStyleTableRecord
  2
SLDTEXTSTYLE0
 70
     0
 40
0.0
 41
0.96
 50
0.0
 71
     0
 42
10.0
  3
ISOCP3
  4

  0
STYLE
  5
8D
330
3
100
AcDbSymbolTableRecord
100
AcDbTextStyleTableRecord
  2
SLDTEXTSTYLE1
 70
     0
 40
0.0
 41
0.605
 50
0.0
 71
     0
 42
10.0
  3
TXT
  4

  0
ENDTAB
  0
TABLE
  2
VIEW
  5
6
330
0
100
AcDbSymbolTable
 70
     0
  0
ENDTAB
  0
TABLE
  2
UCS
  5
7
330
0
100
AcDbSymbolTable
 70
     0
  0
ENDTAB
  0
TABLE
  2
APPID
  5
9
330
0
100
AcDbSymbolTable
 70
     1
  0
APPID
  5
12
330
9
100
AcDbSymbolTableRecord
100
AcDbRegAppTableRecord
  2
ACAD
 70
     0
  0
ENDTAB
  0
TABLE
  2
DIMSTYLE
  5
A
330
0
100
AcDbSymbolTable
 70
     2
100
AcDbDimStyleTable
  0
DIMSTYLE
105
27
330
A
100
AcDbSymbolTableRecord
100
AcDbDimStyleTableRecord
  2
ISO-25
 70
     0
 41
2.5
 42
0.625
 43
3.75
 44
1.25
 73
     0
 74
     0
 77
     1
 78
     8
140
2.5
141
2.5
143
0.0393700787
147
0.625
171
     3
172
     1
178
     0
271
     2
272
     2
274
     3
278
    44
283
     0
284
     8
340
11
  0
DIMSTYLE
105
77
102
{ACAD_REACTORS
330
75
330
82
102
}
330
A
100
AcDbSymbolTableRecord
100
AcDbDimStyleTableRecord
  2
SLDDIMSTYLE0
 70
     0
 41
2.5
 44
0.0
 45
0.000000001
 73
     0
 74
     0
 77
     1
 78
    12
 79
     3
140
6.0
147
1.5
173
     1
178
     0
271
     2
272
     2
276
     2
284
    12
340
76
  0
ENDTAB
  0
TABLE
  2
BLOCK_RECORD
  5
1
330
0
100
AcDbSymbolTable
 70
     3
  0
BLOCK_RECORD
  5
1F
330
1
100
AcDbSymbolTableRecord
100
AcDbBlockTableRecord
  2
*Model_Space
340
22
  0
BLOCK_RECORD
  5
1B
330
1
100
AcDbSymbolTableRecord
100
AcDbBlockTableRecord
  2
*Paper_Space
340
1E
  0
BLOCK_RECORD
  5
23
330
1
100
AcDbSymbolTableRecord
100
AcDbBlockTableRecord
  2
*Paper_Space0
340
26
  0
BLOCK_RECORD
  5
78
330
1
100
AcDbSymbolTableRecord
100
AcDbBlockTableRecord
  2
_D
340
0
  0
BLOCK_RECORD
  5
83
330
1
100
AcDbSymbolTableRecord
100
AcDbBlockTableRecord
  2
_D_1
340
0
  0
ENDTAB
  0
ENDSEC
  0
SECTION
  2
BLOCKS
  0
BLOCK
  5
20
330
1F
100
AcDbEntity
  8
0
100
AcDbBlockBegin
  2
*Model_Space
 70
     0
 10
0.0
 20
0.0
 30
0.0
  3
*Model_Space
  1

  0
ENDBLK
  5
21
330
1F
100
AcDbEntity
  8
0
100
AcDbBlockEnd
  0
BLOCK
  5
1C
330
1B
100
AcDbEntity
 67
     1
  8
0
100
AcDbBlockBegin
  2
*Paper_Space
 70
     0
 10
0.0
 20
0.0
 30
0.0
  3
*Paper_Space
  1

  0
ENDBLK
  5
1D
330
1B
100
AcDbEntity
 67
     1
  8
0
100
AcDbBlockEnd
  0
BLOCK
  5
24
330
23
100
AcDbEntity
  8
0
100
AcDbBlockBegin
  2
*Paper_Space0
 70
     0
 10
0.0
 20
0.0
 30
0.0
  3
*Paper_Space0
  1

  0
ENDBLK
  5
25
330
23
100
AcDbEntity
  8
0
100
AcDbBlockEnd
  0
BLOCK
  5
79
330
78
100
AcDbEntity
  8
0
100
AcDbBlockBegin
  2
_D
 70
     0
 10
0.0
 20
0.0
 30
0.0
  3
_D
  1

  0
SOLID
  5
7B
330
78
100
AcDbEntity
  8
0
  6
Continuous
 62
     7
370
    18
100
AcDbTrace
 10
42.7614395004
 20
152.0299240879
 30
0.0
 11
42.4614395004
 21
149.5299240879
 31
0.0
 12
43.0614395004
 22
149.5299240879
 32
0.0
 13
43.0614395004
 23
149.5299240879
 33
0.0
  0
SOLID
  5
7C
330
78
100
AcDbEntity
  8
0
  6
Continuous
 62
     7
370
    18
100
AcDbTrace
 10
42.7614395004
 20
52.0299240879
 30
0.0
 11
43.0614395004
 21
54.5299240879
 31
0.0
 12
42.4614395004
 22
54.5299240879
 32
0.0
 13
42.4614395004
 23
54.5299240879
 33
0.0
  0
LINE
  5
7D
330
78
100
AcDbEntity
  8
0
  6
Continuous
 62
     7
370
     0
100
AcDbLine
 10
56.6850079902
 20
152.0299240879
 30
0.0
 11
41.7614395004
 21
152.0299240879
 31
0.0
  0
LINE
  5
7E
330
78
100
AcDbEntity
  8
0
  6
Continuous
 62
     7
370
     0
100
AcDbLine
 10
56.6850079902
 20
52.0299240879
 30
0.0
 11
41.7614395004
 21
52.0299240879
 31
0.0
  0
LINE
  5
7F
330
78
100
AcDbEntity
  8
0
  6
Continuous
 62
     7
370
     0
100
AcDbLine
 10
42.7614395004
 20
152.0299240879
 30
0.0
 11
42.7614395004
 21
52.0299240879
 31
0.0
  0
MTEXT
  5
80
330
78
100
AcDbEntity
  8
0
  6
Continuous
 62
     7
370
    18
100
AcDbMText
 10
35.0270332946
 20
94.3680541463
 30
0.0
 40
6.0
 41
0.0
 71
     1
 72
     1
  1
100
  7
SLDTEXTSTYLE0
 11
-7.044195017643634E-15
 21
1.0
 31
0.0
 73
     1
 44
1.0
  0
MTEXT
  5
81
330
78
100
AcDbEntity
  8
0
  6
Continuous
 62
     7
370
    18
100
AcDbMText
 10
35.0270332946
 20
105.7430548466
 30
0.0
 40
6.0
 41
0.0
 71
     1
 72
     1
  1
mm
  7
SLDTEXTSTYLE0
 11
-7.044195017643634E-15
 21
1.0
 31
0.0
 73
     1
 44
1.0
  0
ENDBLK
  5
7A
330
78
100
AcDbEntity
  8
0
100
AcDbBlockEnd
  0
BLOCK
  5
84
330
83
100
AcDbEntity
  8
0
100
AcDbBlockBegin
  2
_D_1
 70
     0
 10
0.0
 20
0.0
 30
0.0
  3
_D_1
  1

  0
SOLID
  5
86
330
83
100
AcDbEntity
  8
0
  6
Continuous
 62
     7
370
    18
100
AcDbTrace
 10
56.6850079902
 20
38.4602342313
 30
0.0
 11
59.1850079902
 21
38.1602342313
 31
0.0
 12
59.1850079902
 22
38.7602342313
 32
0.0
 13
59.1850079902
 23
38.7602342313
 33
0.0
  0
SOLID
  5
87
330
83
100
AcDbEntity
  8
0
  6
Continuous
 62
     7
370
    18
100
AcDbTrace
 10
156.6850079902
 20
38.4602342313
 30
0.0
 11
154.1850079902
 21
38.7602342313
 31
0.0
 12
154.1850079902
 22
38.1602342313
 32
0.0
 13
154.1850079902
 23
38.1602342313
 33
0.0
  0
LINE
  5
88
330
83
100
AcDbEntity
  8
0
  6
Continuous
 62
     7
370
     0
100
AcDbLine
 10
56.6850079902
 20
52.0299240879
 30
0.0
 11
56.6850079902
 21
37.4602342313
 31
0.0
  0
LINE
  5
89
330
83
100
AcDbEntity
  8
0
  6
Continuous
 62
     7
370
     0
100
AcDbLine
 10
156.6850079902
 20
52.0299240879
 30
0.0
 11
156.6850079902
 21
37.4602342313
 31
0.0
  0
LINE
  5
8A
330
83
100
AcDbEntity
  8
0
  6
Continuous
 62
     7
370
     0
100
AcDbLine
 10
56.6850079902
 20
38.4602342313
 30
0.0
 11
156.6850079902
 21
38.4602342313
 31
0.0
  0
MTEXT
  5
8B
330
83
100
AcDbEntity
  8
0
  6
Continuous
 62
     7
370
    18
100
AcDbMText
 10
93.9626484861
 20
46.1946404371
 30
0.0
 40
6.0
 41
0.0
 71
     1
 72
     1
  1
100
  7
SLDTEXTSTYLE0
 73
     1
 44
1.0
  0
MTEXT
  5
8C
330
83
100
AcDbEntity
  8
0
  6
Continuous
 62
     7
370
    18
100
AcDbMText
 10
105.3376491864
 20
46.1946404371
 30
0.0
 40
6.0
 41
0.0
 71
     1
 72
     1
  1
mm
  7
SLDTEXTSTYLE0
 73
     1
 44
1.0
  0
ENDBLK
  5
85
330
83
100
AcDbEntity
  8
0
100
AcDbBlockEnd
  0
ENDSEC
  0
SECTION
  2
ENTITIES
  0
LINE
  5
73
330
1F
100
AcDbEntity
  8
0
  6
Continuous
 62
     7
370
    18
100
AcDbLine
 10
56.6850079902
 20
152.0299240879
 30
0.0
 11
56.6850079902
 21
52.0299240879
 31
0.0
  0
LINE
  5
74
330
1F
100
AcDbEntity
  8
0
  6
Continuous
 62
     7
370
    18
100
AcDbLine
 10
56.6850079902
 20
52.0299240879
 30
0.0
 11
156.6850079902
 21
52.0299240879
 31
0.0
  0
DIMENSION
  5
75
330
1F
100
AcDbEntity
  8
0
  6
Continuous
 62
     7
370
    18
100
AcDbDimension
  2
_D
 10
42.7614395004
 20
52.0299240879
 30
0.0
 11
42.7614395004
 21
105.4472211621
 31
0.0
 70
   160
  1
<>mm
 71
     2
 42
-1.0
  3
SLDDIMSTYLE0
100
AcDbAlignedDimension
 13
56.6850079902
 23
152.0299240879
 33
0.0
 14
56.6850079902
 24
52.0299240879
 34
0.0
 50
90.0
100
AcDbRotatedDimension
  0
DIMENSION
  5
82
330
1F
100
AcDbEntity
  8
0
  6
Continuous
 62
     7
370
    18
100
AcDbDimension
  2
_D_1
 10
156.6850079902
 20
38.4602342313
 30
0.0
 11
105.0418155019
 21
38.4602342313
 31
0.0
 70
   160
  1
<>mm
 71
     2
 42
-1.0
  3
SLDDIMSTYLE0
100
AcDbAlignedDimension
 13
56.6850079902
 23
52.0299240879
 33
0.0
 14
156.6850079902
 24
52.0299240879
 34
0.0
100
AcDbRotatedDimension
  0
MTEXT
  5
8E
330
1F
100
AcDbEntity
  8
0
  6
Continuous
 62
     7
370
     0
100
AcDbMText
 10
658.0168509251
 20
48.4342449499
 30
0.0
 40
10.0
 41
0.0
 71
     1
 72
     1
  1
KLUDI GmbH & Co KG
  7
SLDTEXTSTYLE1
 73
     1
 44
1.0
  0
MTEXT
  5
8F
330
1F
100
AcDbEntity
  8
0
  6
Continuous
 62
     7
370
     0
100
AcDbMText
 10
362.6071641649
 20
48.4342449499
 30
0.0
 40
10.0
 41
0.0
 71
     1
 72
     1
  1
20 026 .. 15
  7
SLDTEXTSTYLE1
 73
     1
 44
1.0
  0
ARC
  5
90
330
1F
100
AcDbEntity
  8
0
  6
Continuous
 62
     7
370
    25
100
AcDbCircle
 10
354.2267831882
 20
369.420041841
 30
0.0
 40
0.8000000000000114
100
AcDbArc
 50
90.0
 51
180.0
  0
ARC
  5
91
330
1F
100
AcDbEntity
  8
0
  6
Continuous
 62
     7
370
    25
100
AcDbCircle
 10
402.6267831882
 20
369.420041841
 30
0.0
 40
0.8000000000000114
100
AcDbArc
 50
0.0
 51
90.0
  0
LINE
  5
92
330
1F
100
AcDbEntity
  8
0
  6
Continuous
 62
     7
370
    25
100
AcDbLine
 10
403.4267831882
 20
363.220041841
 30
0.0
 11
403.4267831882
 21
369.420041841
 31
0.0
  0
LINE
  5
93
330
1F
100
AcDbEntity
  8
0
  6
Continuous
 62
     7
370
    25
100
AcDbLine
 10
353.4267831882
 20
369.420041841
 30
0.0
 11
353.4267831882
 21
363.220041841
 31
0.0
  0
LINE
  5
94
330
1F
100
AcDbEntity
  8
0
  6
Continuous
 62
     7
370
    25
100
AcDbLine
 10
396.4267831882
 20
505.4783720904
 30
0.0
 11
396.4267831882
 21
534.420041841
 31
0.0
  0
LINE
  5
95
330
1F
100
AcDbEntity
  8
0
  6
Continuous
 62
     7
370
    25
100
AcDbLine
 10
396.4267831882
 20
370.220041841
 30
0.0
 11
396.4267831882
 21
483.4783720902
 31
0.0
  0
LINE
  5
96
330
1F
100
AcDbEntity
  8
0
  6
Continuous
 62
     7
370
    25
100
AcDbLine
 10
360.4267831882
 20
534.420041841
 30
0.0
 11
360.4267831882
 21
370.220041841
 31
0.0
  0
ARC
  5
97
330
1F
100
AcDbEntity
  8
0
  6
Continuous
 62
     7
370
    25
100
AcDbCircle
 10
395.6267831882
 20
534.420041841
 30
0.0
 40
0.8000000000000114
100
AcDbArc
 50
0.0
 51
90.0
  0
ARC
  5
98
330
1F
100
AcDbEntity
  8
0
  6
Continuous
 62
     7
370
    25
100
AcDbCircle
 10
361.2267831882
 20
534.420041841
 30
0.0
 40
0.7999999999999545
100
AcDbArc
 50
90.0
 51
180.0
  0
ARC
  5
99
330
1F
100
AcDbEntity
  8
0
  6
Continuous
 62
     7
370
    25
100
AcDbCircle
 10
361.2267831882
 20
559.420041841
 30
0.0
 40
0.7999999999999545
100
AcDbArc
 50
90.0
 51
180.0
  0
LINE
  5
9A
330
1F
100
AcDbEntity
  8
0
  6
Continuous
 62
     7
370
    25
100
AcDbLine
 10
396.4267831882
 20
538.720041841
 30
0.0
 11
396.4267831882
 21
549.0987214974
 31
0.0
  0
LINE
  5
9B
330
1F
100
AcDbEntity
  8
0
  6
Continuous
 62
     7
370
    25
100
AcDbLine
 10
360.4267831882
 20
559.420041841
 30
0.0
 11
360.4267831882
 21
543.9252524592
 31
0.0
  0
ARC
  5
9C
330
1F
100
AcDbEntity
  8
0
  6
Continuous
 62
     7
370
    25
100
AcDbCircle
 10
360.9267831882
 20
543.9252524592
 30
0.0
 40
0.5000000000000413
100
AcDbArc
 50
187.5706072787
 51
253.5
  0
ARC
  5
9D
330
1F
100
AcDbEntity
  8
0
  6
Continuous
 62
     7
370
    25
100
AcDbCircle
 10
395.9267831882
 20
538.720041841
 30
0.0
 40
0.5
100
AcDbArc
 50
270.0
 51
0.0
  0
ARC
  5
9E
330
1F
100
AcDbEntity
  8
0
  6
Continuous
 62
     7
370
    25
100
AcDbCircle
 10
395.2796940173
 20
529.1182739545
 30
0.0
 40
33.99999999999999
100
AcDbArc
 50
156.8417748128
 51
168.6348556495
  0
ARC
  5
9F
330
1F
100
AcDbEntity
  8
0
  6
Continuous
 62
     7
370
    25
100
AcDbCircle
 10
361.5738723591
 20
529.1182739545
 30
0.0
 40
34.00000000000003
100
AcDbArc
 50
11.3651443505
 51
15.527393008
  0
ARC
  5
A0
330
1F
100
AcDbEntity
  8
0
  6
Continuous
 62
     7
370
    25
100
AcDbCircle
 10
362.9267831882
 20
535.6212856326
 30
0.0
 40
1.0
100
AcDbArc
 50
168.6348556495
 51
180.0
  0
ARC
  5
A1
330
1F
100
AcDbEntity
  8
0
  6
Continuous
 62
     7
370
    25
100
AcDbCircle
 10
393.9267831882
 20
535.6212856326
 30
0.0
 40
1.000000000000034
100
AcDbArc
 50
0.0
 51
11.3651443505
  0
LINE
  5
A2
330
1F
100
AcDbEntity
  8
0
  6
Continuous
 62
     7
370
    25
100
AcDbLine
 10
394.9267831882
 20
535.220041841
 30
0.0
 11
394.9267831882
 21
535.6212856326
 31
0.0
  0
LINE
  5
A3
330
1F
100
AcDbEntity
  8
0
  6
Continuous
 62
     7
370
    25
100
AcDbLine
 10
361.9267831882
 20
535.6212856326
 30
0.0
 11
361.9267831882
 21
535.220041841
 31
0.0
  0
LINE
  5
A4
330
1F
100
AcDbEntity
  8
0
  6
Continuous
 62
     7
370
    25
100
AcDbLine
 10
396.4307362068
 20
504.9789069601
 30
0.0
 11
396.4266021453
 21
505.6266318468
 31
0.0
  0
LINE
  5
A5
330
1F
100
AcDbEntity
  8
0
  6
Continuous
 62
     7
370
    25
100
AcDbLine
 10
396.4266048259
 20
483.3305756698
 30
0.0
 11
396.4316089001
 21
483.9785785069
 31
0.0
  0
LINE
  5
A6
330
1F
100
AcDbEntity
  8
0
  6
Continuous
 62
     7
370
    25
100
AcDbLine
 10
491.6809030872
 20
471.2288341462
 30
0.0
 11
499.3359015744
 21
457.9699878344
 31
0.0
  0
LINE
  5
A7
330
1F
100
AcDbEntity
  8
0
  6
Continuous
 62
     7
370
    25
100
AcDbLine
 10
517.5223727764
 20
468.4700957014
 30
0.0
 11
509.8673711793
 21
481.7289473996
 31
0.0
  0
LINE
  5
A8
330
1F
100
AcDbEntity
  8
0
  6
Continuous
 62
     7
370
    25
100
AcDbLine
 10
396.4299479861
 20
483.9783720902
 30
0.0
 11
469.5971294346
 21
483.9783720902
 31
0.0
  0
LINE
  5
A9
330
1F
100
AcDbEntity
  8
0
  6
Continuous
 62
     7
370
    25
100
AcDbLine
 10
469.5971412282
 20
504.9783720902
 30
0.0
 11
396.4299533175
 21
504.9783720902
 31
0.0
  0
SPLINE
  5
AA
330
1F
100
AcDbEntity
  8
0
  6
Continuous
 62
     7
370
    25
100
AcDbSpline
210
0.0
220
0.0
230
1.0
 70
     8
 71
     3
 72
    18
 73
    14
 74
     0
 42
0.00000001
 43
0.00000001
 40
0.0
 40
0.0
 40
0.0
 40
0.0
 40
0.1087217950689079
 40
0.203793734347312
 40
0.2852108935577573
 40
0.3529690556759097
 40
0.4070647111489771
 40
0.4523057436096794
 40
0.5426203221109447
 40
0.6639891335470371
 40
0.7621924286540055
 40
0.8741980283933887
 40
1.0
 40
1.0
 40
1.0
 40
1.0
 10
469.5971294346346
 20
483.9783720901428
 30
0.0
 10
470.5707875632523
 20
483.9464876507938
 30
0.0
 10
472.3958625252953
 20
483.8867218148966
 30
0.0
 10
474.9182852583351
 20
483.4519599158503
 30
0.0
 10
477.0348678482595
 20
482.8977591057809
 30
0.0
 10
478.7538601775249
 20
482.29649785602
 30
0.0
 10
480.1319410326988
 20
481.7135065764506
 30
0.0
 10
481.6590100501511
 20
480.9709661815982
 30
0.0
 10
483.6528584030543
 20
479.8186324227529
 30
0.0
 10
485.8928331329408
 20
478.1682101026315
 30
0.0
 10
488.0610628084301
 20
476.1368491256667
 30
0.0
 10
490.0422962857816
 20
473.8593412654374
 30
0.0
 10
491.1660864650424
 20
472.0480281246442
 30
0.0
 10
491.7605798170538
 20
471.0898300192641
 30
0.0
  0
SPLINE
  5
AB
330
1F
100
AcDbEntity
  8
0
  6
Continuous
 62
     7
370
    25
100
AcDbSpline
210
0.0
220
0.0
230
1.0
 70
     8
 71
     3
 72
    21
 73
    17
 74
     0
 42
0.00000001
 43
0.00000001
 40
0.0
 40
0.0
 40
0.0
 40
0.0
 40
0.1033618801453697
 40
0.1989880309717827
 40
0.2808798026723384
 40
0.333287931220197
 40
0.3779646055179293
 40
0.4149090933864246
 40
0.4489600858211824
 40
0.5060591061052901
 40
0.5770543789449176
 40
0.6619421438291249
 40
0.7347358750976163
 40
0.8153443506846506
 40
0.9037662196239877
 40
0.9999999999999999
 40
0.9999999999999999
 40
0.9999999999999999
 40
0.9999999999999999
 10
509.8540969080414
 20
481.7203617848612
 30
0.0
 10
508.9755309219282
 20
483.1511848874227
 30
0.0
 10
507.2841519008655
 20
485.9057465444591
 30
0.0
 10
504.378756900779
 20
489.433680669906
 30
0.0
 10
501.7708921712457
 20
492.1061493871222
 30
0.0
 10
499.5962856706964
 20
494.0336263715055
 30
0.0
 10
497.8975722498692
 20
495.3928708481955
 30
0.0
 10
496.3827594187717
 20
496.5020034893438
 30
0.0
 10
494.6609449971244
 20
497.6670410267301
 30
0.0
 10
492.4125815550981
 20
499.0367029099187
 30
0.0
 10
489.344539555068
 20
500.6344101337106
 30
0.0
 10
485.9198247800069
 20
502.0757691263966
 30
0.0
 10
482.2411433643462
 20
503.279476730628
 30
0.0
 10
478.4209557535941
 20
504.1909796533855
 30
0.0
 10
474.1570295536578
 20
504.8464863858385
 30
0.0
 10
471.1593762049291
 20
504.9331875493693
 30
0.0
 10
469.5971412282329
 20
504.9783720902188
 30
0.0
  0
SPLINE
  5
AC
330
1F
100
AcDbEntity
  8
0
  6
Continuous
 62
     7
370
    25
100
AcDbSpline
210
0.0
220
0.0
230
1.0
 70
     8
 71
     3
 72
    20
 73
    16
 74
     0
 42
0.00000001
 43
0.00000001
 40
0.0
 40
0.0
 40
0.0
 40
0.0
 40
0.2362169753942806
 40
0.3456790727151246
 40
0.4002594617719234
 40
0.4625508181428055
 40
0.6219277327230123
 40
0.6602390218328715
 40
0.695215674441804
 40
0.7282576756706534
 40
0.7455576350735252
 40
0.7644528585608542
 40
0.8104980327829386
 40
0.8730059427313382
 40
1.0
 40
1.0
 40
1.0
 40
1.0
 10
396.4259078707808
 20
549.0987214974448
 30
0.0
 10
396.4324358188657
 20
549.4488125943782
 30
0.0
 10
396.4419887946285
 20
549.9611346472356
 30
0.0
 10
396.6730572460273
 20
550.494022676923
 30
0.0
 10
396.8810220105408
 20
550.7565201100949
 30
0.0
 10
397.1855888097772
 20
551.0023513304213
 30
0.0
 10
397.4749550680324
 20
551.1114460481408
 30
0.0
 10
397.783066533716
 20
551.1751820012659
 30
0.0
 10
397.9353143156773
 20
551.196586710093
 30
0.0
 10
398.0612359496606
 20
551.2077109981709
 30
0.0
 10
398.1507882058333
 20
551.2130424874306
 30
0.0
 10
398.2429656214104
 20
551.2170569795237
 30
0.0
 10
398.3449419062156
 20
551.2192394772309
 30
0.0
 10
398.4608676795339
 20
551.2201050736322
 30
0.0
 10
398.4770694871528
 20
551.2200139786978
 30
0.0
 10
398.4879270698726
 20
551.2199529317575
 30
0.0
  0
LINE
  5
AD
330
1F
100
AcDbEntity
  8
0
  6
Continuous
 62
     7
370
    25
100
AcDbLine
 10
354.2267831882
 20
370.220041841
 30
0.0
 11
402.6267831882
 21
370.220041841
 31
0.0
  0
LINE
  5
AE
330
1F
100
AcDbEntity
  8
0
  6
Continuous
 62
     7
370
    25
100
AcDbLine
 10
402.7093657393
 20
363.220041841
 30
0.0
 11
353.4267831882
 21
363.220041841
 31
0.0
  0
LINE
  5
AF
330
1F
100
AcDbEntity
  8
0
  6
Continuous
 62
     7
370
    25
100
AcDbLine
 10
403.4267831882
 20
363.220041841
 30
0.0
 11
402.7093657393
 21
363.220041841
 31
0.0
  0
SPLINE
  5
B0
330
1F
100
AcDbEntity
  8
0
  6
Continuous
 62
     7
370
    25
100
AcDbSpline
210
0.0
220
0.0
230
1.0
 70
     8
 71
     3
 72
    12
 73
     8
 74
     0
 42
0.00000001
 43
0.00000001
 40
0.0
 40
0.0
 40
0.0
 40
0.0
 40
0.5000000000000007
 40
0.5000000000000007
 40
0.7500000000000003
 40
0.7500000000000003
 40
1.0
 40
1.0
 40
1.0
 40
1.0
 10
382.8925706525435
 20
538.2200418410043
 30
0.0
 10
381.4368034736946
 20
538.2200418410043
 30
0.0
 10
379.9697125492224
 20
538.322765959436
 30
0.0
 10
377.7547700590847
 20
538.6424272774449
 30
0.0
 10
377.0124984408513
 20
538.7774114061237
 30
0.0
 10
375.5612141491934
 20
539.0960856076406
 30
0.0
 10
374.8473697536181
 20
539.2803124043763
 30
0.0
 10
374.1448980356628
 20
539.4883940070639
 30
0.0
  0
LINE
  5
B1
330
1F
100
AcDbEntity
  8
0
  6
Continuous
 62
     7
370
    25
100
AcDbLine
 10
361.2267832993
 20
535.220041841
 30
0.0
 11
395.6267831882
 21
535.220041841
 31
0.0
  0
LINE
  5
B2
330
1F
100
AcDbEntity
  8
0
  6
Continuous
 62
     7
370
    25
100
AcDbLine
 10
361.2267831882
 20
560.220041841
 30
0.0
 11
394.5685124855
 21
560.220041841
 31
0.0
  0
LINE
  5
B3
330
1F
100
AcDbEntity
  8
0
  6
Continuous
 62
     7
370
    25
100
AcDbLine
 10
374.1448980357
 20
539.4883940071
 30
0.0
 11
360.7847755158
 21
543.4458425918
 31
0.0
  0
LINE
  5
B4
330
1F
100
AcDbEntity
  8
0
  6
Continuous
 62
     7
370
    25
100
AcDbLine
 10
395.9267831882
 20
538.220041841
 30
0.0
 11
382.8925706525
 21
538.220041841
 31
0.0
  0
SPLINE
  5
B5
330
1F
100
AcDbEntity
  8
0
  6
Continuous
 62
     7
370
    25
100
AcDbSpline
210
0.0
220
0.0
230
1.0
 70
     8
 71
     3
 72
    48
 73
    44
 74
     0
 42
0.00000001
 43
0.00000001
 40
0.0
 40
0.0
 40
0.0
 40
0.0
 40
0.0091803082384167
 40
0.0184263369132187
 40
0.0277409620784819
 40
0.0371269967282721
 40
0.0465871901533832
 40
0.0561242275079026
 40
0.0657407295737001
 40
0.0754392527103236
 40
0.0852222889773908
 40
0.0950922664163404
 40
0.1050515494783723
 40
0.1151024395854983
 40
0.1252471758118594
 40
0.1552163781646207
 40
0.1878104175339514
 40
0.215766027123451
 40
0.250336256728975
 40
0.2923861904565807
 40
0.3129976791524641
 40
0.346281579008502
 40
0.3751855705768732
 40
0.4404948420292181
 40
0.5000059186196676
 40
0.5000508758576654
 40
0.559624389482254
 40
0.6250055815135149
 40
0.6540825899324754
 40
0.6876036409907369
 40
0.7079397226974186
 40
0.750161187553745
 40
0.7848117597142502
 40
0.8128602310497807
 40
0.8452332844975379
 40
0.8750362122436685
 40
0.8937497625272768
 40
0.9121502271744032
 40
0.9302523951556865
 40
0.9480717982606622
 40
0.9656247190146431
 40
0.9829281923392046
 40
1.0
 40
1.0
 40
1.0
 40
1.0
 10
396.4299533191963
 20
504.9783720902021
 30
0.0
 10
396.4294095122809
 20
504.9774890705268
 30
0.0
 10
396.4283180054189
 20
504.9757167097721
 30
0.0
 10
396.4196089380614
 20
504.9613118756221
 30
0.0
 10
396.4057357762521
 20
504.9381028523256
 30
0.0
 10
396.3861803913696
 20
504.905073234135
 30
0.0
 10
396.3610833122215
 20
504.8622917912012
 30
0.0
 10
396.3304065807338
 20
504.8095443276348
 30
0.0
 10
396.2941606089191
 20
504.7467051987975
 30
0.0
 10
396.2523427338045
 20
504.6736372990198
 30
0.0
 10
396.2049536636874
 20
504.5902200479863
 30
0.0
 10
396.1519938358533
 20
504.4963420995151
 30
0.0
 10
396.0934613043617
 20
504.3919057697908
 30
0.0
 10
396.0293640414333
 20
504.276820170139
 30
0.0
 10
395.9144989479943
 20
504.0694914558729
 30
0.0
 10
395.7255622088407
 20
503.7241119214297
 30
0.0
 10
395.4577771093998
 20
503.2130469850053
 30
0.0
 10
395.1498576234162
 20
502.6004737043996
 30
0.0
 10
394.7938372880039
 20
501.8462603182032
 30
0.0
 10
394.4588077781144
 20
501.058749383724
 30
0.0
 10
394.1305694431912
 20
500.2217250997704
 30
0.0
 10
393.8651298047694
 20
499.4529476078351
 30
0.0
 10
393.4915873294255
 20
498.198909421361
 30
0.0
 10
393.1529185698991
 20
496.5592041594498
 30
0.0
 10
393.0469939573992
 20
495.1483268936142
 30
0.0
 10
393.0469862158045
 20
493.8061943726574
 30
0.0
 10
393.1531865627574
 20
492.3938128317819
 30
0.0
 10
393.4928280109654
 20
490.7510934646911
 30
0.0
 10
393.8682483378621
 20
489.4929096905952
 30
0.0
 10
394.1344281809907
 20
488.723610013424
 30
0.0
 10
394.4634807882164
 20
487.8863704732644
 30
0.0
 10
394.7985771991111
 20
487.0999040967911
 30
0.0
 10
395.1558327751634
 20
486.3445600890363
 30
0.0
 10
395.4633817316138
 20
485.7337971717527
 30
0.0
 10
395.7298548817585
 20
485.2257584516283
 30
0.0
 10
395.9396262809473
 20
484.8423834957192
 30
0.0
 10
396.0880368798062
 20
484.5751287728997
 30
0.0
 10
396.1933869430415
 20
484.3873932282603
 30
0.0
 10
396.2795925509035
 20
484.2357249947007
 30
0.0
 10
396.3467653262879
 20
484.1191931750303
 30
0.0
 10
396.3944121826176
 20
484.0377851925225
 30
0.0
 10
396.4243436792777
 20
483.9875850108814
 30
0.0
 10
396.4280882487101
 20
483.9814292352025
 30
0.0
 10
396.4299479155197
 20
483.9783720902024
 30
0.0
  0
SPLINE
  5
B6
330
1F
100
AcDbEntity
  8
0
  6
Continuous
 62
     7
370
    25
100
AcDbSpline
210
0.0
220
0.0
230
1.0
 70
    24
 71
     3
 72
    17
 73
    13
 74
     0
 42
0.00000001
 43
0.00000001
 40
0.0
 40
0.0
 40
0.0
 40
0.0
 40
0.1006417759251389
 40
0.2012835518502718
 40
0.3019253277754048
 40
0.4025671037005363
 40
0.503208879625695
 40
0.6038506555508539
 40
0.7044924314760871
 40
0.8051342074013209
 40
0.9057759833266351
 40
1.0
 40
1.0
 40
1.0
 40
1.0
 10
509.3846267227991
 20
463.7717015856941
 30
0.0
 10
508.8735877291946
 20
463.4766490348164
 30
0.0
 10
507.8515097419855
 20
462.8865439330611
 30
0.0
 10
506.3270352764457
 20
462.0063761074462
 30
0.0
 10
504.8654416312789
 20
461.1625130387764
 30
0.0
 10
503.502424472812
 20
460.3755639125285
 30
0.0
 10
502.2821719931567
 20
459.6710411435367
 30
0.0
 10
501.2332031920709
 20
459.0654104100218
 30
0.0
 10
500.391147033948
 20
458.5792423865525
 30
0.0
 10
499.7784448782017
 20
458.2254937758916
 30
0.0
 10
499.402582376414
 20
458.008486480324
 30
0.0
 10
499.3628701651808
 20
457.9855583097304
 30
0.0
 10
499.3436680055639
 20
457.9744717855155
 30
0.0
  0
SPLINE
  5
B7
330
1F
100
AcDbEntity
  8
0
  6
Continuous
 62
     7
370
    25
100
AcDbSpline
210
0.0
220
0.0
230
1.0
 70
    24
 71
     3
 72
    16
 73
    12
 74
     0
 42
0.00000001
 43
0.00000001
 40
0.0
 40
0.0
 40
0.0
 40
0.0
 40
0.0506190930663493
 40
0.1657321105881726
 40
0.2808451281100165
 40
0.3959581456318603
 40
0.5110711631536619
 40
0.6261841806754626
 40
0.7412971981971773
 40
0.8564102157188916
 40
1.0
 40
1.0
 40
1.0
 40
1.0
 10
517.4900075946356
 20
468.4514096549398
 30
0.0
 10
517.4971255373583
 20
468.4555192575017
 30
0.0
 10
517.5204304130294
 20
468.4689745184518
 30
0.0
 10
517.2889573386543
 20
468.3353316420597
 30
0.0
 10
516.8035280711564
 20
468.0550650764191
 30
0.0
 10
516.0703061256983
 20
467.6317333775189
 30
0.0
 10
515.1196737169113
 20
467.082877965956
 30
0.0
 10
513.9821236555426
 20
466.4261041159009
 30
0.0
 10
512.6833487334625
 20
465.6762457712904
 30
0.0
 10
511.1519231649111
 20
464.792064669388
 30
0.0
 10
510.0154256081424
 20
464.1358984914891
 30
0.0
 10
509.3846267227992
 20
463.7717015856941
 30
0.0
  0
SPLINE
  5
B8
330
1F
100
AcDbEntity
  8
0
  6
Continuous
 62
     7
370
    25
100
AcDbSpline
210
0.0
220
0.0
230
1.0
 70
    24
 71
     3
 72
    22
 73
    18
 74
     0
 42
0.00000001
 43
0.00000001
 40
0.0
 40
0.0
 40
0.0
 40
0.0
 40
0.125
 40
0.125
 40
0.25
 40
0.25
 40
0.375
 40
0.375
 40
0.5
 40
0.5
 40
0.625
 40
0.625
 40
0.75
 40
0.75
 40
0.875
 40
0.875
 40
1.0
 40
1.0
 40
1.0
 40
1.0
 10
397.7797968910319
 20
560.2200418410041
 30
0.0
 10
397.6028495188856
 20
560.2200418410041
 30
0.0
 10
397.4259477125918
 20
560.2200418410042
 30
0.0
 10
397.0730180525497
 20
560.2200418410042
 30
0.0
 10
396.8969614621936
 20
560.2200418410043
 30
0.0
 10
396.5460612182148
 20
560.2200418410043
 30
0.0
 10
396.373582386999
 20
560.2200418410043
 30
0.0
 10
396.0446806080381
 20
560.2200418410042
 30
0.0
 10
395.885287019485
 20
560.2200418410042
 30
0.0
 10
395.5916512750915
 20
560.2200418410042
 30
0.0
 10
395.4582986094287
 20
560.2200418410043
 30
0.0
 10
395.2157213004136
 20
560.2200418410043
 30
0.0
 10
395.1067286092132
 20
560.2200418410042
 30
0.0
 10
394.9174280075111
 20
560.2200418410042
 30
0.0
 10
394.8356882008257
 20
560.2200418410043
 30
0.0
 10
394.6913367148873
 20
560.2200418410043
 30
0.0
 10
394.6300112312598
 20
560.2200418410043
 30
0.0
 10
394.5685124855272
 20
560.2200418410043
 30
0.0
  0
LINE
  5
B9
330
1F
100
AcDbEntity
  8
0
  6
Continuous
 62
     7
370
    25
100
AcDbLine
 10
467.6267831882
 20
551.220041841
 30
0.0
 11
398.2049917109
 21
551.220041841
 31
0.0
  0
ARC
  5
BA
330
1F
100
AcDbEntity
  8
0
  6
Continuous
 62
     7
370
    25
100
AcDbCircle
 10
467.6267831882
 20
552.020041841
 30
0.0
 40
0.8000000000000682
100
AcDbArc
 50
270.0
 51
0.0
  0
LINE
  5
BB
330
1F
100
AcDbEntity
  8
0
  6
Continuous
 62
     7
370
    25
100
AcDbLine
 10
468.4267831882
 20
559.420041841
 30
0.0
 11
468.4267831882
 21
552.020041841
 31
0.0
  0
LINE
  5
BC
330
1F
100
AcDbEntity
  8
0
  6
Continuous
 62
     7
370
    25
100
AcDbLine
 10
397.779796891
 20
560.220041841
 30
0.0
 11
467.6267831882
 21
560.220041841
 31
0.0
  0
ARC
  5
BD
330
1F
100
AcDbEntity
  8
0
  6
Continuous
 62
     7
370
    25
100
AcDbCircle
 10
467.6267831882
 20
559.420041841
 30
0.0
 40
0.7999999999999545
100
AcDbArc
 50
0.0
 51
90.0
  0
SPLINE
  5
BE
330
1F
100
AcDbEntity
  8
0
  6
Continuous
 62
     8
370
    18
100
AcDbSpline
210
0.0
220
0.0
230
1.0
 70
     8
 71
     3
 72
    12
 73
     8
 74
     0
 42
0.00000001
 43
0.00000001
 40
0.0
 40
0.0
 40
0.0
 40
0.0
 40
0.25
 40
0.25
 40
0.5
 40
0.5
 40
1.0
 40
1.0
 40
1.0
 40
1.0
 10
374.1686234942952
 20
539.967803874498
 30
0.0
 10
374.8801119546246
 20
539.7629056266903
 30
0.0
 10
375.6030255248867
 20
539.5815499335253
 30
0.0
 10
377.0725308555463
 20
539.2679246812497
 30
0.0
 10
377.8240648753857
 20
539.1351232463668
 30
0.0
 10
380.0656148193256
 20
538.8208106527824
 30
0.0
 10
381.5491710418153
 20
538.7200418410043
 30
0.0
 10
383.0201645800962
 20
538.7200418410043
 30
0.0
  0
ARC
  5
BF
330
1F
100
AcDbEntity
  8
0
  6
Continuous
 62
     8
370
    18
100
AcDbCircle
 10
382.4346339111
 20
538.6031819462
 30
0.0
 40
0.5970782188018561
100
AcDbArc
 50
320.0819227316
 51
11.2867621801
  0
ARC
  5
C0
330
1F
100
AcDbEntity
  8
0
  6
Continuous
 62
     8
370
    18
100
AcDbCircle
 10
374.7029067094
 20
539.7010707883
 30
0.0
 40
0.597164209599281
100
AcDbArc
 50
153.4700069421
 51
200.863607774
  0
ARC
  5
C1
330
1F
100
AcDbEntity
  8
0
  6
Continuous
 62
     8
370
    18
100
AcDbCircle
 10
394.5430947777
 20
559.4438956642
 30
0.0
 40
0.7765622625504175
100
AcDbArc
 50
358.2397568356
 51
88.1243132558
  0
SPLINE
  5
C2
330
1F
100
AcDbEntity
  8
0
  6
Continuous
 62
     8
370
    18
100
AcDbSpline
210
0.0
220
0.0
230
1.0
 70
     8
 71
     3
 72
    21
 73
    17
 74
     0
 42
0.00000001
 43
0.00000001
 40
0.0
 40
0.0
 40
0.0
 40
0.0
 40
0.0276447721780826
 40
0.0552428195415967
 40
0.0828588255560673
 40
0.1105573478725323
 40
0.1674199268070619
 40
0.2244273239294111
 40
0.3414926866829841
 40
0.4633589029261929
 40
0.5906748595160445
 40
0.7227374015014345
 40
0.7913815171671887
 40
0.8602228214983669
 40
0.9300718087027425
 40
1.0
 40
1.0
 40
1.0
 40
1.0
 10
396.1198444451272
 20
549.0987214974666
 30
0.0
 10
396.1117904571672
 20
549.0961078336398
 30
0.0
 10
396.0956960939873
 20
549.090884923565
 30
0.0
 10
396.0703332158427
 20
549.0910167405494
 30
0.0
 10
396.0441315796667
 20
549.0970117324148
 30
0.0
 10
396.0075437646203
 20
549.1137545417122
 30
0.0
 10
395.9593807529615
 20
549.1509909842698
 30
0.0
 10
395.877586140229
 20
549.2467573742836
 30
0.0
 10
395.7683640747871
 20
549.4358247336447
 30
0.0
 10
395.6353726025123
 20
549.7710885550244
 30
0.0
 10
395.5101162683362
 20
550.2131372465046
 30
0.0
 10
395.4237280003526
 20
550.6590719506034
 30
0.0
 10
395.3712323941944
 20
551.0527964737863
 30
0.0
 10
395.3418139410802
 20
551.3670360755381
 30
0.0
 10
395.3228175866597
 20
551.6907463047613
 30
0.0
 10
395.3204667011791
 20
551.9102352047993
 30
0.0
 10
395.3192905923796
 20
552.0200418410044
 30
0.0
  0
SPLINE
  5
C3
330
1F
100
AcDbEntity
  8
0
  6
Continuous
 62
     8
370
    18
100
AcDbSpline
210
0.0
220
0.0
230
1.0
 70
    24
 71
     3
 72
     8
 73
     4
 74
     0
 42
0.00000001
 43
0.00000001
 40
0.0
 40
0.0
 40
0.0
 40
0.0
 40
1.0
 40
1.0
 40
1.0
 40
1.0
 10
396.4267831882012
 20
549.0987214974447
 30
0.0
 10
396.4267831882004
 20
549.0987214974447
 30
0.0
 10
396.323886728979
 20
549.0987214974448
 30
0.0
 10
396.1198444451251
 20
549.0987214974448
 30
0.0
  0
LINE
  5
C4
330
1F
100
AcDbEntity
  8
0
  6
Continuous
 62
     8
370
    18
100
AcDbLine
 10
395.3192905924
 20
552.020041841
 30
0.0
 11
395.3192905924
 21
559.420041841
 31
0.0
  0
LINE
  5
C5
330
1F
100
AcDbEntity
  8
0
  6
Continuous
 62
     8
370
    18
100
AcDbLine
 10
360.4267831882
 20
543.9252524592
 30
0.0
 11
374.1686234943
 21
539.9678038745
 31
0.0
  0
LINE
  5
C6
330
1F
100
AcDbEntity
  8
0
  6
Continuous
 62
     8
370
    18
100
AcDbLine
 10
383.0201645801
 20
538.720041841
 30
0.0
 11
396.4267831882
 21
538.720041841
 31
0.0
  0
LINE
  5
C7
330
1F
100
AcDbEntity
  8
0
  6
Continuous
 62
     8
370
    18
100
AcDbLine
 10
394.9027881657
 20
535.8183465925
 30
0.0
 11
394.9071744254
 21
535.8183465925
 31
0.0
  0
LINE
  5
C8
330
1F
100
AcDbEntity
  8
0
  6
Continuous
 62
     8
370
    18
100
AcDbLine
 10
361.946391951
 20
535.8183465925
 30
0.0
 11
394.9027881657
 21
535.8183465925
 31
0.0
  0
LINE
  5
C9
330
1F
100
AcDbEntity
  8
0
  6
Continuous
 62
     8
370
    18
100
AcDbLine
 10
394.9267831882
 20
535.6212856326
 30
0.0
 11
361.9267831882
 21
535.6212856326
 31
0.0
  0
LINE
  5
CA
330
1F
100
AcDbEntity
  8
0
  6
Continuous
 62
     8
370
    18
100
AcDbLine
 10
397.779796891
 20
559.420041841
 30
0.0
 11
397.779796891
 21
552.020041841
 31
0.0
  0
LINE
  5
CB
330
1F
100
AcDbEntity
  8
0
  6
Continuous
 62
     8
370
    18
100
AcDbLine
 10
397.779796891
 20
559.420041841
 30
0.0
 11
397.779796891
 21
560.220041841
 31
0.0
  0
SPLINE
  5
CC
330
1F
100
AcDbEntity
  8
0
  6
Continuous
 62
     8
370
    18
100
AcDbSpline
210
0.0
220
0.0
230
1.0
 70
     8
 71
     3
 72
    17
 73
    13
 74
     0
 42
0.00000001
 43
0.00000001
 40
0.0
 40
0.0
 40
0.0
 40
0.0
 40
0.0571821084760977
 40
0.1151571412022654
 40
0.174120176473636
 40
0.2342566777818137
 40
0.3505549998483434
 40
0.4811250368318577
 40
0.5911658860424963
 40
0.740312744377009
 40
0.89602906615715
 40
0.9999999999999999
 40
0.9999999999999999
 40
0.9999999999999999
 40
0.9999999999999999
 10
397.7797968910319
 20
552.0200418410043
 30
0.0
 10
397.7802440303302
 20
551.994561330406
 30
0.0
 10
397.7811445092506
 20
551.9432469799026
 30
0.0
 10
397.7883318383521
 20
551.8666461276675
 30
0.0
 10
397.7997786756497
 20
551.7907203076545
 30
0.0
 10
397.8207781322745
 20
551.6936674988399
 30
0.0
 10
397.8585294039685
 20
551.5764139263114
 30
0.0
 10
397.9138950711701
 20
551.4596881145691
 30
0.0
 10
397.9831733081761
 20
551.3560005904594
 30
0.0
 10
398.0610645805056
 20
551.274361078868
 30
0.0
 10
398.1388826828655
 20
551.2270508724986
 30
0.0
 10
398.1860909475425
 20
551.22204574349
 30
0.0
 10
398.2049917108926
 20
551.2200418410042
 30
0.0
  0
LINE
  5
CD
330
1F
100
AcDbEntity
  8
0
  6
Continuous
 62
     7
370
    25
100
AcDbLine
 10
233.1257245188
 20
463.2200418348
 30
0.0
 11
233.1257245188
 21
476.4788907729
 31
0.0
  0
LINE
  5
CE
330
1F
100
AcDbEntity
  8
0
  6
Continuous
 62
     7
370
    25
100
AcDbLine
 10
212.1257245188
 20
476.4788907729
 30
0.0
 11
212.1257245188
 21
463.2200418373
 31
0.0
  0
SPLINE
  5
CF
330
1F
100
AcDbEntity
  8
0
  6
Continuous
 62
     7
370
    25
100
AcDbSpline
210
0.0
220
0.0
230
1.0
 70
    24
 71
     3
 72
     9
 73
     5
 74
     0
 42
0.00000001
 43
0.00000001
 40
0.0
 40
0.0
 40
0.0
 40
0.0
 40
0.5000000000000001
 40
0.9999999999999999
 40
0.9999999999999999
 40
0.9999999999999999
 40
0.9999999999999999
 10
233.1257245188287
 20
493.2371362969988
 30
0.0
 10
233.1257245188287
 20
493.5985015213219
 30
0.0
 10
233.1257245188287
 20
494.3212319699682
 30
0.0
 10
233.1257245188287
 20
494.4259920524053
 30
0.0
 10
233.1257245188287
 20
494.478372093624
 30
0.0
  0
SPLINE
  5
D0
330
1F
100
AcDbEntity
  8
0
  6
Continuous
 62
     7
370
    25
100
AcDbSpline
210
0.0
220
0.0
230
1.0
 70
    24
 71
     3
 72
    14
 73
    10
 74
     0
 42
0.00000001
 43
0.00000001
 40
0.0
 40
0.0
 40
0.0
 40
0.0
 40
0.1435191418308292
 40
0.2962866785723155
 40
0.458300566161659
 40
0.5859196118433133
 40
0.7187429112613447
 40
0.8567699020966892
 40
1.0
 40
1.0
 40
1.0
 40
1.0
 10
233.1257245188287
 20
476.282636077051
 30
0.0
 10
233.1257245188287
 20
477.4431350478409
 30
0.0
 10
233.1257245188287
 20
479.8389157162287
 30
0.0
 10
233.1257245188287
 20
483.1794254543823
 30
0.0
 10
233.1257245188287
 20
486.064964281635
 30
0.0
 10
233.1257245188287
 20
488.4632001663858
 30
0.0
 10
233.1257245188287
 20
490.3960304980318
 30
0.0
 10
233.1257245188287
 20
492.0626715771695
 30
0.0
 10
233.1257245188287
 20
492.8408494289188
 30
0.0
 10
233.1257245188287
 20
493.2371362936947
 30
0.0
  0
SPLINE
  5
D1
330
1F
100
AcDbEntity
  8
0
  6
Continuous
 62
     7
370
    25
100
AcDbSpline
210
0.0
220
0.0
230
1.0
 70
     8
 71
     3
 72
    23
 73
    19
 74
     0
 42
0.00000001
 43
0.00000001
 40
0.0
 40
0.0
 40
0.0
 40
0.0
 40
0.055015171445714
 40
0.1386619741446904
 40
0.212347088867835
 40
0.2755719034505516
 40
0.3287567273309587
 40
0.3740865871583767
 40
0.4172108796107851
 40
0.500450861653109
 40
0.5800170503572261
 40
0.6233735289358121
 40
0.6770321846010681
 40
0.741634642923299
 40
0.8172417965789858
 40
0.9034946557311391
 40
0.9505350215281505
 40
1.0
 40
1.0
 40
1.0
 40
1.0
 10
232.9221308129218
 20
491.8772560530805
 30
0.0
 10
233.0127453893815
 20
492.2912441212728
 30
0.0
 10
233.2411332272814
 20
493.3346727119578
 30
0.0
 10
232.9269271491694
 20
496.0797076343259
 30
0.0
 10
232.1600634620065
 20
498.4296106791907
 30
0.0
 10
231.0445023172301
 20
500.3942111522086
 30
0.0
 10
229.734942223916
 20
501.8917534580351
 30
0.0
 10
228.3091316410356
 20
502.9728950338816
 30
0.0
 10
226.4136274237537
 20
503.9719671667342
 30
0.0
 10
223.8903043825182
 20
504.6479007571568
 30
0.0
 10
221.2798624846068
 20
504.5853941842863
 30
0.0
 10
219.1353759382202
 20
504.0214292527734
 30
0.0
 10
217.3421640273051
 20
503.1531949802316
 30
0.0
 10
215.4773144299313
 20
501.706827762897
 30
0.0
 10
213.7491182254039
 20
499.5610034452677
 30
0.0
 10
212.7061052375374
 20
497.2200045017283
 30
0.0
 10
212.2027251296433
 20
495.0340681633983
 30
0.0
 10
212.151817723836
 20
493.8460627835551
 30
0.0
 10
212.1257245188287
 20
493.2371362936947
 30
0.0
  0
SPLINE
  5
D2
330
1F
100
AcDbEntity
  8
0
  6
Continuous
 62
     7
370
    25
100
AcDbSpline
210
0.0
220
0.0
230
1.0
 70
     8
 71
     3
 72
     9
 73
     5
 74
     0
 42
0.00000001
 43
0.00000001
 40
0.0
 40
0.0
 40
0.0
 40
0.0
 40
0.1050659844320043
 40
1.0
 40
1.0
 40
1.0
 40
1.0
 10
212.3073707548525
 20
491.6289003090308
 30
0.0
 10
212.2911904980382
 20
491.6858159799759
 30
0.0
 10
212.1371895918287
 20
492.2275295636137
 30
0.0
 10
212.1311392107041
 20
492.7603221156428
 30
0.0
 10
212.1257245188287
 20
493.2371362936949
 30
0.0
  0
SPLINE
  5
D3
330
1F
100
AcDbEntity
  8
0
  6
Continuous
 62
     7
370
    25
100
AcDbSpline
210
0.0
220
0.0
230
1.0
 70
    24
 71
     3
 72
    14
 73
    10
 74
     0
 42
0.00000001
 43
0.00000001
 40
0.0
 40
0.0
 40
0.0
 40
0.0
 40
0.1435191418308298
 40
0.2962866785723159
 40
0.4583005661616584
 40
0.5859196118433129
 40
0.7187429112613443
 40
0.8567699020966891
 40
1.0
 40
1.0
 40
1.0
 40
1.0
 10
212.1257245188287
 20
493.2371362936949
 30
0.0
 10
212.1257245188286
 20
492.8396462683624
 30
0.0
 10
212.1257245188286
 20
492.0190519011649
 30
0.0
 10
212.1257245188287
 20
490.1486113025767
 30
0.0
 10
212.1257245188287
 20
487.9174274483013
 30
0.0
 10
212.1257245188286
 20
485.4081001556103
 30
0.0
 10
212.1257245188287
 20
482.7482454492272
 30
0.0
 10
212.1257245188287
 20
479.7157230267706
 30
0.0
 10
212.1257245188287
 20
477.4410252944237
 30
0.0
 10
212.1257245188287
 20
476.282636077051
 30
0.0
  0
SPLINE
  5
D4
330
1F
100
AcDbEntity
  8
0
  6
Continuous
 62
     7
370
    25
100
AcDbSpline
210
0.0
220
0.0
230
1.0
 70
    24
 71
     3
 72
     9
 73
     5
 74
     0
 42
0.00000001
 43
0.00000001
 40
0.0
 40
0.0
 40
0.0
 40
0.0
 40
0.499999999999892
 40
1.0
 40
1.0
 40
1.0
 40
1.0
 10
212.1257245188287
 20
494.4783720867802
 30
0.0
 10
212.1257245188287
 20
494.4259920455767
 30
0.0
 10
212.1257245188287
 20
494.3212319631697
 30
0.0
 10
212.1257245188287
 20
493.5985015146707
 30
0.0
 10
212.1257245188287
 20
493.2371362904211
 30
0.0
  0
LINE
  5
D5
330
1F
100
AcDbEntity
  8
0
  6
Continuous
 62
     7
370
    25
100
AcDbLine
 10
247.6257245188
 20
363.220041841
 30
0.0
 11
247.6257245188
 21
369.420041841
 31
0.0
  0
LINE
  5
D6
330
1F
100
AcDbEntity
  8
0
  6
Continuous
 62
     7
370
    25
100
AcDbLine
 10
197.6257245188
 20
369.420041841
 30
0.0
 11
197.6257245188
 21
363.220041841
 31
0.0
  0
ARC
  5
D7
330
1F
100
AcDbEntity
  8
0
  6
Continuous
 62
     7
370
    25
100
AcDbCircle
 10
198.4257245188
 20
369.420041841
 30
0.0
 40
0.8000000000000114
100
AcDbArc
 50
90.0
 51
180.0
  0
ARC
  5
D8
330
1F
100
AcDbEntity
  8
0
  6
Continuous
 62
     7
370
    25
100
AcDbCircle
 10
246.8257245188
 20
369.420041841
 30
0.0
 40
0.8000000000000114
100
AcDbArc
 50
0.0
 51
90.0
  0
LINE
  5
D9
330
1F
100
AcDbEntity
  8
0
  6
Continuous
 62
     7
370
    25
100
AcDbLine
 10
240.6257245188
 20
370.220041841
 30
0.0
 11
240.6257245188
 21
534.420041841
 31
0.0
  0
LINE
  5
DA
330
1F
100
AcDbEntity
  8
0
  6
Continuous
 62
     7
370
    25
100
AcDbLine
 10
204.6257245188
 20
534.420041841
 30
0.0
 11
204.6257245188
 21
370.220041841
 31
0.0
  0
LINE
  5
DB
330
1F
100
AcDbEntity
  8
0
  6
Continuous
 62
     7
370
    25
100
AcDbLine
 10
240.6257245188
 20
539.0772667363
 30
0.0
 11
240.6257245188
 21
559.420041841
 31
0.0
  0
LINE
  5
DC
330
1F
100
AcDbEntity
  8
0
  6
Continuous
 62
     7
370
    25
100
AcDbLine
 10
204.6257245188
 20
559.420041841
 30
0.0
 11
204.6257245188
 21
539.0737152995
 31
0.0
  0
ARC
  5
DD
330
1F
100
AcDbEntity
  8
0
  6
Continuous
 62
     7
370
    25
100
AcDbCircle
 10
239.8257245188
 20
534.420041841
 30
0.0
 40
0.799999999999983
100
AcDbArc
 50
0.0
 51
90.0
  0
ARC
  5
DE
330
1F
100
AcDbEntity
  8
0
  6
Continuous
 62
     7
370
    25
100
AcDbCircle
 10
205.4257245188
 20
534.420041841
 30
0.0
 40
0.799999999999983
100
AcDbArc
 50
90.0
 51
180.0
  0
ARC
  5
DF
330
1F
100
AcDbEntity
  8
0
  6
Continuous
 62
     7
370
    25
100
AcDbCircle
 10
205.4257245188
 20
559.420041841
 30
0.0
 40
0.799999999999983
100
AcDbArc
 50
90.0
 51
180.0
  0
ARC
  5
E0
330
1F
100
AcDbEntity
  8
0
  6
Continuous
 62
     7
370
    25
100
AcDbCircle
 10
239.8257245188
 20
559.420041841
 30
0.0
 40
0.799999999999983
100
AcDbArc
 50
0.0
 51
90.0
  0
LINE
  5
E1
330
1F
100
AcDbEntity
  8
0
  6
Continuous
 62
     7
370
    25
100
AcDbLine
 10
239.1257245188
 20
535.220041841
 30
0.0
 11
239.1257245188
 21
535.6212856326
 31
0.0
  0
LINE
  5
E2
330
1F
100
AcDbEntity
  8
0
  6
Continuous
 62
     7
370
    25
100
AcDbLine
 10
206.1257245188
 20
535.6212856326
 30
0.0
 11
206.1257245188
 21
535.220041841
 31
0.0
  0
ARC
  5
E3
330
1F
100
AcDbEntity
  8
0
  6
Continuous
 62
     7
370
    25
100
AcDbCircle
 10
207.1257245188
 20
535.6212856326
 30
0.0
 40
1.000000000000006
100
AcDbArc
 50
168.6348556495
 51
180.0
  0
ARC
  5
E4
330
1F
100
AcDbEntity
  8
0
  6
Continuous
 62
     7
370
    25
100
AcDbCircle
 10
238.1257245188
 20
535.6212856326
 30
0.0
 40
1.0
100
AcDbArc
 50
0.0
 51
11.3651443505
  0
ARC
  5
E5
330
1F
100
AcDbEntity
  8
0
  6
Continuous
 62
     7
370
    25
100
AcDbCircle
 10
239.4786353479
 20
529.1182739545
 30
0.0
 40
34.00000000000003
100
AcDbArc
 50
164.472606992
 51
168.6348556495
  0
ARC
  5
E6
330
1F
100
AcDbEntity
  8
0
  6
Continuous
 62
     7
370
    25
100
AcDbCircle
 10
205.7728136898
 20
529.1182739545
 30
0.0
 40
33.99999999999997
100
AcDbArc
 50
11.3651443505
 51
15.527393008
  0
SPLINE
  5
E7
330
1F
100
AcDbEntity
  8
0
  6
Continuous
 62
     7
370
    25
100
AcDbSpline
210
0.0
220
0.0
230
1.0
 70
     8
 71
     3
 72
    12
 73
     8
 74
     0
 42
0.00000001
 43
0.00000001
 40
0.0
 40
0.0
 40
0.0
 40
0.0
 40
0.2652076823409414
 40
0.5115118370035776
 40
0.7433480063992027
 40
0.9813360080257842
 40
1.0
 40
1.0
 40
1.0
 40
1.0
 10
239.5616163499766
 20
538.2371484525855
 30
0.0
 10
239.6937703391583
 20
538.2370996785766
 30
0.0
 10
239.9486586183253
 20
538.2370056070826
 30
0.0
 10
240.2958293740734
 20
538.3726068639126
 30
0.0
 10
240.5865493777891
 20
538.6951185625289
 30
0.0
 10
240.6485979052409
 20
538.9964818492604
 30
0.0
 10
240.6199218798059
 20
539.1170563336162
 30
0.0
 10
240.617836530298
 20
539.125824631796
 30
0.0
  0
SPLINE
  5
E8
330
1F
100
AcDbEntity
  8
0
  6
Continuous
 62
     7
370
    25
100
AcDbSpline
210
0.0
220
0.0
230
1.0
 70
     8
 71
     3
 72
    12
 73
     8
 74
     0
 42
0.00000001
 43
0.00000001
 40
0.0
 40
0.0
 40
0.0
 40
0.0
 40
0.0690853429159808
 40
0.3033280573380793
 40
0.5480512228754704
 40
0.7936399449510472
 40
1.0
 40
1.0
 40
1.0
 40
1.0
 10
204.64214504305
 20
539.1036596991347
 30
0.0
 10
204.6357257974614
 20
539.0697189060013
 30
0.0
 10
204.6075412765228
 20
538.9206975012988
 30
0.0
 10
204.727630101884
 20
538.5869300936585
 30
0.0
 10
205.0534373782115
 20
538.3241800632192
 30
0.0
 10
205.3756183920609
 20
538.2289980556083
 30
0.0
 10
205.6066580636623
 20
538.2307149805588
 30
0.0
 10
205.7121509021506
 20
538.2314989294159
 30
0.0
  0
SPLINE
  5
E9
330
1F
100
AcDbEntity
  8
0
  6
Continuous
 62
     7
370
    25
100
AcDbSpline
210
0.0
220
0.0
230
1.0
 70
    11
 71
     3
 72
    95
 73
    91
 74
     0
 42
0.00000001
 43
0.00000001
 40
0.0
 40
0.0
 40
0.0
 40
0.0
 40
0.031250000000002
 40
0.031250000000002
 40
0.0468750000000024
 40
0.0468750000000024
 40
0.0625000000000029
 40
0.0625000000000029
 40
0.0937500000000027
 40
0.0937500000000027
 40
0.1093750000000027
 40
0.1093750000000027
 40
0.1250000000000031
 40
0.1250000000000031
 40
0.1562500000000035
 40
0.1562500000000035
 40
0.1718750000000037
 40
0.1718750000000037
 40
0.1875000000000041
 40
0.2031250000000043
 40
0.2031250000000043
 40
0.2187500000000047
 40
0.2187500000000047
 40
0.2500000000000053
 40
0.2500000000000053
 40
0.2656250000000057
 40
0.2656250000000057
 40
0.2812500000000059
 40
0.2812500000000059
 40
0.3125000000000066
 40
0.3125000000000066
 40
0.3281250000000068
 40
0.3281250000000068
 40
0.343750000000007
 40
0.343750000000007
 40
0.3750000000000071
 40
0.3750000000000071
 40
0.4062500000000072
 40
0.4062500000000072
 40
0.4218750000000074
 40
0.4218750000000074
 40
0.4375000000000072
 40
0.4375000000000072
 40
0.4687500000000067
 40
0.4687500000000067
 40
0.5000000000000062
 40
0.5000000000000062
 40
0.5312500000000058
 40
0.5312500000000058
 40
0.5468750000000056
 40
0.5468750000000056
 40
0.5625000000000052
 40
0.578125000000005
 40
0.578125000000005
 40
0.5937500000000048
 40
0.5937500000000048
 40
0.6250000000000043
 40
0.6250000000000043
 40
0.6406250000000041
 40
0.6406250000000041
 40
0.6562500000000039
 40
0.6562500000000039
 40
0.6875000000000033
 40
0.6875000000000033
 40
0.7031250000000034
 40
0.7031250000000034
 40
0.7187500000000036
 40
0.7187500000000036
 40
0.7500000000000036
 40
0.7500000000000036
 40
0.7656250000000036
 40
0.7656250000000036
 40
0.7812500000000036
 40
0.7968750000000036
 40
0.7968750000000036
 40
0.8125000000000034
 40
0.8125000000000034
 40
0.8437500000000034
 40
0.8437500000000034
 40
0.8750000000000034
 40
0.8750000000000034
 40
0.9062500000000034
 40
0.9062500000000034
 40
0.9218750000000029
 40
0.9218750000000029
 40
0.9375000000000022
 40
0.9375000000000022
 40
0.9687500000000011
 40
0.9687500000000011
 40
1.0
 40
1.0
 40
1.0
 40
1.0
 10
212.1838515464966
 20
463.7717015856941
 30
0.0
 10
212.1109616366924
 20
463.4267775365382
 30
0.0
 10
212.1069792745106
 20
463.0840412681387
 30
0.0
 10
212.2001399056167
 20
462.573084326834
 30
0.0
 10
212.2478386713314
 20
462.4032938240138
 30
0.0
 10
212.3772862173128
 20
462.0647938895938
 30
0.0
 10
212.4595019971639
 20
461.8956097881997
 30
0.0
 10
212.7523771600579
 20
461.4006358727737
 30
0.0
 10
213.0097335115032
 20
461.0838110906575
 30
0.0
 10
213.4880927918661
 20
460.6281338390374
 30
0.0
 10
213.6637054584062
 20
460.4790273690075
 30
0.0
 10
214.0441970813102
 20
460.1898623383192
 30
0.0
 10
214.2472268159017
 20
460.0510946837251
 30
0.0
 10
214.8934701584325
 20
459.651691551144
 30
0.0
 10
215.3734861871976
 20
459.4077959228911
 30
0.0
 10
216.1690517817567
 20
459.0763131065489
 30
0.0
 10
216.446873990816
 20
458.9717658483295
 30
0.0
 10
217.0156749206016
 20
458.7788406782934
 30
0.0
 10
217.6005560055137
 20
458.6007996128636
 30
0.0
 10
218.2171111343901
 20
458.4520766591036
 30
0.0
 10
218.8497189417604
 20
458.3182123770437
 30
0.0
 10
219.1758113092285
 20
458.2584522472477
 30
0.0
 10
220.1654469508293
 20
458.1044620926
 30
0.0
 10
220.835936507813
 20
458.0355029156241
 30
0.0
 10
221.8573398971828
 20
457.9812664300297
 30
0.0
 10
222.2004380021044
 20
457.9714470135923
 30
0.0
 10
222.8920548126918
 20
457.9688293688936
 30
0.0
 10
223.2384681639311
 20
457.9761254440588
 30
0.0
 10
224.2639799741915
 20
458.0229356753297
 30
0.0
 10
224.935704252212
 20
458.0870792973301
 30
0.0
 10
225.9252654644647
 20
458.2329750283799
 30
0.0
 10
226.2538459046519
 20
458.2903439276706
 30
0.0
 10
226.8930177440653
 20
458.4200143548641
 30
0.0
 10
227.2041551144136
 20
458.4922820148999
 30
0.0
 10
228.1128301318959
 20
458.7308469703673
 30
0.0
 10
228.6858721421433
 20
458.9186938243597
 30
0.0
 10
229.7639194348585
 20
459.3542415159887
 30
0.0
 10
230.2528485925767
 20
459.5956139224488
 30
0.0
 10
230.9098170668649
 20
459.9896535974588
 30
0.0
 10
231.1162352631021
 20
460.1264754106326
 30
0.0
 10
231.5034000658197
 20
460.4112999450604
 30
0.0
 10
231.6847182944308
 20
460.5599763600305
 30
0.0
 10
232.1783810559325
 20
461.0137174370044
 30
0.0
 10
232.4447027561033
 20
461.3287224161134
 30
0.0
 10
232.8533259765197
 20
461.9834446917391
 30
0.0
 10
232.9949642876691
 20
462.3258285095736
 30
0.0
 10
233.1394493911605
 20
463.0072447014643
 30
0.0
 10
233.1451828299919
 20
463.3493455967575
 30
0.0
 10
233.0519911425527
 20
463.8646286117356
 30
0.0
 10
233.0035376752079
 20
464.0369408547031
 30
0.0
 10
232.8744033749887
 20
464.3746986910618
 30
0.0
 10
232.7128443876011
 20
464.7075210426802
 30
0.0
 10
232.4875234085005
 20
465.0306379394552
 30
0.0
 10
232.2299428961028
 20
465.3488444901875
 30
0.0
 10
232.0842638546175
 20
465.5061974923423
 30
0.0
 10
231.6022943604391
 20
465.9654963045023
 30
0.0
 10
231.2258073278006
 20
466.2514592587856
 30
0.0
 10
230.5808035211397
 20
466.650961762076
 30
0.0
 10
230.3523263812766
 20
466.7791867002796
 30
0.0
 10
229.8676495716414
 20
467.0254687479898
 30
0.0
 10
229.6121166548106
 20
467.1430364027042
 30
0.0
 10
228.8206487125323
 20
467.4728707582531
 30
0.0
 10
228.2551104422215
 20
467.6650985362397
 30
0.0
 10
227.3498436699865
 20
467.9118599852891
 30
0.0
 10
227.0367095271746
 20
467.9874893110718
 30
0.0
 10
226.4009929865678
 20
468.1220431012404
 30
0.0
 10
226.0786761434319
 20
468.1810457530539
 30
0.0
 10
225.0986938511321
 20
468.3338692933326
 30
0.0
 10
224.4281228466055
 20
468.4037399832422
 30
0.0
 10
223.3954764960546
 20
468.4588292830016
 30
0.0
 10
223.0500324450676
 20
468.4686113527923
 30
0.0
 10
222.3639160565122
 20
468.4712664442845
 30
0.0
 10
221.6802947753744
 20
468.4571367505578
 30
0.0
 10
221.0016149686267
 20
468.40976536723
 30
0.0
 10
220.3254535125853
 20
468.3454528392397
 30
0.0
 10
219.986987671516
 20
468.3045267355009
 30
0.0
 10
218.9953836923938
 20
468.1583520733802
 30
0.0
 10
218.3614105248964
 20
468.0298630778686
 30
0.0
 10
217.1468017004394
 20
467.7117858292959
 30
0.0
 10
216.5621976287311
 20
467.5198984652941
 30
0.0
 10
215.4955740379288
 20
467.0892178076945
 30
0.0
 10
215.0076389548107
 20
466.8494705891588
 30
0.0
 10
214.3449455858769
 20
466.452623999755
 30
0.0
 10
214.1352609121532
 20
466.3136326096915
 30
0.0
 10
213.7484004034821
 20
466.0290526023954
 30
0.0
 10
213.5699960451446
 20
465.8828081784575
 30
0.0
 10
213.0790255018481
 20
465.4324314369208
 30
0.0
 10
212.8095977882413
 20
465.1156879474393
 30
0.0
 10
212.3965728622348
 20
464.4543965852426
 30
0.0
 10
212.2567414563008
 20
464.11662563485
 30
0.0
 10
212.1838515464966
 20
463.7717015856941
 30
0.0
  0
SPLINE
  5
EA
330
1F
100
AcDbEntity
  8
0
  6
Continuous
 62
     7
370
    25
100
AcDbSpline
210
0.0
220
0.0
230
1.0
 70
     8
 71
     3
 72
    22
 73
    18
 74
     0
 42
0.00000001
 43
0.00000001
 40
0.0
 40
0.0
 40
0.0
 40
0.0
 40
0.125
 40
0.125
 40
0.2500000000000001
 40
0.2500000000000001
 40
0.375
 40
0.375
 40
0.5
 40
0.5
 40
0.6249999999999999
 40
0.6249999999999999
 40
0.7499999999999999
 40
0.7499999999999999
 40
0.875
 40
0.875
 40
1.0
 40
1.0
 40
1.0
 40
1.0
 10
233.1257245188287
 20
494.4783720902021
 30
0.0
 10
233.1257245188287
 20
495.8528188761476
 30
0.0
 10
232.8524376238475
 20
497.2267248759746
 30
0.0
 10
231.800481596553
 20
499.766371384099
 30
0.0
 10
231.0222263640158
 20
500.931112649943
 30
0.0
 10
229.0784650785727
 20
502.8748739353921
 30
0.0
 10
227.9137238127301
 20
503.6531291679336
 30
0.0
 10
225.3740773046055
 20
504.705085195235
 30
0.0
 10
224.0001713047764
 20
504.9783720902188
 30
0.0
 10
221.2512777328809
 20
504.9783720902188
 30
0.0
 10
219.8773717330518
 20
504.705085195235
 30
0.0
 10
217.3377252249272
 20
503.6531291679336
 30
0.0
 10
216.1729839590846
 20
502.8748739353921
 30
0.0
 10
214.2292226736415
 20
500.9311126499431
 30
0.0
 10
213.4509674411043
 20
499.766371384099
 30
0.0
 10
212.3990114138098
 20
497.2267248759746
 30
0.0
 10
212.1257245188287
 20
495.8528188761476
 30
0.0
 10
212.1257245188287
 20
494.4783720902021
 30
0.0
  0
LINE
  5
EB
330
1F
100
AcDbEntity
  8
0
  6
Continuous
 62
     7
370
    25
100
AcDbLine
 10
227.1257245188
 20
559.420041841
 30
0.0
 11
227.1257245188
 21
552.020041841
 31
0.0
  0
LINE
  5
EC
330
1F
100
AcDbEntity
  8
0
  6
Continuous
 62
     7
370
    25
100
AcDbLine
 10
218.9257245188
 20
560.220041841
 30
0.0
 11
226.3257245188
 21
560.220041841
 31
0.0
  0
ARC
  5
ED
330
1F
100
AcDbEntity
  8
0
  6
Continuous
 62
     7
370
    25
100
AcDbCircle
 10
226.3257245188
 20
552.020041841
 30
0.0
 40
0.8000000000000682
100
AcDbArc
 50
270.0
 51
0.0
  0
LINE
  5
EE
330
1F
100
AcDbEntity
  8
0
  6
Continuous
 62
     7
370
    25
100
AcDbLine
 10
226.3257245188
 20
551.220041841
 30
0.0
 11
218.9257245188
 21
551.220041841
 31
0.0
  0
ARC
  5
EF
330
1F
100
AcDbEntity
  8
0
  6
Continuous
 62
     7
370
    25
100
AcDbCircle
 10
226.3257245188
 20
559.420041841
 30
0.0
 40
0.8000000000000114
100
AcDbArc
 50
0.0
 51
90.0
  0
ARC
  5
F0
330
1F
100
AcDbEntity
  8
0
  6
Continuous
 62
     7
370
    25
100
AcDbCircle
 10
218.9257245188
 20
559.420041841
 30
0.0
 40
0.8000000000000114
100
AcDbArc
 50
90.0
 51
180.0
  0
ARC
  5
F1
330
1F
100
AcDbEntity
  8
0
  6
Continuous
 62
     7
370
    25
100
AcDbCircle
 10
218.9257245188
 20
552.020041841
 30
0.0
 40
0.8000000000000682
100
AcDbArc
 50
180.0
 51
270.0
  0
LINE
  5
F2
330
1F
100
AcDbEntity
  8
0
  6
Continuous
 62
     7
370
    25
100
AcDbLine
 10
218.1257245188
 20
552.020041841
 30
0.0
 11
218.1257245188
 21
559.420041841
 31
0.0
  0
LINE
  5
F3
330
1F
100
AcDbEntity
  8
0
  6
Continuous
 62
     7
370
    25
100
AcDbLine
 10
216.6796178389
 20
363.220041841
 30
0.0
 11
197.6257245188
 21
363.220041841
 31
0.0
  0
LINE
  5
F4
330
1F
100
AcDbEntity
  8
0
  6
Continuous
 62
     7
370
    25
100
AcDbLine
 10
247.6257245188
 20
363.220041841
 30
0.0
 11
216.6796178389
 21
363.220041841
 31
0.0
  0
LINE
  5
F5
330
1F
100
AcDbEntity
  8
0
  6
Continuous
 62
     7
370
    25
100
AcDbLine
 10
198.4257245188
 20
370.220041841
 30
0.0
 11
246.8257245188
 21
370.220041841
 31
0.0
  0
SPLINE
  5
F6
330
1F
100
AcDbEntity
  8
0
  6
Continuous
 62
     7
370
    25
100
AcDbSpline
210
0.0
220
0.0
230
1.0
 70
    24
 71
     3
 72
    22
 73
    18
 74
     0
 42
0.00000001
 43
0.00000001
 40
0.0
 40
0.0
 40
0.0
 40
0.0
 40
0.125
 40
0.125
 40
0.25
 40
0.25
 40
0.375
 40
0.375
 40
0.5
 40
0.5
 40
0.625
 40
0.625
 40
0.75
 40
0.75
 40
0.875
 40
0.875
 40
1.0
 40
1.0
 40
1.0
 40
1.0
 10
228.5658066135348
 20
560.2200418410043
 30
0.0
 10
228.3998301493763
 20
560.2200418410043
 30
0.0
 10
228.2337572055164
 20
560.2200418410043
 30
0.0
 10
227.9108482367637
 20
560.2200418410042
 30
0.0
 10
227.7534753819317
 20
560.2200418410043
 30
0.0
 10
227.4501906265902
 20
560.2200418410043
 30
0.0
 10
227.3063476978162
 20
560.2200418410043
 30
0.0
 10
227.044852637428
 20
560.2200418410043
 30
0.0
 10
226.9249906956371
 20
560.2200418410042
 30
0.0
 10
226.7201831488548
 20
560.2200418410042
 30
0.0
 10
226.6355884386703
 20
560.2200418410042
 30
0.0
 10
226.4986172626757
 20
560.2200418410041
 30
0.0
 10
226.4466233100275
 20
560.2200418410043
 30
0.0
 10
226.3732374973462
 20
560.2200418410043
 30
0.0
 10
226.3510345939711
 20
560.2200418410043
 30
0.0
 10
226.3269155040082
 20
560.2200418410043
 30
0.0
 10
226.3257245188287
 20
560.2200418410043
 30
0.0
 10
226.3257245188287
 20
560.2200418410043
 30
0.0
  0
SPLINE
  5
F7
330
1F
100
AcDbEntity
  8
0
  6
Continuous
 62
     7
370
    25
100
AcDbSpline
210
0.0
220
0.0
230
1.0
 70
    24
 71
     3
 72
    22
 73
    18
 74
     0
 42
0.00000001
 43
0.00000001
 40
0.0
 40
0.0
 40
0.0
 40
0.0
 40
0.125
 40
0.125
 40
0.25
 40
0.25
 40
0.375
 40
0.375
 40
0.5
 40
0.5
 40
0.625
 40
0.625
 40
0.75
 40
0.75
 40
0.875
 40
0.875
 40
1.0
 40
1.0
 40
1.0
 40
1.0
 10
218.9257245188287
 20
560.2200418410041
 30
0.0
 10
218.9257245188287
 20
560.2200418410041
 30
0.0
 10
218.9245957985815
 20
560.2200418410042
 30
0.0
 10
218.9006895163003
 20
560.2200418410042
 30
0.0
 10
218.878623794146
 20
560.2200418410043
 30
0.0
 10
218.8044464673924
 20
560.2200418410043
 30
0.0
 10
218.7526203166846
 20
560.2200418410043
 30
0.0
 10
218.6160965682216
 20
560.2200418410042
 30
0.0
 10
218.5298341532798
 20
560.2200418410042
 30
0.0
 10
218.3246921650767
 20
560.2200418410042
 30
0.0
 10
218.2070477569183
 20
560.2200418410043
 30
0.0
 10
217.944749204825
 20
560.2200418410043
 30
0.0
 10
217.799795800042
 20
560.2200418410042
 30
0.0
 10
217.4998260596655
 20
560.2200418410042
 30
0.0
 10
217.3431687918031
 20
560.2200418410043
 30
0.0
 10
217.0199684630668
 20
560.2200418410043
 30
0.0
 10
216.8527606709604
 20
560.2200418410043
 30
0.0
 10
216.6856424241225
 20
560.2200418410043
 30
0.0
  0
LINE
  5
F8
330
1F
100
AcDbEntity
  8
0
  6
Continuous
 62
     7
370
    25
100
AcDbLine
 10
222.6257245188
 20
535.220041841
 30
0.0
 11
239.8257245188
 21
535.220041841
 31
0.0
  0
LINE
  5
F9
330
1F
100
AcDbEntity
  8
0
  6
Continuous
 62
     7
370
    25
100
AcDbLine
 10
205.4257245188
 20
535.220041841
 30
0.0
 11
222.6257245188
 21
535.220041841
 31
0.0
  0
LINE
  5
FA
330
1F
100
AcDbEntity
  8
0
  6
Continuous
 62
     7
370
    25
100
AcDbLine
 10
239.5463256406
 20
538.220041841
 30
0.0
 11
205.705123397
 21
538.220041841
 31
0.0
  0
LINE
  5
FB
330
1F
100
AcDbEntity
  8
0
  6
Continuous
 62
     7
370
    25
100
AcDbLine
 10
228.5658066135
 20
560.220041841
 30
0.0
 11
239.8257245188
 21
560.220041841
 31
0.0
  0
LINE
  5
FC
330
1F
100
AcDbEntity
  8
0
  6
Continuous
 62
     7
370
    25
100
AcDbLine
 10
205.4257245188
 20
560.220041841
 30
0.0
 11
216.6856424241
 21
560.220041841
 31
0.0
  0
SPLINE
  5
FD
330
1F
100
AcDbEntity
  8
0
  6
Continuous
 62
     8
370
    18
100
AcDbSpline
210
0.0
220
0.0
230
1.0
 70
    24
 71
     3
 72
     8
 73
     4
 74
     0
 42
0.00000001
 43
0.00000001
 40
0.0
 40
0.0
 40
0.0
 40
0.0
 40
1.0
 40
1.0
 40
1.0
 40
1.0
 10
225.9356464753951
 20
549.0987214974447
 30
0.0
 10
223.754246022711
 20
549.0987214974447
 30
0.0
 10
221.4972030149186
 20
549.0987214974447
 30
0.0
 10
219.3158025622351
 20
549.0987214974448
 30
0.0
  0
SPLINE
  5
FE
330
1F
100
AcDbEntity
  8
0
  6
Continuous
 62
     8
370
    18
100
AcDbSpline
210
0.0
220
0.0
230
1.0
 70
     8
 71
     3
 72
    21
 73
    17
 74
     0
 42
0.00000001
 43
0.00000001
 40
0.0
 40
0.0
 40
0.0
 40
0.0
 40
0.0351002472297324
 40
0.0700652891713298
 40
0.1049983694210835
 40
0.1400030143326197
 40
0.2085180087362874
 40
0.2768584892933156
 40
0.4095185876183532
 40
0.5360900747248861
 40
0.6582820748322908
 40
0.7752213172418007
 40
0.8322233449811108
 40
0.8890975713829636
 40
0.9445807527626591
 40
1.0
 40
1.0
 40
1.0
 40
1.0
 10
228.8420895016607
 20
552.0200418410043
 30
0.0
 10
228.8412815641756
 20
551.9649455734274
 30
0.0
 10
228.8396688013608
 20
551.8549652677395
 30
0.0
 10
228.8266520893739
 20
551.6906341602959
 30
0.0
 10
228.8058494484783
 20
551.5274186926781
 30
0.0
 10
228.7672168550666
 20
551.3139525125989
 30
0.0
 10
228.6994170147859
 20
551.0534293571819
 30
0.0
 10
228.5520384861334
 20
550.659699512407
 30
0.0
 10
228.3013988632825
 20
550.214251066923
 30
0.0
 10
227.9114154421187
 20
549.7719009752088
 30
0.0
 10
227.4596555710619
 20
549.4367490309972
 30
0.0
 10
227.0457051274635
 20
549.2473869486689
 30
0.0
 10
226.7055538770196
 20
549.1513068564828
 30
0.0
 10
226.4494931737878
 20
549.1069593867406
 30
0.0
 10
226.1919674187316
 20
549.0866406192316
 30
0.0
 10
226.021053946529
 20
549.0946960860057
 30
0.0
 10
225.9356464753825
 20
549.0987214974447
 30
0.0
  0
SPLINE
  5
FF
330
1F
100
AcDbEntity
  8
0
  6
Continuous
 62
     8
370
    18
100
AcDbSpline
210
0.0
220
0.0
230
1.0
 70
     8
 71
     3
 72
    21
 73
    17
 74
     0
 42
0.00000001
 43
0.00000001
 40
0.0
 40
0.0
 40
0.0
 40
0.0
 40
0.0276447721780826
 40
0.0552428195415967
 40
0.0828588255560673
 40
0.1105573478725323
 40
0.1674199268070619
 40
0.2244273239294111
 40
0.3414926866829841
 40
0.4633589029261929
 40
0.5906748595160445
 40
0.7227374015014345
 40
0.7913815171671887
 40
0.8602228214983669
 40
0.9300718087027425
 40
1.0
 40
1.0
 40
1.0
 40
1.0
 10
219.315802562246
 20
549.0987214974666
 30
0.0
 10
219.2732405635641
 20
549.0961078336398
 30
0.0
 10
219.1881885039064
 20
549.090884923565
 30
0.0
 10
219.0605626032849
 20
549.0910167405494
 30
0.0
 10
218.9331963028786
 20
549.0970117324148
 30
0.0
 10
218.7617377460001
 20
549.1137545417122
 30
0.0
 10
218.5476205357829
 20
549.1509909842698
 30
0.0
 10
218.207248118272
 20
549.2467573742836
 30
0.0
 10
217.793445941416
 20
549.4358247336447
 30
0.0
 10
217.3408096509874
 20
549.7710885550244
 30
0.0
 10
216.950797493125
 20
550.2131372465046
 30
0.0
 10
216.6998117243643
 20
550.6590719506034
 30
0.0
 10
216.5520822924234
 20
551.0527964737863
 30
0.0
 10
216.4707769819524
 20
551.3670360755381
 30
0.0
 10
216.4189286104025
 20
551.6907463047613
 30
0.0
 10
216.412550432187
 20
551.9102352047993
 30
0.0
 10
216.4093595359966
 20
552.0200418410044
 30
0.0
  0
LINE
  5
100
330
1F
100
AcDbEntity
  8
0
  6
Continuous
 62
     8
370
    18
100
AcDbLine
 10
228.8420895017
 20
559.420041841
 30
0.0
 11
228.8420895017
 21
552.020041841
 31
0.0
  0
LINE
  5
101
330
1F
100
AcDbEntity
  8
0
  6
Continuous
 62
     8
370
    18
100
AcDbLine
 10
216.409359536
 20
552.020041841
 30
0.0
 11
216.409359536
 21
559.420041841
 31
0.0
  0
LWPOLYLINE
  5
102
330
1F
100
AcDbEntity
  8
0
  6
Continuous
 62
     8
370
    18
100
AcDbPolyline
 90
        9
 70
   128
 43
0.0
 10
228.8420895017
 20
559.420041841
 10
228.8367808034
 20
559.5761140986
 10
228.8210587191
 20
559.7261885869
 10
228.7955274394
 20
559.8644980274
 10
228.7611681173
 20
559.985727266
 10
228.7193011621
 20
560.0852175308
 10
228.6715354975
 20
560.159145467
 10
228.6197067311
 20
560.2046700653
 10
228.5658066135
 20
560.220041841
  0
LWPOLYLINE
  5
103
330
1F
100
AcDbEntity
  8
0
  6
Continuous
 62
     8
370
    18
100
AcDbPolyline
 90
        9
 70
   128
 43
0.0
 10
216.409359536
 20
559.420041841
 10
216.4146682342
 20
559.5761140986
 10
216.4303903186
 20
559.7261885869
 10
216.4559215982
 20
559.8644980274
 10
216.4902809204
 20
559.985727266
 10
216.5321478756
 20
560.0852175308
 10
216.5799135402
 20
560.159145467
 10
216.6317423065
 20
560.2046700653
 10
216.6856424241
 20
560.220041841
  0
SPLINE
  5
104
330
1F
100
AcDbEntity
  8
0
  6
Continuous
 62
     8
370
    18
100
AcDbSpline
210
0.0
220
0.0
230
1.0
 70
     8
 71
     3
 72
    17
 73
    13
 74
     0
 42
0.00000001
 43
0.00000001
 40
0.0
 40
0.0
 40
0.0
 40
0.0
 40
0.1035083395295673
 40
0.2080724418561936
 40
0.314755242595005
 40
0.4226603412131333
 40
0.5322669597273441
 40
0.639498877956975
 40
0.7457077227004577
 40
0.8492588875092398
 40
0.9528353755096611
 40
1.0
 40
1.0
 40
1.0
 40
1.0
 10
222.6257245171693
 20
505.4783720902021
 30
0.0
 10
221.9025854385632
 20
505.4368180896111
 30
0.0
 10
220.4489314183071
 20
505.3532862465619
 30
0.0
 10
218.3654298073118
 20
504.6914158897633
 30
0.0
 10
216.4598392208015
 20
503.6740381086686
 30
0.0
 10
214.7923144398398
 20
502.3004909941404
 30
0.0
 10
213.4263597294218
 20
500.6370800086131
 30
0.0
 10
212.4040727180237
 20
498.728413779434
 30
0.0
 10
211.7634295213356
 20
496.6422758896553
 30
0.0
 10
211.5670803659723
 20
494.4596324024977
 30
0.0
 10
211.6951434214158
 20
492.660315147616
 30
0.0
 10
212.0231090207539
 20
491.686729461765
 30
0.0
 10
212.1257245188283
 20
491.3821091592902
 30
0.0
  0
SPLINE
  5
105
330
1F
100
AcDbEntity
  8
0
  6
Continuous
 62
     8
370
    18
100
AcDbSpline
210
0.0
220
0.0
230
1.0
 70
     8
 71
     3
 72
    17
 73
    13
 74
     0
 42
0.00000001
 43
0.00000001
 40
0.0
 40
0.0
 40
0.0
 40
0.0
 40
0.0832413117275368
 40
0.1823555998904541
 40
0.2823874086065655
 40
0.3850811694750118
 40
0.4881715862141165
 40
0.5933032686898939
 40
0.6976602409175262
 40
0.8002304833760403
 40
0.900371304890996
 40
1.0
 40
1.0
 40
1.0
 40
1.0
 10
233.1257245188283
 20
491.3019491171403
 30
0.0
 10
233.2789687247451
 20
491.8549745132842
 30
0.0
 10
233.6146787047986
 20
493.066479663498
 30
0.0
 10
233.6707500131911
 20
495.0708814891365
 30
0.0
 10
233.3642734215178
 20
497.1614643174124
 30
0.0
 10
232.6619280374497
 20
499.1381559240638
 30
0.0
 10
231.6102528452051
 20
500.9374805079593
 30
0.0
 10
230.2444937885038
 20
502.5035598558766
 30
0.0
 10
228.6006344152736
 20
503.7940823463741
 30
0.0
 10
226.740714910466
 20
504.74583379079
 30
0.0
 10
224.7248042420175
 20
505.3619781779074
 30
0.0
 10
223.3242209211305
 20
505.4396404841131
 30
0.0
 10
222.6257245188286
 20
505.478372090202
 30
0.0
  0
LINE
  5
106
330
1F
100
AcDbEntity
  8
0
  6
Continuous
 62
     8
370
    18
100
AcDbLine
 10
239.1257245188
 20
535.6212856326
 30
0.0
 11
206.1257245188
 21
535.6212856326
 31
0.0
  0
LINE
  5
107
330
1F
100
AcDbEntity
  8
0
  6
Continuous
 62
     8
370
    18
100
AcDbLine
 10
222.2455202114
 20
535.8183465925
 30
0.0
 11
239.1061157561
 21
535.8183465925
 31
0.0
  0
LINE
  5
108
330
1F
100
AcDbEntity
  8
0
  6
Continuous
 62
     8
370
    18
100
AcDbLine
 10
206.1453332816
 20
535.8183465925
 30
0.0
 11
222.2455202114
 21
535.8183465925
 31
0.0
  0
LINE
  5
109
330
1F
100
AcDbEntity
  8
0
  6
Continuous
 62
     7
370
    25
100
AcDbLine
 10
212.1257245188
 20
230.4060719891
 30
0.0
 11
212.1257245188
 21
153.8559095613
 31
0.0
  0
LINE
  5
10A
330
1F
100
AcDbEntity
  8
0
  6
Continuous
 62
     7
370
    25
100
AcDbLine
 10
233.1257245188
 20
153.8559095613
 30
0.0
 11
233.1257245188
 21
230.4060719891
 31
0.0
  0
SPLINE
  5
10B
330
1F
100
AcDbEntity
  8
0
  6
Continuous
 62
     7
370
    25
100
AcDbSpline
210
0.0
220
0.0
230
1.0
 70
    24
 71
     3
 72
    19
 73
    15
 74
     0
 42
0.00000001
 43
0.00000001
 40
0.0
 40
0.0
 40
0.0
 40
0.0
 40
0.1087148038529715
 40
0.203780629651952
 40
0.2851925534361368
 40
0.3529463584523618
 40
0.4070385353735122
 40
0.4522766586675022
 40
0.509041105094662
 40
0.5796203784628304
 40
0.6640107402959228
 40
0.7622077205656373
 40
0.8742061179282258
 40
1.0
 40
1.0
 40
1.0
 40
1.0
 10
212.1257245188287
 20
153.8559095613277
 30
0.0
 10
212.1257245188287
 20
152.4813336037883
 30
0.0
 10
212.1257245188286
 20
149.9047576067358
 30
0.0
 10
212.1257245188286
 20
146.3436929587663
 30
0.0
 10
212.1257245188287
 20
143.3555804878459
 30
0.0
 10
212.1257245188286
 20
140.9287705166174
 30
0.0
 10
212.1257245188287
 20
138.9832519468643
 30
0.0
 10
212.1257245188287
 20
137.2087225506912
 30
0.0
 10
212.1257245188287
 20
135.3002874984604
 30
0.0
 10
212.1257245188286
 20
133.0507581869454
 30
0.0
 10
212.1257245188287
 20
130.5090426781213
 30
0.0
 10
212.1257245188287
 20
127.7891940346456
 30
0.0
 10
212.1257245188287
 20
124.9922233069958
 30
0.0
 10
212.1257245188286
 20
123.4057005040616
 30
0.0
 10
212.1257245188287
 20
122.5664181570855
 30
0.0
  0
SPLINE
  5
10C
330
1F
100
AcDbEntity
  8
0
  6
Continuous
 62
     7
370
    25
100
AcDbSpline
210
0.0
220
0.0
230
1.0
 70
    24
 71
     3
 72
    19
 73
    15
 74
     0
 42
0.00000001
 43
0.00000001
 40
0.0
 40
0.0
 40
0.0
 40
0.0
 40
0.1087148038529713
 40
0.2037806296519515
 40
0.2851925534361368
 40
0.3529463584523621
 40
0.4070385353735123
 40
0.4522766586675024
 40
0.5090411050946619
 40
0.5796203784628304
 40
0.6640107402959226
 40
0.7622077205656371
 40
0.8742061179282258
 40
1.0
 40
1.0
 40
1.0
 40
1.0
 10
233.1257245188287
 20
122.5664181570855
 30
0.0
 10
233.1257245188287
 20
123.2853734774374
 30
0.0
 10
233.1257245188287
 20
124.6330203726209
 30
0.0
 10
233.1257245188287
 20
126.9276990936285
 30
0.0
 10
233.1257245188287
 20
129.0855599365312
 30
0.0
 10
233.1257245188287
 20
131.0235659356876
 30
0.0
 10
233.1257245188287
 20
132.7010965752396
 30
0.0
 10
233.1257245188287
 20
134.3287374061929
 30
0.0
 10
233.1257245188287
 20
136.1923108466873
 30
0.0
 10
233.1257245188287
 20
138.5676360389827
 30
0.0
 10
233.1257245188287
 20
141.5200479711299
 30
0.0
 10
233.1257245188287
 20
145.0801623856926
 30
0.0
 10
233.1257245188287
 20
149.257901678504
 30
0.0
 10
233.1257245188287
 20
152.265086470094
 30
0.0
 10
233.1257245188287
 20
153.8559095613277
 30
0.0
  0
LINE
  5
10D
330
1F
100
AcDbEntity
  8
0
  6
Continuous
 62
     7
370
    25
100
AcDbLine
 10
233.1257245188
 20
115.0239095577
 30
0.0
 11
233.1257245188
 21
122.6789095613
 31
0.0
  0
LINE
  5
10E
330
1F
100
AcDbEntity
  8
0
  6
Continuous
 62
     7
370
    25
100
AcDbLine
 10
212.1257245188
 20
122.6789095613
 30
0.0
 11
212.1257245188
 21
115.0239095591
 31
0.0
  0
ARC
  5
10F
330
1F
100
AcDbEntity
  8
0
  6
Continuous
 62
     7
370
    25
100
AcDbCircle
 10
222.6257245188
 20
245.0262635064
 30
0.0
 40
18.00000000000004
100
AcDbArc
 50
290.2033829341
 51
249.7966170659
  0
SPLINE
  5
110
330
1F
100
AcDbEntity
  8
0
  6
Continuous
 62
     7
370
    25
100
AcDbSpline
210
0.0
220
0.0
230
1.0
 70
     8
 71
     3
 72
    20
 73
    16
 74
     0
 42
0.00000001
 43
0.00000001
 40
0.0
 40
0.0
 40
0.0
 40
0.0
 40
0.1250000000000001
 40
0.1250000000000001
 40
0.2500000000000002
 40
0.2500000000000002
 40
0.5000000000000002
 40
0.5000000000000002
 40
0.6250000000000002
 40
0.6250000000000002
 40
0.7500000000000001
 40
0.7500000000000001
 40
0.8750000000000001
 40
0.8750000000000001
 40
1.0
 40
1.0
 40
1.0
 40
1.0
 10
218.1257245188287
 20
225.6732498035293
 30
0.0
 10
218.1257245188287
 20
225.8076619942635
 30
0.0
 10
218.1255274140898
 20
225.9426444944818
 30
0.0
 10
218.1116641005883
 20
226.2165554371036
 30
0.0
 10
218.0980231358884
 20
226.3552558582545
 30
0.0
 10
218.0237741570218
 20
226.7664253884451
 30
0.0
 10
217.928535051862
 20
227.0312295854221
 30
0.0
 10
217.6938984909177
 20
227.3675943690621
 30
0.0
 10
217.6002206963972
 20
227.4705620621674
 30
0.0
 10
217.388290656806
 20
227.656053832283
 30
0.0
 10
217.2703771305408
 20
227.7384087352968
 30
0.0
 10
217.0254159090343
 20
227.8814389136604
 30
0.0
 10
216.8987069325984
 20
227.9419450150135
 30
0.0
 10
216.6498396075984
 20
228.0463549480201
 30
0.0
 10
216.5280199778396
 20
228.0900896056769
 30
0.0
 10
216.4093595359966
 20
228.1337561021816
 30
0.0
  0
LINE
  5
111
330
1F
100
AcDbEntity
  8
0
  6
Continuous
 62
     7
370
    25
100
AcDbLine
 10
227.1257245188
 20
225.6732498035
 30
0.0
 11
227.1257245188
 21
155.8262635064
 31
0.0
  0
SPLINE
  5
112
330
1F
100
AcDbEntity
  8
0
  6
Continuous
 62
     7
370
    25
100
AcDbSpline
210
0.0
220
0.0
230
1.0
 70
     8
 71
     3
 72
    20
 73
    16
 74
     0
 42
0.00000001
 43
0.00000001
 40
0.0
 40
0.0
 40
0.0
 40
0.0
 40
0.125
 40
0.125
 40
0.25
 40
0.25
 40
0.375
 40
0.375
 40
0.5
 40
0.5
 40
0.75
 40
0.75
 40
0.875
 40
0.875
 40
1.0
 40
1.0
 40
1.0
 40
1.0
 10
228.8420895016607
 20
228.1337561021816
 30
0.0
 10
228.7234290598176
 20
228.0900896056769
 30
0.0
 10
228.6016094300589
 20
228.0463549480201
 30
0.0
 10
228.3527421050589
 20
227.9419450150135
 30
0.0
 10
228.226033128623
 20
227.8814389136604
 30
0.0
 10
227.9810719071166
 20
227.7384087352968
 30
0.0
 10
227.8631583808513
 20
227.656053832283
 30
0.0
 10
227.6512283412601
 20
227.4705620621674
 30
0.0
 10
227.5575505467396
 20
227.3675943690621
 30
0.0
 10
227.3229139857953
 20
227.031229585422
 30
0.0
 10
227.2276748806355
 20
226.7664253884451
 30
0.0
 10
227.153425901769
 20
226.3552558582545
 30
0.0
 10
227.139784937069
 20
226.2165554371036
 30
0.0
 10
227.1259216235675
 20
225.9426444944818
 30
0.0
 10
227.1257245188287
 20
225.8076619942635
 30
0.0
 10
227.1257245188287
 20
225.6732498035293
 30
0.0
  0
LINE
  5
113
330
1F
100
AcDbEntity
  8
0
  6
Continuous
 62
     7
370
    25
100
AcDbLine
 10
218.1257245188
 20
155.8262635064
 30
0.0
 11
218.1257245188
 21
225.6732498035
 31
0.0
  0
ARC
  5
114
330
1F
100
AcDbEntity
  8
0
  6
Continuous
 62
     7
370
    25
100
AcDbCircle
 10
226.3257245188
 20
155.8262635064
 30
0.0
 40
0.8000000000000114
100
AcDbArc
 50
270.0
 51
0.0
  0
ARC
  5
115
330
1F
100
AcDbEntity
  8
0
  6
Continuous
 62
     7
370
    25
100
AcDbCircle
 10
218.9257245188
 20
155.8262635064
 30
0.0
 40
0.8000000000000114
100
AcDbArc
 50
180.0
 51
270.0
  0
LINE
  5
116
330
1F
100
AcDbEntity
  8
0
  6
Continuous
 62
     7
370
    25
100
AcDbLine
 10
226.3257245188
 20
155.0262635064
 30
0.0
 11
218.9257245188
 21
155.0262635064
 31
0.0
  0
LINE
  5
117
330
1F
100
AcDbEntity
  8
0
  6
Continuous
 62
     7
370
    25
100
AcDbLine
 10
212.2599450895
 20
230.3084308856
 30
0.0
 11
212.1258690062
 21
230.4059515681
 31
0.0
  0
LINE
  5
118
330
1F
100
AcDbEntity
  8
0
  6
Continuous
 62
     7
370
    25
100
AcDbLine
 10
212.1838515465
 20
114.0684199718
 30
0.0
 11
212.1594066861
 21
115.0245554036
 31
0.0
  0
SPLINE
  5
119
330
1F
100
AcDbEntity
  8
0
  6
Continuous
 62
     7
370
    25
100
AcDbSpline
210
0.0
220
0.0
230
1.0
 70
     8
 71
     3
 72
    25
 73
    21
 74
     0
 42
0.00000001
 43
0.00000001
 40
0.0
 40
0.0
 40
0.0
 40
0.0
 40
0.0417825458400191
 40
0.0965459465463866
 40
0.1528974895831756
 40
0.2076608902895532
 40
0.2640124333263514
 40
0.3187758340327665
 40
0.3751273770696015
 40
0.4298907777760608
 40
0.4862423208129415
 40
0.5410057215194353
 40
0.5973572645563531
 40
0.6521206652628557
 40
0.7084722082997844
 40
0.7632356090062659
 40
0.8195871520431746
 40
0.8743505527496147
 40
0.9307020957864813
 40
1.0
 40
1.0
 40
1.0
 40
1.0
 10
233.0962919042039
 20
115.024962251672
 30
0.0
 10
233.0918139199188
 20
114.6401270749171
 30
0.0
 10
233.0814667468892
 20
113.7508974777929
 30
0.0
 10
232.7144577381474
 20
112.370374018322
 30
0.0
 10
232.0684692384292
 20
110.9464914867682
 30
0.0
 10
231.1370811032297
 20
109.6260364921454
 30
0.0
 10
229.9762675741356
 20
108.4699987531946
 30
0.0
 10
228.5945436751277
 20
107.4903338722106
 30
0.0
 10
227.0568097632802
 20
106.7323925103273
 30
0.0
 10
225.3786674243283
 20
106.2039894868912
 30
0.0
 10
223.6378852989928
 20
105.9295906425315
 30
0.0
 10
221.8523902954584
 20
105.9120246609624
 30
0.0
 10
220.1048501440161
 20
106.1521036292758
 30
0.0
 10
218.4133161265876
 20
106.6473576896598
 30
0.0
 10
216.8559584938349
 20
107.3748380815914
 30
0.0
 10
215.4494020330042
 20
108.3271102648427
 30
0.0
 10
214.2566378588796
 20
109.4598449630741
 30
0.0
 10
213.2979508322744
 20
110.7622503900425
 30
0.0
 10
212.5257530887274
 20
112.294145262009
 30
0.0
 10
212.305387233676
 20
113.4377188211096
 30
0.0
 10
212.1838515464966
 20
114.0684199717621
 30
0.0
  0
ARC
  5
11A
330
1F
100
AcDbEntity
  8
0
  6
Continuous
 62
     7
370
    25
100
AcDbCircle
 10
222.6257245188
 20
245.0262635064
 30
0.0
 40
25.00000000000003
100
AcDbArc
 50
294.8345874897
 51
76.2406578816
  0
ARC
  5
11B
330
1F
100
AcDbEntity
  8
0
  6
Continuous
 62
     7
370
    25
100
AcDbCircle
 10
222.6257245188
 20
245.0262635064
 30
0.0
 40
25.00000000000001
100
AcDbArc
 50
76.2406578816
 51
245.1654125103
  0
LINE
  5
11C
330
1F
100
AcDbEntity
  8
0
  6
Continuous
 62
     8
370
    18
100
AcDbLine
 10
228.8420895017
 20
228.1337561022
 30
0.0
 11
228.5658066135
 21
228.884534209
 31
0.0
  0
ARC
  5
11D
330
1F
100
AcDbEntity
  8
0
  6
Continuous
 62
     8
370
    18
100
AcDbCircle
 10
222.6257245188
 20
245.0262635064
 30
0.0
 40
17.20000000000005
100
AcDbArc
 50
290.2033829341
 51
249.7966170659
  0
LINE
  5
11E
330
1F
100
AcDbEntity
  8
0
  6
Continuous
 62
     8
370
    18
100
AcDbLine
 10
216.409359536
 20
228.1337561022
 30
0.0
 11
216.6856424241
 21
228.884534209
 31
0.0
  0
SPLINE
  5
11F
330
1F
100
AcDbEntity
  8
0
  6
Continuous
 62
     8
370
    18
100
AcDbSpline
210
0.0
220
0.0
230
1.0
 70
     8
 71
     3
 72
    22
 73
    18
 74
     0
 42
0.00000001
 43
0.00000001
 40
0.0
 40
0.0
 40
0.0
 40
0.0
 40
0.125
 40
0.125
 40
0.25
 40
0.25
 40
0.375
 40
0.375
 40
0.5
 40
0.5
 40
0.625
 40
0.625
 40
0.75
 40
0.75
 40
0.875
 40
0.875
 40
1.0
 40
1.0
 40
1.0
 40
1.0
 10
218.9257245188287
 20
225.6732498035293
 30
0.0
 10
218.9257245188287
 20
225.8501971756756
 30
0.0
 10
218.9245957985815
 20
226.0270989819694
 30
0.0
 10
218.9006895163003
 20
226.3800286420116
 30
0.0
 10
218.878623794146
 20
226.5560852323676
 30
0.0
 10
218.8044464673924
 20
226.9069854763464
 30
0.0
 10
218.7526203166846
 20
227.0794643075621
 30
0.0
 10
218.6160965682216
 20
227.4083660865231
 30
0.0
 10
218.5298341532798
 20
227.5677596750762
 30
0.0
 10
218.3246921650767
 20
227.8613954194697
 30
0.0
 10
218.2070477569183
 20
227.9947480851325
 30
0.0
 10
217.944749204825
 20
228.2373253941475
 30
0.0
 10
217.799795800042
 20
228.346318085348
 30
0.0
 10
217.4998260596655
 20
228.5356186870501
 30
0.0
 10
217.3431687918031
 20
228.6173584937355
 30
0.0
 10
217.0199684630668
 20
228.7617099796739
 30
0.0
 10
216.8527606709604
 20
228.8230354633014
 30
0.0
 10
216.6856424241225
 20
228.884534209034
 30
0.0
  0
SPLINE
  5
120
330
1F
100
AcDbEntity
  8
0
  6
Continuous
 62
     8
370
    18
100
AcDbSpline
210
0.0
220
0.0
230
1.0
 70
     8
 71
     3
 72
    22
 73
    18
 74
     0
 42
0.00000001
 43
0.00000001
 40
0.0
 40
0.0
 40
0.0
 40
0.0
 40
0.125
 40
0.125
 40
0.25
 40
0.25
 40
0.375
 40
0.375
 40
0.5
 40
0.5
 40
0.625
 40
0.625
 40
0.75
 40
0.75
 40
0.875
 40
0.875
 40
1.0
 40
1.0
 40
1.0
 40
1.0
 10
228.5658066135348
 20
228.884534209034
 30
0.0
 10
228.3998301493763
 20
228.8234556340728
 30
0.0
 10
228.2337572055164
 20
228.7626099628538
 30
0.0
 10
227.9108482367637
 20
228.6186205311237
 30
0.0
 10
227.7534753819317
 20
228.536772687786
 30
0.0
 10
227.4501906265902
 20
228.3454100502832
 30
0.0
 10
227.3063476978162
 20
228.2369935650377
 30
0.0
 10
227.044852637428
 20
227.9951716734696
 30
0.0
 10
226.9249906956371
 20
227.8592279128743
 30
0.0
 10
226.7201831488548
 20
227.565344090446
 30
0.0
 10
226.6355884386703
 20
227.4089289108468
 30
0.0
 10
226.4986172626757
 20
227.0789605319606
 30
0.0
 10
226.4466233100275
 20
226.9051703274125
 30
0.0
 10
226.3732374973462
 20
226.5580564500154
 30
0.0
 10
226.3510345939711
 20
226.3826852757045
 30
0.0
 10
226.3269155040082
 20
226.0294029079988
 30
0.0
 10
226.3257245188287
 20
225.8514009150216
 30
0.0
 10
226.3257245188287
 20
225.6732498035293
 30
0.0
  0
LINE
  5
121
330
1F
100
AcDbEntity
  8
0
  6
Continuous
 62
     8
370
    18
100
AcDbLine
 10
226.3257245188
 20
155.8262635064
 30
0.0
 11
226.3257245188
 21
225.6732498035
 31
0.0
  0
LINE
  5
122
330
1F
100
AcDbEntity
  8
0
  6
Continuous
 62
     8
370
    18
100
AcDbLine
 10
218.9257245188
 20
155.8262635064
 30
0.0
 11
226.3257245188
 21
155.8262635064
 31
0.0
  0
LINE
  5
123
330
1F
100
AcDbEntity
  8
0
  6
Continuous
 62
     8
370
    18
100
AcDbLine
 10
218.9257245188
 20
225.6732498035
 30
0.0
 11
218.9257245188
 21
155.8262635064
 31
0.0
  0
LINE
  5
124
330
1F
100
AcDbEntity
  8
0
  6
Continuous
 62
     8
370
    18
100
AcDbLine
 10
218.1257245188
 20
225.6732498035
 30
0.0
 11
218.9257245188
 21
225.6732498035
 31
0.0
  0
LINE
  5
125
330
1F
100
AcDbEntity
  8
0
  6
Continuous
 62
     8
370
    18
100
AcDbLine
 10
227.1257245188
 20
225.6732498035
 30
0.0
 11
226.3257245188
 21
225.6732498035
 31
0.0
  0
LINE
  5
126
330
1F
100
AcDbEntity
  8
0
  6
Continuous
 62
     8
370
    18
100
AcDbLine
 10
226.3257245188
 20
155.8262635064
 30
0.0
 11
227.1257245188
 21
155.8262635064
 31
0.0
  0
LINE
  5
127
330
1F
100
AcDbEntity
  8
0
  6
Continuous
 62
     8
370
    18
100
AcDbLine
 10
218.1257245188
 20
155.8262635064
 30
0.0
 11
218.9257245188
 21
155.8262635064
 31
0.0
  0
LINE
  5
128
330
1F
100
AcDbEntity
  8
0
  6
Continuous
 62
     8
370
    18
100
AcDbLine
 10
226.3257245188
 20
155.0262635064
 30
0.0
 11
226.3257245188
 21
155.8262635064
 31
0.0
  0
LINE
  5
129
330
1F
100
AcDbEntity
  8
0
  6
Continuous
 62
     8
370
    18
100
AcDbLine
 10
218.9257245188
 20
155.0262635064
 30
0.0
 11
218.9257245188
 21
155.8262635064
 31
0.0
  0
ARC
  5
12A
330
1F
100
AcDbEntity
  8
0
  6
Continuous
 62
     8
370
    18
100
AcDbCircle
 10
222.6257245188
 20
245.0262635064
 30
0.0
 40
24.19999999999999
100
AcDbArc
 50
76.2406578816
 51
244.2856787749
  0
ARC
  5
12B
330
1F
100
AcDbEntity
  8
0
  6
Continuous
 62
     8
370
    18
100
AcDbCircle
 10
222.6257245188
 20
245.0262635064
 30
0.0
 40
24.2
100
AcDbArc
 50
295.7143212251
 51
76.2406578816
  0
ENDSEC
  0
SECTION
  2
OBJECTS
  0
DICTIONARY
  5
C
330
0
100
AcDbDictionary
281
     1
  3
ACAD_GROUP
350
D
  3
ACAD_LAYOUT
350
1A
  3
ACAD_MLINESTYLE
350
17
  3
ACAD_PLOTSETTINGS
350
19
  3
ACAD_PLOTSTYLENAME
350
E
  3
ACAD_SCALELIST
350
47
  3
DWGPROPS
350
12C
  0
DICTIONARY
  5
D
102
{ACAD_REACTORS
330
C
102
}
330
C
100
AcDbDictionary
281
     1
  0
DICTIONARY
  5
1A
102
{ACAD_REACTORS
330
C
102
}
330
C
100
AcDbDictionary
281
     1
  3
Layout1
350
1E
  3
Layout2
350
26
  3
Model
350
22
  0
DICTIONARY
  5
17
102
{ACAD_REACTORS
330
C
102
}
330
C
100
AcDbDictionary
281
     1
  3
Standard
350
18
  0
DICTIONARY
  5
19
102
{ACAD_REACTORS
330
C
102
}
330
C
100
AcDbDictionary
281
     1
  0
ACDBDICTIONARYWDFLT
  5
E
102
{ACAD_REACTORS
330
C
102
}
330
C
100
AcDbDictionary
281
     1
  3
Normal
350
F
100
AcDbDictionaryWithDefault
340
F
  0
DICTIONARY
  5
47
102
{ACAD_REACTORS
330
C
102
}
330
C
100
AcDbDictionary
281
     1
  3
A0
350
48
  3
A1
350
49
  3
A2
350
4A
  3
A3
350
4B
  3
A4
350
4C
  3
A5
350
4D
  3
A6
350
4E
  3
A7
350
4F
  3
A8
350
50
  3
A9
350
51
  3
B0
350
52
  3
B1
350
53
  3
B2
350
54
  3
B3
350
55
  3
B4
350
56
  3
B5
350
57
  3
B6
350
58
  3
B7
350
59
  3
B8
350
5A
  3
B9
350
5B
  3
C0
350
5C
  3
C1
350
5D
  3
C2
350
5E
  3
C3
350
5F
  3
C4
350
60
  3
C5
350
61
  3
C6
350
62
  3
C7
350
63
  3
C8
350
64
  3
C9
350
65
  3
D0
350
66
  3
D1
350
67
  3
D2
350
68
  0
XRECORD
  5
12C
102
{ACAD_REACTORS
330
C
102
}
330
C
100
AcDbXrecord
280
     1
  1
DWGPROPS COOKIE
  2

  3

  4

  6

  7

  8
mkramer
  9

300
=
301
=
302
=
303
=
304
=
305
=
306
=
307
=
308
=
309
=
 40
0.0
 41
2459571.319453426
 42
2459571.319454155
  1

 90
        0
  0
LAYOUT
  5
1E
102
{ACAD_REACTORS
330
1A
102
}
330
1A
100
AcDbPlotSettings
  1

  2
none_device
  4

  6

 40
0.0
 41
0.0
 42
0.0
 43
0.0
 44
0.0
 45
0.0
 46
0.0
 47
0.0
 48
0.0
 49
0.0
140
0.0
141
0.0
142
1.0
143
1.0
 70
   688
 72
     1
 73
     0
 74
     5
  7

 75
    16
147
1.0
148
0.0
149
0.0
100
AcDbLayout
  1
Layout1
 70
     1
 71
     1
 10
0.0
 20
0.0
 11
420.0
 21
297.0
 12
0.0
 22
0.0
 32
0.0
 14
1.0000000000E+20
 24
1.0000000000E+20
 34
1.0000000000E+20
 15
-1.0000000000E+20
 25
-1.0000000000E+20
 35
-1.0000000000E+20
146
0.0
 13
0.0
 23
0.0
 33
0.0
 16
1.0
 26
0.0
 36
0.0
 17
0.0
 27
1.0
 37
0.0
 76
     0
330
1B
  0
LAYOUT
  5
26
102
{ACAD_REACTORS
330
1A
102
}
330
1A
100
AcDbPlotSettings
  1

  2
none_device
  4

  6

 40
0.0
 41
0.0
 42
0.0
 43
0.0
 44
0.0
 45
0.0
 46
0.0
 47
0.0
 48
0.0
 49
0.0
140
0.0
141
0.0
142
1.0
143
1.0
 70
   688
 72
     1
 73
     0
 74
     5
  7

 75
    16
147
1.0
148
0.0
149
0.0
100
AcDbLayout
  1
Layout2
 70
     1
 71
     2
 10
0.0
 20
0.0
 11
0.0
 21
0.0
 12
0.0
 22
0.0
 32
0.0
 14
0.0
 24
0.0
 34
0.0
 15
0.0
 25
0.0
 35
0.0
146
0.0
 13
0.0
 23
0.0
 33
0.0
 16
1.0
 26
0.0
 36
0.0
 17
0.0
 27
1.0
 37
0.0
 76
     0
330
23
  0
LAYOUT
  5
22
102
{ACAD_REACTORS
330
1A
102
}
330
1A
100
AcDbPlotSettings
  1

  2
none_device
  4
Letter_(8.50_x_11.00_Inches)
  6

 40
6.35
 41
6.35
 42
6.35000508
 43
6.35000508
 44
215.9
 45
279.4
 46
0.0
 47
0.0
 48
0.0
 49
0.0
140
0.0
141
0.0
142
1.0
143
1.0
 70
  1712
 72
     1
 73
     0
 74
     0
  7

 75
     0
147
1.0
148
0.0
149
0.0
100
AcDbLayout
  1
Model
 70
     1
 71
     0
 10
0.0
 20
0.0
 11
841.0
 21
1189.0
 12
0.0
 22
0.0
 32
0.0
 14
0.0
 24
0.0
 34
0.0
 15
841.0
 25
1189.0
 35
0.0
146
0.0
 13
0.0
 23
0.0
 33
0.0
 16
1.0
 26
0.0
 36
0.0
 17
0.0
 27
1.0
 37
0.0
 76
     0
330
1F
331
29
  0
MLINESTYLE
  5
18
102
{ACAD_REACTORS
330
17
102
}
330
17
100
AcDbMlineStyle
  2
Standard
 70
     0
  3

 62
   256
 51
90.0
 52
90.0
 71
     2
 49
0.5
 62
   256
  6
BYLAYER
 49
-0.5
 62
   256
  6
BYLAYER
  0
ACDBPLACEHOLDER
  5
F
102
{ACAD_REACTORS
330
E
102
}
330
E
  0
SCALE
  5
48
102
{ACAD_REACTORS
330
47
102
}
330
47
100
AcDbScale
 70
     0
300
1:1
140
1.0
141
1.0
290
     1
  0
SCALE
  5
49
102
{ACAD_REACTORS
330
47
102
}
330
47
100
AcDbScale
 70
     0
300
1:2
140
1.0
141
2.0
290
     0
  0
SCALE
  5
4A
102
{ACAD_REACTORS
330
47
102
}
330
47
100
AcDbScale
 70
     0
300
1:4
140
1.0
141
4.0
290
     0
  0
SCALE
  5
4B
102
{ACAD_REACTORS
330
47
102
}
330
47
100
AcDbScale
 70
     0
300
1:5
140
1.0
141
5.0
290
     0
  0
SCALE
  5
4C
102
{ACAD_REACTORS
330
47
102
}
330
47
100
AcDbScale
 70
     0
300
1:8
140
1.0
141
8.0
290
     0
  0
SCALE
  5
4D
102
{ACAD_REACTORS
330
47
102
}
330
47
100
AcDbScale
 70
     0
300
1:10
140
1.0
141
10.0
290
     0
  0
SCALE
  5
4E
102
{ACAD_REACTORS
330
47
102
}
330
47
100
AcDbScale
 70
     0
300
1:16
140
1.0
141
16.0
290
     0
  0
SCALE
  5
4F
102
{ACAD_REACTORS
330
47
102
}
330
47
100
AcDbScale
 70
     0
300
1:20
140
1.0
141
20.0
290
     0
  0
SCALE
  5
50
102
{ACAD_REACTORS
330
47
102
}
330
47
100
AcDbScale
 70
     0
300
1:30
140
1.0
141
30.0
290
     0
  0
SCALE
  5
51
102
{ACAD_REACTORS
330
47
102
}
330
47
100
AcDbScale
 70
     0
300
1:40
140
1.0
141
40.0
290
     0
  0
SCALE
  5
52
102
{ACAD_REACTORS
330
47
102
}
330
47
100
AcDbScale
 70
     0
300
1:50
140
1.0
141
50.0
290
     0
  0
SCALE
  5
53
102
{ACAD_REACTORS
330
47
102
}
330
47
100
AcDbScale
 70
     0
300
1:100
140
1.0
141
100.0
290
     0
  0
SCALE
  5
54
102
{ACAD_REACTORS
330
47
102
}
330
47
100
AcDbScale
 70
     0
300
2:1
140
2.0
141
1.0
290
     0
  0
SCALE
  5
55
102
{ACAD_REACTORS
330
47
102
}
330
47
100
AcDbScale
 70
     0
300
4:1
140
4.0
141
1.0
290
     0
  0
SCALE
  5
56
102
{ACAD_REACTORS
330
47
102
}
330
47
100
AcDbScale
 70
     0
300
8:1
140
8.0
141
1.0
290
     0
  0
SCALE
  5
57
102
{ACAD_REACTORS
330
47
102
}
330
47
100
AcDbScale
 70
     0
300
10:1
140
10.0
141
1.0
290
     0
  0
SCALE
  5
58
102
{ACAD_REACTORS
330
47
102
}
330
47
100
AcDbScale
 70
     0
300
100:1
140
100.0
141
1.0
290
     0
  0
SCALE
  5
59
102
{ACAD_REACTORS
330
47
102
}
330
47
100
AcDbScale
 70
     0
300
1/128" = 1'-0"
140
0.0078125
141
12.0
290
     0
  0
SCALE
  5
5A
102
{ACAD_REACTORS
330
47
102
}
330
47
100
AcDbScale
 70
     0
300
1/64" = 1'-0"
140
0.015625
141
12.0
290
     0
  0
SCALE
  5
5B
102
{ACAD_REACTORS
330
47
102
}
330
47
100
AcDbScale
 70
     0
300
1/32" = 1'-0"
140
0.03125
141
12.0
290
     0
  0
SCALE
  5
5C
102
{ACAD_REACTORS
330
47
102
}
330
47
100
AcDbScale
 70
     0
300
1/16" = 1'-0"
140
0.0625
141
12.0
290
     0
  0
SCALE
  5
5D
102
{ACAD_REACTORS
330
47
102
}
330
47
100
AcDbScale
 70
     0
300
3/32" = 1'-0"
140
0.09375
141
12.0
290
     0
  0
SCALE
  5
5E
102
{ACAD_REACTORS
330
47
102
}
330
47
100
AcDbScale
 70
     0
300
1/8" = 1'-0"
140
0.125
141
12.0
290
     0
  0
SCALE
  5
5F
102
{ACAD_REACTORS
330
47
102
}
330
47
100
AcDbScale
 70
     0
300
3/16" = 1'-0"
140
0.1875
141
12.0
290
     0
  0
SCALE
  5
60
102
{ACAD_REACTORS
330
47
102
}
330
47
100
AcDbScale
 70
     0
300
1/4" = 1'-0"
140
0.25
141
12.0
290
     0
  0
SCALE
  5
61
102
{ACAD_REACTORS
330
47
102
}
330
47
100
AcDbScale
 70
     0
300
3/8" = 1'-0"
140
0.375
141
12.0
290
     0
  0
SCALE
  5
62
102
{ACAD_REACTORS
330
47
102
}
330
47
100
AcDbScale
 70
     0
300
1/2" = 1'-0"
140
0.5
141
12.0
290
     0
  0
SCALE
  5
63
102
{ACAD_REACTORS
330
47
102
}
330
47
100
AcDbScale
 70
     0
300
3/4" = 1'-0"
140
0.75
141
12.0
290
     0
  0
SCALE
  5
64
102
{ACAD_REACTORS
330
47
102
}
330
47
100
AcDbScale
 70
     0
300
1" = 1'-0"
140
1.0
141
12.0
290
     0
  0
SCALE
  5
65
102
{ACAD_REACTORS
330
47
102
}
330
47
100
AcDbScale
 70
     0
300
1-1/2" = 1'-0"
140
1.5
141
12.0
290
     0
  0
SCALE
  5
66
102
{ACAD_REACTORS
330
47
102
}
330
47
100
AcDbScale
 70
     0
300
3" = 1'-0"
140
3.0
141
12.0
290
     0
  0
SCALE
  5
67
102
{ACAD_REACTORS
330
47
102
}
330
47
100
AcDbScale
 70
     0
300
6" = 1'-0"
140
6.0
141
12.0
290
     0
  0
SCALE
  5
68
102
{ACAD_REACTORS
330
47
102
}
330
47
100
AcDbScale
 70
     0
300
1'-0" = 1'-0"
140
12.0
141
12.0
290
     0
  0
ENDSEC
  0
EOF
