  0
SECTION
  2
HEADER
  9
$ACADVER
  1
AC1015
  9
$ACADMAINTVER
 70
     6
  9
$DWGCODEPAGE
  3
ANSI_1252
  9
$INSBASE
 10
0.0
 20
0.0
 30
0.0
  9
$EXTMIN
 10
0.0
 20
0.0
 30
0.0
  9
$EXTMAX
 10
594.0
 20
841.0
 30
0.0
  9
$LIMMIN
 10
0.0
 20
0.0
  9
$LIMMAX
 10
594.0
 20
841.0
  9
$ORTHOMODE
 70
     0
  9
$REGENMODE
 70
     1
  9
$FILLMODE
 70
     1
  9
$QTEXTMODE
 70
     0
  9
$MIRRTEXT
 70
     1
  9
$LTSCALE
 40
1.0
  9
$ATTMODE
 70
     1
  9
$TEXTSIZE
 40
10.0
  9
$TRACEWID
 40
1.0
  9
$TEXTSTYLE
  7
Standard
  9
$CLAYER
  8
0
  9
$CELTYPE
  6
ByLayer
  9
$CECOLOR
 62
   256
  9
$CELTSCALE
 40
1.0
  9
$DISPSILH
 70
     0
  9
$DIMSCALE
 40
1.0
  9
$DIMASZ
 40
2.5
  9
$DIMEXO
 40
0.0
  9
$DIMDLI
 40
3.75
  9
$DIMRND
 40
0.0
  9
$DIMDLE
 40
0.0
  9
$DIMEXE
 40
1.0
  9
$DIMTP
 40
0.0
  9
$DIMTM
 40
0.0
  9
$DIMTXT
 40
3.5
  9
$DIMCEN
 40
2.5
  9
$DIMTSZ
 40
0.0
  9
$DIMTOL
 70
     0
  9
$DIMLIM
 70
     0
  9
$DIMTIH
 70
     1
  9
$DIMTOH
 70
     1
  9
$DIMSE1
 70
     0
  9
$DIMSE2
 70
     0
  9
$DIMTAD
 70
     1
  9
$DIMZIN
 70
     0
  9
$DIMBLK
  1

  9
$DIMASO
 70
     1
  9
$DIMSHO
 70
     1
  9
$DIMPOST
  1

  9
$DIMAPOST
  1

  9
$DIMALT
 70
     0
  9
$DIMALTD
 70
     3
  9
$DIMALTF
 40
0.0393700787
  9
$DIMLFAC
 40
1.0
  9
$DIMTOFL
 70
     1
  9
$DIMTVP
 40
0.0
  9
$DIMTIX
 70
     0
  9
$DIMSOXD
 70
     0
  9
$DIMSAH
 70
     0
  9
$DIMBLK1
  1

  9
$DIMBLK2
  1

  9
$DIMSTYLE
  2
ISO-25
  9
$DIMCLRD
 70
     0
  9
$DIMCLRE
 70
     0
  9
$DIMCLRT
 70
     0
  9
$DIMTFAC
 40
1.0
  9
$DIMGAP
 40
1.5
  9
$DIMJUST
 70
     0
  9
$DIMSD1
 70
     0
  9
$DIMSD2
 70
     0
  9
$DIMTOLJ
 70
     0
  9
$DIMTZIN
 70
     0
  9
$DIMALTZ
 70
     0
  9
$DIMALTTZ
 70
     0
  9
$DIMUPT
 70
     0
  9
$DIMDEC
 70
     2
  9
$DIMTDEC
 70
     2
  9
$DIMALTU
 70
     2
  9
$DIMALTTD
 70
     3
  9
$DIMTXSTY
  7
Standard
  9
$DIMAUNIT
 70
     0
  9
$DIMADEC
 70
     2
  9
$DIMALTRND
 40
0.0
  9
$DIMAZIN
 70
     0
  9
$DIMDSEP
 70
    44
  9
$DIMATFIT
 70
     3
  9
$DIMFRAC
 70
     0
  9
$DIMLDRBLK
  1

  9
$DIMLUNIT
 70
     2
  9
$DIMLWD
 70
    -2
  9
$DIMLWE
 70
    -2
  9
$DIMTMOVE
 70
     0
  9
$LUNITS
 70
     2
  9
$LUPREC
 70
     2
  9
$SKETCHINC
 40
1.0
  9
$FILLETRAD
 40
10.0
  9
$AUNITS
 70
     0
  9
$AUPREC
 70
     2
  9
$MENU
  1
.
  9
$ELEVATION
 40
0.0
  9
$PELEVATION
 40
0.0
  9
$THICKNESS
 40
0.0
  9
$LIMCHECK
 70
     0
  9
$CHAMFERA
 40
0.0
  9
$CHAMFERB
 40
0.0
  9
$CHAMFERC
 40
0.0
  9
$CHAMFERD
 40
0.0
  9
$SKPOLY
 70
     0
  9
$TDCREATE
 40
2459993.47774375
  9
$TDUCREATE
 40
2459993.436077083
  9
$TDUPDATE
 40
2459993.477745521
  9
$TDUUPDATE
 40
2459993.436078854
  9
$TDINDWG
 40
0.0000000116
  9
$TDUSRTIMER
 40
0.0000000116
  9
$USRTIMER
 70
     1
  9
$ANGBASE
 50
0.0
  9
$ANGDIR
 70
     0
  9
$PDMODE
 70
     0
  9
$PDSIZE
 40
-1.0
  9
$PLINEWID
 40
0.0
  9
$SPLFRAME
 70
     0
  9
$SPLINETYPE
 70
     6
  9
$SPLINESEGS
 70
     8
  9
$HANDSEED
  5
136
  9
$SURFTAB1
 70
     6
  9
$SURFTAB2
 70
     6
  9
$SURFTYPE
 70
     6
  9
$SURFU
 70
     6
  9
$SURFV
 70
     6
  9
$UCSBASE
  2

  9
$UCSNAME
  2

  9
$UCSORG
 10
0.0
 20
0.0
 30
0.0
  9
$UCSXDIR
 10
1.0
 20
0.0
 30
0.0
  9
$UCSYDIR
 10
0.0
 20
1.0
 30
0.0
  9
$UCSORTHOREF
  2

  9
$UCSORTHOVIEW
 70
     0
  9
$UCSORGTOP
 10
0.0
 20
0.0
 30
0.0
  9
$UCSORGBOTTOM
 10
0.0
 20
0.0
 30
0.0
  9
$UCSORGLEFT
 10
0.0
 20
0.0
 30
0.0
  9
$UCSORGRIGHT
 10
0.0
 20
0.0
 30
0.0
  9
$UCSORGFRONT
 10
0.0
 20
0.0
 30
0.0
  9
$UCSORGBACK
 10
0.0
 20
0.0
 30
0.0
  9
$PUCSBASE
  2

  9
$PUCSNAME
  2

  9
$PUCSORG
 10
0.0
 20
0.0
 30
0.0
  9
$PUCSXDIR
 10
1.0
 20
0.0
 30
0.0
  9
$PUCSYDIR
 10
0.0
 20
1.0
 30
0.0
  9
$PUCSORTHOREF
  2

  9
$PUCSORTHOVIEW
 70
     0
  9
$PUCSORGTOP
 10
0.0
 20
0.0
 30
0.0
  9
$PUCSORGBOTTOM
 10
0.0
 20
0.0
 30
0.0
  9
$PUCSORGLEFT
 10
0.0
 20
0.0
 30
0.0
  9
$PUCSORGRIGHT
 10
0.0
 20
0.0
 30
0.0
  9
$PUCSORGFRONT
 10
0.0
 20
0.0
 30
0.0
  9
$PUCSORGBACK
 10
0.0
 20
0.0
 30
0.0
  9
$USERI1
 70
     0
  9
$USERI2
 70
     0
  9
$USERI3
 70
     0
  9
$USERI4
 70
     0
  9
$USERI5
 70
     0
  9
$USERR1
 40
0.0
  9
$USERR2
 40
0.0
  9
$USERR3
 40
0.0
  9
$USERR4
 40
0.0
  9
$USERR5
 40
0.0
  9
$WORLDVIEW
 70
     1
  9
$SHADEDGE
 70
     3
  9
$SHADEDIF
 70
    70
  9
$TILEMODE
 70
     1
  9
$MAXACTVP
 70
    64
  9
$PINSBASE
 10
0.0
 20
0.0
 30
0.0
  9
$PLIMCHECK
 70
     0
  9
$PEXTMIN
 10
1.0000000000E+20
 20
1.0000000000E+20
 30
1.0000000000E+20
  9
$PEXTMAX
 10
-1.0000000000E+20
 20
-1.0000000000E+20
 30
-1.0000000000E+20
  9
$PLIMMIN
 10
0.0
 20
0.0
  9
$PLIMMAX
 10
420.0
 20
297.0
  9
$UNITMODE
 70
     0
  9
$VISRETAIN
 70
     1
  9
$PLINEGEN
 70
     0
  9
$PSLTSCALE
 70
     1
  9
$TREEDEPTH
 70
  3020
  9
$CMLSTYLE
  2
Standard
  9
$CMLJUST
 70
     0
  9
$CMLSCALE
 40
20.0
  9
$PROXYGRAPHICS
 70
     1
  9
$MEASUREMENT
 70
     1
  9
$CELWEIGHT
370
    -1
  9
$ENDCAPS
280
     0
  9
$JOINSTYLE
280
     0
  9
$LWDISPLAY
290
     1
  9
$INSUNITS
 70
     4
  9
$HYPERLINKBASE
  1

  9
$STYLESHEET
  1

  9
$XEDIT
290
     1
  9
$CEPSNTYPE
380
     0
  9
$PSTYLEMODE
290
     1
  9
$FINGERPRINTGUID
  2
{0d817639-ac7f-4dda-9397-020a55db5dac}
  9
$VERSIONGUID
  2
{FAEB1C32-E019-11D5-929B-00C0DF256EC4}
  9
$EXTNAMES
290
     1
  9
$PSVPSCALE
 40
0.0
  9
$OLESTARTUP
290
     0
  0
ENDSEC
  0
SECTION
  2
CLASSES
  0
CLASS
  1
ACDBDICTIONARYWDFLT
  2
AcDbDictionaryWithDefault
  3
ObjectDBX Classes
 90
        0
280
     0
281
     0
  0
CLASS
  1
VISUALSTYLE
  2
AcDbVisualStyle
  3
ObjectDBX Classes
 90
     4095
280
     0
281
     0
  0
CLASS
  1
MATERIAL
  2
AcDbMaterial
  3
ObjectDBX Classes
 90
     1153
280
     0
281
     0
  0
CLASS
  1
SCALE
  2
AcDbScale
  3
ObjectDBX Classes
 90
     1153
280
     0
281
     0
  0
CLASS
  1
TABLESTYLE
  2
AcDbTableStyle
  3
ObjectDBX Classes
 90
     4095
280
     0
281
     0
  0
CLASS
  1
MLEADERSTYLE
  2
AcDbMLeaderStyle
  3
ACDB_MLEADERSTYLE_CLASS
 90
     4095
280
     0
281
     0
  0
CLASS
  1
SUN
  2
AcDbSun
  3
SCENEOE
 90
     1153
280
     0
281
     0
  0
CLASS
  1
ACDBPLACEHOLDER
  2
AcDbPlaceHolder
  3
ObjectDBX Classes
 90
        0
280
     0
281
     0
  0
CLASS
  1
LAYOUT
  2
AcDbLayout
  3
ObjectDBX Classes
 90
        0
280
     0
281
     0
  0
ENDSEC
  0
SECTION
  2
TABLES
  0
TABLE
  2
VPORT
  5
8
330
0
100
AcDbSymbolTable
 70
     1
  0
VPORT
  5
29
330
8
100
AcDbSymbolTableRecord
100
AcDbViewportTableRecord
  2
*Active
 70
     0
 10
0.0
 20
0.0
 11
1.0
 21
1.0
 12
297.0
 22
420.5
 13
0.0
 23
0.0
 14
10.0
 24
10.0
 15
10.0
 25
10.0
 16
0.0
 26
0.0
 36
1.0
 17
0.0
 27
0.0
 37
0.0
 40
841.0
 41
0.7063020214
 42
50.0
 43
0.0
 44
0.0
 50
0.0
 51
0.0
 71
     0
 72
  2000
 73
     1
 74
     3
 75
     0
 76
     0
 77
     0
 78
     0
281
     0
 65
     1
110
0.0
120
0.0
130
0.0
111
1.0
121
0.0
131
0.0
112
0.0
122
1.0
132
0.0
 79
     0
146
0.0
  0
ENDTAB
  0
TABLE
  2
LTYPE
  5
5
330
0
100
AcDbSymbolTable
 70
     6
  0
LTYPE
  5
14
330
5
100
AcDbSymbolTableRecord
100
AcDbLinetypeTableRecord
  2
ByBlock
 70
     0
  3

 72
    65
 73
     0
 40
0.0
  0
LTYPE
  5
15
330
5
100
AcDbSymbolTableRecord
100
AcDbLinetypeTableRecord
  2
ByLayer
 70
     0
  3

 72
    65
 73
     0
 40
0.0
  0
LTYPE
  5
16
330
5
100
AcDbSymbolTableRecord
100
AcDbLinetypeTableRecord
  2
Continuous
 70
     0
  3
Solid line
 72
    65
 73
     0
 40
0.0
  0
LTYPE
  5
6E
330
5
100
AcDbSymbolTableRecord
100
AcDbLinetypeTableRecord
  2
HIDDEN
 70
     0
  3
Hidden __ __ __ __ __ __ __ __ __ __ __ __ __ __
 72
    65
 73
     2
 40
1.905
 49
1.27
 74
     0
 49
-0.635
 74
     0
  0
LTYPE
  5
6F
330
5
100
AcDbSymbolTableRecord
100
AcDbLinetypeTableRecord
  2
PHANTOM
 70
     0
  3
Phantom ______  __  __  ______  __  __  ______
 72
    65
 73
     6
 40
12.7
 49
6.35
 74
     0
 49
-1.27
 74
     0
 49
1.27
 74
     0
 49
-1.27
 74
     0
 49
1.27
 74
     0
 49
-1.27
 74
     0
  0
LTYPE
  5
70
330
5
100
AcDbSymbolTableRecord
100
AcDbLinetypeTableRecord
  2
CENTER
 70
     0
  3
Center ____ _ ____ _ ____ _ ____ _ ____ _ ____
 72
    65
 73
     4
 40
10.16
 49
6.35
 74
     0
 49
-1.27
 74
     0
 49
1.27
 74
     0
 49
-1.27
 74
     0
  0
LTYPE
  5
71
330
5
100
AcDbSymbolTableRecord
100
AcDbLinetypeTableRecord
  2
CENTERX2
 70
     0
  3
Center (2x) ________  __  ________  __  _____
 72
    65
 73
     4
 40
20.32
 49
12.7
 74
     0
 49
-2.54
 74
     0
 49
2.54
 74
     0
 49
-2.54
 74
     0
  0
LTYPE
  5
72
330
5
100
AcDbSymbolTableRecord
100
AcDbLinetypeTableRecord
  2
DOT2
 70
     0
  3
Dot (.5x) ........................................
 72
    65
 73
     2
 40
0.635
 49
0.0
 74
     0
 49
-0.635
 74
     0
  0
ENDTAB
  0
TABLE
  2
LAYER
  5
2
330
0
100
AcDbSymbolTable
 70
     1
  0
LAYER
  5
10
330
2
100
AcDbSymbolTableRecord
100
AcDbLayerTableRecord
  2
0
 70
     0
 62
     7
  6
Continuous
370
    -3
390
F
  0
ENDTAB
  0
TABLE
  2
STYLE
  5
3
330
0
100
AcDbSymbolTable
 70
     3
  0
STYLE
  5
11
330
3
100
AcDbSymbolTableRecord
100
AcDbTextStyleTableRecord
  2
Standard
 70
     0
 40
0.0
 41
1.0
 50
0.0
 71
     0
 42
10.0
  3
txt
  4

  0
STYLE
  5
76
330
3
100
AcDbSymbolTableRecord
100
AcDbTextStyleTableRecord
  2
SLDTEXTSTYLE0
 70
     0
 40
0.0
 41
0.96
 50
0.0
 71
     0
 42
10.0
  3
ISOCP3
  4

  0
STYLE
  5
8D
330
3
100
AcDbSymbolTableRecord
100
AcDbTextStyleTableRecord
  2
SLDTEXTSTYLE1
 70
     0
 40
0.0
 41
0.605
 50
0.0
 71
     0
 42
10.0
  3
TXT
  4

  0
ENDTAB
  0
TABLE
  2
VIEW
  5
6
330
0
100
AcDbSymbolTable
 70
     0
  0
ENDTAB
  0
TABLE
  2
UCS
  5
7
330
0
100
AcDbSymbolTable
 70
     0
  0
ENDTAB
  0
TABLE
  2
APPID
  5
9
330
0
100
AcDbSymbolTable
 70
     1
  0
APPID
  5
12
330
9
100
AcDbSymbolTableRecord
100
AcDbRegAppTableRecord
  2
ACAD
 70
     0
  0
ENDTAB
  0
TABLE
  2
DIMSTYLE
  5
A
330
0
100
AcDbSymbolTable
 70
     2
100
AcDbDimStyleTable
  0
DIMSTYLE
105
27
330
A
100
AcDbSymbolTableRecord
100
AcDbDimStyleTableRecord
  2
ISO-25
 70
     0
 41
2.5
 42
0.625
 43
3.75
 44
1.25
 73
     0
 74
     0
 77
     1
 78
     8
140
2.5
141
2.5
143
0.0393700787
147
0.625
171
     3
172
     1
178
     0
271
     2
272
     2
274
     3
278
    44
283
     0
284
     8
340
11
  0
DIMSTYLE
105
77
102
{ACAD_REACTORS
330
75
330
82
102
}
330
A
100
AcDbSymbolTableRecord
100
AcDbDimStyleTableRecord
  2
SLDDIMSTYLE0
 70
     0
 41
2.5
 44
0.0
 45
0.000000001
 73
     0
 74
     0
 77
     1
 78
    12
 79
     3
140
6.0
147
1.5
173
     1
178
     0
271
     2
272
     2
276
     2
284
    12
340
76
  0
ENDTAB
  0
TABLE
  2
BLOCK_RECORD
  5
1
330
0
100
AcDbSymbolTable
 70
     3
  0
BLOCK_RECORD
  5
1F
330
1
100
AcDbSymbolTableRecord
100
AcDbBlockTableRecord
  2
*Model_Space
340
22
  0
BLOCK_RECORD
  5
1B
330
1
100
AcDbSymbolTableRecord
100
AcDbBlockTableRecord
  2
*Paper_Space
340
1E
  0
BLOCK_RECORD
  5
23
330
1
100
AcDbSymbolTableRecord
100
AcDbBlockTableRecord
  2
*Paper_Space0
340
26
  0
BLOCK_RECORD
  5
78
330
1
100
AcDbSymbolTableRecord
100
AcDbBlockTableRecord
  2
_D
340
0
  0
BLOCK_RECORD
  5
83
330
1
100
AcDbSymbolTableRecord
100
AcDbBlockTableRecord
  2
_D_1
340
0
  0
ENDTAB
  0
ENDSEC
  0
SECTION
  2
BLOCKS
  0
BLOCK
  5
20
330
1F
100
AcDbEntity
  8
0
100
AcDbBlockBegin
  2
*Model_Space
 70
     0
 10
0.0
 20
0.0
 30
0.0
  3
*Model_Space
  1

  0
ENDBLK
  5
21
330
1F
100
AcDbEntity
  8
0
100
AcDbBlockEnd
  0
BLOCK
  5
1C
330
1B
100
AcDbEntity
 67
     1
  8
0
100
AcDbBlockBegin
  2
*Paper_Space
 70
     0
 10
0.0
 20
0.0
 30
0.0
  3
*Paper_Space
  1

  0
ENDBLK
  5
1D
330
1B
100
AcDbEntity
 67
     1
  8
0
100
AcDbBlockEnd
  0
BLOCK
  5
24
330
23
100
AcDbEntity
  8
0
100
AcDbBlockBegin
  2
*Paper_Space0
 70
     0
 10
0.0
 20
0.0
 30
0.0
  3
*Paper_Space0
  1

  0
ENDBLK
  5
25
330
23
100
AcDbEntity
  8
0
100
AcDbBlockEnd
  0
BLOCK
  5
79
330
78
100
AcDbEntity
  8
0
100
AcDbBlockBegin
  2
_D
 70
     0
 10
0.0
 20
0.0
 30
0.0
  3
_D
  1

  0
SOLID
  5
7B
330
78
100
AcDbEntity
  8
0
  6
Continuous
 62
     7
370
    18
100
AcDbTrace
 10
42.7614395004
 20
152.0299240879
 30
0.0
 11
42.4614395004
 21
149.5299240879
 31
0.0
 12
43.0614395004
 22
149.5299240879
 32
0.0
 13
43.0614395004
 23
149.5299240879
 33
0.0
  0
SOLID
  5
7C
330
78
100
AcDbEntity
  8
0
  6
Continuous
 62
     7
370
    18
100
AcDbTrace
 10
42.7614395004
 20
52.0299240879
 30
0.0
 11
43.0614395004
 21
54.5299240879
 31
0.0
 12
42.4614395004
 22
54.5299240879
 32
0.0
 13
42.4614395004
 23
54.5299240879
 33
0.0
  0
LINE
  5
7D
330
78
100
AcDbEntity
  8
0
  6
Continuous
 62
     7
370
     0
100
AcDbLine
 10
56.6850079902
 20
152.0299240879
 30
0.0
 11
41.7614395004
 21
152.0299240879
 31
0.0
  0
LINE
  5
7E
330
78
100
AcDbEntity
  8
0
  6
Continuous
 62
     7
370
     0
100
AcDbLine
 10
56.6850079902
 20
52.0299240879
 30
0.0
 11
41.7614395004
 21
52.0299240879
 31
0.0
  0
LINE
  5
7F
330
78
100
AcDbEntity
  8
0
  6
Continuous
 62
     7
370
     0
100
AcDbLine
 10
42.7614395004
 20
152.0299240879
 30
0.0
 11
42.7614395004
 21
52.0299240879
 31
0.0
  0
MTEXT
  5
80
330
78
100
AcDbEntity
  8
0
  6
Continuous
 62
     7
370
    18
100
AcDbMText
 10
35.0270332946
 20
94.3680541463
 30
0.0
 40
6.0
 41
0.0
 71
     1
 72
     1
  1
100
  7
SLDTEXTSTYLE0
 11
-7.044195017643634E-15
 21
1.0
 31
0.0
 73
     1
 44
1.0
  0
MTEXT
  5
81
330
78
100
AcDbEntity
  8
0
  6
Continuous
 62
     7
370
    18
100
AcDbMText
 10
35.0270332946
 20
105.7430548466
 30
0.0
 40
6.0
 41
0.0
 71
     1
 72
     1
  1
mm
  7
SLDTEXTSTYLE0
 11
-7.044195017643634E-15
 21
1.0
 31
0.0
 73
     1
 44
1.0
  0
ENDBLK
  5
7A
330
78
100
AcDbEntity
  8
0
100
AcDbBlockEnd
  0
BLOCK
  5
84
330
83
100
AcDbEntity
  8
0
100
AcDbBlockBegin
  2
_D_1
 70
     0
 10
0.0
 20
0.0
 30
0.0
  3
_D_1
  1

  0
SOLID
  5
86
330
83
100
AcDbEntity
  8
0
  6
Continuous
 62
     7
370
    18
100
AcDbTrace
 10
56.6850079902
 20
38.4602342313
 30
0.0
 11
59.1850079902
 21
38.1602342313
 31
0.0
 12
59.1850079902
 22
38.7602342313
 32
0.0
 13
59.1850079902
 23
38.7602342313
 33
0.0
  0
SOLID
  5
87
330
83
100
AcDbEntity
  8
0
  6
Continuous
 62
     7
370
    18
100
AcDbTrace
 10
156.6850079902
 20
38.4602342313
 30
0.0
 11
154.1850079902
 21
38.7602342313
 31
0.0
 12
154.1850079902
 22
38.1602342313
 32
0.0
 13
154.1850079902
 23
38.1602342313
 33
0.0
  0
LINE
  5
88
330
83
100
AcDbEntity
  8
0
  6
Continuous
 62
     7
370
     0
100
AcDbLine
 10
56.6850079902
 20
52.0299240879
 30
0.0
 11
56.6850079902
 21
37.4602342313
 31
0.0
  0
LINE
  5
89
330
83
100
AcDbEntity
  8
0
  6
Continuous
 62
     7
370
     0
100
AcDbLine
 10
156.6850079902
 20
52.0299240879
 30
0.0
 11
156.6850079902
 21
37.4602342313
 31
0.0
  0
LINE
  5
8A
330
83
100
AcDbEntity
  8
0
  6
Continuous
 62
     7
370
     0
100
AcDbLine
 10
56.6850079902
 20
38.4602342313
 30
0.0
 11
156.6850079902
 21
38.4602342313
 31
0.0
  0
MTEXT
  5
8B
330
83
100
AcDbEntity
  8
0
  6
Continuous
 62
     7
370
    18
100
AcDbMText
 10
93.9626484861
 20
46.1946404371
 30
0.0
 40
6.0
 41
0.0
 71
     1
 72
     1
  1
100
  7
SLDTEXTSTYLE0
 73
     1
 44
1.0
  0
MTEXT
  5
8C
330
83
100
AcDbEntity
  8
0
  6
Continuous
 62
     7
370
    18
100
AcDbMText
 10
105.3376491864
 20
46.1946404371
 30
0.0
 40
6.0
 41
0.0
 71
     1
 72
     1
  1
mm
  7
SLDTEXTSTYLE0
 73
     1
 44
1.0
  0
ENDBLK
  5
85
330
83
100
AcDbEntity
  8
0
100
AcDbBlockEnd
  0
ENDSEC
  0
SECTION
  2
ENTITIES
  0
LINE
  5
73
330
1F
100
AcDbEntity
  8
0
  6
Continuous
 62
     7
370
    18
100
AcDbLine
 10
56.6850079902
 20
152.0299240879
 30
0.0
 11
56.6850079902
 21
52.0299240879
 31
0.0
  0
LINE
  5
74
330
1F
100
AcDbEntity
  8
0
  6
Continuous
 62
     7
370
    18
100
AcDbLine
 10
56.6850079902
 20
52.0299240879
 30
0.0
 11
156.6850079902
 21
52.0299240879
 31
0.0
  0
DIMENSION
  5
75
330
1F
100
AcDbEntity
  8
0
  6
Continuous
 62
     7
370
    18
100
AcDbDimension
  2
_D
 10
42.7614395004
 20
52.0299240879
 30
0.0
 11
42.7614395004
 21
105.4472211621
 31
0.0
 70
   160
  1
<>mm
 71
     2
 42
-1.0
  3
SLDDIMSTYLE0
100
AcDbAlignedDimension
 13
56.6850079902
 23
152.0299240879
 33
0.0
 14
56.6850079902
 24
52.0299240879
 34
0.0
 50
90.0
100
AcDbRotatedDimension
  0
DIMENSION
  5
82
330
1F
100
AcDbEntity
  8
0
  6
Continuous
 62
     7
370
    18
100
AcDbDimension
  2
_D_1
 10
156.6850079902
 20
38.4602342313
 30
0.0
 11
105.0418155019
 21
38.4602342313
 31
0.0
 70
   160
  1
<>mm
 71
     2
 42
-1.0
  3
SLDDIMSTYLE0
100
AcDbAlignedDimension
 13
56.6850079902
 23
52.0299240879
 33
0.0
 14
156.6850079902
 24
52.0299240879
 34
0.0
100
AcDbRotatedDimension
  0
MTEXT
  5
8E
330
1F
100
AcDbEntity
  8
0
  6
Continuous
 62
     7
370
     0
100
AcDbMText
 10
412.8252631579
 20
48.4342449499
 30
0.0
 40
10.0
 41
0.0
 71
     1
 72
     1
  1
KLUDI GmbH & Co KG
  7
SLDTEXTSTYLE1
 73
     1
 44
1.0
  0
MTEXT
  5
8F
330
1F
100
AcDbEntity
  8
0
  6
Continuous
 62
     7
370
     0
100
AcDbMText
 10
210.0873490389
 20
48.4342449499
 30
0.0
 40
10.0
 41
0.0
 71
     1
 72
     1
  1
37 755 .. 65
  7
SLDTEXTSTYLE1
 73
     1
 44
1.0
  0
SPLINE
  5
90
330
1F
100
AcDbEntity
  8
0
  6
Continuous
 62
     7
370
    25
100
AcDbSpline
210
0.0
220
0.0
230
1.0
 70
     8
 71
     3
 72
    15
 73
    11
 74
     0
 42
0.00000001
 43
0.00000001
 40
0.0
 40
0.0
 40
0.0
 40
0.0
 40
0.0972900942018549
 40
0.2284469324265
 40
0.3597100635881596
 40
0.4909748542012964
 40
0.6221839119828987
 40
0.7532824908613375
 40
0.8842227755765646
 40
1.0
 40
1.0
 40
1.0
 40
1.0
 10
190.8625362872496
 20
284.944623658173
 30
0.0
 10
191.2389752427918
 20
284.9557852392452
 30
0.0
 10
192.1228917950879
 20
284.9819937549006
 30
0.0
 10
193.4987240447631
 20
285.2250145987123
 30
0.0
 10
194.9552060186942
 20
285.6795806424121
 30
0.0
 10
196.3351541997139
 20
286.3311162468859
 30
0.0
 10
197.6132487414173
 20
287.1621383936313
 30
0.0
 10
198.7590947861244
 20
288.1613587514635
 30
0.0
 10
199.7335644143299
 20
289.2533098422628
 30
0.0
 10
200.2331104185273
 20
290.0629478061535
 30
0.0
 10
200.4675325721868
 20
290.4428869380554
 30
0.0
  0
SPLINE
  5
91
330
1F
100
AcDbEntity
  8
0
  6
Continuous
 62
     7
370
    25
100
AcDbSpline
210
0.0
220
0.0
230
1.0
 70
     8
 71
     3
 72
     9
 73
     5
 74
     0
 42
0.00000001
 43
0.00000001
 40
0.0
 40
0.0
 40
0.0
 40
0.0
 40
0.8842994503364793
 40
1.0
 40
1.0
 40
1.0
 40
1.0
 10
169.7392968324858
 20
290.4533235047757
 30
0.0
 10
169.9833302224202
 20
290.0357736702503
 30
0.0
 10
170.2592926125828
 20
289.563592177469
 30
0.0
 10
170.6240679814559
 20
289.1591746519764
 30
0.0
 10
170.6662726921382
 20
289.1123833219834
 30
0.0
  0
SPLINE
  5
92
330
1F
100
AcDbEntity
  8
0
  6
Continuous
 62
     7
370
    25
100
AcDbSpline
210
0.0
220
0.0
230
1.0
 70
     8
 71
     3
 72
    12
 73
     8
 74
     0
 42
0.00000001
 43
0.00000001
 40
0.0
 40
0.0
 40
0.0
 40
0.0
 40
0.0674458530500334
 40
0.3174216206626478
 40
0.567814521786987
 40
0.8186029350943482
 40
1.0
 40
1.0
 40
1.0
 40
1.0
 10
173.6052075971719
 20
286.556633944646
 30
0.0
 10
173.7185219242951
 20
286.4816098565107
 30
0.0
 10
174.2518151622509
 20
286.1285226529584
 30
0.0
 10
175.3112634936103
 20
285.6728095702778
 30
0.0
 10
176.7557104605623
 20
285.2145849858053
 30
0.0
 10
178.120079045182
 20
284.980790906183
 30
0.0
 10
178.9922607968003
 20
284.9553159973021
 30
0.0
 10
179.3583332767503
 20
284.944623658173
 30
0.0
  0
LINE
  5
93
330
1F
100
AcDbEntity
  8
0
  6
Continuous
 62
     7
370
    25
100
AcDbLine
 10
179.3583332768
 20
284.9446236582
 30
0.0
 11
190.8625362872
 21
284.9446236582
 31
0.0
  0
LINE
  5
94
330
1F
100
AcDbEntity
  8
0
  6
Continuous
 62
     7
370
    25
100
AcDbLine
 10
210.110434782
 20
359.1241777425
 30
0.0
 11
210.110434782
 21
359.2334071502
 31
0.0
  0
LINE
  5
95
330
1F
100
AcDbEntity
  8
0
  6
Continuous
 62
     7
370
    25
100
AcDbLine
 10
160.110434782
 20
359.2334071493
 30
0.0
 11
160.110434782
 21
359.1241777425
 31
0.0
  0
SPLINE
  5
96
330
1F
100
AcDbEntity
  8
0
  6
Continuous
 62
     7
370
    25
100
AcDbSpline
210
0.0
220
0.0
230
1.0
 70
     8
 71
     3
 72
    30
 73
    26
 74
     0
 42
0.00000001
 43
0.00000001
 40
0.0
 40
0.0
 40
0.0
 40
0.0
 40
0.125
 40
0.125
 40
0.1875000000000001
 40
0.1875000000000001
 40
0.2500000000000001
 40
0.2500000000000001
 40
0.3125000000000002
 40
0.3125000000000002
 40
0.3750000000000002
 40
0.3750000000000002
 40
0.5000000000000003
 40
0.5000000000000003
 40
0.5625000000000006
 40
0.5625000000000006
 40
0.6250000000000008
 40
0.6250000000000008
 40
0.75
 40
0.75
 40
0.8125
 40
0.8125
 40
0.875
 40
0.875
 40
1.0
 40
1.0
 40
1.0
 40
1.0
 10
190.8625362872496
 20
284.9709949779557
 30
0.0
 10
191.5916792933374
 20
284.9699719713956
 30
0.0
 10
192.3130155782696
 20
285.0393179893896
 30
0.0
 10
193.3832883398011
 20
285.2477155944216
 30
0.0
 10
193.7367897936801
 20
285.3346232462482
 30
0.0
 10
194.4274986580134
 20
285.5400564548198
 30
0.0
 10
194.7661803628966
 20
285.6588503324542
 30
0.0
 10
195.4303498852958
 20
285.9281505457848
 30
0.0
 10
195.7558368725942
 20
286.0786543166178
 30
0.0
 10
196.3933853745513
 20
286.4118342663498
 30
0.0
 10
196.7071162817428
 20
286.5956742453914
 30
0.0
 10
197.6121464850465
 20
287.1873255254617
 30
0.0
 10
198.1681978291934
 20
287.6340439677605
 30
0.0
 10
198.9328885589123
 20
288.3808281019877
 30
0.0
 10
199.1761346817366
 20
288.642623945885
 30
0.0
 10
199.6385615614089
 20
289.1927915351216
 30
0.0
 10
199.8553292634154
 20
289.4784726730041
 30
0.0
 10
200.4572067422847
 20
290.35818600169
 30
0.0
 10
200.7972042519324
 20
290.9780464716398
 30
0.0
 10
201.214423110549
 20
291.9584122948026
 30
0.0
 10
201.3383437048591
 20
292.2954305048951
 30
0.0
 10
201.5496731264929
 20
292.9734398996633
 30
0.0
 10
201.6376976944672
 20
293.3154164141933
 30
0.0
 10
201.8500249568768
 20
294.3500736018319
 30
0.0
 10
201.9230222958054
 20
295.0512577458334
 30
0.0
 10
201.9248388873345
 20
295.7649769256011
 30
0.0
  0
SPLINE
  5
97
330
1F
100
AcDbEntity
  8
0
  6
Continuous
 62
     7
370
    25
100
AcDbSpline
210
0.0
220
0.0
230
1.0
 70
     8
 71
     3
 72
    30
 73
    26
 74
     0
 42
0.00000001
 43
0.00000001
 40
0.0
 40
0.0
 40
0.0
 40
0.0
 40
0.1249999999999989
 40
0.1249999999999989
 40
0.1874999999999986
 40
0.1874999999999986
 40
0.2499999999999983
 40
0.2499999999999983
 40
0.312499999999998
 40
0.312499999999998
 40
0.3749999999999977
 40
0.3749999999999977
 40
0.4999999999999987
 40
0.4999999999999987
 40
0.5624999999999987
 40
0.5624999999999987
 40
0.6249999999999987
 40
0.6249999999999987
 40
0.7499999999999987
 40
0.7499999999999987
 40
0.8124999999999987
 40
0.8124999999999987
 40
0.8749999999999987
 40
0.8749999999999987
 40
1.0
 40
1.0
 40
1.0
 40
1.0
 10
179.3583332767503
 20
284.9709949779558
 30
0.0
 10
178.6291902706624
 20
284.9699719713957
 30
0.0
 10
177.9078539857302
 20
285.0393179893896
 30
0.0
 10
176.8375812241988
 20
285.2477155944216
 30
0.0
 10
176.4840797703198
 20
285.3346232462483
 30
0.0
 10
175.7933709059865
 20
285.5400564548198
 30
0.0
 10
175.4546892011033
 20
285.6588503324543
 30
0.0
 10
174.7905196787041
 20
285.9281505457848
 30
0.0
 10
174.4650326914058
 20
286.0786543166178
 30
0.0
 10
173.8274841894485
 20
286.41183426635
 30
0.0
 10
173.5137532822571
 20
286.5956742453914
 30
0.0
 10
172.6087230789534
 20
287.1873255254617
 30
0.0
 10
172.0526717348065
 20
287.6340439677606
 30
0.0
 10
171.2879810050876
 20
288.3808281019878
 30
0.0
 10
171.0447348822633
 20
288.6426239458851
 30
0.0
 10
170.582308002591
 20
289.1927915351216
 30
0.0
 10
170.3655403005845
 20
289.4784726730042
 30
0.0
 10
169.7636628217153
 20
290.3581860016901
 30
0.0
 10
169.4236653120675
 20
290.9780464716399
 30
0.0
 10
169.0064464534509
 20
291.9584122948026
 30
0.0
 10
168.8825258591408
 20
292.2954305048952
 30
0.0
 10
168.671196437507
 20
292.9734398996634
 30
0.0
 10
168.5831718695327
 20
293.3154164141934
 30
0.0
 10
168.3708446071232
 20
294.3500736018319
 30
0.0
 10
168.2978472681946
 20
295.0512577458334
 30
0.0
 10
168.2960306766654
 20
295.7649769256012
 30
0.0
  0
SPLINE
  5
98
330
1F
100
AcDbEntity
  8
0
  6
Continuous
 62
     7
370
    25
100
AcDbSpline
210
0.0
220
0.0
230
1.0
 70
     8
 71
     3
 72
    22
 73
    18
 74
     0
 42
0.00000001
 43
0.00000001
 40
0.0
 40
0.0
 40
0.0
 40
0.0
 40
0.0624999999999999
 40
0.0624999999999999
 40
0.1249999999999997
 40
0.1249999999999997
 40
0.2499999999999994
 40
0.2499999999999994
 40
0.4999999999999992
 40
0.4999999999999992
 40
0.749999999999999
 40
0.749999999999999
 40
0.874999999999999
 40
0.874999999999999
 40
0.9374999999999994
 40
0.9374999999999994
 40
1.0
 40
1.0
 40
1.0
 40
1.0
 10
201.9248388873345
 20
295.7649769256011
 30
0.0
 10
201.9270661291368
 20
296.5551176912034
 30
0.0
 10
201.9285620165184
 20
297.3442640287005
 30
0.0
 10
201.9314519573577
 20
298.9231692919572
 30
0.0
 10
201.9326974524978
 20
299.7126282229203
 30
0.0
 10
201.9359347283111
 20
302.0808934761261
 30
0.0
 10
201.937427138606
 20
303.6595530888838
 30
0.0
 10
201.9408007511906
 20
308.3950394715356
 30
0.0
 10
201.9416234461457
 20
311.5513363839115
 30
0.0
 10
201.9427352767865
 20
317.8633973519351
 30
0.0
 10
201.9429711224326
 20
321.0191667530625
 30
0.0
 10
201.9437628329268
 20
325.7531745720178
 30
0.0
 10
201.9440839360585
 20
327.3311580546973
 30
0.0
 10
201.944821493059
 20
329.6988348468566
 30
0.0
 10
201.9451046576841
 20
330.4881507205338
 30
0.0
 10
201.9457930679855
 20
332.0673626444557
 30
0.0
 10
201.9461762290623
 20
332.8570477872943
 30
0.0
 10
201.946729858497
 20
333.648151592854
 30
0.0
  0
SPLINE
  5
99
330
1F
100
AcDbEntity
  8
0
  6
Continuous
 62
     7
370
    25
100
AcDbSpline
210
0.0
220
0.0
230
1.0
 70
     8
 71
     3
 72
    22
 73
    18
 74
     0
 42
0.00000001
 43
0.00000001
 40
0.0
 40
0.0
 40
0.0
 40
0.0
 40
0.0625000000000002
 40
0.0625000000000002
 40
0.1250000000000003
 40
0.1250000000000003
 40
0.2500000000000006
 40
0.2500000000000006
 40
0.5000000000000003
 40
0.5000000000000003
 40
0.75
 40
0.75
 40
0.8749999999999999
 40
0.8749999999999999
 40
0.9375
 40
0.9375
 40
1.0
 40
1.0
 40
1.0
 40
1.0
 10
168.2960306766654
 20
295.7649769256012
 30
0.0
 10
168.2938034411157
 20
296.5551176582229
 30
0.0
 10
168.2923075474815
 20
297.3442640287005
 30
0.0
 10
168.2894176066423
 20
298.9231692919572
 30
0.0
 10
168.2881721115021
 20
299.7126282229206
 30
0.0
 10
168.2849348356889
 20
302.080893476126
 30
0.0
 10
168.283442425394
 20
303.659553088884
 30
0.0
 10
168.2800688128094
 20
308.3950394715355
 30
0.0
 10
168.2792461178544
 20
311.5513363839117
 30
0.0
 10
168.2781342872136
 20
317.8633973519351
 30
0.0
 10
168.2778984415675
 20
321.0191667530626
 30
0.0
 10
168.2771067310733
 20
325.7531745720179
 30
0.0
 10
168.2767856279416
 20
327.3311580546975
 30
0.0
 10
168.2760480709412
 20
329.6988348468566
 30
0.0
 10
168.2757649063161
 20
330.488150720534
 30
0.0
 10
168.2750764960147
 20
332.0673626444558
 30
0.0
 10
168.2746933349379
 20
332.8570477872944
 30
0.0
 10
168.2741397055032
 20
333.6481515928542
 30
0.0
  0
SPLINE
  5
9A
330
1F
100
AcDbEntity
  8
0
  6
Continuous
 62
     7
370
    25
100
AcDbSpline
210
0.0
220
0.0
230
1.0
 70
     8
 71
     3
 72
    18
 73
    14
 74
     0
 42
0.00000001
 43
0.00000001
 40
0.0
 40
0.0
 40
0.0
 40
0.0
 40
0.1250000000000006
 40
0.1250000000000006
 40
0.2500000000000011
 40
0.2500000000000011
 40
0.4999999999999996
 40
0.4999999999999996
 40
0.6249999999999996
 40
0.6249999999999996
 40
0.7499999999999996
 40
0.7499999999999996
 40
1.0
 40
1.0
 40
1.0
 40
1.0
 10
202.0617183611123
 20
335.8329873704801
 30
0.0
 10
202.1052422463147
 20
336.2299460366974
 30
0.0
 10
202.1617040272015
 20
336.627084174309
 30
0.0
 10
202.2998388446033
 20
337.4139424022778
 30
0.0
 10
202.3815012809131
 20
337.8040906672493
 30
0.0
 10
202.66401925315
 20
338.9650462762802
 30
0.0
 10
202.9024179862657
 20
339.7265718698267
 30
0.0
 10
203.3347121413909
 20
340.8504324111621
 30
0.0
 10
203.4912490116359
 20
341.2219264455914
 30
0.0
 10
203.8294269540971
 20
341.9583973963258
 30
0.0
 10
204.0114907271158
 20
342.3240340483978
 30
0.0
 10
204.5895256526378
 20
343.3989370064746
 30
0.0
 10
205.0186499422188
 20
344.089960099322
 30
0.0
 10
205.4912379155252
 20
344.7551972704886
 30
0.0
  0
SPLINE
  5
9B
330
1F
100
AcDbEntity
  8
0
  6
Continuous
 62
     7
370
    25
100
AcDbSpline
210
0.0
220
0.0
230
1.0
 70
     8
 71
     3
 72
    12
 73
     8
 74
     0
 42
0.00000001
 43
0.00000001
 40
0.0
 40
0.0
 40
0.0
 40
0.0
 40
0.249999999999999
 40
0.249999999999999
 40
0.499999999999998
 40
0.499999999999998
 40
1.0
 40
1.0
 40
1.0
 40
1.0
 10
202.0038052197171
 20
335.2145962304207
 30
0.0
 10
202.0080588894672
 20
335.2668060482423
 30
0.0
 10
202.0122429849242
 20
335.3184777672039
 30
0.0
 10
202.0210699577996
 20
335.421644755189
 30
0.0
 10
202.0256776739049
 20
335.4731629790839
 30
0.0
 10
202.0401202934235
 20
335.6276356861678
 30
0.0
 10
202.0506550498351
 20
335.7307125721561
 30
0.0
 10
202.0617183611123
 20
335.8329873704801
 30
0.0
  0
SPLINE
  5
9C
330
1F
100
AcDbEntity
  8
0
  6
Continuous
 62
     7
370
    25
100
AcDbSpline
210
0.0
220
0.0
230
1.0
 70
     8
 71
     3
 72
     8
 73
     4
 74
     0
 42
0.00000001
 43
0.00000001
 40
0.0
 40
0.0
 40
0.0
 40
0.0
 40
1.0
 40
1.0
 40
1.0
 40
1.0
 10
201.9467315296183
 20
333.6504466496995
 30
0.0
 10
201.9463754449544
 20
334.1710111607742
 30
0.0
 10
201.9644118923895
 20
334.6927614991718
 30
0.0
 10
202.0038052197171
 20
335.2145962304207
 30
0.0
  0
SPLINE
  5
9D
330
1F
100
AcDbEntity
  8
0
  6
Continuous
 62
     7
370
    25
100
AcDbSpline
210
0.0
220
0.0
230
1.0
 70
     8
 71
     3
 72
     8
 73
     4
 74
     0
 42
0.00000001
 43
0.00000001
 40
0.0
 40
0.0
 40
0.0
 40
0.0
 40
1.0
 40
1.0
 40
1.0
 40
1.0
 10
168.2741380343819
 20
333.6504466496996
 30
0.0
 10
168.274493429623
 20
334.1710110874191
 30
0.0
 10
168.2564569123544
 20
334.6927613354225
 30
0.0
 10
168.2170643442831
 20
335.2145962304209
 30
0.0
  0
SPLINE
  5
9E
330
1F
100
AcDbEntity
  8
0
  6
Continuous
 62
     7
370
    25
100
AcDbSpline
210
0.0
220
0.0
230
1.0
 70
     8
 71
     3
 72
    16
 73
    12
 74
     0
 42
0.00000001
 43
0.00000001
 40
0.0
 40
0.0
 40
0.0
 40
0.0
 40
0.0625000000000052
 40
0.0625000000000052
 40
0.1250000000000104
 40
0.1250000000000104
 40
0.250000000000018
 40
0.250000000000018
 40
0.5000000000000294
 40
0.5000000000000294
 40
1.0
 40
1.0
 40
1.0
 40
1.0
 10
168.2170643442831
 20
335.2145962304209
 30
0.0
 10
168.2162001934638
 20
335.2275092129265
 30
0.0
 10
168.2149368840871
 20
335.2407221646233
 30
0.0
 10
168.2128217231142
 20
335.2667083731398
 30
0.0
 10
168.2117658317659
 20
335.2796607592684
 30
0.0
 10
168.2085766731246
 20
335.3184649374857
 30
0.0
 10
168.2064198358572
 20
335.3442695142003
 30
0.0
 10
168.1997996062006
 20
335.4216447551892
 30
0.0
 10
168.1951918900954
 20
335.4731629790839
 30
0.0
 10
168.1807492705767
 20
335.6276356861678
 30
0.0
 10
168.170214113093
 20
335.7307128009201
 30
0.0
 10
168.1591512028879
 20
335.8329873704802
 30
0.0
  0
SPLINE
  5
9F
330
1F
100
AcDbEntity
  8
0
  6
Continuous
 62
     7
370
    25
100
AcDbSpline
210
0.0
220
0.0
230
1.0
 70
     8
 71
     3
 72
    23
 73
    19
 74
     0
 42
0.00000001
 43
0.00000001
 40
0.0
 40
0.0
 40
0.0
 40
0.0
 40
0.015625000000003
 40
0.015625000000003
 40
0.031250000000006
 40
0.0625000000000084
 40
0.0625000000000084
 40
0.1250000000000098
 40
0.1250000000000098
 40
0.2500000000000096
 40
0.2500000000000096
 40
0.5000000000000062
 40
0.5000000000000062
 40
0.6250000000000047
 40
0.6250000000000047
 40
0.7500000000000031
 40
0.7500000000000031
 40
1.0
 40
1.0
 40
1.0
 40
1.0
 10
168.1591512028879
 20
335.8329873704802
 30
0.0
 10
168.1539357757123
 20
335.8823935286222
 30
0.0
 10
168.1480689214069
 20
335.9322344206527
 30
0.0
 10
168.1363872463534
 20
336.0314453418108
 30
0.0
 10
168.1182642799669
 20
336.1802259083331
 30
0.0
 10
168.0983334228803
 20
336.3288957845202
 30
0.0
 10
168.056042522683
 20
336.6260863864361
 30
0.0
 10
168.0246318324483
 20
336.8237987313013
 30
0.0
 10
167.9210307193969
 20
337.4139424022779
 30
0.0
 10
167.8393682830871
 20
337.8040906672496
 30
0.0
 10
167.5568503108504
 20
338.9650462762802
 30
0.0
 10
167.3184515777346
 20
339.7265718698268
 30
0.0
 10
166.8861574226093
 20
340.8504324111623
 30
0.0
 10
166.7296205523643
 20
341.2219264455915
 30
0.0
 10
166.3914426099032
 20
341.9583973963259
 30
0.0
 10
166.2093788368845
 20
342.3240340483979
 30
0.0
 10
165.6313439113624
 20
343.3989370064749
 30
0.0
 10
165.2022186127778
 20
344.0899593784695
 30
0.0
 10
164.7296316484751
 20
344.7551972704888
 30
0.0
  0
SPLINE
  5
A0
330
1F
100
AcDbEntity
  8
0
  6
Continuous
 62
     7
370
    25
100
AcDbSpline
210
0.0
220
0.0
230
1.0
 70
     8
 71
     3
 72
    18
 73
    14
 74
     0
 42
0.00000001
 43
0.00000001
 40
0.0
 40
0.0
 40
0.0
 40
0.0
 40
0.1249999999999999
 40
0.1249999999999999
 40
0.2499999999999999
 40
0.2499999999999999
 40
0.3749999999999998
 40
0.3749999999999998
 40
0.4999999999999998
 40
0.4999999999999998
 40
0.7499999999999999
 40
0.7499999999999999
 40
1.0
 40
1.0
 40
1.0
 40
1.0
 10
205.4948403672292
 20
344.7602694551921
 30
0.0
 10
205.8703198519443
 20
345.2890775776766
 30
0.0
 10
206.2233014305425
 20
345.8297354925658
 30
0.0
 10
206.8852338703659
 20
346.9341871689721
 30
0.0
 10
207.1941897098603
 20
347.4980024821803
 30
0.0
 10
207.7682504153099
 20
348.6487109499458
 30
0.0
 10
208.0333556606934
 20
349.2356028125132
 30
0.0
 10
208.5190960281717
 20
350.4327718539741
 30
0.0
 10
208.7400054333891
 20
351.0445182025862
 30
0.0
 10
209.3256632561679
 20
352.8865339092002
 30
0.0
 10
209.6177263118407
 20
354.1319730571556
 30
0.0
 10
210.0101005775873
 20
356.6568212470854
 30
0.0
 10
210.110434782018
 20
357.9362217335485
 30
0.0
 10
210.1104347820002
 20
359.233407149654
 30
0.0
  0
SPLINE
  5
A1
330
1F
100
AcDbEntity
  8
0
  6
Continuous
 62
     7
370
    25
100
AcDbSpline
210
0.0
220
0.0
230
1.0
 70
     8
 71
     3
 72
    18
 73
    14
 74
     0
 42
0.00000001
 43
0.00000001
 40
0.0
 40
0.0
 40
0.0
 40
0.0
 40
0.1250000000000002
 40
0.1250000000000002
 40
0.2500000000000003
 40
0.2500000000000003
 40
0.3750000000000003
 40
0.3750000000000003
 40
0.5000000000000003
 40
0.5000000000000003
 40
0.7500000000000002
 40
0.7500000000000002
 40
1.0
 40
1.0
 40
1.0
 40
1.0
 10
164.726029196771
 20
344.7602694551923
 30
0.0
 10
164.3505497120561
 20
345.2890775776767
 30
0.0
 10
163.9975681334577
 20
345.8297354925659
 30
0.0
 10
163.3356356936344
 20
346.9341871689722
 30
0.0
 10
163.02667985414
 20
347.4980024821804
 30
0.0
 10
162.4526191486904
 20
348.648710949946
 30
0.0
 10
162.1875139033069
 20
349.2356028125133
 30
0.0
 10
161.7017735358286
 20
350.4327718539743
 30
0.0
 10
161.4808641306113
 20
351.0445182025864
 30
0.0
 10
160.8952063078325
 20
352.8865339092004
 30
0.0
 10
160.6031432521597
 20
354.1319730571558
 30
0.0
 10
160.210768986413
 20
356.6568212470856
 30
0.0
 10
160.1104347819823
 20
357.9362217335487
 30
0.0
 10
160.1104347820002
 20
359.2334071496542
 30
0.0
  0
ARC
  5
A2
330
1F
100
AcDbEntity
  8
0
  6
Continuous
 62
     7
370
    25
100
AcDbCircle
 10
185.1102355622
 20
359.1241846863
 30
0.0
 40
24.99980078024947
100
AcDbArc
 50
180.0000159141
 51
216.373010947
  0
ARC
  5
A3
330
1F
100
AcDbEntity
  8
0
  6
Continuous
 62
     7
370
    25
100
AcDbCircle
 10
185.1106399318
 20
359.1241826243
 30
0.0
 40
24.99979485015886
100
AcDbArc
 50
323.2130707126
 51
359.9999888117
  0
ARC
  5
A4
330
1F
100
AcDbEntity
  8
0
  6
Continuous
 62
     7
370
    25
100
AcDbCircle
 10
185.110434782
 20
359.2333089161
 30
0.0
 40
25.00000000019303
100
AcDbArc
 50
0.000225136
 51
179.999774864
  0
CIRCLE
  5
A5
330
1F
100
AcDbEntity
  8
0
  6
Continuous
 62
     7
370
    25
100
AcDbCircle
 10
185.1104347826
 20
344.2116600791
 30
0.0
 40
74.5
  0
SPLINE
  5
A6
330
1F
100
AcDbEntity
  8
0
  6
Continuous
 62
     8
370
    18
100
AcDbSpline
210
0.0
220
0.0
230
1.0
 70
     8
 71
     3
 72
    22
 73
    18
 74
     0
 42
0.00000001
 43
0.00000001
 40
0.0
 40
0.0
 40
0.0
 40
0.0
 40
0.0625000000000002
 40
0.0625000000000002
 40
0.1250000000000005
 40
0.1250000000000005
 40
0.2500000000000008
 40
0.2500000000000008
 40
0.5000000000000006
 40
0.5000000000000006
 40
0.7500000000000003
 40
0.7500000000000003
 40
0.8750000000000004
 40
0.8750000000000004
 40
0.9375000000000002
 40
0.9375000000000002
 40
1.0
 40
1.0
 40
1.0
 40
1.0
 10
169.1999461573064
 20
333.8708245978119
 30
0.0
 10
169.2052471535648
 20
333.080738121274
 30
0.0
 10
169.2098656938388
 20
332.2917825303336
 30
0.0
 10
169.2171727073504
 20
330.7138732448832
 30
0.0
 10
169.2200110583075
 20
329.9251035163654
 30
0.0
 10
169.2266265517587
 20
327.5588918065919
 30
0.0
 10
169.2287057427307
 20
325.9816420430029
 30
0.0
 10
169.2350424901551
 20
321.2497033834371
 30
0.0
 10
169.2384717349852
 20
318.0950519754063
 30
0.0
 10
169.2478874283287
 20
311.7857455865223
 30
0.0
 10
169.2531453339941
 20
308.6310698308748
 30
0.0
 10
169.2619488572082
 20
303.8991113543206
 30
0.0
 10
169.2650410273048
 20
302.321809156965
 30
0.0
 10
169.2701714934515
 20
299.9559304471439
 30
0.0
 10
169.271989324989
 20
299.167324393902
 30
0.0
 10
169.2764087759785
 20
297.5902451074893
 30
0.0
 10
169.2789784679432
 20
296.8020305833309
 30
0.0
 10
169.282150668684
 20
296.0130386635312
 30
0.0
  0
SPLINE
  5
A7
330
1F
100
AcDbEntity
  8
0
  6
Continuous
 62
     8
370
    18
100
AcDbSpline
210
0.0
220
0.0
230
1.0
 70
     8
 71
     3
 72
    16
 73
    12
 74
     0
 42
0.00000001
 43
0.00000001
 40
0.0
 40
0.0
 40
0.0
 40
0.0
 40
0.125
 40
0.125
 40
0.25
 40
0.25
 40
0.5
 40
0.5
 40
0.75
 40
0.75
 40
1.0
 40
1.0
 40
1.0
 40
1.0
 10
165.4442850956272
 20
345.2802080195003
 30
0.0
 10
165.7421300547176
 20
344.8589343800657
 30
0.0
 10
166.0301744641943
 20
344.4317399438173
 30
0.0
 10
166.5695675392665
 20
343.5555582630139
 30
0.0
 10
166.822368752302
 20
343.1073996220342
 30
0.0
 10
167.5295752825364
 20
341.7325656227742
 30
0.0
 10
167.9243686322427
 20
340.7925145885608
 30
0.0
 10
168.5591497124477
 20
338.874614537554
 30
0.0
 10
168.7967482282885
 20
337.894760353414
 30
0.0
 10
169.1162439059648
 20
335.8899520046323
 30
0.0
 10
169.1931469956448
 20
334.8842381749096
 30
0.0
 10
169.1999302707575
 20
333.8731024566297
 30
0.0
  0
SPLINE
  5
A8
330
1F
100
AcDbEntity
  8
0
  6
Continuous
 62
     8
370
    18
100
AcDbSpline
210
0.0
220
0.0
230
1.0
 70
     8
 71
     3
 72
    28
 73
    24
 74
     0
 42
0.00000001
 43
0.00000001
 40
0.0
 40
0.0
 40
0.0
 40
0.0
 40
0.0156250000000002
 40
0.0156250000000002
 40
0.0312500000000003
 40
0.0312500000000003
 40
0.0625000000000006
 40
0.0625000000000006
 40
0.1250000000000006
 40
0.1250000000000006
 40
0.2500000000000007
 40
0.2500000000000007
 40
0.5000000000000003
 40
0.5000000000000003
 40
0.6250000000000002
 40
0.6250000000000002
 40
0.7500000000000001
 40
0.7500000000000001
 40
0.875
 40
0.875
 40
0.9375
 40
0.9375
 40
1.0
 40
1.0
 40
1.0
 40
1.0
 10
161.0165734317896
 20
359.2367565455814
 30
0.0
 10
161.0165690611983
 20
359.1598777317038
 30
0.0
 10
161.0169498495277
 20
359.0806709806461
 30
0.0
 10
161.0184696711258
 20
358.9247874166277
 30
0.0
 10
161.0196086334913
 20
358.8469129053883
 30
0.0
 10
161.0241447360434
 20
358.6134877140174
 30
0.0
 10
161.0286577552589
 20
358.4581346439868
 30
0.0
 10
161.046682657265
 20
357.9928700899882
 30
0.0
 10
161.0646594344022
 20
357.6837500688754
 30
0.0
 10
161.1361717087939
 20
356.7595058417214
 30
0.0
 10
161.2073521754097
 20
356.1475083420328
 30
0.0
 10
161.4904854671644
 20
354.3238484023066
 30
0.0
 10
161.7718160392904
 20
353.1244802398401
 30
0.0
 10
162.335495469811
 20
351.3505365619771
 30
0.0
 10
162.548069667135
 20
350.761412295113
 30
0.0
 10
163.0153848043737
 20
349.6081188637909
 30
0.0
 10
163.2702868021643
 20
349.0425470199006
 30
0.0
 10
163.821486685421
 20
347.9329973927872
 30
0.0
 10
164.1179403853727
 20
347.3891020954493
 30
0.0
 10
164.592151464966
 20
346.5886717680098
 30
0.0
 10
164.7548129232022
 20
346.324256687682
 30
0.0
 10
165.0889900449154
 20
345.8000346600125
 30
0.0
 10
165.2605639938699
 20
345.5402536896562
 30
0.0
 10
165.4408695856632
 20
345.2850407004411
 30
0.0
  0
SPLINE
  5
A9
330
1F
100
AcDbEntity
  8
0
  6
Continuous
 62
     8
370
    18
100
AcDbSpline
210
0.0
220
0.0
230
1.0
 70
     8
 71
     3
 72
     8
 73
     4
 74
     0
 42
0.00000001
 43
0.00000001
 40
0.0
 40
0.0
 40
0.0
 40
0.0
 40
1.0
 40
1.0
 40
1.0
 40
1.0
 10
179.3439914632429
 20
286.1789304308849
 30
0.0
 10
181.2660120447145
 20
286.167502920633
 30
0.0
 10
183.1881964963989
 20
286.1575624888704
 30
0.0
 10
185.1104347819999
 20
286.1585474238339
 30
0.0
  0
SPLINE
  5
AA
330
1F
100
AcDbEntity
  8
0
  6
Continuous
 62
     8
370
    18
100
AcDbSpline
210
0.0
220
0.0
230
1.0
 70
     8
 71
     3
 72
    28
 73
    24
 74
     0
 42
0.00000001
 43
0.00000001
 40
0.0
 40
0.0
 40
0.0
 40
0.0
 40
0.1249999999999962
 40
0.1249999999999962
 40
0.187499999999996
 40
0.187499999999996
 40
0.2499999999999958
 40
0.2499999999999958
 40
0.3749999999999964
 40
0.3749999999999964
 40
0.4999999999999971
 40
0.4999999999999971
 40
0.6249999999999978
 40
0.6249999999999978
 40
0.6874999999999982
 40
0.6874999999999982
 40
0.7499999999999986
 40
0.7499999999999986
 40
0.812499999999999
 40
0.812499999999999
 40
0.8749999999999994
 40
0.8749999999999994
 40
1.0
 40
1.0
 40
1.0
 40
1.0
 10
169.282150668684
 20
296.0130386635312
 30
0.0
 10
169.2847591535364
 20
295.3642545418577
 30
0.0
 10
169.3522088864313
 20
294.7269213745234
 30
0.0
 10
169.5463097147868
 20
293.7865114039836
 30
0.0
 10
169.6266416505523
 20
293.4756957659048
 30
0.0
 10
169.8193123162323
 20
292.8594946460361
 30
0.0
 10
169.9322149019038
 20
292.5531993166176
 30
0.0
 10
170.3122398249318
 20
291.6622110376932
 30
0.0
 10
170.6218591860479
 20
291.0989523119202
 30
0.0
 10
171.3523646359306
 20
290.0331937223607
 30
0.0
 10
171.7773195571047
 20
289.5284713528548
 30
0.0
 10
172.7050217352874
 20
288.6235315298749
 30
0.0
 10
173.2111474529002
 20
288.217838536147
 30
0.0
 10
174.0336204357186
 20
287.6792794955622
 30
0.0
 10
174.318623339942
 20
287.5116658273453
 30
0.0
 10
174.8978553202468
 20
287.2075303750667
 30
0.0
 10
175.1935497844934
 20
287.0699379183076
 30
0.0
 10
175.7970762811982
 20
286.8237355119898
 30
0.0
 10
176.1048933691551
 20
286.7150931951263
 30
0.0
 10
176.7325947761229
 20
286.5266869478212
 30
0.0
 10
177.0535928813811
 20
286.4463226753839
 30
0.0
 10
178.0256155502573
 20
286.2511774280002
 30
0.0
 10
178.6810061798333
 20
286.1828722571039
 30
0.0
 10
179.3439914632431
 20
286.1789304308851
 30
0.0
  0
SPLINE
  5
AB
330
1F
100
AcDbEntity
  8
0
  6
Continuous
 62
     8
370
    18
100
AcDbSpline
210
0.0
220
0.0
230
1.0
 70
     8
 71
     3
 72
     8
 73
     4
 74
     0
 42
0.00000001
 43
0.00000001
 40
0.0
 40
0.0
 40
0.0
 40
0.0
 40
1.0
 40
1.0
 40
1.0
 40
1.0
 10
190.8768781007569
 20
286.1789304308849
 30
0.0
 10
188.9548575192853
 20
286.1675029206331
 30
0.0
 10
187.032673067601
 20
286.1575624888703
 30
0.0
 10
185.1104347819999
 20
286.1585474238339
 30
0.0
  0
SPLINE
  5
AC
330
1F
100
AcDbEntity
  8
0
  6
Continuous
 62
     8
370
    18
100
AcDbSpline
210
0.0
220
0.0
230
1.0
 70
     8
 71
     3
 72
    28
 73
    24
 74
     0
 42
0.00000001
 43
0.00000001
 40
0.0
 40
0.0
 40
0.0
 40
0.0
 40
0.0156250000000001
 40
0.0156250000000001
 40
0.0312500000000002
 40
0.0312500000000002
 40
0.0625000000000003
 40
0.0625000000000003
 40
0.1250000000000005
 40
0.1250000000000005
 40
0.2500000000000002
 40
0.2500000000000002
 40
0.5000000000000001
 40
0.5000000000000001
 40
0.6250000000000002
 40
0.6250000000000002
 40
0.7500000000000002
 40
0.7500000000000002
 40
0.8750000000000002
 40
0.8750000000000002
 40
0.9375000000000001
 40
0.9375000000000001
 40
1.0
 40
1.0
 40
1.0
 40
1.0
 10
209.2042961322108
 20
359.2367565455812
 30
0.0
 10
209.2043003971824
 20
359.1598777316976
 30
0.0
 10
209.2039197144726
 20
359.0806709806459
 30
0.0
 10
209.2023998928746
 20
358.9247874166276
 30
0.0
 10
209.2012609305091
 20
358.8469129053881
 30
0.0
 10
209.196724827957
 20
358.6134877140172
 30
0.0
 10
209.1922118087416
 20
358.4581346439866
 30
0.0
 10
209.1741869067354
 20
357.9928700899881
 30
0.0
 10
209.1562101295982
 20
357.6837500688752
 30
0.0
 10
209.0846978552064
 20
356.7595058417212
 30
0.0
 10
209.0135173885905
 20
356.1475083420326
 30
0.0
 10
208.7303840968364
 20
354.3238484023063
 30
0.0
 10
208.4490535247099
 20
353.12448023984
 30
0.0
 10
207.8853740941894
 20
351.3505365619769
 30
0.0
 10
207.6727998968651
 20
350.7614122951129
 30
0.0
 10
207.2054847596269
 20
349.6081188637907
 30
0.0
 10
206.9505827618359
 20
349.0425470199006
 30
0.0
 10
206.3993828785795
 20
347.9329973927871
 30
0.0
 10
206.1029291786276
 20
347.3891020954492
 30
0.0
 10
205.6287180990344
 20
346.5886717680097
 30
0.0
 10
205.4660566407983
 20
346.3242566876817
 30
0.0
 10
205.1318795190848
 20
345.8000346600124
 30
0.0
 10
204.9603055701304
 20
345.540253689656
 30
0.0
 10
204.7799999783371
 20
345.2850407004409
 30
0.0
  0
SPLINE
  5
AD
330
1F
100
AcDbEntity
  8
0
  6
Continuous
 62
     8
370
    18
100
AcDbSpline
210
0.0
220
0.0
230
1.0
 70
     8
 71
     3
 72
    16
 73
    12
 74
     0
 42
0.00000001
 43
0.00000001
 40
0.0
 40
0.0
 40
0.0
 40
0.0
 40
0.1249999999999996
 40
0.1249999999999996
 40
0.2499999999999992
 40
0.2499999999999992
 40
0.4999999999999994
 40
0.4999999999999994
 40
0.7499999999999997
 40
0.7499999999999997
 40
1.0
 40
1.0
 40
1.0
 40
1.0
 10
204.7765844683731
 20
345.2802080195002
 30
0.0
 10
204.4787395092827
 20
344.8589343800655
 30
0.0
 10
204.1906950998062
 20
344.431739943817
 30
0.0
 10
203.6513020247317
 20
343.555558263015
 30
0.0
 10
203.3985008116983
 20
343.107399622034
 30
0.0
 10
202.6912942814616
 20
341.7325656227756
 30
0.0
 10
202.2965009317714
 20
340.792514588556
 30
0.0
 10
201.6617198515383
 20
338.8746145375585
 30
0.0
 10
201.424121335712
 20
337.8947603534137
 30
0.0
 10
201.1046256580351
 20
335.8899520046324
 30
0.0
 10
201.0277225683554
 20
334.8842381749095
 30
0.0
 10
201.0209392932427
 20
333.8731024566296
 30
0.0
  0
SPLINE
  5
AE
330
1F
100
AcDbEntity
  8
0
  6
Continuous
 62
     8
370
    18
100
AcDbSpline
210
0.0
220
0.0
230
1.0
 70
     8
 71
     3
 72
    22
 73
    18
 74
     0
 42
0.00000001
 43
0.00000001
 40
0.0
 40
0.0
 40
0.0
 40
0.0
 40
0.0625
 40
0.0625
 40
0.1249999999999999
 40
0.1249999999999999
 40
0.25
 40
0.25
 40
0.5000000000000002
 40
0.5000000000000002
 40
0.7500000000000001
 40
0.7500000000000001
 40
0.875
 40
0.875
 40
0.9375
 40
0.9375
 40
1.0
 40
1.0
 40
1.0
 40
1.0
 10
201.0209234066939
 20
333.8708245978117
 30
0.0
 10
201.0156224104354
 20
333.0807381212739
 30
0.0
 10
201.0110038701614
 20
332.2917825303335
 30
0.0
 10
201.0036968566497
 20
330.7138732448832
 30
0.0
 10
201.0008585056927
 20
329.9251035163653
 30
0.0
 10
200.9942430122414
 20
327.5588918065918
 30
0.0
 10
200.9921638212694
 20
325.9816420430028
 30
0.0
 10
200.9858270738451
 20
321.2497033834371
 30
0.0
 10
200.9823978290149
 20
318.0950519754061
 30
0.0
 10
200.9729821356715
 20
311.7857455865223
 30
0.0
 10
200.967724230006
 20
308.6310698308747
 30
0.0
 10
200.9589207067919
 20
303.8991113543204
 30
0.0
 10
200.9558285366951
 20
302.3218091569649
 30
0.0
 10
200.9506980705484
 20
299.9559304471439
 30
0.0
 10
200.948880239011
 20
299.1673243939019
 30
0.0
 10
200.9444607880214
 20
297.5902451074892
 30
0.0
 10
200.9418910960567
 20
296.8020305833309
 30
0.0
 10
200.9387188953159
 20
296.0130386635311
 30
0.0
  0
SPLINE
  5
AF
330
1F
100
AcDbEntity
  8
0
  6
Continuous
 62
     8
370
    18
100
AcDbSpline
210
0.0
220
0.0
230
1.0
 70
     8
 71
     3
 72
    28
 73
    24
 74
     0
 42
0.00000001
 43
0.00000001
 40
0.0
 40
0.0
 40
0.0
 40
0.0
 40
0.1249999999999993
 40
0.1249999999999993
 40
0.1875000000000001
 40
0.1875000000000001
 40
0.2500000000000009
 40
0.2500000000000009
 40
0.3750000000000012
 40
0.3750000000000012
 40
0.5000000000000016
 40
0.5000000000000016
 40
0.6250000000000019
 40
0.6250000000000019
 40
0.6875000000000017
 40
0.6875000000000017
 40
0.7500000000000014
 40
0.7500000000000014
 40
0.8125000000000012
 40
0.8125000000000012
 40
0.875000000000001
 40
0.875000000000001
 40
1.0
 40
1.0
 40
1.0
 40
1.0
 10
200.9387188953159
 20
296.0130386635311
 30
0.0
 10
200.9361104104636
 20
295.3642545418576
 30
0.0
 10
200.868660677569
 20
294.7269213745232
 30
0.0
 10
200.6745598492131
 20
293.7865114039835
 30
0.0
 10
200.5942279134476
 20
293.4756957659048
 30
0.0
 10
200.4015572477676
 20
292.859494646036
 30
0.0
 10
200.2886546620963
 20
292.5531993166173
 30
0.0
 10
199.9086297390679
 20
291.6622110376932
 30
0.0
 10
199.5990103779519
 20
291.0989523119201
 30
0.0
 10
198.8685049280695
 20
290.0331937223605
 30
0.0
 10
198.4435500068948
 20
289.5284713528551
 30
0.0
 10
197.5158478287126
 20
288.6235315298748
 30
0.0
 10
197.0097221110993
 20
288.2178385361473
 30
0.0
 10
196.1872491282813
 20
287.6792794955622
 30
0.0
 10
195.9022462240601
 20
287.51166582734
 30
0.0
 10
195.3230142437517
 20
287.2075303750697
 30
0.0
 10
195.0273197795062
 20
287.0699379183084
 30
0.0
 10
194.4237932828016
 20
286.8237355119898
 30
0.0
 10
194.1159761948437
 20
286.7150931951292
 30
0.0
 10
193.4882747878783
 20
286.526686947818
 30
0.0
 10
193.1672766826187
 20
286.4463226753841
 30
0.0
 10
192.1952540137423
 20
286.2511774280021
 30
0.0
 10
191.5398633841666
 20
286.182872257104
 30
0.0
 10
190.8768781007568
 20
286.1789304308851
 30
0.0
  0
ARC
  5
B0
330
1F
100
AcDbEntity
  8
0
  6
Continuous
 62
     8
370
    18
100
AcDbCircle
 10
161.9284686196
 20
285.9185819312
 30
0.0
 40
28.94958018400332
100
AcDbArc
 50
358.1242410982
 51
0.5152776386
  0
LWPOLYLINE
  5
B1
330
1F
100
AcDbEntity
  8
0
  6
Continuous
 62
     8
370
    18
100
AcDbPolyline
 90
        9
 70
   128
 43
0.0
 10
201.9248388873
 20
295.7649769256
 10
201.9235790044
 20
295.809375996
 10
201.880568486
 20
295.8529580419
 10
201.7974684256
 20
295.8940398972
 10
201.6774881996
 20
295.9310349549
 10
201.5252615197
 20
295.9625144426
 10
201.346667476
 20
295.9872626027
 10
201.1486034825
 20
296.0043236458
 10
200.9387188953
 20
296.0130386635
  0
ARC
  5
B2
330
1F
100
AcDbEntity
  8
0
  6
Continuous
 62
     8
370
    18
100
AcDbCircle
 10
208.2924009445
 20
285.9185819312
 30
0.0
 40
28.94958018408807
100
AcDbArc
 50
179.4847223614
 51
181.8757589018
  0
LWPOLYLINE
  5
B3
330
1F
100
AcDbEntity
  8
0
  6
Continuous
 62
     8
370
    18
100
AcDbPolyline
 90
        9
 70
   128
 43
0.0
 10
168.2960306767
 20
295.7649769256
 10
168.2972905596
 20
295.809375996
 10
168.340301078
 20
295.8529580419
 10
168.4234011384
 20
295.8940398972
 10
168.5433813644
 20
295.9310349549
 10
168.6956080443
 20
295.9625144426
 10
168.874202088
 20
295.9872626027
 10
169.0722660815
 20
296.0043236458
 10
169.2821506687
 20
296.0130386635
  0
SPLINE
  5
B4
330
1F
100
AcDbEntity
  8
0
  6
Continuous
 62
     8
370
    18
100
AcDbSpline
210
0.0
220
0.0
230
1.0
 70
     8
 71
     3
 72
     8
 73
     4
 74
     0
 42
0.00000001
 43
0.00000001
 40
0.0
 40
0.0
 40
0.0
 40
0.0
 40
1.0
 40
1.0
 40
1.0
 40
1.0
 10
185.1104347820005
 20
284.9752146125437
 30
0.0
 10
183.192972256889
 20
284.975235088711
 30
0.0
 10
181.2755531439466
 20
284.9739758202584
 30
0.0
 10
179.3583332767503
 20
284.9709949779558
 30
0.0
  0
SPLINE
  5
B5
330
1F
100
AcDbEntity
  8
0
  6
Continuous
 62
     8
370
    18
100
AcDbSpline
210
0.0
220
0.0
230
1.0
 70
     8
 71
     3
 72
     8
 73
     4
 74
     0
 42
0.00000001
 43
0.00000001
 40
0.0
 40
0.0
 40
0.0
 40
0.0
 40
1.0
 40
1.0
 40
1.0
 40
1.0
 10
185.1104347819994
 20
284.9752146125437
 30
0.0
 10
187.0278973071104
 20
284.9752350887109
 30
0.0
 10
188.9453164200537
 20
284.9739758202584
 30
0.0
 10
190.8625362872496
 20
284.9709949779557
 30
0.0
  0
LINE
  5
B6
330
1F
100
AcDbEntity
  8
0
  6
Continuous
 62
     8
370
    18
100
AcDbLine
 10
190.8625362872
 20
284.970994978
 30
0.0
 11
190.8625362872
 21
284.9446243816
 31
0.0
  0
LINE
  5
B7
330
1F
100
AcDbEntity
  8
0
  6
Continuous
 62
     8
370
    18
100
AcDbLine
 10
179.3583332768
 20
284.970994978
 30
0.0
 11
179.3583332768
 21
284.9446243829
 31
0.0
  0
ARC
  5
B8
330
1F
100
AcDbEntity
  8
0
  6
Continuous
 62
     8
370
    18
100
AcDbCircle
 10
201.2265107105
 20
332.6896469583
 30
0.0
 40
1.198935676119663
100
AcDbArc
 50
53.0788469856
 51
99.8735804738
  0
ARC
  5
B9
330
1F
100
AcDbEntity
  8
0
  6
Continuous
 62
     8
370
    18
100
AcDbCircle
 10
168.9943413935
 20
332.6896675932
 30
0.0
 40
1.198912329144758
100
AcDbArc
 50
80.1254063898
 51
126.9209694457
  0
ARC
  5
BA
330
1F
100
AcDbEntity
  8
0
  6
Continuous
 62
     8
370
    18
100
AcDbCircle
 10
195.8800108631
 20
332.4211369579
 30
0.0
 40
15.63664703446846
100
AcDbArc
 50
52.0727545264
 51
55.3225013696
  0
ARC
  5
BB
330
1F
100
AcDbEntity
  8
0
  6
Continuous
 62
     8
370
    18
100
AcDbCircle
 10
174.3408913416
 20
332.4210834882
 30
0.0
 40
15.63670957807834
100
AcDbArc
 50
124.6774855476
 51
127.9272193705
  0
ARC
  5
BC
330
1F
100
AcDbEntity
  8
0
  6
Continuous
 62
     8
370
    18
100
AcDbCircle
 10
185.110434782
 20
359.236661871
 30
0.0
 40
24.09386044236571
100
AcDbArc
 50
0.000225136
 51
179.999774864
  0
SPLINE
  5
BD
330
1F
100
AcDbEntity
  8
0
  6
Continuous
 62
     8
370
    18
100
AcDbSpline
210
0.0
220
0.0
230
1.0
 70
     8
 71
     3
 72
    10
 73
     6
 74
     0
 42
0.00000001
 43
0.00000001
 40
0.0
 40
0.0
 40
0.0
 40
0.0
 40
0.5
 40
0.5
 40
1.0
 40
1.0
 40
1.0
 40
1.0
 10
209.2042961322108
 20
359.2367565455812
 30
0.0
 10
209.4550404098255
 20
359.2366893354313
 30
0.0
 10
209.6893702915047
 20
359.2364469880699
 30
0.0
 10
210.0177158852352
 20
359.2357231818599
 30
0.0
 10
210.1104346743435
 20
359.2352445819531
 30
0.0
 10
210.1104347454474
 20
359.2347590503571
 30
0.0
  0
SPLINE
  5
BE
330
1F
100
AcDbEntity
  8
0
  6
Continuous
 62
     8
370
    18
100
AcDbSpline
210
0.0
220
0.0
230
1.0
 70
     8
 71
     3
 72
    10
 73
     6
 74
     0
 42
0.00000001
 43
0.00000001
 40
0.0
 40
0.0
 40
0.0
 40
0.0
 40
0.5
 40
0.5
 40
1.0
 40
1.0
 40
1.0
 40
1.0
 10
160.1104348185537
 20
359.2347590496404
 30
0.0
 10
160.1104351030101
 20
359.2353283776125
 30
0.0
 10
160.2031540009007
 20
359.2358897443364
 30
0.0
 10
160.5314995933468
 20
359.2366485397801
 30
0.0
 10
160.7658293677556
 20
359.2368415024296
 30
0.0
 10
161.0165735108593
 20
359.2367565441168
 30
0.0
  0
CIRCLE
  5
BF
330
1F
100
AcDbEntity
  8
0
  6
Continuous
 62
     8
370
    18
100
AcDbCircle
 10
185.1104347826
 20
344.2116600791
 30
0.0
 40
73.35275294427498
  0
CIRCLE
  5
C0
330
1F
100
AcDbEntity
  8
0
  6
Continuous
 62
     8
370
    18
100
AcDbCircle
 10
185.1104347826
 20
344.2116600791
 30
0.0
 40
74.3419313045427
  0
LINE
  5
C1
330
1F
100
AcDbEntity
  8
0
  6
Continuous
 62
     7
370
    25
100
AcDbLine
 10
341.4576791677
 20
269.7116600791
 30
0.0
 11
347.4940791103
 21
269.8697287745
 31
0.0
  0
LINE
  5
C2
330
1F
100
AcDbEntity
  8
0
  6
Continuous
 62
     7
370
    25
100
AcDbLine
 10
347.4940791103
 20
418.5535913836
 30
0.0
 11
341.4576791677
 21
418.7116600791
 31
0.0
  0
ARC
  5
C3
330
1F
100
AcDbEntity
  8
0
  6
Continuous
 62
     7
370
    25
100
AcDbCircle
 10
347.467902162
 20
417.5539340586
 30
0.0
 40
0.999999999999589
100
AcDbArc
 50
0.6004114401
 51
88.5
  0
ARC
  5
C4
330
1F
100
AcDbEntity
  8
0
  6
Continuous
 62
     7
370
    25
100
AcDbCircle
 10
347.467902162
 20
270.8693860995
 30
0.0
 40
0.999999999999589
100
AcDbArc
 50
271.5
 51
359.3995885599
  0
ARC
  5
C5
330
1F
100
AcDbEntity
  8
0
  6
Continuous
 62
     7
370
    25
100
AcDbCircle
 10
-6651.147811738
 20
344.2116600791
 30
0.0
 40
7000.000000000001
100
AcDbArc
 50
0.3226493946
 51
0.6004114401
  0
ARC
  5
C6
330
1F
100
AcDbEntity
  8
0
  6
Continuous
 62
     7
370
    25
100
AcDbCircle
 10
-6651.147811738
 20
344.2116600791
 30
0.0
 40
7000.000000000001
100
AcDbArc
 50
359.3995885599
 51
359.9223312338
  0
LINE
  5
C7
330
1F
100
AcDbEntity
  8
0
  6
Continuous
 62
     7
370
    25
100
AcDbLine
 10
400.4712883522
 20
334.171047798
 30
0.0
 11
403.3758289775
 21
334.1801244874
 31
0.0
  0
LINE
  5
C8
330
1F
100
AcDbEntity
  8
0
  6
Continuous
 62
     7
370
    25
100
AcDbLine
 10
385.5119328089
 20
334.1242998119
 30
0.0
 11
392.5358415
 21
334.1462495266
 31
0.0
  0
LINE
  5
C9
330
1F
100
AcDbEntity
  8
0
  6
Continuous
 62
     7
370
    25
100
AcDbLine
 10
420.3090940513
 20
384.2332850808
 30
0.0
 11
391.471885274
 21
384.1431688034
 31
0.0
  0
ARC
  5
CA
330
1F
100
AcDbEntity
  8
0
  6
Continuous
 62
     7
370
    25
100
AcDbCircle
 10
420.3124907738
 20
383.1463338664
 30
0.0
 40
1.0869565217391
100
AcDbArc
 50
9.7548097849
 51
90.1790487281
  0
LINE
  5
CB
330
1F
100
AcDbEntity
  8
0
  6
Continuous
 62
     7
370
    25
100
AcDbLine
 10
378.4576791677
 20
383.711660079
 30
0.0
 11
348.7409148738
 21
383.711660079
 31
0.0
  0
LINE
  5
CC
330
1F
100
AcDbEntity
  8
0
  6
Continuous
 62
     7
370
    25
100
AcDbLine
 10
348.8457185039
 20
334.711660079
 30
0.0
 11
378.4576791677
 21
334.711660079
 31
0.0
  0
ARC
  5
CD
330
1F
100
AcDbEntity
  8
0
  6
Continuous
 62
     7
370
    25
100
AcDbCircle
 10
378.4576791677
 20
359.211660079
 30
0.0
 40
24.50000000000004
100
AcDbArc
 50
60.5112245665
 51
90.0
  0
ARC
  5
CE
330
1F
100
AcDbEntity
  8
0
  6
Continuous
 62
     7
370
    25
100
AcDbCircle
 10
378.4576791677
 20
359.211660079
 30
0.0
 40
24.5
100
AcDbArc
 50
270.0
 51
286.7216040764
  0
ARC
  5
CF
330
1F
100
AcDbEntity
  8
0
  6
Continuous
 62
     7
370
    25
100
AcDbCircle
 10
278.6408513783
 20
358.7904497525
 30
0.0
 40
144.8369565217396
100
AcDbArc
 50
0.1790054568
 51
9.7548097849
  0
SPLINE
  5
D0
330
1F
100
AcDbEntity
  8
0
  6
Continuous
 62
     7
370
    25
100
AcDbSpline
210
0.0
220
0.0
230
1.0
 70
     8
 71
     3
 72
    15
 73
    11
 74
     0
 42
0.00000001
 43
0.00000001
 40
0.0
 40
0.0
 40
0.0
 40
0.0
 40
0.0778499901884996
 40
0.1746069609103489
 40
0.2800928634398344
 40
0.3902808607698048
 40
0.5040820535010389
 40
0.6839986112346945
 40
0.8478892635068798
 40
1.0
 40
1.0
 40
1.0
 40
1.0
 10
433.2238020282836
 20
286.6456056989429
 30
0.0
 10
433.1595841544797
 20
287.2609444987432
 30
0.0
 10
433.0155521802449
 20
288.6410659027817
 30
0.0
 10
432.7208795452361
 20
290.9085533038261
 30
0.0
 10
432.3081603663475
 20
293.4658625034273
 30
0.0
 10
431.7912541868824
 20
296.1877140365831
 30
0.0
 10
431.1062091495319
 20
299.5251963249793
 30
0.0
 10
430.3188781561706
 20
303.2976477046661
 30
0.0
 10
429.4947053797616
 20
307.3617388702917
 30
0.0
 10
428.9908514988293
 20
309.8484092549229
 30
0.0
 10
428.7483159036126
 20
311.0453953349518
 30
0.0
  0
SPLINE
  5
D1
330
1F
100
AcDbEntity
  8
0
  6
Continuous
 62
     7
370
    25
100
AcDbSpline
210
0.0
220
0.0
230
1.0
 70
     8
 71
     3
 72
    11
 73
     7
 74
     0
 42
0.00000001
 43
0.00000001
 40
0.0
 40
0.0
 40
0.0
 40
0.0
 40
0.2416185872320571
 40
0.47789192455723
 40
0.7257229128095478
 40
1.0
 40
1.0
 40
1.0
 40
1.0
 10
426.7490183510541
 20
320.8097874286682
 30
0.0
 10
426.6252490674535
 20
321.4016051308944
 30
0.0
 10
426.3804486081072
 20
322.5721479436138
 30
0.0
 10
425.9656897397778
 20
324.5564863801357
 30
0.0
 10
425.544979974828
 20
326.6183516921701
 30
0.0
 10
425.2858262428848
 20
327.9318247051266
 30
0.0
 10
425.1496859798335
 20
328.6218265822121
 30
0.0
  0
ARC
  5
D2
330
1F
100
AcDbEntity
  8
0
  6
Continuous
 62
     7
370
    25
100
AcDbCircle
 10
403.4233830931
 20
318.9628074862
 30
0.0
 40
15.21739130434787
100
AcDbArc
 50
13.3790487281
 51
90.3232257974
  0
LINE
  5
D3
330
1F
100
AcDbEntity
  8
0
  6
Continuous
 62
     7
370
    25
100
AcDbLine
 10
392.5118870718
 20
334.1498731869
 30
0.0
 11
392.5126798757
 21
333.8961759258
 31
0.0
  0
LINE
  5
D4
330
1F
100
AcDbEntity
  8
0
  6
Continuous
 62
     7
370
    25
100
AcDbLine
 10
400.5126408135
 20
333.9211758037
 30
0.0
 11
400.5118396838
 21
334.1775372949
 31
0.0
  0
LINE
  5
D5
330
1F
100
AcDbEntity
  8
0
  6
Continuous
 62
     7
370
    25
100
AcDbLine
 10
392.5126798757
 20
333.8961759258
 30
0.0
 11
392.7331368767
 21
333.2963145516
 31
0.0
  0
LINE
  5
D6
330
1F
100
AcDbEntity
  8
0
  6
Continuous
 62
     7
370
    25
100
AcDbLine
 10
400.2959372152
 20
333.3199483027
 30
0.0
 11
400.5126408135
 21
333.9211758037
 31
0.0
  0
ARC
  5
D7
330
1F
100
AcDbEntity
  8
0
  6
Continuous
 62
     7
370
    25
100
AcDbCircle
 10
400.1077858472
 20
333.3877646924
 30
0.0
 40
0.2000000000000088
100
AcDbArc
 50
270.1790487281
 51
340.1790487281
  0
ARC
  5
D8
330
1F
100
AcDbEntity
  8
0
  6
Continuous
 62
     7
370
    25
100
AcDbCircle
 10
392.9208607216
 20
333.3653055513
 30
0.0
 40
0.2000000000000088
100
AcDbArc
 50
200.1790487281
 51
270.1790487281
  0
LINE
  5
D9
330
1F
100
AcDbEntity
  8
0
  6
Continuous
 62
     7
370
    25
100
AcDbLine
 10
392.9214857186
 20
333.1653065279
 30
0.0
 11
400.1084108441
 21
333.1877656689
 31
0.0
  0
LINE
  5
DA
330
1F
100
AcDbEntity
  8
0
  6
Continuous
 62
     7
370
    25
100
AcDbLine
 10
341.4576791677
 20
418.7116600791
 30
0.0
 11
341.4576791677
 21
269.7116600791
 31
0.0
  0
SPLINE
  5
DB
330
1F
100
AcDbEntity
  8
0
  6
Continuous
 62
     7
370
    25
100
AcDbSpline
210
0.0
220
0.0
230
1.0
 70
     8
 71
     3
 72
    21
 73
    17
 74
     0
 42
0.00000001
 43
0.00000001
 40
0.0
 40
0.0
 40
0.0
 40
0.0
 40
0.0705693239588035
 40
0.143185166021181
 40
0.2137544889693124
 40
0.2863703220216069
 40
0.3569397333268448
 40
0.4295556600186899
 40
0.5001251069789421
 40
0.5727410762711386
 40
0.6433104549399962
 40
0.7159263582985661
 40
0.7864955946598862
 40
0.8591113524478443
 40
0.9296804348533575
 40
1.0
 40
1.0
 40
1.0
 40
1.0
 10
348.7561178478231
 20
376.5358790548634
 30
0.0
 10
348.7582744219201
 20
375.5294913761124
 30
0.0
 10
348.7626501109986
 20
373.4875306659921
 30
0.0
 10
348.770327180319
 20
369.9049421948889
 30
0.0
 10
348.7786516572729
 20
366.0202295225142
 30
0.0
 10
348.7873332136029
 20
361.9688766704771
 30
0.0
 10
348.7962568394333
 20
357.8045538871269
 30
0.0
 10
348.8050161585867
 20
353.7169016767862
 30
0.0
 10
348.813519109996
 20
349.7488819313192
 30
0.0
 10
348.8213722654049
 20
346.0840941401567
 30
0.0
 10
348.8284953145698
 20
342.7600173311741
 30
0.0
 10
348.8345556364173
 20
339.9318753354673
 30
0.0
 10
348.8395013658956
 20
337.6238731056702
 30
0.0
 10
348.8430640166235
 20
335.9613052502239
 30
0.0
 10
348.8453301780698
 20
334.9037643719205
 30
0.0
 10
348.8455891136628
 20
334.7829278663689
 30
0.0
 10
348.8457183521687
 20
334.7226166158043
 30
0.0
  0
SPLINE
  5
DC
330
1F
100
AcDbEntity
  8
0
  6
Continuous
 62
     7
370
    25
100
AcDbSpline
210
0.0
220
0.0
230
1.0
 70
     8
 71
     3
 72
    13
 73
     9
 74
     0
 42
0.00000001
 43
0.00000001
 40
0.0
 40
0.0
 40
0.0
 40
0.0
 40
0.0845513182985713
 40
0.3023463442286021
 40
0.5140032007908044
 40
0.7317981092386472
 40
0.8651546517189731
 40
1.0
 40
1.0
 40
1.0
 40
1.0
 10
348.7409149227902
 20
383.6304723296697
 30
0.0
 10
348.740871610856
 20
383.6506842442134
 30
0.0
 10
348.7407167320765
 20
383.7229598585399
 30
0.0
 10
348.7420097314149
 20
383.1195697662574
 30
0.0
 10
348.7447472228046
 20
381.8420937315177
 30
0.0
 10
348.7484281918072
 20
380.1243341316953
 30
0.0
 10
348.752321968383
 20
378.3072648513605
 30
0.0
 10
348.7548478808427
 20
377.1285220791308
 30
0.0
 10
348.7561178478231
 20
376.5358790548634
 30
0.0
  0
LINE
  5
DD
330
1F
100
AcDbEntity
  8
0
  6
Continuous
 62
     7
370
    25
100
AcDbLine
 10
385.4319516899
 20
359.7182579141
 30
0.0
 11
385.5119328089
 21
334.1242998119
 31
0.0
  0
SPLINE
  5
DE
330
1F
100
AcDbEntity
  8
0
  6
Continuous
 62
     7
370
    25
100
AcDbSpline
210
0.0
220
0.0
230
1.0
 70
     8
 71
     3
 72
     8
 73
     4
 74
     0
 42
0.00000001
 43
0.00000001
 40
0.0
 40
0.0
 40
0.0
 40
0.0
 40
1.0
 40
1.0
 40
1.0
 40
1.0
 10
385.4319516898767
 20
359.718257914148
 30
0.0
 10
385.4286430532982
 20
360.7770216192641
 30
0.0
 10
385.5630920371652
 20
361.8123505395098
 30
0.0
 10
385.8311341110883
 20
362.8253490655859
 30
0.0
  0
LINE
  5
DF
330
1F
100
AcDbEntity
  8
0
  6
Continuous
 62
     7
370
    25
100
AcDbLine
 10
385.8311341111
 20
362.8253490656
 30
0.0
 11
391.471885274
 21
384.1431688034
 31
0.0
  0
SPLINE
  5
E0
330
1F
100
AcDbEntity
  8
0
  6
Continuous
 62
     7
370
    25
100
AcDbSpline
210
0.0
220
0.0
230
1.0
 70
     8
 71
     3
 72
    12
 73
     8
 74
     0
 42
0.00000001
 43
0.00000001
 40
0.0
 40
0.0
 40
0.0
 40
0.0
 40
0.2036980088857261
 40
0.4073433429364298
 40
0.6124825566686083
 40
0.8192604265695357
 40
0.9999999999999999
 40
0.9999999999999999
 40
0.9999999999999999
 40
0.9999999999999999
 10
396.7851702630427
 20
334.4800805477125
 30
0.0
 10
396.3375647982452
 20
334.4764612173796
 30
0.0
 10
395.4424696161927
 20
334.4692234926463
 30
0.0
 10
394.2072336876602
 20
334.3736045294586
 30
0.0
 10
393.2372659708247
 20
334.2589104088617
 30
0.0
 10
392.6133850847533
 20
334.1630665385838
 30
0.0
 10
392.5604969683824
 20
334.1541614118337
 30
0.0
 10
392.5358297546688
 20
334.1500080276756
 30
0.0
  0
SPLINE
  5
E1
330
1F
100
AcDbEntity
  8
0
  6
Continuous
 62
     7
370
    25
100
AcDbSpline
210
0.0
220
0.0
230
1.0
 70
     8
 71
     3
 72
    12
 73
     8
 74
     0
 42
0.00000001
 43
0.00000001
 40
0.0
 40
0.0
 40
0.0
 40
0.0
 40
0.1693140698889992
 40
0.3909258575285898
 40
0.6146038360660966
 40
0.840155726666987
 40
1.0
 40
1.0
 40
1.0
 40
1.0
 10
400.4712683187732
 20
334.1774584991164
 30
0.0
 10
400.4621531171327
 20
334.1789657012019
 30
0.0
 10
400.4411072110233
 20
334.1824456498447
 30
0.0
 10
399.8902777136403
 20
334.2650661278484
 30
0.0
 10
398.9686898646044
 20
334.3733789055892
 30
0.0
 10
397.8675920307281
 20
334.4588387285229
 30
0.0
 10
397.1024961784917
 20
334.4738532341815
 30
0.0
 10
396.7851702630427
 20
334.4800805477125
 30
0.0
  0
SPLINE
  5
E2
330
1F
100
AcDbEntity
  8
0
  6
Continuous
 62
     7
370
    25
100
AcDbSpline
210
0.0
220
0.0
230
1.0
 70
     8
 71
     3
 72
    15
 73
    11
 74
     0
 42
0.00000001
 43
0.00000001
 40
0.0
 40
0.0
 40
0.0
 40
0.0
 40
0.1245656216889269
 40
0.2469072566664912
 40
0.3638398579618863
 40
0.4849552865674358
 40
0.6100153200165175
 40
0.7346826656757599
 40
0.8597965855157853
 40
1.0
 40
1.0
 40
1.0
 40
1.0
 10
423.4771006934719
 20
359.2430630315654
 30
0.0
 10
423.4646539054542
 20
357.2199304206035
 30
0.0
 10
423.4399825535827
 20
353.2097860800357
 30
0.0
 10
422.9812103924488
 20
347.3128971991974
 30
0.0
 10
423.2067590112063
 20
341.4545553207641
 30
0.0
 10
423.8564940746519
 20
335.5903000636497
 30
0.0
 10
424.9233440058901
 20
329.660811294139
 30
0.0
 10
426.1447194775204
 20
323.6981105996387
 30
0.0
 10
427.4383386170422
 20
317.49878809118
 30
0.0
 10
428.2948455852648
 20
313.2764475129905
 30
0.0
 10
428.747455294239
 20
311.0452078252965
 30
0.0
  0
SPLINE
  5
E3
330
1F
100
AcDbEntity
  8
0
  6
Continuous
 62
     7
370
    18
100
AcDbSpline
210
0.0
220
0.0
230
1.0
 70
     8
 71
     3
 72
    16
 73
    12
 74
     0
 42
0.00000001
 43
0.00000001
 40
0.0
 40
0.0
 40
0.0
 40
0.0
 40
0.1119895436513859
 40
0.2239789763683527
 40
0.3359783213145911
 40
0.4479779896561503
 40
0.5598356332012626
 40
0.671702938491954
 40
0.7834682261813216
 40
0.8952497210702068
 40
0.9999999999999999
 40
0.9999999999999999
 40
0.9999999999999999
 40
0.9999999999999999
 10
431.1139738661707
 20
296.0130386635312
 30
0.0
 10
431.2322871308075
 20
295.4594407382961
 30
0.0
 10
431.4689135428826
 20
294.3522454362079
 30
0.0
 10
431.8162107210291
 20
292.7392839275433
 30
0.0
 10
432.1407279060958
 20
291.2216273461216
 30
0.0
 10
432.4362411930971
 20
289.8385998377678
 30
0.0
 10
432.692325854673
 20
288.6371341284803
 30
0.0
 10
432.905105550282
 20
287.6378482014894
 30
0.0
 10
433.0638762323968
 20
286.8909034596699
 30
0.0
 10
433.1759445057143
 20
286.3665580538542
 30
0.0
 10
433.202366456746
 20
286.2861220534819
 30
0.0
 10
433.2151484456967
 20
286.2472100114919
 30
0.0
  0
LINE
  5
E4
330
1F
100
AcDbEntity
  8
0
  6
Continuous
 62
     7
370
    25
100
AcDbLine
 10
426.103265612
 20
289.3724730886
 30
0.0
 11
424.8705804222
 21
294.5551496537
 31
0.0
  0
ARC
  5
E5
330
1F
100
AcDbEntity
  8
0
  6
Continuous
 62
     7
370
    25
100
AcDbCircle
 10
431.707788381
 20
290.7054932234
 30
0.0
 40
5.760869565217407
100
AcDbArc
 50
193.3790487281
 51
275.4843523898
  0
SPLINE
  5
E6
330
1F
100
AcDbEntity
  8
0
  6
Continuous
 62
     7
370
    25
100
AcDbSpline
210
0.0
220
0.0
230
1.0
 70
    24
 71
     3
 72
     8
 73
     4
 74
     0
 42
0.00000001
 43
0.00000001
 40
0.0
 40
0.0
 40
0.0
 40
0.0
 40
1.0
 40
1.0
 40
1.0
 40
1.0
 10
417.8883315197324
 20
323.9111750662612
 30
0.0
 10
420.2157478205489
 20
314.125833262069
 30
0.0
 10
422.5431641213652
 20
304.3404914578767
 30
0.0
 10
424.8705804221816
 20
294.5551496536843
 30
0.0
  0
SPLINE
  5
E7
330
1F
100
AcDbEntity
  8
0
  6
Continuous
 62
     7
370
    25
100
AcDbSpline
210
0.0
220
0.0
230
1.0
 70
     8
 71
     3
 72
    12
 73
     8
 74
     0
 42
0.00000001
 43
0.00000001
 40
0.0
 40
0.0
 40
0.0
 40
0.0
 40
0.2500000000000024
 40
0.2500000000000024
 40
0.5000000000000048
 40
0.5000000000000048
 40
1.0
 40
1.0
 40
1.0
 40
1.0
 10
433.2709630116626
 20
286.1585474238338
 30
0.0
 10
433.2843747217483
 20
286.0164652851267
 30
0.0
 10
433.2697579904531
 20
285.874462706343
 30
0.0
 10
433.1870423581609
 20
285.6035411272848
 30
0.0
 10
433.1189308087947
 20
285.4765422351288
 30
0.0
 10
432.850903451478
 20
285.1494250416723
 30
0.0
 10
432.5845957777479
 20
285.0045901573141
 30
0.0
 10
432.300683978449
 20
284.9752146125438
 30
0.0
  0
SPLINE
  5
E8
330
1F
100
AcDbEntity
  8
0
  6
Continuous
 62
     7
370
    25
100
AcDbSpline
210
0.0
220
0.0
230
1.0
 70
     8
 71
     3
 72
     8
 73
     4
 74
     0
 42
0.00000001
 43
0.00000001
 40
0.0
 40
0.0
 40
0.0
 40
0.0
 40
1.0
 40
1.0
 40
1.0
 40
1.0
 10
432.3006839784491
 20
284.9752146125437
 30
0.0
 10
432.3008818786258
 20
284.975235088711
 30
0.0
 10
432.2894232757272
 20
284.9739758202584
 30
0.0
 10
432.2583771753943
 20
284.9709949779558
 30
0.0
  0
LINE
  5
E9
330
1F
100
AcDbEntity
  8
0
  6
Continuous
 62
     7
370
    25
100
AcDbLine
 10
396.786953224
 20
333.90953303
 30
0.0
 11
400.5126408135
 21
333.9211758037
 31
0.0
  0
LINE
  5
EA
330
1F
100
AcDbEntity
  8
0
  6
Continuous
 62
     7
370
    25
100
AcDbLine
 10
392.5126798757
 20
333.8961759258
 30
0.0
 11
396.786953224
 21
333.90953303
 31
0.0
  0
LINE
  5
EB
330
1F
100
AcDbEntity
  8
0
  6
Continuous
 62
     8
370
    18
100
AcDbLine
 10
348.4678472561
 20
417.5644130233
 30
0.0
 11
348.4678472561
 21
270.8589071348
 31
0.0
  0
LINE
  5
EC
330
1F
100
AcDbEntity
  8
0
  6
Continuous
 62
     8
370
    18
100
AcDbLine
 10
403.3758289775
 20
334.1801244874
 30
0.0
 11
403.0380664215
 21
335.0668957737
 31
0.0
  0
LINE
  5
ED
330
1F
100
AcDbEntity
  8
0
  6
Continuous
 62
     8
370
    18
100
AcDbLine
 10
420.3872186698
 20
359.2334071502
 30
0.0
 11
420.3090940513
 21
384.2332850808
 31
0.0
  0
SPLINE
  5
EE
330
1F
100
AcDbEntity
  8
0
  6
Continuous
 62
     8
370
    18
100
AcDbSpline
210
0.0
220
0.0
230
1.0
 70
     8
 71
     3
 72
    18
 73
    14
 74
     0
 42
0.00000001
 43
0.00000001
 40
0.0
 40
0.0
 40
0.0
 40
0.0
 40
0.1250000000000002
 40
0.1250000000000002
 40
0.2500000000000003
 40
0.2500000000000003
 40
0.3750000000000003
 40
0.3750000000000003
 40
0.5000000000000003
 40
0.5000000000000003
 40
0.7500000000000002
 40
0.7500000000000002
 40
1.0
 40
1.0
 40
1.0
 40
1.0
 10
420.4573050694814
 20
344.7602694551923
 30
0.0
 10
420.4490745485484
 20
345.2890775776767
 30
0.0
 10
420.4434955389438
 20
345.8297354925659
 30
0.0
 10
420.4301716107573
 20
346.9341871689722
 30
0.0
 10
420.4256345858611
 20
347.4980024821804
 30
0.0
 10
420.4192400892841
 20
348.648710949946
 30
0.0
 10
420.41723761754
 20
349.2356028125133
 30
0.0
 10
420.413511829519
 20
350.4327718539743
 30
0.0
 10
420.4118283592388
 20
351.0445182025864
 30
0.0
 10
420.4065682374923
 20
352.8865339092004
 30
0.0
 10
420.4030514653876
 20
354.1319730571558
 30
0.0
 10
420.3954021434438
 20
356.6568212470856
 30
0.0
 10
420.3897750617663
 20
357.9362217335487
 30
0.0
 10
420.3872183717623
 20
359.2334071496542
 30
0.0
  0
SPLINE
  5
EF
330
1F
100
AcDbEntity
  8
0
  6
Continuous
 62
     8
370
    18
100
AcDbSpline
210
0.0
220
0.0
230
1.0
 70
     8
 71
     3
 72
    55
 73
    51
 74
     0
 42
0.00000001
 43
0.00000001
 40
0.0
 40
0.0
 40
0.0
 40
0.0
 40
0.0183779311317714
 40
0.0355657321391175
 40
0.0515648563645911
 40
0.0663771092221355
 40
0.0800047700482538
 40
0.0924507712520551
 40
0.103718970071014
 40
0.1138145761344358
 40
0.1227448537958825
 40
0.1305203366540103
 40
0.1371570615997134
 40
0.1470822362853837
 40
0.1569923629813424
 40
0.1668921109741364
 40
0.176786164244535
 40
0.1866792148621961
 40
0.1965759563230499
 40
0.2064810768765424
 40
0.2163992528901063
 40
0.2263351422975559
 40
0.2362933781767639
 40
0.2462785624998622
 40
0.2562952600964559
 40
0.2663479928669798
 40
0.2764412342795109
 40
0.2865794041791221
 40
0.2967668639343443
 40
0.307007911940668
 40
0.3173067794962529
 40
0.3276676270603597
 40
0.3380945409004571
 40
0.3485915301296258
 40
0.3591625241318704
 40
0.3698113703692245
 40
0.3805418325612521
 40
0.3913575892246547
 40
0.4022622325582249
 40
0.5006196777830734
 40
0.6010023744610641
 40
0.7057217639905133
 40
0.7415995752934651
 40
0.7775896551256455
 40
0.8137672834315487
 40
0.8502065791041611
 40
0.8869800799820609
 40
0.9241583687213224
 40
0.9618097523349176
 40
1.0
 40
1.0
 40
1.0
 40
1.0
 10
403.0380664215357
 20
335.066895773696
 30
0.0
 10
403.0215459584386
 20
335.1121296508697
 30
0.0
 10
402.9895748752348
 20
335.1996681201153
 30
0.0
 10
402.9481309514238
 20
335.3380000430697
 30
0.0
 10
402.9136144229604
 20
335.4739165847682
 30
0.0
 10
402.886312478218
 20
335.60654501087
 30
0.0
 10
402.8661559996327
 20
335.7341733980971
 30
0.0
 10
402.8531473556908
 20
335.8554563805541
 30
0.0
 10
402.8473003062057
 20
335.9691225423568
 30
0.0
 10
402.8485123201713
 20
336.074049589433
 30
0.0
 10
402.8570328994172
 20
336.1692226969502
 30
0.0
 10
402.8719826647732
 20
336.2538191288222
 30
0.0
 10
402.9010880884057
 20
336.3431272836562
 30
0.0
 10
402.9447083553785
 20
336.4414853412759
 30
0.0
 10
402.9967572107881
 20
336.5543290533561
 30
0.0
 10
403.0552848062281
 20
336.6690898214372
 30
0.0
 10
403.1193550987693
 20
336.7857704327734
 30
0.0
 10
403.1892187454383
 20
336.904299329691
 30
0.0
 10
403.264808784857
 20
337.0246253562161
 30
0.0
 10
403.3461432994492
 20
337.14669241233
 30
0.0
 10
403.4332175588681
 20
337.2704462577253
 30
0.0
 10
403.5260329321376
 20
337.3958327021471
 30
0.0
 10
403.6245891334986
 20
337.5227981043639
 30
0.0
 10
403.7288863053489
 20
337.6512892511972
 30
0.0
 10
403.8389244603736
 20
337.7812534023902
 30
0.0
 10
403.9547036332789
 20
337.9126382903078
 30
0.0
 10
404.0762238418326
 20
338.045392131146
 30
0.0
 10
404.2034850992835
 20
338.1794636324177
 30
0.0
 10
404.336487412847
 20
338.3148020007387
 30
0.0
 10
404.475230786333
 20
338.4513569490875
 30
0.0
 10
404.6197152200265
 20
338.5890787027868
 30
0.0
 10
404.7699407171273
 20
338.727918008096
 30
0.0
 10
404.9259072660517
 20
338.8678261285149
 30
0.0
 10
405.0876149129634
 20
339.0087548850622
 30
0.0
 10
405.2550634936834
 20
339.1506565284794
 30
0.0
 10
405.4282536497134
 20
339.2934842431349
 30
0.0
 10
405.6071829981351
 20
339.4371902651106
 30
0.0
 10
405.7918605955156
 20
339.5817330049416
 30
0.0
 10
406.4906264606749
 20
340.1150685448198
 30
0.0
 10
407.8447143586369
 20
341.0323486867023
 30
0.0
 10
410.0912812406281
 20
342.2252019146232
 30
0.0
 10
412.0496525047384
 20
343.0181017086195
 30
0.0
 10
413.5409255662772
 20
343.5120218700121
 30
0.0
 10
414.4706191819485
 20
343.7844794690674
 30
0.0
 10
415.4199328977662
 20
344.0272337510889
 30
0.0
 10
416.3889859989768
 20
344.2392237472192
 30
0.0
 10
417.3777162306887
 20
344.419871118002
 30
0.0
 10
418.3861965485726
 20
344.5677239510102
 30
0.0
 10
419.4141406548949
 20
344.6852557972839
 30
0.0
 10
420.1077971662648
 20
344.7351377827177
 30
0.0
 10
420.4570896790588
 20
344.7602559842335
 30
0.0
  0
SPLINE
  5
F0
330
1F
100
AcDbEntity
  8
0
  6
Continuous
 62
     8
370
    18
100
AcDbSpline
210
0.0
220
0.0
230
1.0
 70
     8
 71
     3
 72
    28
 73
    24
 74
     0
 42
0.00000001
 43
0.00000001
 40
0.0
 40
0.0
 40
0.0
 40
0.0
 40
0.0156250000000002
 40
0.0156250000000002
 40
0.0312500000000003
 40
0.0312500000000003
 40
0.0625000000000006
 40
0.0625000000000006
 40
0.1250000000000006
 40
0.1250000000000006
 40
0.2500000000000007
 40
0.2500000000000007
 40
0.5000000000000003
 40
0.5000000000000003
 40
0.6250000000000002
 40
0.6250000000000002
 40
0.7500000000000001
 40
0.7500000000000001
 40
0.875
 40
0.875
 40
0.9375
 40
0.9375
 40
1.0
 40
1.0
 40
1.0
 40
1.0
 10
421.4590251785439
 20
359.2367565455814
 30
0.0
 10
421.4591719516824
 20
359.1598777317038
 30
0.0
 10
421.4593881092407
 20
359.0806709806461
 30
0.0
 10
421.4598801746545
 20
358.9247874166277
 30
0.0
 10
421.4601583507306
 20
358.8469129053883
 30
0.0
 10
421.4609922702487
 20
358.6134877140174
 30
0.0
 10
421.4615003655069
 20
358.4581346439868
 30
0.0
 10
421.4629203938468
 20
357.9928700899882
 30
0.0
 10
421.4639014005537
 20
357.6837500688754
 30
0.0
 10
421.4668492193117
 20
356.7595058417214
 30
0.0
 10
421.4687209990709
 20
356.1475083420328
 30
0.0
 10
421.4742304584061
 20
354.3238484023066
 30
0.0
 10
421.4776516065863
 20
353.1244802398401
 30
0.0
 10
421.4827189737995
 20
351.3505365619771
 30
0.0
 10
421.4843345715979
 20
350.761412295113
 30
0.0
 10
421.4878828593722
 20
349.6081188637909
 30
0.0
 10
421.4897597569092
 20
349.0425470199006
 30
0.0
 10
421.495724462114
 20
347.9329973927872
 30
0.0
 10
421.4999926359318
 20
347.3891020954493
 30
0.0
 10
421.5091268131434
 20
346.5886717680098
 30
0.0
 10
421.5124301442858
 20
346.324256687682
 30
0.0
 10
421.5179912617672
 20
345.8000346600125
 30
0.0
 10
421.5196203662869
 20
345.5402536896562
 30
0.0
 10
421.5235911049611
 20
345.2850407004411
 30
0.0
  0
LINE
  5
F1
330
1F
100
AcDbEntity
  8
0
  6
Continuous
 62
     8
370
    18
100
AcDbLine
 10
421.3837319035
 20
383.3304993418
 30
0.0
 11
421.4590248497
 21
359.2367565446
 31
0.0
  0
LINE
  5
F2
330
1F
100
AcDbEntity
  8
0
  6
Continuous
 62
     8
370
    18
100
AcDbLine
 10
378.4576791677
 20
383.711660079
 30
0.0
 11
378.4576791677
 21
334.711660079
 31
0.0
  0
SPLINE
  5
F3
330
1F
100
AcDbEntity
  8
0
  6
Continuous
 62
     8
370
    18
100
AcDbSpline
210
0.0
220
0.0
230
1.0
 70
     8
 71
     3
 72
    22
 73
    18
 74
     0
 42
0.00000001
 43
0.00000001
 40
0.0
 40
0.0
 40
0.0
 40
0.0
 40
0.0625000000000002
 40
0.0625000000000002
 40
0.1250000000000005
 40
0.1250000000000005
 40
0.2500000000000008
 40
0.2500000000000008
 40
0.5000000000000006
 40
0.5000000000000006
 40
0.7500000000000003
 40
0.7500000000000003
 40
0.8750000000000004
 40
0.8750000000000004
 40
0.9375000000000002
 40
0.9375000000000002
 40
1.0
 40
1.0
 40
1.0
 40
1.0
 10
422.9962482044556
 20
333.8708245978119
 30
0.0
 10
423.1588288250877
 20
333.080738121274
 30
0.0
 10
423.3267214592901
 20
332.2917825303336
 30
0.0
 10
423.6625455040685
 20
330.7138732448832
 30
0.0
 10
423.8313370027445
 20
329.9251035163654
 30
0.0
 10
424.3381978664334
 20
327.5588918065919
 30
0.0
 10
424.6771948658234
 20
325.9816420430029
 30
0.0
 10
425.6932950353842
 20
321.2497033834371
 30
0.0
 10
426.3705824797281
 20
318.0950519754063
 30
0.0
 10
427.7251192466841
 20
311.7857455865223
 30
0.0
 10
428.402277968061
 20
308.6310698308748
 30
0.0
 10
429.4182651463898
 20
303.8991113543206
 30
0.0
 10
429.7570067353765
 20
302.321809156965
 30
0.0
 10
430.2654622402979
 20
299.9559304471439
 30
0.0
 10
430.4350404732361
 20
299.167324393902
 30
0.0
 10
430.7748087348285
 20
297.5902451074893
 30
0.0
 10
430.9462035252261
 20
296.8020305833309
 30
0.0
 10
431.1139738661707
 20
296.0130386635312
 30
0.0
  0
SPLINE
  5
F4
330
1F
100
AcDbEntity
  8
0
  6
Continuous
 62
     8
370
    18
100
AcDbSpline
210
0.0
220
0.0
230
1.0
 70
     8
 71
     3
 72
    16
 73
    12
 74
     0
 42
0.00000001
 43
0.00000001
 40
0.0
 40
0.0
 40
0.0
 40
0.0
 40
0.125
 40
0.125
 40
0.25
 40
0.25
 40
0.5
 40
0.5
 40
0.75
 40
0.75
 40
1.0
 40
1.0
 40
1.0
 40
1.0
 10
421.5236665877201
 20
345.2802080195003
 30
0.0
 10
421.5302719343095
 20
344.8589343800657
 30
0.0
 10
421.538486952679
 20
344.4317399438173
 30
0.0
 10
421.5706659186338
 20
343.5555582630139
 30
0.0
 10
421.5931268748477
 20
343.1073996220342
 30
0.0
 10
421.683691326292
 20
341.7325656227742
 30
0.0
 10
421.7741015480566
 20
340.7925145885608
 30
0.0
 10
422.0327552145548
 20
338.874614537554
 30
0.0
 10
422.200794347835
 20
337.894760353414
 30
0.0
 10
422.5803152673084
 20
335.8899520046323
 30
0.0
 10
422.7877284611087
 20
334.8842381749096
 30
0.0
 10
422.9957794024731
 20
333.8731024566297
 30
0.0
  0
LINE
  5
F5
330
1F
100
AcDbEntity
  8
0
  6
Continuous
 62
     8
370
    18
100
AcDbLine
 10
428.7474552942
 20
311.0452078253
 30
0.0
 11
428.8970143815
 21
310.3116270168
 31
0.0
  0
SPLINE
  5
F6
330
1F
100
AcDbEntity
  8
0
  6
Continuous
 62
     8
370
    18
100
AcDbSpline
210
0.0
220
0.0
230
1.0
 70
     8
 71
     3
 72
     8
 73
     4
 74
     0
 42
0.00000001
 43
0.00000001
 40
0.0
 40
0.0
 40
0.0
 40
0.0
 40
1.0
 40
1.0
 40
1.0
 40
1.0
 10
433.2340313886713
 20
286.1789304308849
 30
0.0
 10
433.2608989791228
 20
286.167502920633
 30
0.0
 10
433.2712185259981
 20
286.1575624888704
 30
0.0
 10
433.2709630116626
 20
286.1585474238339
 30
0.0
  0
LINE
  5
F7
330
1F
100
AcDbEntity
  8
0
  6
Continuous
 62
     8
370
    18
100
AcDbLine
 10
433.2151484457
 20
286.2472100115
 30
0.0
 11
433.2340313887
 21
286.1789304309
 31
0.0
  0
SPLINE
  5
F8
330
1F
100
AcDbEntity
  8
0
  6
Continuous
 62
     8
370
    18
100
AcDbSpline
210
0.0
220
0.0
230
1.0
 70
     8
 71
     3
 72
     8
 73
     4
 74
     0
 42
0.00000001
 43
0.00000001
 40
0.0
 40
0.0
 40
0.0
 40
0.0
 40
1.0
 40
1.0
 40
1.0
 40
1.0
 10
421.9113335802625
 20
333.6504466496996
 30
0.0
 10
421.7818909690411
 20
334.1710110874191
 30
0.0
 10
421.6566857289728
 20
334.6927613354225
 30
0.0
 10
421.5388747886202
 20
335.2145962304209
 30
0.0
  0
SPLINE
  5
F9
330
1F
100
AcDbEntity
  8
0
  6
Continuous
 62
     8
370
    18
100
AcDbSpline
210
0.0
220
0.0
230
1.0
 70
     8
 71
     3
 72
    16
 73
    12
 74
     0
 42
0.00000001
 43
0.00000001
 40
0.0
 40
0.0
 40
0.0
 40
0.0
 40
0.0625000000000052
 40
0.0625000000000052
 40
0.1250000000000104
 40
0.1250000000000104
 40
0.250000000000018
 40
0.250000000000018
 40
0.5000000000000294
 40
0.5000000000000294
 40
1.0
 40
1.0
 40
1.0
 40
1.0
 10
421.5388747886202
 20
335.2145962304209
 30
0.0
 10
421.5359790442578
 20
335.2275092129265
 30
0.0
 10
421.5352254101923
 20
335.2407221646233
 30
0.0
 10
421.5308871717982
 20
335.2667083731398
 30
0.0
 10
421.5285184272585
 20
335.2796607592684
 30
0.0
 10
421.5211632835826
 20
335.3184649374857
 30
0.0
 10
421.5159570813523
 20
335.3442695142003
 30
0.0
 10
421.5002189821081
 20
335.4216447551892
 30
0.0
 10
421.4894969926887
 20
335.4731629790839
 30
0.0
 10
421.4572140590108
 20
335.6276356861678
 30
0.0
 10
421.4363046068351
 20
335.7307128009201
 30
0.0
 10
421.4122526756533
 20
335.8329873704802
 30
0.0
  0
SPLINE
  5
FA
330
1F
100
AcDbEntity
  8
0
  6
Continuous
 62
     8
370
    18
100
AcDbSpline
210
0.0
220
0.0
230
1.0
 70
     8
 71
     3
 72
    23
 73
    19
 74
     0
 42
0.00000001
 43
0.00000001
 40
0.0
 40
0.0
 40
0.0
 40
0.0
 40
0.015625000000003
 40
0.015625000000003
 40
0.031250000000006
 40
0.0625000000000084
 40
0.0625000000000084
 40
0.1250000000000098
 40
0.1250000000000098
 40
0.2500000000000096
 40
0.2500000000000096
 40
0.5000000000000062
 40
0.5000000000000062
 40
0.6250000000000047
 40
0.6250000000000047
 40
0.7500000000000031
 40
0.7500000000000031
 40
1.0
 40
1.0
 40
1.0
 40
1.0
 10
421.4122526756533
 20
335.8329873704802
 30
0.0
 10
421.4006599216822
 20
335.8823935286222
 30
0.0
 10
421.3913907111304
 20
335.9322344206527
 30
0.0
 10
421.370730119854
 20
336.0314453418108
 30
0.0
 10
421.3399428722797
 20
336.1802259083331
 30
0.0
 10
421.3097548053598
 20
336.3288957845202
 30
0.0
 10
421.2501817101773
 20
336.6260863864361
 30
0.0
 10
421.2116109429706
 20
336.8237987313013
 30
0.0
 10
421.0998597258389
 20
337.4139424022779
 30
0.0
 10
421.030606803715
 20
337.8040906672496
 30
0.0
 10
420.8406687645347
 20
338.9650462762802
 30
0.0
 10
420.7394117983561
 20
339.7265718698268
 30
0.0
 10
420.62647835174
 20
340.8504324111623
 30
0.0
 10
420.594883642593
 20
341.2219264455915
 30
0.0
 10
420.5423231667177
 20
341.9583973963259
 30
0.0
 10
420.5213445203228
 20
342.3240340483979
 30
0.0
 10
420.4727539739161
 20
343.3989370064749
 30
0.0
 10
420.4622749531516
 20
344.0899593784695
 30
0.0
 10
420.4573812216412
 20
344.7551972704888
 30
0.0
  0
SPLINE
  5
FB
330
1F
100
AcDbEntity
  8
0
  6
Continuous
 62
     8
370
    18
100
AcDbSpline
210
0.0
220
0.0
230
1.0
 70
     8
 71
     3
 72
    30
 73
    26
 74
     0
 42
0.00000001
 43
0.00000001
 40
0.0
 40
0.0
 40
0.0
 40
0.0
 40
0.1249999999999989
 40
0.1249999999999989
 40
0.1874999999999986
 40
0.1874999999999986
 40
0.2499999999999983
 40
0.2499999999999983
 40
0.312499999999998
 40
0.312499999999998
 40
0.3749999999999977
 40
0.3749999999999977
 40
0.4999999999999987
 40
0.4999999999999987
 40
0.5624999999999987
 40
0.5624999999999987
 40
0.6249999999999987
 40
0.6249999999999987
 40
0.7499999999999987
 40
0.7499999999999987
 40
0.8124999999999987
 40
0.8124999999999987
 40
0.8749999999999987
 40
0.8749999999999987
 40
1.0
 40
1.0
 40
1.0
 40
1.0
 10
432.2583771753943
 20
284.9709949779558
 30
0.0
 10
432.2477223466303
 20
284.9699719713957
 30
0.0
 10
432.2276559796498
 20
285.0393179893896
 30
0.0
 10
432.17871419881
 20
285.2477155944216
 30
0.0
 10
432.1592670086305
 20
285.3346232462483
 30
0.0
 10
432.1145431898564
 20
285.5400564548198
 30
0.0
 10
432.0892215290659
 20
285.6588503324543
 30
0.0
 10
432.0323647093672
 20
285.9281505457848
 30
0.0
 10
432.0008077387284
 20
286.0786543166178
 30
0.0
 10
431.9309171057886
 20
286.41183426635
 30
0.0
 10
431.8923322017588
 20
286.5956742453914
 30
0.0
 10
431.7679387449361
 20
287.1873255254617
 30
0.0
 10
431.6740460419389
 20
287.6340439677606
 30
0.0
 10
431.517181767009
 20
288.3808281019878
 30
0.0
 10
431.462145119487
 20
288.6426239458851
 30
0.0
 10
431.3463789564802
 20
289.1927915351216
 30
0.0
 10
431.2862165284849
 20
289.4784726730042
 30
0.0
 10
431.1007767277231
 20
290.3581860016901
 30
0.0
 10
430.9699169107539
 20
290.9780464716399
 30
0.0
 10
430.7627154855045
 20
291.9584122948026
 30
0.0
 10
430.6914362098162
 20
292.2954305048952
 30
0.0
 10
430.5479315314218
 20
292.9734398996634
 30
0.0
 10
430.4754983638578
 20
293.3154164141934
 30
0.0
 10
430.2562488116891
 20
294.3500736018319
 30
0.0
 10
430.1067912560064
 20
295.0512577458334
 30
0.0
 10
429.9571536216507
 20
295.7649769256012
 30
0.0
  0
ARC
  5
FC
330
1F
100
AcDbEntity
  8
0
  6
Continuous
 62
     8
370
    18
100
AcDbCircle
 10
432.1544483967
 20
286.052926259
 30
0.0
 40
1.086911444337481
100
AcDbArc
 50
275.4869159609
 51
6.657190808
  0
SPLINE
  5
FD
330
1F
100
AcDbEntity
  8
0
  6
Continuous
 62
     8
370
    18
100
AcDbSpline
210
0.0
220
0.0
230
1.0
 70
     8
 71
     3
 72
    22
 73
    18
 74
     0
 42
0.00000001
 43
0.00000001
 40
0.0
 40
0.0
 40
0.0
 40
0.0
 40
0.0625000000000002
 40
0.0625000000000002
 40
0.1250000000000003
 40
0.1250000000000003
 40
0.2500000000000006
 40
0.2500000000000006
 40
0.5000000000000003
 40
0.5000000000000003
 40
0.75
 40
0.75
 40
0.8749999999999999
 40
0.8749999999999999
 40
0.9375
 40
0.9375
 40
1.0
 40
1.0
 40
1.0
 40
1.0
 10
429.9571536216507
 20
295.7649769256012
 30
0.0
 10
429.7938871561464
 20
296.5551176582229
 30
0.0
 10
429.6257936393808
 20
297.3442640287005
 30
0.0
 10
429.2926364106902
 20
298.9231692919572
 30
0.0
 10
429.1260867911267
 20
299.7126282229206
 30
0.0
 10
428.6259121527339
 20
302.080893476126
 30
0.0
 10
428.2915960525147
 20
303.659553088884
 30
0.0
 10
427.2863297769376
 20
308.3950394715355
 30
0.0
 10
426.612885972971
 20
311.5513363839117
 30
0.0
 10
425.2634922521545
 20
317.8633973519351
 30
0.0
 10
424.5875672958682
 20
321.0191667530626
 30
0.0
 10
423.575343709188
 20
325.7531745720179
 30
0.0
 10
423.2378449348458
 20
327.3311580546975
 30
0.0
 10
422.7349197839196
 20
329.6988348468566
 30
0.0
 10
422.5677056303782
 20
330.488150720534
 30
0.0
 10
422.2360249432589
 20
332.0673626444558
 30
0.0
 10
422.0705596235909
 20
332.8570477872944
 30
0.0
 10
421.9118126461799
 20
333.6481515928542
 30
0.0
  0
LINE
  5
FE
330
1F
100
AcDbEntity
  8
0
  6
Continuous
 62
     8
370
    18
100
AcDbLine
 10
392.7331368767
 20
333.2963145516
 30
0.0
 11
400.2959372152
 21
333.3199483027
 31
0.0
  0
LINE
  5
FF
330
1F
100
AcDbEntity
  8
0
  6
Continuous
 62
     7
370
    25
100
AcDbLine
 10
110.6104347826
 20
200.296589607
 30
0.0
 11
110.7685034781
 21
194.2601896644
 31
0.0
  0
LINE
  5
100
330
1F
100
AcDbEntity
  8
0
  6
Continuous
 62
     7
370
    25
100
AcDbLine
 10
259.4523660872
 20
194.2601896644
 30
0.0
 11
259.6104347826
 21
200.296589607
 31
0.0
  0
ARC
  5
101
330
1F
100
AcDbEntity
  8
0
  6
Continuous
 62
     7
370
    25
100
AcDbCircle
 10
258.4527087622
 20
194.2863666127
 30
0.0
 40
0.9999999999996073
100
AcDbArc
 50
270.6004114401
 51
358.5
  0
ARC
  5
102
330
1F
100
AcDbEntity
  8
0
  6
Continuous
 62
     7
370
    25
100
AcDbCircle
 10
111.768160803
 20
194.2863666127
 30
0.0
 40
0.9999999999996076
100
AcDbArc
 50
181.5
 51
269.3995885599
  0
ARC
  5
103
330
1F
100
AcDbEntity
  8
0
  6
Continuous
 62
     7
370
    25
100
AcDbCircle
 10
185.1104347826
 20
7192.9020805127
 30
0.0
 40
7000.000000000001
100
AcDbArc
 50
269.3995885599
 51
269.8422946647
  0
ARC
  5
104
330
1F
100
AcDbEntity
  8
0
  6
Continuous
 62
     7
370
    25
100
AcDbCircle
 10
185.1104347826
 20
7192.9020805127
 30
0.0
 40
7000.000000000001
100
AcDbArc
 50
270.1576918689
 51
270.6004114401
  0
LINE
  5
105
330
1F
100
AcDbEntity
  8
0
  6
Continuous
 62
     7
370
    25
100
AcDbLine
 10
160.110434782
 20
156.3204605843
 30
0.0
 11
160.110434782
 21
121.3670501049
 31
0.0
  0
LINE
  5
106
330
1F
100
AcDbEntity
  8
0
  6
Continuous
 62
     7
370
    25
100
AcDbLine
 10
210.110434782
 20
121.3670504029
 30
0.0
 11
210.110434782
 21
156.3204605843
 31
0.0
  0
LINE
  5
107
330
1F
100
AcDbEntity
  8
0
  6
Continuous
 62
     7
370
    25
100
AcDbLine
 10
209.610434782
 20
163.2965896071
 30
0.0
 11
209.610434782
 21
192.9610215149
 31
0.0
  0
LINE
  5
108
330
1F
100
AcDbEntity
  8
0
  6
Continuous
 62
     7
370
    25
100
AcDbLine
 10
160.610434782
 20
192.961022747
 30
0.0
 11
160.610434782
 21
163.2965896071
 31
0.0
  0
ARC
  5
109
330
1F
100
AcDbEntity
  8
0
  6
Continuous
 62
     7
370
    25
100
AcDbCircle
 10
185.110434782
 20
163.2965896071
 30
0.0
 40
24.5
100
AcDbArc
 50
180.0
 51
196.5426384442
  0
ARC
  5
10A
330
1F
100
AcDbEntity
  8
0
  6
Continuous
 62
     7
370
    25
100
AcDbCircle
 10
185.110434782
 20
163.2965896071
 30
0.0
 40
24.50000000000002
100
AcDbArc
 50
343.4573615558
 51
0.0
  0
LINE
  5
10B
330
1F
100
AcDbEntity
  8
0
  6
Continuous
 62
     7
370
    25
100
AcDbLine
 10
161.0624076319
 20
120.2885244226
 30
0.0
 11
161.5825734962
 21
120.2043259562
 31
0.0
  0
SPLINE
  5
10C
330
1F
100
AcDbEntity
  8
0
  6
Continuous
 62
     7
370
    25
100
AcDbSpline
210
0.0
220
0.0
230
1.0
 70
     8
 71
     3
 72
    20
 73
    16
 74
     0
 42
0.00000001
 43
0.00000001
 40
0.0
 40
0.0
 40
0.0
 40
0.0
 40
0.042304039570213
 40
0.0970977981195512
 40
0.1557057676357686
 40
0.2262580436828514
 40
0.3156456128406702
 40
0.4070678081902497
 40
0.5029710796928728
 40
0.596200192843791
 40
0.6875037958749096
 40
0.7773437224208442
 40
0.8674713455005213
 40
0.9562679718775441
 40
1.0
 40
1.0
 40
1.0
 40
1.0
 10
168.3119173231143
 20
111.6799646235115
 30
0.0
 10
168.3180339013284
 20
111.5387860543019
 30
0.0
 10
168.3320728981391
 20
111.2147477744785
 30
0.0
 10
168.566930816561
 20
110.7857199077469
 30
0.0
 10
168.9052738123858
 20
110.4009867963144
 30
0.0
 10
169.3891395029615
 20
110.0527777131601
 30
0.0
 10
170.0385726504604
 20
109.7381688971911
 30
0.0
 10
170.8936953874071
 20
109.4430277779316
 30
0.0
 10
171.9232518956607
 20
109.1851537768119
 30
0.0
 10
173.0999383807404
 20
108.9674224447222
 30
0.0
 10
174.3777655777763
 20
108.7934748976918
 30
0.0
 10
175.7405359652084
 20
108.6627233444785
 30
0.0
 10
177.1615986105848
 20
108.5732387378066
 30
0.0
 10
178.3758865731299
 20
108.5266163574713
 30
0.0
 10
179.1038551690033
 20
108.5192277492363
 30
0.0
 10
179.3440714696005
 20
108.5167896438746
 30
0.0
  0
SPLINE
  5
10D
330
1F
100
AcDbEntity
  8
0
  6
Continuous
 62
     7
370
    25
100
AcDbSpline
210
0.0
220
0.0
230
1.0
 70
     8
 71
     3
 72
    20
 73
    16
 74
     0
 42
0.00000001
 43
0.00000001
 40
0.0
 40
0.0
 40
0.0
 40
0.0
 40
0.0311220022093769
 40
0.1218938667509402
 40
0.2126133183001372
 40
0.3035831583148846
 40
0.3955858444667286
 40
0.4874470647703302
 40
0.581052938255874
 40
0.6770278514875732
 40
0.7767023261362485
 40
0.8543639048482427
 40
0.9159352472929982
 40
0.9718126600745186
 40
1.0
 40
1.0
 40
1.0
 40
1.0
 10
191.1612102152557
 20
108.5208078929962
 30
0.0
 10
191.3293772677412
 20
108.5227932525287
 30
0.0
 10
191.9880280881372
 20
108.5305692030827
 30
0.0
 10
193.127194628729
 20
108.5769399340671
 30
0.0
 10
194.5417114199266
 20
108.6676457043673
 30
0.0
 10
195.890962196312
 20
108.7991192823117
 30
0.0
 10
197.1462973504611
 20
108.9718831044305
 30
0.0
 10
198.2897143746068
 20
109.1842925948821
 30
0.0
 10
199.3091521682906
 20
109.4379075109083
 30
0.0
 10
200.1927982989961
 20
109.7401389130429
 30
0.0
 10
200.8826369536182
 20
110.0784033399401
 30
0.0
 10
201.3919842498708
 20
110.4655719435395
 30
0.0
 10
201.7256625496173
 20
110.895858934906
 30
0.0
 10
201.9181897670267
 20
111.3203632315374
 30
0.0
 10
201.9089897166788
 20
111.5961654620544
 30
0.0
 10
201.9059048929193
 20
111.6886433552671
 30
0.0
  0
SPLINE
  5
10E
330
1F
100
AcDbEntity
  8
0
  6
Continuous
 62
     7
370
    25
100
AcDbSpline
210
0.0
220
0.0
230
1.0
 70
     8
 71
     3
 72
     9
 73
     5
 74
     0
 42
0.00000001
 43
0.00000001
 40
0.0
 40
0.0
 40
0.0
 40
0.0
 40
0.2133972835581216
 40
1.0
 40
1.0
 40
1.0
 40
1.0
 10
179.3440814536531
 20
108.5141164251526
 30
0.0
 10
179.7542279583621
 20
108.5086332684709
 30
0.0
 10
181.6762135519475
 20
108.482938673909
 30
0.0
 10
183.5984056047778
 20
108.482949296815
 30
0.0
 10
185.1104070950572
 20
108.4829576528215
 30
0.0
  0
SPLINE
  5
10F
330
1F
100
AcDbEntity
  8
0
  6
Continuous
 62
     7
370
    25
100
AcDbSpline
210
0.0
220
0.0
230
1.0
 70
     8
 71
     3
 72
     9
 73
     5
 74
     0
 42
0.00000001
 43
0.00000001
 40
0.0
 40
0.0
 40
0.0
 40
0.0
 40
0.1162615884559652
 40
1.0
 40
1.0
 40
1.0
 40
1.0
 10
185.110436485362
 20
108.4787287475287
 30
0.0
 10
185.333907020525
 20
108.478663561103
 30
0.0
 10
187.2560425954026
 20
108.4781028735484
 30
0.0
 10
189.1780943156108
 20
108.4990220504342
 30
0.0
 10
190.876685249733
 20
108.5175091305858
 30
0.0
  0
LINE
  5
110
330
1F
100
AcDbEntity
  8
0
  6
Continuous
 62
     7
370
    25
100
AcDbLine
 10
259.6104347826
 20
200.296589607
 30
0.0
 11
110.6104347826
 21
200.296589607
 31
0.0
  0
SPLINE
  5
111
330
1F
100
AcDbEntity
  8
0
  6
Continuous
 62
     7
370
    25
100
AcDbSpline
210
0.0
220
0.0
230
1.0
 70
     8
 71
     3
 72
    12
 73
     8
 74
     0
 42
0.00000001
 43
0.00000001
 40
0.0
 40
0.0
 40
0.0
 40
0.0
 40
0.2116959991175817
 40
0.4295312053345716
 40
0.6412272014203083
 40
0.8590623806085781
 40
1.0
 40
1.0
 40
1.0
 40
1.0
 10
167.7864214802848
 20
192.9981509268806
 30
0.0
 10
166.8729268004865
 20
192.9959943447121
 30
0.0
 10
165.0194459953888
 20
192.9916186392565
 30
0.0
 10
162.9419349543498
 20
192.9839416943058
 30
0.0
 10
161.4688136141776
 20
192.9756167504087
 30
0.0
 10
160.683496345517
 20
192.9678947639713
 30
0.0
 10
160.685104292391
 20
192.9629609209794
 30
0.0
 10
160.6857359461992
 20
192.9610227470473
 30
0.0
  0
SPLINE
  5
112
330
1F
100
AcDbEntity
  8
0
  6
Continuous
 62
     7
370
    25
100
AcDbSpline
210
0.0
220
0.0
230
1.0
 70
     8
 71
     3
 72
    22
 73
    18
 74
     0
 42
0.00000001
 43
0.00000001
 40
0.0
 40
0.0
 40
0.0
 40
0.0
 40
0.0515473978973739
 40
0.122110985016272
 40
0.1947209227371665
 40
0.2652844728486822
 40
0.3378943775754805
 40
0.4084578028626714
 40
0.481067581215751
 40
0.5516308485672087
 40
0.6242404625514492
 40
0.6948036080736397
 40
0.7674130917312202
 40
0.8379762049241971
 40
0.9105856494150382
 40
0.9550446523261856
 40
1.0
 40
1.0
 40
1.0
 40
1.0
 10
209.5366505426545
 20
192.9610215148717
 30
0.0
 10
209.5312878323983
 20
192.9631488325675
 30
0.0
 10
209.51858407123
 20
192.9681882500721
 30
0.0
 10
208.6880948389401
 20
192.9760751241694
 30
0.0
 10
207.2026771659723
 20
192.9843135704295
 30
0.0
 10
205.0483376191883
 20
192.9919623061768
 30
0.0
 10
202.3566867338711
 20
192.9986680355371
 30
0.0
 10
199.1469141279354
 20
193.0043614112075
 30
0.0
 10
195.5699354574976
 20
193.0087788605079
 30
0.0
 10
191.6619922210981
 20
193.0118748708337
 30
0.0
 10
187.6042410889067
 20
193.0135059752177
 30
0.0
 10
183.4383112236565
 20
193.013655798233
 30
0.0
 10
179.3576562955456
 20
193.0123157910238
 30
0.0
 10
175.4022892750798
 20
193.0095058069368
 30
0.0
 10
172.2074353874945
 20
193.0058430411546
 30
0.0
 10
169.669621639016
 20
193.001946313594
 30
0.0
 10
168.4164736346931
 20
192.999420729012
 30
0.0
 10
167.7864214802848
 20
192.9981509268806
 30
0.0
  0
LINE
  5
113
330
1F
100
AcDbEntity
  8
0
  6
Continuous
 62
     7
370
    25
100
AcDbLine
 10
160.1174944727
 20
156.3223170848
 30
0.0
 11
160.110434782
 21
156.3204605843
 31
0.0
  0
LINE
  5
114
330
1F
100
AcDbEntity
  8
0
  6
Continuous
 62
     7
370
    25
100
AcDbLine
 10
210.110434782
 20
156.3204605843
 30
0.0
 11
210.1033750913
 21
156.3223170848
 31
0.0
  0
SPLINE
  5
115
330
1F
100
AcDbEntity
  8
0
  6
Continuous
 62
     7
370
    25
100
AcDbSpline
210
0.0
220
0.0
230
1.0
 70
     8
 71
     3
 72
     8
 73
     4
 74
     0
 42
0.00000001
 43
0.00000001
 40
0.0
 40
0.0
 40
0.0
 40
0.0
 40
1.0
 40
1.0
 40
1.0
 40
1.0
 10
160.1174944727238
 20
156.322317084827
 30
0.0
 10
160.1426614462123
 20
156.3256257214055
 30
0.0
 10
160.2342740985338
 20
156.1911767375385
 30
0.0
 10
160.3857375330731
 20
155.9231346636154
 30
0.0
  0
ELLIPSE
  5
116
330
1F
100
AcDbEntity
  8
0
  6
Continuous
 62
     7
370
    25
100
AcDbEllipse
 10
185.110434782
 20
156.9029559845
 30
0.0
 11
25.0
 21
-2.842170943040401E-14
 31
0.0
210
0.0
220
0.0
230
1.0
 40
0.2648228994
 41
3.29013477353948
 42
6.134643187230004
  0
SPLINE
  5
117
330
1F
100
AcDbEntity
  8
0
  6
Continuous
 62
     7
370
    25
100
AcDbSpline
210
0.0
220
0.0
230
1.0
 70
     8
 71
     3
 72
     8
 73
     4
 74
     0
 42
0.00000001
 43
0.00000001
 40
0.0
 40
0.0
 40
0.0
 40
0.0
 40
1.0
 40
1.0
 40
1.0
 40
1.0
 10
210.1033750912766
 20
156.322317084827
 30
0.0
 10
210.0782081177881
 20
156.3256257214055
 30
0.0
 10
209.9865954654666
 20
156.1911767375385
 30
0.0
 10
209.8351320309274
 20
155.9231346636153
 30
0.0
  0
SPLINE
  5
118
330
1F
100
AcDbEntity
  8
0
  6
Continuous
 62
     7
370
    25
100
AcDbSpline
210
0.0
220
0.0
230
1.0
 70
     8
 71
     3
 72
    10
 73
     6
 74
     0
 42
0.00000001
 43
0.00000001
 40
0.0
 40
0.0
 40
0.0
 40
0.0
 40
0.5
 40
0.5
 40
1.0
 40
1.0
 40
1.0
 40
1.0
 10
209.2042961322108
 20
120.2952435961598
 30
0.0
 10
209.4550404098255
 20
120.3375448880207
 30
0.0
 10
209.6893702915047
 20
120.4711057355646
 30
0.0
 10
210.0177158852352
 20
120.8594831724087
 30
0.0
 10
210.1104346743435
 20
121.1127657206924
 30
0.0
 10
210.1104347454474
 20
121.3670526861976
 30
0.0
  0
LWPOLYLINE
  5
119
330
1F
100
AcDbEntity
  8
0
  6
Continuous
 62
     7
370
    25
100
AcDbPolyline
 90
       33
 70
   128
 43
0.0
 10
209.1917174174
 20
120.2976764755
 10
209.0882767006
 20
120.3026239243
 10
208.7413384518
 20
120.3099328501
 10
208.1668216826
 20
120.3171003136
 10
207.3702593037
 20
120.3240572881
 10
206.3593226462
 20
120.3307367742
 10
205.1437475827
 20
120.3370744447
 10
203.7352407657
 20
120.3430092644
 10
202.1473668856
 20
120.3484840779
 10
200.3954180361
 20
120.3534461595
 10
198.4962664422
 20
120.3578477218
 10
196.468201972
 20
120.3616463753
 10
194.3307559949
 20
120.364805537
 10
192.1045132843
 20
120.3672947823
 10
189.8109137743
 20
120.3690901384
 10
187.472046082
 20
120.3701743151
 10
185.110434782
 20
120.3705368712
 10
182.748823482
 20
120.3701743151
 10
180.4099557897
 20
120.3690901384
 10
178.1163562797
 20
120.3672947823
 10
175.8901135691
 20
120.364805537
 10
173.752667592
 20
120.3616463753
 10
171.7246031218
 20
120.3578477218
 10
169.8254515279
 20
120.3534461595
 10
168.0735026784
 20
120.3484840779
 10
166.4856287983
 20
120.3430092644
 10
165.0771219813
 20
120.3370744447
 10
163.8615469178
 20
120.3307367742
 10
162.8506102603
 20
120.3240572881
 10
162.0540478814
 20
120.3171003136
 10
161.4795311122
 20
120.3099328501
 10
161.1325928634
 20
120.3026239243
 10
161.0332704704
 20
120.2980464453
  0
SPLINE
  5
11A
330
1F
100
AcDbEntity
  8
0
  6
Continuous
 62
     7
370
    25
100
AcDbSpline
210
0.0
220
0.0
230
1.0
 70
     8
 71
     3
 72
    10
 73
     6
 74
     0
 42
0.00000001
 43
0.00000001
 40
0.0
 40
0.0
 40
0.0
 40
0.0
 40
0.5
 40
0.5
 40
1.0
 40
1.0
 40
1.0
 40
1.0
 10
160.1104348185537
 20
121.3670530615831
 30
0.0
 10
160.1104351030101
 20
121.1127663114191
 30
0.0
 10
160.2031540009007
 20
120.8594840493771
 30
0.0
 10
160.5314995933468
 20
120.4711067923548
 30
0.0
 10
160.7658293677556
 20
120.3375458297193
 30
0.0
 10
161.0165735108593
 20
120.2952440648494
 30
0.0
  0
LWPOLYLINE
  5
11B
330
1F
100
AcDbEntity
  8
0
  6
Continuous
 62
     7
370
    25
100
AcDbPolyline
 90
       28
 70
   128
 43
0.0
 10
208.1934028343
 20
155.9231346636
 10
207.5456521767
 20
155.3440055249
 10
206.6764393636
 20
154.7841767546
 10
205.5943445546
 20
154.2491745255
 10
204.3100493065
 20
153.7442799428
 10
202.8362311337
 20
153.2744769138
 10
201.1874383664
 20
152.8444029506
 10
199.3799465411
 20
152.4583033924
 10
197.4315977419
 20
152.1199894988
 10
195.361624478
 20
151.8328008285
 10
193.190459836
 20
151.5995722737
 10
190.9395357813
 20
151.4226060763
 10
188.6310715989
 20
151.3036491022
 10
186.2878545634
 20
151.2438755975
 10
183.9330150006
 20
151.2438755975
 10
181.5897979651
 20
151.3036491022
 10
179.2813337827
 20
151.4226060763
 10
177.030409728
 20
151.5995722737
 10
174.859245086
 20
151.8328008285
 10
172.7892718221
 20
152.1199894988
 10
170.8409230229
 20
152.4583033924
 10
169.0334311976
 20
152.8444029506
 10
167.3846384303
 20
153.2744769138
 10
165.9108202575
 20
153.7442799428
 10
164.6265250094
 20
154.2491745255
 10
163.5444302004
 20
154.7841767546
 10
162.6752173873
 20
155.3440055249
 10
162.0274667297
 20
155.9231346636
  0
SPLINE
  5
11C
330
1F
100
AcDbEntity
  8
0
  6
Continuous
 62
     7
370
    25
100
AcDbSpline
210
0.0
220
0.0
230
1.0
 70
     8
 71
     3
 72
     8
 73
     4
 74
     0
 42
0.00000001
 43
0.00000001
 40
0.0
 40
0.0
 40
0.0
 40
0.0
 40
1.0
 40
1.0
 40
1.0
 40
1.0
 10
162.0274667296522
 20
155.9231346636154
 30
0.0
 10
161.7852801918296
 20
156.1889574053488
 30
0.0
 10
161.651568180564
 20
156.3256526676914
 30
0.0
 10
161.6295301695446
 20
156.3223170848271
 30
0.0
  0
SPLINE
  5
11D
330
1F
100
AcDbEntity
  8
0
  6
Continuous
 62
     7
370
    25
100
AcDbSpline
210
0.0
220
0.0
230
1.0
 70
     8
 71
     3
 72
     8
 73
     4
 74
     0
 42
0.00000001
 43
0.00000001
 40
0.0
 40
0.0
 40
0.0
 40
0.0
 40
1.0
 40
1.0
 40
1.0
 40
1.0
 10
208.5913393944557
 20
156.322317084827
 30
0.0
 10
208.5693013834363
 20
156.3256526676913
 30
0.0
 10
208.4355893721707
 20
156.1889574053488
 30
0.0
 10
208.1934028343481
 20
155.9231346636154
 30
0.0
  0
SPLINE
  5
11E
330
1F
100
AcDbEntity
  8
0
  6
Continuous
 62
     7
370
    25
100
AcDbSpline
210
0.0
220
0.0
230
1.0
 70
     8
 71
     3
 72
     9
 73
     5
 74
     0
 42
0.00000001
 43
0.00000001
 40
0.0
 40
0.0
 40
0.0
 40
0.0
 40
0.1024493744739478
 40
1.0
 40
1.0
 40
1.0
 40
1.0
 10
169.8586834675417
 20
119.1038493057357
 30
0.0
 10
169.5744347616729
 20
119.1268415058793
 30
0.0
 10
166.7999062950196
 20
119.3512664988248
 30
0.0
 10
164.0512357743199
 20
119.8068075542861
 30
0.0
 10
161.5841648291009
 20
120.2156787135681
 30
0.0
  0
LINE
  5
11F
330
1F
100
AcDbEntity
  8
0
  6
Continuous
 62
     7
370
    25
100
AcDbLine
 10
160.1174944727
 20
156.3223170848
 30
0.0
 11
161.6295301695
 21
156.3223170848
 31
0.0
  0
LINE
  5
120
330
1F
100
AcDbEntity
  8
0
  6
Continuous
 62
     7
370
    25
100
AcDbLine
 10
208.5913393945
 20
156.3223170848
 30
0.0
 11
210.1033750913
 21
156.3223170848
 31
0.0
  0
SPLINE
  5
121
330
1F
100
AcDbEntity
  8
0
  6
Continuous
 62
     7
370
    25
100
AcDbSpline
210
0.0
220
0.0
230
1.0
 70
     8
 71
     3
 72
    10
 73
     6
 74
     0
 42
0.00000001
 43
0.00000001
 40
0.0
 40
0.0
 40
0.0
 40
0.0
 40
0.0000018118503905
 40
0.8125169086808198
 40
1.0
 40
1.0
 40
1.0
 40
1.0
 10
168.2960306766654
 20
111.797115153053
 30
0.0
 10
168.2960306166556
 20
111.7971195520556
 30
0.0
 10
168.2691194608038
 20
113.7698343256974
 30
0.0
 10
168.2811384438754
 20
116.3412607691888
 30
0.0
 10
168.2760209440613
 20
118.8141235752649
 30
0.0
 10
168.2750614976379
 20
119.2777443785679
 30
0.0
  0
SPLINE
  5
122
330
1F
100
AcDbEntity
  8
0
  6
Continuous
 62
     7
370
    25
100
AcDbSpline
210
0.0
220
0.0
230
1.0
 70
     8
 71
     3
 72
    22
 73
    18
 74
     0
 42
0.00000001
 43
0.00000001
 40
0.0
 40
0.0
 40
0.0
 40
0.0
 40
0.0624999999999999
 40
0.0624999999999999
 40
0.1249999999999997
 40
0.1249999999999997
 40
0.2499999999999994
 40
0.2499999999999994
 40
0.4999999999999992
 40
0.4999999999999992
 40
0.749999999999999
 40
0.749999999999999
 40
0.874999999999999
 40
0.874999999999999
 40
0.9374999999999994
 40
0.9374999999999994
 40
1.0
 40
1.0
 40
1.0
 40
1.0
 10
201.9248388873345
 20
111.797115153053
 30
0.0
 10
201.9270661291368
 20
111.9603814588598
 30
0.0
 10
201.9285620165184
 20
112.1284751353226
 30
0.0
 10
201.9314519573577
 20
112.4616323640131
 30
0.0
 10
201.9326974524978
 20
112.6281819835775
 30
0.0
 10
201.9359347283111
 20
113.1283566219692
 30
0.0
 10
201.937427138606
 20
113.4626727221896
 30
0.0
 10
201.9408007511906
 20
114.4679389977654
 30
0.0
 10
201.9416234461457
 20
115.1413828017332
 30
0.0
 10
201.9427352767865
 20
116.4907765225484
 30
0.0
 10
201.9429711224326
 20
117.1667014788356
 30
0.0
 10
201.9437628329268
 20
118.1789250655158
 30
0.0
 10
201.9440839360585
 20
118.5164238398584
 30
0.0
 10
201.944821493059
 20
119.0193489907836
 30
0.0
 10
201.9451046576841
 20
119.1865631443253
 30
0.0
 10
201.9457930679855
 20
119.5182438314446
 30
0.0
 10
201.9461762290623
 20
119.683709151113
 30
0.0
 10
201.946729858497
 20
119.8424561285238
 30
0.0
  0
LINE
  5
123
330
1F
100
AcDbEntity
  8
0
  6
Continuous
 62
     7
370
    25
100
AcDbLine
 10
179.3440538047
 20
108.512913585
 30
0.0
 11
179.3439914632
 21
108.520237386
 31
0.0
  0
LINE
  5
124
330
1F
100
AcDbEntity
  8
0
  6
Continuous
 62
     7
370
    25
100
AcDbLine
 10
190.8768150243
 20
108.5129135953
 30
0.0
 11
190.8768781008
 21
108.520237386
 31
0.0
  0
LINE
  5
125
330
1F
100
AcDbEntity
  8
0
  6
Continuous
 62
     7
370
    25
100
AcDbLine
 10
185.110434782
 20
108.483305763
 30
0.0
 11
185.110434782
 21
108.4909262995
 31
0.0
  0
LINE
  5
126
330
1F
100
AcDbEntity
  8
0
  6
Continuous
 62
     8
370
    18
100
AcDbLine
 10
259.4523660872
 20
194.2601896644
 30
0.0
 11
110.7685034781
 21
194.2601896644
 31
0.0
  0
LINE
  5
127
330
1F
100
AcDbEntity
  8
0
  6
Continuous
 62
     8
370
    18
100
AcDbLine
 10
258.4631877269
 20
193.2864215186
 30
0.0
 11
111.7576818383
 21
193.2864215186
 31
0.0
  0
LINE
  5
128
330
1F
100
AcDbEntity
  8
0
  6
Continuous
 62
     8
370
    18
100
AcDbLine
 10
209.2042952242
 20
120.295243925
 30
0.0
 11
209.1917174174
 21
120.2976764755
 31
0.0
  0
LINE
  5
129
330
1F
100
AcDbEntity
  8
0
  6
Continuous
 62
     8
370
    18
100
AcDbLine
 10
161.0332704704
 20
120.2980464453
 30
0.0
 11
161.0165743398
 21
120.295243925
 31
0.0
  0
LINE
  5
12A
330
1F
100
AcDbEntity
  8
0
  6
Continuous
 62
     8
370
    18
100
AcDbLine
 10
162.0274667297
 20
155.9231346636
 30
0.0
 11
160.3857375331
 21
155.9231346636
 31
0.0
  0
LINE
  5
12B
330
1F
100
AcDbEntity
  8
0
  6
Continuous
 62
     8
370
    18
100
AcDbLine
 10
209.8351320309
 20
155.9231346636
 30
0.0
 11
208.1934028343
 21
155.9231346636
 31
0.0
  0
LINE
  5
12C
330
1F
100
AcDbEntity
  8
0
  6
Continuous
 62
     8
370
    18
100
AcDbLine
 10
203.7331720249
 20
163.2965896071
 30
0.0
 11
160.610434782
 21
163.2965896071
 31
0.0
  0
LINE
  5
12D
330
1F
100
AcDbEntity
  8
0
  6
Continuous
 62
     8
370
    18
100
AcDbLine
 10
209.610434782
 20
163.2965896071
 30
0.0
 11
203.7331720249
 21
163.2965896071
 31
0.0
  0
SPLINE
  5
12E
330
1F
100
AcDbEntity
  8
0
  6
Continuous
 62
     8
370
    25
100
AcDbSpline
210
0.0
220
0.0
230
1.0
 70
     8
 71
     3
 72
     8
 73
     4
 74
     0
 42
0.00000001
 43
0.00000001
 40
0.0
 40
0.0
 40
0.0
 40
0.0
 40
1.0
 40
1.0
 40
1.0
 40
1.0
 10
209.2042952241803
 20
120.2952439250022
 30
0.0
 10
201.2479245396165
 20
118.95299308821
 30
0.0
 10
193.1792320513069
 20
118.2771680812317
 30
0.0
 10
185.1104347820002
 20
118.2771680812317
 30
0.0
  0
SPLINE
  5
12F
330
1F
100
AcDbEntity
  8
0
  6
Continuous
 62
     8
370
    25
100
AcDbSpline
210
0.0
220
0.0
230
1.0
 70
     8
 71
     3
 72
     9
 73
     5
 74
     0
 42
0.00000001
 43
0.00000001
 40
0.0
 40
0.0
 40
0.0
 40
0.0
 40
0.5279927069713756
 40
0.9999999999999999
 40
0.9999999999999999
 40
0.9999999999999999
 40
0.9999999999999999
 10
185.1104347820002
 20
118.2771680812317
 30
0.0
 10
182.4200247448657
 20
118.3125820211352
 30
0.0
 10
177.3244808072098
 20
118.3796548034595
 30
0.0
 10
172.2526327429877
 20
118.8716323267408
 30
0.0
 10
169.8586834675417
 20
119.1038493057357
 30
0.0
  0
LINE
  5
130
330
1F
100
AcDbEntity
  8
0
  6
Continuous
 62
     8
370
    25
100
AcDbLine
 10
161.5841648291
 20
120.2156787136
 30
0.0
 11
161.0165743398
 21
120.295243925
 31
0.0
  0
SPLINE
  5
131
330
1F
100
AcDbEntity
  8
0
  6
Continuous
 62
     8
370
    18
100
AcDbSpline
210
0.0
220
0.0
230
1.0
 70
     8
 71
     3
 72
     8
 73
     4
 74
     0
 42
0.00000001
 43
0.00000001
 40
0.0
 40
0.0
 40
0.0
 40
0.0
 40
1.0
 40
1.0
 40
1.0
 40
1.0
 10
179.3439914632429
 20
108.5202373860324
 30
0.0
 10
181.2660120447145
 20
108.4933697955809
 30
0.0
 10
183.1881964963989
 20
108.4830502487056
 30
0.0
 10
185.1104347819999
 20
108.4833057630411
 30
0.0
  0
SPLINE
  5
132
330
1F
100
AcDbEntity
  8
0
  6
Continuous
 62
     8
370
    18
100
AcDbSpline
210
0.0
220
0.0
230
1.0
 70
     8
 71
     3
 72
     9
 73
     5
 74
     0
 42
0.00000001
 43
0.00000001
 40
0.0
 40
0.0
 40
0.0
 40
0.0
 40
0.0001205932671545
 40
1.0
 40
1.0
 40
1.0
 40
1.0
 10
161.0165734317896
 20
120.2952435961597
 30
0.0
 10
161.0165734304705
 20
120.2952435546581
 30
0.0
 10
161.0165624925526
 20
120.2948994095759
 30
0.0
 10
161.0398686726229
 20
120.2942345005124
 30
0.0
 10
161.0631720421248
 20
120.2935696716324
 30
0.0
  0
SPLINE
  5
133
330
1F
100
AcDbEntity
  8
0
  6
Continuous
 62
     8
370
    18
100
AcDbSpline
210
0.0
220
0.0
230
1.0
 70
     8
 71
     3
 72
     8
 73
     4
 74
     0
 42
0.00000001
 43
0.00000001
 40
0.0
 40
0.0
 40
0.0
 40
0.0
 40
1.0
 40
1.0
 40
1.0
 40
1.0
 10
190.8768781007569
 20
108.5202373860324
 30
0.0
 10
188.9548575192853
 20
108.4933697955809
 30
0.0
 10
187.032673067601
 20
108.4830502487056
 30
0.0
 10
185.1104347819999
 20
108.4833057630411
 30
0.0
  0
SPLINE
  5
134
330
1F
100
AcDbEntity
  8
0
  6
Continuous
 62
     8
370
    18
100
AcDbSpline
210
0.0
220
0.0
230
1.0
 70
     8
 71
     3
 72
     9
 73
     5
 74
     0
 42
0.00000001
 43
0.00000001
 40
0.0
 40
0.0
 40
0.0
 40
0.0
 40
0.0000537063722692
 40
0.9999999999999999
 40
0.9999999999999999
 40
0.9999999999999999
 40
0.9999999999999999
 10
209.2042961322108
 20
120.2952435961598
 30
0.0
 10
209.2042961334672
 20
120.2952435546574
 30
0.0
 10
209.2043195263188
 20
120.2944707891914
 30
0.0
 10
209.1519862374902
 20
120.2929777740867
 30
0.0
 10
209.0996557592927
 20
120.2914848391663
 30
0.0
  0
ENDSEC
  0
SECTION
  2
OBJECTS
  0
DICTIONARY
  5
C
330
0
100
AcDbDictionary
281
     1
  3
ACAD_GROUP
350
D
  3
ACAD_LAYOUT
350
1A
  3
ACAD_MLINESTYLE
350
17
  3
ACAD_PLOTSETTINGS
350
19
  3
ACAD_PLOTSTYLENAME
350
E
  3
ACAD_SCALELIST
350
47
  3
DWGPROPS
350
135
  0
DICTIONARY
  5
D
102
{ACAD_REACTORS
330
C
102
}
330
C
100
AcDbDictionary
281
     1
  0
DICTIONARY
  5
1A
102
{ACAD_REACTORS
330
C
102
}
330
C
100
AcDbDictionary
281
     1
  3
Layout1
350
1E
  3
Layout2
350
26
  3
Model
350
22
  0
DICTIONARY
  5
17
102
{ACAD_REACTORS
330
C
102
}
330
C
100
AcDbDictionary
281
     1
  3
Standard
350
18
  0
DICTIONARY
  5
19
102
{ACAD_REACTORS
330
C
102
}
330
C
100
AcDbDictionary
281
     1
  0
ACDBDICTIONARYWDFLT
  5
E
102
{ACAD_REACTORS
330
C
102
}
330
C
100
AcDbDictionary
281
     1
  3
Normal
350
F
100
AcDbDictionaryWithDefault
340
F
  0
DICTIONARY
  5
47
102
{ACAD_REACTORS
330
C
102
}
330
C
100
AcDbDictionary
281
     1
  3
A0
350
48
  3
A1
350
49
  3
A2
350
4A
  3
A3
350
4B
  3
A4
350
4C
  3
A5
350
4D
  3
A6
350
4E
  3
A7
350
4F
  3
A8
350
50
  3
A9
350
51
  3
B0
350
52
  3
B1
350
53
  3
B2
350
54
  3
B3
350
55
  3
B4
350
56
  3
B5
350
57
  3
B6
350
58
  3
B7
350
59
  3
B8
350
5A
  3
B9
350
5B
  3
C0
350
5C
  3
C1
350
5D
  3
C2
350
5E
  3
C3
350
5F
  3
C4
350
60
  3
C5
350
61
  3
C6
350
62
  3
C7
350
63
  3
C8
350
64
  3
C9
350
65
  3
D0
350
66
  3
D1
350
67
  3
D2
350
68
  0
XRECORD
  5
135
102
{ACAD_REACTORS
330
C
102
}
330
C
100
AcDbXrecord
280
     1
  1
DWGPROPS COOKIE
  2

  3

  4

  6

  7

  8
estudent
  9

300
=
301
=
302
=
303
=
304
=
305
=
306
=
307
=
308
=
309
=
 40
0.0
 41
2459993.436077083
 42
2459993.436078854
  1

 90
        0
  0
LAYOUT
  5
1E
102
{ACAD_REACTORS
330
1A
102
}
330
1A
100
AcDbPlotSettings
  1

  2
none_device
  4

  6

 40
0.0
 41
0.0
 42
0.0
 43
0.0
 44
0.0
 45
0.0
 46
0.0
 47
0.0
 48
0.0
 49
0.0
140
0.0
141
0.0
142
1.0
143
1.0
 70
   688
 72
     1
 73
     0
 74
     5
  7

 75
    16
147
1.0
148
0.0
149
0.0
100
AcDbLayout
  1
Layout1
 70
     1
 71
     1
 10
0.0
 20
0.0
 11
420.0
 21
297.0
 12
0.0
 22
0.0
 32
0.0
 14
1.0000000000E+20
 24
1.0000000000E+20
 34
1.0000000000E+20
 15
-1.0000000000E+20
 25
-1.0000000000E+20
 35
-1.0000000000E+20
146
0.0
 13
0.0
 23
0.0
 33
0.0
 16
1.0
 26
0.0
 36
0.0
 17
0.0
 27
1.0
 37
0.0
 76
     0
330
1B
  0
LAYOUT
  5
26
102
{ACAD_REACTORS
330
1A
102
}
330
1A
100
AcDbPlotSettings
  1

  2
none_device
  4

  6

 40
0.0
 41
0.0
 42
0.0
 43
0.0
 44
0.0
 45
0.0
 46
0.0
 47
0.0
 48
0.0
 49
0.0
140
0.0
141
0.0
142
1.0
143
1.0
 70
   688
 72
     1
 73
     0
 74
     5
  7

 75
    16
147
1.0
148
0.0
149
0.0
100
AcDbLayout
  1
Layout2
 70
     1
 71
     2
 10
0.0
 20
0.0
 11
0.0
 21
0.0
 12
0.0
 22
0.0
 32
0.0
 14
0.0
 24
0.0
 34
0.0
 15
0.0
 25
0.0
 35
0.0
146
0.0
 13
0.0
 23
0.0
 33
0.0
 16
1.0
 26
0.0
 36
0.0
 17
0.0
 27
1.0
 37
0.0
 76
     0
330
23
  0
LAYOUT
  5
22
102
{ACAD_REACTORS
330
1A
102
}
330
1A
100
AcDbPlotSettings
  1

  2
none_device
  4
Letter_(8.50_x_11.00_Inches)
  6

 40
6.35
 41
6.35
 42
6.35000508
 43
6.35000508
 44
215.9
 45
279.4
 46
0.0
 47
0.0
 48
0.0
 49
0.0
140
0.0
141
0.0
142
1.0
143
1.0
 70
  1712
 72
     1
 73
     0
 74
     0
  7

 75
     0
147
1.0
148
0.0
149
0.0
100
AcDbLayout
  1
Model
 70
     1
 71
     0
 10
0.0
 20
0.0
 11
594.0
 21
841.0
 12
0.0
 22
0.0
 32
0.0
 14
0.0
 24
0.0
 34
0.0
 15
594.0
 25
841.0
 35
0.0
146
0.0
 13
0.0
 23
0.0
 33
0.0
 16
1.0
 26
0.0
 36
0.0
 17
0.0
 27
1.0
 37
0.0
 76
     0
330
1F
331
29
  0
MLINESTYLE
  5
18
102
{ACAD_REACTORS
330
17
102
}
330
17
100
AcDbMlineStyle
  2
Standard
 70
     0
  3

 62
   256
 51
90.0
 52
90.0
 71
     2
 49
0.5
 62
   256
  6
BYLAYER
 49
-0.5
 62
   256
  6
BYLAYER
  0
ACDBPLACEHOLDER
  5
F
102
{ACAD_REACTORS
330
E
102
}
330
E
  0
SCALE
  5
48
102
{ACAD_REACTORS
330
47
102
}
330
47
100
AcDbScale
 70
     0
300
1:1
140
1.0
141
1.0
290
     1
  0
SCALE
  5
49
102
{ACAD_REACTORS
330
47
102
}
330
47
100
AcDbScale
 70
     0
300
1:2
140
1.0
141
2.0
290
     0
  0
SCALE
  5
4A
102
{ACAD_REACTORS
330
47
102
}
330
47
100
AcDbScale
 70
     0
300
1:4
140
1.0
141
4.0
290
     0
  0
SCALE
  5
4B
102
{ACAD_REACTORS
330
47
102
}
330
47
100
AcDbScale
 70
     0
300
1:5
140
1.0
141
5.0
290
     0
  0
SCALE
  5
4C
102
{ACAD_REACTORS
330
47
102
}
330
47
100
AcDbScale
 70
     0
300
1:8
140
1.0
141
8.0
290
     0
  0
SCALE
  5
4D
102
{ACAD_REACTORS
330
47
102
}
330
47
100
AcDbScale
 70
     0
300
1:10
140
1.0
141
10.0
290
     0
  0
SCALE
  5
4E
102
{ACAD_REACTORS
330
47
102
}
330
47
100
AcDbScale
 70
     0
300
1:16
140
1.0
141
16.0
290
     0
  0
SCALE
  5
4F
102
{ACAD_REACTORS
330
47
102
}
330
47
100
AcDbScale
 70
     0
300
1:20
140
1.0
141
20.0
290
     0
  0
SCALE
  5
50
102
{ACAD_REACTORS
330
47
102
}
330
47
100
AcDbScale
 70
     0
300
1:30
140
1.0
141
30.0
290
     0
  0
SCALE
  5
51
102
{ACAD_REACTORS
330
47
102
}
330
47
100
AcDbScale
 70
     0
300
1:40
140
1.0
141
40.0
290
     0
  0
SCALE
  5
52
102
{ACAD_REACTORS
330
47
102
}
330
47
100
AcDbScale
 70
     0
300
1:50
140
1.0
141
50.0
290
     0
  0
SCALE
  5
53
102
{ACAD_REACTORS
330
47
102
}
330
47
100
AcDbScale
 70
     0
300
1:100
140
1.0
141
100.0
290
     0
  0
SCALE
  5
54
102
{ACAD_REACTORS
330
47
102
}
330
47
100
AcDbScale
 70
     0
300
2:1
140
2.0
141
1.0
290
     0
  0
SCALE
  5
55
102
{ACAD_REACTORS
330
47
102
}
330
47
100
AcDbScale
 70
     0
300
4:1
140
4.0
141
1.0
290
     0
  0
SCALE
  5
56
102
{ACAD_REACTORS
330
47
102
}
330
47
100
AcDbScale
 70
     0
300
8:1
140
8.0
141
1.0
290
     0
  0
SCALE
  5
57
102
{ACAD_REACTORS
330
47
102
}
330
47
100
AcDbScale
 70
     0
300
10:1
140
10.0
141
1.0
290
     0
  0
SCALE
  5
58
102
{ACAD_REACTORS
330
47
102
}
330
47
100
AcDbScale
 70
     0
300
100:1
140
100.0
141
1.0
290
     0
  0
SCALE
  5
59
102
{ACAD_REACTORS
330
47
102
}
330
47
100
AcDbScale
 70
     0
300
1/128" = 1'-0"
140
0.0078125
141
12.0
290
     0
  0
SCALE
  5
5A
102
{ACAD_REACTORS
330
47
102
}
330
47
100
AcDbScale
 70
     0
300
1/64" = 1'-0"
140
0.015625
141
12.0
290
     0
  0
SCALE
  5
5B
102
{ACAD_REACTORS
330
47
102
}
330
47
100
AcDbScale
 70
     0
300
1/32" = 1'-0"
140
0.03125
141
12.0
290
     0
  0
SCALE
  5
5C
102
{ACAD_REACTORS
330
47
102
}
330
47
100
AcDbScale
 70
     0
300
1/16" = 1'-0"
140
0.0625
141
12.0
290
     0
  0
SCALE
  5
5D
102
{ACAD_REACTORS
330
47
102
}
330
47
100
AcDbScale
 70
     0
300
3/32" = 1'-0"
140
0.09375
141
12.0
290
     0
  0
SCALE
  5
5E
102
{ACAD_REACTORS
330
47
102
}
330
47
100
AcDbScale
 70
     0
300
1/8" = 1'-0"
140
0.125
141
12.0
290
     0
  0
SCALE
  5
5F
102
{ACAD_REACTORS
330
47
102
}
330
47
100
AcDbScale
 70
     0
300
3/16" = 1'-0"
140
0.1875
141
12.0
290
     0
  0
SCALE
  5
60
102
{ACAD_REACTORS
330
47
102
}
330
47
100
AcDbScale
 70
     0
300
1/4" = 1'-0"
140
0.25
141
12.0
290
     0
  0
SCALE
  5
61
102
{ACAD_REACTORS
330
47
102
}
330
47
100
AcDbScale
 70
     0
300
3/8" = 1'-0"
140
0.375
141
12.0
290
     0
  0
SCALE
  5
62
102
{ACAD_REACTORS
330
47
102
}
330
47
100
AcDbScale
 70
     0
300
1/2" = 1'-0"
140
0.5
141
12.0
290
     0
  0
SCALE
  5
63
102
{ACAD_REACTORS
330
47
102
}
330
47
100
AcDbScale
 70
     0
300
3/4" = 1'-0"
140
0.75
141
12.0
290
     0
  0
SCALE
  5
64
102
{ACAD_REACTORS
330
47
102
}
330
47
100
AcDbScale
 70
     0
300
1" = 1'-0"
140
1.0
141
12.0
290
     0
  0
SCALE
  5
65
102
{ACAD_REACTORS
330
47
102
}
330
47
100
AcDbScale
 70
     0
300
1-1/2" = 1'-0"
140
1.5
141
12.0
290
     0
  0
SCALE
  5
66
102
{ACAD_REACTORS
330
47
102
}
330
47
100
AcDbScale
 70
     0
300
3" = 1'-0"
140
3.0
141
12.0
290
     0
  0
SCALE
  5
67
102
{ACAD_REACTORS
330
47
102
}
330
47
100
AcDbScale
 70
     0
300
6" = 1'-0"
140
6.0
141
12.0
290
     0
  0
SCALE
  5
68
102
{ACAD_REACTORS
330
47
102
}
330
47
100
AcDbScale
 70
     0
300
1'-0" = 1'-0"
140
12.0
141
12.0
290
     0
  0
ENDSEC
  0
EOF
