  0
SECTION
  2
HEADER
  9
$ACADVER
  1
AC1014
  9
$ACADMAINTVER
 70
     9
  9
$DWGCODEPAGE
  3
ANSI_1252
  9
$INSBASE
 10
0.0
 20
0.0
 30
0.0
  9
$EXTMIN
 10
0.0
 20
0.0
 30
0.0
  9
$EXTMAX
 10
841.0
 20
594.0
 30
0.0
  9
$LIMMIN
 10
0.0
 20
0.0
  9
$LIMMAX
 10
841.0
 20
594.0
  9
$ORTHOMODE
 70
     0
  9
$REGENMODE
 70
     1
  9
$FILLMODE
 70
     1
  9
$QTEXTMODE
 70
     0
  9
$MIRRTEXT
 70
     1
  9
$DRAGMODE
 70
     2
  9
$LTSCALE
 40
1.0
  9
$OSMODE
 70
    37
  9
$ATTMODE
 70
     1
  9
$TEXTSIZE
 40
10.0
  9
$TRACEWID
 40
1.0
  9
$TEXTSTYLE
  7
STANDARD
  9
$CLAYER
  8
0
  9
$CELTYPE
  6
BYLAYER
  9
$CECOLOR
 62
   256
  9
$CELTSCALE
 40
1.0
  9
$DELOBJ
 70
     1
  9
$DISPSILH
 70
     0
  9
$DIMSCALE
 40
1.0
  9
$DIMASZ
 40
2.5
  9
$DIMEXO
 40
0.0
  9
$DIMDLI
 40
3.75
  9
$DIMRND
 40
0.0
  9
$DIMDLE
 40
0.0
  9
$DIMEXE
 40
1.0
  9
$DIMTP
 40
0.0
  9
$DIMTM
 40
0.0
  9
$DIMTXT
 40
3.5
  9
$DIMCEN
 40
2.5
  9
$DIMTSZ
 40
0.0
  9
$DIMTOL
 70
     0
  9
$DIMLIM
 70
     0
  9
$DIMTIH
 70
     1
  9
$DIMTOH
 70
     1
  9
$DIMSE1
 70
     0
  9
$DIMSE2
 70
     0
  9
$DIMTAD
 70
     1
  9
$DIMZIN
 70
     0
  9
$DIMBLK
  1

  9
$DIMASO
 70
     1
  9
$DIMSHO
 70
     1
  9
$DIMPOST
  1

  9
$DIMAPOST
  1

  9
$DIMALT
 70
     0
  9
$DIMALTD
 70
     3
  9
$DIMALTF
 40
0.0393700787
  9
$DIMLFAC
 40
1.0
  9
$DIMTOFL
 70
     1
  9
$DIMTVP
 40
0.0
  9
$DIMTIX
 70
     0
  9
$DIMSOXD
 70
     0
  9
$DIMSAH
 70
     0
  9
$DIMBLK1
  1

  9
$DIMBLK2
  1

  9
$DIMSTYLE
  2
ISO-25
  9
$DIMCLRD
 70
     0
  9
$DIMCLRE
 70
     0
  9
$DIMCLRT
 70
     0
  9
$DIMTFAC
 40
1.0
  9
$DIMGAP
 40
1.5
  9
$DIMJUST
 70
     0
  9
$DIMSD1
 70
     0
  9
$DIMSD2
 70
     0
  9
$DIMTOLJ
 70
     0
  9
$DIMTZIN
 70
     0
  9
$DIMALTZ
 70
     0
  9
$DIMALTTZ
 70
     0
  9
$DIMFIT
 70
     3
  9
$DIMUPT
 70
     0
  9
$DIMUNIT
 70
     2
  9
$DIMDEC
 70
     2
  9
$DIMTDEC
 70
     2
  9
$DIMALTU
 70
     2
  9
$DIMALTTD
 70
     3
  9
$DIMTXSTY
  7
STANDARD
  9
$DIMAUNIT
 70
     0
  9
$LUNITS
 70
     2
  9
$LUPREC
 70
     2
  9
$SKETCHINC
 40
1.0
  9
$FILLETRAD
 40
10.0
  9
$AUNITS
 70
     0
  9
$AUPREC
 70
     2
  9
$MENU
  1
.
  9
$ELEVATION
 40
0.0
  9
$PELEVATION
 40
0.0
  9
$THICKNESS
 40
0.0
  9
$LIMCHECK
 70
     0
  9
$CHAMFERA
 40
0.0
  9
$CHAMFERB
 40
0.0
  9
$CHAMFERC
 40
0.0
  9
$CHAMFERD
 40
0.0
  9
$SKPOLY
 70
     0
  9
$TDCREATE
 40
2457351.660127801
  9
$TDUPDATE
 40
2457351.660129248
  9
$TDINDWG
 40
0.0000000116
  9
$TDUSRTIMER
 40
0.0000000116
  9
$USRTIMER
 70
     1
  9
$ANGBASE
 50
0.0
  9
$ANGDIR
 70
     0
  9
$PDMODE
 70
     0
  9
$PDSIZE
 40
-1.0
  9
$PLINEWID
 40
0.0
  9
$COORDS
 70
     1
  9
$SPLFRAME
 70
     0
  9
$SPLINETYPE
 70
     6
  9
$SPLINESEGS
 70
     8
  9
$ATTDIA
 70
     0
  9
$ATTREQ
 70
     1
  9
$HANDLING
 70
     1
  9
$HANDSEED
  5
408
  9
$SURFTAB1
 70
     6
  9
$SURFTAB2
 70
     6
  9
$SURFTYPE
 70
     6
  9
$SURFU
 70
     6
  9
$SURFV
 70
     6
  9
$UCSNAME
  2

  9
$UCSORG
 10
0.0
 20
0.0
 30
0.0
  9
$UCSXDIR
 10
1.0
 20
0.0
 30
0.0
  9
$UCSYDIR
 10
0.0
 20
1.0
 30
0.0
  9
$PUCSNAME
  2

  9
$PUCSORG
 10
0.0
 20
0.0
 30
0.0
  9
$PUCSXDIR
 10
1.0
 20
0.0
 30
0.0
  9
$PUCSYDIR
 10
0.0
 20
1.0
 30
0.0
  9
$USERI1
 70
     0
  9
$USERI2
 70
     0
  9
$USERI3
 70
     0
  9
$USERI4
 70
     0
  9
$USERI5
 70
     0
  9
$USERR1
 40
0.0
  9
$USERR2
 40
0.0
  9
$USERR3
 40
0.0
  9
$USERR4
 40
0.0
  9
$USERR5
 40
0.0
  9
$WORLDVIEW
 70
     1
  9
$SHADEDGE
 70
     3
  9
$SHADEDIF
 70
    70
  9
$TILEMODE
 70
     1
  9
$MAXACTVP
 70
    64
  9
$PINSBASE
 10
0.0
 20
0.0
 30
0.0
  9
$PLIMCHECK
 70
     0
  9
$PEXTMIN
 10
1.0000000000E+20
 20
1.0000000000E+20
 30
1.0000000000E+20
  9
$PEXTMAX
 10
-1.0000000000E+20
 20
-1.0000000000E+20
 30
-1.0000000000E+20
  9
$PLIMMIN
 10
0.0
 20
0.0
  9
$PLIMMAX
 10
420.0
 20
297.0
  9
$UNITMODE
 70
     0
  9
$VISRETAIN
 70
     1
  9
$PLINEGEN
 70
     0
  9
$PSLTSCALE
 70
     1
  9
$TREEDEPTH
 70
  3020
  9
$PICKSTYLE
 70
     1
  9
$CMLSTYLE
  2
STANDARD
  9
$CMLJUST
 70
     0
  9
$CMLSCALE
 40
20.0
  9
$PROXYGRAPHICS
 70
     1
  9
$MEASUREMENT
 70
     1
  0
ENDSEC
  0
SECTION
  2
CLASSES
  0
CLASS
  1
ACDBDICTIONARYWDFLT
  2
AcDbDictionaryWithDefault
  3
ObjectDBX Classes
 90
        0
280
     0
281
     0
  0
CLASS
  1
VISUALSTYLE
  2
AcDbVisualStyle
  3
ObjectDBX Classes
 90
     4095
280
     0
281
     0
  0
CLASS
  1
MATERIAL
  2
AcDbMaterial
  3
ObjectDBX Classes
 90
     1153
280
     0
281
     0
  0
CLASS
  1
SCALE
  2
AcDbScale
  3
ObjectDBX Classes
 90
     1153
280
     0
281
     0
  0
CLASS
  1
SUN
  2
AcDbSun
  3
SCENEOE
 90
     1153
280
     0
281
     0
  0
CLASS
  1
XRECORD
  2
AcDbXrecord
  3
ObjectDBX Classes
 90
        0
280
     0
281
     0
  0
CLASS
  1
LWPOLYLINE
  2
AcDbPolyline
  3
ObjectDBX Classes
 90
        0
280
     0
281
     1
  0
CLASS
  1
HATCH
  2
AcDbHatch
  3
ObjectDBX Classes
 90
        0
280
     0
281
     1
  0
ENDSEC
  0
SECTION
  2
TABLES
  0
TABLE
  2
VPORT
  5
8
330
0
100
AcDbSymbolTable
 70
     1
  0
VPORT
  5
29
330
8
100
AcDbSymbolTableRecord
100
AcDbViewportTableRecord
  2
*ACTIVE
 70
     0
 10
0.0
 20
0.0
 11
1.0
 21
1.0
 12
420.5
 22
297.0
 13
0.0
 23
0.0
 14
10.0
 24
10.0
 15
10.0
 25
10.0
 16
0.0
 26
0.0
 36
1.0
 17
0.0
 27
0.0
 37
0.0
 40
594.0
 41
1.4158249158
 42
50.0
 43
0.0
 44
0.0
 50
0.0
 51
0.0
 71
     0
 72
  2000
 73
     1
 74
     3
 75
     0
 76
     0
 77
     0
 78
     0
  0
ENDTAB
  0
TABLE
  2
LTYPE
  5
5
330
0
100
AcDbSymbolTable
 70
     6
  0
LTYPE
  5
14
330
5
100
AcDbSymbolTableRecord
100
AcDbLinetypeTableRecord
  2
BYBLOCK
 70
     0
  3

 72
    65
 73
     0
 40
0.0
  0
LTYPE
  5
15
330
5
100
AcDbSymbolTableRecord
100
AcDbLinetypeTableRecord
  2
BYLAYER
 70
     0
  3

 72
    65
 73
     0
 40
0.0
  0
LTYPE
  5
16
330
5
100
AcDbSymbolTableRecord
100
AcDbLinetypeTableRecord
  2
CONTINUOUS
 70
     0
  3
Solid line
 72
    65
 73
     0
 40
0.0
  0
LTYPE
  5
6A
330
5
100
AcDbSymbolTableRecord
100
AcDbLinetypeTableRecord
  2
HIDDEN
 70
     0
  3
Hidden __ __ __ __ __ __ __ __ __ __ __ __ __ __
 72
    65
 73
     2
 40
1.905
 49
1.27
 74
     0
 49
-0.635
 74
     0
  0
LTYPE
  5
6B
330
5
100
AcDbSymbolTableRecord
100
AcDbLinetypeTableRecord
  2
PHANTOM
 70
     0
  3
Phantom ______  __  __  ______  __  __  ______
 72
    65
 73
     6
 40
12.7
 49
6.35
 74
     0
 49
-1.27
 74
     0
 49
1.27
 74
     0
 49
-1.27
 74
     0
 49
1.27
 74
     0
 49
-1.27
 74
     0
  0
LTYPE
  5
6C
330
5
100
AcDbSymbolTableRecord
100
AcDbLinetypeTableRecord
  2
CENTER
 70
     0
  3
Center ____ _ ____ _ ____ _ ____ _ ____ _ ____
 72
    65
 73
     4
 40
10.16
 49
6.35
 74
     0
 49
-1.27
 74
     0
 49
1.27
 74
     0
 49
-1.27
 74
     0
  0
LTYPE
  5
6D
330
5
100
AcDbSymbolTableRecord
100
AcDbLinetypeTableRecord
  2
CENTERX2
 70
     0
  3
Center (2x) ________  __  ________  __  _____
 72
    65
 73
     4
 40
20.32
 49
12.7
 74
     0
 49
-2.54
 74
     0
 49
2.54
 74
     0
 49
-2.54
 74
     0
  0
LTYPE
  5
6E
330
5
100
AcDbSymbolTableRecord
100
AcDbLinetypeTableRecord
  2
DOT2
 70
     0
  3
Dot (.5x) ........................................
 72
    65
 73
     2
 40
0.635
 49
0.0
 74
     0
 49
-0.635
 74
     0
  0
ENDTAB
  0
TABLE
  2
LAYER
  5
2
330
0
100
AcDbSymbolTable
 70
     1
  0
LAYER
  5
10
330
2
100
AcDbSymbolTableRecord
100
AcDbLayerTableRecord
  2
0
 70
     0
 62
     7
  6
CONTINUOUS
  0
ENDTAB
  0
TABLE
  2
STYLE
  5
3
330
0
100
AcDbSymbolTable
 70
     3
  0
STYLE
  5
11
330
3
100
AcDbSymbolTableRecord
100
AcDbTextStyleTableRecord
  2
STANDARD
 70
     0
 40
0.0
 41
1.0
 50
0.0
 71
     0
 42
10.0
  3
txt
  4

  0
STYLE
  5
72
330
3
100
AcDbSymbolTableRecord
100
AcDbTextStyleTableRecord
  2
SLDTEXTSTYLE0
 70
     0
 40
0.0
 41
0.96
 50
0.0
 71
     0
 42
10.0
  3
ISOCP3
  4

  0
STYLE
  5
89
330
3
100
AcDbSymbolTableRecord
100
AcDbTextStyleTableRecord
  2
SLDTEXTSTYLE1
 70
     0
 40
0.0
 41
0.605
 50
0.0
 71
     0
 42
10.0
  3
TXT
  4

  0
ENDTAB
  0
TABLE
  2
VIEW
  5
6
330
0
100
AcDbSymbolTable
 70
     0
  0
ENDTAB
  0
TABLE
  2
UCS
  5
7
330
0
100
AcDbSymbolTable
 70
     0
  0
ENDTAB
  0
TABLE
  2
APPID
  5
9
330
0
100
AcDbSymbolTable
 70
     1
  0
APPID
  5
12
330
9
100
AcDbSymbolTableRecord
100
AcDbRegAppTableRecord
  2
ACAD
 70
     0
  0
ENDTAB
  0
TABLE
  2
DIMSTYLE
  5
A
330
0
100
AcDbSymbolTable
 70
     2
  0
DIMSTYLE
105
27
330
A
100
AcDbSymbolTableRecord
100
AcDbDimStyleTableRecord
  2
ISO-25
 70
     0
  3

  4

  5

  6

  7

 40
1.0
 41
2.5
 42
0.625
 43
3.75
 44
1.25
 45
0.0
 46
0.0
 47
0.0
 48
0.0
140
2.5
141
2.5
142
0.0
143
0.0393700787
144
1.0
145
0.0
146
1.0
147
0.625
 71
     0
 72
     0
 73
     0
 74
     0
 75
     0
 76
     0
 77
     1
 78
     8
170
     0
171
     3
172
     1
173
     0
174
     0
175
     0
176
     0
177
     0
178
     0
270
     2
271
     2
272
     2
273
     2
274
     3
340
11
275
     0
280
     0
281
     0
282
     0
283
     0
284
     8
285
     0
286
     0
287
     3
288
     0
  0
DIMSTYLE
105
73
102
{ACAD_REACTORS
330
71
330
7E
102
}
330
A
100
AcDbSymbolTableRecord
100
AcDbDimStyleTableRecord
  2
SLDDIMSTYLE0
 70
     0
  3

  4

  5

  6

  7

 40
1.0
 41
2.5
 42
0.0625
 43
0.38
 44
0.0
 45
0.000000001
 46
0.0
 47
0.0
 48
0.0
140
6.0
141
0.09
142
0.0
143
25.4
144
1.0
145
0.0
146
1.0
147
1.5
 71
     0
 72
     0
 73
     0
 74
     0
 75
     0
 76
     0
 77
     1
 78
    12
170
     0
171
     2
172
     0
173
     1
174
     0
175
     0
176
     0
177
     0
178
     0
270
     2
271
     2
272
     2
273
     2
274
     2
340
72
275
     0
280
     0
281
     0
282
     0
283
     1
284
    12
285
     0
286
     0
287
     3
288
     0
  0
ENDTAB
  0
TABLE
  2
BLOCK_RECORD
  5
1
330
0
100
AcDbSymbolTable
 70
     3
  0
BLOCK_RECORD
  5
1F
330
1
100
AcDbSymbolTableRecord
100
AcDbBlockTableRecord
  2
*MODEL_SPACE
  0
BLOCK_RECORD
  5
1B
330
1
100
AcDbSymbolTableRecord
100
AcDbBlockTableRecord
  2
*PAPER_SPACE
  0
BLOCK_RECORD
  5
23
330
1
100
AcDbSymbolTableRecord
100
AcDbBlockTableRecord
  2
*PAPER_SPACE0
  0
BLOCK_RECORD
  5
74
330
1
100
AcDbSymbolTableRecord
100
AcDbBlockTableRecord
  2
_D
  0
BLOCK_RECORD
  5
7F
330
1
100
AcDbSymbolTableRecord
100
AcDbBlockTableRecord
  2
_D_1
  0
ENDTAB
  0
ENDSEC
  0
SECTION
  2
BLOCKS
  0
BLOCK
  5
20
330
1F
100
AcDbEntity
  8
0
100
AcDbBlockBegin
  2
*MODEL_SPACE
 70
     0
 10
0.0
 20
0.0
 30
0.0
  3
*MODEL_SPACE
  1

  0
ENDBLK
  5
21
330
1F
100
AcDbEntity
  8
0
100
AcDbBlockEnd
  0
BLOCK
  5
1C
330
1B
100
AcDbEntity
 67
     1
  8
0
100
AcDbBlockBegin
  2
*PAPER_SPACE
 70
     0
 10
0.0
 20
0.0
 30
0.0
  3
*PAPER_SPACE
  1

  0
ENDBLK
  5
1D
330
1B
100
AcDbEntity
 67
     1
  8
0
100
AcDbBlockEnd
  0
BLOCK
  5
24
330
23
100
AcDbEntity
  8
0
100
AcDbBlockBegin
  2
*PAPER_SPACE0
 70
     0
 10
0.0
 20
0.0
 30
0.0
  3
*PAPER_SPACE0
  1
*PAPER_SPACE0
  0
ENDBLK
  5
25
330
23
100
AcDbEntity
  8
0
100
AcDbBlockEnd
  0
BLOCK
  5
75
330
74
100
AcDbEntity
  8
0
100
AcDbBlockBegin
  2
_D
 70
     0
 10
0.0
 20
0.0
 30
0.0
  3
_D
  1
_D
  0
SOLID
  5
77
330
74
100
AcDbEntity
  8
0
  6
CONTINUOUS
 62
     7
100
AcDbTrace
 10
42.7614395004
 20
152.0299240879
 30
0.0
 11
42.4614395004
 21
149.5299240879
 31
0.0
 12
43.0614395004
 22
149.5299240879
 32
0.0
 13
43.0614395004
 23
149.5299240879
 33
0.0
  0
SOLID
  5
78
330
74
100
AcDbEntity
  8
0
  6
CONTINUOUS
 62
     7
100
AcDbTrace
 10
42.7614395004
 20
52.0299240879
 30
0.0
 11
43.0614395004
 21
54.5299240879
 31
0.0
 12
42.4614395004
 22
54.5299240879
 32
0.0
 13
42.4614395004
 23
54.5299240879
 33
0.0
  0
LINE
  5
79
330
74
100
AcDbEntity
  8
0
  6
CONTINUOUS
 62
     7
100
AcDbLine
 10
56.6850079902
 20
152.0299240879
 30
0.0
 11
41.7614395004
 21
152.0299240879
 31
0.0
  0
LINE
  5
7A
330
74
100
AcDbEntity
  8
0
  6
CONTINUOUS
 62
     7
100
AcDbLine
 10
56.6850079902
 20
52.0299240879
 30
0.0
 11
41.7614395004
 21
52.0299240879
 31
0.0
  0
LINE
  5
7B
330
74
100
AcDbEntity
  8
0
  6
CONTINUOUS
 62
     7
100
AcDbLine
 10
42.7614395004
 20
152.0299240879
 30
0.0
 11
42.7614395004
 21
52.0299240879
 31
0.0
  0
MTEXT
  5
7C
330
74
100
AcDbEntity
  8
0
  6
CONTINUOUS
 62
     7
100
AcDbMText
 10
35.0270332946
 20
94.3680541463
 30
0.0
 40
6.0
 41
0.0
 71
     1
 72
     1
  1
100
  7
SLDTEXTSTYLE0
 11
-7.044195017643634E-15
 21
1.0
 31
0.0
  0
MTEXT
  5
7D
330
74
100
AcDbEntity
  8
0
  6
CONTINUOUS
 62
     7
100
AcDbMText
 10
35.0270332946
 20
105.7430548466
 30
0.0
 40
6.0
 41
0.0
 71
     1
 72
     1
  1
mm
  7
SLDTEXTSTYLE0
 11
-7.044195017643634E-15
 21
1.0
 31
0.0
  0
ENDBLK
  5
76
330
74
100
AcDbEntity
  8
0
100
AcDbBlockEnd
  0
BLOCK
  5
80
330
7F
100
AcDbEntity
  8
0
100
AcDbBlockBegin
  2
_D_1
 70
     0
 10
0.0
 20
0.0
 30
0.0
  3
_D_1
  1
_D_1
  0
SOLID
  5
82
330
7F
100
AcDbEntity
  8
0
  6
CONTINUOUS
 62
     7
100
AcDbTrace
 10
56.6850079902
 20
38.4602342313
 30
0.0
 11
59.1850079902
 21
38.1602342313
 31
0.0
 12
59.1850079902
 22
38.7602342313
 32
0.0
 13
59.1850079902
 23
38.7602342313
 33
0.0
  0
SOLID
  5
83
330
7F
100
AcDbEntity
  8
0
  6
CONTINUOUS
 62
     7
100
AcDbTrace
 10
156.6850079902
 20
38.4602342313
 30
0.0
 11
154.1850079902
 21
38.7602342313
 31
0.0
 12
154.1850079902
 22
38.1602342313
 32
0.0
 13
154.1850079902
 23
38.1602342313
 33
0.0
  0
LINE
  5
84
330
7F
100
AcDbEntity
  8
0
  6
CONTINUOUS
 62
     7
100
AcDbLine
 10
56.6850079902
 20
52.0299240879
 30
0.0
 11
56.6850079902
 21
37.4602342313
 31
0.0
  0
LINE
  5
85
330
7F
100
AcDbEntity
  8
0
  6
CONTINUOUS
 62
     7
100
AcDbLine
 10
156.6850079902
 20
52.0299240879
 30
0.0
 11
156.6850079902
 21
37.4602342313
 31
0.0
  0
LINE
  5
86
330
7F
100
AcDbEntity
  8
0
  6
CONTINUOUS
 62
     7
100
AcDbLine
 10
56.6850079902
 20
38.4602342313
 30
0.0
 11
156.6850079902
 21
38.4602342313
 31
0.0
  0
MTEXT
  5
87
330
7F
100
AcDbEntity
  8
0
  6
CONTINUOUS
 62
     7
100
AcDbMText
 10
93.9626484861
 20
46.1946404371
 30
0.0
 40
6.0
 41
0.0
 71
     1
 72
     1
  1
100
  7
SLDTEXTSTYLE0
  0
MTEXT
  5
88
330
7F
100
AcDbEntity
  8
0
  6
CONTINUOUS
 62
     7
100
AcDbMText
 10
105.3376491864
 20
46.1946404371
 30
0.0
 40
6.0
 41
0.0
 71
     1
 72
     1
  1
mm
  7
SLDTEXTSTYLE0
  0
ENDBLK
  5
81
330
7F
100
AcDbEntity
  8
0
100
AcDbBlockEnd
  0
ENDSEC
  0
SECTION
  2
ENTITIES
  0
LINE
  5
6F
330
1F
100
AcDbEntity
  8
0
  6
CONTINUOUS
 62
     7
100
AcDbLine
 10
56.6850079902
 20
152.0299240879
 30
0.0
 11
56.6850079902
 21
52.0299240879
 31
0.0
  0
LINE
  5
70
330
1F
100
AcDbEntity
  8
0
  6
CONTINUOUS
 62
     7
100
AcDbLine
 10
56.6850079902
 20
52.0299240879
 30
0.0
 11
156.6850079902
 21
52.0299240879
 31
0.0
  0
DIMENSION
  5
71
330
1F
100
AcDbEntity
  8
0
  6
CONTINUOUS
 62
     7
100
AcDbDimension
  2
_D
 10
42.7614395004
 20
52.0299240879
 30
0.0
 11
42.7614395004
 21
105.4472211621
 31
0.0
 70
   160
  1
<>mm
  3
SLDDIMSTYLE0
100
AcDbAlignedDimension
 13
56.6850079902
 23
152.0299240879
 33
0.0
 14
56.6850079902
 24
52.0299240879
 34
0.0
 50
90.0
100
AcDbRotatedDimension
  0
DIMENSION
  5
7E
330
1F
100
AcDbEntity
  8
0
  6
CONTINUOUS
 62
     7
100
AcDbDimension
  2
_D_1
 10
156.6850079902
 20
38.4602342313
 30
0.0
 11
105.0418155019
 21
38.4602342313
 31
0.0
 70
   160
  1
<>mm
  3
SLDDIMSTYLE0
100
AcDbAlignedDimension
 13
56.6850079902
 23
52.0299240879
 33
0.0
 14
156.6850079902
 24
52.0299240879
 34
0.0
100
AcDbRotatedDimension
  0
MTEXT
  5
8A
330
1F
100
AcDbEntity
  8
0
  6
CONTINUOUS
 62
     7
100
AcDbMText
 10
347.5532847896
 20
48.6198453877
 30
0.0
 40
10.0
 41
0.0
 71
     1
 72
     1
  1
64 325 05-00
  7
SLDTEXTSTYLE1
  0
MTEXT
  5
8B
330
1F
100
AcDbEntity
  8
0
  6
CONTINUOUS
 62
     7
100
AcDbMText
 10
664.658399795
 20
48.4342449499
 30
0.0
 40
10.0
 41
0.0
 71
     1
 72
     1
  1
KLUDI GmbH & Co KG
  7
SLDTEXTSTYLE1
  0
LINE
  5
8C
330
1F
100
AcDbEntity
  8
0
  6
CONTINUOUS
 62
     7
100
AcDbLine
 10
131.9752941176
 20
428.5973306232
 30
0.0
 11
131.9752941176
 21
420.5973302432
 31
0.0
  0
LINE
  5
8D
330
1F
100
AcDbEntity
  8
0
  6
CONTINUOUS
 62
     7
100
AcDbLine
 10
381.9752941176
 20
420.5973302432
 30
0.0
 11
381.9752941176
 21
428.5973306232
 31
0.0
  0
ARC
  5
8E
330
1F
100
AcDbEntity
  8
0
  6
CONTINUOUS
 62
     7
100
AcDbCircle
 10
271.3092839412
 20
418.2973302432
 30
0.0
 40
0.2000000000000455
100
AcDbArc
 50
270.0
 51
0.0
  0
ARC
  5
8F
330
1F
100
AcDbEntity
  8
0
  6
CONTINUOUS
 62
     7
100
AcDbCircle
 10
268.2092839412
 20
418.2973302432
 30
0.0
 40
0.2000000000000455
100
AcDbArc
 50
180.0
 51
270.0
  0
ARC
  5
90
330
1F
100
AcDbEntity
  8
0
  6
CONTINUOUS
 62
     7
100
AcDbCircle
 10
245.7413042941
 20
418.2973302432
 30
0.0
 40
0.2000000000000455
100
AcDbArc
 50
270.0
 51
0.0
  0
ARC
  5
91
330
1F
100
AcDbEntity
  8
0
  6
CONTINUOUS
 62
     7
100
AcDbCircle
 10
242.6413042941
 20
418.2973302432
 30
0.0
 40
0.2000000000000455
100
AcDbArc
 50
180.0
 51
270.0
  0
LINE
  5
92
330
1F
100
AcDbEntity
  8
0
  6
CONTINUOUS
 62
     7
100
AcDbLine
 10
271.5092841804
 20
418.2973301922
 30
0.0
 11
271.5092841804
 21
420.5973302432
 31
0.0
  0
LINE
  5
93
330
1F
100
AcDbEntity
  8
0
  6
CONTINUOUS
 62
     7
100
AcDbLine
 10
268.0092836067
 20
420.5973302432
 30
0.0
 11
268.0092836067
 21
418.2973301922
 31
0.0
  0
LINE
  5
94
330
1F
100
AcDbEntity
  8
0
  6
CONTINUOUS
 62
     7
100
AcDbLine
 10
245.9413046286
 20
418.2973301922
 30
0.0
 11
245.9413046286
 21
420.5973302432
 31
0.0
  0
LINE
  5
95
330
1F
100
AcDbEntity
  8
0
  6
CONTINUOUS
 62
     7
100
AcDbLine
 10
242.4413040549
 20
420.5973302432
 30
0.0
 11
242.4413040549
 21
418.2973301922
 31
0.0
  0
ARC
  5
96
330
1F
100
AcDbEntity
  8
0
  6
CONTINUOUS
 62
     7
100
AcDbCircle
 10
296.0739984915
 20
418.2973302432
 30
0.0
 40
0.2000000000000455
100
AcDbArc
 50
270.0
 51
0.0
  0
ARC
  5
97
330
1F
100
AcDbEntity
  8
0
  6
CONTINUOUS
 62
     7
100
AcDbCircle
 10
292.9739984915
 20
418.2973302432
 30
0.0
 40
0.2000000000000455
100
AcDbArc
 50
180.0
 51
270.0
  0
ARC
  5
98
330
1F
100
AcDbEntity
  8
0
  6
CONTINUOUS
 62
     7
100
AcDbCircle
 10
220.9765897438
 20
418.2973302432
 30
0.0
 40
0.2000000000000455
100
AcDbArc
 50
270.0
 51
0.0
  0
ARC
  5
99
330
1F
100
AcDbEntity
  8
0
  6
CONTINUOUS
 62
     7
100
AcDbCircle
 10
217.8765897438
 20
418.2973302432
 30
0.0
 40
0.2000000000000455
100
AcDbArc
 50
180.0
 51
270.0
  0
LINE
  5
9A
330
1F
100
AcDbEntity
  8
0
  6
CONTINUOUS
 62
     7
100
AcDbLine
 10
221.1765880034
 20
418.2973301922
 30
0.0
 11
221.1765880034
 21
420.5973302432
 31
0.0
  0
LINE
  5
9B
330
1F
100
AcDbEntity
  8
0
  6
CONTINUOUS
 62
     7
100
AcDbLine
 10
217.676588361
 20
420.5973302432
 30
0.0
 11
217.676588361
 21
418.2973301922
 31
0.0
  0
LINE
  5
9C
330
1F
100
AcDbEntity
  8
0
  6
CONTINUOUS
 62
     7
100
AcDbLine
 10
296.2739998743
 20
418.2973301922
 30
0.0
 11
296.2739998743
 21
420.5973302432
 31
0.0
  0
LINE
  5
9D
330
1F
100
AcDbEntity
  8
0
  6
CONTINUOUS
 62
     7
100
AcDbLine
 10
292.7740002319
 20
420.5973302432
 30
0.0
 11
292.7740002319
 21
418.2973301922
 31
0.0
  0
ARC
  5
9E
330
1F
100
AcDbEntity
  8
0
  6
CONTINUOUS
 62
     7
100
AcDbCircle
 10
247.8719692647
 20
418.2973302432
 30
0.0
 40
0.2000000000000455
100
AcDbArc
 50
270.0
 51
0.0
  0
ARC
  5
9F
330
1F
100
AcDbEntity
  8
0
  6
CONTINUOUS
 62
     7
100
AcDbCircle
 10
266.0786189706
 20
418.2973302432
 30
0.0
 40
0.2000000000000455
100
AcDbArc
 50
180.0
 51
270.0
  0
LINE
  5
A0
330
1F
100
AcDbEntity
  8
0
  6
CONTINUOUS
 62
     7
100
AcDbLine
 10
248.0719695136
 20
418.2973301922
 30
0.0
 11
248.0719695136
 21
420.5973302432
 31
0.0
  0
LINE
  5
A1
330
1F
100
AcDbEntity
  8
0
  6
CONTINUOUS
 62
     7
100
AcDbLine
 10
265.8786187217
 20
420.5973302432
 30
0.0
 11
265.8786187217
 21
418.2973301922
 31
0.0
  0
ARC
  5
A2
330
1F
100
AcDbEntity
  8
0
  6
CONTINUOUS
 62
     7
100
AcDbCircle
 10
198.5711983838
 20
418.2973302432
 30
0.0
 40
0.2000000000000455
100
AcDbArc
 50
270.0
 51
0.0
  0
ARC
  5
A3
330
1F
100
AcDbEntity
  8
0
  6
CONTINUOUS
 62
     7
100
AcDbCircle
 10
195.4711983838
 20
418.2973302432
 30
0.0
 40
0.2000000000000455
100
AcDbArc
 50
180.0
 51
270.0
  0
ARC
  5
A4
330
1F
100
AcDbEntity
  8
0
  6
CONTINUOUS
 62
     7
100
AcDbCircle
 10
318.4793898515
 20
418.2973302432
 30
0.0
 40
0.2000000000000455
100
AcDbArc
 50
270.0
 51
0.0
  0
ARC
  5
A5
330
1F
100
AcDbEntity
  8
0
  6
CONTINUOUS
 62
     7
100
AcDbCircle
 10
315.3793898515
 20
418.2973302432
 30
0.0
 40
0.2000000000000455
100
AcDbArc
 50
180.0
 51
270.0
  0
LINE
  5
A6
330
1F
100
AcDbEntity
  8
0
  6
CONTINUOUS
 62
     7
100
AcDbLine
 10
198.771198307
 20
418.2973301922
 30
0.0
 11
198.771198307
 21
420.5973302432
 31
0.0
  0
LINE
  5
A7
330
1F
100
AcDbEntity
  8
0
  6
CONTINUOUS
 62
     7
100
AcDbLine
 10
195.2711986646
 20
420.5973302432
 30
0.0
 11
195.2711986646
 21
418.2973301922
 31
0.0
  0
LINE
  5
A8
330
1F
100
AcDbEntity
  8
0
  6
CONTINUOUS
 62
     7
100
AcDbLine
 10
318.6793895707
 20
418.2973301922
 30
0.0
 11
318.6793895707
 21
420.5973302432
 31
0.0
  0
LINE
  5
A9
330
1F
100
AcDbEntity
  8
0
  6
CONTINUOUS
 62
     7
100
AcDbLine
 10
315.1793899283
 20
420.5973302432
 30
0.0
 11
315.1793899283
 21
418.2973301922
 31
0.0
  0
ARC
  5
AA
330
1F
100
AcDbEntity
  8
0
  6
CONTINUOUS
 62
     7
100
AcDbCircle
 10
289.8158810958
 20
418.2973302432
 30
0.0
 40
0.2000000000000455
100
AcDbArc
 50
270.0
 51
0.0
  0
ARC
  5
AB
330
1F
100
AcDbEntity
  8
0
  6
CONTINUOUS
 62
     7
100
AcDbCircle
 10
286.7158810958
 20
418.2973302432
 30
0.0
 40
0.2000000000000455
100
AcDbArc
 50
180.0
 51
270.0
  0
ARC
  5
AC
330
1F
100
AcDbEntity
  8
0
  6
CONTINUOUS
 62
     7
100
AcDbCircle
 10
227.2347071394
 20
418.2973302432
 30
0.0
 40
0.2000000000000455
100
AcDbArc
 50
270.0
 51
0.0
  0
ARC
  5
AD
330
1F
100
AcDbEntity
  8
0
  6
CONTINUOUS
 62
     7
100
AcDbCircle
 10
224.1347071394
 20
418.2973302432
 30
0.0
 40
0.2000000000000455
100
AcDbArc
 50
180.0
 51
270.0
  0
LINE
  5
AE
330
1F
100
AcDbEntity
  8
0
  6
CONTINUOUS
 62
     7
100
AcDbLine
 10
227.434706901
 20
418.2973301922
 30
0.0
 11
227.434706901
 21
420.5973302432
 31
0.0
  0
LINE
  5
AF
330
1F
100
AcDbEntity
  8
0
  6
CONTINUOUS
 62
     7
100
AcDbLine
 10
223.9347072587
 20
420.5973302432
 30
0.0
 11
223.9347072587
 21
418.2973301922
 31
0.0
  0
LINE
  5
B0
330
1F
100
AcDbEntity
  8
0
  6
CONTINUOUS
 62
     7
100
AcDbLine
 10
290.0158809766
 20
418.2973301922
 30
0.0
 11
290.0158809766
 21
420.5973302432
 31
0.0
  0
LINE
  5
B1
330
1F
100
AcDbEntity
  8
0
  6
CONTINUOUS
 62
     7
100
AcDbLine
 10
286.5158813343
 20
420.5973302432
 30
0.0
 11
286.5158813343
 21
418.2973301922
 31
0.0
  0
ARC
  5
B2
330
1F
100
AcDbEntity
  8
0
  6
CONTINUOUS
 62
     7
100
AcDbCircle
 10
308.4870405625
 20
418.2973302432
 30
0.0
 40
0.2000000000000455
100
AcDbArc
 50
270.0
 51
0.0
  0
ARC
  5
B3
330
1F
100
AcDbEntity
  8
0
  6
CONTINUOUS
 62
     7
100
AcDbCircle
 10
305.3870405625
 20
418.2973302432
 30
0.0
 40
0.2000000000000455
100
AcDbArc
 50
180.0
 51
270.0
  0
ARC
  5
B4
330
1F
100
AcDbEntity
  8
0
  6
CONTINUOUS
 62
     7
100
AcDbCircle
 10
208.5635476728
 20
418.2973302432
 30
0.0
 40
0.2000000000000455
100
AcDbArc
 50
270.0
 51
0.0
  0
ARC
  5
B5
330
1F
100
AcDbEntity
  8
0
  6
CONTINUOUS
 62
     7
100
AcDbCircle
 10
205.4635476728
 20
418.2973302432
 30
0.0
 40
0.2000000000000455
100
AcDbArc
 50
180.0
 51
270.0
  0
LINE
  5
B6
330
1F
100
AcDbEntity
  8
0
  6
CONTINUOUS
 62
     7
100
AcDbLine
 10
308.6870396778
 20
418.2973301922
 30
0.0
 11
308.6870396778
 21
420.5973302432
 31
0.0
  0
LINE
  5
B7
330
1F
100
AcDbEntity
  8
0
  6
CONTINUOUS
 62
     7
100
AcDbLine
 10
305.1870400354
 20
420.5973302432
 30
0.0
 11
305.1870400354
 21
418.2973301922
 31
0.0
  0
LINE
  5
B8
330
1F
100
AcDbEntity
  8
0
  6
CONTINUOUS
 62
     7
100
AcDbLine
 10
208.7635481999
 20
418.2973301922
 30
0.0
 11
208.7635481999
 21
420.5973302432
 31
0.0
  0
LINE
  5
B9
330
1F
100
AcDbEntity
  8
0
  6
CONTINUOUS
 62
     7
100
AcDbLine
 10
205.2635485575
 20
420.5973302432
 30
0.0
 11
205.2635485575
 21
418.2973301922
 31
0.0
  0
ARC
  5
BA
330
1F
100
AcDbEntity
  8
0
  6
CONTINUOUS
 62
     7
100
AcDbCircle
 10
258.5252941176
 20
418.2973302432
 30
0.0
 40
0.2000000000000455
100
AcDbArc
 50
270.0
 51
0.0
  0
ARC
  5
BB
330
1F
100
AcDbEntity
  8
0
  6
CONTINUOUS
 62
     7
100
AcDbCircle
 10
255.4252941176
 20
418.2973302432
 30
0.0
 40
0.2000000000000455
100
AcDbArc
 50
180.0
 51
270.0
  0
LINE
  5
BC
330
1F
100
AcDbEntity
  8
0
  6
CONTINUOUS
 62
     7
100
AcDbLine
 10
258.7252941717
 20
418.2973301922
 30
0.0
 11
258.7252941717
 21
420.5973302432
 31
0.0
  0
LINE
  5
BD
330
1F
100
AcDbEntity
  8
0
  6
CONTINUOUS
 62
     7
100
AcDbLine
 10
255.2252940636
 20
420.5973302432
 30
0.0
 11
255.2252940636
 21
418.2973301922
 31
0.0
  0
ARC
  5
BE
330
1F
100
AcDbEntity
  8
0
  6
CONTINUOUS
 62
     7
100
AcDbCircle
 10
337.1176448808
 20
418.2973302432
 30
0.0
 40
0.2000000000000455
100
AcDbArc
 50
270.0
 51
0.0
  0
ARC
  5
BF
330
1F
100
AcDbEntity
  8
0
  6
CONTINUOUS
 62
     7
100
AcDbCircle
 10
334.0176448808
 20
418.2973302432
 30
0.0
 40
0.2000000000000455
100
AcDbArc
 50
180.0
 51
270.0
  0
ARC
  5
C0
330
1F
100
AcDbEntity
  8
0
  6
CONTINUOUS
 62
     7
100
AcDbCircle
 10
179.9329433545
 20
418.2973302432
 30
0.0
 40
0.2000000000000455
100
AcDbArc
 50
270.0
 51
0.0
  0
ARC
  5
C1
330
1F
100
AcDbEntity
  8
0
  6
CONTINUOUS
 62
     7
100
AcDbCircle
 10
176.8329433545
 20
418.2973302432
 30
0.0
 40
0.2000000000000455
100
AcDbArc
 50
180.0
 51
270.0
  0
LINE
  5
C2
330
1F
100
AcDbEntity
  8
0
  6
CONTINUOUS
 62
     7
100
AcDbLine
 10
337.3176465079
 20
418.2973301922
 30
0.0
 11
337.3176465079
 21
420.5973302432
 31
0.0
  0
LINE
  5
C3
330
1F
100
AcDbEntity
  8
0
  6
CONTINUOUS
 62
     7
100
AcDbLine
 10
333.8176468656
 20
420.5973302432
 30
0.0
 11
333.8176468656
 21
418.2973301922
 31
0.0
  0
LINE
  5
C4
330
1F
100
AcDbEntity
  8
0
  6
CONTINUOUS
 62
     7
100
AcDbLine
 10
180.1329413697
 20
418.2973301922
 30
0.0
 11
180.1329413697
 21
420.5973302432
 31
0.0
  0
LINE
  5
C5
330
1F
100
AcDbEntity
  8
0
  6
CONTINUOUS
 62
     7
100
AcDbLine
 10
176.6329417274
 20
420.5973302432
 30
0.0
 11
176.6329417274
 21
418.2973301922
 31
0.0
  0
ARC
  5
C6
330
1F
100
AcDbEntity
  8
0
  6
CONTINUOUS
 62
     7
100
AcDbCircle
 10
279.5384497351
 20
418.2973302432
 30
0.0
 40
0.2000000000000455
100
AcDbArc
 50
270.0
 51
0.0
  0
ARC
  5
C7
330
1F
100
AcDbEntity
  8
0
  6
CONTINUOUS
 62
     7
100
AcDbCircle
 10
276.4384497351
 20
418.2973302432
 30
0.0
 40
0.2000000000000455
100
AcDbArc
 50
180.0
 51
270.0
  0
ARC
  5
C8
330
1F
100
AcDbEntity
  8
0
  6
CONTINUOUS
 62
     7
100
AcDbCircle
 10
237.5121385001
 20
418.2973302432
 30
0.0
 40
0.2000000000000455
100
AcDbArc
 50
270.0
 51
0.0
  0
ARC
  5
C9
330
1F
100
AcDbEntity
  8
0
  6
CONTINUOUS
 62
     7
100
AcDbCircle
 10
234.4121385001
 20
418.2973302432
 30
0.0
 40
0.2000000000000455
100
AcDbArc
 50
180.0
 51
270.0
  0
LINE
  5
CA
330
1F
100
AcDbEntity
  8
0
  6
CONTINUOUS
 62
     7
100
AcDbLine
 10
237.7121383593
 20
418.2973301922
 30
0.0
 11
237.7121383593
 21
420.5973302432
 31
0.0
  0
LINE
  5
CB
330
1F
100
AcDbEntity
  8
0
  6
CONTINUOUS
 62
     7
100
AcDbLine
 10
234.2121387169
 20
420.5973302432
 30
0.0
 11
234.2121387169
 21
418.2973301922
 31
0.0
  0
LINE
  5
CC
330
1F
100
AcDbEntity
  8
0
  6
CONTINUOUS
 62
     7
100
AcDbLine
 10
279.7384495184
 20
418.2973301922
 30
0.0
 11
279.7384495184
 21
420.5973302432
 31
0.0
  0
LINE
  5
CD
330
1F
100
AcDbEntity
  8
0
  6
CONTINUOUS
 62
     7
100
AcDbLine
 10
276.238449876
 20
420.5973302432
 30
0.0
 11
276.238449876
 21
418.2973301922
 31
0.0
  0
ARC
  5
CE
330
1F
100
AcDbEntity
  8
0
  6
CONTINUOUS
 62
     7
100
AcDbCircle
 10
298.4946912735
 20
418.2973302432
 30
0.0
 40
0.2000000000000455
100
AcDbArc
 50
270.0
 51
0.0
  0
ARC
  5
CF
330
1F
100
AcDbEntity
  8
0
  6
CONTINUOUS
 62
     7
100
AcDbCircle
 10
215.4558969618
 20
418.2973302432
 30
0.0
 40
0.2000000000000455
100
AcDbArc
 50
180.0
 51
270.0
  0
LINE
  5
D0
330
1F
100
AcDbEntity
  8
0
  6
CONTINUOUS
 62
     7
100
AcDbLine
 10
215.2558984503
 20
420.5973302432
 30
0.0
 11
215.2558984503
 21
418.2973301922
 31
0.0
  0
LINE
  5
D1
330
1F
100
AcDbEntity
  8
0
  6
CONTINUOUS
 62
     7
100
AcDbLine
 10
298.694689785
 20
418.2973301922
 30
0.0
 11
298.694689785
 21
420.5973302432
 31
0.0
  0
ARC
  5
D2
330
1F
100
AcDbEntity
  8
0
  6
CONTINUOUS
 62
     7
100
AcDbCircle
 10
193.0316684817
 20
418.2973302432
 30
0.0
 40
0.2000000000000455
100
AcDbArc
 50
270.0
 51
0.0
  0
ARC
  5
D3
330
1F
100
AcDbEntity
  8
0
  6
CONTINUOUS
 62
     7
100
AcDbCircle
 10
189.9316684817
 20
418.2973302432
 30
0.0
 40
0.2000000000000455
100
AcDbArc
 50
180.0
 51
270.0
  0
ARC
  5
D4
330
1F
100
AcDbEntity
  8
0
  6
CONTINUOUS
 62
     7
100
AcDbCircle
 10
324.0189197536
 20
418.2973302432
 30
0.0
 40
0.2000000000000455
100
AcDbArc
 50
270.0
 51
0.0
  0
ARC
  5
D5
330
1F
100
AcDbEntity
  8
0
  6
CONTINUOUS
 62
     7
100
AcDbCircle
 10
320.9189197536
 20
418.2973302432
 30
0.0
 40
0.2000000000000455
100
AcDbArc
 50
180.0
 51
270.0
  0
LINE
  5
D6
330
1F
100
AcDbEntity
  8
0
  6
CONTINUOUS
 62
     7
100
AcDbLine
 10
324.2189223215
 20
418.2973301922
 30
0.0
 11
324.2189223215
 21
420.5973302432
 31
0.0
  0
LINE
  5
D7
330
1F
100
AcDbEntity
  8
0
  6
CONTINUOUS
 62
     7
100
AcDbLine
 10
320.7189226791
 20
420.5973302432
 30
0.0
 11
320.7189226791
 21
418.2973301922
 31
0.0
  0
LINE
  5
D8
330
1F
100
AcDbEntity
  8
0
  6
CONTINUOUS
 62
     7
100
AcDbLine
 10
193.2316655562
 20
418.2973301922
 30
0.0
 11
193.2316655562
 21
420.5973302432
 31
0.0
  0
LINE
  5
D9
330
1F
100
AcDbEntity
  8
0
  6
CONTINUOUS
 62
     7
100
AcDbLine
 10
189.7316659138
 20
420.5973302432
 30
0.0
 11
189.7316659138
 21
418.2973301922
 31
0.0
  0
ARC
  5
DA
330
1F
100
AcDbEntity
  8
0
  6
CONTINUOUS
 62
     7
100
AcDbCircle
 10
266.0287903494
 20
418.2973302432
 30
0.0
 40
0.2000000000000455
100
AcDbArc
 50
180.0
 51
270.0
  0
ARC
  5
DB
330
1F
100
AcDbEntity
  8
0
  6
CONTINUOUS
 62
     7
100
AcDbCircle
 10
247.9217978859
 20
418.2973302432
 30
0.0
 40
0.2000000000000455
100
AcDbArc
 50
270.0
 51
0.0
  0
LINE
  5
DC
330
1F
100
AcDbEntity
  8
0
  6
CONTINUOUS
 62
     7
100
AcDbLine
 10
265.82879017
 20
420.5973302432
 30
0.0
 11
265.82879017
 21
418.2973301922
 31
0.0
  0
LINE
  5
DD
330
1F
100
AcDbEntity
  8
0
  6
CONTINUOUS
 62
     7
100
AcDbLine
 10
248.1217980653
 20
418.2973301922
 30
0.0
 11
248.1217980653
 21
420.5973302432
 31
0.0
  0
ARC
  5
DE
330
1F
100
AcDbEntity
  8
0
  6
CONTINUOUS
 62
     7
100
AcDbCircle
 10
166.2329347661
 20
418.2973302432
 30
0.0
 40
0.2000000000000455
100
AcDbArc
 50
270.0
 51
0.0
  0
ARC
  5
DF
330
1F
100
AcDbEntity
  8
0
  6
CONTINUOUS
 62
     7
100
AcDbCircle
 10
163.1329347661
 20
418.2973302432
 30
0.0
 40
0.2000000000000455
100
AcDbArc
 50
180.0
 51
270.0
  0
ARC
  5
E0
330
1F
100
AcDbEntity
  8
0
  6
CONTINUOUS
 62
     7
100
AcDbCircle
 10
350.8176534692
 20
418.2973302432
 30
0.0
 40
0.2000000000000455
100
AcDbArc
 50
270.0
 51
0.0
  0
ARC
  5
E1
330
1F
100
AcDbEntity
  8
0
  6
CONTINUOUS
 62
     7
100
AcDbCircle
 10
347.7176534692
 20
418.2973302432
 30
0.0
 40
0.2000000000000455
100
AcDbArc
 50
180.0
 51
270.0
  0
LINE
  5
E2
330
1F
100
AcDbEntity
  8
0
  6
CONTINUOUS
 62
     7
100
AcDbLine
 10
351.0176549003
 20
418.2973301922
 30
0.0
 11
351.0176549003
 21
420.5973302432
 31
0.0
  0
LINE
  5
E3
330
1F
100
AcDbEntity
  8
0
  6
CONTINUOUS
 62
     7
100
AcDbLine
 10
347.5176552579
 20
420.5973302432
 30
0.0
 11
347.5176552579
 21
418.2973301922
 31
0.0
  0
LINE
  5
E4
330
1F
100
AcDbEntity
  8
0
  6
CONTINUOUS
 62
     7
100
AcDbLine
 10
166.4329329774
 20
418.2973301922
 30
0.0
 11
166.4329329774
 21
420.5973302432
 31
0.0
  0
LINE
  5
E5
330
1F
100
AcDbEntity
  8
0
  6
CONTINUOUS
 62
     7
100
AcDbLine
 10
162.932933335
 20
420.5973302432
 30
0.0
 11
162.932933335
 21
418.2973301922
 31
0.0
  0
ARC
  5
E6
330
1F
100
AcDbEntity
  8
0
  6
CONTINUOUS
 62
     7
100
AcDbCircle
 10
228.5482462507
 20
418.2973302432
 30
0.0
 40
0.2000000000000455
100
AcDbArc
 50
270.0
 51
0.0
  0
ARC
  5
E7
330
1F
100
AcDbEntity
  8
0
  6
CONTINUOUS
 62
     7
100
AcDbCircle
 10
285.4023419846
 20
418.2973302432
 30
0.0
 40
0.2000000000000455
100
AcDbArc
 50
180.0
 51
270.0
  0
LINE
  5
E8
330
1F
100
AcDbEntity
  8
0
  6
CONTINUOUS
 62
     7
100
AcDbLine
 10
228.7482461229
 20
418.2973301922
 30
0.0
 11
228.7482461229
 21
420.5973302432
 31
0.0
  0
LINE
  5
E9
330
1F
100
AcDbEntity
  8
0
  6
CONTINUOUS
 62
     7
100
AcDbLine
 10
285.2023421124
 20
420.5973302432
 30
0.0
 11
285.2023421124
 21
418.2973301922
 31
0.0
  0
ARC
  5
EA
330
1F
100
AcDbEntity
  8
0
  6
CONTINUOUS
 62
     7
100
AcDbCircle
 10
203.5121385001
 20
418.2973302432
 30
0.0
 40
0.2000000000000455
100
AcDbArc
 50
270.0
 51
0.0
  0
ARC
  5
EB
330
1F
100
AcDbEntity
  8
0
  6
CONTINUOUS
 62
     7
100
AcDbCircle
 10
200.4121385001
 20
418.2973302432
 30
0.0
 40
0.2000000000000455
100
AcDbArc
 50
180.0
 51
270.0
  0
ARC
  5
EC
330
1F
100
AcDbEntity
  8
0
  6
CONTINUOUS
 62
     7
100
AcDbCircle
 10
313.5384497351
 20
418.2973302432
 30
0.0
 40
0.2000000000000455
100
AcDbArc
 50
270.0
 51
0.0
  0
ARC
  5
ED
330
1F
100
AcDbEntity
  8
0
  6
CONTINUOUS
 62
     7
100
AcDbCircle
 10
310.4384497351
 20
418.2973302432
 30
0.0
 40
0.2000000000000455
100
AcDbArc
 50
180.0
 51
270.0
  0
LINE
  5
EE
330
1F
100
AcDbEntity
  8
0
  6
CONTINUOUS
 62
     7
100
AcDbLine
 10
203.7121402368
 20
418.2973301922
 30
0.0
 11
203.7121402368
 21
420.5973302432
 31
0.0
  0
LINE
  5
EF
330
1F
100
AcDbEntity
  8
0
  6
CONTINUOUS
 62
     7
100
AcDbLine
 10
200.2121368692
 20
420.5973302432
 30
0.0
 11
200.2121368692
 21
418.2973301922
 31
0.0
  0
LINE
  5
F0
330
1F
100
AcDbEntity
  8
0
  6
CONTINUOUS
 62
     7
100
AcDbLine
 10
313.7384513661
 20
418.2973301922
 30
0.0
 11
313.7384513661
 21
420.5973302432
 31
0.0
  0
LINE
  5
F1
330
1F
100
AcDbEntity
  8
0
  6
CONTINUOUS
 62
     7
100
AcDbLine
 10
310.2384479985
 20
420.5973302432
 30
0.0
 11
310.2384479985
 21
418.2973301922
 31
0.0
  0
ARC
  5
F2
330
1F
100
AcDbEntity
  8
0
  6
CONTINUOUS
 62
     7
100
AcDbCircle
 10
181.614994658
 20
418.2973302432
 30
0.0
 40
0.2000000000000455
100
AcDbArc
 50
270.0
 51
0.0
  0
ARC
  5
F3
330
1F
100
AcDbEntity
  8
0
  6
CONTINUOUS
 62
     7
100
AcDbCircle
 10
332.3355935773
 20
418.2973302432
 30
0.0
 40
0.2000000000000455
100
AcDbArc
 50
180.0
 51
270.0
  0
LINE
  5
F4
330
1F
100
AcDbEntity
  8
0
  6
CONTINUOUS
 62
     7
100
AcDbLine
 10
332.1355963394
 20
420.5973302432
 30
0.0
 11
332.1355963394
 21
418.2973301922
 31
0.0
  0
LINE
  5
F5
330
1F
100
AcDbEntity
  8
0
  6
CONTINUOUS
 62
     7
100
AcDbLine
 10
181.8149918959
 20
418.2973301922
 30
0.0
 11
181.8149918959
 21
420.5973302432
 31
0.0
  0
ARC
  5
F6
330
1F
100
AcDbEntity
  8
0
  6
CONTINUOUS
 62
     7
100
AcDbCircle
 10
258.5265256651
 20
418.2973302432
 30
0.0
 40
0.2000000000000455
100
AcDbArc
 50
270.0
 51
0.0
  0
ARC
  5
F7
330
1F
100
AcDbEntity
  8
0
  6
CONTINUOUS
 62
     7
100
AcDbCircle
 10
255.4240625702
 20
418.2973302432
 30
0.0
 40
0.2000000000000455
100
AcDbArc
 50
180.0
 51
270.0
  0
LINE
  5
F8
330
1F
100
AcDbEntity
  8
0
  6
CONTINUOUS
 62
     7
100
AcDbLine
 10
258.7265256129
 20
418.2973301922
 30
0.0
 11
258.7265256129
 21
420.5973302432
 31
0.0
  0
LINE
  5
F9
330
1F
100
AcDbEntity
  8
0
  6
CONTINUOUS
 62
     7
100
AcDbLine
 10
255.2240626224
 20
420.5973302432
 30
0.0
 11
255.2240626224
 21
418.2973301922
 31
0.0
  0
ARC
  5
FA
330
1F
100
AcDbEntity
  8
0
  6
CONTINUOUS
 62
     7
100
AcDbCircle
 10
238.5418270871
 20
418.2973302432
 30
0.0
 40
0.2000000000000455
100
AcDbArc
 50
270.0
 51
0.0
  0
ARC
  5
FB
330
1F
100
AcDbEntity
  8
0
  6
CONTINUOUS
 62
     7
100
AcDbCircle
 10
275.4087611482
 20
418.2973302432
 30
0.0
 40
0.2000000000000455
100
AcDbArc
 50
180.0
 51
270.0
  0
LINE
  5
FC
330
1F
100
AcDbEntity
  8
0
  6
CONTINUOUS
 62
     7
100
AcDbLine
 10
238.7418272242
 20
418.2973301922
 30
0.0
 11
238.7418272242
 21
420.5973302432
 31
0.0
  0
LINE
  5
FD
330
1F
100
AcDbEntity
  8
0
  6
CONTINUOUS
 62
     7
100
AcDbLine
 10
275.2087610111
 20
420.5973302432
 30
0.0
 11
275.2087610111
 21
418.2973301922
 31
0.0
  0
ARC
  5
FE
330
1F
100
AcDbEntity
  8
0
  6
CONTINUOUS
 62
     7
100
AcDbCircle
 10
299.5925897107
 20
418.2973302432
 30
0.0
 40
0.2000000000000455
100
AcDbArc
 50
180.0
 51
270.0
  0
ARC
  5
FF
330
1F
100
AcDbEntity
  8
0
  6
CONTINUOUS
 62
     7
100
AcDbCircle
 10
302.6925897107
 20
418.2973302432
 30
0.0
 40
0.2000000000000455
100
AcDbArc
 50
270.0
 51
0.0
  0
ARC
  5
100
330
1F
100
AcDbEntity
  8
0
  6
CONTINUOUS
 62
     7
100
AcDbCircle
 10
211.2579985246
 20
418.2973302432
 30
0.0
 40
0.2000000000000455
100
AcDbArc
 50
180.0
 51
270.0
  0
ARC
  5
101
330
1F
100
AcDbEntity
  8
0
  6
CONTINUOUS
 62
     7
100
AcDbCircle
 10
214.3579985246
 20
418.2973302432
 30
0.0
 40
0.2000000000000455
100
AcDbArc
 50
270.0
 51
0.0
  0
LINE
  5
102
330
1F
100
AcDbEntity
  8
0
  6
CONTINUOUS
 62
     7
100
AcDbLine
 10
299.3925893948
 20
420.5973302432
 30
0.0
 11
299.3925893948
 21
418.2973301922
 31
0.0
  0
LINE
  5
103
330
1F
100
AcDbEntity
  8
0
  6
CONTINUOUS
 62
     7
100
AcDbLine
 10
302.8925890371
 20
418.2973301922
 30
0.0
 11
302.8925890371
 21
420.5973302432
 31
0.0
  0
LINE
  5
104
330
1F
100
AcDbEntity
  8
0
  6
CONTINUOUS
 62
     7
100
AcDbLine
 10
211.0579991982
 20
420.5973302432
 30
0.0
 11
211.0579991982
 21
418.2973301922
 31
0.0
  0
LINE
  5
105
330
1F
100
AcDbEntity
  8
0
  6
CONTINUOUS
 62
     7
100
AcDbLine
 10
214.5579988405
 20
418.2973301922
 30
0.0
 11
214.5579988405
 21
420.5973302432
 31
0.0
  0
ARC
  5
106
330
1F
100
AcDbEntity
  8
0
  6
CONTINUOUS
 62
     7
100
AcDbCircle
 10
193.8534510096
 20
418.2973302432
 30
0.0
 40
0.2000000000000455
100
AcDbArc
 50
270.0
 51
0.0
  0
ARC
  5
107
330
1F
100
AcDbEntity
  8
0
  6
CONTINUOUS
 62
     7
100
AcDbCircle
 10
320.0971372257
 20
418.2973302432
 30
0.0
 40
0.2000000000000455
100
AcDbArc
 50
180.0
 51
270.0
  0
LINE
  5
108
330
1F
100
AcDbEntity
  8
0
  6
CONTINUOUS
 62
     7
100
AcDbLine
 10
319.8971385405
 20
420.5973302432
 30
0.0
 11
319.8971385405
 21
418.2973301922
 31
0.0
  0
LINE
  5
109
330
1F
100
AcDbEntity
  8
0
  6
CONTINUOUS
 62
     7
100
AcDbLine
 10
194.0534496948
 20
418.2973301922
 30
0.0
 11
194.0534496948
 21
420.5973302432
 31
0.0
  0
ARC
  5
10A
330
1F
100
AcDbEntity
  8
0
  6
CONTINUOUS
 62
     7
100
AcDbCircle
 10
158.3319945433
 20
418.2973302432
 30
0.0
 40
0.2000000000000455
100
AcDbArc
 50
270.0
 51
0.0
  0
ARC
  5
10B
330
1F
100
AcDbEntity
  8
0
  6
CONTINUOUS
 62
     7
100
AcDbCircle
 10
155.2319945433
 20
418.2973302432
 30
0.0
 40
0.2000000000000455
100
AcDbArc
 50
180.0
 51
270.0
  0
ARC
  5
10C
330
1F
100
AcDbEntity
  8
0
  6
CONTINUOUS
 62
     7
100
AcDbCircle
 10
358.7185936919
 20
418.2973302432
 30
0.0
 40
0.2000000000000455
100
AcDbArc
 50
270.0
 51
0.0
  0
ARC
  5
10D
330
1F
100
AcDbEntity
  8
0
  6
CONTINUOUS
 62
     7
100
AcDbCircle
 10
355.6185936919
 20
418.2973302432
 30
0.0
 40
0.2000000000000455
100
AcDbArc
 50
180.0
 51
270.0
  0
LINE
  5
10E
330
1F
100
AcDbEntity
  8
0
  6
CONTINUOUS
 62
     7
100
AcDbLine
 10
158.5319945857
 20
418.2973301922
 30
0.0
 11
158.5319945857
 21
420.5973302432
 31
0.0
  0
LINE
  5
10F
330
1F
100
AcDbEntity
  8
0
  6
CONTINUOUS
 62
     7
100
AcDbLine
 10
155.0319949433
 20
420.5973302432
 30
0.0
 11
155.0319949433
 21
418.2973301922
 31
0.0
  0
LINE
  5
110
330
1F
100
AcDbEntity
  8
0
  6
CONTINUOUS
 62
     7
100
AcDbLine
 10
358.918593292
 20
418.2973301922
 30
0.0
 11
358.918593292
 21
420.5973302432
 31
0.0
  0
LINE
  5
111
330
1F
100
AcDbEntity
  8
0
  6
CONTINUOUS
 62
     7
100
AcDbLine
 10
355.4185936496
 20
420.5973302432
 30
0.0
 11
355.4185936496
 21
418.2973301922
 31
0.0
  0
ARC
  5
112
330
1F
100
AcDbEntity
  8
0
  6
CONTINUOUS
 62
     7
100
AcDbCircle
 10
175.0308778057
 20
418.2973302432
 30
0.0
 40
0.2000000000000455
100
AcDbArc
 50
270.0
 51
0.0
  0
ARC
  5
113
330
1F
100
AcDbEntity
  8
0
  6
CONTINUOUS
 62
     7
100
AcDbCircle
 10
171.9308778057
 20
418.2973302432
 30
0.0
 40
0.2000000000000455
100
AcDbArc
 50
180.0
 51
270.0
  0
ARC
  5
114
330
1F
100
AcDbEntity
  8
0
  6
CONTINUOUS
 62
     7
100
AcDbCircle
 10
342.0197104296
 20
418.2973302432
 30
0.0
 40
0.2000000000000455
100
AcDbArc
 50
270.0
 51
0.0
  0
ARC
  5
115
330
1F
100
AcDbEntity
  8
0
  6
CONTINUOUS
 62
     7
100
AcDbCircle
 10
338.9197104296
 20
418.2973302432
 30
0.0
 40
0.2000000000000455
100
AcDbArc
 50
180.0
 51
270.0
  0
LINE
  5
116
330
1F
100
AcDbEntity
  8
0
  6
CONTINUOUS
 62
     7
100
AcDbLine
 10
175.2308765695
 20
418.2973301922
 30
0.0
 11
175.2308765695
 21
420.5973302432
 31
0.0
  0
LINE
  5
117
330
1F
100
AcDbEntity
  8
0
  6
CONTINUOUS
 62
     7
100
AcDbLine
 10
171.7308769271
 20
420.5973302432
 30
0.0
 11
171.7308769271
 21
418.2973301922
 31
0.0
  0
LINE
  5
118
330
1F
100
AcDbEntity
  8
0
  6
CONTINUOUS
 62
     7
100
AcDbLine
 10
342.2197113082
 20
418.2973301922
 30
0.0
 11
342.2197113082
 21
420.5973302432
 31
0.0
  0
LINE
  5
119
330
1F
100
AcDbEntity
  8
0
  6
CONTINUOUS
 62
     7
100
AcDbLine
 10
338.7197116658
 20
420.5973302432
 30
0.0
 11
338.7197116658
 21
418.2973301922
 31
0.0
  0
ARC
  5
11A
330
1F
100
AcDbEntity
  8
0
  6
CONTINUOUS
 62
     7
100
AcDbCircle
 10
272.4752941176
 20
437.0973302432
 30
0.0
 40
1.5
100
AcDbArc
 50
270.0
 51
289.6148291774
  0
ARC
  5
11B
330
1F
100
AcDbEntity
  8
0
  6
CONTINUOUS
 62
     7
100
AcDbCircle
 10
241.4752941176
 20
437.0973302432
 30
0.0
 40
1.5
100
AcDbArc
 50
250.2327775076
 51
270.0
  0
ARC
  5
11C
330
1F
100
AcDbEntity
  8
0
  6
CONTINUOUS
 62
     7
100
AcDbCircle
 10
256.9752941176
 20
449.2973302432
 30
0.0
 40
13.00000000000004
100
AcDbArc
 50
29.0585198609
 51
34.2288663278
  0
ARC
  5
11D
330
1F
100
AcDbEntity
  8
0
  6
CONTINUOUS
 62
     7
100
AcDbCircle
 10
256.9752941176
 20
449.2973302432
 30
0.0
 40
13.00000000000004
100
AcDbArc
 50
145.1266560904
 51
150.8408140077
  0
ARC
  5
11E
330
1F
100
AcDbEntity
  8
0
  6
CONTINUOUS
 62
     7
100
AcDbCircle
 10
256.9752941176
 20
449.2973302432
 30
0.0
 40
13.0
100
AcDbArc
 50
34.2288663278
 51
34.8733439096
  0
ARC
  5
11F
330
1F
100
AcDbEntity
  8
0
  6
CONTINUOUS
 62
     7
100
AcDbCircle
 10
265.4176434066
 20
418.2973302432
 30
0.0
 40
0.2000000000000455
100
AcDbArc
 50
180.0
 51
270.0
  0
ARC
  5
120
330
1F
100
AcDbEntity
  8
0
  6
CONTINUOUS
 62
     7
100
AcDbCircle
 10
248.5329448287
 20
418.2973302432
 30
0.0
 40
0.2000000000000455
100
AcDbArc
 50
270.0
 51
0.0
  0
LINE
  5
121
330
1F
100
AcDbEntity
  8
0
  6
CONTINUOUS
 62
     7
100
AcDbLine
 10
265.217643258
 20
420.5973302432
 30
0.0
 11
265.217643258
 21
418.2973301922
 31
0.0
  0
LINE
  5
122
330
1F
100
AcDbEntity
  8
0
  6
CONTINUOUS
 62
     7
100
AcDbLine
 10
248.7329449773
 20
418.2973301922
 30
0.0
 11
248.7329449773
 21
420.5973302432
 31
0.0
  0
ARC
  5
123
330
1F
100
AcDbEntity
  8
0
  6
CONTINUOUS
 62
     7
100
AcDbCircle
 10
271.4752941176
 20
454.5973302432
 30
0.0
 40
1.0
100
AcDbArc
 50
0.0
 51
90.0
  0
ARC
  5
124
330
1F
100
AcDbEntity
  8
0
  6
CONTINUOUS
 62
     7
100
AcDbCircle
 10
242.4752941176
 20
454.5973302432
 30
0.0
 40
1.0
100
AcDbArc
 50
90.0
 51
180.0
  0
LINE
  5
125
330
1F
100
AcDbEntity
  8
0
  6
CONTINUOUS
 62
     7
100
AcDbLine
 10
272.4752938643
 20
443.5973302879
 30
0.0
 11
272.4752938643
 21
454.597332091
 31
0.0
  0
LINE
  5
126
330
1F
100
AcDbEntity
  8
0
  6
CONTINUOUS
 62
     7
100
AcDbLine
 10
241.475294371
 20
454.597332091
 30
0.0
 11
241.475294371
 21
443.5973302879
 31
0.0
  0
ARC
  5
127
330
1F
100
AcDbEntity
  8
0
  6
CONTINUOUS
 62
     7
100
AcDbCircle
 10
223.0881410162
 20
418.2973302432
 30
0.0
 40
0.2000000000000455
100
AcDbArc
 50
180.0
 51
270.0
  0
ARC
  5
128
330
1F
100
AcDbEntity
  8
0
  6
CONTINUOUS
 62
     7
100
AcDbCircle
 10
290.8624472191
 20
418.2973302432
 30
0.0
 40
0.2000000000000455
100
AcDbArc
 50
270.0
 51
0.0
  0
LINE
  5
129
330
1F
100
AcDbEntity
  8
0
  6
CONTINUOUS
 62
     7
100
AcDbLine
 10
291.0624454066
 20
418.2973301922
 30
0.0
 11
291.0624454066
 21
420.5973302432
 31
0.0
  0
LINE
  5
12A
330
1F
100
AcDbEntity
  8
0
  6
CONTINUOUS
 62
     7
100
AcDbLine
 10
222.8881428287
 20
420.5973302432
 30
0.0
 11
222.8881428287
 21
418.2973301922
 31
0.0
  0
ARC
  5
12B
330
1F
100
AcDbEntity
  8
0
  6
CONTINUOUS
 62
     7
100
AcDbCircle
 10
266.9752941176
 20
462.3473302432
 30
0.0
 40
2.0
100
AcDbArc
 50
308.7069637031
 51
0.0
  0
ARC
  5
12C
330
1F
100
AcDbEntity
  8
0
  6
CONTINUOUS
 62
     7
100
AcDbCircle
 10
246.9752941176
 20
462.3473302432
 30
0.0
 40
2.0
100
AcDbArc
 50
180.0
 51
231.2930362969
  0
LINE
  5
12D
330
1F
100
AcDbEntity
  8
0
  6
CONTINUOUS
 62
     7
100
AcDbLine
 10
268.975294222
 20
462.3473291703
 30
0.0
 11
268.975294222
 21
470.097329975
 31
0.0
  0
LINE
  5
12E
330
1F
100
AcDbEntity
  8
0
  6
CONTINUOUS
 62
     7
100
AcDbLine
 10
244.9752940133
 20
470.097329975
 30
0.0
 11
244.9752940133
 21
462.3473291703
 31
0.0
  0
ARC
  5
12F
330
1F
100
AcDbEntity
  8
0
  6
CONTINUOUS
 62
     7
100
AcDbCircle
 10
270.101981642
 20
458.4455581939
 30
0.0
 40
3.000000000000057
100
AcDbArc
 50
128.7069637029
 51
214.8733439096
  0
ARC
  5
130
330
1F
100
AcDbEntity
  8
0
  6
CONTINUOUS
 62
     7
100
AcDbCircle
 10
243.8486065933
 20
458.4455581939
 30
0.0
 40
3.000000000000016
100
AcDbArc
 50
325.1266560904
 51
51.2930362971
  0
ARC
  5
131
330
1F
100
AcDbEntity
  8
0
  6
CONTINUOUS
 62
     7
100
AcDbCircle
 10
204.7046774539
 20
418.2973302432
 30
0.0
 40
0.2000000000000455
100
AcDbArc
 50
180.0
 51
270.0
  0
ARC
  5
132
330
1F
100
AcDbEntity
  8
0
  6
CONTINUOUS
 62
     7
100
AcDbCircle
 10
309.2459107814
 20
418.2973302432
 30
0.0
 40
0.2000000000000455
100
AcDbArc
 50
270.0
 51
0.0
  0
LINE
  5
133
330
1F
100
AcDbEntity
  8
0
  6
CONTINUOUS
 62
     7
100
AcDbLine
 10
204.5046771214
 20
420.5973302432
 30
0.0
 11
204.5046771214
 21
418.2973301922
 31
0.0
  0
LINE
  5
134
330
1F
100
AcDbEntity
  8
0
  6
CONTINUOUS
 62
     7
100
AcDbLine
 10
309.4459111139
 20
418.2973301922
 30
0.0
 11
309.4459111139
 21
420.5973302432
 31
0.0
  0
ARC
  5
135
330
1F
100
AcDbEntity
  8
0
  6
CONTINUOUS
 62
     7
100
AcDbCircle
 10
187.4252941176
 20
418.2973302432
 30
0.0
 40
0.2000000000000455
100
AcDbArc
 50
180.0
 51
270.0
  0
ARC
  5
136
330
1F
100
AcDbEntity
  8
0
  6
CONTINUOUS
 62
     7
100
AcDbCircle
 10
326.5252941176
 20
418.2973302432
 30
0.0
 40
0.2000000000000455
100
AcDbArc
 50
270.0
 51
0.0
  0
LINE
  5
137
330
1F
100
AcDbEntity
  8
0
  6
CONTINUOUS
 62
     7
100
AcDbLine
 10
187.225290601
 20
420.5973302432
 30
0.0
 11
187.225290601
 21
418.2973301922
 31
0.0
  0
LINE
  5
138
330
1F
100
AcDbEntity
  8
0
  6
CONTINUOUS
 62
     7
100
AcDbLine
 10
326.7252976343
 20
418.2973301922
 30
0.0
 11
326.7252976343
 21
420.5973302432
 31
0.0
  0
ARC
  5
139
330
1F
100
AcDbEntity
  8
0
  6
CONTINUOUS
 62
     7
100
AcDbCircle
 10
274.6932548947
 20
418.2973302432
 30
0.0
 40
0.2000000000000455
100
AcDbArc
 50
270.0
 51
0.0
  0
ARC
  5
13A
330
1F
100
AcDbEntity
  8
0
  6
CONTINUOUS
 62
     7
100
AcDbCircle
 10
271.5932548947
 20
418.2973302432
 30
0.0
 40
0.2000000000000455
100
AcDbArc
 50
224.7709926296
 51
270.0
  0
ARC
  5
13B
330
1F
100
AcDbEntity
  8
0
  6
CONTINUOUS
 62
     7
100
AcDbCircle
 10
242.3573333406
 20
418.2973302432
 30
0.0
 40
0.2000000000000602
100
AcDbArc
 50
270.0
 51
315.229007368
  0
ARC
  5
13C
330
1F
100
AcDbEntity
  8
0
  6
CONTINUOUS
 62
     7
100
AcDbCircle
 10
239.2573333406
 20
418.2973302432
 30
0.0
 40
0.2000000000000455
100
AcDbArc
 50
180.0
 51
270.0
  0
LINE
  5
13D
330
1F
100
AcDbEntity
  8
0
  6
CONTINUOUS
 62
     7
100
AcDbLine
 10
239.0573332355
 20
420.5973302432
 30
0.0
 11
239.0573332355
 21
418.2973301922
 31
0.0
  0
LINE
  5
13E
330
1F
100
AcDbEntity
  8
0
  6
CONTINUOUS
 62
     7
100
AcDbLine
 10
274.8932549998
 20
418.2973301922
 30
0.0
 11
274.8932549998
 21
420.5973302432
 31
0.0
  0
ARC
  5
13F
330
1F
100
AcDbEntity
  8
0
  6
CONTINUOUS
 62
     7
100
AcDbCircle
 10
170.5930222012
 20
418.2973302432
 30
0.0
 40
0.2000000000000455
100
AcDbArc
 50
180.0
 51
270.0
  0
ARC
  5
140
330
1F
100
AcDbEntity
  8
0
  6
CONTINUOUS
 62
     7
100
AcDbCircle
 10
343.357566034
 20
418.2973302432
 30
0.0
 40
0.2000000000000455
100
AcDbArc
 50
270.0
 51
0.0
  0
LINE
  5
141
330
1F
100
AcDbEntity
  8
0
  6
CONTINUOUS
 62
     7
100
AcDbLine
 10
170.3930208728
 20
420.5973302432
 30
0.0
 11
170.3930208728
 21
418.2973301922
 31
0.0
  0
LINE
  5
142
330
1F
100
AcDbEntity
  8
0
  6
CONTINUOUS
 62
     7
100
AcDbLine
 10
343.5575673625
 20
418.2973301922
 30
0.0
 11
343.5575673625
 21
420.5973302432
 31
0.0
  0
ARC
  5
143
330
1F
100
AcDbEntity
  8
0
  6
CONTINUOUS
 62
     7
100
AcDbCircle
 10
360.3240204173
 20
418.2973302432
 30
0.0
 40
0.2000000000000455
100
AcDbArc
 50
270.0
 51
0.0
  0
ARC
  5
144
330
1F
100
AcDbEntity
  8
0
  6
CONTINUOUS
 62
     7
100
AcDbCircle
 10
153.6265678179
 20
418.2973302432
 30
0.0
 40
0.2000000000000455
100
AcDbArc
 50
180.0
 51
270.0
  0
LINE
  5
145
330
1F
100
AcDbEntity
  8
0
  6
CONTINUOUS
 62
     7
100
AcDbLine
 10
360.5240220472
 20
418.2973301922
 30
0.0
 11
360.5240220472
 21
420.5973302432
 31
0.0
  0
LINE
  5
146
330
1F
100
AcDbEntity
  8
0
  6
CONTINUOUS
 62
     7
100
AcDbLine
 10
153.4265661881
 20
420.5973302432
 30
0.0
 11
153.4265661881
 21
418.2973301922
 31
0.0
  0
ARC
  5
147
330
1F
100
AcDbEntity
  8
0
  6
CONTINUOUS
 62
     7
100
AcDbCircle
 10
303.9291764487
 20
418.2973302432
 30
0.0
 40
0.2000000000000455
100
AcDbArc
 50
180.0
 51
270.0
  0
ARC
  5
148
330
1F
100
AcDbEntity
  8
0
  6
CONTINUOUS
 62
     7
100
AcDbCircle
 10
210.0214117866
 20
418.2973302432
 30
0.0
 40
0.2000000000000455
100
AcDbArc
 50
270.0
 51
0.0
  0
LINE
  5
149
330
1F
100
AcDbEntity
  8
0
  6
CONTINUOUS
 62
     7
100
AcDbLine
 10
303.7291774795
 20
420.5973302432
 30
0.0
 11
303.7291774795
 21
418.2973301922
 31
0.0
  0
LINE
  5
14A
330
1F
100
AcDbEntity
  8
0
  6
CONTINUOUS
 62
     7
100
AcDbLine
 10
210.2214107558
 20
418.2973301922
 30
0.0
 11
210.2214107558
 21
420.5973302432
 31
0.0
  0
ARC
  5
14B
330
1F
100
AcDbEntity
  8
0
  6
CONTINUOUS
 62
     7
100
AcDbCircle
 10
161.5175294555
 20
418.2973302432
 30
0.0
 40
0.2000000000000455
100
AcDbArc
 50
270.0
 51
0.0
  0
LWPOLYLINE
  5
14C
330
1F
100
AcDbEntity
  8
0
  6
CONTINUOUS
 62
     7
100
AcDbPolyline
 90
        3
 70
   128
 43
0.0
 10
158.3747649834
 20
418.1019564111
 10
158.3785126254
 20
418.1011731689
 10
158.417531316
 20
418.0973302991
  0
LWPOLYLINE
  5
14D
330
1F
100
AcDbEntity
  8
0
  6
CONTINUOUS
 62
     7
100
AcDbPolyline
 90
        3
 70
   128
 43
0.0
 10
355.5330569193
 20
418.0973302991
 10
355.5720756099
 20
418.1011731689
 10
355.5758232519
 20
418.1019564111
  0
ARC
  5
14E
330
1F
100
AcDbEntity
  8
0
  6
CONTINUOUS
 62
     7
100
AcDbCircle
 10
352.4330587798
 20
418.2973302432
 30
0.0
 40
0.2000000000000455
100
AcDbArc
 50
180.0
 51
270.0
  0
LINE
  5
14F
330
1F
100
AcDbEntity
  8
0
  6
CONTINUOUS
 62
     7
100
AcDbLine
 10
352.2330606625
 20
420.5973302432
 30
0.0
 11
352.2330606625
 21
418.2973301922
 31
0.0
  0
LINE
  5
150
330
1F
100
AcDbEntity
  8
0
  6
CONTINUOUS
 62
     7
100
AcDbLine
 10
161.7175275728
 20
418.2973301922
 30
0.0
 11
161.7175275728
 21
420.5973302432
 31
0.0
  0
ARC
  5
151
330
1F
100
AcDbEntity
  8
0
  6
CONTINUOUS
 62
     7
100
AcDbCircle
 10
186.75742045
 20
418.2973302432
 30
0.0
 40
0.2000000000000455
100
AcDbArc
 50
270.0
 51
0.0
  0
ARC
  5
152
330
1F
100
AcDbEntity
  8
0
  6
CONTINUOUS
 62
     7
100
AcDbCircle
 10
183.65742045
 20
418.2973302432
 30
0.0
 40
0.2000000000000455
100
AcDbArc
 50
180.0
 51
270.0
  0
ARC
  5
153
330
1F
100
AcDbEntity
  8
0
  6
CONTINUOUS
 62
     7
100
AcDbCircle
 10
330.2931677853
 20
418.2973302432
 30
0.0
 40
0.2000000000000455
100
AcDbArc
 50
270.0
 51
0.0
  0
ARC
  5
154
330
1F
100
AcDbEntity
  8
0
  6
CONTINUOUS
 62
     7
100
AcDbCircle
 10
327.1931677853
 20
418.2973302432
 30
0.0
 40
0.2000000000000455
100
AcDbArc
 50
180.0
 51
270.0
  0
LINE
  5
155
330
1F
100
AcDbEntity
  8
0
  6
CONTINUOUS
 62
     7
100
AcDbLine
 10
186.9574198768
 20
418.2973301922
 30
0.0
 11
186.9574198768
 21
420.5973302432
 31
0.0
  0
LINE
  5
156
330
1F
100
AcDbEntity
  8
0
  6
CONTINUOUS
 62
     7
100
AcDbLine
 10
183.4574202344
 20
420.5973302432
 30
0.0
 11
183.4574202344
 21
418.2973301922
 31
0.0
  0
LINE
  5
157
330
1F
100
AcDbEntity
  8
0
  6
CONTINUOUS
 62
     7
100
AcDbLine
 10
330.4931680009
 20
418.2973301922
 30
0.0
 11
330.4931680009
 21
420.5973302432
 31
0.0
  0
LINE
  5
158
330
1F
100
AcDbEntity
  8
0
  6
CONTINUOUS
 62
     7
100
AcDbLine
 10
326.9931683585
 20
420.5973302432
 30
0.0
 11
326.9931683585
 21
418.2973301922
 31
0.0
  0
ARC
  5
159
330
1F
100
AcDbEntity
  8
0
  6
CONTINUOUS
 62
     7
100
AcDbCircle
 10
344.6467425189
 20
418.2973302432
 30
0.0
 40
0.2000000000000455
100
AcDbArc
 50
270.0
 51
0.0
  0
ARC
  5
15A
330
1F
100
AcDbEntity
  8
0
  6
CONTINUOUS
 62
     7
100
AcDbCircle
 10
169.3038457164
 20
418.2973302432
 30
0.0
 40
0.2000000000000455
100
AcDbArc
 50
180.0
 51
270.0
  0
LINE
  5
15B
330
1F
100
AcDbEntity
  8
0
  6
CONTINUOUS
 62
     7
100
AcDbLine
 10
344.8467413232
 20
418.2973301922
 30
0.0
 11
344.8467413232
 21
420.5973302432
 31
0.0
  0
LINE
  5
15C
330
1F
100
AcDbEntity
  8
0
  6
CONTINUOUS
 62
     7
100
AcDbLine
 10
169.1038469121
 20
420.5973302432
 30
0.0
 11
169.1038469121
 21
418.2973301922
 31
0.0
  0
LINE
  5
15D
330
1F
100
AcDbEntity
  8
0
  6
CONTINUOUS
 62
     7
100
AcDbLine
 10
200.3387892887
 20
418.0973302991
 30
0.0
 11
200.3754647717
 21
418.1007214774
 31
0.0
  0
LINE
  5
15E
330
1F
100
AcDbEntity
  8
0
  6
CONTINUOUS
 62
     7
100
AcDbLine
 10
313.5751234636
 20
418.1007214774
 30
0.0
 11
313.6117989466
 21
418.0973302991
 31
0.0
  0
LWPOLYLINE
  5
15F
330
1F
100
AcDbEntity
  8
0
  6
CONTINUOUS
 62
     7
100
AcDbPolyline
 90
        3
 70
   128
 43
0.0
 10
299.4743557915
 20
418.0973302991
 10
299.5133744821
 20
418.1011731689
 10
299.5334724233
 20
418.1062668049
  0
LWPOLYLINE
  5
160
330
1F
100
AcDbEntity
  8
0
  6
CONTINUOUS
 62
     7
100
AcDbPolyline
 90
        3
 70
   128
 43
0.0
 10
214.417115812
 20
418.1062668049
 10
214.4372137532
 20
418.1011731689
 10
214.4762324438
 20
418.0973302991
  0
ARC
  5
161
330
1F
100
AcDbEntity
  8
0
  6
CONTINUOUS
 62
     7
100
AcDbCircle
 10
234.2866537086
 20
418.2973302432
 30
0.0
 40
0.2000000000000455
100
AcDbArc
 50
180.0
 51
270.0
  0
ARC
  5
162
330
1F
100
AcDbEntity
  8
0
  6
CONTINUOUS
 62
     7
100
AcDbCircle
 10
279.6639345267
 20
418.2973302432
 30
0.0
 40
0.2000000000000455
100
AcDbArc
 50
270.0
 51
0.0
  0
LINE
  5
163
330
1F
100
AcDbEntity
  8
0
  6
CONTINUOUS
 62
     7
100
AcDbLine
 10
234.0866541758
 20
420.5973302432
 30
0.0
 11
234.0866541758
 21
418.2973301922
 31
0.0
  0
LINE
  5
164
330
1F
100
AcDbEntity
  8
0
  6
CONTINUOUS
 62
     7
100
AcDbLine
 10
279.8639340595
 20
418.2973301922
 30
0.0
 11
279.8639340595
 21
420.5973302432
 31
0.0
  0
ARC
  5
165
330
1F
100
AcDbEntity
  8
0
  6
CONTINUOUS
 62
     7
100
AcDbCircle
 10
283.8916626085
 20
418.2973302432
 30
0.0
 40
0.2000000000000455
100
AcDbArc
 50
270.0
 51
0.0
  0
ARC
  5
166
330
1F
100
AcDbEntity
  8
0
  6
CONTINUOUS
 62
     7
100
AcDbCircle
 10
280.7916626085
 20
418.2973302432
 30
0.0
 40
0.2000000000000455
100
AcDbArc
 50
180.0
 51
270.0
  0
ARC
  5
167
330
1F
100
AcDbEntity
  8
0
  6
CONTINUOUS
 62
     7
100
AcDbCircle
 10
233.1589256268
 20
418.2973302432
 30
0.0
 40
0.2000000000000455
100
AcDbArc
 50
270.0
 51
0.0
  0
ARC
  5
168
330
1F
100
AcDbEntity
  8
0
  6
CONTINUOUS
 62
     7
100
AcDbCircle
 10
230.0589256268
 20
418.2973302432
 30
0.0
 40
0.2000000000000455
100
AcDbArc
 50
180.0
 51
270.0
  0
LINE
  5
169
330
1F
100
AcDbEntity
  8
0
  6
CONTINUOUS
 62
     7
100
AcDbLine
 10
233.3589261666
 20
418.2973301922
 30
0.0
 11
233.3589261666
 21
420.5973302432
 31
0.0
  0
LINE
  5
16A
330
1F
100
AcDbEntity
  8
0
  6
CONTINUOUS
 62
     7
100
AcDbLine
 10
229.8589265242
 20
420.5973302432
 30
0.0
 11
229.8589265242
 21
418.2973301922
 31
0.0
  0
LINE
  5
16B
330
1F
100
AcDbEntity
  8
0
  6
CONTINUOUS
 62
     7
100
AcDbLine
 10
284.0916617111
 20
418.2973301922
 30
0.0
 11
284.0916617111
 21
420.5973302432
 31
0.0
  0
LINE
  5
16C
330
1F
100
AcDbEntity
  8
0
  6
CONTINUOUS
 62
     7
100
AcDbLine
 10
280.5916620687
 20
420.5973302432
 30
0.0
 11
280.5916620687
 21
418.2973301922
 31
0.0
  0
LINE
  5
16D
330
1F
100
AcDbEntity
  8
0
  6
CONTINUOUS
 62
     7
100
AcDbLine
 10
256.9752941176
 20
420.5973302432
 30
0.0
 11
381.9752941176
 21
420.5973302432
 31
0.0
  0
LINE
  5
16E
330
1F
100
AcDbEntity
  8
0
  6
CONTINUOUS
 62
     7
100
AcDbLine
 10
131.9752941176
 20
420.5973302432
 30
0.0
 11
256.9752941176
 21
420.5973302432
 31
0.0
  0
LINE
  5
16F
330
1F
100
AcDbEntity
  8
0
  6
CONTINUOUS
 62
     7
100
AcDbLine
 10
256.9752941176
 20
428.5973306232
 30
0.0
 11
131.9752941176
 21
428.5973306232
 31
0.0
  0
LINE
  5
170
330
1F
100
AcDbEntity
  8
0
  6
CONTINUOUS
 62
     7
100
AcDbLine
 10
381.9752941176
 20
428.5973306232
 30
0.0
 11
256.9752941176
 21
428.5973306232
 31
0.0
  0
SPLINE
  5
171
330
1F
100
AcDbEntity
  8
0
  6
CONTINUOUS
 62
     7
100
AcDbSpline
210
0.0
220
0.0
230
1.0
 70
    24
 71
     3
 72
    10
 73
     6
 74
     0
 42
0.000000001
 43
0.00000001
 40
0.0
 40
0.0
 40
0.0
 40
0.0
 40
0.1462104182766687
 40
0.4472245775552388
 40
1.0
 40
1.0
 40
1.0
 40
1.0
 10
270.872248363513
 20
418.0973302990911
 30
0.0
 10
270.8379348207579
 20
418.0973302990911
 30
0.0
 10
270.7329774596891
 20
418.0973302990911
 30
0.0
 10
270.4361320878269
 20
418.0973302990911
 30
0.0
 10
270.1432036582074
 20
418.0973302990911
 30
0.0
 10
269.953550797719
 20
418.0973302990911
 30
0.0
  0
SPLINE
  5
172
330
1F
100
AcDbEntity
  8
0
  6
CONTINUOUS
 62
     7
100
AcDbSpline
210
0.0
220
0.0
230
1.0
 70
    24
 71
     3
 72
    11
 73
     7
 74
     0
 42
0.000000001
 43
0.00000001
 40
0.0
 40
0.0
 40
0.0
 40
0.0
 40
0.4327117326877746
 40
0.6679452291052885
 40
0.903579360714819
 40
1.0
 40
1.0
 40
1.0
 40
1.0
 10
269.953550797719
 20
418.0973302990911
 30
0.0
 10
269.7572502863804
 20
418.0973302990911
 30
0.0
 10
269.4542356461138
 20
418.0973302990911
 30
0.0
 10
269.0740244853159
 20
418.0973302990911
 30
0.0
 10
268.8512483334795
 20
418.0973302990911
 30
0.0
 10
268.7460671371986
 20
418.0973302990911
 30
0.0
 10
268.7155250728312
 20
418.0973302990911
 30
0.0
  0
SPLINE
  5
173
330
1F
100
AcDbEntity
  8
0
  6
CONTINUOUS
 62
     7
100
AcDbSpline
210
0.0
220
0.0
230
1.0
 70
    24
 71
     3
 72
     9
 73
     5
 74
     0
 42
0.000000001
 43
0.00000001
 40
0.0
 40
0.0
 40
0.0
 40
0.0
 40
0.220646024049503
 40
1.0
 40
1.0
 40
1.0
 40
1.0
 10
295.6929141923966
 20
418.0973302990911
 30
0.0
 10
295.6580843718892
 20
418.0973302990911
 30
0.0
 10
295.5002305394554
 20
418.0973302990911
 30
0.0
 10
295.2722607522924
 20
418.0973302990911
 30
0.0
 10
295.0945915922704
 20
418.0973302990911
 30
0.0
  0
SPLINE
  5
174
330
1F
100
AcDbEntity
  8
0
  6
CONTINUOUS
 62
     7
100
AcDbSpline
210
0.0
220
0.0
230
1.0
 70
    24
 71
     3
 72
    10
 73
     6
 74
     0
 42
0.000000001
 43
0.00000001
 40
0.0
 40
0.0
 40
0.0
 40
0.0
 40
0.4963141566680382
 40
0.7661236178808227
 40
1.0
 40
1.0
 40
1.0
 40
1.0
 10
295.0945915922704
 20
418.0973302990911
 30
0.0
 10
294.9059779022233
 20
418.0973302990911
 30
0.0
 10
294.6148288373431
 20
418.0973302990911
 30
0.0
 10
294.2201758122661
 20
418.0973302990911
 30
0.0
 10
294.0349993563901
 20
418.0973302990911
 30
0.0
 10
293.9490163967195
 20
418.0973302990911
 30
0.0
  0
SPLINE
  5
175
330
1F
100
AcDbEntity
  8
0
  6
CONTINUOUS
 62
     7
100
AcDbSpline
210
0.0
220
0.0
230
1.0
 70
    24
 71
     3
 72
    11
 73
     7
 74
     0
 42
0.000000001
 43
0.00000001
 40
0.0
 40
0.0
 40
0.0
 40
0.0
 40
0.1643387237559132
 40
0.3818928436522769
 40
0.5998147311417711
 40
1.0
 40
1.0
 40
1.0
 40
1.0
 10
247.4447246909322
 20
418.0973302990911
 30
0.0
 10
247.3890397573477
 20
418.0973302990911
 30
0.0
 10
247.2596382556858
 20
418.0973302990911
 30
0.0
 10
247.0080981629411
 20
418.0973302990911
 30
0.0
 10
246.6268439807141
 20
418.0973302990911
 30
0.0
 10
246.3238632030297
 20
418.0973302990911
 30
0.0
 10
246.1277023226204
 20
418.0973302990911
 30
0.0
  0
SPLINE
  5
176
330
1F
100
AcDbEntity
  8
0
  6
CONTINUOUS
 62
     7
100
AcDbSpline
210
0.0
220
0.0
230
1.0
 70
    24
 71
     3
 72
    10
 73
     6
 74
     0
 42
0.000000001
 43
0.00000001
 40
0.0
 40
0.0
 40
0.0
 40
0.0
 40
0.5612339667003916
 40
0.8663354408606734
 40
1.0
 40
1.0
 40
1.0
 40
1.0
 10
246.1277023226204
 20
418.0973302990911
 30
0.0
 10
245.9381402787982
 20
418.0973302990911
 30
0.0
 10
245.6455273463155
 20
418.0973302990911
 30
0.0
 10
245.3525410352753
 20
418.0973302990911
 30
0.0
 10
245.2509052158447
 20
418.0973302990911
 30
0.0
 10
245.2199431404652
 20
418.0973302990911
 30
0.0
  0
SPLINE
  5
177
330
1F
100
AcDbEntity
  8
0
  6
CONTINUOUS
 62
     7
100
AcDbSpline
210
0.0
220
0.0
230
1.0
 70
    24
 71
     3
 72
    10
 73
     6
 74
     0
 42
0.000000001
 43
0.00000001
 40
0.0
 40
0.0
 40
0.0
 40
0.0
 40
0.1462060328930772
 40
0.447221738293295
 40
1.0
 40
1.0
 40
1.0
 40
1.0
 10
268.7415834784689
 20
418.0973302990911
 30
0.0
 10
268.7072696627079
 20
418.0973302990911
 30
0.0
 10
268.6023089847627
 20
418.0973302990911
 30
0.0
 10
268.3054685071036
 20
418.0973302990911
 30
0.0
 10
268.0125392857571
 20
418.0973302990911
 30
0.0
 10
267.8228859126749
 20
418.0973302990911
 30
0.0
  0
SPLINE
  5
178
330
1F
100
AcDbEntity
  8
0
  6
CONTINUOUS
 62
     7
100
AcDbSpline
210
0.0
220
0.0
230
1.0
 70
    24
 71
     3
 72
    11
 73
     7
 74
     0
 42
0.000000001
 43
0.00000001
 40
0.0
 40
0.0
 40
0.0
 40
0.0
 40
0.4327107064017967
 40
0.667945749291875
 40
0.9035795117643676
 40
1.0
 40
1.0
 40
1.0
 40
1.0
 10
267.8228859126749
 20
418.0973302990911
 30
0.0
 10
267.6265847206586
 20
418.0973302990911
 30
0.0
 10
267.3235680750145
 20
418.0973302990911
 30
0.0
 10
266.9433612033371
 20
418.0973302990911
 30
0.0
 10
266.7205833734838
 20
418.0973302990911
 30
0.0
 10
266.615402235288
 20
418.0973302990911
 30
0.0
 10
266.5848601877871
 20
418.0973302990911
 30
0.0
  0
SPLINE
  5
179
330
1F
100
AcDbEntity
  8
0
  6
CONTINUOUS
 62
     7
100
AcDbSpline
210
0.0
220
0.0
230
1.0
 70
    24
 71
     3
 72
    12
 73
     8
 74
     0
 42
0.000000001
 43
0.00000001
 40
0.0
 40
0.0
 40
0.0
 40
0.0
 40
0.3751016602181911
 40
0.5790187007348394
 40
0.7832798189392176
 40
0.9871967458232659
 40
1.0
 40
1.0
 40
1.0
 40
1.0
 10
317.8404579207482
 20
418.0973302990911
 30
0.0
 10
317.6706389983146
 20
418.0973302990911
 30
0.0
 10
317.4085011774091
 20
418.0973302990911
 30
0.0
 10
317.0020171232177
 20
418.0973302990911
 30
0.0
 10
316.6874877163627
 20
418.0973302990911
 30
0.0
 10
316.4695457455128
 20
418.0973302990911
 30
0.0
 10
316.3697808052679
 20
418.0973302990911
 30
0.0
 10
316.3638869568887
 20
418.0973302990911
 30
0.0
  0
SPLINE
  5
17A
330
1F
100
AcDbEntity
  8
0
  6
CONTINUOUS
 62
     7
100
AcDbSpline
210
0.0
220
0.0
230
1.0
 70
    24
 71
     3
 72
     9
 73
     5
 74
     0
 42
0.000000001
 43
0.00000001
 40
0.0
 40
0.0
 40
0.0
 40
0.0
 40
0.220646024049503
 40
1.0
 40
1.0
 40
1.0
 40
1.0
 10
289.4347952947202
 20
418.0973302990911
 30
0.0
 10
289.3999654742127
 20
418.0973302990911
 30
0.0
 10
289.2421116417789
 20
418.0973302990911
 30
0.0
 10
289.014141854616
 20
418.0973302990911
 30
0.0
 10
288.8364726945939
 20
418.0973302990911
 30
0.0
  0
SPLINE
  5
17B
330
1F
100
AcDbEntity
  8
0
  6
CONTINUOUS
 62
     7
100
AcDbSpline
210
0.0
220
0.0
230
1.0
 70
    24
 71
     3
 72
    10
 73
     6
 74
     0
 42
0.000000001
 43
0.00000001
 40
0.0
 40
0.0
 40
0.0
 40
0.0
 40
0.4963155470190475
 40
0.7661264054379238
 40
1.0
 40
1.0
 40
1.0
 40
1.0
 10
288.8364726945939
 20
418.0973302990911
 30
0.0
 10
288.6478586850908
 20
418.0973302990911
 30
0.0
 10
288.3567088833492
 20
418.0973302990911
 30
0.0
 10
287.962059288625
 20
418.0973302990911
 30
0.0
 10
287.7768819457372
 20
418.0973302990911
 30
0.0
 10
287.6908993616881
 20
418.0973302990911
 30
0.0
  0
SPLINE
  5
17C
330
1F
100
AcDbEntity
  8
0
  6
CONTINUOUS
 62
     7
100
AcDbSpline
210
0.0
220
0.0
230
1.0
 70
    24
 71
     3
 72
    12
 73
     8
 74
     0
 42
0.000000001
 43
0.00000001
 40
0.0
 40
0.0
 40
0.0
 40
0.0
 40
0.3751016602181911
 40
0.5790187007348394
 40
0.7832798189392176
 40
0.9871967458232659
 40
1.0
 40
1.0
 40
1.0
 40
1.0
 10
307.8481080278935
 20
418.0973302990911
 30
0.0
 10
307.67828910546
 20
418.0973302990911
 30
0.0
 10
307.4161512845544
 20
418.0973302990911
 30
0.0
 10
307.009667230363
 20
418.0973302990911
 30
0.0
 10
306.695137823508
 20
418.0973302990911
 30
0.0
 10
306.477195852658
 20
418.0973302990911
 30
0.0
 10
306.3774309124132
 20
418.0973302990911
 30
0.0
 10
306.371537064034
 20
418.0973302990911
 30
0.0
  0
SPLINE
  5
17D
330
1F
100
AcDbEntity
  8
0
  6
CONTINUOUS
 62
     7
100
AcDbSpline
210
0.0
220
0.0
230
1.0
 70
    24
 71
     3
 72
    13
 73
     9
 74
     0
 42
0.000000001
 43
0.00000001
 40
0.0
 40
0.0
 40
0.0
 40
0.0
 40
0.3074274018260211
 40
0.4745518106001786
 40
0.641958423068365
 40
0.8090864799310541
 40
0.9764947540680959
 40
1.0
 40
1.0
 40
1.0
 40
1.0
 10
336.7619375035348
 20
418.0973302990911
 30
0.0
 10
336.6216178713703
 20
418.0973302990911
 30
0.0
 10
336.4050173500411
 20
418.0973302990911
 30
0.0
 10
336.0263466031421
 20
418.0973302990911
 30
0.0
 10
335.7140491993604
 20
418.0973302990911
 30
0.0
 10
335.3994082614813
 20
418.0973302990911
 30
0.0
 10
335.1671437320244
 20
418.0973302990911
 30
0.0
 10
335.0625787067099
 20
418.0973302990911
 30
0.0
 10
335.0497046753945
 20
418.0973302990911
 30
0.0
  0
SPLINE
  5
17E
330
1F
100
AcDbEntity
  8
0
  6
CONTINUOUS
 62
     7
100
AcDbSpline
210
0.0
220
0.0
230
1.0
 70
    24
 71
     3
 72
     9
 73
     5
 74
     0
 42
0.000000001
 43
0.00000001
 40
0.0
 40
0.0
 40
0.0
 40
0.0
 40
0.2982484923021796
 40
0.9999999999999999
 40
0.9999999999999999
 40
0.9999999999999999
 40
0.9999999999999999
 10
279.1497754201474
 20
418.0973302990911
 30
0.0
 10
279.0941258645389
 20
418.0973302990911
 30
0.0
 10
278.9075379787832
 20
418.0973302990911
 30
0.0
 10
278.6489145518356
 20
418.0973302990911
 30
0.0
 10
278.467425172049
 20
418.0973302990911
 30
0.0
  0
SPLINE
  5
17F
330
1F
100
AcDbEntity
  8
0
  6
CONTINUOUS
 62
     7
100
AcDbSpline
210
0.0
220
0.0
230
1.0
 70
    24
 71
     3
 72
    10
 73
     6
 74
     0
 42
0.000000001
 43
0.00000001
 40
0.0
 40
0.0
 40
0.0
 40
0.0
 40
0.5311147354314395
 40
0.81984608218016
 40
1.0
 40
1.0
 40
1.0
 40
1.0
 10
278.467425172049
 20
418.0973302990911
 30
0.0
 10
278.2760869661242
 20
418.0973302990911
 30
0.0
 10
277.980731051415
 20
418.0973302990911
 30
0.0
 10
277.6139756295418
 20
418.0973302990911
 30
0.0
 10
277.4564766329436
 20
418.0973302990911
 30
0.0
 10
277.3959627643409
 20
418.0973302990911
 30
0.0
  0
SPLINE
  5
180
330
1F
100
AcDbEntity
  8
0
  6
CONTINUOUS
 62
     7
100
AcDbSpline
210
0.0
220
0.0
230
1.0
 70
    24
 71
     3
 72
    10
 73
     6
 74
     0
 42
0.000000001
 43
0.00000001
 40
0.0
 40
0.0
 40
0.0
 40
0.0
 40
0.2340814302224173
 40
0.504116391132674
 40
1.0
 40
1.0
 40
1.0
 40
1.0
 10
236.627063740808
 20
418.0973302990911
 30
0.0
 10
236.5430545595681
 20
418.0973302990911
 30
0.0
 10
236.3621328810377
 20
418.0973302990911
 30
0.0
 10
235.9704146808517
 20
418.0973302990911
 30
0.0
 10
235.6746511543701
 20
418.0973302990911
 30
0.0
 10
235.4831630632462
 20
418.0973302990911
 30
0.0
  0
SPLINE
  5
181
330
1F
100
AcDbEntity
  8
0
  6
CONTINUOUS
 62
     7
100
AcDbSpline
210
0.0
220
0.0
230
1.0
 70
    24
 71
     3
 72
     9
 73
     5
 74
     0
 42
0.000000001
 43
0.00000001
 40
0.0
 40
0.0
 40
0.0
 40
0.0
 40
0.780980847533318
 40
1.0
 40
1.0
 40
1.0
 40
1.0
 10
235.4831630632462
 20
418.0973302990911
 30
0.0
 10
235.3003477500802
 20
418.0973302990911
 30
0.0
 10
235.0662635036566
 20
418.0973302990911
 30
0.0
 10
234.8968620983931
 20
418.0973302990911
 30
0.0
 10
234.8597599461856
 20
418.0973302990911
 30
0.0
  0
SPLINE
  5
182
330
1F
100
AcDbEntity
  8
0
  6
CONTINUOUS
 62
     7
100
AcDbSpline
210
0.0
220
0.0
230
1.0
 70
    24
 71
     3
 72
    12
 73
     8
 74
     0
 42
0.000000001
 43
0.00000001
 40
0.0
 40
0.0
 40
0.0
 40
0.0
 40
0.3751015250008926
 40
0.5790188524909099
 40
0.7832798970628853
 40
0.9871967504386052
 40
1.0
 40
1.0
 40
1.0
 40
1.0
 10
297.8557581350389
 20
418.0973302990911
 30
0.0
 10
297.6859390636661
 20
418.0973302990911
 30
0.0
 10
297.4238008496532
 20
418.0973302990911
 30
0.0
 10
297.0173177053476
 20
418.0973302990911
 30
0.0
 10
296.7027878789743
 20
418.0973302990911
 30
0.0
 10
296.4848459603756
 20
418.0973302990911
 30
0.0
 10
296.3850810195904
 20
418.0973302990911
 30
0.0
 10
296.3791871711793
 20
418.0973302990911
 30
0.0
  0
SPLINE
  5
183
330
1F
100
AcDbEntity
  8
0
  6
CONTINUOUS
 62
     7
100
AcDbSpline
210
0.0
220
0.0
230
1.0
 70
    24
 71
     3
 72
    13
 73
     9
 74
     0
 42
0.000000001
 43
0.00000001
 40
0.0
 40
0.0
 40
0.0
 40
0.0
 40
0.3074262902864643
 40
0.4745515490395105
 40
0.6419582406418695
 40
0.8090863896850167
 40
0.9764947429570164
 40
1.0
 40
1.0
 40
1.0
 40
1.0
 10
323.6632133171144
 20
418.0973302990911
 30
0.0
 10
323.5228930607376
 20
418.0973302990911
 30
0.0
 10
323.3062909120952
 20
418.0973302990911
 30
0.0
 10
322.92762337388
 20
418.0973302990911
 30
0.0
 10
322.615324867963
 20
418.0973302990911
 30
0.0
 10
322.3006841289636
 20
418.0973302990911
 30
0.0
 10
322.0684195444111
 20
418.0973302990911
 30
0.0
 10
321.9638545201587
 20
418.0973302990911
 30
0.0
 10
321.9509804889741
 20
418.0973302990911
 30
0.0
  0
SPLINE
  5
184
330
1F
100
AcDbEntity
  8
0
  6
CONTINUOUS
 62
     7
100
AcDbSpline
210
0.0
220
0.0
230
1.0
 70
    24
 71
     3
 72
    18
 73
    14
 74
     0
 42
0.000000001
 43
0.00000001
 40
0.0
 40
0.0
 40
0.0
 40
0.0
 40
0.052708026119791
 40
0.128466536274369
 40
0.2040968511949016
 40
0.2798565965020048
 40
0.4189778745027613
 40
0.5580984340993702
 40
0.6337297734364855
 40
0.7094884995419048
 40
0.7851188144624376
 40
0.860877475657083
 40
1.0
 40
1.0
 40
1.0
 40
1.0
 10
166.226231519896
 20
418.0973302990911
 30
0.0
 10
166.2261047367553
 20
418.0973302990911
 30
0.0
 10
166.2257957251655
 20
418.0973302990911
 30
0.0
 10
166.1497873740022
 20
418.0973302990911
 30
0.0
 10
166.0146416619956
 20
418.0973302990911
 30
0.0
 10
165.7666806010598
 20
418.0973302990911
 30
0.0
 10
165.3589923686261
 20
418.0973302990911
 30
0.0
 10
164.8695429538313
 20
418.0973302990911
 30
0.0
 10
164.4631626250213
 20
418.0973302990911
 30
0.0
 10
164.1542436303649
 20
418.0973302990911
 30
0.0
 10
163.8680500798035
 20
418.0973302990911
 30
0.0
 10
163.5395475268213
 20
418.0973302990911
 30
0.0
 10
163.3822751095504
 20
418.0973302990911
 30
0.0
 10
163.2804507658066
 20
418.0973302990911
 30
0.0
  0
SPLINE
  5
185
330
1F
100
AcDbEntity
  8
0
  6
CONTINUOUS
 62
     7
100
AcDbSpline
210
0.0
220
0.0
230
1.0
 70
    24
 71
     3
 72
    25
 73
    21
 74
     0
 42
0.000000001
 43
0.00000001
 40
0.0
 40
0.0
 40
0.0
 40
0.0
 40
0.0274362457358545
 40
0.054647251595654
 40
0.0817893179887673
 40
0.1090199324628694
 40
0.1364950599338874
 40
0.2102710873284501
 40
0.2841722871200345
 40
0.357948370832586
 40
0.4318496270357567
 40
0.4999507087921628
 40
0.5681757236473229
 40
0.6362768428032496
 40
0.7045018808860616
 40
0.7782779082763415
 40
0.8521791080720822
 40
0.9015521824863255
 40
0.9505161174259559
 40
1.0
 40
1.0
 40
1.0
 40
1.0
 10
350.6701354005076
 20
418.0973302432117
 30
0.0
 10
350.6527157241451
 20
418.0973302432117
 30
0.0
 10
350.6180193795337
 20
418.0973302432117
 30
0.0
 10
350.556335349603
 20
418.0973302432117
 30
0.0
 10
350.4879758137057
 20
418.0973302432117
 30
0.0
 10
350.41222594249
 20
418.0973302432117
 30
0.0
 10
350.2832941884873
 20
418.0973302432117
 30
0.0
 10
350.0835773881333
 20
418.0973302432117
 30
0.0
 10
349.7964263729787
 20
418.0973302432117
 30
0.0
 10
349.4877417945161
 20
418.0973302432117
 30
0.0
 10
349.1779136206663
 20
418.0973302432117
 30
0.0
 10
348.879844850027
 20
418.0973302432117
 30
0.0
 10
348.6040380880299
 20
418.0973302432117
 30
0.0
 10
348.3509771882555
 20
418.0973302432117
 30
0.0
 10
348.1252984743293
 20
418.0973302432117
 30
0.0
 10
347.9363682303728
 20
418.0973302432117
 30
0.0
 10
347.8144412272666
 20
418.0973302432117
 30
0.0
 10
347.7468381985843
 20
418.0973302432117
 30
0.0
 10
347.715492103615
 20
418.0973302432117
 30
0.0
 10
347.7189680250661
 20
418.0973302432117
 30
0.0
 10
347.7207151647516
 20
418.0973302432117
 30
0.0
  0
SPLINE
  5
186
330
1F
100
AcDbEntity
  8
0
  6
CONTINUOUS
 62
     7
100
AcDbSpline
210
0.0
220
0.0
230
1.0
 70
    24
 71
     3
 72
    12
 73
     8
 74
     0
 42
0.000000001
 43
0.00000001
 40
0.0
 40
0.0
 40
0.0
 40
0.0
 40
0.3610007879897434
 40
0.5572513539263584
 40
0.7538350164769415
 40
0.9500857421872826
 40
1.0
 40
1.0
 40
1.0
 40
1.0
 10
226.0871799931111
 20
418.0973302990911
 30
0.0
 10
226.2570253257589
 20
418.0973302990911
 30
0.0
 10
226.5192035390062
 20
418.0973302990911
 30
0.0
 10
226.9254874711471
 20
418.0973302990911
 30
0.0
 10
227.2406558771581
 20
418.0973302990911
 30
0.0
 10
227.4770186658864
 20
418.0973302990911
 30
0.0
 10
227.5940907250599
 20
418.0973302990911
 30
0.0
 10
227.6178291335883
 20
418.0973302990911
 30
0.0
  0
SPLINE
  5
187
330
1F
100
AcDbEntity
  8
0
  6
CONTINUOUS
 62
     7
100
AcDbSpline
210
0.0
220
0.0
230
1.0
 70
    24
 71
     3
 72
     9
 73
     5
 74
     0
 42
0.000000001
 43
0.00000001
 40
0.0
 40
0.0
 40
0.0
 40
0.0
 40
0.2751456846615122
 40
1.0
 40
1.0
 40
1.0
 40
1.0
 10
225.5908185884537
 20
418.0973302990911
 30
0.0
 10
225.621341001378
 20
418.0973302990911
 30
0.0
 10
225.7322728263194
 20
418.0973302990911
 30
0.0
 10
225.9380334889073
 20
418.0973302990911
 30
0.0
 10
226.0871799931111
 20
418.0973302990911
 30
0.0
  0
SPLINE
  5
188
330
1F
100
AcDbEntity
  8
0
  6
CONTINUOUS
 62
     7
100
AcDbSpline
210
0.0
220
0.0
230
1.0
 70
    24
 71
     3
 72
    10
 73
     6
 74
     0
 42
0.000000001
 43
0.00000001
 40
0.0
 40
0.0
 40
0.0
 40
0.0
 40
0.1381419153279435
 40
0.8418703402640693
 40
1.0
 40
1.0
 40
1.0
 40
1.0
 10
203.4370387241425
 20
418.0973302990911
 30
0.0
 10
203.4462276165517
 20
418.0973302990911
 30
0.0
 10
203.5022269557874
 20
418.0973302990911
 30
0.0
 10
203.5168327378563
 20
418.0973302990911
 30
0.0
 10
203.5083352394851
 20
418.0973302990911
 30
0.0
 10
203.5067761585297
 20
418.0973302990911
 30
0.0
  0
SPLINE
  5
189
330
1F
100
AcDbEntity
  8
0
  6
CONTINUOUS
 62
     7
100
AcDbSpline
210
0.0
220
0.0
230
1.0
 70
    24
 71
     3
 72
    13
 73
     9
 74
     0
 42
0.000000001
 43
0.00000001
 40
0.0
 40
0.0
 40
0.0
 40
0.0
 40
0.2992879041727379
 40
0.4619893162123629
 40
0.6249674643194605
 40
0.7876689765594028
 40
0.9506467795285686
 40
1.0
 40
1.0
 40
1.0
 40
1.0
 10
313.2424252376142
 20
418.0973302990911
 30
0.0
 10
313.1109912483989
 20
418.0973302990911
 30
0.0
 10
312.9081060066032
 20
418.0973302990911
 30
0.0
 10
312.5398489350108
 20
418.0973302990911
 30
0.0
 10
312.2323683212617
 20
418.0973302990911
 30
0.0
 10
311.9170989994889
 20
418.0973302990911
 30
0.0
 10
311.6676898866234
 20
418.0973302990911
 30
0.0
 10
311.5448253313949
 20
418.0973302990911
 30
0.0
 10
311.5162672743382
 20
418.0973302990911
 30
0.0
  0
SPLINE
  5
18A
330
1F
100
AcDbEntity
  8
0
  6
CONTINUOUS
 62
     7
100
AcDbSpline
210
0.0
220
0.0
230
1.0
 70
    24
 71
     3
 72
    18
 73
    14
 74
     0
 42
0.000000001
 43
0.00000001
 40
0.0
 40
0.0
 40
0.0
 40
0.0
 40
0.0527079742219531
 40
0.1284664097825239
 40
0.2040974550362663
 40
0.2798560416367556
 40
0.4189786264208202
 40
0.5580990490353264
 40
0.6337303139036505
 40
0.7094889654148501
 40
0.7851192058676003
 40
0.8608783345204695
 40
1.0
 40
1.0
 40
1.0
 40
1.0
 10
181.6082904383721
 20
418.0973302990911
 30
0.0
 10
181.6081636632123
 20
418.0973302990911
 30
0.0
 10
181.6078546710746
 20
418.0973302990911
 30
0.0
 10
181.5318458251273
 20
418.0973302990911
 30
0.0
 10
181.3967007985762
 20
418.0973302990911
 30
0.0
 10
181.1487481113952
 20
418.0973302990911
 30
0.0
 10
180.7410510395342
 20
418.0973302990911
 30
0.0
 10
180.251602198954
 20
418.0973302990911
 30
0.0
 10
179.8452214410411
 20
418.0973302990911
 30
0.0
 10
179.5363027255289
 20
418.0973302990911
 30
0.0
 10
179.2501077117332
 20
418.0973302990911
 30
0.0
 10
178.9216091360878
 20
418.0973302990911
 30
0.0
 10
178.7643348165134
 20
418.0973302990911
 30
0.0
 10
178.6625096842828
 20
418.0973302990911
 30
0.0
  0
SPLINE
  5
18B
330
1F
100
AcDbEntity
  8
0
  6
CONTINUOUS
 62
     7
100
AcDbSpline
210
0.0
220
0.0
230
1.0
 70
    24
 71
     3
 72
    25
 73
    21
 74
     0
 42
0.000000001
 43
0.00000001
 40
0.0
 40
0.0
 40
0.0
 40
0.0
 40
0.0274362457361314
 40
0.0546472515960904
 40
0.0817893179892517
 40
0.1090199324632889
 40
0.1364950599341367
 40
0.2102710873282854
 40
0.2841722871202927
 40
0.3579483708335529
 40
0.4318496270361643
 40
0.4999507087952736
 40
0.5681757236479523
 40
0.6362768428077196
 40
0.7045018808869385
 40
0.7782779082809083
 40
0.8521791080727283
 40
0.901552182486678
 40
0.9505161174261377
 40
1.0
 40
1.0
 40
1.0
 40
1.0
 10
335.2880755085777
 20
418.0973302432117
 30
0.0
 10
335.2706558322149
 20
418.0973302432117
 30
0.0
 10
335.2359594876031
 20
418.0973302432117
 30
0.0
 10
335.1742754576717
 20
418.0973302432117
 30
0.0
 10
335.1059159217741
 20
418.0973302432117
 30
0.0
 10
335.0301660505584
 20
418.0973302432117
 30
0.0
 10
334.901234296556
 20
418.0973302432117
 30
0.0
 10
334.7015174962017
 20
418.0973302432117
 30
0.0
 10
334.4143664810476
 20
418.0973302432117
 30
0.0
 10
334.1056819025858
 20
418.0973302432117
 30
0.0
 10
333.7958537287331
 20
418.0973302432117
 30
0.0
 10
333.497784958096
 20
418.0973302432117
 30
0.0
 10
333.221978196096
 20
418.0973302432117
 30
0.0
 10
332.9689172963254
 20
418.0973302432117
 30
0.0
 10
332.7432385823988
 20
418.0973302432117
 30
0.0
 10
332.5543083384497
 20
418.0973302432117
 30
0.0
 10
332.4323813353428
 20
418.0973302432117
 30
0.0
 10
332.3647783066664
 20
418.0973302432117
 30
0.0
 10
332.3334322116973
 20
418.0973302432117
 30
0.0
 10
332.336908133147
 20
418.0973302432117
 30
0.0
 10
332.3386552728317
 20
418.0973302432117
 30
0.0
  0
SPLINE
  5
18C
330
1F
100
AcDbEntity
  8
0
  6
CONTINUOUS
 62
     7
100
AcDbSpline
210
0.0
220
0.0
230
1.0
 70
    24
 71
     3
 72
    12
 73
     8
 74
     0
 42
0.000000001
 43
0.00000001
 40
0.0
 40
0.0
 40
0.0
 40
0.0
 40
0.375102188276637
 40
0.5790182381819531
 40
0.7832811918442509
 40
0.987198295370984
 40
1.0
 40
1.0
 40
1.0
 40
1.0
 10
277.8717829182925
 20
418.0973302990911
 30
0.0
 10
277.7018290293517
 20
418.0973302990911
 30
0.0
 10
277.4394834488079
 20
418.0973302990911
 30
0.0
 10
277.0326777805254
 20
418.0973302990911
 30
0.0
 10
276.7178948924696
 20
418.0973302990911
 30
0.0
 10
276.4997885924794
 20
418.0973302990911
 30
0.0
 10
276.3999385500617
 20
418.0973302990911
 30
0.0
 10
276.3940403506341
 20
418.0973302990911
 30
0.0
  0
SPLINE
  5
18D
330
1F
100
AcDbEntity
  8
0
  6
CONTINUOUS
 62
     7
100
AcDbSpline
210
0.0
220
0.0
230
1.0
 70
    24
 71
     3
 72
     9
 73
     5
 74
     0
 42
0.000000001
 43
0.00000001
 40
0.0
 40
0.0
 40
0.0
 40
0.0
 40
0.4836861083220415
 40
1.0
 40
1.0
 40
1.0
 40
1.0
 10
299.6796304628434
 20
418.0973302990911
 30
0.0
 10
299.6512750798557
 20
418.0973302990911
 30
0.0
 10
299.5926515583199
 20
418.0973302990911
 30
0.0
 10
299.5966984643004
 20
418.0973302990911
 30
0.0
 10
299.5987879380765
 20
418.0973302990911
 30
0.0
  0
SPLINE
  5
18E
330
1F
100
AcDbEntity
  8
0
  6
CONTINUOUS
 62
     7
100
AcDbSpline
210
0.0
220
0.0
230
1.0
 70
    24
 71
     3
 72
    13
 73
     9
 74
     0
 42
0.000000001
 43
0.00000001
 40
0.0
 40
0.0
 40
0.0
 40
0.0
 40
0.2777103344901905
 40
0.428682608896321
 40
0.5799099507572699
 40
0.7308807769084774
 40
0.8821092944610802
 40
1.0
 40
1.0
 40
1.0
 40
1.0
 10
211.4656577155175
 20
418.0973302990911
 30
0.0
 10
211.5811529597557
 20
418.0973302990911
 30
0.0
 10
211.7594351353399
 20
418.0973302990911
 30
0.0
 10
212.1070970340595
 20
418.0973302990911
 30
0.0
 10
212.4039805594222
 20
418.0973302990911
 30
0.0
 10
212.7170973543433
 20
418.0973302990911
 30
0.0
 10
213.0160533597697
 20
418.0973302990911
 30
0.0
 10
213.1907870000708
 20
418.0973302990911
 30
0.0
 10
213.2673310384335
 20
418.0973302990911
 30
0.0
  0
SPLINE
  5
18F
330
1F
100
AcDbEntity
  8
0
  6
CONTINUOUS
 62
     7
100
AcDbSpline
210
0.0
220
0.0
230
1.0
 70
    24
 71
     3
 72
     9
 73
     5
 74
     0
 42
0.000000001
 43
0.00000001
 40
0.0
 40
0.0
 40
0.0
 40
0.0
 40
0.6376089759289618
 40
1.0
 40
1.0
 40
1.0
 40
1.0
 10
214.3517742201867
 20
418.0973302990911
 30
0.0
 10
214.355192483753
 20
418.0973302990911
 30
0.0
 10
214.3605535493832
 20
418.0973302990911
 30
0.0
 10
214.3150789963201
 20
418.0973302990911
 30
0.0
 10
214.2985994264664
 20
418.0973302990911
 30
0.0
  0
SPLINE
  5
190
330
1F
100
AcDbEntity
  8
0
  6
CONTINUOUS
 62
     7
100
AcDbSpline
210
0.0
220
0.0
230
1.0
 70
    24
 71
     3
 72
    19
 73
    15
 74
     0
 42
0.000000001
 43
0.00000001
 40
0.0
 40
0.0
 40
0.0
 40
0.0
 40
0.0220124122770513
 40
0.0943209163725876
 40
0.1667517468487897
 40
0.2390603423462726
 40
0.3114911694213485
 40
0.4445016700356527
 40
0.5775115162286488
 40
0.6498191786488889
 40
0.7222506501578863
 40
0.794558783732913
 40
0.8669899103488682
 40
1.0
 40
1.0
 40
1.0
 40
1.0
 10
193.8383439824166
 20
418.0973302990911
 30
0.0
 10
193.843385680975
 20
418.0973302990911
 30
0.0
 10
193.8649888393256
 20
418.0973302990911
 30
0.0
 10
193.8035286848749
 20
418.0973302990911
 30
0.0
 10
193.6955864984364
 20
418.0973302990911
 30
0.0
 10
193.5215932010379
 20
418.0973302990911
 30
0.0
 10
193.2363603326996
 20
418.0973302990911
 30
0.0
 10
192.7939886372282
 20
418.0973302990911
 30
0.0
 10
192.2929572227278
 20
418.0973302990911
 30
0.0
 10
191.8916686909626
 20
418.0973302990911
 30
0.0
 10
191.594883668548
 20
418.0973302990911
 30
0.0
 10
191.3281860077624
 20
418.0973302990911
 30
0.0
 10
191.0329484678954
 20
418.0973302990911
 30
0.0
 10
190.9093423381532
 20
418.0973302990911
 30
0.0
 10
190.82931524964
 20
418.0973302990911
 30
0.0
  0
SPLINE
  5
191
330
1F
100
AcDbEntity
  8
0
  6
CONTINUOUS
 62
     7
100
AcDbSpline
210
0.0
220
0.0
230
1.0
 70
    24
 71
     3
 72
    25
 73
    21
 74
     0
 42
0.000000001
 43
0.00000001
 40
0.0
 40
0.0
 40
0.0
 40
0.0
 40
0.0274362457360539
 40
0.054647251595959
 40
0.0817893179890912
 40
0.1090199324631243
 40
0.1364950599339873
 40
0.210271087327956
 40
0.284172287120077
 40
0.3579483708326836
 40
0.4318496270358703
 40
0.4999507087928855
 40
0.5681757236474823
 40
0.6362768428033879
 40
0.7045018808863718
 40
0.7782779082790147
 40
0.8521791080724865
 40
0.9015521824872296
 40
0.9505161174267848
 40
1.0
 40
1.0
 40
1.0
 40
1.0
 10
323.1212748259777
 20
418.0973302432117
 30
0.0
 10
323.1083882509633
 20
418.0973302432117
 30
0.0
 10
323.0827208942194
 20
418.0973302432117
 30
0.0
 10
323.0339620732357
 20
418.0973302432117
 30
0.0
 10
322.9779615271373
 20
418.0973302432117
 30
0.0
 10
322.9139682429505
 20
418.0973302432117
 30
0.0
 10
322.8024000497447
 20
418.0973302432117
 30
0.0
 10
322.6234914389346
 20
418.0973302432117
 30
0.0
 10
322.355749403763
 20
418.0973302432117
 30
0.0
 10
322.0592425576059
 20
418.0973302432117
 30
0.0
 10
321.7532651199785
 20
418.0973302432117
 30
0.0
 10
321.4517292082263
 20
418.0973302432117
 30
0.0
 10
321.1655580554431
 20
418.0973302432117
 30
0.0
 10
320.8958457827137
 20
418.0973302432117
 30
0.0
 10
320.646887410188
 20
418.0973302432117
 30
0.0
 10
320.4286221622411
 20
418.0973302432117
 30
0.0
 10
320.2756057517179
 20
418.0973302432117
 30
0.0
 10
320.1788616339928
 20
418.0973302432117
 30
0.0
 10
320.1214945316109
 20
418.0973302432117
 30
0.0
 10
320.1073182500702
 20
418.0973302432117
 30
0.0
 10
320.1001926736095
 20
418.0973302432117
 30
0.0
  0
SPLINE
  5
192
330
1F
100
AcDbEntity
  8
0
  6
CONTINUOUS
 62
     7
100
AcDbSpline
210
0.0
220
0.0
230
1.0
 70
    24
 71
     3
 72
    25
 73
    21
 74
     0
 42
0.000000001
 43
0.00000001
 40
0.0
 40
0.0
 40
0.0
 40
0.0
 40
0.0241715181658322
 40
0.0481445984765912
 40
0.0720569426506868
 40
0.096047298283403
 40
0.1202530715211528
 40
0.1852502509287366
 40
0.2503577080652576
 40
0.3153549370897937
 40
0.3804624439249491
 40
0.5000241647955836
 40
0.6195858856676512
 40
0.6845830650758317
 40
0.7496905222155988
 40
0.8146877512431916
 40
0.8797952580792582
 40
0.9199468418693194
 40
0.9598007488266732
 40
0.9999999999999999
 40
0.9999999999999999
 40
0.9999999999999999
 40
0.9999999999999999
 10
158.3045397819477
 20
418.0973302432117
 30
0.0
 10
158.3110620298756
 20
418.0973302432117
 30
0.0
 10
158.3240529808576
 20
418.0973302432117
 30
0.0
 10
158.3324848305024
 20
418.0973302432117
 30
0.0
 10
158.3326138220434
 20
418.0973302432117
 30
0.0
 10
158.3236653040142
 20
418.0973302432117
 30
0.0
 10
158.2960214504732
 20
418.0973302432117
 30
0.0
 10
158.2246391091604
 20
418.0973302432117
 30
0.0
 10
158.0727691558009
 20
418.0973302432117
 30
0.0
 10
157.8686035322868
 20
418.0973302432117
 30
0.0
 10
157.5487016599984
 20
418.0973302432117
 30
0.0
 10
157.0794866843461
 20
418.0973302432117
 30
0.0
 10
156.5745710890021
 20
418.0973302432117
 30
0.0
 10
156.1846314497288
 20
418.0973302432117
 30
0.0
 10
155.9049865115346
 20
418.0973302432117
 30
0.0
 10
155.6607539434077
 20
418.0973302432117
 30
0.0
 10
155.4893275018744
 20
418.0973302432117
 30
0.0
 10
155.3758616716918
 20
418.0973302432117
 30
0.0
 10
155.3027003894896
 20
418.0973302432117
 30
0.0
 10
155.2739077361514
 20
418.0973302432117
 30
0.0
 10
155.2594493046476
 20
418.0973302432117
 30
0.0
  0
SPLINE
  5
193
330
1F
100
AcDbEntity
  8
0
  6
CONTINUOUS
 62
     7
100
AcDbSpline
210
0.0
220
0.0
230
1.0
 70
    24
 71
     3
 72
    25
 73
    21
 74
     0
 42
0.000000001
 43
0.00000001
 40
0.0
 40
0.0
 40
0.0
 40
0.0
 40
0.0241715181670343
 40
0.048144598478551
 40
0.0720569426529636
 40
0.0960472982855677
 40
0.1202530715227921
 40
0.1852502509330976
 40
0.2503577080706951
 40
0.3153549370966378
 40
0.3804624439342459
 40
0.5000241648063165
 40
0.6195858856769543
 40
0.6845830650834532
 40
0.7496905222210226
 40
0.8146877512433416
 40
0.8797952580807079
 40
0.9199468418678135
 40
0.9598007488246412
 40
1.0
 40
1.0
 40
1.0
 40
1.0
 10
358.6911389306476
 20
418.0973302432117
 30
0.0
 10
358.6829886864961
 20
418.0973302432117
 30
0.0
 10
358.6667551082215
 20
418.0973302432117
 30
0.0
 10
358.6316904440509
 20
418.0973302432117
 30
0.0
 10
358.5889320796018
 20
418.0973302432117
 30
0.0
 10
358.5377044828069
 20
418.0973302432117
 30
0.0
 10
358.4452600068544
 20
418.0973302432117
 30
0.0
 10
358.2899741490752
 20
418.0973302432117
 30
0.0
 10
358.0458929724708
 20
418.0973302432117
 30
0.0
 10
357.766131094293
 20
418.0973302432117
 30
0.0
 10
357.3761971970772
 20
418.0973302432117
 30
0.0
 10
356.8711036647136
 20
418.0973302432117
 30
0.0
 10
356.402053325595
 20
418.0973302432117
 30
0.0
 10
356.082122297076
 20
418.0973302432117
 30
0.0
 10
355.8780141987988
 20
418.0973302432117
 30
0.0
 10
355.7260364203611
 20
418.0973302432117
 30
0.0
 10
355.6471524635161
 20
418.0973302432117
 30
0.0
 10
355.6175705134711
 20
418.0973302432117
 30
0.0
 10
355.6162720323782
 20
418.0973302432117
 30
0.0
 10
355.6360944754395
 20
418.0973302432117
 30
0.0
 10
355.6460484533476
 20
418.0973302432117
 30
0.0
  0
SPLINE
  5
194
330
1F
100
AcDbEntity
  8
0
  6
CONTINUOUS
 62
     7
100
AcDbSpline
210
0.0
220
0.0
230
1.0
 70
    24
 71
     3
 72
    25
 73
    21
 74
     0
 42
0.000000001
 43
0.00000001
 40
0.0
 40
0.0
 40
0.0
 40
0.0
 40
0.0241715181643754
 40
0.0481445984745286
 40
0.0720569426488603
 40
0.0960472982826294
 40
0.1202530715222103
 40
0.185250250927418
 40
0.2503577080682584
 40
0.3153549370918976
 40
0.3804624439296694
 40
0.5000241648011875
 40
0.6195858856726707
 40
0.6845830650813446
 40
0.7496905222184137
 40
0.8146877512445323
 40
0.8797952580797768
 40
0.91994684186853
 40
0.9598007488256906
 40
0.9999999999999999
 40
0.9999999999999999
 40
0.9999999999999999
 40
0.9999999999999999
 10
175.0034230443376
 20
418.0973302432117
 30
0.0
 10
175.0099452922643
 20
418.0973302432117
 30
0.0
 10
175.022936243244
 20
418.0973302432117
 30
0.0
 10
175.0313680928855
 20
418.0973302432117
 30
0.0
 10
175.0314970844243
 20
418.0973302432117
 30
0.0
 10
175.0225485663933
 20
418.0973302432117
 30
0.0
 10
174.9949047128545
 20
418.0973302432117
 30
0.0
 10
174.923522371538
 20
418.0973302432117
 30
0.0
 10
174.7716524181745
 20
418.0973302432117
 30
0.0
 10
174.5674867946547
 20
418.0973302432117
 30
0.0
 10
174.2475849223645
 20
418.0973302432117
 30
0.0
 10
173.7783699467103
 20
418.0973302432117
 30
0.0
 10
173.2734543513666
 20
418.0973302432117
 30
0.0
 10
172.8835147121001
 20
418.0973302432117
 30
0.0
 10
172.6038697739147
 20
418.0973302432117
 30
0.0
 10
172.3596372058027
 20
418.0973302432117
 30
0.0
 10
172.1882107642791
 20
418.0973302432117
 30
0.0
 10
172.074744934105
 20
418.0973302432117
 30
0.0
 10
172.0015836519114
 20
418.0973302432117
 30
0.0
 10
171.9727909985788
 20
418.0973302432117
 30
0.0
 10
171.9583325670776
 20
418.0973302432117
 30
0.0
  0
SPLINE
  5
195
330
1F
100
AcDbEntity
  8
0
  6
CONTINUOUS
 62
     7
100
AcDbSpline
210
0.0
220
0.0
230
1.0
 70
    24
 71
     3
 72
    25
 73
    21
 74
     0
 42
0.000000001
 43
0.00000001
 40
0.0
 40
0.0
 40
0.0
 40
0.0
 40
0.0241715181660581
 40
0.0481445984770282
 40
0.0720569426513226
 40
0.0960472982842218
 40
0.1202530715221424
 40
0.1852502509301034
 40
0.2503577080678877
 40
0.3153549370924767
 40
0.3804624439291875
 40
0.5000241648006584
 40
0.619585885672164
 40
0.684583065078011
 40
0.7496905222180142
 40
0.8146877512395712
 40
0.879795258079474
 40
0.9199468418655111
 40
0.9598007488227274
 40
0.9999999999999999
 40
0.9999999999999999
 40
0.9999999999999999
 40
0.9999999999999999
 10
341.9922556682177
 20
418.0973302432117
 30
0.0
 10
341.984105424068
 20
418.0973302432117
 30
0.0
 10
341.9678718457972
 20
418.0973302432117
 30
0.0
 10
341.9328071816322
 20
418.0973302432117
 30
0.0
 10
341.8900488171878
 20
418.0973302432117
 30
0.0
 10
341.8388212203972
 20
418.0973302432117
 30
0.0
 10
341.7463767444551
 20
418.0973302432117
 30
0.0
 10
341.5910908866861
 20
418.0973302432117
 30
0.0
 10
341.3470097100906
 20
418.0973302432117
 30
0.0
 10
341.0672478319193
 20
418.0973302432117
 30
0.0
 10
340.6773139347105
 20
418.0973302432117
 30
0.0
 10
340.1722204023492
 20
418.0973302432117
 30
0.0
 10
339.7031700632349
 20
418.0973302432117
 30
0.0
 10
339.3832390347102
 20
418.0973302432117
 30
0.0
 10
339.1791309364326
 20
418.0973302432117
 30
0.0
 10
339.0271531579913
 20
418.0973302432117
 30
0.0
 10
338.9482692011397
 20
418.0973302432117
 30
0.0
 10
338.9186872510863
 20
418.0973302432117
 30
0.0
 10
338.9173887699907
 20
418.0973302432117
 30
0.0
 10
338.9372112130502
 20
418.0973302432117
 30
0.0
 10
338.9471651909576
 20
418.0973302432117
 30
0.0
  0
SPLINE
  5
196
330
1F
100
AcDbEntity
  8
0
  6
CONTINUOUS
 62
     7
100
AcDbSpline
210
0.0
220
0.0
230
1.0
 70
    24
 71
     3
 72
    16
 73
    12
 74
     0
 42
0.000000001
 43
0.00000001
 40
0.0
 40
0.0
 40
0.0
 40
0.0
 40
0.1232483664699573
 40
0.3895903805379147
 40
0.5720004629095293
 40
0.6992440728603071
 40
0.8397512496093827
 40
0.8933093677629534
 40
0.9472629275476813
 40
0.9787411590876365
 40
1.0
 40
1.0
 40
1.0
 40
1.0
 10
272.9752948776069
 20
435.6982713051853
 30
0.0
 10
272.9752948776069
 20
435.693654449555
 30
0.0
 10
272.9752948776069
 20
435.6790604829702
 30
0.0
 10
272.9752948776069
 20
435.7356476299392
 30
0.0
 10
272.9752948776069
 20
435.8563492987352
 30
0.0
 10
272.9752948776069
 20
436.0391836754193
 30
0.0
 10
272.9752948776069
 20
436.256108697892
 30
0.0
 10
272.9752948776069
 20
436.5311696708873
 30
0.0
 10
272.9752948776069
 20
436.739560591353
 30
0.0
 10
272.9752948776069
 20
436.9435444703309
 30
0.0
 10
272.9752948776069
 20
437.0531479114226
 30
0.0
 10
272.9752948776069
 20
437.0973301538048
 30
0.0
  0
SPLINE
  5
197
330
1F
100
AcDbEntity
  8
0
  6
CONTINUOUS
 62
     7
100
AcDbSpline
210
0.0
220
0.0
230
1.0
 70
    24
 71
     3
 72
    14
 73
    10
 74
     0
 42
0.000000001
 43
0.00000001
 40
0.0
 40
0.0
 40
0.0
 40
0.0
 40
0.0306706051530485
 40
0.0682339641501874
 40
0.1296115697904307
 40
0.2586680413640303
 40
0.4926185150832874
 40
0.7316303037015616
 40
1.0
 40
1.0
 40
1.0
 40
1.0
 10
240.9752933576884
 20
437.0973301538048
 30
0.0
 10
240.9752933576884
 20
437.0335113417003
 30
0.0
 10
240.9752933576884
 20
436.8915314063351
 30
0.0
 10
240.9752933576884
 20
436.6594777464979
 30
0.0
 10
240.9752933576884
 20
436.3560657020976
 30
0.0
 10
240.9752933576884
 20
436.0209143126442
 30
0.0
 10
240.9752933576884
 20
435.8078703176618
 30
0.0
 10
240.9752933576884
 20
435.6946294846265
 30
0.0
 10
240.9752933576884
 20
435.6970102057855
 30
0.0
 10
240.9752933576884
 20
435.6982694425402
 30
0.0
  0
LINE
  5
198
330
1F
100
AcDbEntity
  8
0
  6
CONTINUOUS
 62
     7
100
AcDbLine
 10
272.1127188102
 20
435.5973299079
 30
0.0
 11
272.4752938643
 21
435.5973299079
 31
0.0
  0
SPLINE
  5
199
330
1F
100
AcDbEntity
  8
0
  6
CONTINUOUS
 62
     7
100
AcDbSpline
210
0.0
220
0.0
230
1.0
 70
    24
 71
     3
 72
    16
 73
    12
 74
     0
 42
0.000000001
 43
0.00000001
 40
0.0
 40
0.0
 40
0.0
 40
0.0
 40
0.1027725353982649
 40
0.205380324798648
 40
0.3078935373004047
 40
0.410382536268925
 40
0.5129177349182257
 40
0.6155694513913371
 40
0.7184077648160668
 40
0.8593495270238121
 40
1.0
 40
1.0
 40
1.0
 40
1.0
 10
241.4752941176476
 20
435.5973302432117
 30
0.0
 10
241.4763042202678
 20
435.5973302432117
 30
0.0
 10
241.4783228062979
 20
435.5973302432117
 30
0.0
 10
241.4947521321584
 20
435.5973302432117
 30
0.0
 10
241.5210004042366
 20
435.5973302432117
 30
0.0
 10
241.5580196398399
 20
435.5973302432117
 30
0.0
 10
241.605574022788
 20
435.5973302432117
 30
0.0
 10
241.6636553430741
 20
435.5973302432117
 30
0.0
 10
241.7409797590622
 20
435.5973302432117
 30
0.0
 10
241.8408392774083
 20
435.5973302432117
 30
0.0
 10
241.9304564701871
 20
435.5973302432117
 30
0.0
 10
241.9752187149375
 20
435.5973302432117
 30
0.0
  0
SPLINE
  5
19A
330
1F
100
AcDbEntity
  8
0
  6
CONTINUOUS
 62
     7
100
AcDbSpline
210
0.0
220
0.0
230
1.0
 70
    24
 71
     3
 72
    22
 73
    18
 74
     0
 42
0.000000001
 43
0.00000001
 40
0.0
 40
0.0
 40
0.0
 40
0.0
 40
0.2500000000000003
 40
0.2500000000000003
 40
0.5000000000000006
 40
0.5000000000000006
 40
0.6250000000000006
 40
0.6250000000000006
 40
0.7500000000000004
 40
0.7500000000000004
 40
0.8750000000000002
 40
0.8750000000000002
 40
0.9375000000000002
 40
0.9375000000000002
 40
0.9687500000000002
 40
0.9687500000000002
 40
1.0
 40
1.0
 40
1.0
 40
1.0
 10
240.9752941176476
 20
443.5973302432117
 30
0.0
 10
240.9752941176476
 20
443.5973302432117
 30
0.0
 10
240.9752941176478
 20
443.5981893001353
 30
0.0
 10
240.9752941176478
 20
443.5912969298786
 30
0.0
 10
240.9752941176477
 20
443.5837735569768
 30
0.0
 10
240.9752941176477
 20
443.5416758294164
 30
0.0
 10
240.9752941176551
 20
443.5223590601686
 30
0.0
 10
240.9752941176551
 20
443.4650090124678
 30
0.0
 10
240.9752941176478
 20
443.427251812444
 30
0.0
 10
240.9752941176478
 20
443.3172170395987
 30
0.0
 10
240.9752941176476
 20
443.2474008456805
 30
0.0
 10
240.9752941176476
 20
443.080061204082
 30
0.0
 10
240.9752941176476
 20
443.0136666550197
 30
0.0
 10
240.9752941176476
 20
442.8840728840589
 30
0.0
 10
240.9752941176476
 20
442.834776850343
 30
0.0
 10
240.9752941176476
 20
442.7238392344016
 30
0.0
 10
240.9752941176476
 20
442.6615704923776
 30
0.0
 10
240.9752941176476
 20
442.5973302432117
 30
0.0
  0
SPLINE
  5
19B
330
1F
100
AcDbEntity
  8
0
  6
CONTINUOUS
 62
     7
100
AcDbSpline
210
0.0
220
0.0
230
1.0
 70
    24
 71
     3
 72
    14
 73
    10
 74
     0
 42
0.000000001
 43
0.00000001
 40
0.0
 40
0.0
 40
0.0
 40
0.0
 40
0.25
 40
0.25
 40
0.5
 40
0.5
 40
0.75
 40
0.75
 40
1.0
 40
1.0
 40
1.0
 40
1.0
 10
240.9752941176476
 20
443.5973302432117
 30
0.0
 10
240.9752941176476
 20
443.5973302432117
 30
0.0
 10
242.6610884823749
 20
443.5973302432117
 30
0.0
 10
248.6620827549508
 20
443.5973302432117
 30
0.0
 10
252.7319503736477
 20
443.5973302432117
 30
0.0
 10
261.2186378616476
 20
443.5973302432117
 30
0.0
 10
265.2885054803445
 20
443.5973302432117
 30
0.0
 10
271.2894997529203
 20
443.5973302432117
 30
0.0
 10
272.9752941176476
 20
443.5973302432117
 30
0.0
 10
272.9752941176476
 20
443.5973302432117
 30
0.0
  0
SPLINE
  5
19C
330
1F
100
AcDbEntity
  8
0
  6
CONTINUOUS
 62
     7
100
AcDbSpline
210
0.0
220
0.0
230
1.0
 70
    24
 71
     3
 72
    22
 73
    18
 74
     0
 42
0.000000001
 43
0.00000001
 40
0.0
 40
0.0
 40
0.0
 40
0.0
 40
0.0312499999999993
 40
0.0312499999999993
 40
0.0624999999999986
 40
0.0624999999999986
 40
0.1249999999999983
 40
0.1249999999999983
 40
0.2499999999999988
 40
0.2499999999999988
 40
0.3749999999999993
 40
0.3749999999999993
 40
0.4999999999999996
 40
0.4999999999999996
 40
0.7499999999999998
 40
0.7499999999999998
 40
1.0
 40
1.0
 40
1.0
 40
1.0
 10
272.9752941176476
 20
442.5973302432117
 30
0.0
 10
272.9752941176476
 20
442.6624437134282
 30
0.0
 10
272.9752941176476
 20
442.7255234484824
 30
0.0
 10
272.9752941176476
 20
442.8373303985989
 30
0.0
 10
272.9752941176476
 20
442.8870747571075
 30
0.0
 10
272.9752941176476
 20
443.0176073887158
 30
0.0
 10
272.9752941176476
 20
443.0841085039593
 30
0.0
 10
272.9752941176476
 20
443.2496939490402
 30
0.0
 10
272.9752941176476
 20
443.3201530916346
 30
0.0
 10
272.9752941176476
 20
443.4291580767718
 30
0.0
 10
272.9752941176476
 20
443.4663122498334
 30
0.0
 10
272.9752941176476
 20
443.5229607364768
 30
0.0
 10
272.9752941176476
 20
443.5420774461207
 30
0.0
 10
272.9752941176476
 20
443.5838130916054
 30
0.0
 10
272.9752941176476
 20
443.5913338889191
 30
0.0
 10
272.9752941176476
 20
443.5981839942262
 30
0.0
 10
272.9752941176476
 20
443.5973302432117
 30
0.0
 10
272.9752941176476
 20
443.5973302432117
 30
0.0
  0
LINE
  5
19D
330
1F
100
AcDbEntity
  8
0
  6
CONTINUOUS
 62
     7
100
AcDbLine
 10
240.9752933577
 20
442.597330124
 30
0.0
 11
240.9752933577
 21
437.0973301538
 31
0.0
  0
LINE
  5
19E
330
1F
100
AcDbEntity
  8
0
  6
CONTINUOUS
 62
     7
100
AcDbLine
 10
272.9752948776
 20
437.0973301538
 30
0.0
 11
272.9752948776
 21
442.597330124
 31
0.0
  0
LINE
  5
19F
330
1F
100
AcDbEntity
  8
0
  6
CONTINUOUS
 62
     7
100
AcDbLine
 10
271.9752937824
 20
428.5973306232
 30
0.0
 11
271.9752937824
 21
435.5973299079
 31
0.0
  0
LINE
  5
1A0
330
1F
100
AcDbEntity
  8
0
  6
CONTINUOUS
 62
     7
100
AcDbLine
 10
241.9752944529
 20
435.5973299079
 30
0.0
 11
241.9752944529
 21
428.5973306232
 31
0.0
  0
LINE
  5
1A1
330
1F
100
AcDbEntity
  8
0
  6
CONTINUOUS
 62
     7
100
AcDbLine
 10
271.9752937824
 20
435.5973299079
 30
0.0
 11
241.9752944529
 21
435.5973299079
 31
0.0
  0
SPLINE
  5
1A2
330
1F
100
AcDbEntity
  8
0
  6
CONTINUOUS
 62
     7
100
AcDbSpline
210
0.0
220
0.0
230
1.0
 70
    24
 71
     3
 72
    10
 73
     6
 74
     0
 42
0.000000001
 43
0.00000001
 40
0.0
 40
0.0
 40
0.0
 40
0.0
 40
0.4999999999999999
 40
0.4999999999999999
 40
0.9999999999999999
 40
0.9999999999999999
 40
0.9999999999999999
 40
0.9999999999999999
 10
242.4752941176476
 20
455.5973302432117
 30
0.0
 10
242.4752941176475
 20
455.5973302432117
 30
0.0
 10
244.0030452606817
 20
455.5973302432117
 30
0.0
 10
249.4414463202035
 20
455.5973302432117
 30
0.0
 10
253.1297638496476
 20
455.5973302432117
 30
0.0
 10
256.9752941176476
 20
455.5973302432117
 30
0.0
  0
SPLINE
  5
1A3
330
1F
100
AcDbEntity
  8
0
  6
CONTINUOUS
 62
     7
100
AcDbSpline
210
0.0
220
0.0
230
1.0
 70
    24
 71
     3
 72
    10
 73
     6
 74
     0
 42
0.000000001
 43
0.00000001
 40
0.0
 40
0.0
 40
0.0
 40
0.0
 40
0.4999999999999997
 40
0.4999999999999997
 40
0.9999999999999999
 40
0.9999999999999999
 40
0.9999999999999999
 40
0.9999999999999999
 10
271.4752941176476
 20
455.5973302432117
 30
0.0
 10
271.4752941176475
 20
455.5973302432117
 30
0.0
 10
269.9475429746134
 20
455.5973302432117
 30
0.0
 10
264.5091419150915
 20
455.5973302432117
 30
0.0
 10
260.8208243856477
 20
455.5973302432117
 30
0.0
 10
256.9752941176476
 20
455.5973302432117
 30
0.0
  0
SPLINE
  5
1A4
330
1F
100
AcDbEntity
  8
0
  6
CONTINUOUS
 62
     7
100
AcDbSpline
210
0.0
220
0.0
230
1.0
 70
    24
 71
     3
 72
    14
 73
    10
 74
     0
 42
0.000000001
 43
0.00000001
 40
0.0
 40
0.0
 40
0.0
 40
0.0
 40
0.0542675328336188
 40
0.280717304835624
 40
0.4038212043656095
 40
0.5271341806668641
 40
0.650238691972851
 40
0.773551173369734
 40
1.0
 40
1.0
 40
1.0
 40
1.0
 10
225.2408052131715
 20
418.0973302990911
 30
0.0
 10
225.2007088922901
 20
418.0973302990911
 30
0.0
 10
224.9932970100115
 20
418.0973302990911
 30
0.0
 10
224.6262157741093
 20
418.0973302990911
 30
0.0
 10
224.2277876832353
 20
418.0973302990911
 30
0.0
 10
223.9301021064032
 20
418.0973302990911
 30
0.0
 10
223.6633688599377
 20
418.0973302990911
 30
0.0
 10
223.3678468854837
 20
418.0973302990911
 30
0.0
 10
223.2441499953189
 20
418.0973302990911
 30
0.0
 10
223.1640639051976
 20
418.0973302990911
 30
0.0
  0
SPLINE
  5
1A5
330
1F
100
AcDbEntity
  8
0
  6
CONTINUOUS
 62
     7
100
AcDbSpline
210
0.0
220
0.0
230
1.0
 70
    24
 71
     3
 72
    11
 73
     7
 74
     0
 42
0.000000001
 43
0.00000001
 40
0.0
 40
0.0
 40
0.0
 40
0.0
 40
0.3978003432982006
 40
0.6140559338930901
 40
0.8306780405531663
 40
1.0
 40
1.0
 40
1.0
 40
1.0
 10
290.7865243300977
 20
418.0973302990911
 30
0.0
 10
290.7065113467648
 20
418.0973302990911
 30
0.0
 10
290.5830010280038
 20
418.0973302990911
 30
0.0
 10
290.287001405201
 20
418.0973302990911
 30
0.0
 10
290.0413232827468
 20
418.0973302990911
 30
0.0
 10
289.8630272483129
 20
418.0973302990911
 30
0.0
 10
289.7848049447122
 20
418.0973302990911
 30
0.0
  0
LINE
  5
1A6
330
1F
100
AcDbEntity
  8
0
  6
CONTINUOUS
 62
     7
100
AcDbLine
 10
245.7252936706
 20
470.097329975
 30
0.0
 11
244.9752940133
 21
470.097329975
 31
0.0
  0
LINE
  5
1A7
330
1F
100
AcDbEntity
  8
0
  6
CONTINUOUS
 62
     7
100
AcDbLine
 10
245.7252936706
 20
476.5973319717
 30
0.0
 11
245.7252936706
 21
470.097329975
 31
0.0
  0
LINE
  5
1A8
330
1F
100
AcDbEntity
  8
0
  6
CONTINUOUS
 62
     7
100
AcDbLine
 10
268.2252945647
 20
476.5973319717
 30
0.0
 11
245.7252936706
 21
476.5973319717
 31
0.0
  0
LINE
  5
1A9
330
1F
100
AcDbEntity
  8
0
  6
CONTINUOUS
 62
     7
100
AcDbLine
 10
268.2252945647
 20
470.097329975
 30
0.0
 11
268.2252945647
 21
476.5973319717
 31
0.0
  0
LINE
  5
1AA
330
1F
100
AcDbEntity
  8
0
  6
CONTINUOUS
 62
     7
100
AcDbLine
 10
268.975294222
 20
470.097329975
 30
0.0
 11
268.2252945647
 21
470.097329975
 31
0.0
  0
SPLINE
  5
1AB
330
1F
100
AcDbEntity
  8
0
  6
CONTINUOUS
 62
     7
100
AcDbSpline
210
0.0
220
0.0
230
1.0
 70
    24
 71
     3
 72
     8
 73
     4
 74
     0
 42
0.000000001
 43
0.00000001
 40
0.0
 40
0.0
 40
0.0
 40
0.0
 40
1.0
 40
1.0
 40
1.0
 40
1.0
 10
245.7252941176557
 20
477.097330243146
 30
0.0
 10
245.7252941176557
 20
476.9711814408668
 30
0.0
 10
245.7252941176476
 20
476.8014372645156
 30
0.0
 10
245.7252941176476
 20
476.5973302431158
 30
0.0
  0
LINE
  5
1AC
330
1F
100
AcDbEntity
  8
0
  6
CONTINUOUS
 62
     7
100
AcDbLine
 10
268.2252945647
 20
477.0973292597
 30
0.0
 11
245.7252936706
 21
477.0973292597
 31
0.0
  0
SPLINE
  5
1AD
330
1F
100
AcDbEntity
  8
0
  6
CONTINUOUS
 62
     7
100
AcDbSpline
210
0.0
220
0.0
230
1.0
 70
    24
 71
     3
 72
     8
 73
     4
 74
     0
 42
0.000000001
 43
0.00000001
 40
0.0
 40
0.0
 40
0.0
 40
0.0
 40
1.0
 40
1.0
 40
1.0
 40
1.0
 10
268.2252941175014
 20
476.5973302440507
 30
0.0
 10
268.2252941175014
 20
476.8014372649865
 30
0.0
 10
268.2252941176476
 20
476.9711814413127
 30
0.0
 10
268.2252941176476
 20
477.0973302434969
 30
0.0
  0
SPLINE
  5
1AE
330
1F
100
AcDbEntity
  8
0
  6
CONTINUOUS
 62
     7
100
AcDbSpline
210
0.0
220
0.0
230
1.0
 70
    24
 71
     3
 72
    10
 73
     6
 74
     0
 42
0.000000001
 43
0.00000001
 40
0.0
 40
0.0
 40
0.0
 40
0.0
 40
0.5
 40
0.5
 40
1.0
 40
1.0
 40
1.0
 40
1.0
 10
207.7961863916881
 20
418.0973302432117
 30
0.0
 10
207.8856071748426
 20
418.0973302432117
 30
0.0
 10
207.2674784926462
 20
418.0973302432117
 30
0.0
 10
205.5659146512188
 20
418.0973302432117
 30
0.0
 10
204.8025892992017
 20
418.0973302432117
 30
0.0
 10
204.7131685160472
 20
418.0973302432117
 30
0.0
  0
LINE
  5
1AF
330
1F
100
AcDbEntity
  8
0
  6
CONTINUOUS
 62
     7
100
AcDbLine
 10
205.2635485575
 20
418.2973301922
 30
0.0
 11
204.5046771214
 21
418.2973301922
 31
0.0
  0
SPLINE
  5
1B0
330
1F
100
AcDbEntity
  8
0
  6
CONTINUOUS
 62
     7
100
AcDbSpline
210
0.0
220
0.0
230
1.0
 70
    24
 71
     3
 72
    11
 73
     7
 74
     0
 42
0.000000001
 43
0.00000001
 40
0.0
 40
0.0
 40
0.0
 40
0.0
 40
0.1451579983488826
 40
0.3677046774102717
 40
0.5906281350648279
 40
1.0
 40
1.0
 40
1.0
 40
1.0
 10
308.4990317270341
 20
418.0973302990911
 30
0.0
 10
308.5579051083094
 20
418.0973302990911
 30
0.0
 10
308.7070392787727
 20
418.0973302990911
 30
0.0
 10
308.9023117266431
 20
418.0973302990911
 30
0.0
 10
309.1333169014119
 20
418.0973302990911
 30
0.0
 10
309.1965087369069
 20
418.0973302990911
 30
0.0
 10
309.2374215170922
 20
418.0973302990911
 30
0.0
  0
LINE
  5
1B1
330
1F
100
AcDbEntity
  8
0
  6
CONTINUOUS
 62
     7
100
AcDbLine
 10
309.4459111139
 20
418.2973301922
 30
0.0
 11
308.6870396778
 21
418.2973301922
 31
0.0
  0
SPLINE
  5
1B2
330
1F
100
AcDbEntity
  8
0
  6
CONTINUOUS
 62
     7
100
AcDbSpline
210
0.0
220
0.0
230
1.0
 70
    24
 71
     3
 72
    25
 73
    21
 74
     0
 42
0.000000001
 43
0.00000001
 40
0.0
 40
0.0
 40
0.0
 40
0.0
 40
0.0241715181658784
 40
0.0481445984767672
 40
0.0720569426510754
 40
0.0960472982840836
 40
0.1202530715222001
 40
0.1852502509301417
 40
0.2503577080680295
 40
0.3153549370928065
 40
0.3804624439293807
 40
0.5000241648009217
 40
0.6195858856724654
 40
0.6845830650785237
 40
0.7496905222182454
 40
0.8146877512418688
 40
0.8797952580796726
 40
0.9199468418675406
 40
0.9598007488247217
 40
1.0
 40
1.0
 40
1.0
 40
1.0
 10
190.5252941176476
 20
418.0973302432117
 30
0.0
 10
190.5244654414017
 20
418.0973302432117
 30
0.0
 10
190.5228148919885
 20
418.0973302432117
 30
0.0
 10
190.5092583612979
 20
418.0973302432117
 30
0.0
 10
190.4875593252601
 20
418.0973302432117
 30
0.0
 10
190.4569287155388
 20
418.0973302432117
 30
0.0
 10
190.3958018255192
 20
418.0973302432117
 30
0.0
 10
190.2804240686978
 20
418.0973302432117
 30
0.0
 10
190.0788785789924
 20
418.0973302432117
 30
0.0
 10
189.832551701936
 20
418.0973302432117
 30
0.0
 10
189.4712338852934
 20
418.0973302432117
 30
0.0
 10
188.9752951935876
 20
418.0973302432117
 30
0.0
 10
188.47953087733
 20
418.0973302432117
 30
0.0
 10
188.1181952968962
 20
418.0973302432117
 30
0.0
 10
187.8719572254448
 20
418.0973302432117
 30
0.0
 10
187.6702797903224
 20
418.0973302432117
 30
0.0
 10
187.5428677740378
 20
418.0973302432117
 30
0.0
 10
187.4700541545386
 20
418.0973302432117
 30
0.0
 10
187.4321529381504
 20
418.0973302432117
 30
0.0
 10
187.4275869569325
 20
418.0973302432117
 30
0.0
 10
187.4252941176476
 20
418.0973302432117
 30
0.0
  0
SPLINE
  5
1B3
330
1F
100
AcDbEntity
  8
0
  6
CONTINUOUS
 62
     7
100
AcDbSpline
210
0.0
220
0.0
230
1.0
 70
    24
 71
     3
 72
    15
 73
    11
 74
     0
 42
0.000000001
 43
0.00000001
 40
0.0
 40
0.0
 40
0.0
 40
0.0
 40
0.1848905812958139
 40
0.285401589770485
 40
0.3860847483643057
 40
0.4865952565003662
 40
0.5872786437805553
 40
0.772167932635916
 40
0.9570595511535401
 40
1.0
 40
1.0
 40
1.0
 40
1.0
 10
326.5252942487779
 20
418.0973302990911
 30
0.0
 10
326.5044735438995
 20
418.0973302990911
 30
0.0
 10
326.4723341983968
 20
418.0973302990911
 30
0.0
 10
326.279394183832
 20
418.0973302990911
 30
0.0
 10
326.0791361929106
 20
418.0973302990911
 30
0.0
 10
325.832548418564
 20
418.0973302990911
 30
0.0
 10
325.4709352313855
 20
418.0973302990911
 30
0.0
 10
324.9777627051185
 20
418.0973302990911
 30
0.0
 10
324.5341046941099
 20
418.0973302990911
 30
0.0
 10
324.3244741926268
 20
418.0973302990911
 30
0.0
 10
324.2849642679276
 20
418.0973302990911
 30
0.0
  0
SPLINE
  5
1B4
330
1F
100
AcDbEntity
  8
0
  6
CONTINUOUS
 62
     7
100
AcDbSpline
210
0.0
220
0.0
230
1.0
 70
    24
 71
     3
 72
    19
 73
    15
 74
     0
 42
0.000000001
 43
0.00000001
 40
0.0
 40
0.0
 40
0.0
 40
0.0
 40
0.0220126797912726
 40
0.0943208144167714
 40
0.1667517051537351
 40
0.2390598544226533
 40
0.3114907690080684
 40
0.4445013241765617
 40
0.5775116157346063
 40
0.6498196538424048
 40
0.7222506024378892
 40
0.7945588094467378
 40
0.8669896481152658
 40
1.0
 40
1.0
 40
1.0
 40
1.0
 10
274.6781492874208
 20
418.0973302990911
 30
0.0
 10
274.6831888789379
 20
418.0973302990911
 30
0.0
 10
274.7047827230646
 20
418.0973302990911
 30
0.0
 10
274.6433324866514
 20
418.0973302990911
 30
0.0
 10
274.5353890804257
 20
418.0973302990911
 30
0.0
 10
274.361401381065
 20
418.0973302990911
 30
0.0
 10
274.0761640116181
 20
418.0973302990911
 30
0.0
 10
273.6337939321031
 20
418.0973302990911
 30
0.0
 10
273.1327609944279
 20
418.0973302990911
 30
0.0
 10
272.7314712209219
 20
418.0973302990911
 30
0.0
 10
272.4346875630317
 20
418.0973302990911
 30
0.0
 10
272.1679903962645
 20
418.0973302990911
 30
0.0
 10
271.8727554147441
 20
418.0973302990911
 30
0.0
 10
271.749146128984
 20
418.0973302990911
 30
0.0
 10
271.6691168293538
 20
418.0973302990911
 30
0.0
  0
SPLINE
  5
1B5
330
1F
100
AcDbEntity
  8
0
  6
CONTINUOUS
 62
     7
100
AcDbSpline
210
0.0
220
0.0
230
1.0
 70
    24
 71
     3
 72
    25
 73
    21
 74
     0
 42
0.000000001
 43
0.00000001
 40
0.0
 40
0.0
 40
0.0
 40
0.0
 40
0.0274362464547127
 40
0.0546472530274736
 40
0.0817893201317522
 40
0.1090199353193446
 40
0.1364950635102658
 40
0.2102710928368253
 40
0.2841722945656428
 40
0.3579483802102313
 40
0.4318496383506825
 40
0.4999507218921212
 40
0.5681757385342264
 40
0.6362768594764846
 40
0.704501899344989
 40
0.7782779286715361
 40
0.8521791304003598
 40
0.9015521975554531
 40
0.9505161252058676
 40
1.0
 40
1.0
 40
1.0
 40
1.0
 10
242.2814709408877
 20
418.0973302432117
 30
0.0
 10
242.2685843658734
 20
418.0973302432117
 30
0.0
 10
242.2429170091295
 20
418.0973302432117
 30
0.0
 10
242.1941581881458
 20
418.0973302432117
 30
0.0
 10
242.1381576420474
 20
418.0973302432117
 30
0.0
 10
242.0741643578603
 20
418.0973302432117
 30
0.0
 10
241.962596164655
 20
418.0973302432117
 30
0.0
 10
241.7836875538447
 20
418.0973302432117
 30
0.0
 10
241.5159455186743
 20
418.0973302432117
 30
0.0
 10
241.2194386725164
 20
418.0973302432117
 30
0.0
 10
240.9134612348893
 20
418.0973302432117
 30
0.0
 10
240.6119253231353
 20
418.0973302432117
 30
0.0
 10
240.3257541703499
 20
418.0973302432117
 30
0.0
 10
240.0560418976206
 20
418.0973302432117
 30
0.0
 10
239.8070835250944
 20
418.0973302432117
 30
0.0
 10
239.5888182771512
 20
418.0973302432117
 30
0.0
 10
239.43580187327
 20
418.0973302432117
 30
0.0
 10
239.3390577625936
 20
418.0973302432117
 30
0.0
 10
239.281690663196
 20
418.0973302432117
 30
0.0
 10
239.2675143752575
 20
418.0973302432117
 30
0.0
 10
239.2603887956104
 20
418.0973302432117
 30
0.0
  0
SPLINE
  5
1B6
330
1F
100
AcDbEntity
  8
0
  6
CONTINUOUS
 62
     7
100
AcDbSpline
210
0.0
220
0.0
230
1.0
 70
    24
 71
     3
 72
    13
 73
     9
 74
     0
 42
0.000000001
 43
0.00000001
 40
0.0
 40
0.0
 40
0.0
 40
0.0
 40
0.0654820930396735
 40
0.225424107609546
 40
0.3856356067734082
 40
0.5455760931190057
 40
0.705789131229077
 40
1.0
 40
1.0
 40
1.0
 40
1.0
 10
171.6083223268571
 20
418.0973302990911
 30
0.0
 10
171.5659855765753
 20
418.0973302990911
 30
0.0
 10
171.4202400191513
 20
418.0973302990911
 30
0.0
 10
171.2073187442546
 20
418.0973302990911
 30
0.0
 10
170.9718711801189
 20
418.0973302990911
 30
0.0
 10
170.7878892786328
 20
418.0973302990911
 30
0.0
 10
170.6177577578291
 20
418.0973302990911
 30
0.0
 10
170.6045986743946
 20
418.0973302990911
 30
0.0
 10
170.5960789963784
 20
418.0973302990911
 30
0.0
  0
SPLINE
  5
1B7
330
1F
100
AcDbEntity
  8
0
  6
CONTINUOUS
 62
     7
100
AcDbSpline
210
0.0
220
0.0
230
1.0
 70
    24
 71
     3
 72
    13
 73
     9
 74
     0
 42
0.000000001
 43
0.00000001
 40
0.0
 40
0.0
 40
0.0
 40
0.0
 40
0.2942107713033615
 40
0.4541516119252567
 40
0.614364258997711
 40
0.774304524981789
 40
0.9345179286535423
 40
1.0
 40
1.0
 40
1.0
 40
1.0
 10
343.3545092389169
 20
418.0973302990911
 30
0.0
 10
343.3459907750697
 20
418.0973302990911
 30
0.0
 10
343.3328414465453
 20
418.0973302990911
 30
0.0
 10
343.1627919344614
 20
418.0973302990911
 30
0.0
 10
342.978951909997
 20
418.0973302990911
 30
0.0
 10
342.7434235081681
 20
418.0973302990911
 30
0.0
 10
342.5305217604495
 20
418.0973302990911
 30
0.0
 10
342.3846022193479
 20
418.0973302990911
 30
0.0
 10
342.3422659084382
 20
418.0973302990911
 30
0.0
  0
SPLINE
  5
1B8
330
1F
100
AcDbEntity
  8
0
  6
CONTINUOUS
 62
     7
100
AcDbSpline
210
0.0
220
0.0
230
1.0
 70
    24
 71
     3
 72
    13
 73
     9
 74
     0
 42
0.000000001
 43
0.00000001
 40
0.0
 40
0.0
 40
0.0
 40
0.0
 40
0.2580955808332678
 40
0.3984030490747413
 40
0.5389493163501831
 40
0.6792563292071703
 40
0.8198031985192584
 40
1.0
 40
1.0
 40
1.0
 40
1.0
 10
360.3209639236512
 20
418.0973302990911
 30
0.0
 10
360.3124293202015
 20
418.0973302990911
 30
0.0
 10
360.2992550844164
 20
418.0973302990911
 30
0.0
 10
360.1293280204833
 20
418.0973302990911
 30
0.0
 10
359.9450941624755
 20
418.0973302990911
 30
0.0
 10
359.7110457623669
 20
418.0973302990911
 30
0.0
 10
359.4148357803235
 20
418.0973302990911
 30
0.0
 10
359.1755697764706
 20
418.0973302990911
 30
0.0
 10
359.0411478921952
 20
418.0973302990911
 30
0.0
  0
SPLINE
  5
1B9
330
1F
100
AcDbEntity
  8
0
  6
CONTINUOUS
 62
     7
100
AcDbSpline
210
0.0
220
0.0
230
1.0
 70
    24
 71
     3
 72
    13
 73
     9
 74
     0
 42
0.000000001
 43
0.00000001
 40
0.0
 40
0.0
 40
0.0
 40
0.0
 40
0.1801968439016993
 40
0.3205055178826981
 40
0.4610505964515889
 40
0.6013579298022216
 40
0.7419043584072647
 40
1.0
 40
1.0
 40
1.0
 40
1.0
 10
154.9094403431
 20
418.0973302990911
 30
0.0
 10
154.7750173551766
 20
418.0973302990911
 30
0.0
 10
154.5359271001707
 20
418.0973302990911
 30
0.0
 10
154.2396940432849
 20
418.0973302990911
 30
0.0
 10
154.005729076056
 20
418.0973302990911
 30
0.0
 10
153.8213527468185
 20
418.0973302990911
 30
0.0
 10
153.6513443694196
 20
418.0973302990911
 30
0.0
 10
153.6381602189726
 20
418.0973302990911
 30
0.0
 10
153.6296243116441
 20
418.0973302990911
 30
0.0
  0
SPLINE
  5
1BA
330
1F
100
AcDbEntity
  8
0
  6
CONTINUOUS
 62
     7
100
AcDbSpline
210
0.0
220
0.0
230
1.0
 70
    24
 71
     3
 72
    19
 73
    15
 74
     0
 42
0.000000001
 43
0.00000001
 40
0.0
 40
0.0
 40
0.0
 40
0.0
 40
0.1330101933957198
 40
0.2053183614131721
 40
0.2777496117370731
 40
0.3500574856635619
 40
0.4224890072166588
 40
0.555498919977615
 40
0.6885094871602067
 40
0.7608173575967484
 40
0.8332482493576504
 40
0.9055564437354757
 40
0.9779876836764463
 40
0.9999999999999999
 40
0.9999999999999999
 40
0.9999999999999999
 40
0.9999999999999999
 10
304.0050389513555
 20
418.0973302990911
 30
0.0
 10
304.0850663869892
 20
418.0973302990911
 30
0.0
 10
304.2085990391336
 20
418.0973302990911
 30
0.0
 10
304.5037692831935
 20
418.0973302990911
 30
0.0
 10
304.7702928243634
 20
418.0973302990911
 30
0.0
 10
305.0672128399419
 20
418.0973302990911
 30
0.0
 10
305.4685043436708
 20
418.0973302990911
 30
0.0
 10
305.9697144708184
 20
418.0973302990911
 30
0.0
 10
306.411928859454
 20
418.0973302990911
 30
0.0
 10
306.6972024025385
 20
418.0973302990911
 30
0.0
 10
306.8711494974367
 20
418.0973302990911
 30
0.0
 10
306.9792148974739
 20
418.0973302990911
 30
0.0
 10
307.0407330764873
 20
418.0973302990911
 30
0.0
 10
307.0191109581897
 20
418.0973302990911
 30
0.0
 10
307.0140714094224
 20
418.0973302990911
 30
0.0
  0
SPLINE
  5
1BB
330
1F
100
AcDbEntity
  8
0
  6
CONTINUOUS
 62
     7
100
AcDbSpline
210
0.0
220
0.0
230
1.0
 70
    24
 71
     3
 72
    19
 73
    15
 74
     0
 42
0.000000001
 43
0.00000001
 40
0.0
 40
0.0
 40
0.0
 40
0.0
 40
0.0220123152642434
 40
0.0943208520685586
 40
0.1667517153088738
 40
0.2390600608951187
 40
0.3114906170649656
 40
0.4445011778466192
 40
0.577511084206669
 40
0.6498195514755978
 40
0.7222503375703749
 40
0.7945585038540128
 40
0.8669898130052001
 40
1.0
 40
1.0
 40
1.0
 40
1.0
 10
206.9365168258729
 20
418.0973302990911
 30
0.0
 10
206.931476540519
 20
418.0973302990911
 30
0.0
 10
206.909879357145
 20
418.0973302990911
 30
0.0
 10
206.9713341528025
 20
418.0973302990911
 30
0.0
 10
207.0792794411915
 20
418.0973302990911
 30
0.0
 10
207.2532661068569
 20
418.0973302990911
 30
0.0
 10
207.5385021083616
 20
418.0973302990911
 30
0.0
 10
207.9808719039141
 20
418.0973302990911
 30
0.0
 10
208.481904318469
 20
418.0973302990911
 30
0.0
 10
208.883194179067
 20
418.0973302990911
 30
0.0
 10
209.1799776666449
 20
418.0973302990911
 30
0.0
 10
209.4466753022819
 20
418.0973302990911
 30
0.0
 10
209.7419114131856
 20
418.0973302990911
 30
0.0
 10
209.8655203976395
 20
418.0973302990911
 30
0.0
 10
209.9455492839398
 20
418.0973302990911
 30
0.0
  0
SPLINE
  5
1BC
330
1F
100
AcDbEntity
  8
0
  6
CONTINUOUS
 62
     7
100
AcDbSpline
210
0.0
220
0.0
230
1.0
 70
    24
 71
     3
 72
    10
 73
     6
 74
     0
 42
0.000000001
 43
0.00000001
 40
0.0
 40
0.0
 40
0.0
 40
0.0
 40
0.2141281227848775
 40
0.9175237574918522
 40
0.9999999999999999
 40
0.9999999999999999
 40
0.9999999999999999
 40
0.9999999999999999
 10
339.349993531424
 20
418.0973302990911
 30
0.0
 10
339.3549096467302
 20
418.0973302990911
 30
0.0
 10
339.3759748507273
 20
418.0973302990911
 30
0.0
 10
339.34488861869
 20
418.0973302990911
 30
0.0
 10
339.3017081049398
 20
418.0973302990911
 30
0.0
 10
339.2971763655725
 20
418.0973302990911
 30
0.0
  0
SPLINE
  5
1BD
330
1F
100
AcDbEntity
  8
0
  6
CONTINUOUS
 62
     7
100
AcDbSpline
210
0.0
220
0.0
230
1.0
 70
    24
 71
     3
 72
    11
 73
     7
 74
     0
 42
0.000000001
 43
0.00000001
 40
0.0
 40
0.0
 40
0.0
 40
0.0
 40
0.2730372274390686
 40
0.7315816921059163
 40
0.9808643670058516
 40
1.0
 40
1.0
 40
1.0
 40
1.0
 10
338.5971496150079
 20
418.0973302990911
 30
0.0
 10
338.4987571110461
 20
418.0973302990911
 30
0.0
 10
338.2351221656801
 20
418.0973302990911
 30
0.0
 10
337.8056395916864
 20
418.0973302990911
 30
0.0
 10
337.4966612866132
 20
418.0973302990911
 30
0.0
 10
337.3912063713339
 20
418.0973302990911
 30
0.0
 10
337.3836884543481
 20
418.0973302990911
 30
0.0
  0
SPLINE
  5
1BE
330
1F
100
AcDbEntity
  8
0
  6
CONTINUOUS
 62
     7
100
AcDbSpline
210
0.0
220
0.0
230
1.0
 70
    24
 71
     3
 72
    14
 73
    10
 74
     0
 42
0.000000001
 43
0.00000001
 40
0.0
 40
0.0
 40
0.0
 40
0.0
 40
0.2095653614551174
 40
0.3234911699938213
 40
0.4376090501963311
 40
0.5515348060391588
 40
0.6656530270450013
 40
0.8752167099268231
 40
0.9999999999999999
 40
0.9999999999999999
 40
0.9999999999999999
 40
0.9999999999999999
 10
177.6096308872285
 20
418.0973302990911
 30
0.0
 10
177.5296071341091
 20
418.0973302990911
 30
0.0
 10
177.4060801478545
 20
418.0973302990911
 30
0.0
 10
177.1108711395251
 20
418.0973302990911
 30
0.0
 10
176.8444570733696
 20
418.0973302990911
 30
0.0
 10
176.5471346808624
 20
418.0973302990911
 30
0.0
 10
176.1477626001485
 20
418.0973302990911
 30
0.0
 10
175.7150182647156
 20
418.0973302990911
 30
0.0
 10
175.4517094189877
 20
418.0973302990911
 30
0.0
 10
175.3534386202874
 20
418.0973302990911
 30
0.0
  0
SPLINE
  5
1BF
330
1F
100
AcDbEntity
  8
0
  6
CONTINUOUS
 62
     7
100
AcDbSpline
210
0.0
220
0.0
230
1.0
 70
    24
 71
     3
 72
     9
 73
     5
 74
     0
 42
0.000000001
 43
0.00000001
 40
0.0
 40
0.0
 40
0.0
 40
0.0
 40
0.1037682724605596
 40
1.0
 40
1.0
 40
1.0
 40
1.0
 10
174.6534118697228
 20
418.0973302990911
 30
0.0
 10
174.6488677870537
 20
418.0973302990911
 30
0.0
 10
174.6050771122993
 20
418.0973302990911
 30
0.0
 10
174.5963598247372
 20
418.0973302990911
 30
0.0
 10
174.588547115046
 20
418.0973302990911
 30
0.0
  0
SPLINE
  5
1C0
330
1F
100
AcDbEntity
  8
0
  6
CONTINUOUS
 62
     7
100
AcDbSpline
210
0.0
220
0.0
230
1.0
 70
    24
 71
     3
 72
    12
 73
     8
 74
     0
 42
0.000000001
 43
0.00000001
 40
0.0
 40
0.0
 40
0.0
 40
0.0
 40
0.3751029006911665
 40
0.5790187466672382
 40
0.7832814960533654
 40
0.9871972334967369
 40
1.0
 40
1.0
 40
1.0
 40
1.0
 10
237.902387072164
 20
418.0973302990911
 30
0.0
 10
237.7324324964167
 20
418.0973302990911
 30
0.0
 10
237.4700861235727
 20
418.0973302990911
 30
0.0
 10
237.0632803262523
 20
418.0973302990911
 30
0.0
 10
236.7484968483957
 20
418.0973302990911
 30
0.0
 10
236.5303936267359
 20
418.0973302990911
 30
0.0
 10
236.4305414640663
 20
418.0973302990911
 30
0.0
 10
236.4246426418605
 20
418.0973302990911
 30
0.0
  0
SPLINE
  5
1C1
330
1F
100
AcDbEntity
  8
0
  6
CONTINUOUS
 62
     7
100
AcDbSpline
210
0.0
220
0.0
230
1.0
 70
    24
 71
     3
 72
    16
 73
    12
 74
     0
 42
0.000000001
 43
0.00000001
 40
0.0
 40
0.0
 40
0.0
 40
0.0
 40
0.1653414581218923
 40
0.2552243605116619
 40
0.3452620948379831
 40
0.4351464653174341
 40
0.5251826856563732
 40
0.6905228194288866
 40
0.8558637666908498
 40
0.9457481737415347
 40
1.0
 40
1.0
 40
1.0
 40
1.0
 10
161.4416698262276
 20
418.0973302990911
 30
0.0
 10
161.3616410376876
 20
418.0973302990911
 30
0.0
 10
161.2381070093219
 20
418.0973302990911
 30
0.0
 10
160.9429367030668
 20
418.0973302990911
 30
0.0
 10
160.6764195188213
 20
418.0973302990911
 30
0.0
 10
160.3794623747714
 20
418.0973302990911
 30
0.0
 10
159.9783413402416
 20
418.0973302990911
 30
0.0
 10
159.4759536558282
 20
418.0973302990911
 30
0.0
 10
159.0378351391938
 20
418.0973302990911
 30
0.0
 10
158.7741781883785
 20
418.0973302990911
 30
0.0
 10
158.6872687244543
 20
418.0973302990911
 30
0.0
 10
158.6545566365304
 20
418.0973302990911
 30
0.0
  0
SPLINE
  5
1C2
330
1F
100
AcDbEntity
  8
0
  6
CONTINUOUS
 62
     7
100
AcDbSpline
210
0.0
220
0.0
230
1.0
 70
    24
 71
     3
 72
    16
 73
    12
 74
     0
 42
0.000000001
 43
0.00000001
 40
0.0
 40
0.0
 40
0.0
 40
0.0
 40
0.0540901586922481
 40
0.1441274554790322
 40
0.3094701196896115
 40
0.4748119704022934
 40
0.5646982562361198
 40
0.6547343768067969
 40
0.7446191557841917
 40
0.8346568249241868
 40
1.0
 40
1.0
 40
1.0
 40
1.0
 10
355.2960315987649
 20
418.0973302990911
 30
0.0
 10
355.2634210926703
 20
418.0973302990911
 30
0.0
 10
355.1765278503701
 20
418.0973302990911
 30
0.0
 10
354.9129092694049
 20
418.0973302990911
 30
0.0
 10
354.474636061123
 20
418.0973302990911
 30
0.0
 10
353.972424597689
 20
418.0973302990911
 30
0.0
 10
353.5713039795427
 20
418.0973302990911
 30
0.0
 10
353.2744851969275
 20
418.0973302990911
 30
0.0
 10
353.0077983286114
 20
418.0973302990911
 30
0.0
 10
352.7125581038001
 20
418.0973302990911
 30
0.0
 10
352.5889481486466
 20
418.0973302990911
 30
0.0
 10
352.5089184090676
 20
418.0973302990911
 30
0.0
  0
SPLINE
  5
1C3
330
1F
100
AcDbEntity
  8
0
  6
CONTINUOUS
 62
     7
100
AcDbSpline
210
0.0
220
0.0
230
1.0
 70
    24
 71
     3
 72
    13
 73
     9
 74
     0
 42
0.000000001
 43
0.00000001
 40
0.0
 40
0.0
 40
0.0
 40
0.0
 40
0.2289351402857049
 40
0.4079718325089952
 40
0.587313045200289
 40
0.7663499661930977
 40
0.9456907990944876
 40
1.0
 40
1.0
 40
1.0
 40
1.0
 10
203.0870365247311
 20
418.0973302990911
 30
0.0
 10
202.994841168947
 20
418.0973302990911
 30
0.0
 10
202.8305452543873
 20
418.0973302990911
 30
0.0
 10
202.5129341171254
 20
418.0973302990911
 30
0.0
 10
202.2062188521096
 20
418.0973302990911
 30
0.0
 10
201.8907437157373
 20
418.0973302990911
 30
0.0
 10
201.6413796025305
 20
418.0973302990911
 30
0.0
 10
201.5185146560219
 20
418.0973302990911
 30
0.0
 10
201.4899561450066
 20
418.0973302990911
 30
0.0
  0
SPLINE
  5
1C4
330
1F
100
AcDbEntity
  8
0
  6
CONTINUOUS
 62
     7
100
AcDbSpline
210
0.0
220
0.0
230
1.0
 70
    24
 71
     3
 72
    13
 73
     9
 74
     0
 42
0.000000001
 43
0.00000001
 40
0.0
 40
0.0
 40
0.0
 40
0.0
 40
0.2914144836781201
 40
0.4498370822702937
 40
0.6085258760719411
 40
0.7669481662518512
 40
0.9256377977496133
 40
1.0
 40
1.0
 40
1.0
 40
1.0
 10
186.5161294385972
 20
418.0973302990911
 30
0.0
 10
186.3940963298236
 20
418.0973302990911
 30
0.0
 10
186.2057219673067
 20
418.0973302990911
 30
0.0
 10
185.8493553602862
 20
418.0973302990911
 30
0.0
 10
185.5478165285999
 20
418.0973302990911
 30
0.0
 10
185.2334946226369
 20
418.0973302990911
 30
0.0
 10
184.9666851410323
 20
418.0973302990911
 30
0.0
 10
184.8244938433528
 20
418.0973302990911
 30
0.0
 10
184.7791234299721
 20
418.0973302990911
 30
0.0
  0
SPLINE
  5
1C5
330
1F
100
AcDbEntity
  8
0
  6
CONTINUOUS
 62
     7
100
AcDbSpline
210
0.0
220
0.0
230
1.0
 70
    24
 71
     3
 72
     9
 73
     5
 74
     0
 42
0.000000001
 43
0.00000001
 40
0.0
 40
0.0
 40
0.0
 40
0.0
 40
0.261372508414298
 40
1.0
 40
1.0
 40
1.0
 40
1.0
 10
330.2272493288102
 20
418.0973302990911
 30
0.0
 10
330.2413438075683
 20
418.0973302990911
 30
0.0
 10
330.2952686784112
 20
418.0973302990911
 30
0.0
 10
330.2931157210874
 20
418.0973302990911
 30
0.0
 10
330.2915254876199
 20
418.0973302990911
 30
0.0
  0
SPLINE
  5
1C6
330
1F
100
AcDbEntity
  8
0
  6
CONTINUOUS
 62
     7
100
AcDbSpline
210
0.0
220
0.0
230
1.0
 70
    24
 71
     3
 72
     9
 73
     5
 74
     0
 42
0.000000001
 43
0.00000001
 40
0.0
 40
0.0
 40
0.0
 40
0.0
 40
0.2613661067902799
 40
1.0
 40
1.0
 40
1.0
 40
1.0
 10
344.5808226511064
 20
418.0973302990911
 30
0.0
 10
344.5949171117871
 20
418.0973302990911
 30
0.0
 10
344.648843234244
 20
418.0973302990911
 30
0.0
 10
344.6466895753613
 20
418.0973302990911
 30
0.0
 10
344.645098809916
 20
418.0973302990911
 30
0.0
  0
SPLINE
  5
1C7
330
1F
100
AcDbEntity
  8
0
  6
CONTINUOUS
 62
     7
100
AcDbSpline
210
0.0
220
0.0
230
1.0
 70
    24
 71
     3
 72
    12
 73
     8
 74
     0
 42
0.000000001
 43
0.00000001
 40
0.0
 40
0.0
 40
0.0
 40
0.0
 40
0.3751015162242017
 40
0.5790164603137271
 40
0.78327990213374
 40
0.9871967507381778
 40
1.0
 40
1.0
 40
1.0
 40
1.0
 10
217.9169627174916
 20
418.0973302990911
 30
0.0
 10
217.7471436421165
 20
418.0973302990911
 30
0.0
 10
217.4850064987981
 20
418.0973302990911
 30
0.0
 10
217.0785235857803
 20
418.0973302990911
 30
0.0
 10
216.7639936890322
 20
418.0973302990911
 30
0.0
 10
216.5460505430049
 20
418.0973302990911
 30
0.0
 10
216.446285602053
 20
418.0973302990911
 30
0.0
 10
216.440391753632
 20
418.0973302990911
 30
0.0
  0
SPLINE
  5
1C8
330
1F
100
AcDbEntity
  8
0
  6
CONTINUOUS
 62
     7
100
AcDbSpline
210
0.0
220
0.0
230
1.0
 70
    24
 71
     3
 72
    12
 73
     8
 74
     0
 42
0.000000001
 43
0.00000001
 40
0.0
 40
0.0
 40
0.0
 40
0.0
 40
0.3430669448585758
 40
0.5295677126399271
 40
0.7163843236560323
 40
0.9028845533008941
 40
1.0
 40
1.0
 40
1.0
 40
1.0
 10
199.849837486464
 20
418.0973302990911
 30
0.0
 10
199.6935430494046
 20
418.0973302990911
 30
0.0
 10
199.4522825934723
 20
418.0973302990911
 30
0.0
 10
199.0565289849005
 20
418.0973302990911
 30
0.0
 10
198.7408056110878
 20
418.0973302990911
 30
0.0
 10
198.4728572246391
 20
418.0973302990911
 30
0.0
 10
198.3232547796578
 20
418.0973302990911
 30
0.0
 10
198.2720280334534
 20
418.0973302990911
 30
0.0
  0
SPLINE
  5
1C9
330
1F
100
AcDbEntity
  8
0
  6
CONTINUOUS
 62
     7
100
AcDbSpline
210
0.0
220
0.0
230
1.0
 70
    24
 71
     3
 72
     9
 73
     5
 74
     0
 42
0.000000001
 43
0.00000001
 40
0.0
 40
0.0
 40
0.0
 40
0.0
 40
0.1711759472105475
 40
1.0
 40
1.0
 40
1.0
 40
1.0
 10
200.231113497931
 20
418.0973302990911
 30
0.0
 10
200.2186997249632
 20
418.0973302990911
 30
0.0
 10
200.14617918005
 20
418.0973302990911
 30
0.0
 10
199.9841397027509
 20
418.0973302990911
 30
0.0
 10
199.849837486464
 20
418.0973302990911
 30
0.0
  0
SPLINE
  5
1CA
330
1F
100
AcDbEntity
  8
0
  6
CONTINUOUS
 62
     7
100
AcDbSpline
210
0.0
220
0.0
230
1.0
 70
    24
 71
     3
 72
    11
 73
     7
 74
     0
 42
0.000000001
 43
0.00000001
 40
0.0
 40
0.0
 40
0.0
 40
0.0
 40
0.4556617039204744
 40
0.7033671212844884
 40
0.9514950534185713
 40
1.0
 40
1.0
 40
1.0
 40
1.0
 10
188.2125372335496
 20
418.0973302990911
 30
0.0
 10
188.0561362258537
 20
418.0973302990911
 30
0.0
 10
187.8147129822445
 20
418.0973302990911
 30
0.0
 10
187.4197587672976
 20
418.0973302990911
 30
0.0
 10
187.1867439898406
 20
418.0973302990911
 30
0.0
 10
187.061924816842
 20
418.0973302990911
 30
0.0
 10
187.0415145799699
 20
418.0973302990911
 30
0.0
  0
SPLINE
  5
1CB
330
1F
100
AcDbEntity
  8
0
  6
CONTINUOUS
 62
     7
100
AcDbSpline
210
0.0
220
0.0
230
1.0
 70
    24
 71
     3
 72
    11
 73
     7
 74
     0
 42
0.000000001
 43
0.00000001
 40
0.0
 40
0.0
 40
0.0
 40
0.0
 40
0.4187299577033717
 40
0.6463657734261306
 40
0.8743844946593486
 40
1.0
 40
1.0
 40
1.0
 40
1.0
 10
216.7729484185757
 20
418.0973302990911
 30
0.0
 10
216.5919827334927
 20
418.0973302990911
 30
0.0
 10
216.3126379604465
 20
418.0973302990911
 30
0.0
 10
215.9041138764529
 20
418.0973302990911
 30
0.0
 10
215.6355638088715
 20
418.0973302990911
 30
0.0
 10
215.4855182954751
 20
418.0973302990911
 30
0.0
 10
215.4322201654496
 20
418.0973302990911
 30
0.0
  0
LINE
  5
1CC
330
1F
100
AcDbEntity
  8
0
  6
CONTINUOUS
 62
     7
100
AcDbLine
 10
236.2221228227
 20
418.0973302991
 30
0.0
 11
235.8331615374
 21
418.0973302991
 31
0.0
  0
SPLINE
  5
1CD
330
1F
100
AcDbEntity
  8
0
  6
CONTINUOUS
 62
     7
100
AcDbSpline
210
0.0
220
0.0
230
1.0
 70
    24
 71
     3
 72
    12
 73
     8
 74
     0
 42
0.000000001
 43
0.00000001
 40
0.0
 40
0.0
 40
0.0
 40
0.0
 40
0.3715987277137582
 40
0.5736104760360349
 40
0.7759652884659877
 40
0.9779761275547914
 40
1.0
 40
1.0
 40
1.0
 40
1.0
 10
231.994395171124
 20
418.0973302990911
 30
0.0
 10
231.8005934561543
 20
418.0973302990911
 30
0.0
 10
231.5014355589668
 20
418.0973302990911
 30
0.0
 10
231.1022813167927
 20
418.0973302990911
 30
0.0
 10
230.8177848316654
 20
418.0973302990911
 30
0.0
 10
230.6273691952017
 20
418.0973302990911
 30
0.0
 10
230.5503376591458
 20
418.0973302990911
 30
0.0
 10
230.5427650258126
 20
418.0973302990911
 30
0.0
  0
LINE
  5
1CE
330
1F
100
AcDbEntity
  8
0
  6
CONTINUOUS
 62
     7
100
AcDbLine
 10
232.373847653
 20
418.0973302991
 30
0.0
 11
231.9943951711
 21
418.0973302991
 31
0.0
  0
LINE
  5
1CF
330
1F
100
AcDbEntity
  8
0
  6
CONTINUOUS
 62
     8
100
AcDbLine
 10
269.9786173448
 20
418.2973301922
 30
0.0
 11
268.0092836067
 21
418.2973301922
 31
0.0
  0
LINE
  5
1D0
330
1F
100
AcDbEntity
  8
0
  6
CONTINUOUS
 62
     8
100
AcDbLine
 10
271.5092841804
 20
418.2973301922
 30
0.0
 11
269.9786173448
 21
418.2973301922
 31
0.0
  0
LINE
  5
1D1
330
1F
100
AcDbEntity
  8
0
  6
CONTINUOUS
 62
     8
100
AcDbLine
 10
243.9719708905
 20
418.2973301922
 30
0.0
 11
242.4413040549
 21
418.2973301922
 31
0.0
  0
LINE
  5
1D2
330
1F
100
AcDbEntity
  8
0
  6
CONTINUOUS
 62
     8
100
AcDbLine
 10
245.9413046286
 20
418.2973301922
 30
0.0
 11
243.9719708905
 21
418.2973301922
 31
0.0
  0
LINE
  5
1D3
330
1F
100
AcDbEntity
  8
0
  6
CONTINUOUS
 62
     8
100
AcDbLine
 10
295.1682182297
 20
418.2973301922
 30
0.0
 11
292.7740002319
 21
418.2973301922
 31
0.0
  0
LINE
  5
1D4
330
1F
100
AcDbEntity
  8
0
  6
CONTINUOUS
 62
     8
100
AcDbLine
 10
296.2739998743
 20
418.2973301922
 30
0.0
 11
295.1682182297
 21
418.2973301922
 31
0.0
  0
LINE
  5
1D5
330
1F
100
AcDbEntity
  8
0
  6
CONTINUOUS
 62
     8
100
AcDbLine
 10
218.7823700056
 20
418.2973301922
 30
0.0
 11
217.676588361
 21
418.2973301922
 31
0.0
  0
LINE
  5
1D6
330
1F
100
AcDbEntity
  8
0
  6
CONTINUOUS
 62
     8
100
AcDbLine
 10
221.1765880034
 20
418.2973301922
 30
0.0
 11
218.7823700056
 21
418.2973301922
 31
0.0
  0
LINE
  5
1D7
330
1F
100
AcDbEntity
  8
0
  6
CONTINUOUS
 62
     8
100
AcDbLine
 10
246.1026357755
 20
418.2973301922
 30
0.0
 11
245.9413046286
 21
418.2973301922
 31
0.0
  0
LINE
  5
1D8
330
1F
100
AcDbEntity
  8
0
  6
CONTINUOUS
 62
     8
100
AcDbLine
 10
248.0719695136
 20
418.2973301922
 30
0.0
 11
246.1026357755
 21
418.2973301922
 31
0.0
  0
LINE
  5
1D9
330
1F
100
AcDbEntity
  8
0
  6
CONTINUOUS
 62
     8
100
AcDbLine
 10
268.0092836067
 20
418.2973301922
 30
0.0
 11
265.8786187217
 21
418.2973301922
 31
0.0
  0
LINE
  5
1DA
330
1F
100
AcDbEntity
  8
0
  6
CONTINUOUS
 62
     8
100
AcDbLine
 10
195.9925750539
 20
418.2973301922
 30
0.0
 11
195.2711986646
 21
418.2973301922
 31
0.0
  0
LINE
  5
1DB
330
1F
100
AcDbEntity
  8
0
  6
CONTINUOUS
 62
     8
100
AcDbLine
 10
198.771198307
 20
418.2973301922
 30
0.0
 11
195.9925750539
 21
418.2973301922
 31
0.0
  0
LINE
  5
1DC
330
1F
100
AcDbEntity
  8
0
  6
CONTINUOUS
 62
     8
100
AcDbLine
 10
317.9580131814
 20
418.2973301922
 30
0.0
 11
315.1793899283
 21
418.2973301922
 31
0.0
  0
LINE
  5
1DD
330
1F
100
AcDbEntity
  8
0
  6
CONTINUOUS
 62
     8
100
AcDbLine
 10
318.6793895707
 20
418.2973301922
 30
0.0
 11
317.9580131814
 21
418.2973301922
 31
0.0
  0
LINE
  5
1DE
330
1F
100
AcDbEntity
  8
0
  6
CONTINUOUS
 62
     8
100
AcDbLine
 10
288.9100993321
 20
418.2973301922
 30
0.0
 11
286.5158813343
 21
418.2973301922
 31
0.0
  0
LINE
  5
1DF
330
1F
100
AcDbEntity
  8
0
  6
CONTINUOUS
 62
     8
100
AcDbLine
 10
290.0158809766
 20
418.2973301922
 30
0.0
 11
288.9100993321
 21
418.2973301922
 31
0.0
  0
LINE
  5
1E0
330
1F
100
AcDbEntity
  8
0
  6
CONTINUOUS
 62
     8
100
AcDbLine
 10
225.0404889032
 20
418.2973301922
 30
0.0
 11
223.9347072587
 21
418.2973301922
 31
0.0
  0
LINE
  5
1E1
330
1F
100
AcDbEntity
  8
0
  6
CONTINUOUS
 62
     8
100
AcDbLine
 10
227.434706901
 20
418.2973301922
 30
0.0
 11
225.0404889032
 21
418.2973301922
 31
0.0
  0
LINE
  5
1E2
330
1F
100
AcDbEntity
  8
0
  6
CONTINUOUS
 62
     8
100
AcDbLine
 10
307.9656632886
 20
418.2973301922
 30
0.0
 11
305.1870400354
 21
418.2973301922
 31
0.0
  0
LINE
  5
1E3
330
1F
100
AcDbEntity
  8
0
  6
CONTINUOUS
 62
     8
100
AcDbLine
 10
308.6870396778
 20
418.2973301922
 30
0.0
 11
307.9656632886
 21
418.2973301922
 31
0.0
  0
LINE
  5
1E4
330
1F
100
AcDbEntity
  8
0
  6
CONTINUOUS
 62
     8
100
AcDbLine
 10
205.9849249467
 20
418.2973301922
 30
0.0
 11
205.2635485575
 21
418.2973301922
 31
0.0
  0
LINE
  5
1E5
330
1F
100
AcDbEntity
  8
0
  6
CONTINUOUS
 62
     8
100
AcDbLine
 10
208.7635481999
 20
418.2973301922
 30
0.0
 11
205.9849249467
 21
418.2973301922
 31
0.0
  0
LINE
  5
1E6
330
1F
100
AcDbEntity
  8
0
  6
CONTINUOUS
 62
     8
100
AcDbLine
 10
256.9752941176
 20
418.2973301922
 30
0.0
 11
255.2252940636
 21
418.2973301922
 31
0.0
  0
LINE
  5
1E7
330
1F
100
AcDbEntity
  8
0
  6
CONTINUOUS
 62
     8
100
AcDbLine
 10
258.7252941717
 20
418.2973301922
 30
0.0
 11
256.9752941176
 21
418.2973301922
 31
0.0
  0
LINE
  5
1E8
330
1F
100
AcDbEntity
  8
0
  6
CONTINUOUS
 62
     8
100
AcDbLine
 10
336.9160453126
 20
418.2973301922
 30
0.0
 11
333.8176468656
 21
418.2973301922
 31
0.0
  0
LINE
  5
1E9
330
1F
100
AcDbEntity
  8
0
  6
CONTINUOUS
 62
     8
100
AcDbLine
 10
337.3176465079
 20
418.2973301922
 30
0.0
 11
336.9160453126
 21
418.2973301922
 31
0.0
  0
LINE
  5
1EA
330
1F
100
AcDbEntity
  8
0
  6
CONTINUOUS
 62
     8
100
AcDbLine
 10
177.0345429227
 20
418.2973301922
 30
0.0
 11
176.6329417274
 21
418.2973301922
 31
0.0
  0
LINE
  5
1EB
330
1F
100
AcDbEntity
  8
0
  6
CONTINUOUS
 62
     8
100
AcDbLine
 10
180.1329413697
 20
418.2973301922
 30
0.0
 11
177.0345429227
 21
418.2973301922
 31
0.0
  0
LINE
  5
1EC
330
1F
100
AcDbEntity
  8
0
  6
CONTINUOUS
 62
     8
100
AcDbLine
 10
278.5292296007
 20
418.2973301922
 30
0.0
 11
276.238449876
 21
418.2973301922
 31
0.0
  0
LINE
  5
1ED
330
1F
100
AcDbEntity
  8
0
  6
CONTINUOUS
 62
     8
100
AcDbLine
 10
279.7384495184
 20
418.2973301922
 30
0.0
 11
278.5292296007
 21
418.2973301922
 31
0.0
  0
LINE
  5
1EE
330
1F
100
AcDbEntity
  8
0
  6
CONTINUOUS
 62
     8
100
AcDbLine
 10
235.4213586345
 20
418.2973301922
 30
0.0
 11
234.2121387169
 21
418.2973301922
 31
0.0
  0
LINE
  5
1EF
330
1F
100
AcDbEntity
  8
0
  6
CONTINUOUS
 62
     8
100
AcDbLine
 10
237.7121383593
 20
418.2973301922
 30
0.0
 11
235.4213586345
 21
418.2973301922
 31
0.0
  0
LINE
  5
1F0
330
1F
100
AcDbEntity
  8
0
  6
CONTINUOUS
 62
     8
100
AcDbLine
 10
297.973317121
 20
418.2973301922
 30
0.0
 11
296.3023642346
 21
418.2973301922
 31
0.0
  0
LINE
  5
1F1
330
1F
100
AcDbEntity
  8
0
  6
CONTINUOUS
 62
     8
100
AcDbLine
 10
298.694689785
 20
418.2973301922
 30
0.0
 11
297.973317121
 21
418.2973301922
 31
0.0
  0
LINE
  5
1F2
330
1F
100
AcDbEntity
  8
0
  6
CONTINUOUS
 62
     8
100
AcDbLine
 10
215.9772711143
 20
418.2973301922
 30
0.0
 11
215.2558984503
 21
418.2973301922
 31
0.0
  0
LINE
  5
1F3
330
1F
100
AcDbEntity
  8
0
  6
CONTINUOUS
 62
     8
100
AcDbLine
 10
217.676588361
 20
418.2973301922
 30
0.0
 11
215.9772711143
 21
418.2973301922
 31
0.0
  0
LINE
  5
1F4
330
1F
100
AcDbEntity
  8
0
  6
CONTINUOUS
 62
     8
100
AcDbLine
 10
190.1332671091
 20
418.2973301922
 30
0.0
 11
189.7316659138
 21
418.2973301922
 31
0.0
  0
LINE
  5
1F5
330
1F
100
AcDbEntity
  8
0
  6
CONTINUOUS
 62
     8
100
AcDbLine
 10
193.2316655562
 20
418.2973301922
 30
0.0
 11
190.1332671091
 21
418.2973301922
 31
0.0
  0
LINE
  5
1F6
330
1F
100
AcDbEntity
  8
0
  6
CONTINUOUS
 62
     8
100
AcDbLine
 10
323.8173211262
 20
418.2973301922
 30
0.0
 11
320.7189226791
 21
418.2973301922
 31
0.0
  0
LINE
  5
1F7
330
1F
100
AcDbEntity
  8
0
  6
CONTINUOUS
 62
     8
100
AcDbLine
 10
324.2189223215
 20
418.2973301922
 30
0.0
 11
323.8173211262
 21
418.2973301922
 31
0.0
  0
LINE
  5
1F8
330
1F
100
AcDbEntity
  8
0
  6
CONTINUOUS
 62
     8
100
AcDbLine
 10
265.8786187217
 20
418.2973301922
 30
0.0
 11
265.82879017
 21
418.2973301922
 31
0.0
  0
LINE
  5
1F9
330
1F
100
AcDbEntity
  8
0
  6
CONTINUOUS
 62
     8
100
AcDbLine
 10
248.1217980653
 20
418.2973301922
 30
0.0
 11
248.0719695136
 21
418.2973301922
 31
0.0
  0
LINE
  5
1FA
330
1F
100
AcDbEntity
  8
0
  6
CONTINUOUS
 62
     8
100
AcDbLine
 10
163.0994910643
 20
418.2973301922
 30
0.0
 11
162.932933335
 21
418.2973301922
 31
0.0
  0
LINE
  5
1FB
330
1F
100
AcDbEntity
  8
0
  6
CONTINUOUS
 62
     8
100
AcDbLine
 10
166.4329329774
 20
418.2973301922
 30
0.0
 11
163.0994910643
 21
418.2973301922
 31
0.0
  0
LINE
  5
1FC
330
1F
100
AcDbEntity
  8
0
  6
CONTINUOUS
 62
     8
100
AcDbLine
 10
350.851097171
 20
418.2973301922
 30
0.0
 11
347.5176552579
 21
418.2973301922
 31
0.0
  0
LINE
  5
1FD
330
1F
100
AcDbEntity
  8
0
  6
CONTINUOUS
 62
     8
100
AcDbLine
 10
351.0176549003
 20
418.2973301922
 30
0.0
 11
350.851097171
 21
418.2973301922
 31
0.0
  0
LINE
  5
1FE
330
1F
100
AcDbEntity
  8
0
  6
CONTINUOUS
 62
     8
100
AcDbLine
 10
228.7482461229
 20
418.2973301922
 30
0.0
 11
227.434706901
 21
418.2973301922
 31
0.0
  0
LINE
  5
1FF
330
1F
100
AcDbEntity
  8
0
  6
CONTINUOUS
 62
     8
100
AcDbLine
 10
286.5158813343
 20
418.2973301922
 30
0.0
 11
285.2023421124
 21
418.2973301922
 31
0.0
  0
LINE
  5
200
330
1F
100
AcDbEntity
  8
0
  6
CONTINUOUS
 62
     8
100
AcDbLine
 10
200.5463587389
 20
418.2973301922
 30
0.0
 11
200.2121368692
 21
418.2973301922
 31
0.0
  0
LINE
  5
201
330
1F
100
AcDbEntity
  8
0
  6
CONTINUOUS
 62
     8
100
AcDbLine
 10
203.7121402368
 20
418.2973301922
 30
0.0
 11
200.5463587389
 21
418.2973301922
 31
0.0
  0
LINE
  5
202
330
1F
100
AcDbEntity
  8
0
  6
CONTINUOUS
 62
     8
100
AcDbLine
 10
313.4042294964
 20
418.2973301922
 30
0.0
 11
310.2384479985
 21
418.2973301922
 31
0.0
  0
LINE
  5
203
330
1F
100
AcDbEntity
  8
0
  6
CONTINUOUS
 62
     8
100
AcDbLine
 10
313.7384513661
 20
418.2973301922
 30
0.0
 11
313.4042294964
 21
418.2973301922
 31
0.0
  0
LINE
  5
204
330
1F
100
AcDbEntity
  8
0
  6
CONTINUOUS
 62
     8
100
AcDbLine
 10
181.8149918959
 20
418.2973301922
 30
0.0
 11
180.1329413697
 21
418.2973301922
 31
0.0
  0
LINE
  5
205
330
1F
100
AcDbEntity
  8
0
  6
CONTINUOUS
 62
     8
100
AcDbLine
 10
333.8176468656
 20
418.2973301922
 30
0.0
 11
332.1355963394
 21
418.2973301922
 31
0.0
  0
LINE
  5
206
330
1F
100
AcDbEntity
  8
0
  6
CONTINUOUS
 62
     8
100
AcDbLine
 10
255.2252940636
 20
418.2973301922
 30
0.0
 11
255.2240626224
 21
418.2973301922
 31
0.0
  0
LINE
  5
207
330
1F
100
AcDbEntity
  8
0
  6
CONTINUOUS
 62
     8
100
AcDbLine
 10
258.7265256129
 20
418.2973301922
 30
0.0
 11
258.7252941717
 21
418.2973301922
 31
0.0
  0
LINE
  5
208
330
1F
100
AcDbEntity
  8
0
  6
CONTINUOUS
 62
     8
100
AcDbLine
 10
238.7418272242
 20
418.2973301922
 30
0.0
 11
237.7121383593
 21
418.2973301922
 31
0.0
  0
LINE
  5
209
330
1F
100
AcDbEntity
  8
0
  6
CONTINUOUS
 62
     8
100
AcDbLine
 10
276.238449876
 20
418.2973301922
 30
0.0
 11
275.2087610111
 21
418.2973301922
 31
0.0
  0
LINE
  5
20A
330
1F
100
AcDbEntity
  8
0
  6
CONTINUOUS
 62
     8
100
AcDbLine
 10
302.8925890371
 20
418.2973301922
 30
0.0
 11
299.3925893948
 21
418.2973301922
 31
0.0
  0
LINE
  5
20B
330
1F
100
AcDbEntity
  8
0
  6
CONTINUOUS
 62
     8
100
AcDbLine
 10
214.5579988405
 20
418.2973301922
 30
0.0
 11
211.0579991982
 21
418.2973301922
 31
0.0
  0
LINE
  5
20C
330
1F
100
AcDbEntity
  8
0
  6
CONTINUOUS
 62
     8
100
AcDbLine
 10
194.0534496948
 20
418.2973301922
 30
0.0
 11
193.2316655562
 21
418.2973301922
 31
0.0
  0
LINE
  5
20D
330
1F
100
AcDbEntity
  8
0
  6
CONTINUOUS
 62
     8
100
AcDbLine
 10
320.7189226791
 20
418.2973301922
 30
0.0
 11
319.8971385405
 21
418.2973301922
 31
0.0
  0
LINE
  5
20E
330
1F
100
AcDbEntity
  8
0
  6
CONTINUOUS
 62
     8
100
AcDbLine
 10
155.0629893586
 20
418.2973301922
 30
0.0
 11
155.0319949433
 21
418.2973301922
 31
0.0
  0
LINE
  5
20F
330
1F
100
AcDbEntity
  8
0
  6
CONTINUOUS
 62
     8
100
AcDbLine
 10
158.5319945857
 20
418.2973301922
 30
0.0
 11
155.0629893586
 21
418.2973301922
 31
0.0
  0
LINE
  5
210
330
1F
100
AcDbEntity
  8
0
  6
CONTINUOUS
 62
     8
100
AcDbLine
 10
358.918593292
 20
418.2973301922
 30
0.0
 11
355.4185936496
 21
418.2973301922
 31
0.0
  0
LINE
  5
211
330
1F
100
AcDbEntity
  8
0
  6
CONTINUOUS
 62
     8
100
AcDbLine
 10
171.761878793
 20
418.2973301922
 30
0.0
 11
171.7308769271
 21
418.2973301922
 31
0.0
  0
LINE
  5
212
330
1F
100
AcDbEntity
  8
0
  6
CONTINUOUS
 62
     8
100
AcDbLine
 10
175.2308765695
 20
418.2973301922
 30
0.0
 11
171.761878793
 21
418.2973301922
 31
0.0
  0
LINE
  5
213
330
1F
100
AcDbEntity
  8
0
  6
CONTINUOUS
 62
     8
100
AcDbLine
 10
342.2197113082
 20
418.2973301922
 30
0.0
 11
338.7197116658
 21
418.2973301922
 31
0.0
  0
LINE
  5
214
330
1F
100
AcDbEntity
  8
0
  6
CONTINUOUS
 62
     8
100
AcDbLine
 10
265.82879017
 20
418.2973301922
 30
0.0
 11
265.217643258
 21
418.2973301922
 31
0.0
  0
LINE
  5
215
330
1F
100
AcDbEntity
  8
0
  6
CONTINUOUS
 62
     8
100
AcDbLine
 10
248.7329449773
 20
418.2973301922
 30
0.0
 11
248.1217980653
 21
418.2973301922
 31
0.0
  0
LINE
  5
216
330
1F
100
AcDbEntity
  8
0
  6
CONTINUOUS
 62
     8
100
AcDbLine
 10
257.0592299285
 20
454.597332091
 30
0.0
 11
272.4752938643
 21
454.597332091
 31
0.0
  0
LINE
  5
217
330
1F
100
AcDbEntity
  8
0
  6
CONTINUOUS
 62
     8
100
AcDbLine
 10
241.475294371
 20
454.597332091
 30
0.0
 11
257.0592299285
 21
454.597332091
 31
0.0
  0
LINE
  5
218
330
1F
100
AcDbEntity
  8
0
  6
CONTINUOUS
 62
     8
100
AcDbLine
 10
222.9738505826
 20
418.2973301922
 30
0.0
 11
222.8881428287
 21
418.2973301922
 31
0.0
  0
LINE
  5
219
330
1F
100
AcDbEntity
  8
0
  6
CONTINUOUS
 62
     8
100
AcDbLine
 10
223.9347072587
 20
418.2973301922
 30
0.0
 11
222.9738505826
 21
418.2973301922
 31
0.0
  0
LINE
  5
21A
330
1F
100
AcDbEntity
  8
0
  6
CONTINUOUS
 62
     8
100
AcDbLine
 10
291.0624454066
 20
418.2973301922
 30
0.0
 11
290.0158809766
 21
418.2973301922
 31
0.0
  0
LINE
  5
21B
330
1F
100
AcDbEntity
  8
0
  6
CONTINUOUS
 62
     8
100
AcDbLine
 10
245.7246193931
 20
460.7866225251
 30
0.0
 11
268.2259688422
 21
460.7866225251
 31
0.0
  0
LINE
  5
21C
330
1F
100
AcDbEntity
  8
0
  6
CONTINUOUS
 62
     8
100
AcDbLine
 10
189.7316659138
 20
418.2973301922
 30
0.0
 11
187.225290601
 21
418.2973301922
 31
0.0
  0
LINE
  5
21D
330
1F
100
AcDbEntity
  8
0
  6
CONTINUOUS
 62
     8
100
AcDbLine
 10
326.7252976343
 20
418.2973301922
 30
0.0
 11
324.2189223215
 21
418.2973301922
 31
0.0
  0
LINE
  5
21E
330
1F
100
AcDbEntity
  8
0
  6
CONTINUOUS
 62
     8
100
AcDbLine
 10
274.8932549998
 20
418.2973301922
 30
0.0
 11
271.5092841804
 21
418.2973301922
 31
0.0
  0
LINE
  5
21F
330
1F
100
AcDbEntity
  8
0
  6
CONTINUOUS
 62
     8
100
AcDbLine
 10
242.4413040549
 20
418.2973301922
 30
0.0
 11
239.0573332355
 21
418.2973301922
 31
0.0
  0
LINE
  5
220
330
1F
100
AcDbEntity
  8
0
  6
CONTINUOUS
 62
     8
100
AcDbLine
 10
171.7308769271
 20
418.2973301922
 30
0.0
 11
170.3930208728
 21
418.2973301922
 31
0.0
  0
LINE
  5
221
330
1F
100
AcDbEntity
  8
0
  6
CONTINUOUS
 62
     8
100
AcDbLine
 10
343.5575673625
 20
418.2973301922
 30
0.0
 11
342.2197113082
 21
418.2973301922
 31
0.0
  0
LINE
  5
222
330
1F
100
AcDbEntity
  8
0
  6
CONTINUOUS
 62
     8
100
AcDbLine
 10
360.5240220472
 20
418.2973301922
 30
0.0
 11
358.918593292
 21
418.2973301922
 31
0.0
  0
LINE
  5
223
330
1F
100
AcDbEntity
  8
0
  6
CONTINUOUS
 62
     8
100
AcDbLine
 10
155.0319949433
 20
418.2973301922
 30
0.0
 11
153.4265661881
 21
418.2973301922
 31
0.0
  0
LINE
  5
224
330
1F
100
AcDbEntity
  8
0
  6
CONTINUOUS
 62
     8
100
AcDbLine
 10
303.814829354
 20
418.2973301922
 30
0.0
 11
303.7291774795
 21
418.2973301922
 31
0.0
  0
LINE
  5
225
330
1F
100
AcDbEntity
  8
0
  6
CONTINUOUS
 62
     8
100
AcDbLine
 10
305.1870400354
 20
418.2973301922
 30
0.0
 11
303.814829354
 21
418.2973301922
 31
0.0
  0
LINE
  5
226
330
1F
100
AcDbEntity
  8
0
  6
CONTINUOUS
 62
     8
100
AcDbLine
 10
210.2214107558
 20
418.2973301922
 30
0.0
 11
208.7635481999
 21
418.2973301922
 31
0.0
  0
LINE
  5
227
330
1F
100
AcDbEntity
  8
0
  6
CONTINUOUS
 62
     8
100
AcDbLine
 10
338.7197116658
 20
418.2973301922
 30
0.0
 11
337.3176465079
 21
418.2973301922
 31
0.0
  0
LINE
  5
228
330
1F
100
AcDbEntity
  8
0
  6
CONTINUOUS
 62
     8
100
AcDbLine
 10
176.6329417274
 20
418.2973301922
 30
0.0
 11
175.2308765695
 21
418.2973301922
 31
0.0
  0
LINE
  5
229
330
1F
100
AcDbEntity
  8
0
  6
CONTINUOUS
 62
     8
100
AcDbLine
 10
161.7175275728
 20
418.2973301922
 30
0.0
 11
158.5296774551
 21
418.2973301922
 31
0.0
  0
LINE
  5
22A
330
1F
100
AcDbEntity
  8
0
  6
CONTINUOUS
 62
     8
100
AcDbLine
 10
355.4185936496
 20
418.2973301922
 30
0.0
 11
352.2330606625
 21
418.2973301922
 31
0.0
  0
LINE
  5
22B
330
1F
100
AcDbEntity
  8
0
  6
CONTINUOUS
 62
     8
100
AcDbLine
 10
186.9574198768
 20
418.2973301922
 30
0.0
 11
183.4574202344
 21
418.2973301922
 31
0.0
  0
LINE
  5
22C
330
1F
100
AcDbEntity
  8
0
  6
CONTINUOUS
 62
     8
100
AcDbLine
 10
330.4931680009
 20
418.2973301922
 30
0.0
 11
326.9931683585
 21
418.2973301922
 31
0.0
  0
LINE
  5
22D
330
1F
100
AcDbEntity
  8
0
  6
CONTINUOUS
 62
     8
100
AcDbLine
 10
344.8467413232
 20
418.2973301922
 30
0.0
 11
343.5575673625
 21
418.2973301922
 31
0.0
  0
LINE
  5
22E
330
1F
100
AcDbEntity
  8
0
  6
CONTINUOUS
 62
     8
100
AcDbLine
 10
170.3930208728
 20
418.2973301922
 30
0.0
 11
169.1038469121
 21
418.2973301922
 31
0.0
  0
LINE
  5
22F
330
1F
100
AcDbEntity
  8
0
  6
CONTINUOUS
 62
     8
100
AcDbLine
 10
200.2121368692
 20
418.2973301922
 30
0.0
 11
198.771198307
 21
418.2973301922
 31
0.0
  0
LINE
  5
230
330
1F
100
AcDbEntity
  8
0
  6
CONTINUOUS
 62
     8
100
AcDbLine
 10
315.1793899283
 20
418.2973301922
 30
0.0
 11
313.7384513661
 21
418.2973301922
 31
0.0
  0
LINE
  5
231
330
1F
100
AcDbEntity
  8
0
  6
CONTINUOUS
 62
     8
100
AcDbLine
 10
187.225290601
 20
418.2973301922
 30
0.0
 11
186.9574198768
 21
418.2973301922
 31
0.0
  0
LINE
  5
232
330
1F
100
AcDbEntity
  8
0
  6
CONTINUOUS
 62
     8
100
AcDbLine
 10
326.9931683585
 20
418.2973301922
 30
0.0
 11
326.7252976343
 21
418.2973301922
 31
0.0
  0
LINE
  5
233
330
1F
100
AcDbEntity
  8
0
  6
CONTINUOUS
 62
     8
100
AcDbLine
 10
299.3925893948
 20
418.2973301922
 30
0.0
 11
298.694689785
 21
418.2973301922
 31
0.0
  0
LINE
  5
234
330
1F
100
AcDbEntity
  8
0
  6
CONTINUOUS
 62
     8
100
AcDbLine
 10
215.2558984503
 20
418.2973301922
 30
0.0
 11
214.5579988405
 21
418.2973301922
 31
0.0
  0
LINE
  5
235
330
1F
100
AcDbEntity
  8
0
  6
CONTINUOUS
 62
     8
100
AcDbLine
 10
234.2121387169
 20
418.2973301922
 30
0.0
 11
234.0866541758
 21
418.2973301922
 31
0.0
  0
LINE
  5
236
330
1F
100
AcDbEntity
  8
0
  6
CONTINUOUS
 62
     8
100
AcDbLine
 10
279.8639340595
 20
418.2973301922
 30
0.0
 11
279.7384495184
 21
418.2973301922
 31
0.0
  0
LINE
  5
237
330
1F
100
AcDbEntity
  8
0
  6
CONTINUOUS
 62
     8
100
AcDbLine
 10
284.0916617111
 20
418.2973301922
 30
0.0
 11
280.5916620687
 21
418.2973301922
 31
0.0
  0
LINE
  5
238
330
1F
100
AcDbEntity
  8
0
  6
CONTINUOUS
 62
     8
100
AcDbLine
 10
233.3589261666
 20
418.2973301922
 30
0.0
 11
229.8589265242
 21
418.2973301922
 31
0.0
  0
LINE
  5
239
330
1F
100
AcDbEntity
  8
0
  6
CONTINUOUS
 62
     7
100
AcDbLine
 10
459.0247058824
 20
428.5973306232
 30
0.0
 11
459.0247058824
 21
420.5973302432
 31
0.0
  0
LINE
  5
23A
330
1F
100
AcDbEntity
  8
0
  6
CONTINUOUS
 62
     7
100
AcDbLine
 10
709.0247058824
 20
420.5973302432
 30
0.0
 11
709.0247058824
 21
428.5973306232
 31
0.0
  0
ARC
  5
23B
330
1F
100
AcDbEntity
  8
0
  6
CONTINUOUS
 62
     7
100
AcDbCircle
 10
579.1700728904
 20
418.2973302432
 30
0.0
 40
0.2000000000000455
100
AcDbArc
 50
270.0
 51
0.0
  0
ARC
  5
23C
330
1F
100
AcDbEntity
  8
0
  6
CONTINUOUS
 62
     7
100
AcDbCircle
 10
576.0700728904
 20
418.2973302432
 30
0.0
 40
0.2000000000000455
100
AcDbArc
 50
180.0
 51
270.0
  0
LINE
  5
23D
330
1F
100
AcDbEntity
  8
0
  6
CONTINUOUS
 62
     7
100
AcDbLine
 10
579.3700730011
 20
418.2973301922
 30
0.0
 11
579.3700730011
 21
420.5973302432
 31
0.0
  0
LINE
  5
23E
330
1F
100
AcDbEntity
  8
0
  6
CONTINUOUS
 62
     7
100
AcDbLine
 10
575.8700724274
 20
420.5973302432
 30
0.0
 11
575.8700724274
 21
418.2973301922
 31
0.0
  0
ARC
  5
23F
330
1F
100
AcDbEntity
  8
0
  6
CONTINUOUS
 62
     7
100
AcDbCircle
 10
604.6875999701
 20
418.2973302432
 30
0.0
 40
0.2000000000000455
100
AcDbArc
 50
270.0
 51
0.0
  0
ARC
  5
240
330
1F
100
AcDbEntity
  8
0
  6
CONTINUOUS
 62
     7
100
AcDbCircle
 10
601.5875999701
 20
418.2973302432
 30
0.0
 40
0.2000000000000455
100
AcDbArc
 50
180.0
 51
270.0
  0
LINE
  5
241
330
1F
100
AcDbEntity
  8
0
  6
CONTINUOUS
 62
     7
100
AcDbLine
 10
604.8876000151
 20
418.2973301922
 30
0.0
 11
604.8876000151
 21
420.5973302432
 31
0.0
  0
LINE
  5
242
330
1F
100
AcDbEntity
  8
0
  6
CONTINUOUS
 62
     7
100
AcDbLine
 10
601.3876003727
 20
420.5973302432
 30
0.0
 11
601.3876003727
 21
418.2973301922
 31
0.0
  0
ARC
  5
243
330
1F
100
AcDbEntity
  8
0
  6
CONTINUOUS
 62
     7
100
AcDbCircle
 10
554.0549724561
 20
418.2973302432
 30
0.0
 40
0.2000000000000455
100
AcDbArc
 50
270.0
 51
0.0
  0
ARC
  5
244
330
1F
100
AcDbEntity
  8
0
  6
CONTINUOUS
 62
     7
100
AcDbCircle
 10
550.9549724561
 20
418.2973302432
 30
0.0
 40
0.2000000000000455
100
AcDbArc
 50
180.0
 51
270.0
  0
LINE
  5
245
330
1F
100
AcDbEntity
  8
0
  6
CONTINUOUS
 62
     7
100
AcDbLine
 10
554.2549723342
 20
418.2973301922
 30
0.0
 11
554.2549723342
 21
420.5973302432
 31
0.0
  0
LINE
  5
246
330
1F
100
AcDbEntity
  8
0
  6
CONTINUOUS
 62
     7
100
AcDbLine
 10
550.7549726918
 20
420.5973302432
 30
0.0
 11
550.7549726918
 21
418.2973301922
 31
0.0
  0
ARC
  5
247
330
1F
100
AcDbEntity
  8
0
  6
CONTINUOUS
 62
     7
100
AcDbCircle
 10
629.004193622
 20
418.2973302432
 30
0.0
 40
0.2000000000000455
100
AcDbArc
 50
270.0
 51
0.0
  0
ARC
  5
248
330
1F
100
AcDbEntity
  8
0
  6
CONTINUOUS
 62
     7
100
AcDbCircle
 10
625.904193622
 20
418.2973302432
 30
0.0
 40
0.2000000000000455
100
AcDbArc
 50
180.0
 51
270.0
  0
LINE
  5
249
330
1F
100
AcDbEntity
  8
0
  6
CONTINUOUS
 62
     7
100
AcDbLine
 10
629.2041921571
 20
418.2973301922
 30
0.0
 11
629.2041921571
 21
420.5973302432
 31
0.0
  0
LINE
  5
24A
330
1F
100
AcDbEntity
  8
0
  6
CONTINUOUS
 62
     7
100
AcDbLine
 10
625.7041925147
 20
420.5973302432
 30
0.0
 11
625.7041925147
 21
418.2973301922
 31
0.0
  0
ARC
  5
24B
330
1F
100
AcDbEntity
  8
0
  6
CONTINUOUS
 62
     7
100
AcDbCircle
 10
530.9203727945
 20
418.2973302432
 30
0.0
 40
0.2000000000000455
100
AcDbArc
 50
270.0
 51
0.0
  0
ARC
  5
24C
330
1F
100
AcDbEntity
  8
0
  6
CONTINUOUS
 62
     7
100
AcDbCircle
 10
527.8203727945
 20
418.2973302432
 30
0.0
 40
0.2000000000000455
100
AcDbArc
 50
180.0
 51
270.0
  0
LINE
  5
24D
330
1F
100
AcDbEntity
  8
0
  6
CONTINUOUS
 62
     7
100
AcDbLine
 10
531.1203719631
 20
418.2973301922
 30
0.0
 11
531.1203719631
 21
420.5973302432
 31
0.0
  0
LINE
  5
24E
330
1F
100
AcDbEntity
  8
0
  6
CONTINUOUS
 62
     7
100
AcDbLine
 10
527.6203723207
 20
420.5973302432
 30
0.0
 11
527.6203723207
 21
418.2973301922
 31
0.0
  0
ARC
  5
24F
330
1F
100
AcDbEntity
  8
0
  6
CONTINUOUS
 62
     7
100
AcDbCircle
 10
580.2375117224
 20
418.2973302432
 30
0.0
 40
0.2000000000000455
100
AcDbArc
 50
270.0
 51
0.0
  0
LINE
  5
250
330
1F
100
AcDbEntity
  8
0
  6
CONTINUOUS
 62
     7
100
AcDbLine
 10
580.4375116296
 20
418.2973301922
 30
0.0
 11
580.4375116296
 21
420.5973302432
 31
0.0
  0
LWPOLYLINE
  5
251
330
1F
100
AcDbEntity
  8
0
  6
CONTINUOUS
 62
     7
100
AcDbPolyline
 90
        3
 70
   128
 43
0.0
 10
601.5021176591
 20
418.0973302991
 10
601.5411363497
 20
418.1011731689
 10
601.5448579147
 20
418.1019505904
  0
ARC
  5
252
330
1F
100
AcDbEntity
  8
0
  6
CONTINUOUS
 62
     7
100
AcDbCircle
 10
598.4021176221
 20
418.2973302432
 30
0.0
 40
0.2000000000000455
100
AcDbArc
 50
180.0
 51
270.0
  0
LINE
  5
253
330
1F
100
AcDbEntity
  8
0
  6
CONTINUOUS
 62
     7
100
AcDbLine
 10
598.202117677
 20
420.5973302432
 30
0.0
 11
598.202117677
 21
418.2973301922
 31
0.0
  0
ARC
  5
254
330
1F
100
AcDbEntity
  8
0
  6
CONTINUOUS
 62
     7
100
AcDbCircle
 10
559.3082613605
 20
418.2973302432
 30
0.0
 40
0.2000000000001592
100
AcDbArc
 50
270.0
 51
0.0
  0
ARC
  5
255
330
1F
100
AcDbEntity
  8
0
  6
CONTINUOUS
 62
     7
100
AcDbCircle
 10
556.2082613605
 20
418.2973302432
 30
0.0
 40
0.2000000000000455
100
AcDbArc
 50
180.0
 51
270.0
  0
LINE
  5
256
330
1F
100
AcDbEntity
  8
0
  6
CONTINUOUS
 62
     7
100
AcDbLine
 10
559.5082612291
 20
418.2973301922
 30
0.0
 11
559.5082612291
 21
420.5973302432
 31
0.0
  0
LINE
  5
257
330
1F
100
AcDbEntity
  8
0
  6
CONTINUOUS
 62
     7
100
AcDbLine
 10
556.0082615867
 20
420.5973302432
 30
0.0
 11
556.0082615867
 21
418.2973301922
 31
0.0
  0
ARC
  5
258
330
1F
100
AcDbEntity
  8
0
  6
CONTINUOUS
 62
     7
100
AcDbCircle
 10
650.5919528367
 20
418.2973302432
 30
0.0
 40
0.2000000000000455
100
AcDbArc
 50
270.0
 51
0.0
  0
ARC
  5
259
330
1F
100
AcDbEntity
  8
0
  6
CONTINUOUS
 62
     7
100
AcDbCircle
 10
647.4919528367
 20
418.2973302432
 30
0.0
 40
0.2000000000000455
100
AcDbArc
 50
180.0
 51
270.0
  0
LINE
  5
25A
330
1F
100
AcDbEntity
  8
0
  6
CONTINUOUS
 62
     7
100
AcDbLine
 10
650.7919514134
 20
418.2973301922
 30
0.0
 11
650.7919514134
 21
420.5973302432
 31
0.0
  0
LINE
  5
25B
330
1F
100
AcDbEntity
  8
0
  6
CONTINUOUS
 62
     7
100
AcDbLine
 10
647.2919517711
 20
420.5973302432
 30
0.0
 11
647.2919517711
 21
418.2973301922
 31
0.0
  0
ARC
  5
25C
330
1F
100
AcDbEntity
  8
0
  6
CONTINUOUS
 62
     7
100
AcDbCircle
 10
621.7659456654
 20
418.2973302432
 30
0.0
 40
0.2000000000000455
100
AcDbArc
 50
270.0
 51
0.0
  0
ARC
  5
25D
330
1F
100
AcDbEntity
  8
0
  6
CONTINUOUS
 62
     7
100
AcDbCircle
 10
618.6659456654
 20
418.2973302432
 30
0.0
 40
0.2000000000000455
100
AcDbArc
 50
180.0
 51
270.0
  0
LINE
  5
25E
330
1F
100
AcDbEntity
  8
0
  6
CONTINUOUS
 62
     7
100
AcDbLine
 10
621.9659456566
 20
418.2973301922
 30
0.0
 11
621.9659456566
 21
420.5973302432
 31
0.0
  0
LINE
  5
25F
330
1F
100
AcDbEntity
  8
0
  6
CONTINUOUS
 62
     7
100
AcDbLine
 10
618.4659460142
 20
420.5973302432
 30
0.0
 11
618.4659460142
 21
418.2973301922
 31
0.0
  0
ARC
  5
260
330
1F
100
AcDbEntity
  8
0
  6
CONTINUOUS
 62
     7
100
AcDbCircle
 10
540.0294283091
 20
418.2973302432
 30
0.0
 40
0.2000000000000455
100
AcDbArc
 50
270.0
 51
0.0
  0
ARC
  5
261
330
1F
100
AcDbEntity
  8
0
  6
CONTINUOUS
 62
     7
100
AcDbCircle
 10
536.9294283091
 20
418.2973302432
 30
0.0
 40
0.2000000000000455
100
AcDbArc
 50
180.0
 51
270.0
  0
LINE
  5
262
330
1F
100
AcDbEntity
  8
0
  6
CONTINUOUS
 62
     7
100
AcDbLine
 10
540.2294294491
 20
418.2973301922
 30
0.0
 11
540.2294294491
 21
420.5973302432
 31
0.0
  0
LINE
  5
263
330
1F
100
AcDbEntity
  8
0
  6
CONTINUOUS
 62
     7
100
AcDbLine
 10
536.7294298068
 20
420.5973302432
 30
0.0
 11
536.7294298068
 21
418.2973301922
 31
0.0
  0
ARC
  5
264
330
1F
100
AcDbEntity
  8
0
  6
CONTINUOUS
 62
     7
100
AcDbCircle
 10
511.2199058854
 20
418.2973302432
 30
0.0
 40
0.2000000000000455
100
AcDbArc
 50
270.0
 51
0.0
  0
ARC
  5
265
330
1F
100
AcDbEntity
  8
0
  6
CONTINUOUS
 62
     7
100
AcDbCircle
 10
508.1199058854
 20
418.2973302432
 30
0.0
 40
0.2000000000000455
100
AcDbArc
 50
180.0
 51
270.0
  0
LINE
  5
266
330
1F
100
AcDbEntity
  8
0
  6
CONTINUOUS
 62
     7
100
AcDbLine
 10
511.4199081018
 20
418.2973301922
 30
0.0
 11
511.4199081018
 21
420.5973302432
 31
0.0
  0
LINE
  5
267
330
1F
100
AcDbEntity
  8
0
  6
CONTINUOUS
 62
     7
100
AcDbLine
 10
507.9199084595
 20
420.5973302432
 30
0.0
 11
507.9199084595
 21
418.2973301922
 31
0.0
  0
ARC
  5
268
330
1F
100
AcDbEntity
  8
0
  6
CONTINUOUS
 62
     7
100
AcDbCircle
 10
585.5747058824
 20
418.2973302432
 30
0.0
 40
0.2000000000000455
100
AcDbArc
 50
270.0
 51
0.0
  0
ARC
  5
269
330
1F
100
AcDbEntity
  8
0
  6
CONTINUOUS
 62
     7
100
AcDbCircle
 10
582.4747058824
 20
418.2973302432
 30
0.0
 40
0.2000000000000455
100
AcDbArc
 50
180.0
 51
270.0
  0
LINE
  5
26A
330
1F
100
AcDbEntity
  8
0
  6
CONTINUOUS
 62
     7
100
AcDbLine
 10
585.7747059364
 20
418.2973301922
 30
0.0
 11
585.7747059364
 21
420.5973302432
 31
0.0
  0
LINE
  5
26B
330
1F
100
AcDbEntity
  8
0
  6
CONTINUOUS
 62
     7
100
AcDbLine
 10
582.2747058283
 20
420.5973302432
 30
0.0
 11
582.2747058283
 21
418.2973301922
 31
0.0
  0
ARC
  5
26C
330
1F
100
AcDbEntity
  8
0
  6
CONTINUOUS
 62
     7
100
AcDbCircle
 10
639.755745011
 20
418.2973302432
 30
0.0
 40
0.2000000000000455
100
AcDbArc
 50
270.0
 51
0.0
  0
ARC
  5
26D
330
1F
100
AcDbEntity
  8
0
  6
CONTINUOUS
 62
     7
100
AcDbCircle
 10
636.655745011
 20
418.2973302432
 30
0.0
 40
0.2000000000000455
100
AcDbArc
 50
180.0
 51
270.0
  0
LINE
  5
26E
330
1F
100
AcDbEntity
  8
0
  6
CONTINUOUS
 62
     7
100
AcDbLine
 10
639.9557450369
 20
418.2973301922
 30
0.0
 11
639.9557450369
 21
420.5973302432
 31
0.0
  0
LINE
  5
26F
330
1F
100
AcDbEntity
  8
0
  6
CONTINUOUS
 62
     7
100
AcDbLine
 10
636.4557453945
 20
420.5973302432
 30
0.0
 11
636.4557453945
 21
418.2973301922
 31
0.0
  0
ARC
  5
270
330
1F
100
AcDbEntity
  8
0
  6
CONTINUOUS
 62
     7
100
AcDbCircle
 10
606.5878614999
 20
418.2973302432
 30
0.0
 40
0.2000000000000455
100
AcDbArc
 50
270.0
 51
0.0
  0
ARC
  5
271
330
1F
100
AcDbEntity
  8
0
  6
CONTINUOUS
 62
     7
100
AcDbCircle
 10
564.5615502649
 20
418.2973302432
 30
0.0
 40
0.2000000000000455
100
AcDbArc
 50
270.0
 51
0.0
  0
ARC
  5
272
330
1F
100
AcDbEntity
  8
0
  6
CONTINUOUS
 62
     7
100
AcDbCircle
 10
561.4615502649
 20
418.2973302432
 30
0.0
 40
0.2000000000000455
100
AcDbArc
 50
180.0
 51
270.0
  0
LINE
  5
273
330
1F
100
AcDbEntity
  8
0
  6
CONTINUOUS
 62
     7
100
AcDbLine
 10
564.761550124
 20
418.2973301922
 30
0.0
 11
564.761550124
 21
420.5973302432
 31
0.0
  0
LINE
  5
274
330
1F
100
AcDbEntity
  8
0
  6
CONTINUOUS
 62
     7
100
AcDbLine
 10
561.2615504816
 20
420.5973302432
 30
0.0
 11
561.2615504816
 21
418.2973301922
 31
0.0
  0
LINE
  5
275
330
1F
100
AcDbEntity
  8
0
  6
CONTINUOUS
 62
     7
100
AcDbLine
 10
606.7878612831
 20
418.2973301922
 30
0.0
 11
606.7878612831
 21
420.5973302432
 31
0.0
  0
ARC
  5
276
330
1F
100
AcDbEntity
  8
0
  6
CONTINUOUS
 62
     7
100
AcDbCircle
 10
668.0944393086
 20
418.2973302432
 30
0.0
 40
0.2000000000000455
100
AcDbArc
 50
270.0
 51
0.0
  0
ARC
  5
277
330
1F
100
AcDbEntity
  8
0
  6
CONTINUOUS
 62
     7
100
AcDbCircle
 10
664.9944393086
 20
418.2973302432
 30
0.0
 40
0.2000000000000455
100
AcDbArc
 50
180.0
 51
270.0
  0
LINE
  5
278
330
1F
100
AcDbEntity
  8
0
  6
CONTINUOUS
 62
     7
100
AcDbLine
 10
668.2944381192
 20
418.2973301922
 30
0.0
 11
668.2944381192
 21
420.5973302432
 31
0.0
  0
LINE
  5
279
330
1F
100
AcDbEntity
  8
0
  6
CONTINUOUS
 62
     7
100
AcDbLine
 10
664.7944384768
 20
420.5973302432
 30
0.0
 11
664.7944384768
 21
418.2973301922
 31
0.0
  0
ARC
  5
27A
330
1F
100
AcDbEntity
  8
0
  6
CONTINUOUS
 62
     7
100
AcDbCircle
 10
523.6123725515
 20
418.2973302432
 30
0.0
 40
0.2000000000001592
100
AcDbArc
 50
270.0
 51
0.0
  0
ARC
  5
27B
330
1F
100
AcDbEntity
  8
0
  6
CONTINUOUS
 62
     7
100
AcDbCircle
 10
520.5123725515
 20
418.2973302432
 30
0.0
 40
0.2000000000001592
100
AcDbArc
 50
180.0
 51
270.0
  0
LINE
  5
27C
330
1F
100
AcDbEntity
  8
0
  6
CONTINUOUS
 62
     7
100
AcDbLine
 10
523.812373127
 20
418.2973301922
 30
0.0
 11
523.812373127
 21
420.5973302432
 31
0.0
  0
LINE
  5
27D
330
1F
100
AcDbEntity
  8
0
  6
CONTINUOUS
 62
     7
100
AcDbLine
 10
520.3123697594
 20
420.5973302432
 30
0.0
 11
520.3123697594
 21
418.2973301922
 31
0.0
  0
ARC
  5
27E
330
1F
100
AcDbEntity
  8
0
  6
CONTINUOUS
 62
     7
100
AcDbCircle
 10
625.5441030382
 20
418.2973302432
 30
0.0
 40
0.2000000000000455
100
AcDbArc
 50
270.0
 51
334.187850294
  0
ARC
  5
27F
330
1F
100
AcDbEntity
  8
0
  6
CONTINUOUS
 62
     7
100
AcDbCircle
 10
622.4441030382
 20
418.2973302432
 30
0.0
 40
0.2000000000000455
100
AcDbArc
 50
180.0
 51
270.0
  0
ARC
  5
280
330
1F
100
AcDbEntity
  8
0
  6
CONTINUOUS
 62
     7
100
AcDbCircle
 10
545.6053087265
 20
418.2973302432
 30
0.0
 40
0.2000000000001592
100
AcDbArc
 50
270.0
 51
0.0
  0
ARC
  5
281
330
1F
100
AcDbEntity
  8
0
  6
CONTINUOUS
 62
     7
100
AcDbCircle
 10
542.5053087265
 20
418.2973302432
 30
0.0
 40
0.2000000000000455
100
AcDbArc
 50
180.0
 51
270.0
  0
LINE
  5
282
330
1F
100
AcDbEntity
  8
0
  6
CONTINUOUS
 62
     7
100
AcDbLine
 10
545.8053098574
 20
418.2973301922
 30
0.0
 11
545.8053098574
 21
420.5973302432
 31
0.0
  0
LINE
  5
283
330
1F
100
AcDbEntity
  8
0
  6
CONTINUOUS
 62
     7
100
AcDbLine
 10
542.305310215
 20
420.5973302432
 30
0.0
 11
542.305310215
 21
418.2973301922
 31
0.0
  0
LINE
  5
284
330
1F
100
AcDbEntity
  8
0
  6
CONTINUOUS
 62
     7
100
AcDbLine
 10
622.2441019073
 20
420.5973302432
 30
0.0
 11
622.2441019073
 21
418.2973301922
 31
0.0
  0
ARC
  5
285
330
1F
100
AcDbEntity
  8
0
  6
CONTINUOUS
 62
     7
100
AcDbCircle
 10
587.805657509
 20
418.2973302432
 30
0.0
 40
0.2000000000000455
100
AcDbArc
 50
180.0
 51
270.0
  0
ARC
  5
286
330
1F
100
AcDbEntity
  8
0
  6
CONTINUOUS
 62
     7
100
AcDbCircle
 10
590.905657509
 20
418.2973302432
 30
0.0
 40
0.2000000000000455
100
AcDbArc
 50
270.0
 51
0.0
  0
LINE
  5
287
330
1F
100
AcDbEntity
  8
0
  6
CONTINUOUS
 62
     7
100
AcDbLine
 10
587.6056574799
 20
420.5973302432
 30
0.0
 11
587.6056574799
 21
418.2973301922
 31
0.0
  0
LINE
  5
288
330
1F
100
AcDbEntity
  8
0
  6
CONTINUOUS
 62
     7
100
AcDbLine
 10
591.1056575879
 20
418.2973301922
 30
0.0
 11
591.1056575879
 21
420.5973302432
 31
0.0
  0
ARC
  5
289
330
1F
100
AcDbEntity
  8
0
  6
CONTINUOUS
 62
     7
100
AcDbCircle
 10
654.3411504042
 20
418.2973302432
 30
0.0
 40
0.2000000000000455
100
AcDbArc
 50
270.0
 51
0.0
  0
ARC
  5
28A
330
1F
100
AcDbEntity
  8
0
  6
CONTINUOUS
 62
     7
100
AcDbCircle
 10
651.2411504042
 20
418.2973302432
 30
0.0
 40
0.2000000000000455
100
AcDbArc
 50
180.0
 51
270.0
  0
LINE
  5
28B
330
1F
100
AcDbEntity
  8
0
  6
CONTINUOUS
 62
     7
100
AcDbLine
 10
654.541150625
 20
418.2973301922
 30
0.0
 11
654.541150625
 21
420.5973302432
 31
0.0
  0
LINE
  5
28C
330
1F
100
AcDbEntity
  8
0
  6
CONTINUOUS
 62
     7
100
AcDbLine
 10
651.0411509827
 20
420.5973302432
 30
0.0
 11
651.0411509827
 21
418.2973301922
 31
0.0
  0
ARC
  5
28D
330
1F
100
AcDbEntity
  8
0
  6
CONTINUOUS
 62
     7
100
AcDbCircle
 10
496.1914245179
 20
418.2973302432
 30
0.0
 40
0.2000000000000455
100
AcDbArc
 50
270.0
 51
0.0
  0
ARC
  5
28E
330
1F
100
AcDbEntity
  8
0
  6
CONTINUOUS
 62
     7
100
AcDbCircle
 10
493.0914245179
 20
418.2973302432
 30
0.0
 40
0.2000000000000455
100
AcDbArc
 50
180.0
 51
270.0
  0
LINE
  5
28F
330
1F
100
AcDbEntity
  8
0
  6
CONTINUOUS
 62
     7
100
AcDbLine
 10
496.3914239362
 20
418.2973301922
 30
0.0
 11
496.3914239362
 21
420.5973302432
 31
0.0
  0
LINE
  5
290
330
1F
100
AcDbEntity
  8
0
  6
CONTINUOUS
 62
     7
100
AcDbLine
 10
492.8914242938
 20
420.5973302432
 30
0.0
 11
492.8914242938
 21
418.2973301922
 31
0.0
  0
ARC
  5
291
330
1F
100
AcDbEntity
  8
0
  6
CONTINUOUS
 62
     7
100
AcDbCircle
 10
566.7148391692
 20
418.2973302432
 30
0.0
 40
0.2000000000001592
100
AcDbArc
 50
180.0
 51
270.0
  0
ARC
  5
292
330
1F
100
AcDbEntity
  8
0
  6
CONTINUOUS
 62
     7
100
AcDbCircle
 10
569.8148391692
 20
418.2973302432
 30
0.0
 40
0.2000000000000455
100
AcDbArc
 50
270.0
 51
0.0
  0
LINE
  5
293
330
1F
100
AcDbEntity
  8
0
  6
CONTINUOUS
 62
     7
100
AcDbLine
 10
566.5148393765
 20
420.5973302432
 30
0.0
 11
566.5148393765
 21
418.2973301922
 31
0.0
  0
LINE
  5
294
330
1F
100
AcDbEntity
  8
0
  6
CONTINUOUS
 62
     7
100
AcDbLine
 10
570.0148390189
 20
418.2973301922
 30
0.0
 11
570.0148390189
 21
420.5973302432
 31
0.0
  0
ARC
  5
295
330
1F
100
AcDbEntity
  8
0
  6
CONTINUOUS
 62
     7
100
AcDbCircle
 10
607.9747058824
 20
418.2973302432
 30
0.0
 40
0.2000000000000455
100
AcDbArc
 50
180.0
 51
270.0
  0
ARC
  5
296
330
1F
100
AcDbEntity
  8
0
  6
CONTINUOUS
 62
     7
100
AcDbCircle
 10
611.0747058824
 20
418.2973302432
 30
0.0
 40
0.2000000000000455
100
AcDbArc
 50
270.0
 51
0.0
  0
LINE
  5
297
330
1F
100
AcDbEntity
  8
0
  6
CONTINUOUS
 62
     7
100
AcDbLine
 10
607.7747055843
 20
420.5973302432
 30
0.0
 11
607.7747055843
 21
418.2973301922
 31
0.0
  0
LINE
  5
298
330
1F
100
AcDbEntity
  8
0
  6
CONTINUOUS
 62
     7
100
AcDbLine
 10
611.2747052267
 20
418.2973301922
 30
0.0
 11
611.2747052267
 21
420.5973302432
 31
0.0
  0
ARC
  5
299
330
1F
100
AcDbEntity
  8
0
  6
CONTINUOUS
 62
     7
100
AcDbCircle
 10
507.9886380786
 20
418.2973302432
 30
0.0
 40
0.2000000000000455
100
AcDbArc
 50
180.0
 51
270.0
  0
LINE
  5
29A
330
1F
100
AcDbEntity
  8
0
  6
CONTINUOUS
 62
     7
100
AcDbLine
 10
507.7886366799
 20
420.5973302432
 30
0.0
 11
507.7886366799
 21
418.2973301922
 31
0.0
  0
ARC
  5
29B
330
1F
100
AcDbEntity
  8
0
  6
CONTINUOUS
 62
     7
100
AcDbCircle
 10
527.4615502649
 20
418.2973302432
 30
0.0
 40
0.2000000000000455
100
AcDbArc
 50
180.0
 51
270.0
  0
ARC
  5
29C
330
1F
100
AcDbEntity
  8
0
  6
CONTINUOUS
 62
     7
100
AcDbCircle
 10
640.5878614999
 20
418.2973302432
 30
0.0
 40
0.2000000000000455
100
AcDbArc
 50
270.0
 51
0.0
  0
LINE
  5
29D
330
1F
100
AcDbEntity
  8
0
  6
CONTINUOUS
 62
     7
100
AcDbLine
 10
527.2615486339
 20
420.5973302432
 30
0.0
 11
527.2615486339
 21
418.2973301922
 31
0.0
  0
LINE
  5
29E
330
1F
100
AcDbEntity
  8
0
  6
CONTINUOUS
 62
     7
100
AcDbLine
 10
640.7878631309
 20
418.2973301922
 30
0.0
 11
640.7878631309
 21
420.5973302432
 31
0.0
  0
ARC
  5
29F
330
1F
100
AcDbEntity
  8
0
  6
CONTINUOUS
 62
     7
100
AcDbCircle
 10
548.3490449581
 20
418.2973302432
 30
0.0
 40
0.2000000000000455
100
AcDbArc
 50
180.0
 51
270.0
  0
LINE
  5
2A0
330
1F
100
AcDbEntity
  8
0
  6
CONTINUOUS
 62
     7
100
AcDbLine
 10
548.1490464464
 20
420.5973302432
 30
0.0
 11
548.1490464464
 21
418.2973301922
 31
0.0
  0
ARC
  5
2A1
330
1F
100
AcDbEntity
  8
0
  6
CONTINUOUS
 62
     7
100
AcDbCircle
 10
680.411907443
 20
418.2973302432
 30
0.0
 40
0.2000000000000455
100
AcDbArc
 50
270.0
 51
0.0
  0
ARC
  5
2A2
330
1F
100
AcDbEntity
  8
0
  6
CONTINUOUS
 62
     7
100
AcDbCircle
 10
677.311907443
 20
418.2973302432
 30
0.0
 40
0.2000000000000455
100
AcDbArc
 50
180.0
 51
270.0
  0
LINE
  5
2A3
330
1F
100
AcDbEntity
  8
0
  6
CONTINUOUS
 62
     7
100
AcDbLine
 10
680.6119093254
 20
418.2973301922
 30
0.0
 11
680.6119093254
 21
420.5973302432
 31
0.0
  0
LINE
  5
2A4
330
1F
100
AcDbEntity
  8
0
  6
CONTINUOUS
 62
     7
100
AcDbLine
 10
677.111909683
 20
420.5973302432
 30
0.0
 11
677.111909683
 21
418.2973301922
 31
0.0
  0
ARC
  5
2A5
330
1F
100
AcDbEntity
  8
0
  6
CONTINUOUS
 62
     7
100
AcDbCircle
 10
596.0825152385
 20
418.2973302432
 30
0.0
 40
0.2000000000001592
100
AcDbArc
 50
270.0
 51
0.0
  0
ARC
  5
2A6
330
1F
100
AcDbEntity
  8
0
  6
CONTINUOUS
 62
     7
100
AcDbCircle
 10
592.9800521437
 20
418.2973302432
 30
0.0
 40
0.2000000000000455
100
AcDbArc
 50
180.0
 51
270.0
  0
ARC
  5
2A7
330
1F
100
AcDbEntity
  8
0
  6
CONTINUOUS
 62
     7
100
AcDbCircle
 10
575.069359621
 20
418.2973302432
 30
0.0
 40
0.2000000000000455
100
AcDbArc
 50
270.0
 51
0.0
  0
ARC
  5
2A8
330
1F
100
AcDbEntity
  8
0
  6
CONTINUOUS
 62
     7
100
AcDbCircle
 10
571.9668965262
 20
418.2973302432
 30
0.0
 40
0.2000000000000455
100
AcDbArc
 50
180.0
 51
270.0
  0
LINE
  5
2A9
330
1F
100
AcDbEntity
  8
0
  6
CONTINUOUS
 62
     7
100
AcDbLine
 10
575.2693600535
 20
418.2973301922
 30
0.0
 11
575.2693600535
 21
420.5973302432
 31
0.0
  0
LINE
  5
2AA
330
1F
100
AcDbEntity
  8
0
  6
CONTINUOUS
 62
     7
100
AcDbLine
 10
571.7668961316
 20
420.5973302432
 30
0.0
 11
571.7668961316
 21
418.2973301922
 31
0.0
  0
LINE
  5
2AB
330
1F
100
AcDbEntity
  8
0
  6
CONTINUOUS
 62
     7
100
AcDbLine
 10
596.2825156331
 20
418.2973301922
 30
0.0
 11
596.2825156331
 21
420.5973302432
 31
0.0
  0
LINE
  5
2AC
330
1F
100
AcDbEntity
  8
0
  6
CONTINUOUS
 62
     7
100
AcDbLine
 10
592.7800517112
 20
420.5973302432
 30
0.0
 11
592.7800517112
 21
418.2973301922
 31
0.0
  0
ARC
  5
2AD
330
1F
100
AcDbEntity
  8
0
  6
CONTINUOUS
 62
     7
100
AcDbCircle
 10
664.6057071829
 20
418.2973302432
 30
0.0
 40
0.2000000000000455
100
AcDbArc
 50
270.0
 51
346.3681929043
  0
ARC
  5
2AE
330
1F
100
AcDbEntity
  8
0
  6
CONTINUOUS
 62
     7
100
AcDbCircle
 10
661.5057071829
 20
418.2973302432
 30
0.0
 40
0.2000000000000455
100
AcDbArc
 50
180.0
 51
270.0
  0
LINE
  5
2AF
330
1F
100
AcDbEntity
  8
0
  6
CONTINUOUS
 62
     7
100
AcDbLine
 10
661.3057041123
 20
420.5973302432
 30
0.0
 11
661.3057041123
 21
418.2973301922
 31
0.0
  0
ARC
  5
2B0
330
1F
100
AcDbEntity
  8
0
  6
CONTINUOUS
 62
     7
100
AcDbCircle
 10
486.7792234472
 20
418.2973302432
 30
0.0
 40
0.2000000000000455
100
AcDbArc
 50
270.0
 51
0.0
  0
ARC
  5
2B1
330
1F
100
AcDbEntity
  8
0
  6
CONTINUOUS
 62
     7
100
AcDbCircle
 10
483.6792234472
 20
418.2973302432
 30
0.0
 40
0.2000000000000455
100
AcDbArc
 50
180.0
 51
270.0
  0
LINE
  5
2B2
330
1F
100
AcDbEntity
  8
0
  6
CONTINUOUS
 62
     7
100
AcDbLine
 10
486.9792246774
 20
418.2973301922
 30
0.0
 11
486.9792246774
 21
420.5973302432
 31
0.0
  0
LINE
  5
2B3
330
1F
100
AcDbEntity
  8
0
  6
CONTINUOUS
 62
     7
100
AcDbLine
 10
483.479225035
 20
420.5973302432
 30
0.0
 11
483.479225035
 21
418.2973301922
 31
0.0
  0
ARC
  5
2B4
330
1F
100
AcDbEntity
  8
0
  6
CONTINUOUS
 62
     7
100
AcDbCircle
 10
503.2451371864
 20
418.2973302432
 30
0.0
 40
0.2000000000000455
100
AcDbArc
 50
270.0
 51
0.0
  0
ARC
  5
2B5
330
1F
100
AcDbEntity
  8
0
  6
CONTINUOUS
 62
     7
100
AcDbCircle
 10
500.1451371864
 20
418.2973302432
 30
0.0
 40
0.2000000000000455
100
AcDbArc
 50
180.0
 51
270.0
  0
LINE
  5
2B6
330
1F
100
AcDbEntity
  8
0
  6
CONTINUOUS
 62
     7
100
AcDbLine
 10
503.4451344564
 20
418.2973301922
 30
0.0
 11
503.4451344564
 21
420.5973302432
 31
0.0
  0
LINE
  5
2B7
330
1F
100
AcDbEntity
  8
0
  6
CONTINUOUS
 62
     7
100
AcDbLine
 10
499.9451348141
 20
420.5973302432
 30
0.0
 11
499.9451348141
 21
418.2973301922
 31
0.0
  0
ARC
  5
2B8
330
1F
100
AcDbEntity
  8
0
  6
CONTINUOUS
 62
     7
100
AcDbCircle
 10
517.8028627743
 20
418.2973302432
 30
0.0
 40
0.2000000000000455
100
AcDbArc
 50
180.0
 51
270.0
  0
ARC
  5
2B9
330
1F
100
AcDbEntity
  8
0
  6
CONTINUOUS
 62
     7
100
AcDbCircle
 10
647.1465489904
 20
418.2973302432
 30
0.0
 40
0.2000000000000455
100
AcDbArc
 50
180.0
 51
270.0
  0
LINE
  5
2BA
330
1F
100
AcDbEntity
  8
0
  6
CONTINUOUS
 62
     7
100
AcDbLine
 10
517.6028618172
 20
420.5973302432
 30
0.0
 11
517.6028618172
 21
418.2973301922
 31
0.0
  0
LINE
  5
2BB
330
1F
100
AcDbEntity
  8
0
  6
CONTINUOUS
 62
     7
100
AcDbLine
 10
646.9465503052
 20
420.5973302432
 30
0.0
 11
646.9465503052
 21
418.2973301922
 31
0.0
  0
ARC
  5
2BC
330
1F
100
AcDbEntity
  8
0
  6
CONTINUOUS
 62
     7
100
AcDbCircle
 10
535.8838875426
 20
418.2973302432
 30
0.0
 40
0.2000000000000455
100
AcDbArc
 50
180.0
 51
270.0
  0
LINE
  5
2BD
330
1F
100
AcDbEntity
  8
0
  6
CONTINUOUS
 62
     7
100
AcDbLine
 10
535.6838861063
 20
420.5973302432
 30
0.0
 11
535.6838861063
 21
418.2973301922
 31
0.0
  0
ARC
  5
2BE
330
1F
100
AcDbEntity
  8
0
  6
CONTINUOUS
 62
     7
100
AcDbCircle
 10
613.0825152385
 20
418.2973302432
 30
0.0
 40
0.2000000000000455
100
AcDbArc
 50
270.0
 51
0.0
  0
ARC
  5
2BF
330
1F
100
AcDbEntity
  8
0
  6
CONTINUOUS
 62
     7
100
AcDbCircle
 10
554.9668965262
 20
418.2973302432
 30
0.0
 40
0.2000000000000455
100
AcDbArc
 50
180.0
 51
270.0
  0
LINE
  5
2C0
330
1F
100
AcDbEntity
  8
0
  6
CONTINUOUS
 62
     7
100
AcDbLine
 10
554.7668961391
 20
420.5973302432
 30
0.0
 11
554.7668961391
 21
418.2973301922
 31
0.0
  0
LINE
  5
2C1
330
1F
100
AcDbEntity
  8
0
  6
CONTINUOUS
 62
     7
100
AcDbLine
 10
613.2825156256
 20
418.2973301922
 30
0.0
 11
613.2825156256
 21
420.5973302432
 31
0.0
  0
ARC
  5
2C2
330
1F
100
AcDbEntity
  8
0
  6
CONTINUOUS
 62
     7
100
AcDbCircle
 10
580.321416978
 20
418.2973302432
 30
0.0
 40
0.2000000000000455
100
AcDbArc
 50
270.0
 51
0.0
  0
LINE
  5
2C3
330
1F
100
AcDbEntity
  8
0
  6
CONTINUOUS
 62
     7
100
AcDbLine
 10
580.5214170415
 20
418.2973301922
 30
0.0
 11
580.5214170415
 21
420.5973302432
 31
0.0
  0
ARC
  5
2C4
330
1F
100
AcDbEntity
  8
0
  6
CONTINUOUS
 62
     7
100
AcDbCircle
 10
599.5247058824
 20
437.0973302432
 30
0.0
 40
1.500000000000114
100
AcDbArc
 50
270.0
 51
0.0
  0
ARC
  5
2C5
330
1F
100
AcDbEntity
  8
0
  6
CONTINUOUS
 62
     7
100
AcDbCircle
 10
568.5247058824
 20
437.0973302432
 30
0.0
 40
1.5
100
AcDbArc
 50
180.0
 51
270.0
  0
ARC
  5
2C6
330
1F
100
AcDbEntity
  8
0
  6
CONTINUOUS
 62
     7
100
AcDbCircle
 10
568.0247058824
 20
442.5973302432
 30
0.0
 40
1.0
100
AcDbArc
 50
90.0
 51
180.0
  0
ARC
  5
2C7
330
1F
100
AcDbEntity
  8
0
  6
CONTINUOUS
 62
     7
100
AcDbCircle
 10
600.0247058824
 20
442.5973302432
 30
0.0
 40
1.0
100
AcDbArc
 50
0.0
 51
90.0
  0
LINE
  5
2C8
330
1F
100
AcDbEntity
  8
0
  6
CONTINUOUS
 62
     7
100
AcDbLine
 10
567.0247049585
 20
438.8973308214
 30
0.0
 11
567.0247049585
 21
437.0973301538
 31
0.0
  0
LINE
  5
2C9
330
1F
100
AcDbEntity
  8
0
  6
CONTINUOUS
 62
     7
100
AcDbLine
 10
567.0247049585
 20
442.597330124
 30
0.0
 11
567.0247049585
 21
442.2973306336
 31
0.0
  0
LINE
  5
2CA
330
1F
100
AcDbEntity
  8
0
  6
CONTINUOUS
 62
     7
100
AcDbLine
 10
601.0247068062
 20
437.0973301538
 30
0.0
 11
601.0247068062
 21
442.597330124
 31
0.0
  0
ARC
  5
2CB
330
1F
100
AcDbEntity
  8
0
  6
CONTINUOUS
 62
     7
100
AcDbCircle
 10
598.5247058824
 20
454.5973302432
 30
0.0
 40
1.0
100
AcDbArc
 50
0.0
 51
90.0
  0
ARC
  5
2CC
330
1F
100
AcDbEntity
  8
0
  6
CONTINUOUS
 62
     7
100
AcDbCircle
 10
569.5247058824
 20
454.5973302432
 30
0.0
 40
1.0
100
AcDbArc
 50
90.0
 51
180.0
  0
LINE
  5
2CD
330
1F
100
AcDbEntity
  8
0
  6
CONTINUOUS
 62
     7
100
AcDbLine
 10
599.524705629
 20
443.5973302879
 30
0.0
 11
599.524705629
 21
454.597332091
 31
0.0
  0
LINE
  5
2CE
330
1F
100
AcDbEntity
  8
0
  6
CONTINUOUS
 62
     7
100
AcDbLine
 10
568.5247061357
 20
454.597332091
 30
0.0
 11
568.5247061357
 21
443.5973302879
 31
0.0
  0
LINE
  5
2CF
330
1F
100
AcDbEntity
  8
0
  6
CONTINUOUS
 62
     7
100
AcDbLine
 10
568.0247051224
 20
435.5973299079
 30
0.0
 11
568.0247051224
 21
428.5973306232
 31
0.0
  0
LINE
  5
2D0
330
1F
100
AcDbEntity
  8
0
  6
CONTINUOUS
 62
     7
100
AcDbLine
 10
600.0247066423
 20
428.5973306232
 30
0.0
 11
600.0247066423
 21
435.5973299079
 31
0.0
  0
ARC
  5
2D1
330
1F
100
AcDbEntity
  8
0
  6
CONTINUOUS
 62
     7
100
AcDbCircle
 10
686.7704054165
 20
418.2973302432
 30
0.0
 40
0.2000000000000455
100
AcDbArc
 50
270.0
 51
0.0
  0
ARC
  5
2D2
330
1F
100
AcDbEntity
  8
0
  6
CONTINUOUS
 62
     7
100
AcDbCircle
 10
683.6704054165
 20
418.2973302432
 30
0.0
 40
0.2000000000000455
100
AcDbArc
 50
180.0
 51
270.0
  0
LINE
  5
2D3
330
1F
100
AcDbEntity
  8
0
  6
CONTINUOUS
 62
     7
100
AcDbLine
 10
686.9704061702
 20
418.2973301922
 30
0.0
 11
686.9704061702
 21
420.5973302432
 31
0.0
  0
LINE
  5
2D4
330
1F
100
AcDbEntity
  8
0
  6
CONTINUOUS
 62
     7
100
AcDbLine
 10
683.4704065278
 20
420.5973302432
 30
0.0
 11
683.4704065278
 21
418.2973301922
 31
0.0
  0
ARC
  5
2D5
330
1F
100
AcDbEntity
  8
0
  6
CONTINUOUS
 62
     7
100
AcDbCircle
 10
669.9044554941
 20
418.2973302432
 30
0.0
 40
0.2000000000000455
100
AcDbArc
 50
270.0
 51
0.0
  0
LINE
  5
2D6
330
1F
100
AcDbEntity
  8
0
  6
CONTINUOUS
 62
     7
100
AcDbLine
 10
670.1044523671
 20
418.2973301922
 30
0.0
 11
670.1044523671
 21
420.5973302432
 31
0.0
  0
ARC
  5
2D7
330
1F
100
AcDbEntity
  8
0
  6
CONTINUOUS
 62
     7
100
AcDbCircle
 10
632.3602335198
 20
418.2973302432
 30
0.0
 40
0.2000000000000455
100
AcDbArc
 50
180.0
 51
270.0
  0
ARC
  5
2D8
330
1F
100
AcDbEntity
  8
0
  6
CONTINUOUS
 62
     7
100
AcDbCircle
 10
635.4602335198
 20
418.2973302432
 30
0.0
 40
0.2000000000000455
100
AcDbArc
 50
270.0
 51
0.0
  0
LINE
  5
2D9
330
1F
100
AcDbEntity
  8
0
  6
CONTINUOUS
 62
     7
100
AcDbLine
 10
632.1602323606
 20
420.5973302432
 30
0.0
 11
632.1602323606
 21
418.2973301922
 31
0.0
  0
LINE
  5
2DA
330
1F
100
AcDbEntity
  8
0
  6
CONTINUOUS
 62
     7
100
AcDbLine
 10
635.660232003
 20
418.2973301922
 30
0.0
 11
635.660232003
 21
420.5973302432
 31
0.0
  0
LINE
  5
2DB
330
1F
100
AcDbEntity
  8
0
  6
CONTINUOUS
 62
     7
100
AcDbLine
 10
595.3364762991
 20
455.6609434494
 30
0.0
 11
594.6716293275
 21
456.723787398
 31
0.0
  0
SPLINE
  5
2DC
330
1F
100
AcDbEntity
  8
0
  6
CONTINUOUS
 62
     7
100
AcDbSpline
210
0.0
220
0.0
230
1.0
 70
     8
 71
     3
 72
     9
 73
     5
 74
     0
 42
0.000000001
 43
0.00000001
 40
0.0
 40
0.0
 40
0.0
 40
0.0
 40
0.2451396187507744
 40
1.0
 40
1.0
 40
1.0
 40
1.0
 10
573.4292631551449
 20
456.7959984251079
 30
0.0
 10
573.3583613513933
 20
456.7079501766373
 30
0.0
 10
573.0691310584166
 20
456.348774255098
 30
0.0
 10
572.8620504757035
 20
455.9347242773117
 30
0.0
 10
572.7057335480873
 20
455.6221743532238
 30
0.0
  0
ARC
  5
2DD
330
1F
100
AcDbEntity
  8
0
  6
CONTINUOUS
 62
     7
100
AcDbCircle
 10
594.0247058824
 20
462.3473302432
 30
0.0
 40
2.0
100
AcDbArc
 50
308.7069637031
 51
0.0
  0
ARC
  5
2DE
330
1F
100
AcDbEntity
  8
0
  6
CONTINUOUS
 62
     7
100
AcDbCircle
 10
574.0247058824
 20
462.3473302432
 30
0.0
 40
2.0
100
AcDbArc
 50
180.0
 51
231.2930362969
  0
LINE
  5
2DF
330
1F
100
AcDbEntity
  8
0
  6
CONTINUOUS
 62
     7
100
AcDbLine
 10
596.0247059867
 20
462.3473291703
 30
0.0
 11
596.0247059867
 21
476.5973319717
 31
0.0
  0
LINE
  5
2E0
330
1F
100
AcDbEntity
  8
0
  6
CONTINUOUS
 62
     7
100
AcDbLine
 10
572.024705778
 20
476.5973319717
 30
0.0
 11
572.024705778
 21
462.3473291703
 31
0.0
  0
LWPOLYLINE
  5
2E1
330
1F
100
AcDbEntity
  8
0
  6
CONTINUOUS
 62
     7
100
AcDbPolyline
 90
        3
 70
   128
 43
0.0
 10
596.1552550599
 20
418.1110270274
 10
596.1889763877
 20
418.1011731689
 10
596.2279950782
 20
418.0973302991
  0
ARC
  5
2E2
330
1F
100
AcDbEntity
  8
0
  6
CONTINUOUS
 62
     7
100
AcDbCircle
 10
597.1513934067
 20
458.4455581939
 30
0.0
 40
2.999999999999981
100
AcDbArc
 50
128.7069637029
 51
214.8733439096
  0
ARC
  5
2E3
330
1F
100
AcDbEntity
  8
0
  6
CONTINUOUS
 62
     7
100
AcDbCircle
 10
570.898018358
 20
458.4455581939
 30
0.0
 40
2.999999999999981
100
AcDbArc
 50
325.1266560904
 51
51.2930362971
  0
LINE
  5
2E4
330
1F
100
AcDbEntity
  8
0
  6
CONTINUOUS
 62
     7
100
AcDbLine
 10
572.52470586
 20
477.0973292597
 30
0.0
 11
572.024705778
 21
476.5973319717
 31
0.0
  0
LINE
  5
2E5
330
1F
100
AcDbEntity
  8
0
  6
CONTINUOUS
 62
     7
100
AcDbLine
 10
596.0247059867
 20
476.5973319717
 30
0.0
 11
595.5247059047
 21
477.0973292597
 31
0.0
  0
ARC
  5
2E6
330
1F
100
AcDbEntity
  8
0
  6
CONTINUOUS
 62
     7
100
AcDbCircle
 10
616.4734743349
 20
418.2973302432
 30
0.0
 40
0.2000000000000455
100
AcDbArc
 50
180.0
 51
270.0
  0
LINE
  5
2E7
330
1F
100
AcDbEntity
  8
0
  6
CONTINUOUS
 62
     7
100
AcDbLine
 10
616.2734748378
 20
420.5973302432
 30
0.0
 11
616.2734748378
 21
418.2973301922
 31
0.0
  0
ARC
  5
2E8
330
1F
100
AcDbEntity
  8
0
  6
CONTINUOUS
 62
     7
100
AcDbCircle
 10
531.4747058824
 20
418.2973302432
 30
0.0
 40
0.2000000000000455
100
AcDbArc
 50
180.0
 51
270.0
  0
ARC
  5
2E9
330
1F
100
AcDbEntity
  8
0
  6
CONTINUOUS
 62
     7
100
AcDbCircle
 10
534.5747058824
 20
418.2973302432
 30
0.0
 40
0.2000000000000455
100
AcDbArc
 50
270.0
 51
0.0
  0
ARC
  5
2EA
330
1F
100
AcDbEntity
  8
0
  6
CONTINUOUS
 62
     7
100
AcDbCircle
 10
497.4747058824
 20
418.2973302432
 30
0.0
 40
0.2000000000000455
100
AcDbArc
 50
180.0
 51
270.0
  0
ARC
  5
2EB
330
1F
100
AcDbEntity
  8
0
  6
CONTINUOUS
 62
     7
100
AcDbCircle
 10
517.5747058824
 20
418.2973302432
 30
0.0
 40
0.2000000000000548
100
AcDbArc
 50
270.0
 51
304.7775816627
  0
ARC
  5
2EC
330
1F
100
AcDbEntity
  8
0
  6
CONTINUOUS
 62
     7
100
AcDbCircle
 10
514.4747058824
 20
418.2973302432
 30
0.0
 40
0.2000000000000455
100
AcDbArc
 50
180.0
 51
270.0
  0
LWPOLYLINE
  5
2ED
330
1F
100
AcDbEntity
  8
0
  6
CONTINUOUS
 62
     7
100
AcDbPolyline
 90
        3
 70
   128
 43
0.0
 10
483.5747042253
 20
418.0973302991
 10
483.6137229159
 20
418.1011731689
 10
483.6269625977
 20
418.1042784312
  0
ARC
  5
2EE
330
1F
100
AcDbEntity
  8
0
  6
CONTINUOUS
 62
     7
100
AcDbCircle
 10
480.4747058824
 20
418.2973302432
 30
0.0
 40
0.2000000000000455
100
AcDbArc
 50
180.0
 51
270.0
  0
ARC
  5
2EF
330
1F
100
AcDbEntity
  8
0
  6
CONTINUOUS
 62
     7
100
AcDbCircle
 10
565.4747058824
 20
418.2973302432
 30
0.0
 40
0.2000000000001592
100
AcDbArc
 50
180.0
 51
270.0
  0
LINE
  5
2F0
330
1F
100
AcDbEntity
  8
0
  6
CONTINUOUS
 62
     7
100
AcDbLine
 10
480.2747079685
 20
420.5973302432
 30
0.0
 11
480.2747079685
 21
418.2973301922
 31
0.0
  0
LINE
  5
2F1
330
1F
100
AcDbEntity
  8
0
  6
CONTINUOUS
 62
     7
100
AcDbLine
 10
497.2747051671
 20
420.5973302432
 30
0.0
 11
497.2747051671
 21
418.2973301922
 31
0.0
  0
LINE
  5
2F2
330
1F
100
AcDbEntity
  8
0
  6
CONTINUOUS
 62
     7
100
AcDbLine
 10
514.2747023657
 20
420.5973302432
 30
0.0
 11
514.2747023657
 21
418.2973301922
 31
0.0
  0
LINE
  5
2F3
330
1F
100
AcDbEntity
  8
0
  6
CONTINUOUS
 62
     7
100
AcDbLine
 10
531.2747070148
 20
420.5973302432
 30
0.0
 11
531.2747070148
 21
418.2973301922
 31
0.0
  0
LINE
  5
2F4
330
1F
100
AcDbEntity
  8
0
  6
CONTINUOUS
 62
     7
100
AcDbLine
 10
534.7747066572
 20
418.2973301922
 30
0.0
 11
534.7747066572
 21
420.5973302432
 31
0.0
  0
LINE
  5
2F5
330
1F
100
AcDbEntity
  8
0
  6
CONTINUOUS
 62
     7
100
AcDbLine
 10
565.2747051373
 20
420.5973302432
 30
0.0
 11
565.2747051373
 21
418.2973301922
 31
0.0
  0
LINE
  5
2F6
330
1F
100
AcDbEntity
  8
0
  6
CONTINUOUS
 62
     7
100
AcDbLine
 10
459.0247058824
 20
420.5973302432
 30
0.0
 11
709.0247058824
 21
420.5973302432
 31
0.0
  0
LINE
  5
2F7
330
1F
100
AcDbEntity
  8
0
  6
CONTINUOUS
 62
     7
100
AcDbLine
 10
709.0247058824
 20
428.5973306232
 30
0.0
 11
459.0247058824
 21
428.5973306232
 31
0.0
  0
SPLINE
  5
2F8
330
1F
100
AcDbEntity
  8
0
  6
CONTINUOUS
 62
     7
100
AcDbSpline
210
0.0
220
0.0
230
1.0
 70
    24
 71
     3
 72
    13
 73
     9
 74
     0
 42
0.000000001
 43
0.00000001
 40
0.0
 40
0.0
 40
0.0
 40
0.0
 40
0.2488058098180035
 40
0.3840635331147167
 40
0.5195510660180785
 40
0.6548081103838456
 40
0.7902972195454895
 40
1.0
 40
1.0
 40
1.0
 40
1.0
 10
577.7173982515757
 20
418.0973302990911
 30
0.0
 10
577.910630704756
 20
418.0973302990911
 30
0.0
 10
578.2089096667112
 20
418.0973302990911
 30
0.0
 10
578.5572630089532
 20
418.0973302990911
 30
0.0
 10
578.7909363628711
 20
418.0973302990911
 30
0.0
 10
578.974870133348
 20
418.0973302990911
 30
0.0
 10
579.1345515730554
 20
418.0973302990911
 30
0.0
 10
579.1476296364373
 20
418.0973302990911
 30
0.0
 10
579.1555745109741
 20
418.0973302990911
 30
0.0
  0
SPLINE
  5
2F9
330
1F
100
AcDbEntity
  8
0
  6
CONTINUOUS
 62
     7
100
AcDbSpline
210
0.0
220
0.0
230
1.0
 70
    24
 71
     3
 72
    14
 73
    10
 74
     0
 42
0.000000001
 43
0.00000001
 40
0.0
 40
0.0
 40
0.0
 40
0.0
 40
0.0365526930370158
 40
0.2672427014658984
 40
0.3926533130026086
 40
0.51827522754074
 40
0.6436863640853827
 40
0.7693094853119864
 40
1.0
 40
1.0
 40
1.0
 40
1.0
 10
576.0846649810497
 20
418.0973302990911
 30
0.0
 10
576.0800930706079
 20
418.0973302990911
 30
0.0
 10
576.0466670875725
 20
418.0973302990911
 30
0.0
 10
576.168941898563
 20
418.0973302990911
 30
0.0
 10
576.3700223132043
 20
418.0973302990911
 30
0.0
 10
576.588314255603
 20
418.0973302990911
 30
0.0
 10
576.8462924742321
 20
418.0973302990911
 30
0.0
 10
577.2191563874674
 20
418.0973302990911
 30
0.0
 10
577.521590995439
 20
418.0973302990911
 30
0.0
 10
577.7173982515757
 20
418.0973302990911
 30
0.0
  0
SPLINE
  5
2FA
330
1F
100
AcDbEntity
  8
0
  6
CONTINUOUS
 62
     7
100
AcDbSpline
210
0.0
220
0.0
230
1.0
 70
    24
 71
     3
 72
    10
 73
     6
 74
     0
 42
0.000000001
 43
0.00000001
 40
0.0
 40
0.0
 40
0.0
 40
0.0
 40
0.243770887651546
 40
0.7479106720694765
 40
1.0
 40
1.0
 40
1.0
 40
1.0
 10
604.2726868346159
 20
418.0973302990911
 30
0.0
 10
604.3327609474999
 20
418.0973302990911
 30
0.0
 10
604.517073646091
 20
418.0973302990911
 30
0.0
 10
604.6807764320091
 20
418.0973302990911
 30
0.0
 10
604.6653072217396
 20
418.0973302990911
 30
0.0
 10
604.6601505532686
 20
418.0973302990911
 30
0.0
  0
SPLINE
  5
2FB
330
1F
100
AcDbEntity
  8
0
  6
CONTINUOUS
 62
     7
100
AcDbSpline
210
0.0
220
0.0
230
1.0
 70
    24
 71
     3
 72
    10
 73
     6
 74
     0
 42
0.000000001
 43
0.00000001
 40
0.0
 40
0.0
 40
0.0
 40
0.0
 40
0.1342771568372238
 40
0.4394971699576109
 40
1.0
 40
1.0
 40
1.0
 40
1.0
 10
604.3060933753674
 20
418.0973302990911
 30
0.0
 10
604.2771792289877
 20
418.0973302990911
 30
0.0
 10
604.1825414975606
 20
418.0973302990911
 30
0.0
 10
603.902079108117
 20
418.0973302990911
 30
0.0
 10
603.6143364444389
 20
418.0973302990911
 30
0.0
 10
603.4280405893747
 20
418.0973302990911
 30
0.0
  0
SPLINE
  5
2FC
330
1F
100
AcDbEntity
  8
0
  6
CONTINUOUS
 62
     7
100
AcDbSpline
210
0.0
220
0.0
230
1.0
 70
    24
 71
     3
 72
    11
 73
     7
 74
     0
 42
0.000000001
 43
0.00000001
 40
0.0
 40
0.0
 40
0.0
 40
0.0
 40
0.4006515659797135
 40
0.6184577872575008
 40
0.8366334175825458
 40
1.0
 40
1.0
 40
1.0
 40
1.0
 10
603.4280405893747
 20
418.0973302990911
 30
0.0
 10
603.2325135805258
 20
418.0973302990911
 30
0.0
 10
602.9306922187498
 20
418.0973302990911
 30
0.0
 10
602.5409263570033
 20
418.0973302990911
 30
0.0
 10
602.2808956246952
 20
418.0973302990911
 30
0.0
 10
602.1436619923902
 20
418.0973302990911
 30
0.0
 10
602.0849020734255
 20
418.0973302990911
 30
0.0
  0
SPLINE
  5
2FD
330
1F
100
AcDbEntity
  8
0
  6
CONTINUOUS
 62
     7
100
AcDbSpline
210
0.0
220
0.0
230
1.0
 70
    24
 71
     3
 72
    13
 73
     9
 74
     0
 42
0.000000001
 43
0.00000001
 40
0.0
 40
0.0
 40
0.0
 40
0.0
 40
0.1691512488085531
 40
0.3530733709809898
 40
0.5373113843964427
 40
0.7212369628391475
 40
0.9054740728206997
 40
0.9999999999999999
 40
0.9999999999999999
 40
0.9999999999999999
 40
0.9999999999999999
 10
601.615049834532
 20
418.0973302990911
 30
0.0
 10
601.6089528369762
 20
418.0973302990911
 30
0.0
 10
601.5962264309044
 20
418.0973302990911
 30
0.0
 10
601.6981113678852
 20
418.0973302990911
 30
0.0
 10
601.8455044391225
 20
418.0973302990911
 30
0.0
 10
602.0531214572385
 20
418.0973302990911
 30
0.0
 10
602.2548019086287
 20
418.0973302990911
 30
0.0
 10
602.4065404934411
 20
418.0973302990911
 30
0.0
 10
602.4579936221068
 20
418.0973302990911
 30
0.0
  0
SPLINE
  5
2FE
330
1F
100
AcDbEntity
  8
0
  6
CONTINUOUS
 62
     7
100
AcDbSpline
210
0.0
220
0.0
230
1.0
 70
    24
 71
     3
 72
    13
 73
     9
 74
     0
 42
0.000000001
 43
0.00000001
 40
0.0
 40
0.0
 40
0.0
 40
0.0
 40
0.2999912675815053
 40
0.4630724822272198
 40
0.6264346199362468
 40
0.7895184982459293
 40
0.9528778890153865
 40
1.0
 40
1.0
 40
1.0
 40
1.0
 10
552.983947987837
 20
418.0973302990911
 30
0.0
 10
553.1629644793157
 20
418.0973302990911
 30
0.0
 10
553.4392978930747
 20
418.0973302990911
 30
0.0
 10
553.722682808065
 20
418.0973302990911
 30
0.0
 10
553.8970603296594
 20
418.0973302990911
 30
0.0
 10
554.0048710752186
 20
418.0973302990911
 30
0.0
 10
554.066425334599
 20
418.0973302990911
 30
0.0
 10
554.0452271051685
 20
418.0973302990911
 30
0.0
 10
554.0404812946741
 20
418.0973302990911
 30
0.0
  0
SPLINE
  5
2FF
330
1F
100
AcDbEntity
  8
0
  6
CONTINUOUS
 62
     7
100
AcDbSpline
210
0.0
220
0.0
230
1.0
 70
    24
 71
     3
 72
    14
 73
    10
 74
     0
 42
0.000000001
 43
0.00000001
 40
0.0
 40
0.0
 40
0.0
 40
0.0
 40
0.1677237109334173
 40
0.3670065908398937
 40
0.4753424179893012
 40
0.5838624285833396
 40
0.6921974750401911
 40
0.8007181005797431
 40
1.0
 40
1.0
 40
1.0
 40
1.0
 10
550.9695568635885
 20
418.0973302990911
 30
0.0
 10
550.9781682129582
 20
418.0973302990911
 30
0.0
 10
550.997011237341
 20
418.0973302990911
 30
0.0
 10
551.2412151664205
 20
418.0973302990911
 30
0.0
 10
551.5281930696872
 20
418.0973302990911
 30
0.0
 10
551.7965317159775
 20
418.0973302990911
 30
0.0
 10
552.0926027936268
 20
418.0973302990911
 30
0.0
 10
552.495923173648
 20
418.0973302990911
 30
0.0
 10
552.7921564295483
 20
418.0973302990911
 30
0.0
 10
552.983947987837
 20
418.0973302990911
 30
0.0
  0
SPLINE
  5
300
330
1F
100
AcDbEntity
  8
0
  6
CONTINUOUS
 62
     7
100
AcDbSpline
210
0.0
220
0.0
230
1.0
 70
    24
 71
     3
 72
     9
 73
     5
 74
     0
 42
0.000000001
 43
0.00000001
 40
0.0
 40
0.0
 40
0.0
 40
0.0
 40
0.6227799621733293
 40
1.0
 40
1.0
 40
1.0
 40
1.0
 10
628.9618359461252
 20
418.0973302990911
 30
0.0
 10
628.9796370319109
 20
418.0973302990911
 30
0.0
 10
629.0082202986615
 20
418.0973302990911
 30
0.0
 10
629.0004268276946
 20
418.0973302990911
 30
0.0
 10
628.9974869742815
 20
418.0973302990911
 30
0.0
  0
SPLINE
  5
301
330
1F
100
AcDbEntity
  8
0
  6
CONTINUOUS
 62
     7
100
AcDbSpline
210
0.0
220
0.0
230
1.0
 70
    24
 71
     3
 72
     9
 73
     5
 74
     0
 42
0.000000001
 43
0.00000001
 40
0.0
 40
0.0
 40
0.0
 40
0.0
 40
0.0729651174127082
 40
1.0
 40
1.0
 40
1.0
 40
1.0
 10
628.6118337467138
 20
418.0973302990911
 30
0.0
 10
628.6026884481166
 20
418.0973302990911
 30
0.0
 10
628.4773504931944
 20
418.0973302990911
 30
0.0
 10
628.2888740766666
 20
418.0973302990911
 30
0.0
 10
628.1141498640005
 20
418.0973302990911
 30
0.0
  0
SPLINE
  5
302
330
1F
100
AcDbEntity
  8
0
  6
CONTINUOUS
 62
     7
100
AcDbSpline
210
0.0
220
0.0
230
1.0
 70
    24
 71
     3
 72
    11
 73
     7
 74
     0
 42
0.000000001
 43
0.00000001
 40
0.0
 40
0.0
 40
0.0
 40
0.0
 40
0.455638567464502
 40
0.7033372136208837
 40
0.9514568054312521
 40
0.9999999999999999
 40
0.9999999999999999
 40
0.9999999999999999
 40
0.9999999999999999
 10
628.1141498640005
 20
418.0973302990911
 30
0.0
 10
627.9286552354849
 20
418.0973302990911
 30
0.0
 10
627.6423202224333
 20
418.0973302990911
 30
0.0
 10
627.2353163724384
 20
418.0973302990911
 30
0.0
 10
627.004843602934
 20
418.0973302990911
 30
0.0
 10
626.8918269171096
 20
418.0973302990911
 30
0.0
 10
626.8733338966791
 20
418.0973302990911
 30
0.0
  0
SPLINE
  5
303
330
1F
100
AcDbEntity
  8
0
  6
CONTINUOUS
 62
     7
100
AcDbSpline
210
0.0
220
0.0
230
1.0
 70
    24
 71
     3
 72
    12
 73
     8
 74
     0
 42
0.000000001
 43
0.00000001
 40
0.0
 40
0.0
 40
0.0
 40
0.0
 40
0.1821753740011266
 40
0.4442958341276378
 40
0.7059783146380828
 40
0.9681011728298499
 40
1.0
 40
1.0
 40
1.0
 40
1.0
 10
625.9109088733618
 20
418.0973302990911
 30
0.0
 10
625.911098876509
 20
418.0973302990911
 30
0.0
 10
625.9115622629971
 20
418.0973302990911
 30
0.0
 10
625.9860242638657
 20
418.0973302990911
 30
0.0
 10
626.1273757402648
 20
418.0973302990911
 30
0.0
 10
626.2480791285739
 20
418.0973302990911
 30
0.0
 10
626.3449594353505
 20
418.0973302990911
 30
0.0
 10
626.355470116419
 20
418.0973302990911
 30
0.0
  0
SPLINE
  5
304
330
1F
100
AcDbEntity
  8
0
  6
CONTINUOUS
 62
     7
100
AcDbSpline
210
0.0
220
0.0
230
1.0
 70
    24
 71
     3
 72
    12
 73
     8
 74
     0
 42
0.000000001
 43
0.00000001
 40
0.0
 40
0.0
 40
0.0
 40
0.0
 40
0.3747912417804599
 40
0.5785402171334858
 40
0.7826323074746032
 40
0.9863808861753635
 40
1.0
 40
1.0
 40
1.0
 40
1.0
 10
530.2009032621805
 20
418.0973302990911
 30
0.0
 10
530.3540801192853
 20
418.0973302990911
 30
0.0
 10
530.5905290068
 20
418.0973302990911
 30
0.0
 10
530.7939805101043
 20
418.0973302990911
 30
0.0
 10
530.8889520216179
 20
418.0973302990911
 30
0.0
 10
530.9298023777568
 20
418.0973302990911
 30
0.0
 10
530.9193332369075
 20
418.0973302990911
 30
0.0
 10
530.918677295727
 20
418.0973302990911
 30
0.0
  0
SPLINE
  5
305
330
1F
100
AcDbEntity
  8
0
  6
CONTINUOUS
 62
     7
100
AcDbSpline
210
0.0
220
0.0
230
1.0
 70
    24
 71
     3
 72
    15
 73
    11
 74
     0
 42
0.000000001
 43
0.00000001
 40
0.0
 40
0.0
 40
0.0
 40
0.0
 40
0.0892577890443914
 40
0.2651999254069226
 40
0.4411436192840435
 40
0.5367904958517079
 40
0.6325999882027158
 40
0.7282482216052544
 40
0.8240578636374689
 40
1.0
 40
1.0
 40
1.0
 40
1.0
 10
527.8221116915171
 20
418.0973302990911
 30
0.0
 10
527.8268845008773
 20
418.0973302990911
 30
0.0
 10
527.8410653213958
 20
418.0973302990911
 30
0.0
 10
528.0321820446258
 20
418.0973302990911
 30
0.0
 10
528.3760472068201
 20
418.0973302990911
 30
0.0
 10
528.7277173346366
 20
418.0973302990911
 30
0.0
 10
529.0299075068266
 20
418.0973302990911
 30
0.0
 10
529.3452866513139
 20
418.0973302990911
 30
0.0
 10
529.7537788016912
 20
418.0973302990911
 30
0.0
 10
530.0251849193456
 20
418.0973302990911
 30
0.0
 10
530.2009032621805
 20
418.0973302990911
 30
0.0
  0
SPLINE
  5
306
330
1F
100
AcDbEntity
  8
0
  6
CONTINUOUS
 62
     7
100
AcDbSpline
210
0.0
220
0.0
230
1.0
 70
    24
 71
     3
 72
    11
 73
     7
 74
     0
 42
0.000000001
 43
0.00000001
 40
0.0
 40
0.0
 40
0.0
 40
0.0
 40
0.0361911471227811
 40
0.3075303373009294
 40
0.579323605884863
 40
1.0
 40
1.0
 40
1.0
 40
1.0
 10
579.8192838720803
 20
418.0973302990911
 30
0.0
 10
579.8296947083583
 20
418.0973302990911
 30
0.0
 10
579.9181596575704
 20
418.0973302990911
 30
0.0
 10
580.0395658095288
 20
418.0973302990911
 30
0.0
 10
580.203129078485
 20
418.0973302990911
 30
0.0
 10
580.2154987672308
 20
418.0973302990911
 30
0.0
 10
580.2230133723293
 20
418.0973302990911
 30
0.0
  0
SPLINE
  5
307
330
1F
100
AcDbEntity
  8
0
  6
CONTINUOUS
 62
     7
100
AcDbSpline
210
0.0
220
0.0
230
1.0
 70
    24
 71
     3
 72
     9
 73
     5
 74
     0
 42
0.000000001
 43
0.00000001
 40
0.0
 40
0.0
 40
0.0
 40
0.0
 40
0.3390884465456011
 40
1.0
 40
1.0
 40
1.0
 40
1.0
 10
579.8013014301483
 20
418.0973302990911
 30
0.0
 10
579.7727008337375
 20
418.0973302990911
 30
0.0
 10
579.6883552988124
 20
418.0973302990911
 30
0.0
 10
579.5783129116637
 20
418.0973302990911
 30
0.0
 10
579.5055846266274
 20
418.0973302990911
 30
0.0
  0
SPLINE
  5
308
330
1F
100
AcDbEntity
  8
0
  6
CONTINUOUS
 62
     7
100
AcDbSpline
210
0.0
220
0.0
230
1.0
 70
    24
 71
     3
 72
    10
 73
     6
 74
     0
 42
0.000000001
 43
0.00000001
 40
0.0
 40
0.0
 40
0.0
 40
0.0
 40
0.2437655783354933
 40
0.7479109065536123
 40
1.0
 40
1.0
 40
1.0
 40
1.0
 10
601.0872041389172
 20
418.0973302990911
 30
0.0
 10
601.1472784755582
 20
418.0973302990911
 30
0.0
 10
601.3315959328652
 20
418.0973302990911
 30
0.0
 10
601.4952929253014
 20
418.0973302990911
 30
0.0
 10
601.4798242925323
 20
418.0973302990911
 30
0.0
 10
601.4746678575699
 20
418.0973302990911
 30
0.0
  0
SPLINE
  5
309
330
1F
100
AcDbEntity
  8
0
  6
CONTINUOUS
 62
     7
100
AcDbSpline
210
0.0
220
0.0
230
1.0
 70
    24
 71
     3
 72
    10
 73
     6
 74
     0
 42
0.000000001
 43
0.00000001
 40
0.0
 40
0.0
 40
0.0
 40
0.0
 40
0.1342775122215244
 40
0.4394983331516942
 40
1.0
 40
1.0
 40
1.0
 40
1.0
 10
601.1206106796686
 20
418.0973302990911
 30
0.0
 10
601.0916965270402
 20
418.0973302990911
 30
0.0
 10
600.9970587751602
 20
418.0973302990911
 30
0.0
 10
600.7165975384139
 20
418.0973302990911
 30
0.0
 10
600.4288540029978
 20
418.0973302990911
 30
0.0
 10
600.242557893676
 20
418.0973302990911
 30
0.0
  0
SPLINE
  5
30A
330
1F
100
AcDbEntity
  8
0
  6
CONTINUOUS
 62
     7
100
AcDbSpline
210
0.0
220
0.0
230
1.0
 70
    24
 71
     3
 72
    11
 73
     7
 74
     0
 42
0.000000001
 43
0.00000001
 40
0.0
 40
0.0
 40
0.0
 40
0.0
 40
0.4006515952213769
 40
0.6184578323420528
 40
0.836632913467318
 40
1.0
 40
1.0
 40
1.0
 40
1.0
 10
600.242557893676
 20
418.0973302990911
 30
0.0
 10
600.0470309103528
 20
418.0973302990911
 30
0.0
 10
599.745209588005
 20
418.0973302990911
 30
0.0
 10
599.3554437960241
 20
418.0973302990911
 30
0.0
 10
599.0954136393717
 20
418.0973302990911
 30
0.0
 10
598.9581796414877
 20
418.0973302990911
 30
0.0
 10
598.8994193777268
 20
418.0973302990911
 30
0.0
  0
SPLINE
  5
30B
330
1F
100
AcDbEntity
  8
0
  6
CONTINUOUS
 62
     7
100
AcDbSpline
210
0.0
220
0.0
230
1.0
 70
    24
 71
     3
 72
    13
 73
     9
 74
     0
 42
0.000000001
 43
0.00000001
 40
0.0
 40
0.0
 40
0.0
 40
0.0
 40
0.1691508461370825
 40
0.3530768446697184
 40
0.5373141614227156
 40
0.7212393020145407
 40
0.9054763997662718
 40
0.9999999999999999
 40
0.9999999999999999
 40
0.9999999999999999
 40
0.9999999999999999
 10
598.4295680701558
 20
418.0973302990911
 30
0.0
 10
598.4234708553478
 20
418.0973302990911
 30
0.0
 10
598.4107438402908
 20
418.0973302990911
 30
0.0
 10
598.5126284842014
 20
418.0973302990911
 30
0.0
 10
598.6600215262658
 20
418.0973302990911
 30
0.0
 10
598.8676393389488
 20
418.0973302990911
 30
0.0
 10
599.0693176061536
 20
418.0973302990911
 30
0.0
 10
599.2210580143367
 20
418.0973302990911
 30
0.0
 10
599.272510926408
 20
418.0973302990911
 30
0.0
  0
SPLINE
  5
30C
330
1F
100
AcDbEntity
  8
0
  6
CONTINUOUS
 62
     7
100
AcDbSpline
210
0.0
220
0.0
230
1.0
 70
    24
 71
     3
 72
    13
 73
     9
 74
     0
 42
0.000000001
 43
0.00000001
 40
0.0
 40
0.0
 40
0.0
 40
0.0
 40
0.29999141628704
 40
0.4630754508711217
 40
0.6264344347600581
 40
0.7895183939103447
 40
0.9528778656569775
 40
1.0
 40
1.0
 40
1.0
 40
1.0
 10
558.2372368827288
 20
418.0973302990911
 30
0.0
 10
558.4162545147063
 20
418.0973302990911
 30
0.0
 10
558.6925913234987
 20
418.0973302990911
 30
0.0
 10
558.9759668321528
 20
418.0973302990911
 30
0.0
 10
559.1503516587103
 20
418.0973302990911
 30
0.0
 10
559.2581594927801
 20
418.0973302990911
 30
0.0
 10
559.3197142575984
 20
418.0973302990911
 30
0.0
 10
559.2985160052019
 20
418.0973302990911
 30
0.0
 10
559.2937701895659
 20
418.0973302990911
 30
0.0
  0
SPLINE
  5
30D
330
1F
100
AcDbEntity
  8
0
  6
CONTINUOUS
 62
     7
100
AcDbSpline
210
0.0
220
0.0
230
1.0
 70
    24
 71
     3
 72
    10
 73
     6
 74
     0
 42
0.000000001
 43
0.00000001
 40
0.0
 40
0.0
 40
0.0
 40
0.0
 40
0.2340814302224173
 40
0.504116391132674
 40
1.0
 40
1.0
 40
1.0
 40
1.0
 10
558.4231866106217
 20
418.0973302990911
 30
0.0
 10
558.3391774293817
 20
418.0973302990911
 30
0.0
 10
558.1582557508514
 20
418.0973302990911
 30
0.0
 10
557.7665375506654
 20
418.0973302990911
 30
0.0
 10
557.4707740241838
 20
418.0973302990911
 30
0.0
 10
557.2792859330599
 20
418.0973302990911
 30
0.0
  0
SPLINE
  5
30E
330
1F
100
AcDbEntity
  8
0
  6
CONTINUOUS
 62
     7
100
AcDbSpline
210
0.0
220
0.0
230
1.0
 70
    24
 71
     3
 72
     9
 73
     5
 74
     0
 42
0.000000001
 43
0.00000001
 40
0.0
 40
0.0
 40
0.0
 40
0.0
 40
0.780980847533318
 40
1.0
 40
1.0
 40
1.0
 40
1.0
 10
557.2792859330599
 20
418.0973302990911
 30
0.0
 10
557.0964706198938
 20
418.0973302990911
 30
0.0
 10
556.8623863734701
 20
418.0973302990911
 30
0.0
 10
556.6929849682067
 20
418.0973302990911
 30
0.0
 10
556.6558828159992
 20
418.0973302990911
 30
0.0
  0
SPLINE
  5
30F
330
1F
100
AcDbEntity
  8
0
  6
CONTINUOUS
 62
     7
100
AcDbSpline
210
0.0
220
0.0
230
1.0
 70
    24
 71
     3
 72
     9
 73
     5
 74
     0
 42
0.000000001
 43
0.00000001
 40
0.0
 40
0.0
 40
0.0
 40
0.0
 40
0.9154545287094255
 40
1.0
 40
1.0
 40
1.0
 40
1.0
 10
556.2228457584803
 20
418.0973302990911
 30
0.0
 10
556.2166879651301
 20
418.0973302990911
 30
0.0
 10
556.2099614777327
 20
418.0973302990911
 30
0.0
 10
556.2983963943069
 20
418.0973302990911
 30
0.0
 10
556.3058731660072
 20
418.0973302990911
 30
0.0
  0
SPLINE
  5
310
330
1F
100
AcDbEntity
  8
0
  6
CONTINUOUS
 62
     7
100
AcDbSpline
210
0.0
220
0.0
230
1.0
 70
    24
 71
     3
 72
     9
 73
     5
 74
     0
 42
0.000000001
 43
0.00000001
 40
0.0
 40
0.0
 40
0.0
 40
0.0
 40
0.2768404073519425
 40
1.0
 40
1.0
 40
1.0
 40
1.0
 10
650.4871183588926
 20
418.0973302990911
 30
0.0
 10
650.4606777851509
 20
418.0973302990911
 30
0.0
 10
650.3651694235119
 20
418.0973302990911
 30
0.0
 10
650.1706365195973
 20
418.0973302990911
 30
0.0
 10
650.029958184046
 20
418.0973302990911
 30
0.0
  0
SPLINE
  5
311
330
1F
100
AcDbEntity
  8
0
  6
CONTINUOUS
 62
     7
100
AcDbSpline
210
0.0
220
0.0
230
1.0
 70
    24
 71
     3
 72
    12
 73
     8
 74
     0
 42
0.000000001
 43
0.00000001
 40
0.0
 40
0.0
 40
0.0
 40
0.0
 40
0.3612517717107411
 40
0.5576426084850697
 40
0.7543628554969519
 40
0.9507485982018059
 40
1.0
 40
1.0
 40
1.0
 40
1.0
 10
650.029958184046
 20
418.0973302990911
 30
0.0
 10
649.8665762462703
 20
418.0973302990911
 30
0.0
 10
649.6143733863948
 20
418.0973302990911
 30
0.0
 10
649.2124935592559
 20
418.0973302990911
 30
0.0
 10
648.8966401151064
 20
418.0973302990911
 30
0.0
 10
648.6579312615381
 20
418.0973302990911
 30
0.0
 10
648.5375701712439
 20
418.0973302990911
 30
0.0
 10
648.5134372070257
 20
418.0973302990911
 30
0.0
  0
SPLINE
  5
312
330
1F
100
AcDbEntity
  8
0
  6
CONTINUOUS
 62
     7
100
AcDbSpline
210
0.0
220
0.0
230
1.0
 70
    24
 71
     3
 72
    10
 73
     6
 74
     0
 42
0.000000001
 43
0.00000001
 40
0.0
 40
0.0
 40
0.0
 40
0.0
 40
0.2209385947020596
 40
0.7001266264527097
 40
1.0
 40
1.0
 40
1.0
 40
1.0
 10
647.4998304202978
 20
418.0973302990911
 30
0.0
 10
647.4982973026213
 20
418.0973302990911
 30
0.0
 10
647.4934390454744
 20
418.0973302990911
 30
0.0
 10
647.5381479387423
 20
418.0973302990911
 30
0.0
 10
647.6097483670491
 20
418.0973302990911
 30
0.0
 10
647.6373085334723
 20
418.0973302990911
 30
0.0
  0
SPLINE
  5
313
330
1F
100
AcDbEntity
  8
0
  6
CONTINUOUS
 62
     7
100
AcDbSpline
210
0.0
220
0.0
230
1.0
 70
    24
 71
     3
 72
     9
 73
     5
 74
     0
 42
0.000000001
 43
0.00000001
 40
0.0
 40
0.0
 40
0.0
 40
0.0
 40
0.6227813396626346
 40
1.0
 40
1.0
 40
1.0
 40
1.0
 10
621.7235857203428
 20
418.0973302990911
 30
0.0
 10
621.7413884486286
 20
418.0973302990911
 30
0.0
 10
621.7699742895201
 20
418.0973302990911
 30
0.0
 10
621.7621804539878
 20
418.0973302990911
 30
0.0
 10
621.7592404737894
 20
418.0973302990911
 30
0.0
  0
SPLINE
  5
314
330
1F
100
AcDbEntity
  8
0
  6
CONTINUOUS
 62
     7
100
AcDbSpline
210
0.0
220
0.0
230
1.0
 70
    24
 71
     3
 72
     9
 73
     5
 74
     0
 42
0.000000001
 43
0.00000001
 40
0.0
 40
0.0
 40
0.0
 40
0.0
 40
0.0729688168989035
 40
1.0
 40
1.0
 40
1.0
 40
1.0
 10
621.3735872462217
 20
418.0973302990911
 30
0.0
 10
621.3644406872721
 20
418.0973302990911
 30
0.0
 10
621.2390918144482
 20
418.0973302990911
 30
0.0
 10
621.0506213557837
 20
418.0973302990911
 30
0.0
 10
620.8759033635084
 20
418.0973302990911
 30
0.0
  0
SPLINE
  5
315
330
1F
100
AcDbEntity
  8
0
  6
CONTINUOUS
 62
     7
100
AcDbSpline
210
0.0
220
0.0
230
1.0
 70
    24
 71
     3
 72
    11
 73
     7
 74
     0
 42
0.000000001
 43
0.00000001
 40
0.0
 40
0.0
 40
0.0
 40
0.0
 40
0.4556367597089647
 40
0.7033346456334824
 40
0.9514518384677524
 40
1.0
 40
1.0
 40
1.0
 40
1.0
 10
620.8759033635084
 20
418.0973302990911
 30
0.0
 10
620.6904082496392
 20
418.0973302990911
 30
0.0
 10
620.4040723967915
 20
418.0973302990911
 30
0.0
 10
619.9970727304274
 20
418.0973302990911
 30
0.0
 10
619.7665908860162
 20
418.0973302990911
 30
0.0
 10
619.653577829521
 20
418.0973302990911
 30
0.0
 10
619.6350836708967
 20
418.0973302990911
 30
0.0
  0
SPLINE
  5
316
330
1F
100
AcDbEntity
  8
0
  6
CONTINUOUS
 62
     7
100
AcDbSpline
210
0.0
220
0.0
230
1.0
 70
    24
 71
     3
 72
    12
 73
     8
 74
     0
 42
0.000000001
 43
0.00000001
 40
0.0
 40
0.0
 40
0.0
 40
0.0
 40
0.1821756160912084
 40
0.4443031626838072
 40
0.7059804217822429
 40
0.9681036283050866
 40
1.0
 40
1.0
 40
1.0
 40
1.0
 10
618.6726586475794
 20
418.0973302990911
 30
0.0
 10
618.6728486184578
 20
418.0973302990911
 30
0.0
 10
618.673311933274
 20
418.0973302990911
 30
0.0
 10
618.747775965451
 20
418.0973302990911
 30
0.0
 10
618.8891298887015
 20
418.0973302990911
 30
0.0
 10
619.0098352737249
 20
418.0973302990911
 30
0.0
 10
619.1067104950203
 20
418.0973302990911
 30
0.0
 10
619.1172198906366
 20
418.0973302990911
 30
0.0
  0
SPLINE
  5
317
330
1F
100
AcDbEntity
  8
0
  6
CONTINUOUS
 62
     7
100
AcDbSpline
210
0.0
220
0.0
230
1.0
 70
    24
 71
     3
 72
    12
 73
     8
 74
     0
 42
0.000000001
 43
0.00000001
 40
0.0
 40
0.0
 40
0.0
 40
0.0
 40
0.3747916047010405
 40
0.578540777349756
 40
0.782632306797156
 40
0.9863810827932217
 40
1.0
 40
1.0
 40
1.0
 40
1.0
 10
539.3099607482378
 20
418.0973302990911
 30
0.0
 10
539.4631377714094
 20
418.0973302990911
 30
0.0
 10
539.6995869152703
 20
418.0973302990911
 30
0.0
 10
539.9030369622775
 20
418.0973302990911
 30
0.0
 10
539.9980125150494
 20
418.0973302990911
 30
0.0
 10
540.0388381995548
 20
418.0973302990911
 30
0.0
 10
540.0283894367318
 20
418.0973302990911
 30
0.0
 10
540.0277347817843
 20
418.0973302990911
 30
0.0
  0
SPLINE
  5
318
330
1F
100
AcDbEntity
  8
0
  6
CONTINUOUS
 62
     7
100
AcDbSpline
210
0.0
220
0.0
230
1.0
 70
    24
 71
     3
 72
    15
 73
    11
 74
     0
 42
0.000000001
 43
0.00000001
 40
0.0
 40
0.0
 40
0.0
 40
0.0
 40
0.0892576419747381
 40
0.2652000980541482
 40
0.441142923763944
 40
0.5367897483031738
 40
0.6326002593263511
 40
0.7282473202317308
 40
0.8240569101469721
 40
1.0
 40
1.0
 40
1.0
 40
1.0
 10
536.9311691775744
 20
418.0973302990911
 30
0.0
 10
536.9359403822453
 20
418.0973302990911
 30
0.0
 10
536.9501164675487
 20
418.0973302990911
 30
0.0
 10
537.1412416467759
 20
418.0973302990911
 30
0.0
 10
537.4851010697805
 20
418.0973302990911
 30
0.0
 10
537.8367721529094
 20
418.0973302990911
 30
0.0
 10
538.1389627554572
 20
418.0973302990911
 30
0.0
 10
538.4543416191062
 20
418.0973302990911
 30
0.0
 10
538.8628336677037
 20
418.0973302990911
 30
0.0
 10
539.1342411514843
 20
418.0973302990911
 30
0.0
 10
539.3099607482378
 20
418.0973302990911
 30
0.0
  0
SPLINE
  5
319
330
1F
100
AcDbEntity
  8
0
  6
CONTINUOUS
 62
     7
100
AcDbSpline
210
0.0
220
0.0
230
1.0
 70
    24
 71
     3
 72
     9
 73
     5
 74
     0
 42
0.000000001
 43
0.00000001
 40
0.0
 40
0.0
 40
0.0
 40
0.0
 40
0.9308170834829681
 40
1.0
 40
1.0
 40
1.0
 40
1.0
 10
510.7998037293378
 20
418.0973302990911
 30
0.0
 10
510.9272796360829
 20
418.0973302990911
 30
0.0
 10
511.0642301809397
 20
418.0973302990911
 30
0.0
 10
511.1190183449775
 20
418.0973302990911
 30
0.0
 10
511.1228087499563
 20
418.0973302990911
 30
0.0
  0
SPLINE
  5
31A
330
1F
100
AcDbEntity
  8
0
  6
CONTINUOUS
 62
     7
100
AcDbSpline
210
0.0
220
0.0
230
1.0
 70
    24
 71
     3
 72
    17
 73
    13
 74
     0
 42
0.000000001
 43
0.00000001
 40
0.0
 40
0.0
 40
0.0
 40
0.0
 40
0.014208388863384
 40
0.1112988367296158
 40
0.2085536717733322
 40
0.38714676907833
 40
0.5657427941680381
 40
0.6628312846610808
 40
0.7600853804189317
 40
0.8571758282851634
 40
0.9544299020794006
 40
0.9999999999999999
 40
0.9999999999999999
 40
0.9999999999999999
 40
0.9999999999999999
 10
508.1238904550497
 20
418.0973302990911
 30
0.0
 10
508.1226410793829
 20
418.0973302990911
 30
0.0
 10
508.1128543217359
 20
418.0973302990911
 30
0.0
 10
508.155394406919
 20
418.0973302990911
 30
0.0
 10
508.2851484779616
 20
418.0973302990911
 30
0.0
 10
508.5837367003714
 20
418.0973302990911
 30
0.0
 10
509.0100166727802
 20
418.0973302990911
 30
0.0
 10
509.4011246746692
 20
418.0973302990911
 30
0.0
 10
509.7194627260899
 20
418.0973302990911
 30
0.0
 10
510.031683842506
 20
418.0973302990911
 30
0.0
 10
510.2889645238677
 20
418.0973302990911
 30
0.0
 10
510.4108999960951
 20
418.0973302990911
 30
0.0
 10
510.4498052552167
 20
418.0973302990911
 30
0.0
  0
SPLINE
  5
31B
330
1F
100
AcDbEntity
  8
0
  6
CONTINUOUS
 62
     7
100
AcDbSpline
210
0.0
220
0.0
230
1.0
 70
    24
 71
     3
 72
    19
 73
    15
 74
     0
 42
0.000000001
 43
0.00000001
 40
0.0
 40
0.0
 40
0.0
 40
0.0
 40
0.0482787296215327
 40
0.0961611114637503
 40
0.143922182617243
 40
0.1918390691438583
 40
0.2401862177765345
 40
0.3700076559362601
 40
0.5000493561693404
 40
0.6298708934307344
 40
0.7599126929289675
 40
0.8400588667717582
 40
0.9196606520275756
 40
1.0
 40
1.0
 40
1.0
 40
1.0
 10
584.024705882353
 20
418.0973302432117
 30
0.0
 10
584.0638573102699
 20
418.0973302432117
 30
0.0
 10
584.1418387495784
 20
418.0973302432117
 30
0.0
 10
584.2579029209875
 20
418.0973302432117
 30
0.0
 10
584.3723416398065
 20
418.0973302432117
 30
0.0
 10
584.4851572692919
 20
418.0973302432117
 30
0.0
 10
584.6580683302022
 20
418.0973302432117
 30
0.0
 10
584.8819532788267
 20
418.0973302432117
 30
0.0
 10
585.1280034077843
 20
418.0973302432117
 30
0.0
 10
585.329729297911
 20
418.0973302432117
 30
0.0
 10
585.4571172678401
 20
418.0973302432117
 30
0.0
 10
585.5299112889551
 20
418.0973302432117
 30
0.0
 10
585.5677980247842
 20
418.0973302432117
 30
0.0
 10
585.572396195065
 20
418.0973302432117
 30
0.0
 10
585.5747058823531
 20
418.0973302432117
 30
0.0
  0
SPLINE
  5
31C
330
1F
100
AcDbEntity
  8
0
  6
CONTINUOUS
 62
     7
100
AcDbSpline
210
0.0
220
0.0
230
1.0
 70
    24
 71
     3
 72
    19
 73
    15
 74
     0
 42
0.000000001
 43
0.00000001
 40
0.0
 40
0.0
 40
0.0
 40
0.0
 40
0.0482446759019855
 40
0.0961096163859443
 40
0.1438706768106439
 40
0.1918055005980024
 40
0.2401887398801368
 40
0.3700093404591646
 40
0.5000502016874947
 40
0.6298709013663296
 40
0.7599118618605074
 40
0.8401076914173096
 40
0.9197089630982215
 40
1.0
 40
1.0
 40
1.0
 40
1.0
 10
582.4747058836218
 20
418.0973302432117
 30
0.0
 10
582.4755228795545
 20
418.0973302432117
 30
0.0
 10
582.4771504408181
 20
418.0973302432117
 30
0.0
 10
582.4906936227952
 20
418.0973302432117
 30
0.0
 10
582.5123938842117
 20
418.0973302432117
 30
0.0
 10
582.543043048755
 20
418.0973302432117
 30
0.0
 10
582.6041890177816
 20
418.0973302432117
 30
0.0
 10
582.7195648748502
 20
418.0973302432117
 30
0.0
 10
582.9211571011969
 20
418.0973302432117
 30
0.0
 10
583.1673168038686
 20
418.0973302432117
 30
0.0
 10
583.4142552731763
 20
418.0973302432117
 30
0.0
 10
583.6380869427355
 20
418.0973302432117
 30
0.0
 10
583.8298425362633
 20
418.0973302432117
 30
0.0
 10
583.9595648956617
 20
418.0973302432117
 30
0.0
 10
584.024705882353
 20
418.0973302432117
 30
0.0
  0
SPLINE
  5
31D
330
1F
100
AcDbEntity
  8
0
  6
CONTINUOUS
 62
     7
100
AcDbSpline
210
0.0
220
0.0
230
1.0
 70
    24
 71
     3
 72
     9
 73
     5
 74
     0
 42
0.000000001
 43
0.00000001
 40
0.0
 40
0.0
 40
0.0
 40
0.0
 40
0.276841225835362
 40
0.9999999999999999
 40
0.9999999999999999
 40
0.9999999999999999
 40
0.9999999999999999
 10
639.6509082570498
 20
418.0973302990911
 30
0.0
 10
639.6244676517229
 20
418.0973302990911
 30
0.0
 10
639.5289594583639
 20
418.0973302990911
 30
0.0
 10
639.3344285446163
 20
418.0973302990911
 30
0.0
 10
639.1937518074934
 20
418.0973302990911
 30
0.0
  0
SPLINE
  5
31E
330
1F
100
AcDbEntity
  8
0
  6
CONTINUOUS
 62
     7
100
AcDbSpline
210
0.0
220
0.0
230
1.0
 70
    24
 71
     3
 72
    12
 73
     8
 74
     0
 42
0.000000001
 43
0.00000001
 40
0.0
 40
0.0
 40
0.0
 40
0.0
 40
0.361253065530148
 40
0.5576412374087429
 40
0.7543610833415977
 40
0.950748698617013
 40
1.0
 40
1.0
 40
1.0
 40
1.0
 10
639.1937518074934
 20
418.0973302990911
 30
0.0
 10
639.0303685591456
 20
418.0973302990911
 30
0.0
 10
638.778165199579
 20
418.0973302990911
 30
0.0
 10
638.3762860512173
 20
418.0973302990911
 30
0.0
 10
638.0604325556835
 20
418.0973302990911
 30
0.0
 10
637.8217222734941
 20
418.0973302990911
 30
0.0
 10
637.7013600694098
 20
418.0973302990911
 30
0.0
 10
637.6772271051829
 20
418.0973302990911
 30
0.0
  0
SPLINE
  5
31F
330
1F
100
AcDbEntity
  8
0
  6
CONTINUOUS
 62
     7
100
AcDbSpline
210
0.0
220
0.0
230
1.0
 70
    24
 71
     3
 72
    10
 73
     6
 74
     0
 42
0.000000001
 43
0.00000001
 40
0.0
 40
0.0
 40
0.0
 40
0.0
 40
0.2209383487553143
 40
0.7001247506095531
 40
1.0
 40
1.0
 40
1.0
 40
1.0
 10
636.6636240437452
 20
418.0973302990911
 30
0.0
 10
636.6620910919755
 20
418.0973302990911
 30
0.0
 10
636.657233368174
 20
418.0973302990911
 30
0.0
 10
636.7019358425526
 20
418.0973302990911
 30
0.0
 10
636.773540282602
 20
418.0973302990911
 30
0.0
 10
636.8011021569197
 20
418.0973302990911
 30
0.0
  0
LINE
  5
320
330
1F
100
AcDbEntity
  8
0
  6
CONTINUOUS
 62
     7
100
AcDbLine
 10
606.5491875216
 20
418.0973302991
 30
0.0
 11
606.5733702436
 21
418.0973302991
 31
0.0
  0
SPLINE
  5
321
330
1F
100
AcDbEntity
  8
0
  6
CONTINUOUS
 62
     7
100
AcDbSpline
210
0.0
220
0.0
230
1.0
 70
    24
 71
     3
 72
     9
 73
     5
 74
     0
 42
0.000000001
 43
0.00000001
 40
0.0
 40
0.0
 40
0.0
 40
0.0
 40
0.2982484923021796
 40
0.9999999999999999
 40
0.9999999999999999
 40
0.9999999999999999
 40
0.9999999999999999
 10
606.1991871848528
 20
418.0973302990911
 30
0.0
 10
606.1435376292443
 20
418.0973302990911
 30
0.0
 10
605.9569497434886
 20
418.0973302990911
 30
0.0
 10
605.6983263165409
 20
418.0973302990911
 30
0.0
 10
605.5168369367544
 20
418.0973302990911
 30
0.0
  0
LINE
  5
322
330
1F
100
AcDbEntity
  8
0
  6
CONTINUOUS
 62
     7
100
AcDbLine
 10
605.5168369368
 20
418.0973302991
 30
0.0
 11
605.0101490274
 21
418.0973302991
 31
0.0
  0
SPLINE
  5
323
330
1F
100
AcDbEntity
  8
0
  6
CONTINUOUS
 62
     7
100
AcDbSpline
210
0.0
220
0.0
230
1.0
 70
    24
 71
     3
 72
    13
 73
     9
 74
     0
 42
0.000000001
 43
0.00000001
 40
0.0
 40
0.0
 40
0.0
 40
0.0
 40
0.29999141628704
 40
0.4630754508711217
 40
0.6264344347600581
 40
0.7895183939103447
 40
0.9528778656569775
 40
1.0
 40
1.0
 40
1.0
 40
1.0
 10
563.4905257776205
 20
418.0973302990911
 30
0.0
 10
563.6695434095981
 20
418.0973302990911
 30
0.0
 10
563.9458802183905
 20
418.0973302990911
 30
0.0
 10
564.2292557270446
 20
418.0973302990911
 30
0.0
 10
564.403640553602
 20
418.0973302990911
 30
0.0
 10
564.5114483876719
 20
418.0973302990911
 30
0.0
 10
564.5730031524902
 20
418.0973302990911
 30
0.0
 10
564.5518049000937
 20
418.0973302990911
 30
0.0
 10
564.5470590844576
 20
418.0973302990911
 30
0.0
  0
SPLINE
  5
324
330
1F
100
AcDbEntity
  8
0
  6
CONTINUOUS
 62
     7
100
AcDbSpline
210
0.0
220
0.0
230
1.0
 70
    24
 71
     3
 72
    10
 73
     6
 74
     0
 42
0.000000001
 43
0.00000001
 40
0.0
 40
0.0
 40
0.0
 40
0.0
 40
0.2340814302224173
 40
0.504116391132674
 40
1.0
 40
1.0
 40
1.0
 40
1.0
 10
563.6764755055134
 20
418.0973302990911
 30
0.0
 10
563.5924663242735
 20
418.0973302990911
 30
0.0
 10
563.4115446457431
 20
418.0973302990911
 30
0.0
 10
563.0198264455571
 20
418.0973302990911
 30
0.0
 10
562.7240629190755
 20
418.0973302990911
 30
0.0
 10
562.5325748279516
 20
418.0973302990911
 30
0.0
  0
SPLINE
  5
325
330
1F
100
AcDbEntity
  8
0
  6
CONTINUOUS
 62
     7
100
AcDbSpline
210
0.0
220
0.0
230
1.0
 70
    24
 71
     3
 72
     9
 73
     5
 74
     0
 42
0.000000001
 43
0.00000001
 40
0.0
 40
0.0
 40
0.0
 40
0.0
 40
0.780980847533318
 40
1.0
 40
1.0
 40
1.0
 40
1.0
 10
562.5325748279516
 20
418.0973302990911
 30
0.0
 10
562.3497595147855
 20
418.0973302990911
 30
0.0
 10
562.1156752683619
 20
418.0973302990911
 30
0.0
 10
561.9462738630984
 20
418.0973302990911
 30
0.0
 10
561.909171710891
 20
418.0973302990911
 30
0.0
  0
SPLINE
  5
326
330
1F
100
AcDbEntity
  8
0
  6
CONTINUOUS
 62
     7
100
AcDbSpline
210
0.0
220
0.0
230
1.0
 70
    24
 71
     3
 72
     9
 73
     5
 74
     0
 42
0.000000001
 43
0.00000001
 40
0.0
 40
0.0
 40
0.0
 40
0.0
 40
0.9154545287094255
 40
1.0
 40
1.0
 40
1.0
 40
1.0
 10
561.476134653372
 20
418.0973302990911
 30
0.0
 10
561.4699768600218
 20
418.0973302990911
 30
0.0
 10
561.4632503726243
 20
418.0973302990911
 30
0.0
 10
561.5516852891986
 20
418.0973302990911
 30
0.0
 10
561.559162060899
 20
418.0973302990911
 30
0.0
  0
SPLINE
  5
327
330
1F
100
AcDbEntity
  8
0
  6
CONTINUOUS
 62
     7
100
AcDbSpline
210
0.0
220
0.0
230
1.0
 70
    24
 71
     3
 72
    13
 73
     9
 74
     0
 42
0.000000001
 43
0.00000001
 40
0.0
 40
0.0
 40
0.0
 40
0.0
 40
0.2992879447008984
 40
0.4619902348614054
 40
0.6249684050382374
 40
0.7876681304862592
 40
0.9506459555251127
 40
1.0
 40
1.0
 40
1.0
 40
1.0
 10
667.798415715975
 20
418.0973302990911
 30
0.0
 10
667.6669822895866
 20
418.0973302990911
 30
0.0
 10
667.4640975406321
 20
418.0973302990911
 30
0.0
 10
667.0958355234419
 20
418.0973302990911
 30
0.0
 10
666.7883562029403
 20
418.0973302990911
 30
0.0
 10
666.4730888430881
 20
418.0973302990911
 30
0.0
 10
666.223678421729
 20
418.0973302990911
 30
0.0
 10
666.1008157378035
 20
418.0973302990911
 30
0.0
 10
666.0722577526991
 20
418.0973302990911
 30
0.0
  0
SPLINE
  5
328
330
1F
100
AcDbEntity
  8
0
  6
CONTINUOUS
 62
     7
100
AcDbSpline
210
0.0
220
0.0
230
1.0
 70
    24
 71
     3
 72
    10
 73
     6
 74
     0
 42
0.000000001
 43
0.00000001
 40
0.0
 40
0.0
 40
0.0
 40
0.0
 40
0.1389273106041311
 40
0.7600740893793674
 40
1.0
 40
1.0
 40
1.0
 40
1.0
 10
664.9997764780943
 20
418.0973302990911
 30
0.0
 10
664.9981842801317
 20
418.0973302990911
 30
0.0
 10
664.9894733332975
 20
418.0973302990911
 30
0.0
 10
665.0097310483994
 20
418.0973302990911
 30
0.0
 10
665.0765485072886
 20
418.0973302990911
 30
0.0
 10
665.0951662614767
 20
418.0973302990911
 30
0.0
  0
SPLINE
  5
329
330
1F
100
AcDbEntity
  8
0
  6
CONTINUOUS
 62
     7
100
AcDbSpline
210
0.0
220
0.0
230
1.0
 70
    24
 71
     3
 72
     9
 73
     5
 74
     0
 42
0.000000001
 43
0.00000001
 40
0.0
 40
0.0
 40
0.0
 40
0.0
 40
0.9308096524380989
 40
1.0
 40
1.0
 40
1.0
 40
1.0
 10
523.1922724798147
 20
418.0973302990911
 30
0.0
 10
523.319741435976
 20
418.0973302990911
 30
0.0
 10
523.4566856069214
 20
418.0973302990911
 30
0.0
 10
523.511485852402
 20
418.0973302990911
 30
0.0
 10
523.5152775004332
 20
418.0973302990911
 30
0.0
  0
SPLINE
  5
32A
330
1F
100
AcDbEntity
  8
0
  6
CONTINUOUS
 62
     7
100
AcDbSpline
210
0.0
220
0.0
230
1.0
 70
    24
 71
     3
 72
    17
 73
    13
 74
     0
 42
0.000000001
 43
0.00000001
 40
0.0
 40
0.0
 40
0.0
 40
0.0
 40
0.0142083770121945
 40
0.111298743895472
 40
0.2085516561994532
 40
0.3871478044983783
 40
0.5657417463598751
 40
0.662832360033498
 40
0.7600863746718963
 40
0.8571756061182548
 40
0.954430360041902
 40
1.0
 40
1.0
 40
1.0
 40
1.0
 10
520.5163592055266
 20
418.0973302990911
 30
0.0
 10
520.5151098240783
 20
418.0973302990911
 30
0.0
 10
520.5053230211441
 20
418.0973302990911
 30
0.0
 10
520.5478646400086
 20
418.0973302990911
 30
0.0
 10
520.6776078130201
 20
418.0973302990911
 30
0.0
 10
520.9762042328888
 20
418.0973302990911
 30
0.0
 10
521.4024809419092
 20
418.0973302990911
 30
0.0
 10
521.7935915234664
 20
418.0973302990911
 30
0.0
 10
522.1119296475449
 20
418.0973302990911
 30
0.0
 10
522.4241528360496
 20
418.0973302990911
 30
0.0
 10
522.681425132058
 20
418.0973302990911
 30
0.0
 10
522.803367119367
 20
418.0973302990911
 30
0.0
 10
522.8422740056936
 20
418.0973302990911
 30
0.0
  0
SPLINE
  5
32B
330
1F
100
AcDbEntity
  8
0
  6
CONTINUOUS
 62
     7
100
AcDbSpline
210
0.0
220
0.0
230
1.0
 70
    24
 71
     3
 72
    12
 73
     8
 74
     0
 42
0.000000001
 43
0.00000001
 40
0.0
 40
0.0
 40
0.0
 40
0.0
 40
0.3751015250008926
 40
0.5790188524909099
 40
0.7832798970628853
 40
0.9871967504386052
 40
1.0
 40
1.0
 40
1.0
 40
1.0
 10
624.9051698997442
 20
418.0973302990911
 30
0.0
 10
624.7353508283715
 20
418.0973302990911
 30
0.0
 10
624.4732126143585
 20
418.0973302990911
 30
0.0
 10
624.0667294700529
 20
418.0973302990911
 30
0.0
 10
623.7521996436795
 20
418.0973302990911
 30
0.0
 10
623.5342577250809
 20
418.0973302990911
 30
0.0
 10
623.4344927842958
 20
418.0973302990911
 30
0.0
 10
623.4285989358847
 20
418.0973302990911
 30
0.0
  0
SPLINE
  5
32C
330
1F
100
AcDbEntity
  8
0
  6
CONTINUOUS
 62
     7
100
AcDbSpline
210
0.0
220
0.0
230
1.0
 70
    24
 71
     3
 72
    10
 73
     6
 74
     0
 42
0.000000001
 43
0.00000001
 40
0.0
 40
0.0
 40
0.0
 40
0.0
 40
0.373155383794645
 40
0.8540656010687603
 40
0.9999999999999999
 40
0.9999999999999999
 40
0.9999999999999999
 40
0.9999999999999999
 10
622.4494846120302
 20
418.0973302990911
 30
0.0
 10
622.4515452994432
 20
418.0973302990911
 30
0.0
 10
622.4562617320885
 20
418.0973302990911
 30
0.0
 10
622.5079056212592
 20
418.0973302990911
 30
0.0
 10
622.5717975944065
 20
418.0973302990911
 30
0.0
 10
622.5866721525614
 20
418.0973302990911
 30
0.0
  0
SPLINE
  5
32D
330
1F
100
AcDbEntity
  8
0
  6
CONTINUOUS
 62
     7
100
AcDbSpline
210
0.0
220
0.0
230
1.0
 70
    24
 71
     3
 72
    11
 73
     7
 74
     0
 42
0.000000001
 43
0.00000001
 40
0.0
 40
0.0
 40
0.0
 40
0.0
 40
0.1386734866477706
 40
0.4486455482068754
 40
0.7591448359791204
 40
1.0
 40
1.0
 40
1.0
 40
1.0
 10
545.2672885313456
 20
418.0973302990911
 30
0.0
 10
545.3011250642288
 20
418.0973302990911
 30
0.0
 10
545.4105952319716
 20
418.0973302990911
 30
0.0
 10
545.5106644854147
 20
418.0973302990911
 30
0.0
 10
545.5956483831764
 20
418.0973302990911
 30
0.0
 10
545.5986703559037
 20
418.0973302990911
 30
0.0
 10
545.5999904826109
 20
418.0973302990911
 30
0.0
  0
SPLINE
  5
32E
330
1F
100
AcDbEntity
  8
0
  6
CONTINUOUS
 62
     7
100
AcDbSpline
210
0.0
220
0.0
230
1.0
 70
    24
 71
     3
 72
    16
 73
    12
 74
     0
 42
0.000000001
 43
0.00000001
 40
0.0
 40
0.0
 40
0.0
 40
0.0
 40
0.0235262487074471
 40
0.1287184177248388
 40
0.3218902766913437
 40
0.5150622499726125
 40
0.620076025608541
 40
0.7252684173912848
 40
0.8302823272117236
 40
0.9354746816748103
 40
0.9999999999999999
 40
0.9999999999999999
 40
0.9999999999999999
 40
0.9999999999999999
 10
542.5106444909994
 20
418.0973302990911
 30
0.0
 10
542.5089342435296
 20
418.0973302990911
 30
0.0
 10
542.4995770208383
 20
418.0973302990911
 30
0.0
 10
542.563261037449
 20
418.0973302990911
 30
0.0
 10
542.7687011535771
 20
418.0973302990911
 30
0.0
 10
543.1400717033735
 20
418.0973302990911
 30
0.0
 10
543.5030711743129
 20
418.0973302990911
 30
0.0
 10
543.8114629211459
 20
418.0973302990911
 30
0.0
 10
544.1272017005218
 20
418.0973302990911
 30
0.0
 10
544.4078417320301
 20
418.0973302990911
 30
0.0
 10
544.5589324940581
 20
418.0973302990911
 30
0.0
 10
544.6163760080759
 20
418.0973302990911
 30
0.0
  0
SPLINE
  5
32F
330
1F
100
AcDbEntity
  8
0
  6
CONTINUOUS
 62
     7
100
AcDbSpline
210
0.0
220
0.0
230
1.0
 70
    24
 71
     3
 72
    11
 73
     7
 74
     0
 42
0.000000001
 43
0.00000001
 40
0.0
 40
0.0
 40
0.0
 40
0.0
 40
0.1342139378014862
 40
0.6292340703379694
 40
0.8983426608925434
 40
1.0
 40
1.0
 40
1.0
 40
1.0
 10
590.8839916392986
 20
418.0973302990911
 30
0.0
 10
590.8903424203675
 20
418.0973302990911
 30
0.0
 10
590.9201167335812
 20
418.0973302990911
 30
0.0
 10
590.778189790184
 20
418.0973302990911
 30
0.0
 10
590.6057625157379
 20
418.0973302990911
 30
0.0
 10
590.4999301522162
 20
418.0973302990911
 30
0.0
 10
590.4709128245537
 20
418.0973302990911
 30
0.0
  0
SPLINE
  5
330
330
1F
100
AcDbEntity
  8
0
  6
CONTINUOUS
 62
     7
100
AcDbSpline
210
0.0
220
0.0
230
1.0
 70
    24
 71
     3
 72
    11
 73
     7
 74
     0
 42
0.000000001
 43
0.00000001
 40
0.0
 40
0.0
 40
0.0
 40
0.0
 40
0.1731215667565756
 40
0.4206260599793545
 40
0.6685484114883061
 40
1.0
 40
1.0
 40
1.0
 40
1.0
 10
588.3066942497913
 20
418.0973302990911
 30
0.0
 10
588.2527811506641
 20
418.0973302990911
 30
0.0
 10
588.1217908015584
 20
418.0973302990911
 30
0.0
 10
587.9710757628177
 20
418.0973302990911
 30
0.0
 10
587.8310664470379
 20
418.0973302990911
 30
0.0
 10
587.8287120323542
 20
418.0973302990911
 30
0.0
 10
587.8273651052092
 20
418.0973302990911
 30
0.0
  0
SPLINE
  5
331
330
1F
100
AcDbEntity
  8
0
  6
CONTINUOUS
 62
     7
100
AcDbSpline
210
0.0
220
0.0
230
1.0
 70
    24
 71
     3
 72
    13
 73
     9
 74
     0
 42
0.000000001
 43
0.00000001
 40
0.0
 40
0.0
 40
0.0
 40
0.0
 40
0.2992877195420507
 40
0.461990747311797
 40
0.6249687948776864
 40
0.7876682902267362
 40
0.9506459926549068
 40
1.0
 40
1.0
 40
1.0
 40
1.0
 10
654.0451282217924
 20
418.0973302990911
 30
0.0
 10
653.9136943870245
 20
418.0973302990911
 30
0.0
 10
653.7108086300033
 20
418.0973302990911
 30
0.0
 10
653.3425490277647
 20
418.0973302990911
 30
0.0
 10
653.0350687261613
 20
418.0973302990911
 30
0.0
 10
652.7198012342882
 20
418.0973302990911
 30
0.0
 10
652.4703909302228
 20
418.0973302990911
 30
0.0
 10
652.3475282441257
 20
418.0973302990911
 30
0.0
 10
652.3189702585165
 20
418.0973302990911
 30
0.0
  0
SPLINE
  5
332
330
1F
100
AcDbEntity
  8
0
  6
CONTINUOUS
 62
     7
100
AcDbSpline
210
0.0
220
0.0
230
1.0
 70
    24
 71
     3
 72
    10
 73
     6
 74
     0
 42
0.000000001
 43
0.00000001
 40
0.0
 40
0.0
 40
0.0
 40
0.0
 40
0.1389201014306328
 40
0.7600673055389111
 40
1.0
 40
1.0
 40
1.0
 40
1.0
 10
651.2464889839117
 20
418.0973302990911
 30
0.0
 10
651.2448967914078
 20
418.0973302990911
 30
0.0
 10
651.2361855001408
 20
418.0973302990911
 30
0.0
 10
651.2564450238197
 20
418.0973302990911
 30
0.0
 10
651.3232610435738
 20
418.0973302990911
 30
0.0
 10
651.3418787672941
 20
418.0973302990911
 30
0.0
  0
SPLINE
  5
333
330
1F
100
AcDbEntity
  8
0
  6
CONTINUOUS
 62
     7
100
AcDbSpline
210
0.0
220
0.0
230
1.0
 70
    24
 71
     3
 72
    18
 73
    14
 74
     0
 42
0.000000001
 43
0.00000001
 40
0.0
 40
0.0
 40
0.0
 40
0.0
 40
0.0295046800714695
 40
0.1071184578040396
 40
0.1846019907928973
 40
0.2622169255347326
 40
0.4047456030452384
 40
0.5472745941114177
 40
0.624758928420444
 40
0.7023736052574537
 40
0.7798551006963054
 40
0.8574700354381406
 40
1.0
 40
1.0
 40
1.0
 40
1.0
 10
496.1840370252553
 20
418.0973302990911
 30
0.0
 10
496.1860302738364
 20
418.0973302990911
 30
0.0
 10
496.1932668787918
 20
418.0973302990911
 30
0.0
 10
496.1374338877436
 20
418.0973302990911
 30
0.0
 10
496.0220182940091
 20
418.0973302990911
 30
0.0
 10
495.7943807833674
 20
418.0973302990911
 30
0.0
 10
495.4064019286391
 20
418.0973302990911
 30
0.0
 10
494.9256759323748
 20
418.0973302990911
 30
0.0
 10
494.5191472450826
 20
418.0973302990911
 30
0.0
 10
494.2059802682824
 20
418.0973302990911
 30
0.0
 10
493.9117143051666
 20
418.0973302990911
 30
0.0
 10
493.5684947268527
 20
418.0973302990911
 30
0.0
 10
493.3952870724006
 20
418.0973302990911
 30
0.0
 10
493.2831460192625
 20
418.0973302990911
 30
0.0
  0
SPLINE
  5
334
330
1F
100
AcDbEntity
  8
0
  6
CONTINUOUS
 62
     7
100
AcDbSpline
210
0.0
220
0.0
230
1.0
 70
    24
 71
     3
 72
    10
 73
     6
 74
     0
 42
0.000000001
 43
0.00000001
 40
0.0
 40
0.0
 40
0.0
 40
0.0
 40
0.4958726113632751
 40
0.7654451864461694
 40
1.0
 40
1.0
 40
1.0
 40
1.0
 10
567.7858637228434
 20
418.0973302990911
 30
0.0
 10
567.9773524037116
 20
418.0973302990911
 30
0.0
 10
568.2729405964665
 20
418.0973302990911
 30
0.0
 10
568.6646598509914
 20
418.0973302990911
 30
0.0
 10
568.8456006289613
 20
418.0973302990911
 30
0.0
 10
568.9297867521469
 20
418.0973302990911
 30
0.0
  0
SPLINE
  5
335
330
1F
100
AcDbEntity
  8
0
  6
CONTINUOUS
 62
     7
100
AcDbSpline
210
0.0
220
0.0
230
1.0
 70
    24
 71
     3
 72
    12
 73
     8
 74
     0
 42
0.000000001
 43
0.00000001
 40
0.0
 40
0.0
 40
0.0
 40
0.0
 40
0.0823046467935816
 40
0.3671620516681257
 40
0.6525013285089071
 40
0.9373575476593984
 40
1.0
 40
1.0
 40
1.0
 40
1.0
 10
569.8003470480268
 20
418.0973302990911
 30
0.0
 10
569.8050858938259
 20
418.0973302990911
 30
0.0
 10
569.8262259437977
 20
418.0973302990911
 30
0.0
 10
569.7654801077557
 20
418.0973302990911
 30
0.0
 10
569.6545404002978
 20
418.0973302990911
 30
0.0
 10
569.5344132184296
 20
418.0973302990911
 30
0.0
 10
569.442697315949
 20
418.0973302990911
 30
0.0
 10
569.426163989288
 20
418.0973302990911
 30
0.0
  0
SPLINE
  5
336
330
1F
100
AcDbEntity
  8
0
  6
CONTINUOUS
 62
     7
100
AcDbSpline
210
0.0
220
0.0
230
1.0
 70
    24
 71
     3
 72
     9
 73
     5
 74
     0
 42
0.000000001
 43
0.00000001
 40
0.0
 40
0.0
 40
0.0
 40
0.0
 40
0.0842380150477104
 40
1.0
 40
1.0
 40
1.0
 40
1.0
 10
566.8123634114687
 20
418.0973302990911
 30
0.0
 10
566.80491755933
 20
418.0973302990911
 30
0.0
 10
566.7165269184238
 20
418.0973302990911
 30
0.0
 10
566.7232587723498
 20
418.0973302990911
 30
0.0
 10
566.7294235482638
 20
418.0973302990911
 30
0.0
  0
SPLINE
  5
337
330
1F
100
AcDbEntity
  8
0
  6
CONTINUOUS
 62
     7
100
AcDbSpline
210
0.0
220
0.0
230
1.0
 70
    24
 71
     3
 72
     9
 73
     5
 74
     0
 42
0.000000001
 43
0.00000001
 40
0.0
 40
0.0
 40
0.0
 40
0.0
 40
0.2191806209223527
 40
1.0
 40
1.0
 40
1.0
 40
1.0
 10
567.1623730614607
 20
418.0973302990911
 30
0.0
 10
567.199501907272
 20
418.0973302990911
 30
0.0
 10
567.3689003041515
 20
418.0973302990911
 30
0.0
 10
567.6030416345922
 20
418.0973302990911
 30
0.0
 10
567.7858637228434
 20
418.0973302990911
 30
0.0
  0
SPLINE
  5
338
330
1F
100
AcDbEntity
  8
0
  6
CONTINUOUS
 62
     7
100
AcDbSpline
210
0.0
220
0.0
230
1.0
 70
    24
 71
     3
 72
    15
 73
    11
 74
     0
 42
0.000000001
 43
0.00000001
 40
0.0
 40
0.0
 40
0.0
 40
0.0
 40
0.0707108060356271
 40
0.2502356420325432
 40
0.4297618227488761
 40
0.5273573098099172
 40
0.6251174274546316
 40
0.7227130314841745
 40
0.8204740766317459
 40
1.0
 40
1.0
 40
1.0
 40
1.0
 10
611.0684806063597
 20
418.0973302990911
 30
0.0
 10
611.0675221339069
 20
418.0973302990911
 30
0.0
 10
611.0641302340968
 20
418.0973302990911
 30
0.0
 10
610.8962421081077
 20
418.0973302990911
 30
0.0
 10
610.5693135205056
 20
418.0973302990911
 30
0.0
 10
610.2263565490821
 20
418.0973302990911
 30
0.0
 10
609.9286622655244
 20
418.0973302990911
 30
0.0
 10
609.615109169924
 20
418.0973302990911
 30
0.0
 10
609.2056946486337
 20
418.0973302990911
 30
0.0
 10
608.928907588858
 20
418.0973302990911
 30
0.0
 10
608.7497053250496
 20
418.0973302990911
 30
0.0
  0
SPLINE
  5
339
330
1F
100
AcDbEntity
  8
0
  6
CONTINUOUS
 62
     7
100
AcDbSpline
210
0.0
220
0.0
230
1.0
 70
    24
 71
     3
 72
    12
 73
     8
 74
     0
 42
0.000000001
 43
0.00000001
 40
0.0
 40
0.0
 40
0.0
 40
0.0
 40
0.3593307737675084
 40
0.5546719831685131
 40
0.7503461969927049
 40
0.9456879102270349
 40
1.0
 40
1.0
 40
1.0
 40
1.0
 10
608.7497053250496
 20
418.0973302990911
 30
0.0
 10
608.5914836696894
 20
418.0973302990911
 30
0.0
 10
608.3472487592232
 20
418.0973302990911
 30
0.0
 10
608.1295775618952
 20
418.0973302990911
 30
0.0
 10
608.0203696270477
 20
418.0973302990911
 30
0.0
 10
607.9702311439994
 20
418.0973302990911
 30
0.0
 10
607.9790292241925
 20
418.0973302990911
 30
0.0
 10
607.9809432431881
 20
418.0973302990911
 30
0.0
  0
LINE
  5
33A
330
1F
100
AcDbEntity
  8
0
  6
CONTINUOUS
 62
     7
100
AcDbLine
 10
640.2918370023
 20
418.0973302991
 30
0.0
 11
639.997952576
 21
418.0973302991
 31
0.0
  0
SPLINE
  5
33B
330
1F
100
AcDbEntity
  8
0
  6
CONTINUOUS
 62
     7
100
AcDbSpline
210
0.0
220
0.0
230
1.0
 70
    24
 71
     3
 72
    12
 73
     8
 74
     0
 42
0.000000001
 43
0.00000001
 40
0.0
 40
0.0
 40
0.0
 40
0.0
 40
0.3278508531701312
 40
0.5060800184882156
 40
0.6846105557061146
 40
0.8628405690563974
 40
1.0
 40
1.0
 40
1.0
 40
1.0
 10
548.8618919208471
 20
418.0973302990911
 30
0.0
 10
549.020638425164
 20
418.0973302990911
 30
0.0
 10
549.2656841008506
 20
418.0973302990911
 30
0.0
 10
549.66351215572
 20
418.0973302990911
 30
0.0
 10
549.9798729262297
 20
418.0973302990911
 30
0.0
 10
550.2725768112888
 20
418.0973302990911
 30
0.0
 10
550.4447794187672
 20
418.0973302990911
 30
0.0
 10
550.5196684554045
 20
418.0973302990911
 30
0.0
  0
SPLINE
  5
33C
330
1F
100
AcDbEntity
  8
0
  6
CONTINUOUS
 62
     7
100
AcDbSpline
210
0.0
220
0.0
230
1.0
 70
    24
 71
     3
 72
     9
 73
     5
 74
     0
 42
0.000000001
 43
0.00000001
 40
0.0
 40
0.0
 40
0.0
 40
0.0
 40
0.1021338548630579
 40
1.0
 40
1.0
 40
1.0
 40
1.0
 10
548.4874592676584
 20
418.0973302990911
 30
0.0
 10
548.4949261843727
 20
418.0973302990911
 30
0.0
 10
548.5680353089066
 20
418.0973302990911
 30
0.0
 10
548.7228705762375
 20
418.0973302990911
 30
0.0
 10
548.8618919208471
 20
418.0973302990911
 30
0.0
  0
SPLINE
  5
33D
330
1F
100
AcDbEntity
  8
0
  6
CONTINUOUS
 62
     7
100
AcDbSpline
210
0.0
220
0.0
230
1.0
 70
    24
 71
     3
 72
    25
 73
    21
 74
     0
 42
0.000000001
 43
0.00000001
 40
0.0
 40
0.0
 40
0.0
 40
0.0
 40
0.0274364548022158
 40
0.0546476680125184
 40
0.0817899412313052
 40
0.1090207632063025
 40
0.1364961000418897
 40
0.2102726896150635
 40
0.2841744525454166
 40
0.3579510984384374
 40
0.4318529177794549
 40
0.4999545184739538
 40
0.5681800532115814
 40
0.6362816913065665
 40
0.7045072492713924
 40
0.7782838388471439
 40
0.8521856017749142
 40
0.9015565649593866
 40
0.9505183799664096
 40
1.0
 40
1.0
 40
1.0
 40
1.0
 10
680.303060996083
 20
418.0973302432117
 30
0.0
 10
680.2878779100431
 20
418.0973302432117
 30
0.0
 10
680.2576363846238
 20
418.0973302432117
 30
0.0
 10
680.2023057768517
 20
418.0973302432117
 30
0.0
 10
680.1400027951513
 20
418.0973302432117
 30
0.0
 10
680.069993069247
 20
418.0973302432117
 30
0.0
 10
679.9495053406368
 20
418.0973302432117
 30
0.0
 10
679.75981833107
 20
418.0973302432117
 30
0.0
 10
679.4818232461113
 20
418.0973302432117
 30
0.0
 10
679.1786292497043
 20
418.0973302432117
 30
0.0
 10
678.8701176668305
 20
418.0973302432117
 30
0.0
 10
678.5697225645151
 20
418.0973302432117
 30
0.0
 10
678.2881780433304
 20
418.0973302432117
 30
0.0
 10
678.0262746505374
 20
418.0973302432117
 30
0.0
 10
677.7884868875576
 20
418.0973302432117
 30
0.0
 10
677.5844865932994
 20
418.0973302432117
 30
0.0
 10
677.4467448210152
 20
418.0973302432117
 30
0.0
 10
677.3644103864362
 20
418.0973302432117
 30
0.0
 10
677.319966249732
 20
418.0973302432117
 30
0.0
 10
677.3146031586601
 20
418.0973302432117
 30
0.0
 10
677.3119074539185
 20
418.0973302432117
 30
0.0
  0
LINE
  5
33E
330
1F
100
AcDbEntity
  8
0
  6
CONTINUOUS
 62
     7
100
AcDbLine
 10
596.0435317412
 20
418.0973302991
 30
0.0
 11
596.0680115551
 21
418.0973302991
 31
0.0
  0
SPLINE
  5
33F
330
1F
100
AcDbEntity
  8
0
  6
CONTINUOUS
 62
     7
100
AcDbSpline
210
0.0
220
0.0
230
1.0
 70
    24
 71
     3
 72
     9
 73
     5
 74
     0
 42
0.000000001
 43
0.00000001
 40
0.0
 40
0.0
 40
0.0
 40
0.0
 40
0.2982472678669245
 40
1.0
 40
1.0
 40
1.0
 40
1.0
 10
595.6935314044182
 20
418.0973302990911
 30
0.0
 10
595.6378374800219
 20
418.0973302990911
 30
0.0
 10
595.4511000631308
 20
418.0973302990911
 30
0.0
 10
595.1922733454841
 20
418.0973302990911
 30
0.0
 10
595.0106409892265
 20
418.0973302990911
 30
0.0
  0
SPLINE
  5
340
330
1F
100
AcDbEntity
  8
0
  6
CONTINUOUS
 62
     7
100
AcDbSpline
210
0.0
220
0.0
230
1.0
 70
    24
 71
     3
 72
    10
 73
     6
 74
     0
 42
0.000000001
 43
0.00000001
 40
0.0
 40
0.0
 40
0.0
 40
0.0
 40
0.5311165404392997
 40
0.8198470222008238
 40
1.0
 40
1.0
 40
1.0
 40
1.0
 10
595.0106409892265
 20
418.0973302990911
 30
0.0
 10
594.819150018275
 20
418.0973302990911
 30
0.0
 10
594.5235589561269
 20
418.0973302990911
 30
0.0
 10
594.1565119970114
 20
418.0973302990911
 30
0.0
 10
593.9988881693685
 20
418.0973302990911
 30
0.0
 10
593.9383264213626
 20
418.0973302990911
 30
0.0
  0
SPLINE
  5
341
330
1F
100
AcDbEntity
  8
0
  6
CONTINUOUS
 62
     7
100
AcDbSpline
210
0.0
220
0.0
230
1.0
 70
    24
 71
     3
 72
    13
 73
     9
 74
     0
 42
0.000000001
 43
0.00000001
 40
0.0
 40
0.0
 40
0.0
 40
0.0
 40
0.0474908305052858
 40
0.2105108915722658
 40
0.3738078220816448
 40
0.5368286932916138
 40
0.7001256525036393
 40
1.0
 40
1.0
 40
1.0
 40
1.0
 10
592.9946498527949
 20
418.0973302990911
 30
0.0
 10
592.989854666947
 20
418.0973302990911
 30
0.0
 10
592.9685992195832
 20
418.0973302990911
 30
0.0
 10
593.0301369905962
 20
418.0973302990911
 30
0.0
 10
593.1379339486186
 20
418.0973302990911
 30
0.0
 10
593.3124880687894
 20
418.0973302990911
 30
0.0
 10
593.5960529342548
 20
418.0973302990911
 30
0.0
 10
593.8727696507948
 20
418.0973302990911
 30
0.0
 10
594.0519263550465
 20
418.0973302990911
 30
0.0
  0
SPLINE
  5
342
330
1F
100
AcDbEntity
  8
0
  6
CONTINUOUS
 62
     7
100
AcDbSpline
210
0.0
220
0.0
230
1.0
 70
    24
 71
     3
 72
    13
 73
     9
 74
     0
 42
0.000000001
 43
0.00000001
 40
0.0
 40
0.0
 40
0.0
 40
0.0
 40
0.2999900484823313
 40
0.4630738627321199
 40
0.6264333906312376
 40
0.7895161496904898
 40
0.9528764947142567
 40
1.0
 40
1.0
 40
1.0
 40
1.0
 10
573.9974854096596
 20
418.0973302990911
 30
0.0
 10
574.176644206647
 20
418.0973302990911
 30
0.0
 10
574.4531992343325
 20
418.0973302990911
 30
0.0
 10
574.7368020199755
 20
418.0973302990911
 30
0.0
 10
574.9113226830839
 20
418.0973302990911
 30
0.0
 10
575.019219795953
 20
418.0973302990911
 30
0.0
 10
575.0808207526429
 20
418.0973302990911
 30
0.0
 10
575.0596056508665
 20
418.0973302990911
 30
0.0
 10
575.0548559754913
 20
418.0973302990911
 30
0.0
  0
SPLINE
  5
343
330
1F
100
AcDbEntity
  8
0
  6
CONTINUOUS
 62
     7
100
AcDbSpline
210
0.0
220
0.0
230
1.0
 70
    24
 71
     3
 72
    10
 73
     6
 74
     0
 42
0.000000001
 43
0.00000001
 40
0.0
 40
0.0
 40
0.0
 40
0.0
 40
0.2340793049200646
 40
0.5041143347878092
 40
1.0
 40
1.0
 40
1.0
 40
1.0
 10
574.1835804238741
 20
418.0973302990911
 30
0.0
 10
574.0995045969278
 20
418.0973302990911
 30
0.0
 10
573.9184384852217
 20
418.0973302990911
 30
0.0
 10
573.5264119785023
 20
418.0973302990911
 30
0.0
 10
573.2304121318361
 20
418.0973302990911
 30
0.0
 10
573.0387707754795
 20
418.0973302990911
 30
0.0
  0
SPLINE
  5
344
330
1F
100
AcDbEntity
  8
0
  6
CONTINUOUS
 62
     7
100
AcDbSpline
210
0.0
220
0.0
230
1.0
 70
    24
 71
     3
 72
     9
 73
     5
 74
     0
 42
0.000000001
 43
0.00000001
 40
0.0
 40
0.0
 40
0.0
 40
0.0
 40
0.7809827668064169
 40
1.0
 40
1.0
 40
1.0
 40
1.0
 10
573.0387707754795
 20
418.0973302990911
 30
0.0
 10
572.8558119087103
 20
418.0973302990911
 30
0.0
 10
572.6215444260647
 20
418.0973302990911
 30
0.0
 10
572.4520059134146
 20
418.0973302990911
 30
0.0
 10
572.4148740574543
 20
418.0973302990911
 30
0.0
  0
SPLINE
  5
345
330
1F
100
AcDbEntity
  8
0
  6
CONTINUOUS
 62
     7
100
AcDbSpline
210
0.0
220
0.0
230
1.0
 70
    24
 71
     3
 72
     9
 73
     5
 74
     0
 42
0.000000001
 43
0.00000001
 40
0.0
 40
0.0
 40
0.0
 40
0.0
 40
0.9144686388015741
 40
1.0
 40
1.0
 40
1.0
 40
1.0
 10
571.9814942732279
 20
418.0973302990911
 30
0.0
 10
571.9753605659372
 20
418.0973302990911
 30
0.0
 10
571.9686531655625
 20
418.0973302990911
 30
0.0
 10
572.0572828579105
 20
418.0973302990911
 30
0.0
 10
572.0648634761397
 20
418.0973302990911
 30
0.0
  0
SPLINE
  5
346
330
1F
100
AcDbEntity
  8
0
  6
CONTINUOUS
 62
     7
100
AcDbSpline
210
0.0
220
0.0
230
1.0
 70
    24
 71
     3
 72
    25
 73
    21
 74
     0
 42
0.000000001
 43
0.00000001
 40
0.0
 40
0.0
 40
0.0
 40
0.0
 40
0.02743646901473
 40
0.05464769631974
 40
0.0817899835963944
 40
0.1090208196740222
 40
0.1364961707378316
 40
0.2102727985266938
 40
0.284174599728688
 40
0.3579512838339616
 40
0.431853141450174
 40
0.4999547774172848
 40
0.5681803474905948
 40
0.6362820208607628
 40
0.7045076141587739
 40
0.7782842419460934
 40
0.8521860431495353
 40
0.9015568628320594
 40
0.9505185337478322
 40
1.0
 40
1.0
 40
1.0
 40
1.0
 10
664.496860735983
 20
418.0973302432117
 30
0.0
 10
664.481677649942
 20
418.0973302432117
 30
0.0
 10
664.4514361245208
 20
418.0973302432117
 30
0.0
 10
664.3961055167473
 20
418.0973302432117
 30
0.0
 10
664.3338025350469
 20
418.0973302432117
 30
0.0
 10
664.2637928091447
 20
418.0973302432117
 30
0.0
 10
664.1433050805284
 20
418.0973302432117
 30
0.0
 10
663.9536180709631
 20
418.0973302432117
 30
0.0
 10
663.6756229860044
 20
418.0973302432117
 30
0.0
 10
663.3724289896026
 20
418.0973302432117
 30
0.0
 10
663.0639174067286
 20
418.0973302432117
 30
0.0
 10
662.7635223044141
 20
418.0973302432117
 30
0.0
 10
662.4819777832261
 20
418.0973302432117
 30
0.0
 10
662.2200743904314
 20
418.0973302432117
 30
0.0
 10
661.982286627458
 20
418.0973302432117
 30
0.0
 10
661.7782863331868
 20
418.0973302432117
 30
0.0
 10
661.6405446791576
 20
418.0973302432117
 30
0.0
 10
661.5582103540078
 20
418.0973302432117
 30
0.0
 10
661.5137662283672
 20
418.0973302432117
 30
0.0
 10
661.5084029787469
 20
418.0973302432117
 30
0.0
 10
661.5057071945334
 20
418.0973302432117
 30
0.0
  0
SPLINE
  5
347
330
1F
100
AcDbEntity
  8
0
  6
CONTINUOUS
 62
     7
100
AcDbSpline
210
0.0
220
0.0
230
1.0
 70
    24
 71
     3
 72
    10
 73
     6
 74
     0
 42
0.000000001
 43
0.00000001
 40
0.0
 40
0.0
 40
0.0
 40
0.0
 40
0.3411091997108791
 40
0.7801198312223543
 40
0.9999999999999999
 40
0.9999999999999999
 40
0.9999999999999999
 40
0.9999999999999999
 10
626.8292115583841
 20
418.0973302990911
 30
0.0
 10
626.8273026048323
 20
418.0973302990911
 30
0.0
 10
626.8229368107586
 20
418.0973302990911
 30
0.0
 10
626.7637478644926
 20
418.0973302990911
 30
0.0
 10
626.6890214780742
 20
418.0973302990911
 30
0.0
 10
626.6640843406145
 20
418.0973302990911
 30
0.0
  0
LINE
  5
348
330
1F
100
AcDbEntity
  8
0
  6
CONTINUOUS
 62
     7
100
AcDbLine
 10
483.7279179647
 20
418.0973302991
 30
0.0
 11
486.7670097902
 21
418.0973302991
 31
0.0
  0
SPLINE
  5
349
330
1F
100
AcDbEntity
  8
0
  6
CONTINUOUS
 62
     7
100
AcDbSpline
210
0.0
220
0.0
230
1.0
 70
    24
 71
     3
 72
    19
 73
    15
 74
     0
 42
0.000000001
 43
0.00000001
 40
0.0
 40
0.0
 40
0.0
 40
0.0
 40
0.0432517954046029
 40
0.1139894141238151
 40
0.1848475377802141
 40
0.2555858672415995
 40
0.3264436648361407
 40
0.4565653034111879
 40
0.5866866882183264
 40
0.65742458815417
 40
0.7282819828911293
 40
0.7990201532339575
 40
0.8698779838554525
 40
1.0
 40
1.0
 40
1.0
 40
1.0
 10
503.2207974746648
 20
418.0973302990911
 30
0.0
 10
503.2281044729731
 20
418.0973302990911
 30
0.0
 10
503.2473619499954
 20
418.0973302990911
 30
0.0
 10
503.1682212277069
 20
418.0973302990911
 30
0.0
 10
503.0395620741157
 20
418.0973302990911
 30
0.0
 10
502.849705982993
 20
418.0973302990911
 30
0.0
 10
502.5466666880115
 20
418.0973302990911
 30
0.0
 10
502.0899224307637
 20
418.0973302990911
 30
0.0
 10
501.5859469038846
 20
418.0973302990911
 30
0.0
 10
501.189601652229
 20
418.0973302990911
 30
0.0
 10
500.9006528260329
 20
418.0973302990911
 30
0.0
 10
500.6453035821989
 20
418.0973302990911
 30
0.0
 10
500.3684848095863
 20
418.0973302990911
 30
0.0
 10
500.2624719572541
 20
418.0973302990911
 30
0.0
 10
500.1938351943914
 20
418.0973302990911
 30
0.0
  0
SPLINE
  5
34A
330
1F
100
AcDbEntity
  8
0
  6
CONTINUOUS
 62
     7
100
AcDbSpline
210
0.0
220
0.0
230
1.0
 70
    24
 71
     3
 72
    19
 73
    15
 74
     0
 42
0.000000001
 43
0.00000001
 40
0.0
 40
0.0
 40
0.0
 40
0.0
 40
0.0220124122770513
 40
0.0943209163725876
 40
0.1667517468487897
 40
0.2390603423462726
 40
0.3114911694213485
 40
0.4445016700356527
 40
0.5775115162286488
 40
0.6498191786488889
 40
0.7222506501578863
 40
0.794558783732913
 40
0.8669899103488682
 40
1.0
 40
1.0
 40
1.0
 40
1.0
 10
520.887755747122
 20
418.0973302990911
 30
0.0
 10
520.8927974456803
 20
418.0973302990911
 30
0.0
 10
520.9144006040309
 20
418.0973302990911
 30
0.0
 10
520.8529404495802
 20
418.0973302990911
 30
0.0
 10
520.7449982631418
 20
418.0973302990911
 30
0.0
 10
520.5710049657432
 20
418.0973302990911
 30
0.0
 10
520.285772097405
 20
418.0973302990911
 30
0.0
 10
519.8434004019335
 20
418.0973302990911
 30
0.0
 10
519.3423689874332
 20
418.0973302990911
 30
0.0
 10
518.941080455668
 20
418.0973302990911
 30
0.0
 10
518.6442954332533
 20
418.0973302990911
 30
0.0
 10
518.3775977724678
 20
418.0973302990911
 30
0.0
 10
518.0823602326008
 20
418.0973302990911
 30
0.0
 10
517.9587541028585
 20
418.0973302990911
 30
0.0
 10
517.8787270143454
 20
418.0973302990911
 30
0.0
  0
LINE
  5
34B
330
1F
100
AcDbEntity
  8
0
  6
CONTINUOUS
 62
     7
100
AcDbLine
 10
648.1634238317
 20
418.0973302991
 30
0.0
 11
647.9873219088
 21
418.0973302991
 31
0.0
  0
SPLINE
  5
34C
330
1F
100
AcDbEntity
  8
0
  6
CONTINUOUS
 62
     7
100
AcDbSpline
210
0.0
220
0.0
230
1.0
 70
    24
 71
     3
 72
    10
 73
     6
 74
     0
 42
0.000000001
 43
0.00000001
 40
0.0
 40
0.0
 40
0.0
 40
0.0
 40
0.5933547565253227
 40
0.9159218012491832
 40
1.0
 40
1.0
 40
1.0
 40
1.0
 10
536.0178919091646
 20
418.0973302990911
 30
0.0
 10
536.1171606626684
 20
418.0973302990911
 30
0.0
 10
536.270395156059
 20
418.0973302990911
 30
0.0
 10
536.5252995341856
 20
418.0973302990911
 30
0.0
 10
536.6448343954879
 20
418.0973302990911
 30
0.0
 10
536.669549490494
 20
418.0973302990911
 30
0.0
  0
SPLINE
  5
34D
330
1F
100
AcDbEntity
  8
0
  6
CONTINUOUS
 62
     7
100
AcDbSpline
210
0.0
220
0.0
230
1.0
 70
    24
 71
     3
 72
    13
 73
     9
 74
     0
 42
0.000000001
 43
0.00000001
 40
0.0
 40
0.0
 40
0.0
 40
0.0
 40
0.2992880729098861
 40
0.4619896401862716
 40
0.624967065798811
 40
0.7876689578575723
 40
0.9506461566200208
 40
0.9999999999999999
 40
0.9999999999999999
 40
0.9999999999999999
 40
0.9999999999999999
 10
612.786256666464
 20
418.0973302990911
 30
0.0
 10
612.6547181275125
 20
418.0973302990911
 30
0.0
 10
612.4516714718607
 20
418.0973302990911
 30
0.0
 10
612.083120795637
 20
418.0973302990911
 30
0.0
 10
611.7753953503707
 20
418.0973302990911
 30
0.0
 10
611.4598765864963
 20
418.0973302990911
 30
0.0
 10
611.2102671072624
 20
418.0973302990911
 30
0.0
 10
611.0873066418807
 20
418.0973302990911
 30
0.0
 10
611.0587259337132
 20
418.0973302990911
 30
0.0
  0
SPLINE
  5
34E
330
1F
100
AcDbEntity
  8
0
  6
CONTINUOUS
 62
     7
100
AcDbSpline
210
0.0
220
0.0
230
1.0
 70
    24
 71
     3
 72
    12
 73
     8
 74
     0
 42
0.000000001
 43
0.00000001
 40
0.0
 40
0.0
 40
0.0
 40
0.0
 40
0.1261012659455232
 40
0.2886167304972225
 40
0.4514073378017144
 40
0.7503518883220274
 40
0.9999999999999999
 40
0.9999999999999999
 40
0.9999999999999999
 40
0.9999999999999999
 10
554.972282569093
 20
418.0973302990911
 30
0.0
 10
554.9738144511091
 20
418.0973302990911
 30
0.0
 10
554.9773205759341
 20
418.0973302990911
 30
0.0
 10
555.0575024980752
 20
418.0973302990911
 30
0.0
 10
555.2389505212543
 20
418.0973302990911
 30
0.0
 10
555.5576630127084
 20
418.0973302990911
 30
0.0
 10
555.8929783765432
 20
418.0973302990911
 30
0.0
 10
556.0455703690474
 20
418.0973302990911
 30
0.0
  0
SPLINE
  5
34F
330
1F
100
AcDbEntity
  8
0
  6
CONTINUOUS
 62
     7
100
AcDbSpline
210
0.0
220
0.0
230
1.0
 70
    24
 71
     3
 72
     9
 73
     5
 74
     0
 42
0.000000001
 43
0.00000001
 40
0.0
 40
0.0
 40
0.0
 40
0.0
 40
0.66945859453122
 40
1.0
 40
1.0
 40
1.0
 40
1.0
 10
577.8644741095428
 20
418.0973302990911
 30
0.0
 10
577.9297554074674
 20
418.0973302990911
 30
0.0
 10
578.0272689780719
 20
418.0973302990911
 30
0.0
 10
578.1413241585209
 20
418.0973302990911
 30
0.0
 10
578.1790241181676
 20
418.0973302990911
 30
0.0
  0
SPLINE
  5
350
330
1F
100
AcDbEntity
  8
0
  6
CONTINUOUS
 62
     7
100
AcDbSpline
210
0.0
220
0.0
230
1.0
 70
     8
 71
     3
 72
    36
 73
    32
 74
     0
 42
0.000000001
 43
0.00000001
 40
0.0
 40
0.0
 40
0.0
 40
0.0
 40
0.0312500000000002
 40
0.0312500000000002
 40
0.0625000000000005
 40
0.0625000000000005
 40
0.1250000000000005
 40
0.1250000000000005
 40
0.1875000000000006
 40
0.1875000000000006
 40
0.2500000000000006
 40
0.2500000000000006
 40
0.3750000000000006
 40
0.3750000000000006
 40
0.5000000000000006
 40
0.5000000000000006
 40
0.6250000000000006
 40
0.6250000000000006
 40
0.7500000000000006
 40
0.7500000000000006
 40
0.8125000000000004
 40
0.8125000000000004
 40
0.8750000000000003
 40
0.8750000000000003
 40
0.9062500000000002
 40
0.9062500000000002
 40
0.9375000000000001
 40
0.9375000000000001
 40
0.9687500000000001
 40
0.9687500000000001
 40
1.0
 40
1.0
 40
1.0
 40
1.0
 10
589.769268528891
 20
437.0973302432117
 30
0.0
 10
589.769268528891
 20
436.9641712457233
 30
0.0
 10
589.7148495914431
 20
436.838794081885
 30
0.0
 10
589.5559930841449
 20
436.6284611739641
 30
0.0
 10
589.4554715403344
 20
436.5430478740848
 30
0.0
 10
589.1297567332707
 20
436.3202796999805
 30
0.0
 10
588.8886959869218
 20
436.2198287567404
 30
0.0
 10
588.3922219050284
 20
436.0546401930818
 30
0.0
 10
588.1395715602001
 20
435.9937005251183
 30
0.0
 10
587.6323879975524
 20
435.8947143172797
 30
0.0
 10
587.3771472482694
 20
435.8569991338055
 30
0.0
 10
586.608404848512
 20
435.7654253238802
 30
0.0
 10
586.0917246615298
 20
435.732546787851
 30
0.0
 10
585.0559840379275
 20
435.6911347038984
 30
0.0
 10
584.5379730980371
 20
435.6830615943522
 30
0.0
 10
583.5017702485576
 20
435.6831722837252
 30
0.0
 10
582.9834032938084
 20
435.6913663293358
 30
0.0
 10
581.9480154826718
 20
435.733105917754
 30
0.0
 10
581.4302667956285
 20
435.7662116727077
 30
0.0
 10
580.6587180520776
 20
435.8588684922515
 30
0.0
 10
580.402036425986
 20
435.8971449639025
 30
0.0
 10
579.8937858286342
 20
435.9973593247144
 30
0.0
 10
579.6410338165887
 20
436.0592124343645
 30
0.0
 10
579.2737684826378
 20
436.1826472555284
 30
0.0
 10
579.1532959356263
 20
436.2289508307592
 30
0.0
 10
578.9182589915397
 20
436.3371938851004
 30
0.0
 10
578.8031173816272
 20
436.3993176320474
 30
0.0
 10
578.5894225556253
 20
436.5468440230521
 30
0.0
 10
578.4899526672368
 20
436.6322857475229
 30
0.0
 10
578.3343355470815
 20
436.8398770207389
 30
0.0
 10
578.280143235815
 20
436.9657495696173
 30
0.0
 10
578.280143235815
 20
437.0973302432117
 30
0.0
  0
SPLINE
  5
351
330
1F
100
AcDbEntity
  8
0
  6
CONTINUOUS
 62
     7
100
AcDbSpline
210
0.0
220
0.0
230
1.0
 70
    24
 71
     3
 72
    16
 73
    12
 74
     0
 42
0.000000001
 43
0.00000001
 40
0.0
 40
0.0
 40
0.0
 40
0.0
 40
0.04687484251279
 40
0.0938090406636833
 40
0.1408293211899401
 40
0.3203812341651414
 40
0.5000004483082494
 40
0.6795523620700447
 40
0.8591715762174041
 40
0.9296586271259396
 40
1.0
 40
1.0
 40
1.0
 40
1.0
 10
587.9301322905891
 20
435.5973302432117
 30
0.0
 10
587.8105489036418
 20
435.5973302432117
 30
0.0
 10
587.5712307063427
 20
435.5973302432117
 30
0.0
 10
587.2093291839085
 20
435.5973302432117
 30
0.0
 10
586.5033041729838
 20
435.5973302432117
 30
0.0
 10
585.4428627714675
 20
435.5973302432117
 30
0.0
 10
584.0249051815427
 20
435.5973302432117
 30
0.0
 10
582.6066375330046
 20
435.5973302432117
 30
0.0
 10
581.4852477457307
 20
435.5973302432117
 30
0.0
 10
580.6584845993957
 20
435.5973302432117
 30
0.0
 10
580.2988722497505
 20
435.5973302432117
 30
0.0
 10
580.1192520729633
 20
435.5973302432117
 30
0.0
  0
SPLINE
  5
352
330
1F
100
AcDbEntity
  8
0
  6
CONTINUOUS
 62
     7
100
AcDbSpline
210
0.0
220
0.0
230
1.0
 70
    24
 71
     3
 72
    10
 73
     6
 74
     0
 42
0.000000001
 43
0.00000001
 40
0.0
 40
0.0
 40
0.0
 40
0.0
 40
0.5000000000000002
 40
0.5000000000000002
 40
0.9999999999999999
 40
0.9999999999999999
 40
0.9999999999999999
 40
0.9999999999999999
 10
568.024705882353
 20
443.5973302432117
 30
0.0
 10
568.0247058823529
 20
443.5973302432117
 30
0.0
 10
569.7105002470803
 20
443.5973302432117
 30
0.0
 10
575.711494519656
 20
443.5973302432117
 30
0.0
 10
579.781362138353
 20
443.5973302432117
 30
0.0
 10
584.024705882353
 20
443.5973302432117
 30
0.0
  0
SPLINE
  5
353
330
1F
100
AcDbEntity
  8
0
  6
CONTINUOUS
 62
     7
100
AcDbSpline
210
0.0
220
0.0
230
1.0
 70
     8
 71
     3
 72
    22
 73
    18
 74
     0
 42
0.000000001
 43
0.00000001
 40
0.0
 40
0.0
 40
0.0
 40
0.0
 40
0.0312499999999997
 40
0.0312499999999997
 40
0.0624999999999993
 40
0.0624999999999993
 40
0.1249999999999999
 40
0.1249999999999999
 40
0.2500000000000001
 40
0.2500000000000001
 40
0.3750000000000003
 40
0.3750000000000003
 40
0.5000000000000003
 40
0.5000000000000003
 40
0.7500000000000001
 40
0.7500000000000001
 40
1.0
 40
1.0
 40
1.0
 40
1.0
 10
578.280143235815
 20
442.5973302432117
 30
0.0
 10
578.280143235815
 20
442.6624437134282
 30
0.0
 10
578.2996917378507
 20
442.7255234484824
 30
0.0
 10
578.3621533153439
 20
442.8373303985989
 30
0.0
 10
578.404827036175
 20
442.8870747571075
 30
0.0
 10
578.5450913714212
 20
443.0176073887158
 30
0.0
 10
578.6571338518056
 20
443.0841085039593
 30
0.0
 10
578.9994461929452
 20
443.2496939490402
 30
0.0
 10
579.2468642321137
 20
443.3201530916345
 30
0.0
 10
579.7412171065155
 20
443.4291580767717
 30
0.0
 10
579.9903742707066
 20
443.4663122498334
 30
0.0
 10
580.4907048958436
 20
443.5229607364769
 30
0.0
 10
580.7419214693404
 20
443.5420774461207
 30
0.0
 10
581.4973539578267
 20
443.5838130916054
 30
0.0
 10
582.0033074183375
 20
443.5913338889191
 30
0.0
 10
583.0139812205558
 20
443.5981839942262
 30
0.0
 10
583.5193463696155
 20
443.5973302432117
 30
0.0
 10
584.024705882353
 20
443.5973302432117
 30
0.0
  0
SPLINE
  5
354
330
1F
100
AcDbEntity
  8
0
  6
CONTINUOUS
 62
     7
100
AcDbSpline
210
0.0
220
0.0
230
1.0
 70
     8
 71
     3
 72
    22
 73
    18
 74
     0
 42
0.000000001
 43
0.00000001
 40
0.0
 40
0.0
 40
0.0
 40
0.0
 40
0.2500000000000003
 40
0.2500000000000003
 40
0.5000000000000006
 40
0.5000000000000006
 40
0.6250000000000006
 40
0.6250000000000006
 40
0.7500000000000004
 40
0.7500000000000004
 40
0.8750000000000002
 40
0.8750000000000002
 40
0.9375000000000002
 40
0.9375000000000002
 40
0.9687500000000002
 40
0.9687500000000002
 40
1.0
 40
1.0
 40
1.0
 40
1.0
 10
584.024705882353
 20
443.5973302432117
 30
0.0
 10
584.5308396599279
 20
443.5973302432117
 30
0.0
 10
585.0369767802381
 20
443.5981893001353
 30
0.0
 10
586.0492175160144
 20
443.5912969298786
 30
0.0
 10
586.5554056132032
 20
443.5837735569768
 30
0.0
 10
587.3134237184543
 20
443.5416758294164
 30
0.0
 10
587.5658872263188
 20
443.5223590601686
 30
0.0
 10
588.0686185064992
 20
443.4650090124678
 30
0.0
 10
588.3192857163698
 20
443.427251812444
 30
0.0
 10
588.8133066645951
 20
443.3172170395987
 30
0.0
 10
589.0570266523043
 20
443.2474008456805
 30
0.0
 10
589.3994295749291
 20
443.080061204082
 30
0.0
 10
589.5096228726626
 20
443.0136666550197
 30
0.0
 10
589.6472450679438
 20
442.8840728840589
 30
0.0
 10
589.6890524105287
 20
442.834776850343
 30
0.0
 10
589.7502792030241
 20
442.7238392344016
 30
0.0
 10
589.769268528891
 20
442.6615704923776
 30
0.0
 10
589.769268528891
 20
442.5973302432117
 30
0.0
  0
SPLINE
  5
355
330
1F
100
AcDbEntity
  8
0
  6
CONTINUOUS
 62
     7
100
AcDbSpline
210
0.0
220
0.0
230
1.0
 70
    24
 71
     3
 72
    10
 73
     6
 74
     0
 42
0.000000001
 43
0.00000001
 40
0.0
 40
0.0
 40
0.0
 40
0.0
 40
0.5
 40
0.5
 40
1.0
 40
1.0
 40
1.0
 40
1.0
 10
584.024705882353
 20
443.5973302432117
 30
0.0
 10
588.268049626353
 20
443.5973302432117
 30
0.0
 10
592.3379172450497
 20
443.5973302432117
 30
0.0
 10
598.3389115176255
 20
443.5973302432117
 30
0.0
 10
600.0247058823529
 20
443.5973302432117
 30
0.0
 10
600.024705882353
 20
443.5973302432117
 30
0.0
  0
LINE
  5
356
330
1F
100
AcDbEntity
  8
0
  6
CONTINUOUS
 62
     7
100
AcDbLine
 10
589.7692683667
 20
442.597330124
 30
0.0
 11
589.7692683667
 21
437.0973301538
 31
0.0
  0
LINE
  5
357
330
1F
100
AcDbEntity
  8
0
  6
CONTINUOUS
 62
     7
100
AcDbLine
 10
578.280143398
 20
437.0973301538
 30
0.0
 11
578.280143398
 21
442.597330124
 31
0.0
  0
SPLINE
  5
358
330
1F
100
AcDbEntity
  8
0
  6
CONTINUOUS
 62
     7
100
AcDbSpline
210
0.0
220
0.0
230
1.0
 70
     8
 71
     3
 72
    32
 73
    28
 74
     0
 42
0.000000001
 43
0.00000001
 40
0.0
 40
0.0
 40
0.0
 40
0.0
 40
0.062500000000001
 40
0.062500000000001
 40
0.125000000000002
 40
0.125000000000002
 40
0.1875000000000031
 40
0.1875000000000031
 40
0.2500000000000041
 40
0.2500000000000041
 40
0.3750000000000063
 40
0.3750000000000063
 40
0.4375000000000065
 40
0.4375000000000065
 40
0.5000000000000067
 40
0.5000000000000067
 40
0.5625000000000069
 40
0.5625000000000069
 40
0.6250000000000071
 40
0.6250000000000071
 40
0.7500000000000058
 40
0.7500000000000058
 40
0.8125000000000046
 40
0.8125000000000046
 40
0.8750000000000033
 40
0.8750000000000033
 40
1.0
 40
1.0
 40
1.0
 40
1.0
 10
567.024705882353
 20
442.2973302431261
 30
0.0
 10
567.024705882353
 20
442.2973302431258
 30
0.0
 10
567.0258912156761
 20
442.2867530859341
 30
0.0
 10
567.0304067230746
 20
442.2453706566292
 30
0.0
 10
567.033721693823
 20
442.2147085729984
 30
0.0
 10
567.0421566439443
 20
442.1329896053101
 30
0.0
 10
567.0472956684146
 20
442.0816727441403
 30
0.0
 10
567.0584510256698
 20
441.9623121480659
 30
0.0
 10
567.0645118973522
 20
441.8938882679541
 30
0.0
 10
567.0831910454941
 20
441.6608272901053
 30
0.0
 10
567.0957340650896
 20
441.4751305188948
 30
0.0
 10
567.1096262675818
 20
441.1602117431617
 30
0.0
 10
567.1133090131209
 20
441.0520892405088
 30
0.0
 10
567.1183642620101
 20
440.8296186075499
 30
0.0
 10
567.1197245616868
 20
440.7137996576457
 30
0.0
 10
567.1197564007906
 20
440.4850673767441
 30
0.0
 10
567.1184735070221
 20
440.3717641395056
 30
0.0
 10
567.1134575689389
 20
440.1472893991115
 30
0.0
 10
567.1097275284034
 20
440.0373685085885
 30
0.0
 10
567.0960529876015
 20
439.7255458602754
 30
0.0
 10
567.0833418663739
 20
439.5358734397646
 30
0.0
 10
567.0645864115311
 20
439.3016236618491
 30
0.0
 10
567.0584961776138
 20
439.2328391088228
 30
0.0
 10
567.0472850327161
 20
439.1128663138234
 30
0.0
 10
567.0421437538589
 20
439.0615458345779
 30
0.0
 10
567.0295279712701
 20
438.9393228784102
 30
0.0
 10
567.024705882353
 20
438.8973302432974
 30
0.0
 10
567.024705882353
 20
438.8973302432974
 30
0.0
  0
SPLINE
  5
359
330
1F
100
AcDbEntity
  8
0
  6
CONTINUOUS
 62
     7
100
AcDbSpline
210
0.0
220
0.0
230
1.0
 70
    24
 71
     3
 72
    14
 73
    10
 74
     0
 42
0.000000001
 43
0.00000001
 40
0.0
 40
0.0
 40
0.0
 40
0.0
 40
0.2499999999999999
 40
0.2499999999999999
 40
0.4999999999999999
 40
0.4999999999999999
 40
0.7499999999999999
 40
0.7499999999999999
 40
0.9999999999999999
 40
0.9999999999999999
 40
0.9999999999999999
 40
0.9999999999999999
 10
569.524705882353
 20
455.5973302432117
 30
0.0
 10
569.524705882353
 20
455.5973302432117
 30
0.0
 10
571.0524570253871
 20
455.5973302432117
 30
0.0
 10
576.490858084909
 20
455.5973302432117
 30
0.0
 10
580.1791756143531
 20
455.5973302432117
 30
0.0
 10
587.8702361503531
 20
455.5973302432117
 30
0.0
 10
591.558553679797
 20
455.5973302432117
 30
0.0
 10
596.9969547393189
 20
455.5973302432117
 30
0.0
 10
598.5247058823529
 20
455.5973302432117
 30
0.0
 10
598.5247058823529
 20
455.5973302432117
 30
0.0
  0
LINE
  5
35A
330
1F
100
AcDbEntity
  8
0
  6
CONTINUOUS
 62
     7
100
AcDbLine
 10
578.4569414846
 20
428.5973306232
 30
0.0
 11
578.4569414846
 21
435.5973299079
 31
0.0
  0
LINE
  5
35B
330
1F
100
AcDbEntity
  8
0
  6
CONTINUOUS
 62
     7
100
AcDbLine
 10
589.5924702801
 20
435.5973299079
 30
0.0
 11
587.9301141996
 21
435.5973299079
 31
0.0
  0
LINE
  5
35C
330
1F
100
AcDbEntity
  8
0
  6
CONTINUOUS
 62
     7
100
AcDbLine
 10
589.5924702801
 20
435.5973299079
 30
0.0
 11
589.5924702801
 21
428.5973306232
 31
0.0
  0
LINE
  5
35D
330
1F
100
AcDbEntity
  8
0
  6
CONTINUOUS
 62
     7
100
AcDbLine
 10
580.1192717209
 20
435.5973299079
 30
0.0
 11
578.4569414846
 21
435.5973299079
 31
0.0
  0
LINE
  5
35E
330
1F
100
AcDbEntity
  8
0
  6
CONTINUOUS
 62
     7
100
AcDbLine
 10
578.4569414846
 20
435.5973299079
 30
0.0
 11
568.0247051224
 21
435.5973299079
 31
0.0
  0
LINE
  5
35F
330
1F
100
AcDbEntity
  8
0
  6
CONTINUOUS
 62
     7
100
AcDbLine
 10
600.0247066423
 20
435.5973299079
 30
0.0
 11
589.5924702801
 21
435.5973299079
 31
0.0
  0
SPLINE
  5
360
330
1F
100
AcDbEntity
  8
0
  6
CONTINUOUS
 62
     7
100
AcDbSpline
210
0.0
220
0.0
230
1.0
 70
    24
 71
     3
 72
    25
 73
    21
 74
     0
 42
0.000000001
 43
0.00000001
 40
0.0
 40
0.0
 40
0.0
 40
0.0
 40
0.0241715181663069
 40
0.0481445984773676
 40
0.0720569426515962
 40
0.0960472982842802
 40
0.1202530715218407
 40
0.1852502509300318
 40
0.2503577080663761
 40
0.3153549370907591
 40
0.3804624439264465
 40
0.5000241647975906
 40
0.6195858856696026
 40
0.684583065077393
 40
0.7496905222164735
 40
0.814687751241354
 40
0.8797952580790267
 40
0.9199468418670803
 40
0.9598007488244769
 40
1.0
 40
1.0
 40
1.0
 40
1.0
 10
686.7581832034531
 20
418.0973302432117
 30
0.0
 10
686.7524540865032
 20
418.0973302432117
 30
0.0
 10
686.7410428862104
 20
418.0973302432117
 30
0.0
 10
686.7130465549867
 20
418.0973302432117
 30
0.0
 10
686.6771756473764
 20
418.0973302432117
 30
0.0
 10
686.6326470225807
 20
418.0973302432117
 30
0.0
 10
686.5503306277462
 20
418.0973302432117
 30
0.0
 10
686.4078024998377
 20
418.0973302432117
 30
0.0
 10
686.1770077206625
 20
418.0973302432117
 30
0.0
 10
685.9073412733201
 20
418.0973302432117
 30
0.0
 10
685.5254514899489
 20
418.0973302432117
 30
0.0
 10
685.021424426319
 20
418.0973302432117
 30
0.0
 10
684.5415639082808
 20
418.0973302432117
 30
0.0
 10
684.2064908019711
 20
418.0973302432117
 30
0.0
 10
683.9874564522572
 20
418.0973302432117
 30
0.0
 10
683.8182224098922
 20
418.0973302432117
 30
0.0
 10
683.7227643962399
 20
418.0973302432117
 30
0.0
 10
683.678578525996
 20
418.0973302432117
 30
0.0
 10
683.6650095108115
 20
418.0973302432117
 30
0.0
 10
683.676738057798
 20
418.0973302432117
 30
0.0
 10
683.682627629393
 20
418.0973302432117
 30
0.0
  0
SPLINE
  5
361
330
1F
100
AcDbEntity
  8
0
  6
CONTINUOUS
 62
     7
100
AcDbSpline
210
0.0
220
0.0
230
1.0
 70
    24
 71
     3
 72
    13
 73
     9
 74
     0
 42
0.000000001
 43
0.00000001
 40
0.0
 40
0.0
 40
0.0
 40
0.0
 40
0.2577764808890612
 40
0.3979105229989672
 40
0.5382838544679364
 40
0.6784187478899362
 40
0.8187909876352856
 40
1.0
 40
1.0
 40
1.0
 40
1.0
 10
669.8922300293867
 20
418.0973302990911
 30
0.0
 10
669.8471491186817
 20
418.0973302990911
 30
0.0
 10
669.7775610449596
 20
418.0973302990911
 30
0.0
 10
669.5408404199892
 20
418.0973302990911
 30
0.0
 10
669.3113380198702
 20
418.0973302990911
 30
0.0
 10
669.0412825362123
 20
418.0973302990911
 30
0.0
 10
668.7140091868929
 20
418.0973302990911
 30
0.0
 10
668.4699194862557
 20
418.0973302990911
 30
0.0
 10
668.3323764756148
 20
418.0973302990911
 30
0.0
  0
LINE
  5
362
330
1F
100
AcDbEntity
  8
0
  6
CONTINUOUS
 62
     7
100
AcDbLine
 10
635.4263620034
 20
418.0973302991
 30
0.0
 11
632.3819318369
 21
418.0973302991
 31
0.0
  0
LINE
  5
363
330
1F
100
AcDbEntity
  8
0
  6
CONTINUOUS
 62
     7
100
AcDbLine
 10
588.2005290642
 20
470.097329975
 30
0.0
 11
579.8488827005
 21
470.097329975
 31
0.0
  0
LINE
  5
364
330
1F
100
AcDbEntity
  8
0
  6
CONTINUOUS
 62
     7
100
AcDbLine
 10
588.2005290642
 20
476.5973319717
 30
0.0
 11
588.2005290642
 21
470.097329975
 31
0.0
  0
LINE
  5
365
330
1F
100
AcDbEntity
  8
0
  6
CONTINUOUS
 62
     7
100
AcDbLine
 10
596.0247059867
 20
476.5973319717
 30
0.0
 11
588.2005290642
 21
476.5973319717
 31
0.0
  0
LINE
  5
366
330
1F
100
AcDbEntity
  8
0
  6
CONTINUOUS
 62
     7
100
AcDbLine
 10
579.8488827005
 20
476.5973319717
 30
0.0
 11
572.024705778
 21
476.5973319717
 31
0.0
  0
LINE
  5
367
330
1F
100
AcDbEntity
  8
0
  6
CONTINUOUS
 62
     7
100
AcDbLine
 10
579.8488827005
 20
470.097329975
 30
0.0
 11
579.8488827005
 21
476.5973319717
 31
0.0
  0
SPLINE
  5
368
330
1F
100
AcDbEntity
  8
0
  6
CONTINUOUS
 62
     7
100
AcDbSpline
210
0.0
220
0.0
230
1.0
 70
    24
 71
     3
 72
    10
 73
     6
 74
     0
 42
0.000000001
 43
0.00000001
 40
0.0
 40
0.0
 40
0.0
 40
0.0
 40
0.3714443573452292
 40
0.8539001510389167
 40
1.0
 40
1.0
 40
1.0
 40
1.0
 10
597.9483397260134
 20
418.0973302990911
 30
0.0
 10
597.8677415728134
 20
418.0973302990911
 30
0.0
 10
597.6824573604412
 20
418.0973302990911
 30
0.0
 10
597.4571935182537
 20
418.0973302990911
 30
0.0
 10
597.3343624385661
 20
418.0973302990911
 30
0.0
 10
597.305811899883
 20
418.0973302990911
 30
0.0
  0
LINE
  5
369
330
1F
100
AcDbEntity
  8
0
  6
CONTINUOUS
 62
     7
100
AcDbLine
 10
581.639857921
 20
477.0973292597
 30
0.0
 11
572.52470586
 21
477.0973292597
 31
0.0
  0
SPLINE
  5
36A
330
1F
100
AcDbEntity
  8
0
  6
CONTINUOUS
 62
     7
100
AcDbSpline
210
0.0
220
0.0
230
1.0
 70
     8
 71
     3
 72
     8
 73
     4
 74
     0
 42
0.000000001
 43
0.00000001
 40
0.0
 40
0.0
 40
0.0
 40
0.0
 40
1.0
 40
1.0
 40
1.0
 40
1.0
 10
579.8488826106155
 20
476.5973302423113
 30
0.0
 10
580.435421862884
 20
476.801437263902
 30
0.0
 10
581.031554448392
 20
476.9711814403178
 30
0.0
 10
581.639857881503
 20
477.0973302425922
 30
0.0
  0
SPLINE
  5
36B
330
1F
100
AcDbEntity
  8
0
  6
CONTINUOUS
 62
     7
100
AcDbSpline
210
0.0
220
0.0
230
1.0
 70
     8
 71
     3
 72
     8
 73
     4
 74
     0
 42
0.000000001
 43
0.00000001
 40
0.0
 40
0.0
 40
0.0
 40
0.0
 40
1.0
 40
1.0
 40
1.0
 40
1.0
 10
586.4095538855053
 20
477.097330243146
 30
0.0
 10
587.0178573179122
 20
476.9711814408668
 30
0.0
 10
587.6139899026832
 20
476.8014372645156
 30
0.0
 10
588.2005291542877
 20
476.5973302431158
 30
0.0
  0
LINE
  5
36C
330
1F
100
AcDbEntity
  8
0
  6
CONTINUOUS
 62
     7
100
AcDbLine
 10
581.639857921
 20
477.0973292597
 30
0.0
 11
586.4095538437
 21
477.0973292597
 31
0.0
  0
LINE
  5
36D
330
1F
100
AcDbEntity
  8
0
  6
CONTINUOUS
 62
     7
100
AcDbLine
 10
595.5247059047
 20
477.0973292597
 30
0.0
 11
586.4095538437
 21
477.0973292597
 31
0.0
  0
LINE
  5
36E
330
1F
100
AcDbEntity
  8
0
  6
CONTINUOUS
 62
     7
100
AcDbLine
 10
567.0247049585
 20
442.2973306336
 30
0.0
 11
567.0247049585
 21
438.8973308214
 31
0.0
  0
LINE
  5
36F
330
1F
100
AcDbEntity
  8
0
  6
CONTINUOUS
 62
     7
100
AcDbLine
 10
619.5759372368
 20
418.0973302991
 30
0.0
 11
619.46722209
 21
418.0973302991
 31
0.0
  0
SPLINE
  5
370
330
1F
100
AcDbEntity
  8
0
  6
CONTINUOUS
 62
     7
100
AcDbSpline
210
0.0
220
0.0
230
1.0
 70
    24
 71
     3
 72
    14
 73
    10
 74
     0
 42
0.000000001
 43
0.00000001
 40
0.0
 40
0.0
 40
0.0
 40
0.0
 40
0.1462115363407825
 40
0.3506453898476029
 40
0.4617817120044601
 40
0.5731062422380231
 40
0.6842417847341328
 40
0.7955667068455902
 40
1.0
 40
1.0
 40
1.0
 40
1.0
 10
618.4330889537756
 20
418.0973302990911
 30
0.0
 10
618.2977463531
 20
418.0973302990911
 30
0.0
 10
617.9731669104336
 20
418.0973302990911
 30
0.0
 10
617.5278872091702
 20
418.0973302990911
 30
0.0
 10
617.1671213838098
 20
418.0973302990911
 30
0.0
 10
616.9201837958523
 20
418.0973302990911
 30
0.0
 10
616.7196873976229
 20
418.0973302990911
 30
0.0
 10
616.5264846768179
 20
418.0973302990911
 30
0.0
 10
616.4943072976034
 20
418.0973302990911
 30
0.0
 10
616.4734744980757
 20
418.0973302990911
 30
0.0
  0
SPLINE
  5
371
330
1F
100
AcDbEntity
  8
0
  6
CONTINUOUS
 62
     7
100
AcDbSpline
210
0.0
220
0.0
230
1.0
 70
    24
 71
     3
 72
    10
 73
     6
 74
     0
 42
0.000000001
 43
0.00000001
 40
0.0
 40
0.0
 40
0.0
 40
0.0
 40
0.5
 40
0.5
 40
1.0
 40
1.0
 40
1.0
 40
1.0
 10
534.574705882353
 20
418.0973302432117
 30
0.0
 10
534.574705882353
 20
418.0973302432117
 30
0.0
 10
533.8801741477338
 20
418.0973302432117
 30
0.0
 10
532.1692376169722
 20
418.0973302432117
 30
0.0
 10
531.474705882353
 20
418.0973302432117
 30
0.0
 10
531.474705882353
 20
418.0973302432117
 30
0.0
  0
SPLINE
  5
372
330
1F
100
AcDbEntity
  8
0
  6
CONTINUOUS
 62
     7
100
AcDbSpline
210
0.0
220
0.0
230
1.0
 70
    24
 71
     3
 72
    25
 73
    21
 74
     0
 42
0.000000001
 43
0.00000001
 40
0.0
 40
0.0
 40
0.0
 40
0.0
 40
0.0241715181658792
 40
0.0481445984767688
 40
0.0720569426510778
 40
0.0960472982840868
 40
0.1202530715222041
 40
0.1852502509301479
 40
0.2503577080680379
 40
0.3153549370924069
 40
0.3804624439293762
 40
0.5000241648009213
 40
0.619585885672469
 40
0.6845830650789216
 40
0.7496905222182363
 40
0.8146877512397935
 40
0.8797952580795823
 40
0.9199468418657059
 40
0.9598007488228878
 40
1.0
 40
1.0
 40
1.0
 40
1.0
 10
500.574705882353
 20
418.0973302432117
 30
0.0
 10
500.5738772061071
 20
418.0973302432117
 30
0.0
 10
500.5722266566939
 20
418.0973302432117
 30
0.0
 10
500.5586701260032
 20
418.0973302432117
 30
0.0
 10
500.5369710899654
 20
418.0973302432117
 30
0.0
 10
500.5063404802442
 20
418.0973302432117
 30
0.0
 10
500.4452135902245
 20
418.0973302432117
 30
0.0
 10
500.3298358334032
 20
418.0973302432117
 30
0.0
 10
500.1282903436983
 20
418.0973302432117
 30
0.0
 10
499.8819634666415
 20
418.0973302432117
 30
0.0
 10
499.5206456499996
 20
418.0973302432117
 30
0.0
 10
499.0247069582931
 20
418.0973302432117
 30
0.0
 10
498.5289426420344
 20
418.0973302432117
 30
0.0
 10
498.1676070616015
 20
418.0973302432117
 30
0.0
 10
497.9213689901515
 20
418.0973302432117
 30
0.0
 10
497.7196915550323
 20
418.0973302432117
 30
0.0
 10
497.5922795387464
 20
418.0973302432117
 30
0.0
 10
497.5194659192425
 20
418.0973302432117
 30
0.0
 10
497.4815647028555
 20
418.0973302432117
 30
0.0
 10
497.4769987216378
 20
418.0973302432117
 30
0.0
 10
497.474705882353
 20
418.0973302432117
 30
0.0
  0
SPLINE
  5
373
330
1F
100
AcDbEntity
  8
0
  6
CONTINUOUS
 62
     7
100
AcDbSpline
210
0.0
220
0.0
230
1.0
 70
    24
 71
     3
 72
    25
 73
    21
 74
     0
 42
0.000000001
 43
0.00000001
 40
0.0
 40
0.0
 40
0.0
 40
0.0
 40
0.0241715181658784
 40
0.0481445984767672
 40
0.0720569426510754
 40
0.0960472982840836
 40
0.1202530715222001
 40
0.1852502509301417
 40
0.2503577080680295
 40
0.3153549370928065
 40
0.3804624439293807
 40
0.5000241648009217
 40
0.6195858856724654
 40
0.6845830650785237
 40
0.7496905222182454
 40
0.8146877512418688
 40
0.8797952580796726
 40
0.9199468418675406
 40
0.9598007488247217
 40
1.0
 40
1.0
 40
1.0
 40
1.0
 10
517.574705882353
 20
418.0973302432117
 30
0.0
 10
517.5738772061071
 20
418.0973302432117
 30
0.0
 10
517.5722266566939
 20
418.0973302432117
 30
0.0
 10
517.5586701260032
 20
418.0973302432117
 30
0.0
 10
517.5369710899655
 20
418.0973302432117
 30
0.0
 10
517.5063404802443
 20
418.0973302432117
 30
0.0
 10
517.4452135902245
 20
418.0973302432117
 30
0.0
 10
517.3298358334031
 20
418.0973302432117
 30
0.0
 10
517.1282903436978
 20
418.0973302432117
 30
0.0
 10
516.8819634666413
 20
418.0973302432117
 30
0.0
 10
516.5206456499988
 20
418.0973302432117
 30
0.0
 10
516.024706958293
 20
418.0973302432117
 30
0.0
 10
515.5289426420353
 20
418.0973302432117
 30
0.0
 10
515.1676070616015
 20
418.0973302432117
 30
0.0
 10
514.9213689901501
 20
418.0973302432117
 30
0.0
 10
514.7196915550277
 20
418.0973302432117
 30
0.0
 10
514.5922795387432
 20
418.0973302432117
 30
0.0
 10
514.519465919244
 20
418.0973302432117
 30
0.0
 10
514.4815647028557
 20
418.0973302432117
 30
0.0
 10
514.4769987216379
 20
418.0973302432117
 30
0.0
 10
514.474705882353
 20
418.0973302432117
 30
0.0
  0
SPLINE
  5
374
330
1F
100
AcDbEntity
  8
0
  6
CONTINUOUS
 62
     7
100
AcDbSpline
210
0.0
220
0.0
230
1.0
 70
    24
 71
     3
 72
    14
 73
    10
 74
     0
 42
0.000000001
 43
0.00000001
 40
0.0
 40
0.0
 40
0.0
 40
0.0
 40
0.2100981172649513
 40
0.3243125542412955
 40
0.4387226118688744
 40
0.5529364802916484
 40
0.6673467977841437
 40
0.8774434464004315
 40
1.0
 40
1.0
 40
1.0
 40
1.0
 10
653.5747060134833
 20
418.0973302990911
 30
0.0
 10
653.5538881109583
 20
418.0973302990911
 30
0.0
 10
653.5217530912365
 20
418.0973302990911
 30
0.0
 10
653.3287918294666
 20
418.0973302990911
 30
0.0
 10
653.128602013299
 20
418.0973302990911
 30
0.0
 10
652.8817583478825
 20
418.0973302990911
 30
0.0
 10
652.5213686867429
 20
418.0973302990911
 30
0.0
 10
652.1018348925436
 20
418.0973302990911
 30
0.0
 10
651.8022614173278
 20
418.0973302990911
 30
0.0
 10
651.6918921425764
 20
418.0973302990911
 30
0.0
  0
SPLINE
  5
375
330
1F
100
AcDbEntity
  8
0
  6
CONTINUOUS
 62
     7
100
AcDbSpline
210
0.0
220
0.0
230
1.0
 70
    24
 71
     3
 72
    11
 73
     7
 74
     0
 42
0.000000001
 43
0.00000001
 40
0.0
 40
0.0
 40
0.0
 40
0.0
 40
0.0710154338301368
 40
0.3128638004308876
 40
0.5551222022816094
 40
1.0
 40
1.0
 40
1.0
 40
1.0
 10
651.0005378678267
 20
418.0973302990911
 30
0.0
 10
650.976159236069
 20
418.0973302990911
 30
0.0
 10
650.8687573521457
 20
418.0973302990911
 30
0.0
 10
650.7226146882194
 20
418.0973302990911
 30
0.0
 10
650.5267263662129
 20
418.0973302990911
 30
0.0
 10
650.495149646556
 20
418.0973302990911
 30
0.0
 10
650.4747056916182
 20
418.0973302990911
 30
0.0
  0
SPLINE
  5
376
330
1F
100
AcDbEntity
  8
0
  6
CONTINUOUS
 62
     7
100
AcDbSpline
210
0.0
220
0.0
230
1.0
 70
    24
 71
     3
 72
    25
 73
    21
 74
     0
 42
0.000000001
 43
0.00000001
 40
0.0
 40
0.0
 40
0.0
 40
0.0
 40
0.0241715181665383
 40
0.0481445984777553
 40
0.0720569426520644
 40
0.0960472982847537
 40
0.1202530715222491
 40
0.1852502509311833
 40
0.2503577080680353
 40
0.315354937092403
 40
0.380462443929371
 40
0.5000241648009136
 40
0.619585885672459
 40
0.6845830650785182
 40
0.7496905222182407
 40
0.8146877512429047
 40
0.8797952580797149
 40
0.9199468418684517
 40
0.9598007488256328
 40
1.0
 40
1.0
 40
1.0
 40
1.0
 10
483.574705882353
 20
418.0973302432117
 30
0.0
 10
483.5738772061072
 20
418.0973302432117
 30
0.0
 10
483.5722266566939
 20
418.0973302432117
 30
0.0
 10
483.5586701260033
 20
418.0973302432117
 30
0.0
 10
483.5369710899656
 20
418.0973302432117
 30
0.0
 10
483.5063404802445
 20
418.0973302432117
 30
0.0
 10
483.4452135902227
 20
418.0973302432117
 30
0.0
 10
483.3298358334009
 20
418.0973302432117
 30
0.0
 10
483.1282903436973
 20
418.0973302432117
 30
0.0
 10
482.8819634666414
 20
418.0973302432117
 30
0.0
 10
482.5206456499996
 20
418.0973302432117
 30
0.0
 10
482.0247069582929
 20
418.0973302432117
 30
0.0
 10
481.5289426420354
 20
418.0973302432117
 30
0.0
 10
481.1676070616014
 20
418.0973302432117
 30
0.0
 10
480.9213689901491
 20
418.0973302432117
 30
0.0
 10
480.7196915550255
 20
418.0973302432117
 30
0.0
 10
480.5922795387415
 20
418.0973302432117
 30
0.0
 10
480.5194659192447
 20
418.0973302432117
 30
0.0
 10
480.481564702856
 20
418.0973302432117
 30
0.0
 10
480.4769987216379
 20
418.0973302432117
 30
0.0
 10
480.474705882353
 20
418.0973302432117
 30
0.0
  0
SPLINE
  5
377
330
1F
100
AcDbEntity
  8
0
  6
CONTINUOUS
 62
     7
100
AcDbSpline
210
0.0
220
0.0
230
1.0
 70
    24
 71
     3
 72
    10
 73
     6
 74
     0
 42
0.000000001
 43
0.00000001
 40
0.0
 40
0.0
 40
0.0
 40
0.0
 40
0.4885407902024173
 40
0.7541258247752511
 40
1.0
 40
1.0
 40
1.0
 40
1.0
 10
568.5747060507362
 20
418.0973302990911
 30
0.0
 10
568.5534041474821
 20
418.0973302990911
 30
0.0
 10
568.5205219077942
 20
418.0973302990911
 30
0.0
 10
568.3349795504118
 20
418.0973302990911
 30
0.0
 10
568.2005147423589
 20
418.0973302990911
 30
0.0
 10
568.1358733728354
 20
418.0973302990911
 30
0.0
  0
SPLINE
  5
378
330
1F
100
AcDbEntity
  8
0
  6
CONTINUOUS
 62
     7
100
AcDbSpline
210
0.0
220
0.0
230
1.0
 70
    24
 71
     3
 72
    13
 73
     9
 74
     0
 42
0.000000001
 43
0.00000001
 40
0.0
 40
0.0
 40
0.0
 40
0.0
 40
0.013971317404818
 40
0.1827287073746975
 40
0.3517719351953454
 40
0.5205291824312429
 40
0.6895730025620749
 40
1.0
 40
1.0
 40
1.0
 40
1.0
 10
566.4798384114926
 20
418.0973302990911
 30
0.0
 10
566.4712515852825
 20
418.0973302990911
 30
0.0
 10
566.3589458085021
 20
418.0973302990911
 30
0.0
 10
566.1697654207308
 20
418.0973302990911
 30
0.0
 10
565.920538550578
 20
418.0973302990911
 30
0.0
 10
565.7208597509724
 20
418.0973302990911
 30
0.0
 10
565.5276075231365
 20
418.0973302990911
 30
0.0
 10
565.4954965088717
 20
418.0973302990911
 30
0.0
 10
565.4747066601936
 20
418.0973302990911
 30
0.0
  0
SPLINE
  5
379
330
1F
100
AcDbEntity
  8
0
  6
CONTINUOUS
 62
     7
100
AcDbSpline
210
0.0
220
0.0
230
1.0
 70
    24
 71
     3
 72
     9
 73
     5
 74
     0
 42
0.000000001
 43
0.00000001
 40
0.0
 40
0.0
 40
0.0
 40
0.0
 40
0.361743242570674
 40
0.9999999999999999
 40
0.9999999999999999
 40
0.9999999999999999
 40
0.9999999999999999
 10
596.6787347152655
 20
418.0973302990911
 30
0.0
 10
596.7378151040198
 20
418.0973302990911
 30
0.0
 10
596.9011364375006
 20
418.0973302990911
 30
0.0
 10
597.1481523344576
 20
418.0973302990911
 30
0.0
 10
597.305811899883
 20
418.0973302990911
 30
0.0
  0
SPLINE
  5
37A
330
1F
100
AcDbEntity
  8
0
  6
CONTINUOUS
 62
     7
100
AcDbSpline
210
0.0
220
0.0
230
1.0
 70
    24
 71
     3
 72
     9
 73
     5
 74
     0
 42
0.000000001
 43
0.00000001
 40
0.0
 40
0.0
 40
0.0
 40
0.0
 40
0.1679185656174912
 40
1.0
 40
1.0
 40
1.0
 40
1.0
 10
578.4018351279025
 20
418.0973302990911
 30
0.0
 10
578.3886988992858
 20
418.0973302990911
 30
0.0
 10
578.3104691420916
 20
418.0973302990911
 30
0.0
 10
578.2386720299585
 20
418.0973302990911
 30
0.0
 10
578.1789309859101
 20
418.0973302990911
 30
0.0
  0
SPLINE
  5
37B
330
1F
100
AcDbEntity
  8
0
  6
CONTINUOUS
 62
     7
100
AcDbSpline
210
0.0
220
0.0
230
1.0
 70
    24
 71
     3
 72
     9
 73
     5
 74
     0
 42
0.000000001
 43
0.00000001
 40
0.0
 40
0.0
 40
0.0
 40
0.0
 40
0.8532718566116608
 40
1.0
 40
1.0
 40
1.0
 40
1.0
 10
569.1717825412576
 20
418.0973302990911
 30
0.0
 10
569.1071794372294
 20
418.0973302990911
 30
0.0
 10
569.0314672201589
 20
418.0973302990911
 30
0.0
 10
568.9427768434007
 20
418.0973302990911
 30
0.0
 10
568.9297634690826
 20
418.0973302990911
 30
0.0
  0
SPLINE
  5
37C
330
1F
100
AcDbEntity
  8
0
  6
CONTINUOUS
 62
     7
100
AcDbSpline
210
0.0
220
0.0
230
1.0
 70
    24
 71
     3
 72
    10
 73
     6
 74
     0
 42
0.000000001
 43
0.00000001
 40
0.0
 40
0.0
 40
0.0
 40
0.0
 40
0.0958204845129726
 40
0.4146000432597258
 40
1.0
 40
1.0
 40
1.0
 40
1.0
 10
588.3065382532601
 20
418.0973302990911
 30
0.0
 10
588.3284346590244
 20
418.0973302990911
 30
0.0
 10
588.4231769348884
 20
418.0973302990911
 30
0.0
 10
588.7096530379586
 20
418.0973302990911
 30
0.0
 10
589.003433687706
 20
418.0973302990911
 30
0.0
 10
589.1936383724038
 20
418.0973302990911
 30
0.0
  0
SPLINE
  5
37D
330
1F
100
AcDbEntity
  8
0
  6
CONTINUOUS
 62
     7
100
AcDbSpline
210
0.0
220
0.0
230
1.0
 70
    24
 71
     3
 72
    11
 73
     7
 74
     0
 42
0.000000001
 43
0.00000001
 40
0.0
 40
0.0
 40
0.0
 40
0.0
 40
0.4118984441599691
 40
0.6358185824131238
 40
0.8601185707825448
 40
1.0
 40
1.0
 40
1.0
 40
1.0
 10
589.1936383724038
 20
418.0973302990911
 30
0.0
 10
589.3898856798804
 20
418.0973302990911
 30
0.0
 10
589.6928188096634
 20
418.0973302990911
 30
0.0
 10
590.0705623559464
 20
418.0973302990911
 30
0.0
 10
590.3081471717937
 20
418.0973302990911
 30
0.0
 10
590.4258857075673
 20
418.0973302990911
 30
0.0
 10
590.4711088679556
 20
418.0973302990911
 30
0.0
  0
SPLINE
  5
37E
330
1F
100
AcDbEntity
  8
0
  6
CONTINUOUS
 62
     7
100
AcDbSpline
210
0.0
220
0.0
230
1.0
 70
    24
 71
     3
 72
     9
 73
     5
 74
     0
 42
0.000000001
 43
0.00000001
 40
0.0
 40
0.0
 40
0.0
 40
0.0
 40
0.5117173035586036
 40
1.0
 40
1.0
 40
1.0
 40
1.0
 10
622.9366818025534
 20
418.0973302990911
 30
0.0
 10
623.007917032312
 20
418.0973302990911
 30
0.0
 10
623.1471252030408
 20
418.0973302990911
 30
0.0
 10
623.336522059478
 20
418.0973302990911
 30
0.0
 10
623.4290012672369
 20
418.0973302990911
 30
0.0
  0
SPLINE
  5
37F
330
1F
100
AcDbEntity
  8
0
  6
CONTINUOUS
 62
     7
100
AcDbSpline
210
0.0
220
0.0
230
1.0
 70
    24
 71
     3
 72
     9
 73
     5
 74
     0
 42
0.000000001
 43
0.00000001
 40
0.0
 40
0.0
 40
0.0
 40
0.0
 40
0.3617441555341291
 40
1.0
 40
1.0
 40
1.0
 40
1.0
 10
665.445179636759
 20
418.0973302990911
 30
0.0
 10
665.5042603235894
 20
418.0973302990911
 30
0.0
 10
665.6675820688799
 20
418.0973302990911
 30
0.0
 10
665.9145982386597
 20
418.0973302990911
 30
0.0
 10
666.0722577526991
 20
418.0973302990911
 30
0.0
  0
SPLINE
  5
380
330
1F
100
AcDbEntity
  8
0
  6
CONTINUOUS
 62
     7
100
AcDbSpline
210
0.0
220
0.0
230
1.0
 70
    24
 71
     3
 72
    10
 73
     6
 74
     0
 42
0.000000001
 43
0.00000001
 40
0.0
 40
0.0
 40
0.0
 40
0.0
 40
0.227281032972787
 40
0.499715931397803
 40
0.9999999999999999
 40
0.9999999999999999
 40
0.9999999999999999
 40
0.9999999999999999
 10
585.1535220445891
 20
418.0973302990911
 30
0.0
 10
585.211742678672
 20
418.0973302990911
 30
0.0
 10
585.3397506255153
 20
418.0973302990911
 30
0.0
 10
585.5202212903959
 20
418.0973302990911
 30
0.0
 10
585.5532937268606
 20
418.0973302990911
 30
0.0
 10
585.5747059268703
 20
418.0973302990911
 30
0.0
  0
LINE
  5
381
330
1F
100
AcDbEntity
  8
0
  6
CONTINUOUS
 62
     8
100
AcDbLine
 10
577.5101896889
 20
418.2973301922
 30
0.0
 11
575.8700724274
 21
418.2973301922
 31
0.0
  0
LINE
  5
382
330
1F
100
AcDbEntity
  8
0
  6
CONTINUOUS
 62
     8
100
AcDbLine
 10
579.3700730011
 20
418.2973301922
 30
0.0
 11
577.5101896889
 21
418.2973301922
 31
0.0
  0
LINE
  5
383
330
1F
100
AcDbEntity
  8
0
  6
CONTINUOUS
 62
     8
100
AcDbLine
 10
603.4655170098
 20
418.2973301922
 30
0.0
 11
601.3876003727
 21
418.2973301922
 31
0.0
  0
LINE
  5
384
330
1F
100
AcDbEntity
  8
0
  6
CONTINUOUS
 62
     8
100
AcDbLine
 10
604.8876000151
 20
418.2973301922
 30
0.0
 11
603.4655170098
 21
418.2973301922
 31
0.0
  0
LINE
  5
385
330
1F
100
AcDbEntity
  8
0
  6
CONTINUOUS
 62
     8
100
AcDbLine
 10
551.9641944721
 20
418.2973301922
 30
0.0
 11
550.7549726918
 21
418.2973301922
 31
0.0
  0
LINE
  5
386
330
1F
100
AcDbEntity
  8
0
  6
CONTINUOUS
 62
     8
100
AcDbLine
 10
554.2549723342
 20
418.2973301922
 30
0.0
 11
551.9641944721
 21
418.2973301922
 31
0.0
  0
LINE
  5
387
330
1F
100
AcDbEntity
  8
0
  6
CONTINUOUS
 62
     8
100
AcDbLine
 10
628.1993062749
 20
418.2973301922
 30
0.0
 11
625.7041925147
 21
418.2973301922
 31
0.0
  0
LINE
  5
388
330
1F
100
AcDbEntity
  8
0
  6
CONTINUOUS
 62
     8
100
AcDbLine
 10
629.2041921571
 20
418.2973301922
 30
0.0
 11
628.1993062749
 21
418.2973301922
 31
0.0
  0
LINE
  5
389
330
1F
100
AcDbEntity
  8
0
  6
CONTINUOUS
 62
     8
100
AcDbLine
 10
528.4326755956
 20
418.2973301922
 30
0.0
 11
527.6203723207
 21
418.2973301922
 31
0.0
  0
LINE
  5
38A
330
1F
100
AcDbEntity
  8
0
  6
CONTINUOUS
 62
     8
100
AcDbLine
 10
531.1203719631
 20
418.2973301922
 30
0.0
 11
528.4326755956
 21
418.2973301922
 31
0.0
  0
LINE
  5
38B
330
1F
100
AcDbEntity
  8
0
  6
CONTINUOUS
 62
     8
100
AcDbLine
 10
580.4375116296
 20
418.2973301922
 30
0.0
 11
579.3700730011
 21
418.2973301922
 31
0.0
  0
LINE
  5
38C
330
1F
100
AcDbEntity
  8
0
  6
CONTINUOUS
 62
     8
100
AcDbLine
 10
600.2800343141
 20
418.2973301922
 30
0.0
 11
598.202117677
 21
418.2973301922
 31
0.0
  0
LINE
  5
38D
330
1F
100
AcDbEntity
  8
0
  6
CONTINUOUS
 62
     8
100
AcDbLine
 10
601.3876003727
 20
418.2973301922
 30
0.0
 11
600.2800343141
 21
418.2973301922
 31
0.0
  0
LINE
  5
38E
330
1F
100
AcDbEntity
  8
0
  6
CONTINUOUS
 62
     8
100
AcDbLine
 10
557.2174815044
 20
418.2973301922
 30
0.0
 11
556.0082615867
 21
418.2973301922
 31
0.0
  0
LINE
  5
38F
330
1F
100
AcDbEntity
  8
0
  6
CONTINUOUS
 62
     8
100
AcDbLine
 10
559.5082612291
 20
418.2973301922
 30
0.0
 11
557.2174815044
 21
418.2973301922
 31
0.0
  0
LINE
  5
390
330
1F
100
AcDbEntity
  8
0
  6
CONTINUOUS
 62
     8
100
AcDbLine
 10
650.1574450686
 20
418.2973301922
 30
0.0
 11
647.2919517711
 21
418.2973301922
 31
0.0
  0
LINE
  5
391
330
1F
100
AcDbEntity
  8
0
  6
CONTINUOUS
 62
     8
100
AcDbLine
 10
650.7919514134
 20
418.2973301922
 30
0.0
 11
650.1574450686
 21
418.2973301922
 31
0.0
  0
LINE
  5
392
330
1F
100
AcDbEntity
  8
0
  6
CONTINUOUS
 62
     8
100
AcDbLine
 10
620.9610597744
 20
418.2973301922
 30
0.0
 11
618.4659460142
 21
418.2973301922
 31
0.0
  0
LINE
  5
393
330
1F
100
AcDbEntity
  8
0
  6
CONTINUOUS
 62
     8
100
AcDbLine
 10
621.9659456566
 20
418.2973301922
 30
0.0
 11
620.9610597744
 21
418.2973301922
 31
0.0
  0
LINE
  5
394
330
1F
100
AcDbEntity
  8
0
  6
CONTINUOUS
 62
     8
100
AcDbLine
 10
537.5417330816
 20
418.2973301922
 30
0.0
 11
536.7294298068
 21
418.2973301922
 31
0.0
  0
LINE
  5
395
330
1F
100
AcDbEntity
  8
0
  6
CONTINUOUS
 62
     8
100
AcDbLine
 10
540.2294294491
 20
418.2973301922
 30
0.0
 11
537.5417330816
 21
418.2973301922
 31
0.0
  0
LINE
  5
396
330
1F
100
AcDbEntity
  8
0
  6
CONTINUOUS
 62
     8
100
AcDbLine
 10
508.3942124203
 20
418.2973301922
 30
0.0
 11
507.9199084595
 21
418.2973301922
 31
0.0
  0
LINE
  5
397
330
1F
100
AcDbEntity
  8
0
  6
CONTINUOUS
 62
     8
100
AcDbLine
 10
511.4199081018
 20
418.2973301922
 30
0.0
 11
508.3942124203
 21
418.2973301922
 31
0.0
  0
LINE
  5
398
330
1F
100
AcDbEntity
  8
0
  6
CONTINUOUS
 62
     8
100
AcDbLine
 10
584.0247058824
 20
418.2973301922
 30
0.0
 11
582.2747058283
 21
418.2973301922
 31
0.0
  0
LINE
  5
399
330
1F
100
AcDbEntity
  8
0
  6
CONTINUOUS
 62
     8
100
AcDbLine
 10
585.7747059364
 20
418.2973301922
 30
0.0
 11
584.0247058824
 21
418.2973301922
 31
0.0
  0
LINE
  5
39A
330
1F
100
AcDbEntity
  8
0
  6
CONTINUOUS
 62
     8
100
AcDbLine
 10
639.3212386921
 20
418.2973301922
 30
0.0
 11
636.4557453945
 21
418.2973301922
 31
0.0
  0
LINE
  5
39B
330
1F
100
AcDbEntity
  8
0
  6
CONTINUOUS
 62
     8
100
AcDbLine
 10
639.9557450369
 20
418.2973301922
 30
0.0
 11
639.3212386921
 21
418.2973301922
 31
0.0
  0
LINE
  5
39C
330
1F
100
AcDbEntity
  8
0
  6
CONTINUOUS
 62
     8
100
AcDbLine
 10
605.5786413655
 20
418.2973301922
 30
0.0
 11
604.8876000151
 21
418.2973301922
 31
0.0
  0
LINE
  5
39D
330
1F
100
AcDbEntity
  8
0
  6
CONTINUOUS
 62
     8
100
AcDbLine
 10
606.7878612831
 20
418.2973301922
 30
0.0
 11
605.5786413655
 21
418.2973301922
 31
0.0
  0
LINE
  5
39E
330
1F
100
AcDbEntity
  8
0
  6
CONTINUOUS
 62
     8
100
AcDbLine
 10
562.4707703993
 20
418.2973301922
 30
0.0
 11
561.2615504816
 21
418.2973301922
 31
0.0
  0
LINE
  5
39F
330
1F
100
AcDbEntity
  8
0
  6
CONTINUOUS
 62
     8
100
AcDbLine
 10
564.761550124
 20
418.2973301922
 30
0.0
 11
562.4707703993
 21
418.2973301922
 31
0.0
  0
LINE
  5
3A0
330
1F
100
AcDbEntity
  8
0
  6
CONTINUOUS
 62
     8
100
AcDbLine
 10
667.9602199748
 20
418.2973301922
 30
0.0
 11
664.7944384768
 21
418.2973301922
 31
0.0
  0
LINE
  5
3A1
330
1F
100
AcDbEntity
  8
0
  6
CONTINUOUS
 62
     8
100
AcDbLine
 10
668.2944381192
 20
418.2973301922
 30
0.0
 11
667.9602199748
 21
418.2973301922
 31
0.0
  0
LINE
  5
3A2
330
1F
100
AcDbEntity
  8
0
  6
CONTINUOUS
 62
     8
100
AcDbLine
 10
520.7866811707
 20
418.2973301922
 30
0.0
 11
520.3123697594
 21
418.2973301922
 31
0.0
  0
LINE
  5
3A3
330
1F
100
AcDbEntity
  8
0
  6
CONTINUOUS
 62
     8
100
AcDbLine
 10
523.812373127
 20
418.2973301922
 30
0.0
 11
520.7866811707
 21
418.2973301922
 31
0.0
  0
LINE
  5
3A4
330
1F
100
AcDbEntity
  8
0
  6
CONTINUOUS
 62
     8
100
AcDbLine
 10
625.0227288857
 20
418.2973301922
 30
0.0
 11
622.2441019073
 21
418.2973301922
 31
0.0
  0
LINE
  5
3A5
330
1F
100
AcDbEntity
  8
0
  6
CONTINUOUS
 62
     8
100
AcDbLine
 10
625.7041925147
 20
418.2973301922
 30
0.0
 11
625.0227288857
 21
418.2973301922
 31
0.0
  0
LINE
  5
3A6
330
1F
100
AcDbEntity
  8
0
  6
CONTINUOUS
 62
     8
100
AcDbLine
 10
543.026682879
 20
418.2973301922
 30
0.0
 11
542.305310215
 21
418.2973301922
 31
0.0
  0
LINE
  5
3A7
330
1F
100
AcDbEntity
  8
0
  6
CONTINUOUS
 62
     8
100
AcDbLine
 10
545.8053098574
 20
418.2973301922
 30
0.0
 11
543.026682879
 21
418.2973301922
 31
0.0
  0
LINE
  5
3A8
330
1F
100
AcDbEntity
  8
0
  6
CONTINUOUS
 62
     8
100
AcDbLine
 10
591.1056575879
 20
418.2973301922
 30
0.0
 11
587.6056574799
 21
418.2973301922
 31
0.0
  0
LINE
  5
3A9
330
1F
100
AcDbEntity
  8
0
  6
CONTINUOUS
 62
     8
100
AcDbLine
 10
654.2069324806
 20
418.2973301922
 30
0.0
 11
651.0411509827
 21
418.2973301922
 31
0.0
  0
LINE
  5
3AA
330
1F
100
AcDbEntity
  8
0
  6
CONTINUOUS
 62
     8
100
AcDbLine
 10
654.541150625
 20
418.2973301922
 30
0.0
 11
654.2069324806
 21
418.2973301922
 31
0.0
  0
LINE
  5
3AB
330
1F
100
AcDbEntity
  8
0
  6
CONTINUOUS
 62
     8
100
AcDbLine
 10
493.1078860119
 20
418.2973301922
 30
0.0
 11
492.8914242938
 21
418.2973301922
 31
0.0
  0
LINE
  5
3AC
330
1F
100
AcDbEntity
  8
0
  6
CONTINUOUS
 62
     8
100
AcDbLine
 10
496.3914239362
 20
418.2973301922
 30
0.0
 11
493.1078860119
 21
418.2973301922
 31
0.0
  0
LINE
  5
3AD
330
1F
100
AcDbEntity
  8
0
  6
CONTINUOUS
 62
     8
100
AcDbLine
 10
570.0148390189
 20
418.2973301922
 30
0.0
 11
566.5148393765
 21
418.2973301922
 31
0.0
  0
LINE
  5
3AE
330
1F
100
AcDbEntity
  8
0
  6
CONTINUOUS
 62
     8
100
AcDbLine
 10
611.2747052267
 20
418.2973301922
 30
0.0
 11
607.7747055843
 21
418.2973301922
 31
0.0
  0
LINE
  5
3AF
330
1F
100
AcDbEntity
  8
0
  6
CONTINUOUS
 62
     8
100
AcDbLine
 10
507.9199084595
 20
418.2973301922
 30
0.0
 11
507.7886366799
 21
418.2973301922
 31
0.0
  0
LINE
  5
3B0
330
1F
100
AcDbEntity
  8
0
  6
CONTINUOUS
 62
     8
100
AcDbLine
 10
527.6203723207
 20
418.2973301922
 30
0.0
 11
527.2615486339
 21
418.2973301922
 31
0.0
  0
LINE
  5
3B1
330
1F
100
AcDbEntity
  8
0
  6
CONTINUOUS
 62
     8
100
AcDbLine
 10
640.4536412611
 20
418.2973301922
 30
0.0
 11
639.9557450369
 21
418.2973301922
 31
0.0
  0
LINE
  5
3B2
330
1F
100
AcDbEntity
  8
0
  6
CONTINUOUS
 62
     8
100
AcDbLine
 10
640.7878631309
 20
418.2973301922
 30
0.0
 11
640.4536412611
 21
418.2973301922
 31
0.0
  0
LINE
  5
3B3
330
1F
100
AcDbEntity
  8
0
  6
CONTINUOUS
 62
     8
100
AcDbLine
 10
550.7549726918
 20
418.2973301922
 30
0.0
 11
548.1490464464
 21
418.2973301922
 31
0.0
  0
LINE
  5
3B4
330
1F
100
AcDbEntity
  8
0
  6
CONTINUOUS
 62
     8
100
AcDbLine
 10
680.6119093254
 20
418.2973301922
 30
0.0
 11
677.111909683
 21
418.2973301922
 31
0.0
  0
LINE
  5
3B5
330
1F
100
AcDbEntity
  8
0
  6
CONTINUOUS
 62
     8
100
AcDbLine
 10
595.0724435553
 20
418.2973301922
 30
0.0
 11
592.7800517112
 21
418.2973301922
 31
0.0
  0
LINE
  5
3B6
330
1F
100
AcDbEntity
  8
0
  6
CONTINUOUS
 62
     8
100
AcDbLine
 10
596.2825156331
 20
418.2973301922
 30
0.0
 11
595.0724435553
 21
418.2973301922
 31
0.0
  0
LINE
  5
3B7
330
1F
100
AcDbEntity
  8
0
  6
CONTINUOUS
 62
     8
100
AcDbLine
 10
572.9769682094
 20
418.2973301922
 30
0.0
 11
571.7668961316
 21
418.2973301922
 31
0.0
  0
LINE
  5
3B8
330
1F
100
AcDbEntity
  8
0
  6
CONTINUOUS
 62
     8
100
AcDbLine
 10
575.2693600535
 20
418.2973301922
 30
0.0
 11
572.9769682094
 21
418.2973301922
 31
0.0
  0
LINE
  5
3B9
330
1F
100
AcDbEntity
  8
0
  6
CONTINUOUS
 62
     8
100
AcDbLine
 10
664.7944384768
 20
418.2973301922
 30
0.0
 11
661.3057041123
 21
418.2973301922
 31
0.0
  0
LINE
  5
3BA
330
1F
100
AcDbEntity
  8
0
  6
CONTINUOUS
 62
     8
100
AcDbLine
 10
483.5342028692
 20
418.2973301922
 30
0.0
 11
483.479225035
 21
418.2973301922
 31
0.0
  0
LINE
  5
3BB
330
1F
100
AcDbEntity
  8
0
  6
CONTINUOUS
 62
     8
100
AcDbLine
 10
486.9792246774
 20
418.2973301922
 30
0.0
 11
483.5342028692
 21
418.2973301922
 31
0.0
  0
LINE
  5
3BC
330
1F
100
AcDbEntity
  8
0
  6
CONTINUOUS
 62
     8
100
AcDbLine
 10
500.0001200989
 20
418.2973301922
 30
0.0
 11
499.9451348141
 21
418.2973301922
 31
0.0
  0
LINE
  5
3BD
330
1F
100
AcDbEntity
  8
0
  6
CONTINUOUS
 62
     8
100
AcDbLine
 10
503.4451344564
 20
418.2973301922
 30
0.0
 11
500.0001200989
 21
418.2973301922
 31
0.0
  0
LINE
  5
3BE
330
1F
100
AcDbEntity
  8
0
  6
CONTINUOUS
 62
     8
100
AcDbLine
 10
517.6885136917
 20
418.2973301922
 30
0.0
 11
517.6028618172
 21
418.2973301922
 31
0.0
  0
LINE
  5
3BF
330
1F
100
AcDbEntity
  8
0
  6
CONTINUOUS
 62
     8
100
AcDbLine
 10
520.3123697594
 20
418.2973301922
 30
0.0
 11
517.6885136917
 21
418.2973301922
 31
0.0
  0
LINE
  5
3C0
330
1F
100
AcDbEntity
  8
0
  6
CONTINUOUS
 62
     8
100
AcDbLine
 10
647.2919517711
 20
418.2973301922
 30
0.0
 11
646.9465503052
 21
418.2973301922
 31
0.0
  0
LINE
  5
3C1
330
1F
100
AcDbEntity
  8
0
  6
CONTINUOUS
 62
     8
100
AcDbLine
 10
536.7294298068
 20
418.2973301922
 30
0.0
 11
535.6838861063
 21
418.2973301922
 31
0.0
  0
LINE
  5
3C2
330
1F
100
AcDbEntity
  8
0
  6
CONTINUOUS
 62
     8
100
AcDbLine
 10
612.9480590626
 20
418.2973301922
 30
0.0
 11
611.2747052267
 21
418.2973301922
 31
0.0
  0
LINE
  5
3C3
330
1F
100
AcDbEntity
  8
0
  6
CONTINUOUS
 62
     8
100
AcDbLine
 10
613.2825156256
 20
418.2973301922
 30
0.0
 11
612.9480590626
 21
418.2973301922
 31
0.0
  0
LINE
  5
3C4
330
1F
100
AcDbEntity
  8
0
  6
CONTINUOUS
 62
     8
100
AcDbLine
 10
555.1013527021
 20
418.2973301922
 30
0.0
 11
554.7668961391
 21
418.2973301922
 31
0.0
  0
LINE
  5
3C5
330
1F
100
AcDbEntity
  8
0
  6
CONTINUOUS
 62
     8
100
AcDbLine
 10
556.0082615867
 20
418.2973301922
 30
0.0
 11
555.1013527021
 21
418.2973301922
 31
0.0
  0
LINE
  5
3C6
330
1F
100
AcDbEntity
  8
0
  6
CONTINUOUS
 62
     8
100
AcDbLine
 10
580.5214170415
 20
418.2973301922
 30
0.0
 11
580.4375116296
 21
418.2973301922
 31
0.0
  0
LINE
  5
3C7
330
1F
100
AcDbEntity
  8
0
  6
CONTINUOUS
 62
     8
100
AcDbLine
 10
686.9704061702
 20
418.2973301922
 30
0.0
 11
683.4704065278
 21
418.2973301922
 31
0.0
  0
LINE
  5
3C8
330
1F
100
AcDbEntity
  8
0
  6
CONTINUOUS
 62
     8
100
AcDbLine
 10
670.1044523671
 20
418.2973301922
 30
0.0
 11
668.2944381192
 21
418.2973301922
 31
0.0
  0
LINE
  5
3C9
330
1F
100
AcDbEntity
  8
0
  6
CONTINUOUS
 62
     8
100
AcDbLine
 10
635.660232003
 20
418.2973301922
 30
0.0
 11
632.1602323606
 21
418.2973301922
 31
0.0
  0
LINE
  5
3CA
330
1F
100
AcDbEntity
  8
0
  6
CONTINUOUS
 62
     8
100
AcDbLine
 10
584.0247058824
 20
460.7866225251
 30
0.0
 11
595.2753806069
 21
460.7866225251
 31
0.0
  0
LINE
  5
3CB
330
1F
100
AcDbEntity
  8
0
  6
CONTINUOUS
 62
     8
100
AcDbLine
 10
572.7740311578
 20
460.7866225251
 30
0.0
 11
584.0247058824
 21
460.7866225251
 31
0.0
  0
LINE
  5
3CC
330
1F
100
AcDbEntity
  8
0
  6
CONTINUOUS
 62
     8
100
AcDbLine
 10
598.202117677
 20
418.2973301922
 30
0.0
 11
596.2825156331
 21
418.2973301922
 31
0.0
  0
LINE
  5
3CD
330
1F
100
AcDbEntity
  8
0
  6
CONTINUOUS
 62
     8
100
AcDbLine
 10
618.4659460142
 20
418.2973301922
 30
0.0
 11
616.2734748378
 21
418.2973301922
 31
0.0
  0
LINE
  5
3CE
330
1F
100
AcDbEntity
  8
0
  6
CONTINUOUS
 62
     8
100
AcDbLine
 10
534.7747066572
 20
418.2973301922
 30
0.0
 11
531.2747070148
 21
418.2973301922
 31
0.0
  0
LINE
  5
3CF
330
1F
100
AcDbEntity
  8
0
  6
CONTINUOUS
 62
     8
100
AcDbLine
 10
499.9451348141
 20
418.2973301922
 30
0.0
 11
497.2747051671
 21
418.2973301922
 31
0.0
  0
LINE
  5
3D0
330
1F
100
AcDbEntity
  8
0
  6
CONTINUOUS
 62
     8
100
AcDbLine
 10
517.6028618172
 20
418.2973301922
 30
0.0
 11
514.2747023657
 21
418.2973301922
 31
0.0
  0
LINE
  5
3D1
330
1F
100
AcDbEntity
  8
0
  6
CONTINUOUS
 62
     8
100
AcDbLine
 10
651.0411509827
 20
418.2973301922
 30
0.0
 11
650.7919514134
 21
418.2973301922
 31
0.0
  0
LINE
  5
3D2
330
1F
100
AcDbEntity
  8
0
  6
CONTINUOUS
 62
     8
100
AcDbLine
 10
483.479225035
 20
418.2973301922
 30
0.0
 11
480.2747079685
 21
418.2973301922
 31
0.0
  0
LINE
  5
3D3
330
1F
100
AcDbEntity
  8
0
  6
CONTINUOUS
 62
     8
100
AcDbLine
 10
566.5148393765
 20
418.2973301922
 30
0.0
 11
565.2747051373
 21
418.2973301922
 31
0.0
  0
LINE
  5
3D4
330
1F
100
AcDbEntity
  8
0
  6
CONTINUOUS
 62
     7
100
AcDbLine
 10
258.7662751589
 20
240.183135806
 30
0.0
 11
258.6752941402
 21
240.2741185709
 31
0.0
  0
LINE
  5
3D5
330
1F
100
AcDbEntity
  8
0
  6
CONTINUOUS
 62
     7
100
AcDbLine
 10
255.2752940951
 20
240.2741185709
 30
0.0
 11
255.1897675999
 21
240.1885914936
 31
0.0
  0
LINE
  5
3D6
330
1F
100
AcDbEntity
  8
0
  6
CONTINUOUS
 62
     7
100
AcDbLine
 10
268.2252945647
 20
220.8892696857
 30
0.0
 11
268.2252945647
 21
225.6589656084
 31
0.0
  0
ARC
  5
3D7
330
1F
100
AcDbEntity
  8
0
  6
CONTINUOUS
 62
     7
100
AcDbCircle
 10
256.9752941183
 20
223.2741176474
 30
0.0
 40
11.50000000057004
100
AcDbArc
 50
191.9687455532
 51
348.0312544212
  0
LINE
  5
3D8
330
1F
100
AcDbEntity
  8
0
  6
CONTINUOUS
 62
     7
100
AcDbLine
 10
245.7252936706
 20
225.6589656084
 30
0.0
 11
245.7252936706
 21
220.8892696857
 31
0.0
  0
ARC
  5
3D9
330
1F
100
AcDbEntity
  8
0
  6
CONTINUOUS
 62
     7
100
AcDbCircle
 10
256.9752941184
 20
223.2741176473
 30
0.0
 40
11.49999999963338
100
AcDbArc
 50
11.9687455586
 51
168.0312544712
  0
ARC
  5
3DA
330
1F
100
AcDbEntity
  8
0
  6
CONTINUOUS
 62
     7
100
AcDbCircle
 10
256.9752941176
 20
223.2741176471
 30
0.0
 40
12.00000000004808
100
AcDbArc
 50
200.3641348059
 51
339.6358651932
  0
SPLINE
  5
3DB
330
1F
100
AcDbEntity
  8
0
  6
CONTINUOUS
 62
     7
100
AcDbSpline
210
0.0
220
0.0
230
1.0
 70
    24
 71
     3
 72
     8
 73
     4
 74
     0
 42
0.000000001
 43
0.00000001
 40
0.0
 40
0.0
 40
0.0
 40
0.0
 40
1.0
 40
1.0
 40
1.0
 40
1.0
 10
245.7252941176557
 20
220.8892696439065
 30
0.0
 10
245.7252941176557
 20
220.2809662114996
 30
0.0
 10
245.7252941176476
 20
219.6848336267286
 30
0.0
 10
245.7252941176476
 20
219.0982943751242
 30
0.0
  0
SPLINE
  5
3DC
330
1F
100
AcDbEntity
  8
0
  6
CONTINUOUS
 62
     7
100
AcDbSpline
210
0.0
220
0.0
230
1.0
 70
    24
 71
     3
 72
     8
 73
     4
 74
     0
 42
0.000000001
 43
0.00000001
 40
0.0
 40
0.0
 40
0.0
 40
0.0
 40
1.0
 40
1.0
 40
1.0
 40
1.0
 10
268.2252941175014
 20
219.0982943746816
 30
0.0
 10
268.2252941175014
 20
219.6848336248346
 30
0.0
 10
268.2252941176476
 20
220.2809662088805
 30
0.0
 10
268.2252941176476
 20
220.8892696397525
 30
0.0
  0
ARC
  5
3DD
330
1F
100
AcDbEntity
  8
0
  6
CONTINUOUS
 62
     7
100
AcDbCircle
 10
256.9752941176
 20
223.2741176471
 30
0.0
 40
12.0
100
AcDbArc
 50
20.3641348083
 51
159.6358651944
  0
SPLINE
  5
3DE
330
1F
100
AcDbEntity
  8
0
  6
CONTINUOUS
 62
     7
100
AcDbSpline
210
0.0
220
0.0
230
1.0
 70
    24
 71
     3
 72
     8
 73
     4
 74
     0
 42
0.000000001
 43
0.00000001
 40
0.0
 40
0.0
 40
0.0
 40
0.0
 40
1.0
 40
1.0
 40
1.0
 40
1.0
 10
245.7252941175095
 20
227.4499409187963
 30
0.0
 10
245.7252941175095
 20
226.8634016665278
 30
0.0
 10
245.7252941176476
 20
226.2672690810199
 30
0.0
 10
245.7252941176476
 20
225.6589656479089
 30
0.0
  0
SPLINE
  5
3DF
330
1F
100
AcDbEntity
  8
0
  6
CONTINUOUS
 62
     7
100
AcDbSpline
210
0.0
220
0.0
230
1.0
 70
    24
 71
     3
 72
     8
 73
     4
 74
     0
 42
0.000000001
 43
0.00000001
 40
0.0
 40
0.0
 40
0.0
 40
0.0
 40
1.0
 40
1.0
 40
1.0
 40
1.0
 10
268.2252941176582
 20
225.6589656513667
 30
0.0
 10
268.2252941176582
 20
226.2672690835186
 30
0.0
 10
268.2252941176476
 20
226.8634016683467
 30
0.0
 10
268.2252941176476
 20
227.449940919705
 30
0.0
  0
ARC
  5
3E0
330
1F
100
AcDbEntity
  8
0
  6
CONTINUOUS
 62
     7
100
AcDbCircle
 10
256.9752941176
 20
223.2741176471
 30
0.0
 40
12.0
100
AcDbArc
 50
339.6358651938
 51
20.3641348073
  0
ARC
  5
3E1
330
1F
100
AcDbEntity
  8
0
  6
CONTINUOUS
 62
     7
100
AcDbCircle
 10
256.9752941176
 20
223.2741176471
 30
0.0
 40
12.00000000000002
100
AcDbArc
 50
159.6358651935
 51
200.3641348063
  0
CIRCLE
  5
3E2
330
1F
100
AcDbEntity
  8
0
  6
CONTINUOUS
 62
     7
100
AcDbCircle
 10
256.9752941176
 20
223.2741176471
 30
0.0
 40
15.50000000000005
  0
ARC
  5
3E3
330
1F
100
AcDbEntity
  8
0
  6
CONTINUOUS
 62
     7
100
AcDbCircle
 10
256.9752941176
 20
223.2741176471
 30
0.0
 40
17.00000000000002
100
AcDbArc
 50
19.7499227956
 51
160.2500772044
  0
SPLINE
  5
3E4
330
1F
100
AcDbEntity
  8
0
  6
CONTINUOUS
 62
     7
100
AcDbSpline
210
0.0
220
0.0
230
1.0
 70
    24
 71
     3
 72
    22
 73
    18
 74
     0
 42
0.000000001
 43
0.00000001
 40
0.0
 40
0.0
 40
0.0
 40
0.0
 40
0.0312499999999997
 40
0.0312499999999997
 40
0.0624999999999993
 40
0.0624999999999993
 40
0.1249999999999999
 40
0.1249999999999999
 40
0.2500000000000001
 40
0.2500000000000001
 40
0.3750000000000003
 40
0.3750000000000003
 40
0.5000000000000003
 40
0.5000000000000003
 40
0.7500000000000001
 40
0.7500000000000001
 40
1.0
 40
1.0
 40
1.0
 40
1.0
 10
240.9752941176476
 20
229.0186802935969
 30
0.0
 10
240.9752941176476
 20
229.0186802935969
 30
0.0
 10
240.9752941176476
 20
228.9991317915612
 30
0.0
 10
240.9752941176476
 20
228.9366702140679
 30
0.0
 10
240.9752941176476
 20
228.8939964932368
 30
0.0
 10
240.9752941176476
 20
228.7537321579907
 30
0.0
 10
240.9752941176476
 20
228.6416896776062
 30
0.0
 10
240.9752941176476
 20
228.2993773364666
 30
0.0
 10
240.9752941176476
 20
228.0519592972982
 30
0.0
 10
240.9752941176476
 20
227.5576064228964
 30
0.0
 10
240.9752941176477
 20
227.3084492587052
 30
0.0
 10
240.9752941176477
 20
226.8081186335683
 30
0.0
 10
240.9752941176476
 20
226.5569020600715
 30
0.0
 10
240.9752941176476
 20
225.801469571585
 30
0.0
 10
240.9752941176476
 20
225.2955161110744
 30
0.0
 10
240.9752941176476
 20
224.284842308856
 30
0.0
 10
240.9752941176476
 20
223.7794771597963
 30
0.0
 10
240.9752941176476
 20
223.2741176470589
 30
0.0
  0
SPLINE
  5
3E5
330
1F
100
AcDbEntity
  8
0
  6
CONTINUOUS
 62
     7
100
AcDbSpline
210
0.0
220
0.0
230
1.0
 70
    24
 71
     3
 72
    22
 73
    18
 74
     0
 42
0.000000001
 43
0.00000001
 40
0.0
 40
0.0
 40
0.0
 40
0.0
 40
0.2500000000000002
 40
0.2500000000000002
 40
0.5000000000000003
 40
0.5000000000000003
 40
0.6250000000000003
 40
0.6250000000000003
 40
0.7500000000000001
 40
0.7500000000000001
 40
0.8749999999999999
 40
0.8749999999999999
 40
0.9374999999999998
 40
0.9374999999999998
 40
0.96875
 40
0.96875
 40
1.0
 40
1.0
 40
1.0
 40
1.0
 10
272.9752941176476
 20
223.2741176470589
 30
0.0
 10
272.9752941176476
 20
223.7802514246337
 30
0.0
 10
272.9752941176474
 20
224.2863885449439
 30
0.0
 10
272.9752941176474
 20
225.2986292807204
 30
0.0
 10
272.9752941176476
 20
225.804817377909
 30
0.0
 10
272.9752941176476
 20
226.5628354831601
 30
0.0
 10
272.9752941176402
 20
226.8152989910246
 30
0.0
 10
272.9752941176402
 20
227.318030271205
 30
0.0
 10
272.9752941176474
 20
227.5686974810757
 30
0.0
 10
272.9752941176475
 20
228.062718429301
 30
0.0
 10
272.9752941176476
 20
228.3064384170102
 30
0.0
 10
272.9752941176476
 20
228.6488413396349
 30
0.0
 10
272.9752941176476
 20
228.7590346373684
 30
0.0
 10
272.9752941176476
 20
228.8966568326496
 30
0.0
 10
272.9752941176476
 20
228.9384641752346
 30
0.0
 10
272.9752941176476
 20
228.9996909677299
 30
0.0
 10
272.9752941176476
 20
229.0186802935969
 30
0.0
 10
272.9752941176476
 20
229.0186802935969
 30
0.0
  0
ARC
  5
3E6
330
1F
100
AcDbEntity
  8
0
  6
CONTINUOUS
 62
     7
100
AcDbCircle
 10
256.9752941176
 20
223.2741176471
 30
0.0
 40
17.00000000000002
100
AcDbArc
 50
199.7499227956
 51
340.2500772044
  0
SPLINE
  5
3E7
330
1F
100
AcDbEntity
  8
0
  6
CONTINUOUS
 62
     7
100
AcDbSpline
210
0.0
220
0.0
230
1.0
 70
    24
 71
     3
 72
    22
 73
    18
 74
     0
 42
0.000000001
 43
0.00000001
 40
0.0
 40
0.0
 40
0.0
 40
0.0
 40
0.2500000000000003
 40
0.2500000000000003
 40
0.5000000000000006
 40
0.5000000000000006
 40
0.6250000000000006
 40
0.6250000000000006
 40
0.7500000000000004
 40
0.7500000000000004
 40
0.8750000000000002
 40
0.8750000000000002
 40
0.9375000000000002
 40
0.9375000000000002
 40
0.9687500000000002
 40
0.9687500000000002
 40
1.0
 40
1.0
 40
1.0
 40
1.0
 10
240.9752941176476
 20
223.2741176470589
 30
0.0
 10
240.9752941176476
 20
222.7679838694839
 30
0.0
 10
240.9752941176478
 20
222.2618467491737
 30
0.0
 10
240.9752941176478
 20
221.2496060133973
 30
0.0
 10
240.9752941176477
 20
220.7434179162086
 30
0.0
 10
240.9752941176477
 20
219.9853998109575
 30
0.0
 10
240.9752941176551
 20
219.732936303093
 30
0.0
 10
240.9752941176551
 20
219.2302050229127
 30
0.0
 10
240.9752941176478
 20
218.9795378130419
 30
0.0
 10
240.9752941176478
 20
218.4855168648167
 30
0.0
 10
240.9752941176476
 20
218.2417968771075
 30
0.0
 10
240.9752941176476
 20
217.8993939544828
 30
0.0
 10
240.9752941176476
 20
217.7892006567492
 30
0.0
 10
240.9752941176476
 20
217.6515784614681
 30
0.0
 10
240.9752941176476
 20
217.6097711188831
 30
0.0
 10
240.9752941176476
 20
217.5485443263877
 30
0.0
 10
240.9752941176476
 20
217.5295550005208
 30
0.0
 10
240.9752941176476
 20
217.5295550005208
 30
0.0
  0
SPLINE
  5
3E8
330
1F
100
AcDbEntity
  8
0
  6
CONTINUOUS
 62
     7
100
AcDbSpline
210
0.0
220
0.0
230
1.0
 70
    24
 71
     3
 72
    22
 73
    18
 74
     0
 42
0.000000001
 43
0.00000001
 40
0.0
 40
0.0
 40
0.0
 40
0.0
 40
0.0312499999999993
 40
0.0312499999999993
 40
0.0624999999999986
 40
0.0624999999999986
 40
0.1249999999999983
 40
0.1249999999999983
 40
0.2499999999999988
 40
0.2499999999999988
 40
0.3749999999999993
 40
0.3749999999999993
 40
0.4999999999999996
 40
0.4999999999999996
 40
0.7499999999999998
 40
0.7499999999999998
 40
1.0
 40
1.0
 40
1.0
 40
1.0
 10
272.9752941176476
 20
217.5295550005208
 30
0.0
 10
272.9752941176476
 20
217.5295550005208
 30
0.0
 10
272.9752941176476
 20
217.5491035025565
 30
0.0
 10
272.9752941176476
 20
217.6115650800498
 30
0.0
 10
272.9752941176476
 20
217.6542388008809
 30
0.0
 10
272.9752941176476
 20
217.794503136127
 30
0.0
 10
272.9752941176476
 20
217.9065456165115
 30
0.0
 10
272.9752941176476
 20
218.248857957651
 30
0.0
 10
272.9752941176476
 20
218.4962759968195
 30
0.0
 10
272.9752941176476
 20
218.9906288712213
 30
0.0
 10
272.9752941176476
 20
219.2397860354125
 30
0.0
 10
272.9752941176476
 20
219.7401166605494
 30
0.0
 10
272.9752941176476
 20
219.9913332340462
 30
0.0
 10
272.9752941176476
 20
220.7467657225326
 30
0.0
 10
272.9752941176476
 20
221.2527191830433
 30
0.0
 10
272.9752941176476
 20
222.2633929852617
 30
0.0
 10
272.9752941176476
 20
222.7687581343214
 30
0.0
 10
272.9752941176476
 20
223.2741176470589
 30
0.0
  0
LINE
  5
3E9
330
1F
100
AcDbEntity
  8
0
  6
CONTINUOUS
 62
     7
100
AcDbLine
 10
258.6752941402
 20
240.2741185709
 30
0.0
 11
256.9752941176
 21
240.2741185709
 31
0.0
  0
LINE
  5
3EA
330
1F
100
AcDbEntity
  8
0
  6
CONTINUOUS
 62
     7
100
AcDbLine
 10
256.9752941176
 20
240.2741185709
 30
0.0
 11
255.2752940951
 21
240.2741185709
 31
0.0
  0
CIRCLE
  5
3EB
330
1F
100
AcDbEntity
  8
0
  6
CONTINUOUS
 62
     7
100
AcDbCircle
 10
256.9752941176
 20
223.2741176471
 30
0.0
 40
125.0
  0
CIRCLE
  5
3EC
330
1F
100
AcDbEntity
  8
0
  6
CONTINUOUS
 62
     8
100
AcDbCircle
 10
256.9752941176
 20
223.2741176471
 30
0.0
 40
123.8
  0
CIRCLE
  5
3ED
330
1F
100
AcDbEntity
  8
0
  6
CONTINUOUS
 62
     8
100
AcDbCircle
 10
333.8975224736
 20
136.4468708592
 30
0.0
 40
3.0
  0
CIRCLE
  5
3EE
330
1F
100
AcDbEntity
  8
0
  6
CONTINUOUS
 62
     8
100
AcDbCircle
 10
365.4371782691
 20
182.1399507501
 30
0.0
 40
3.0
  0
CIRCLE
  5
3EF
330
1F
100
AcDbEntity
  8
0
  6
CONTINUOUS
 62
     8
100
AcDbCircle
 10
352.4414225613
 20
289.1696282679
 30
0.0
 40
3.0
  0
CIRCLE
  5
3F0
330
1F
100
AcDbEntity
  8
0
  6
CONTINUOUS
 62
     8
100
AcDbCircle
 10
310.8831820747
 20
325.9870166229
 30
0.0
 40
3.0
  0
CIRCLE
  5
3F1
330
1F
100
AcDbEntity
  8
0
  6
CONTINUOUS
 62
     8
100
AcDbCircle
 10
203.0674061606
 20
325.9870166229
 30
0.0
 40
3.0
  0
CIRCLE
  5
3F2
330
1F
100
AcDbEntity
  8
0
  6
CONTINUOUS
 62
     8
100
AcDbCircle
 10
161.509165674
 20
289.1696282679
 30
0.0
 40
3.0
  0
CIRCLE
  5
3F3
330
1F
100
AcDbEntity
  8
0
  6
CONTINUOUS
 62
     8
100
AcDbCircle
 10
148.5134099661
 20
182.1399507501
 30
0.0
 40
3.0
  0
CIRCLE
  5
3F4
330
1F
100
AcDbEntity
  8
0
  6
CONTINUOUS
 62
     8
100
AcDbCircle
 10
180.0530657617
 20
136.4468708592
 30
0.0
 40
3.0
  0
CIRCLE
  5
3F5
330
1F
100
AcDbEntity
  8
0
  6
CONTINUOUS
 62
     8
100
AcDbCircle
 10
214.4752941176
 20
223.2741176471
 30
0.0
 40
3.000000000000028
  0
CIRCLE
  5
3F6
330
1F
100
AcDbEntity
  8
0
  6
CONTINUOUS
 62
     8
100
AcDbCircle
 10
299.4752941176
 20
223.2741176471
 30
0.0
 40
3.000000000000028
  0
CIRCLE
  5
3F7
330
1F
100
AcDbEntity
  8
0
  6
CONTINUOUS
 62
     8
100
AcDbCircle
 10
256.9752941176
 20
339.2741176471
 30
0.0
 40
3.0
  0
CIRCLE
  5
3F8
330
1F
100
AcDbEntity
  8
0
  6
CONTINUOUS
 62
     8
100
AcDbCircle
 10
229.2146770603
 20
110.6448668257
 30
0.0
 40
3.0
  0
CIRCLE
  5
3F9
330
1F
100
AcDbEntity
  8
0
  6
CONTINUOUS
 62
     8
100
AcDbCircle
 10
284.735911175
 20
110.6448668257
 30
0.0
 40
3.0
  0
CIRCLE
  5
3FA
330
1F
100
AcDbEntity
  8
0
  6
CONTINUOUS
 62
     8
100
AcDbCircle
 10
372.129523513
 20
237.2563725567
 30
0.0
 40
3.0
  0
CIRCLE
  5
3FB
330
1F
100
AcDbEntity
  8
0
  6
CONTINUOUS
 62
     8
100
AcDbCircle
 10
141.8210647222
 20
237.2563725567
 30
0.0
 40
3.0
  0
LINE
  5
3FC
330
1F
100
AcDbEntity
  8
0
  6
CONTINUOUS
 62
     8
100
AcDbLine
 10
300.2002956614
 20
224.5298544498
 30
0.0
 11
298.750293468
 21
224.5298544498
 31
0.0
  0
LINE
  5
3FD
330
1F
100
AcDbEntity
  8
0
  6
CONTINUOUS
 62
     8
100
AcDbLine
 10
298.750293468
 20
224.5298544498
 30
0.0
 11
298.0252923712
 21
223.2741176471
 31
0.0
  0
LINE
  5
3FE
330
1F
100
AcDbEntity
  8
0
  6
CONTINUOUS
 62
     8
100
AcDbLine
 10
298.0252923712
 20
223.2741176471
 30
0.0
 11
298.750293468
 21
222.0183808444
 31
0.0
  0
LINE
  5
3FF
330
1F
100
AcDbEntity
  8
0
  6
CONTINUOUS
 62
     8
100
AcDbLine
 10
298.750293468
 20
222.0183808444
 30
0.0
 11
300.2002956614
 21
222.0183808444
 31
0.0
  0
LINE
  5
400
330
1F
100
AcDbEntity
  8
0
  6
CONTINUOUS
 62
     8
100
AcDbLine
 10
300.2002956614
 20
222.0183808444
 30
0.0
 11
300.9252930328
 21
223.2741176471
 31
0.0
  0
LINE
  5
401
330
1F
100
AcDbEntity
  8
0
  6
CONTINUOUS
 62
     8
100
AcDbLine
 10
300.9252930328
 20
223.2741176471
 30
0.0
 11
300.2002956614
 21
224.5298544498
 31
0.0
  0
LINE
  5
402
330
1F
100
AcDbEntity
  8
0
  6
CONTINUOUS
 62
     8
100
AcDbLine
 10
215.2002947673
 20
224.5298544498
 30
0.0
 11
213.7502925739
 21
224.5298544498
 31
0.0
  0
LINE
  5
403
330
1F
100
AcDbEntity
  8
0
  6
CONTINUOUS
 62
     8
100
AcDbLine
 10
213.7502925739
 20
224.5298544498
 30
0.0
 11
213.0252952025
 21
223.2741176471
 31
0.0
  0
LINE
  5
404
330
1F
100
AcDbEntity
  8
0
  6
CONTINUOUS
 62
     8
100
AcDbLine
 10
213.0252952025
 20
223.2741176471
 30
0.0
 11
213.7502925739
 21
222.0183808444
 31
0.0
  0
LINE
  5
405
330
1F
100
AcDbEntity
  8
0
  6
CONTINUOUS
 62
     8
100
AcDbLine
 10
213.7502925739
 20
222.0183808444
 30
0.0
 11
215.2002947673
 21
222.0183808444
 31
0.0
  0
LINE
  5
406
330
1F
100
AcDbEntity
  8
0
  6
CONTINUOUS
 62
     8
100
AcDbLine
 10
215.2002947673
 20
222.0183808444
 30
0.0
 11
215.9252958641
 21
223.2741176471
 31
0.0
  0
LINE
  5
407
330
1F
100
AcDbEntity
  8
0
  6
CONTINUOUS
 62
     8
100
AcDbLine
 10
215.9252958641
 20
223.2741176471
 30
0.0
 11
215.2002947673
 21
224.5298544498
 31
0.0
  0
ENDSEC
  0
SECTION
  2
OBJECTS
  0
DICTIONARY
  5
C
330
0
100
AcDbDictionary
  3
ACAD_GROUP
350
D
  3
ACAD_MLINESTYLE
350
17
  3
ACAD_SCALELIST
350
47
  0
DICTIONARY
  5
D
102
{ACAD_REACTORS
330
C
102
}
330
C
100
AcDbDictionary
  0
DICTIONARY
  5
17
102
{ACAD_REACTORS
330
C
102
}
330
C
100
AcDbDictionary
  3
STANDARD
350
18
  0
DICTIONARY
  5
47
102
{ACAD_REACTORS
330
C
102
}
330
C
100
AcDbDictionary
  0
MLINESTYLE
  5
18
102
{ACAD_REACTORS
330
17
102
}
330
17
100
AcDbMlineStyle
  2
Standard
 70
     0
  3

 62
   256
 51
90.0
 52
90.0
 71
     2
 49
0.5
 62
   256
  6
BYLAYER
 49
-0.5
 62
   256
  6
BYLAYER
  0
ENDSEC
  0
EOF
