  0
SECTION
  2
HEADER
  9
$ACADVER
  1
AC1015
  9
$ACADMAINTVER
 70
     6
  9
$DWGCODEPAGE
  3
ANSI_1252
  9
$INSBASE
 10
0.0
 20
0.0
 30
0.0
  9
$EXTMIN
 10
0.0
 20
0.0
 30
0.0
  9
$EXTMAX
 10
594.0
 20
841.0
 30
0.0
  9
$LIMMIN
 10
0.0
 20
0.0
  9
$LIMMAX
 10
594.0
 20
841.0
  9
$ORTHOMODE
 70
     0
  9
$REGENMODE
 70
     1
  9
$FILLMODE
 70
     1
  9
$QTEXTMODE
 70
     0
  9
$MIRRTEXT
 70
     1
  9
$LTSCALE
 40
1.0
  9
$ATTMODE
 70
     1
  9
$TEXTSIZE
 40
10.0
  9
$TRACEWID
 40
1.0
  9
$TEXTSTYLE
  7
Standard
  9
$CLAYER
  8
0
  9
$CELTYPE
  6
ByLayer
  9
$CECOLOR
 62
   256
  9
$CELTSCALE
 40
1.0
  9
$DISPSILH
 70
     0
  9
$DIMSCALE
 40
1.0
  9
$DIMASZ
 40
2.5
  9
$DIMEXO
 40
0.0
  9
$DIMDLI
 40
3.75
  9
$DIMRND
 40
0.0
  9
$DIMDLE
 40
0.0
  9
$DIMEXE
 40
1.0
  9
$DIMTP
 40
0.0
  9
$DIMTM
 40
0.0
  9
$DIMTXT
 40
3.5
  9
$DIMCEN
 40
2.5
  9
$DIMTSZ
 40
0.0
  9
$DIMTOL
 70
     0
  9
$DIMLIM
 70
     0
  9
$DIMTIH
 70
     1
  9
$DIMTOH
 70
     1
  9
$DIMSE1
 70
     0
  9
$DIMSE2
 70
     0
  9
$DIMTAD
 70
     1
  9
$DIMZIN
 70
     0
  9
$DIMBLK
  1

  9
$DIMASO
 70
     1
  9
$DIMSHO
 70
     1
  9
$DIMPOST
  1

  9
$DIMAPOST
  1

  9
$DIMALT
 70
     0
  9
$DIMALTD
 70
     3
  9
$DIMALTF
 40
0.0393700787
  9
$DIMLFAC
 40
1.0
  9
$DIMTOFL
 70
     1
  9
$DIMTVP
 40
0.0
  9
$DIMTIX
 70
     0
  9
$DIMSOXD
 70
     0
  9
$DIMSAH
 70
     0
  9
$DIMBLK1
  1

  9
$DIMBLK2
  1

  9
$DIMSTYLE
  2
ISO-25
  9
$DIMCLRD
 70
     0
  9
$DIMCLRE
 70
     0
  9
$DIMCLRT
 70
     0
  9
$DIMTFAC
 40
1.0
  9
$DIMGAP
 40
1.5
  9
$DIMJUST
 70
     0
  9
$DIMSD1
 70
     0
  9
$DIMSD2
 70
     0
  9
$DIMTOLJ
 70
     0
  9
$DIMTZIN
 70
     0
  9
$DIMALTZ
 70
     0
  9
$DIMALTTZ
 70
     0
  9
$DIMUPT
 70
     0
  9
$DIMDEC
 70
     2
  9
$DIMTDEC
 70
     2
  9
$DIMALTU
 70
     2
  9
$DIMALTTD
 70
     3
  9
$DIMTXSTY
  7
Standard
  9
$DIMAUNIT
 70
     0
  9
$DIMADEC
 70
     2
  9
$DIMALTRND
 40
0.0
  9
$DIMAZIN
 70
     0
  9
$DIMDSEP
 70
    44
  9
$DIMATFIT
 70
     3
  9
$DIMFRAC
 70
     0
  9
$DIMLDRBLK
  1

  9
$DIMLUNIT
 70
     2
  9
$DIMLWD
 70
    -2
  9
$DIMLWE
 70
    -2
  9
$DIMTMOVE
 70
     0
  9
$LUNITS
 70
     2
  9
$LUPREC
 70
     2
  9
$SKETCHINC
 40
1.0
  9
$FILLETRAD
 40
10.0
  9
$AUNITS
 70
     0
  9
$AUPREC
 70
     2
  9
$MENU
  1
.
  9
$ELEVATION
 40
0.0
  9
$PELEVATION
 40
0.0
  9
$THICKNESS
 40
0.0
  9
$LIMCHECK
 70
     0
  9
$CHAMFERA
 40
0.0
  9
$CHAMFERB
 40
0.0
  9
$CHAMFERC
 40
0.0
  9
$CHAMFERD
 40
0.0
  9
$SKPOLY
 70
     0
  9
$TDCREATE
 40
2459969.37049625
  9
$TDUCREATE
 40
2459969.328829583
  9
$TDUPDATE
 40
2459969.370497153
  9
$TDUUPDATE
 40
2459969.328830486
  9
$TDINDWG
 40
0.0000000116
  9
$TDUSRTIMER
 40
0.0000000116
  9
$USRTIMER
 70
     1
  9
$ANGBASE
 50
0.0
  9
$ANGDIR
 70
     0
  9
$PDMODE
 70
     0
  9
$PDSIZE
 40
-1.0
  9
$PLINEWID
 40
0.0
  9
$SPLFRAME
 70
     0
  9
$SPLINETYPE
 70
     6
  9
$SPLINESEGS
 70
     8
  9
$HANDSEED
  5
1B7
  9
$SURFTAB1
 70
     6
  9
$SURFTAB2
 70
     6
  9
$SURFTYPE
 70
     6
  9
$SURFU
 70
     6
  9
$SURFV
 70
     6
  9
$UCSBASE
  2

  9
$UCSNAME
  2

  9
$UCSORG
 10
0.0
 20
0.0
 30
0.0
  9
$UCSXDIR
 10
1.0
 20
0.0
 30
0.0
  9
$UCSYDIR
 10
0.0
 20
1.0
 30
0.0
  9
$UCSORTHOREF
  2

  9
$UCSORTHOVIEW
 70
     0
  9
$UCSORGTOP
 10
0.0
 20
0.0
 30
0.0
  9
$UCSORGBOTTOM
 10
0.0
 20
0.0
 30
0.0
  9
$UCSORGLEFT
 10
0.0
 20
0.0
 30
0.0
  9
$UCSORGRIGHT
 10
0.0
 20
0.0
 30
0.0
  9
$UCSORGFRONT
 10
0.0
 20
0.0
 30
0.0
  9
$UCSORGBACK
 10
0.0
 20
0.0
 30
0.0
  9
$PUCSBASE
  2

  9
$PUCSNAME
  2

  9
$PUCSORG
 10
0.0
 20
0.0
 30
0.0
  9
$PUCSXDIR
 10
1.0
 20
0.0
 30
0.0
  9
$PUCSYDIR
 10
0.0
 20
1.0
 30
0.0
  9
$PUCSORTHOREF
  2

  9
$PUCSORTHOVIEW
 70
     0
  9
$PUCSORGTOP
 10
0.0
 20
0.0
 30
0.0
  9
$PUCSORGBOTTOM
 10
0.0
 20
0.0
 30
0.0
  9
$PUCSORGLEFT
 10
0.0
 20
0.0
 30
0.0
  9
$PUCSORGRIGHT
 10
0.0
 20
0.0
 30
0.0
  9
$PUCSORGFRONT
 10
0.0
 20
0.0
 30
0.0
  9
$PUCSORGBACK
 10
0.0
 20
0.0
 30
0.0
  9
$USERI1
 70
     0
  9
$USERI2
 70
     0
  9
$USERI3
 70
     0
  9
$USERI4
 70
     0
  9
$USERI5
 70
     0
  9
$USERR1
 40
0.0
  9
$USERR2
 40
0.0
  9
$USERR3
 40
0.0
  9
$USERR4
 40
0.0
  9
$USERR5
 40
0.0
  9
$WORLDVIEW
 70
     1
  9
$SHADEDGE
 70
     3
  9
$SHADEDIF
 70
    70
  9
$TILEMODE
 70
     1
  9
$MAXACTVP
 70
    64
  9
$PINSBASE
 10
0.0
 20
0.0
 30
0.0
  9
$PLIMCHECK
 70
     0
  9
$PEXTMIN
 10
1.0000000000E+20
 20
1.0000000000E+20
 30
1.0000000000E+20
  9
$PEXTMAX
 10
-1.0000000000E+20
 20
-1.0000000000E+20
 30
-1.0000000000E+20
  9
$PLIMMIN
 10
0.0
 20
0.0
  9
$PLIMMAX
 10
420.0
 20
297.0
  9
$UNITMODE
 70
     0
  9
$VISRETAIN
 70
     1
  9
$PLINEGEN
 70
     0
  9
$PSLTSCALE
 70
     1
  9
$TREEDEPTH
 70
  3020
  9
$CMLSTYLE
  2
Standard
  9
$CMLJUST
 70
     0
  9
$CMLSCALE
 40
20.0
  9
$PROXYGRAPHICS
 70
     1
  9
$MEASUREMENT
 70
     1
  9
$CELWEIGHT
370
    -1
  9
$ENDCAPS
280
     0
  9
$JOINSTYLE
280
     0
  9
$LWDISPLAY
290
     1
  9
$INSUNITS
 70
     4
  9
$HYPERLINKBASE
  1

  9
$STYLESHEET
  1

  9
$XEDIT
290
     1
  9
$CEPSNTYPE
380
     0
  9
$PSTYLEMODE
290
     1
  9
$FINGERPRINTGUID
  2
{e62dd259-2c50-4810-adda-1cc8b29497a8}
  9
$VERSIONGUID
  2
{FAEB1C32-E019-11D5-929B-00C0DF256EC4}
  9
$EXTNAMES
290
     1
  9
$PSVPSCALE
 40
0.0
  9
$OLESTARTUP
290
     0
  0
ENDSEC
  0
SECTION
  2
CLASSES
  0
CLASS
  1
ACDBDICTIONARYWDFLT
  2
AcDbDictionaryWithDefault
  3
ObjectDBX Classes
 90
        0
280
     0
281
     0
  0
CLASS
  1
VISUALSTYLE
  2
AcDbVisualStyle
  3
ObjectDBX Classes
 90
     4095
280
     0
281
     0
  0
CLASS
  1
MATERIAL
  2
AcDbMaterial
  3
ObjectDBX Classes
 90
     1153
280
     0
281
     0
  0
CLASS
  1
SCALE
  2
AcDbScale
  3
ObjectDBX Classes
 90
     1153
280
     0
281
     0
  0
CLASS
  1
TABLESTYLE
  2
AcDbTableStyle
  3
ObjectDBX Classes
 90
     4095
280
     0
281
     0
  0
CLASS
  1
MLEADERSTYLE
  2
AcDbMLeaderStyle
  3
ACDB_MLEADERSTYLE_CLASS
 90
     4095
280
     0
281
     0
  0
CLASS
  1
SUN
  2
AcDbSun
  3
SCENEOE
 90
     1153
280
     0
281
     0
  0
CLASS
  1
ACDBPLACEHOLDER
  2
AcDbPlaceHolder
  3
ObjectDBX Classes
 90
        0
280
     0
281
     0
  0
CLASS
  1
LAYOUT
  2
AcDbLayout
  3
ObjectDBX Classes
 90
        0
280
     0
281
     0
  0
ENDSEC
  0
SECTION
  2
TABLES
  0
TABLE
  2
VPORT
  5
8
330
0
100
AcDbSymbolTable
 70
     1
  0
VPORT
  5
29
330
8
100
AcDbSymbolTableRecord
100
AcDbViewportTableRecord
  2
*Active
 70
     0
 10
0.0
 20
0.0
 11
1.0
 21
1.0
 12
297.0
 22
420.5
 13
0.0
 23
0.0
 14
10.0
 24
10.0
 15
10.0
 25
10.0
 16
0.0
 26
0.0
 36
1.0
 17
0.0
 27
0.0
 37
0.0
 40
841.0
 41
0.7063020214
 42
50.0
 43
0.0
 44
0.0
 50
0.0
 51
0.0
 71
     0
 72
  2000
 73
     1
 74
     3
 75
     0
 76
     0
 77
     0
 78
     0
281
     0
 65
     1
110
0.0
120
0.0
130
0.0
111
1.0
121
0.0
131
0.0
112
0.0
122
1.0
132
0.0
 79
     0
146
0.0
  0
ENDTAB
  0
TABLE
  2
LTYPE
  5
5
330
0
100
AcDbSymbolTable
 70
     6
  0
LTYPE
  5
14
330
5
100
AcDbSymbolTableRecord
100
AcDbLinetypeTableRecord
  2
ByBlock
 70
     0
  3

 72
    65
 73
     0
 40
0.0
  0
LTYPE
  5
15
330
5
100
AcDbSymbolTableRecord
100
AcDbLinetypeTableRecord
  2
ByLayer
 70
     0
  3

 72
    65
 73
     0
 40
0.0
  0
LTYPE
  5
16
330
5
100
AcDbSymbolTableRecord
100
AcDbLinetypeTableRecord
  2
Continuous
 70
     0
  3
Solid line
 72
    65
 73
     0
 40
0.0
  0
LTYPE
  5
6E
330
5
100
AcDbSymbolTableRecord
100
AcDbLinetypeTableRecord
  2
HIDDEN
 70
     0
  3
Hidden __ __ __ __ __ __ __ __ __ __ __ __ __ __
 72
    65
 73
     2
 40
1.905
 49
1.27
 74
     0
 49
-0.635
 74
     0
  0
LTYPE
  5
6F
330
5
100
AcDbSymbolTableRecord
100
AcDbLinetypeTableRecord
  2
PHANTOM
 70
     0
  3
Phantom ______  __  __  ______  __  __  ______
 72
    65
 73
     6
 40
12.7
 49
6.35
 74
     0
 49
-1.27
 74
     0
 49
1.27
 74
     0
 49
-1.27
 74
     0
 49
1.27
 74
     0
 49
-1.27
 74
     0
  0
LTYPE
  5
70
330
5
100
AcDbSymbolTableRecord
100
AcDbLinetypeTableRecord
  2
CENTER
 70
     0
  3
Center ____ _ ____ _ ____ _ ____ _ ____ _ ____
 72
    65
 73
     4
 40
10.16
 49
6.35
 74
     0
 49
-1.27
 74
     0
 49
1.27
 74
     0
 49
-1.27
 74
     0
  0
LTYPE
  5
71
330
5
100
AcDbSymbolTableRecord
100
AcDbLinetypeTableRecord
  2
CENTERX2
 70
     0
  3
Center (2x) ________  __  ________  __  _____
 72
    65
 73
     4
 40
20.32
 49
12.7
 74
     0
 49
-2.54
 74
     0
 49
2.54
 74
     0
 49
-2.54
 74
     0
  0
LTYPE
  5
72
330
5
100
AcDbSymbolTableRecord
100
AcDbLinetypeTableRecord
  2
DOT2
 70
     0
  3
Dot (.5x) ........................................
 72
    65
 73
     2
 40
0.635
 49
0.0
 74
     0
 49
-0.635
 74
     0
  0
ENDTAB
  0
TABLE
  2
LAYER
  5
2
330
0
100
AcDbSymbolTable
 70
     1
  0
LAYER
  5
10
330
2
100
AcDbSymbolTableRecord
100
AcDbLayerTableRecord
  2
0
 70
     0
 62
     7
  6
Continuous
370
    -3
390
F
  0
ENDTAB
  0
TABLE
  2
STYLE
  5
3
330
0
100
AcDbSymbolTable
 70
     3
  0
STYLE
  5
11
330
3
100
AcDbSymbolTableRecord
100
AcDbTextStyleTableRecord
  2
Standard
 70
     0
 40
0.0
 41
1.0
 50
0.0
 71
     0
 42
10.0
  3
txt
  4

  0
STYLE
  5
76
330
3
100
AcDbSymbolTableRecord
100
AcDbTextStyleTableRecord
  2
SLDTEXTSTYLE0
 70
     0
 40
0.0
 41
0.96
 50
0.0
 71
     0
 42
10.0
  3
ISOCP3
  4

  0
STYLE
  5
8D
330
3
100
AcDbSymbolTableRecord
100
AcDbTextStyleTableRecord
  2
SLDTEXTSTYLE1
 70
     0
 40
0.0
 41
0.605
 50
0.0
 71
     0
 42
10.0
  3
TXT
  4

  0
ENDTAB
  0
TABLE
  2
VIEW
  5
6
330
0
100
AcDbSymbolTable
 70
     0
  0
ENDTAB
  0
TABLE
  2
UCS
  5
7
330
0
100
AcDbSymbolTable
 70
     0
  0
ENDTAB
  0
TABLE
  2
APPID
  5
9
330
0
100
AcDbSymbolTable
 70
     1
  0
APPID
  5
12
330
9
100
AcDbSymbolTableRecord
100
AcDbRegAppTableRecord
  2
ACAD
 70
     0
  0
ENDTAB
  0
TABLE
  2
DIMSTYLE
  5
A
330
0
100
AcDbSymbolTable
 70
     2
100
AcDbDimStyleTable
  0
DIMSTYLE
105
27
330
A
100
AcDbSymbolTableRecord
100
AcDbDimStyleTableRecord
  2
ISO-25
 70
     0
 41
2.5
 42
0.625
 43
3.75
 44
1.25
 73
     0
 74
     0
 77
     1
 78
     8
140
2.5
141
2.5
143
0.0393700787
147
0.625
171
     3
172
     1
178
     0
271
     2
272
     2
274
     3
278
    44
283
     0
284
     8
340
11
  0
DIMSTYLE
105
77
102
{ACAD_REACTORS
330
75
330
82
102
}
330
A
100
AcDbSymbolTableRecord
100
AcDbDimStyleTableRecord
  2
SLDDIMSTYLE0
 70
     0
 41
2.5
 44
0.0
 45
0.000000001
 73
     0
 74
     0
 77
     1
 78
    12
 79
     3
140
6.0
147
1.5
173
     1
178
     0
271
     2
272
     2
276
     2
284
    12
340
76
  0
ENDTAB
  0
TABLE
  2
BLOCK_RECORD
  5
1
330
0
100
AcDbSymbolTable
 70
     3
  0
BLOCK_RECORD
  5
1F
330
1
100
AcDbSymbolTableRecord
100
AcDbBlockTableRecord
  2
*Model_Space
340
22
  0
BLOCK_RECORD
  5
1B
330
1
100
AcDbSymbolTableRecord
100
AcDbBlockTableRecord
  2
*Paper_Space
340
1E
  0
BLOCK_RECORD
  5
23
330
1
100
AcDbSymbolTableRecord
100
AcDbBlockTableRecord
  2
*Paper_Space0
340
26
  0
BLOCK_RECORD
  5
78
330
1
100
AcDbSymbolTableRecord
100
AcDbBlockTableRecord
  2
_D
340
0
  0
BLOCK_RECORD
  5
83
330
1
100
AcDbSymbolTableRecord
100
AcDbBlockTableRecord
  2
_D_1
340
0
  0
ENDTAB
  0
ENDSEC
  0
SECTION
  2
BLOCKS
  0
BLOCK
  5
20
330
1F
100
AcDbEntity
  8
0
100
AcDbBlockBegin
  2
*Model_Space
 70
     0
 10
0.0
 20
0.0
 30
0.0
  3
*Model_Space
  1

  0
ENDBLK
  5
21
330
1F
100
AcDbEntity
  8
0
100
AcDbBlockEnd
  0
BLOCK
  5
1C
330
1B
100
AcDbEntity
 67
     1
  8
0
100
AcDbBlockBegin
  2
*Paper_Space
 70
     0
 10
0.0
 20
0.0
 30
0.0
  3
*Paper_Space
  1

  0
ENDBLK
  5
1D
330
1B
100
AcDbEntity
 67
     1
  8
0
100
AcDbBlockEnd
  0
BLOCK
  5
24
330
23
100
AcDbEntity
  8
0
100
AcDbBlockBegin
  2
*Paper_Space0
 70
     0
 10
0.0
 20
0.0
 30
0.0
  3
*Paper_Space0
  1

  0
ENDBLK
  5
25
330
23
100
AcDbEntity
  8
0
100
AcDbBlockEnd
  0
BLOCK
  5
79
330
78
100
AcDbEntity
  8
0
100
AcDbBlockBegin
  2
_D
 70
     0
 10
0.0
 20
0.0
 30
0.0
  3
_D
  1

  0
SOLID
  5
7B
330
78
100
AcDbEntity
  8
0
  6
Continuous
 62
     7
370
    18
100
AcDbTrace
 10
42.7614395004
 20
152.0299240879
 30
0.0
 11
42.4614395004
 21
149.5299240879
 31
0.0
 12
43.0614395004
 22
149.5299240879
 32
0.0
 13
43.0614395004
 23
149.5299240879
 33
0.0
  0
SOLID
  5
7C
330
78
100
AcDbEntity
  8
0
  6
Continuous
 62
     7
370
    18
100
AcDbTrace
 10
42.7614395004
 20
52.0299240879
 30
0.0
 11
43.0614395004
 21
54.5299240879
 31
0.0
 12
42.4614395004
 22
54.5299240879
 32
0.0
 13
42.4614395004
 23
54.5299240879
 33
0.0
  0
LINE
  5
7D
330
78
100
AcDbEntity
  8
0
  6
Continuous
 62
     7
370
     0
100
AcDbLine
 10
56.6850079902
 20
152.0299240879
 30
0.0
 11
41.7614395004
 21
152.0299240879
 31
0.0
  0
LINE
  5
7E
330
78
100
AcDbEntity
  8
0
  6
Continuous
 62
     7
370
     0
100
AcDbLine
 10
56.6850079902
 20
52.0299240879
 30
0.0
 11
41.7614395004
 21
52.0299240879
 31
0.0
  0
LINE
  5
7F
330
78
100
AcDbEntity
  8
0
  6
Continuous
 62
     7
370
     0
100
AcDbLine
 10
42.7614395004
 20
152.0299240879
 30
0.0
 11
42.7614395004
 21
52.0299240879
 31
0.0
  0
MTEXT
  5
80
330
78
100
AcDbEntity
  8
0
  6
Continuous
 62
     7
370
    18
100
AcDbMText
 10
35.0270332946
 20
94.3680541463
 30
0.0
 40
6.0
 41
0.0
 71
     1
 72
     1
  1
100
  7
SLDTEXTSTYLE0
 11
-7.044195017643634E-15
 21
1.0
 31
0.0
 73
     1
 44
1.0
  0
MTEXT
  5
81
330
78
100
AcDbEntity
  8
0
  6
Continuous
 62
     7
370
    18
100
AcDbMText
 10
35.0270332946
 20
105.7430548466
 30
0.0
 40
6.0
 41
0.0
 71
     1
 72
     1
  1
mm
  7
SLDTEXTSTYLE0
 11
-7.044195017643634E-15
 21
1.0
 31
0.0
 73
     1
 44
1.0
  0
ENDBLK
  5
7A
330
78
100
AcDbEntity
  8
0
100
AcDbBlockEnd
  0
BLOCK
  5
84
330
83
100
AcDbEntity
  8
0
100
AcDbBlockBegin
  2
_D_1
 70
     0
 10
0.0
 20
0.0
 30
0.0
  3
_D_1
  1

  0
SOLID
  5
86
330
83
100
AcDbEntity
  8
0
  6
Continuous
 62
     7
370
    18
100
AcDbTrace
 10
56.6850079902
 20
38.4602342313
 30
0.0
 11
59.1850079902
 21
38.1602342313
 31
0.0
 12
59.1850079902
 22
38.7602342313
 32
0.0
 13
59.1850079902
 23
38.7602342313
 33
0.0
  0
SOLID
  5
87
330
83
100
AcDbEntity
  8
0
  6
Continuous
 62
     7
370
    18
100
AcDbTrace
 10
156.6850079902
 20
38.4602342313
 30
0.0
 11
154.1850079902
 21
38.7602342313
 31
0.0
 12
154.1850079902
 22
38.1602342313
 32
0.0
 13
154.1850079902
 23
38.1602342313
 33
0.0
  0
LINE
  5
88
330
83
100
AcDbEntity
  8
0
  6
Continuous
 62
     7
370
     0
100
AcDbLine
 10
56.6850079902
 20
52.0299240879
 30
0.0
 11
56.6850079902
 21
37.4602342313
 31
0.0
  0
LINE
  5
89
330
83
100
AcDbEntity
  8
0
  6
Continuous
 62
     7
370
     0
100
AcDbLine
 10
156.6850079902
 20
52.0299240879
 30
0.0
 11
156.6850079902
 21
37.4602342313
 31
0.0
  0
LINE
  5
8A
330
83
100
AcDbEntity
  8
0
  6
Continuous
 62
     7
370
     0
100
AcDbLine
 10
56.6850079902
 20
38.4602342313
 30
0.0
 11
156.6850079902
 21
38.4602342313
 31
0.0
  0
MTEXT
  5
8B
330
83
100
AcDbEntity
  8
0
  6
Continuous
 62
     7
370
    18
100
AcDbMText
 10
93.9626484861
 20
46.1946404371
 30
0.0
 40
6.0
 41
0.0
 71
     1
 72
     1
  1
100
  7
SLDTEXTSTYLE0
 73
     1
 44
1.0
  0
MTEXT
  5
8C
330
83
100
AcDbEntity
  8
0
  6
Continuous
 62
     7
370
    18
100
AcDbMText
 10
105.3376491864
 20
46.1946404371
 30
0.0
 40
6.0
 41
0.0
 71
     1
 72
     1
  1
mm
  7
SLDTEXTSTYLE0
 73
     1
 44
1.0
  0
ENDBLK
  5
85
330
83
100
AcDbEntity
  8
0
100
AcDbBlockEnd
  0
ENDSEC
  0
SECTION
  2
ENTITIES
  0
LINE
  5
73
330
1F
100
AcDbEntity
  8
0
  6
Continuous
 62
     7
370
    35
100
AcDbLine
 10
56.6850079902
 20
152.0299240879
 30
0.0
 11
56.6850079902
 21
52.0299240879
 31
0.0
  0
LINE
  5
74
330
1F
100
AcDbEntity
  8
0
  6
Continuous
 62
     7
370
    35
100
AcDbLine
 10
56.6850079902
 20
52.0299240879
 30
0.0
 11
156.6850079902
 21
52.0299240879
 31
0.0
  0
DIMENSION
  5
75
330
1F
100
AcDbEntity
  8
0
  6
Continuous
 62
     7
370
    18
100
AcDbDimension
  2
_D
 10
42.7614395004
 20
52.0299240879
 30
0.0
 11
42.7614395004
 21
105.4472211621
 31
0.0
 70
   160
  1
<>mm
 71
     2
 42
-1.0
  3
SLDDIMSTYLE0
100
AcDbAlignedDimension
 13
56.6850079902
 23
152.0299240879
 33
0.0
 14
56.6850079902
 24
52.0299240879
 34
0.0
 50
90.0
100
AcDbRotatedDimension
  0
DIMENSION
  5
82
330
1F
100
AcDbEntity
  8
0
  6
Continuous
 62
     7
370
    18
100
AcDbDimension
  2
_D_1
 10
156.6850079902
 20
38.4602342313
 30
0.0
 11
105.0418155019
 21
38.4602342313
 31
0.0
 70
   160
  1
<>mm
 71
     2
 42
-1.0
  3
SLDDIMSTYLE0
100
AcDbAlignedDimension
 13
56.6850079902
 23
52.0299240879
 33
0.0
 14
156.6850079902
 24
52.0299240879
 34
0.0
100
AcDbRotatedDimension
  0
MTEXT
  5
8E
330
1F
100
AcDbEntity
  8
0
  6
Continuous
 62
     7
370
     0
100
AcDbMText
 10
412.8252631579
 20
48.4342449499
 30
0.0
 40
10.0
 41
0.0
 71
     1
 72
     1
  1
KLUDI GmbH & Co KG
  7
SLDTEXTSTYLE1
 73
     1
 44
1.0
  0
MTEXT
  5
8F
330
1F
100
AcDbEntity
  8
0
  6
Continuous
 62
     7
370
     0
100
AcDbMText
 10
210.0873490389
 20
48.4342449499
 30
0.0
 40
10.0
 41
0.0
 71
     1
 72
     1
  1
35 203 .. 38
  7
SLDTEXTSTYLE1
 73
     1
 44
1.0
  0
LINE
  5
90
330
1F
100
AcDbEntity
  8
0
  6
Continuous
 62
     7
370
    25
100
AcDbLine
 10
318.8802381443
 20
357.1834005815
 30
0.0
 11
364.8548594271
 21
357.5846150232
 31
0.0
  0
LINE
  5
91
330
1F
100
AcDbEntity
  8
0
  6
Continuous
 62
     7
370
    25
100
AcDbLine
 10
346.1374680673
 20
407.0955303397
 30
0.0
 11
318.8802381443
 21
407.3334005815
 31
0.0
  0
LINE
  5
92
330
1F
100
AcDbEntity
  8
0
  6
Continuous
 62
     7
370
    25
100
AcDbLine
 10
364.8548594271
 20
406.9321861399
 30
0.0
 11
357.8835559283
 21
406.9930237838
 31
0.0
  0
LINE
  5
93
330
1F
100
AcDbEntity
  8
0
  6
Continuous
 62
     7
370
    25
100
AcDbLine
 10
237.486327179
 20
357.1834005815
 30
0.0
 11
316.6736381443
 21
357.1834005815
 31
0.0
  0
LINE
  5
94
330
1F
100
AcDbEntity
  8
0
  6
Continuous
 62
     7
370
    25
100
AcDbLine
 10
134.7294381443
 20
357.1834005815
 30
0.0
 11
213.9565379291
 21
357.1834005815
 31
0.0
  0
LINE
  5
95
330
1F
100
AcDbEntity
  8
0
  6
Continuous
 62
     7
370
    25
100
AcDbLine
 10
316.6736381443
 20
407.3334005815
 30
0.0
 11
134.7294381443
 21
407.3334005815
 31
0.0
  0
LINE
  5
96
330
1F
100
AcDbEntity
  8
0
  6
Continuous
 62
     7
370
    25
100
AcDbLine
 10
134.7294381443
 20
407.3334005815
 30
0.0
 11
134.4285381443
 21
407.0325005815
 31
0.0
  0
LINE
  5
97
330
1F
100
AcDbEntity
  8
0
  6
Continuous
 62
     7
370
    25
100
AcDbLine
 10
134.4285381443
 20
357.4843005815
 30
0.0
 11
134.7294381443
 21
357.1834005815
 31
0.0
  0
LINE
  5
98
330
1F
100
AcDbEntity
  8
0
  6
Continuous
 62
     7
370
    25
100
AcDbLine
 10
316.6736381443
 20
357.1834005815
 30
0.0
 11
316.9745381443
 21
357.4843005815
 31
0.0
  0
LINE
  5
99
330
1F
100
AcDbEntity
  8
0
  6
Continuous
 62
     7
370
    25
100
AcDbLine
 10
316.9745381443
 20
407.0325005815
 30
0.0
 11
316.6736381443
 21
407.3334005815
 31
0.0
  0
LINE
  5
9A
330
1F
100
AcDbEntity
  8
0
  6
Continuous
 62
     7
370
    25
100
AcDbLine
 10
93.1325879205
 20
406.9935859474
 30
0.0
 11
86.0968668615
 21
406.9321861399
 31
0.0
  0
LINE
  5
9B
330
1F
100
AcDbEntity
  8
0
  6
Continuous
 62
     7
370
    25
100
AcDbLine
 10
132.0714881443
 20
407.3334005815
 30
0.0
 11
104.8817630092
 21
407.096119445
 31
0.0
  0
LINE
  5
9C
330
1F
100
AcDbEntity
  8
0
  6
Continuous
 62
     7
370
    25
100
AcDbLine
 10
86.0968668615
 20
357.5846150232
 30
0.0
 11
132.0714881443
 21
357.1834005815
 31
0.0
  0
ARC
  5
9D
330
1F
100
AcDbEntity
  8
0
  6
Continuous
 62
     7
370
    25
100
AcDbCircle
 10
364.8421679902
 20
359.038909646
 30
0.0
 40
1.454350000000017
100
AcDbArc
 50
270.5
 51
357.041602516
  0
ARC
  5
9E
330
1F
100
AcDbEntity
  8
0
  6
Continuous
 62
     7
370
    25
100
AcDbCircle
 10
364.8421679902
 20
405.4778915171
 30
0.0
 40
1.45435000000002
100
AcDbArc
 50
2.958397484
 51
89.5
  0
ARC
  5
9F
330
1F
100
AcDbEntity
  8
0
  6
Continuous
 62
     7
370
    25
100
AcDbCircle
 10
86.1095582984
 20
405.4778915171
 30
0.0
 40
1.454349999999989
100
AcDbArc
 50
90.5
 51
177.041602516
  0
ARC
  5
A0
330
1F
100
AcDbEntity
  8
0
  6
Continuous
 62
     7
370
    25
100
AcDbCircle
 10
86.1095582984
 20
359.038909646
 30
0.0
 40
1.454350000000012
100
AcDbArc
 50
182.958397484
 51
269.5
  0
ARC
  5
A1
330
1F
100
AcDbEntity
  8
0
  6
Continuous
 62
     7
370
    25
100
AcDbCircle
 10
-84.4538937883
 20
382.2584005815
 30
0.0
 40
451.3500000000002
100
AcDbArc
 50
2.7849290165
 51
2.958397484
  0
ARC
  5
A2
330
1F
100
AcDbEntity
  8
0
  6
Continuous
 62
     7
370
    25
100
AcDbCircle
 10
-84.4538937883
 20
382.2584005815
 30
0.0
 40
451.3500000000002
100
AcDbArc
 50
357.041602516
 51
357.2150709835
  0
ARC
  5
A3
330
1F
100
AcDbEntity
  8
0
  6
Continuous
 62
     7
370
    25
100
AcDbCircle
 10
535.4056200768
 20
382.2584005815
 30
0.0
 40
451.35
100
AcDbArc
 50
182.7849290165
 51
182.958397484
  0
ARC
  5
A4
330
1F
100
AcDbEntity
  8
0
  6
Continuous
 62
     7
370
    25
100
AcDbCircle
 10
535.4056200768
 20
382.2584005815
 30
0.0
 40
451.35
100
AcDbArc
 50
177.041602516
 51
177.2150709835
  0
LINE
  5
A5
330
1F
100
AcDbEntity
  8
0
  6
Continuous
 62
     7
370
    25
100
AcDbLine
 10
132.0714881443
 20
359.2897005815
 30
0.0
 11
134.4285381443
 21
359.2897005815
 31
0.0
  0
LINE
  5
A6
330
1F
100
AcDbEntity
  8
0
  6
Continuous
 62
     7
370
    25
100
AcDbLine
 10
134.4285381443
 20
405.2271005815
 30
0.0
 11
132.0714881443
 21
405.2271005815
 31
0.0
  0
LINE
  5
A7
330
1F
100
AcDbEntity
  8
0
  6
Continuous
 62
     7
370
    25
100
AcDbLine
 10
318.8802381443
 20
405.2271005815
 30
0.0
 11
316.9745381443
 21
405.2271005815
 31
0.0
  0
LINE
  5
A8
330
1F
100
AcDbEntity
  8
0
  6
Continuous
 62
     7
370
    25
100
AcDbLine
 10
316.9745381443
 20
359.2897005815
 30
0.0
 11
318.8802381443
 21
359.2897005815
 31
0.0
  0
LINE
  5
A9
330
1F
100
AcDbEntity
  8
0
  6
Continuous
 62
     7
370
    25
100
AcDbLine
 10
237.4867881443
 20
352.1684005815
 30
0.0
 11
237.4867881443
 21
357.1836151241
 31
0.0
  0
LINE
  5
AA
330
1F
100
AcDbEntity
  8
0
  6
Continuous
 62
     7
370
    25
100
AcDbLine
 10
213.9162881443
 20
357.2022815133
 30
0.0
 11
213.9162881443
 21
352.1684005815
 31
0.0
  0
LINE
  5
AB
330
1F
100
AcDbEntity
  8
0
  6
Continuous
 62
     7
370
    25
100
AcDbLine
 10
236.2079631443
 20
342.3139255815
 30
0.0
 11
236.2079631443
 21
348.9337255815
 31
0.0
  0
LINE
  5
AC
330
1F
100
AcDbEntity
  8
0
  6
Continuous
 62
     7
370
    25
100
AcDbLine
 10
215.1951131443
 20
348.9337255815
 30
0.0
 11
215.1951131443
 21
342.3139255815
 31
0.0
  0
LINE
  5
AD
330
1F
100
AcDbEntity
  8
0
  6
Continuous
 62
     7
370
    25
100
AcDbLine
 10
236.2079631443
 20
348.9337255815
 30
0.0
 11
234.9792881443
 21
350.1624005815
 31
0.0
  0
LINE
  5
AE
330
1F
100
AcDbEntity
  8
0
  6
Continuous
 62
     7
370
    25
100
AcDbLine
 10
216.4237881443
 20
350.1624005815
 30
0.0
 11
215.1951131443
 21
348.9337255815
 31
0.0
  0
LINE
  5
AF
330
1F
100
AcDbEntity
  8
0
  6
Continuous
 62
     7
370
    25
100
AcDbLine
 10
215.1951131443
 20
342.3139255815
 30
0.0
 11
216.3736381443
 21
341.1354005815
 31
0.0
  0
LINE
  5
B0
330
1F
100
AcDbEntity
  8
0
  6
Continuous
 62
     7
370
    25
100
AcDbLine
 10
235.0294381443
 20
341.1354005815
 30
0.0
 11
236.2079631443
 21
342.3139255815
 31
0.0
  0
ARC
  5
B1
330
1F
100
AcDbEntity
  8
0
  6
Continuous
 62
     7
370
    25
100
AcDbCircle
 10
235.4807881443
 20
351.6669005815
 30
0.0
 40
0.501499999999993
100
AcDbArc
 50
90.0
 51
180.0
  0
ARC
  5
B2
330
1F
100
AcDbEntity
  8
0
  6
Continuous
 62
     7
370
    25
100
AcDbCircle
 10
215.9222881443
 20
351.6669005815
 30
0.0
 40
0.5015000000000214
100
AcDbArc
 50
0.0
 51
90.0
  0
LINE
  5
B3
330
1F
100
AcDbEntity
  8
0
  6
Continuous
 62
     7
370
    25
100
AcDbLine
 10
234.9792881443
 20
350.1624005815
 30
0.0
 11
234.9792881443
 21
351.6669005815
 31
0.0
  0
LINE
  5
B4
330
1F
100
AcDbEntity
  8
0
  6
Continuous
 62
     7
370
    25
100
AcDbLine
 10
216.4237881443
 20
351.6669005815
 30
0.0
 11
216.4237881443
 21
350.1624005815
 31
0.0
  0
ARC
  5
B5
330
1F
100
AcDbEntity
  8
0
  6
Continuous
 62
     7
370
    25
100
AcDbCircle
 10
356.3924381443
 20
426.9922005815
 30
0.0
 40
1.50449999999995
100
AcDbArc
 50
360.0
 51
90.0
  0
ARC
  5
B6
330
1F
100
AcDbEntity
  8
0
  6
Continuous
 62
     7
370
    25
100
AcDbCircle
 10
347.5660381443
 20
426.9922005815
 30
0.0
 40
1.504500000000064
100
AcDbArc
 50
90.0
 51
180.0
  0
LINE
  5
B7
330
1F
100
AcDbEntity
  8
0
  6
Continuous
 62
     7
370
    25
100
AcDbLine
 10
357.8969381443
 20
406.9899595903
 30
0.0
 11
357.8969381443
 21
426.9922005815
 31
0.0
  0
LINE
  5
B8
330
1F
100
AcDbEntity
  8
0
  6
Continuous
 62
     7
370
    25
100
AcDbLine
 10
346.0615381443
 20
426.9922005815
 30
0.0
 11
346.0615381443
 21
407.0776534844
 31
0.0
  0
LINE
  5
B9
330
1F
100
AcDbEntity
  8
0
  6
Continuous
 62
     7
370
    25
100
AcDbLine
 10
104.8901881443
 20
407.0942145493
 30
0.0
 11
104.8901881443
 21
426.9922005815
 31
0.0
  0
LINE
  5
BA
330
1F
100
AcDbEntity
  8
0
  6
Continuous
 62
     7
370
    25
100
AcDbLine
 10
93.0547881443
 20
426.9922005815
 30
0.0
 11
93.0547881443
 21
406.9750979911
 31
0.0
  0
ARC
  5
BB
330
1F
100
AcDbEntity
  8
0
  6
Continuous
 62
     7
370
    25
100
AcDbCircle
 10
103.3856881443
 20
426.9922005815
 30
0.0
 40
1.504500000000007
100
AcDbArc
 50
0.0
 51
90.0
  0
ARC
  5
BC
330
1F
100
AcDbEntity
  8
0
  6
Continuous
 62
     7
370
    25
100
AcDbCircle
 10
94.5592881443
 20
426.9922005815
 30
0.0
 40
1.504500000000007
100
AcDbArc
 50
90.0
 51
180.0
  0
LINE
  5
BD
330
1F
100
AcDbEntity
  8
0
  6
Continuous
 62
     7
370
    25
100
AcDbLine
 10
318.8802381443
 20
404.7324718907
 30
0.0
 11
316.9745381443
 21
404.7324718907
 31
0.0
  0
SPLINE
  5
BE
330
1F
100
AcDbEntity
  8
0
  6
Continuous
 62
     7
370
    25
100
AcDbSpline
210
0.0
220
0.0
230
1.0
 70
     8
 71
     3
 72
    14
 73
    10
 74
     0
 42
0.00000001
 43
0.00000001
 40
0.0
 40
0.0
 40
0.0
 40
0.0
 40
0.1448127747715566
 40
0.2897336152911912
 40
0.4318196918713859
 40
0.5722273024712079
 40
0.715429130794734
 40
0.86147069089379
 40
1.0
 40
1.0
 40
1.0
 40
1.0
 10
347.9078670156323
 20
406.7057455033806
 30
0.0
 10
348.4329844304655
 20
406.6216736420976
 30
0.0
 10
349.4836111261556
 20
406.453467181361
 30
0.0
 10
351.4614046598977
 20
406.3100344783627
 30
0.0
 10
353.4472465569098
 20
406.333666747805
 30
0.0
 10
355.2683471801054
 20
406.5037539770716
 30
0.0
 10
356.7273842843423
 20
406.7394263866731
 30
0.0
 10
357.7152827609268
 20
406.9499195879951
 30
0.0
 10
357.8284423997599
 20
406.9768042686044
 30
0.0
 10
357.8835285954412
 20
406.9898917509626
 30
0.0
  0
SPLINE
  5
BF
330
1F
100
AcDbEntity
  8
0
  6
Continuous
 62
     7
370
    25
100
AcDbSpline
210
0.0
220
0.0
230
1.0
 70
     8
 71
     3
 72
    10
 73
     6
 74
     0
 42
0.00000001
 43
0.00000001
 40
0.0
 40
0.0
 40
0.0
 40
0.0
 40
0.2573101440495249
 40
0.6595129373447972
 40
1.0
 40
1.0
 40
1.0
 40
1.0
 10
346.1373117634773
 20
407.0776196911897
 30
0.0
 10
346.133527553718
 20
407.07864333898
 30
0.0
 10
346.1238282264603
 20
407.0812670558313
 30
0.0
 10
346.7640772645834
 20
406.9226105754004
 30
0.0
 10
347.5483268463947
 20
406.7739151163922
 30
0.0
 10
347.9078670156323
 20
406.7057455033806
 30
0.0
  0
LINE
  5
C0
330
1F
100
AcDbEntity
  8
0
  6
Continuous
 62
     7
370
    25
100
AcDbLine
 10
318.8802381443
 20
407.3334005815
 30
0.0
 11
318.8802381443
 21
357.1834005815
 31
0.0
  0
LINE
  5
C1
330
1F
100
AcDbEntity
  8
0
  6
Continuous
 62
     7
370
    25
100
AcDbLine
 10
316.6736381443
 20
357.1834005815
 30
0.0
 11
316.6736381443
 21
407.3334005815
 31
0.0
  0
LINE
  5
C2
330
1F
100
AcDbEntity
  8
0
  6
Continuous
 62
     7
370
    25
100
AcDbLine
 10
134.7294381443
 20
357.1834005815
 30
0.0
 11
134.7294381443
 21
407.3334005815
 31
0.0
  0
SPLINE
  5
C3
330
1F
100
AcDbEntity
  8
0
  6
Continuous
 62
     7
370
    25
100
AcDbSpline
210
0.0
220
0.0
230
1.0
 70
     8
 71
     3
 72
    24
 73
    20
 74
     0
 42
0.00000001
 43
0.00000001
 40
0.0
 40
0.0
 40
0.0
 40
0.0
 40
0.0205251667430666
 40
0.0682318467159292
 40
0.1172896817573606
 40
0.2152177375781409
 40
0.2678890043432449
 40
0.3219400015585218
 40
0.3770878829003628
 40
0.4340870466290821
 40
0.485005436147695
 40
0.537714380846919
 40
0.6315927110092621
 40
0.7298723451468911
 40
0.7837741714617122
 40
0.8391819645756408
 40
0.8937412835408269
 40
0.9501767681078596
 40
1.0
 40
1.0
 40
1.0
 40
1.0
 10
213.9565379291192
 20
357.2022871466154
 30
0.0
 10
213.9460315296079
 20
357.1973595080612
 30
0.0
 10
213.9111050878415
 20
357.1809785508336
 30
0.0
 10
214.1636115402822
 20
357.2995233833649
 30
0.0
 10
214.8489945477881
 20
357.6125181496132
 30
0.0
 10
216.1090949282072
 20
358.1552424732638
 30
0.0
 10
217.8241585671289
 20
358.7787040627983
 30
0.0
 10
219.4010949279842
 20
359.2654478256609
 30
0.0
 10
221.215781118601
 20
359.7017554268757
 30
0.0
 10
223.1536934747788
 20
360.0085615259378
 30
0.0
 10
225.1518351579527
 20
360.1473682407465
 30
0.0
 10
227.6337637984246
 20
360.1002565493264
 30
0.0
 10
230.6097584149598
 20
359.6643719137869
 30
0.0
 10
233.1638779457146
 20
358.9283146024252
 30
0.0
 10
234.9123885857218
 20
358.2948234560501
 30
0.0
 10
236.0401396932676
 20
357.8352605079797
 30
0.0
 10
236.8813704900819
 20
357.4647070375327
 30
0.0
 10
237.3962476188088
 20
357.2261499592208
 30
0.0
 10
237.457572701882
 20
357.1971934698888
 30
0.0
 10
237.4863271790353
 20
357.1836161754244
 30
0.0
  0
LINE
  5
C4
330
1F
100
AcDbEntity
  8
0
  6
Continuous
 62
     7
370
    25
100
AcDbLine
 10
134.4285381443
 20
357.4843005815
 30
0.0
 11
134.4285381443
 21
407.0325005815
 31
0.0
  0
LINE
  5
C5
330
1F
100
AcDbEntity
  8
0
  6
Continuous
 62
     7
370
    25
100
AcDbLine
 10
316.9745381443
 20
357.4843005815
 30
0.0
 11
316.9745381443
 21
407.0325005815
 31
0.0
  0
SPLINE
  5
C6
330
1F
100
AcDbEntity
  8
0
  6
Continuous
 62
     7
370
    25
100
AcDbSpline
210
0.0
220
0.0
230
1.0
 70
     8
 71
     3
 72
    14
 73
    10
 74
     0
 42
0.00000001
 43
0.00000001
 40
0.0
 40
0.0
 40
0.0
 40
0.0
 40
0.1439982824410845
 40
0.2881018482564633
 40
0.4295189891471323
 40
0.5697641350508615
 40
0.713185631961778
 40
0.8594054129561369
 40
1.0
 40
1.0
 40
1.0
 40
1.0
 10
94.88435498407962
 20
406.6362504361975
 30
0.0
 10
95.40669123128289
 20
406.5612927485295
 30
0.0
 10
96.4517456283184
 20
406.4113225683851
 30
0.0
 10
98.42236425575807
 20
406.3013132817876
 30
0.0
 10
100.4043244052852
 20
406.3576136478779
 30
0.0
 10
102.2286918940973
 20
406.5575400984997
 30
0.0
 10
103.698188014499
 20
406.8185258151956
 30
0.0
 10
104.7018594640777
 20
407.048514939794
 30
0.0
 10
104.8225958481734
 20
407.0791490651491
 30
0.0
 10
104.8817800591291
 20
407.0941657194165
 30
0.0
  0
SPLINE
  5
C7
330
1F
100
AcDbEntity
  8
0
  6
Continuous
 62
     7
370
    25
100
AcDbSpline
210
0.0
220
0.0
230
1.0
 70
     8
 71
     3
 72
    10
 73
     6
 74
     0
 42
0.00000001
 43
0.00000001
 40
0.0
 40
0.0
 40
0.0
 40
0.0
 40
0.2503828591924908
 40
0.6562021849414782
 40
1.0
 40
1.0
 40
1.0
 40
1.0
 10
93.13274945960029
 20
406.9750753980537
 30
0.0
 10
93.12654169306586
 20
406.976596079488
 30
0.0
 10
93.11027240859235
 20
406.9805814740277
 30
0.0
 10
93.74056234982783
 20
406.8343430121283
 30
0.0
 10
94.5247171298266
 20
406.6985358425009
 30
0.0
 10
94.88435498407962
 20
406.6362504361975
 30
0.0
  0
LINE
  5
C8
330
1F
100
AcDbEntity
  8
0
  6
Continuous
 62
     7
370
    25
100
AcDbLine
 10
132.0714881443
 20
382.2584005815
 30
0.0
 11
132.0714881443
 21
407.3334005815
 31
0.0
  0
LINE
  5
C9
330
1F
100
AcDbEntity
  8
0
  6
Continuous
 62
     7
370
    25
100
AcDbLine
 10
132.0714881443
 20
357.1834005815
 30
0.0
 11
132.0714881443
 21
382.2584005815
 31
0.0
  0
LINE
  5
CA
330
1F
100
AcDbEntity
  8
0
  6
Continuous
 62
     7
370
    25
100
AcDbLine
 10
366.3630402636
 20
382.2584005815
 30
0.0
 11
366.3630402636
 21
360.3286383366
 31
0.0
  0
LINE
  5
CB
330
1F
100
AcDbEntity
  8
0
  6
Continuous
 62
     7
370
    25
100
AcDbLine
 10
366.3630402636
 20
404.1881628265
 30
0.0
 11
366.3630402636
 21
382.2584005815
 31
0.0
  0
LINE
  5
CC
330
1F
100
AcDbEntity
  8
0
  6
Continuous
 62
     7
370
    25
100
AcDbLine
 10
84.588686025
 20
360.3286383366
 30
0.0
 11
84.588686025
 21
404.1881628265
 31
0.0
  0
LINE
  5
CD
330
1F
100
AcDbEntity
  8
0
  6
Continuous
 62
     7
370
    25
100
AcDbLine
 10
237.4867881443
 20
352.1684005815
 30
0.0
 11
213.9162881443
 21
352.1684005815
 31
0.0
  0
LINE
  5
CE
330
1F
100
AcDbEntity
  8
0
  6
Continuous
 62
     7
370
    25
100
AcDbLine
 10
236.2079631443
 20
342.3139255815
 30
0.0
 11
215.1951131443
 21
342.3139255815
 31
0.0
  0
LINE
  5
CF
330
1F
100
AcDbEntity
  8
0
  6
Continuous
 62
     7
370
    25
100
AcDbLine
 10
236.2079631443
 20
348.9337255815
 30
0.0
 11
215.1951131443
 21
348.9337255815
 31
0.0
  0
LINE
  5
D0
330
1F
100
AcDbEntity
  8
0
  6
Continuous
 62
     7
370
    25
100
AcDbLine
 10
234.9792881443
 20
350.1624005815
 30
0.0
 11
216.4237881443
 21
350.1624005815
 31
0.0
  0
LINE
  5
D1
330
1F
100
AcDbEntity
  8
0
  6
Continuous
 62
     7
370
    25
100
AcDbLine
 10
235.0294381443
 20
341.1354005815
 30
0.0
 11
216.3736381443
 21
341.1354005815
 31
0.0
  0
LINE
  5
D2
330
1F
100
AcDbEntity
  8
0
  6
Continuous
 62
     7
370
    25
100
AcDbLine
 10
356.3924381443
 20
428.4967005815
 30
0.0
 11
347.5660386759
 21
428.4967005815
 31
0.0
  0
LINE
  5
D3
330
1F
100
AcDbEntity
  8
0
  6
Continuous
 62
     7
370
    25
100
AcDbLine
 10
103.3856876127
 20
428.4967005815
 30
0.0
 11
94.5592881443
 21
428.4967005815
 31
0.0
  0
ARC
  5
D4
330
1F
100
AcDbEntity
  8
0
  6
Continuous
 62
     7
370
    25
100
AcDbCircle
 10
300.603934128
 20
382.2584005815
 30
0.0
 40
35.16057968938932
100
AcDbArc
 50
225.4923300728
 51
314.6379276385
  0
ARC
  5
D5
330
1F
100
AcDbEntity
  8
0
  6
Continuous
 62
     7
370
    25
100
AcDbCircle
 10
300.603934128
 20
382.2584005815
 30
0.0
 40
35.16057968938931
100
AcDbArc
 50
45.3620723615
 51
134.5076699272
  0
ARC
  5
D6
330
1F
100
AcDbEntity
  8
0
  6
Continuous
 62
     7
370
    25
100
AcDbCircle
 10
150.4765381443
 20
382.2584005815
 30
0.0
 40
35.16057968938928
100
AcDbArc
 50
270.0
 51
314.5076699272
  0
ARC
  5
D7
330
1F
100
AcDbEntity
  8
0
  6
Continuous
 62
     7
370
    25
100
AcDbCircle
 10
150.4765381443
 20
382.2584005815
 30
0.0
 40
35.16057968938929
100
AcDbArc
 50
45.4923300728
 51
134.6352985747
  0
ARC
  5
D8
330
1F
100
AcDbEntity
  8
0
  6
Continuous
 62
     7
370
    25
100
AcDbCircle
 10
150.4765381443
 20
382.2584005815
 30
0.0
 40
35.16057968938925
100
AcDbArc
 50
225.3647014253
 51
270.0
  0
LINE
  5
D9
330
1F
100
AcDbEntity
  8
0
  6
Continuous
 62
     8
370
    18
100
AcDbLine
 10
366.2945797382
 20
382.2584005815
 30
0.0
 11
366.2945797382
 21
358.9638494256
 31
0.0
  0
LINE
  5
DA
330
1F
100
AcDbEntity
  8
0
  6
Continuous
 62
     8
370
    18
100
AcDbLine
 10
366.2945797382
 20
405.5529517375
 30
0.0
 11
366.2945797382
 21
382.2584005815
 31
0.0
  0
LINE
  5
DB
330
1F
100
AcDbEntity
  8
0
  6
Continuous
 62
     8
370
    18
100
AcDbLine
 10
84.6571465503
 20
358.9638494256
 30
0.0
 11
84.6571465503
 21
405.5529517375
 31
0.0
  0
LINE
  5
DC
330
1F
100
AcDbEntity
  8
0
  6
Continuous
 62
     8
370
    18
100
AcDbLine
 10
318.8802381443
 20
403.4090259144
 30
0.0
 11
316.9745381443
 21
403.4090259144
 31
0.0
  0
LINE
  5
DD
330
1F
100
AcDbEntity
  8
0
  6
Continuous
 62
     8
370
    18
100
AcDbLine
 10
318.8802381443
 20
403.5860869296
 30
0.0
 11
316.9745381443
 21
403.5860869296
 31
0.0
  0
LINE
  5
DE
330
1F
100
AcDbEntity
  8
0
  6
Continuous
 62
     8
370
    18
100
AcDbLine
 10
316.9745381443
 20
403.7653768976
 30
0.0
 11
318.8802381443
 21
403.7653768976
 31
0.0
  0
LINE
  5
DF
330
1F
100
AcDbEntity
  8
0
  6
Continuous
 62
     8
370
    18
100
AcDbLine
 10
318.8802381443
 20
404.7233241447
 30
0.0
 11
316.9745381443
 21
404.7233241447
 31
0.0
  0
SPLINE
  5
E0
330
1F
100
AcDbEntity
  8
0
  6
Continuous
 62
     8
370
    18
100
AcDbSpline
210
0.0
220
0.0
230
1.0
 70
     8
 71
     3
 72
    19
 73
    15
 74
     0
 42
0.00000001
 43
0.00000001
 40
0.0
 40
0.0
 40
0.0
 40
0.0
 40
0.0398527928025262
 40
0.1317880876721658
 40
0.2237233825418017
 40
0.3156586774114402
 40
0.4075939722810786
 40
0.4995292671507147
 40
0.5914645620203528
 40
0.6833998568899902
 40
0.7753351517596285
 40
0.8672704466292656
 40
0.9592057414989027
 40
1.0
 40
1.0
 40
1.0
 40
1.0
 10
278.9910778902321
 20
357.1834005815451
 30
0.0
 10
279.4556216265615
 20
356.7616484961198
 30
0.0
 10
280.9918083363435
 20
355.3669683018015
 30
0.0
 10
283.9789285410295
 20
353.4663630796009
 30
0.0
 10
287.8640646269102
 20
351.5219683648742
 30
0.0
 10
291.9889638388035
 20
350.1286704493671
 30
0.0
 10
296.2553179682568
 20
349.2783403370066
 30
0.0
 10
300.5974281104878
 20
348.994243426823
 30
0.0
 10
304.9395312074836
 20
349.2783453452115
 30
0.0
 10
309.2059064726425
 20
350.1286504165473
 30
0.0
 10
313.3307281869486
 20
351.5220434879482
 30
0.0
 10
317.2161531274731
 20
353.4660826201246
 30
0.0
 10
320.2149655888663
 20
355.3757669937253
 30
0.0
 10
321.7617721815941
 20
356.7808467220879
 30
0.0
 10
322.2371812098961
 20
357.21269617986
 30
0.0
  0
SPLINE
  5
E1
330
1F
100
AcDbEntity
  8
0
  6
Continuous
 62
     8
370
    18
100
AcDbSpline
210
0.0
220
0.0
230
1.0
 70
     8
 71
     3
 72
    19
 73
    15
 74
     0
 42
0.00000001
 43
0.00000001
 40
0.0
 40
0.0
 40
0.0
 40
0.0
 40
0.0407942585010201
 40
0.1327295533706728
 40
0.2246648482403245
 40
0.3166001431099761
 40
0.4085354379796289
 40
0.5004707328492803
 40
0.5924060277189326
 40
0.6843413225885849
 40
0.7762766174582364
 40
0.8682119123278886
 40
0.9601472071975409
 40
1.0
 40
1.0
 40
1.0
 40
1.0
 10
322.2371812098933
 20
407.3041049832304
 30
0.0
 10
321.7617721815922
 20
407.7359544410015
 30
0.0
 10
320.2149655888653
 20
409.1410341693633
 30
0.0
 10
317.2161531274732
 20
411.0507185429632
 30
0.0
 10
313.3307281869488
 20
412.9947576751396
 30
0.0
 10
309.2059064726428
 20
414.3881507465405
 30
0.0
 10
304.9395312074838
 20
415.2384558178763
 30
0.0
 10
300.5974281104881
 20
415.5225577362649
 30
0.0
 10
296.255317968257
 20
415.2384608260813
 30
0.0
 10
291.9889638388037
 20
414.3881307137208
 30
0.0
 10
287.8640646269102
 20
412.9948327982137
 30
0.0
 10
283.9789285410297
 20
411.0504380834871
 30
0.0
 10
280.9918083363445
 20
409.1498328612872
 30
0.0
 10
279.4556216265634
 20
407.7551526669697
 30
0.0
 10
278.9910778902349
 20
407.3334005815452
 30
0.0
  0
SPLINE
  5
E2
330
1F
100
AcDbEntity
  8
0
  6
Continuous
 62
     8
370
    18
100
AcDbSpline
210
0.0
220
0.0
230
1.0
 70
     8
 71
     3
 72
    13
 73
     9
 74
     0
 42
0.00000001
 43
0.00000001
 40
0.0
 40
0.0
 40
0.0
 40
0.0
 40
0.1839668458922299
 40
0.3679336917844453
 40
0.5519005376766577
 40
0.7358673835688702
 40
0.9198342294610853
 40
1.0
 40
1.0
 40
1.0
 40
1.0
 10
150.4765381442705
 20
349.0824360398738
 30
0.0
 10
151.9239073923946
 20
349.1371104670736
 30
0.0
 10
154.8186458886426
 20
349.2464593214734
 30
0.0
 10
159.0850049621568
 20
350.1289587481814
 30
0.0
 10
163.2098867956663
 20
351.5136530348829
 30
0.0
 10
167.0950874510215
 20
353.460292950485
 30
0.0
 10
170.0848042035298
 20
355.3623684819929
 30
0.0
 10
171.6233497766333
 20
356.7593949894149
 30
0.0
 10
172.0903072203735
 20
357.1834005815451
 30
0.0
  0
SPLINE
  5
E3
330
1F
100
AcDbEntity
  8
0
  6
Continuous
 62
     8
370
    18
100
AcDbSpline
210
0.0
220
0.0
230
1.0
 70
     8
 71
     3
 72
    19
 73
    15
 74
     0
 42
0.00000001
 43
0.00000001
 40
0.0
 40
0.0
 40
0.0
 40
0.0
 40
0.0396617175724852
 40
0.1316388591799664
 40
0.223616000787449
 40
0.3155931423949302
 40
0.4075702840024116
 40
0.4995474256098942
 40
0.5915245672173769
 40
0.683501708824858
 40
0.7754788504323394
 40
0.8674559920398218
 40
0.9594331336473033
 40
0.9999999999999999
 40
0.9999999999999999
 40
0.9999999999999999
 40
0.9999999999999999
 10
172.0754671602644
 20
407.3334005815452
 30
0.0
 10
171.6133372977717
 20
407.7529103810561
 30
0.0
 10
170.0795094250794
 20
409.1452805254281
 30
0.0
 10
167.0949854559207
 20
411.0438679909087
 30
0.0
 10
163.2099141360085
 20
412.9883424674414
 30
0.0
 10
159.0849975958856
 20
414.3816189791205
 30
0.0
 10
154.818648013382
 20
415.2319549449867
 30
0.0
 10
150.4765370115818
 20
415.5160498449755
 30
0.0
 10
146.1344328059133
 20
415.2319501138604
 30
0.0
 10
141.8680628350142
 20
414.3816383036254
 30
0.0
 10
137.7432210523412
 20
412.9882700005475
 30
0.0
 10
133.8578710910253
 20
411.0441385339787
 30
0.0
 10
130.8621124959209
 20
409.1368242822455
 30
0.0
 10
129.3180791663922
 20
407.7344601655212
 30
0.0
 10
128.8455071151386
 20
407.3052478716085
 30
0.0
  0
SPLINE
  5
E4
330
1F
100
AcDbEntity
  8
0
  6
Continuous
 62
     8
370
    18
100
AcDbSpline
210
0.0
220
0.0
230
1.0
 70
     8
 71
     3
 72
    13
 73
     9
 74
     0
 42
0.00000001
 43
0.00000001
 40
0.0
 40
0.0
 40
0.0
 40
0.0
 40
0.0818357580925552
 40
0.2654686064740437
 40
0.4491014548555308
 40
0.6327343032370185
 40
0.8163671516185064
 40
1.0
 40
1.0
 40
1.0
 40
1.0
 10
128.830517896028
 20
357.2116841004154
 30
0.0
 10
129.3079646081045
 20
356.7779287419252
 30
0.0
 10
130.8567632784512
 20
355.3708613027891
 30
0.0
 10
133.8577696289912
 20
353.4600226975596
 30
0.0
 10
137.7432482094452
 20
351.5137254240592
 30
0.0
 10
141.8680556686325
 20
350.1289394444009
 30
0.0
 10
146.1344343143366
 20
349.2464641474185
 30
0.0
 10
149.0291702009592
 20
349.137112075722
 30
0.0
 10
150.4765381442705
 20
349.0824360398738
 30
0.0
  0
LINE
  5
E5
330
1F
100
AcDbEntity
  8
0
  6
Continuous
 62
     7
370
    25
100
AcDbLine
 10
511.3253518525
 20
406.3432386362
 30
0.0
 11
511.3253518525
 21
426.9922005815
 31
0.0
  0
LINE
  5
E6
330
1F
100
AcDbEntity
  8
0
  6
Continuous
 62
     7
370
    25
100
AcDbLine
 10
499.4899518525
 20
426.9922005815
 30
0.0
 11
499.4899518525
 21
406.3452330776
 31
0.0
  0
ARC
  5
E7
330
1F
100
AcDbEntity
  8
0
  6
Continuous
 62
     7
370
    25
100
AcDbCircle
 10
509.8208518525
 20
426.9922005815
 30
0.0
 40
1.504500000000007
100
AcDbArc
 50
0.0
 51
90.0
  0
ARC
  5
E8
330
1F
100
AcDbEntity
  8
0
  6
Continuous
 62
     7
370
    25
100
AcDbCircle
 10
500.9944518525
 20
426.9922005815
 30
0.0
 40
1.504500000000007
100
AcDbArc
 50
90.0
 51
180.0
  0
ARC
  5
E9
330
1F
100
AcDbEntity
  8
0
  6
Continuous
 62
     7
370
    25
100
AcDbCircle
 10
443.1693295654
 20
350.4612282009
 30
0.0
 40
3.009000000000023
100
AcDbArc
 50
271.0588103613
 51
332.7519034398
  0
ARC
  5
EA
330
1F
100
AcDbEntity
  8
0
  6
Continuous
 62
     7
370
    25
100
AcDbCircle
 10
443.1693295654
 20
414.0555729622
 30
0.0
 40
3.009000000000004
100
AcDbArc
 50
27.0350783715
 51
88.9411896387
  0
LINE
  5
EB
330
1F
100
AcDbEntity
  8
0
  6
Continuous
 62
     7
370
    25
100
AcDbLine
 10
425.5141461009
 20
347.0978208922
 30
0.0
 11
443.224931899
 21
347.4527419734
 31
0.0
  0
LINE
  5
EC
330
1F
100
AcDbEntity
  8
0
  6
Continuous
 62
     7
370
    25
100
AcDbLine
 10
443.224931899
 20
417.0640591896
 30
0.0
 11
425.5141461009
 21
417.4189802709
 31
0.0
  0
ARC
  5
ED
330
1F
100
AcDbEntity
  8
0
  6
Continuous
 62
     7
370
    25
100
AcDbCircle
 10
381.5026493755
 20
382.2518933898
 30
0.0
 40
72.38795108347487
100
AcDbArc
 50
332.7269802677
 51
346.653172934
  0
ARC
  5
EE
330
1F
100
AcDbEntity
  8
0
  6
Continuous
 62
     7
370
    25
100
AcDbCircle
 10
381.5026493755
 20
382.2518933898
 30
0.0
 40
72.38795108347485
100
AcDbArc
 50
13.3478534534
 51
27.2725794229
  0
ARC
  5
EF
330
1F
100
AcDbEntity
  8
0
  6
Continuous
 62
     7
370
    25
100
AcDbCircle
 10
446.0756591139
 20
366.9317662514
 30
0.0
 40
6.022542689419704
100
AcDbArc
 50
346.637399313
 51
0.0000056709
  0
ARC
  5
F0
330
1F
100
AcDbEntity
  8
0
  6
Continuous
 62
     7
370
    25
100
AcDbCircle
 10
446.0756591139
 20
397.5850349117
 30
0.0
 40
6.022542689419748
100
AcDbArc
 50
359.9999943291
 51
13.2367846891
  0
ARC
  5
F1
330
1F
100
AcDbEntity
  8
0
  6
Continuous
 62
     7
370
    25
100
AcDbCircle
 10
456.0787346987
 20
372.2284005814
 30
0.0
 40
6.017999999875404
100
AcDbArc
 50
228.5903778903
 51
270.0000000009
  0
ARC
  5
F2
330
1F
100
AcDbEntity
  8
0
  6
Continuous
 62
     7
370
    25
100
AcDbCircle
 10
456.0787346987
 20
392.2884005817
 30
0.0
 40
6.017999999875428
100
AcDbArc
 50
89.9999999991
 51
131.4096221097
  0
ARC
  5
F3
330
1F
100
AcDbEntity
  8
0
  6
Continuous
 62
     7
370
    25
100
AcDbCircle
 10
465.1686690037
 20
372.2284005815
 30
0.0
 40
6.018000000000029
100
AcDbArc
 50
270.0
 51
311.4096221093
  0
ARC
  5
F4
330
1F
100
AcDbEntity
  8
0
  6
Continuous
 62
     7
370
    25
100
AcDbCircle
 10
465.1686690037
 20
392.2884005815
 30
0.0
 40
6.017999999999977
100
AcDbArc
 50
48.5903778907
 51
90.0
  0
LINE
  5
F5
330
1F
100
AcDbEntity
  8
0
  6
Continuous
 62
     7
370
    25
100
AcDbLine
 10
469.1492018512
 20
371.7269005815
 30
0.0
 11
482.6421806052
 21
371.7269005815
 31
0.0
  0
LINE
  5
F6
330
1F
100
AcDbEntity
  8
0
  6
Continuous
 62
     7
370
    25
100
AcDbLine
 10
482.6514849356
 20
392.7899005815
 30
0.0
 11
469.1492018512
 21
392.7899005815
 31
0.0
  0
LINE
  5
F7
330
1F
100
AcDbEntity
  8
0
  6
Continuous
 62
     7
370
    25
100
AcDbLine
 10
465.1686690037
 20
398.3064005815
 30
0.0
 11
456.0787346988
 21
398.3064005815
 31
0.0
  0
LINE
  5
F8
330
1F
100
AcDbEntity
  8
0
  6
Continuous
 62
     7
370
    25
100
AcDbLine
 10
456.0787346988
 20
366.2104005815
 30
0.0
 11
465.1686690037
 21
366.2104005815
 31
0.0
  0
LINE
  5
F9
330
1F
100
AcDbEntity
  8
0
  6
Continuous
 62
     7
370
    25
100
AcDbLine
 10
517.1929018525
 20
352.1684005815
 30
0.0
 11
517.1929018525
 21
360.1074205976
 31
0.0
  0
LINE
  5
FA
330
1F
100
AcDbEntity
  8
0
  6
Continuous
 62
     7
370
    25
100
AcDbLine
 10
493.6224018525
 20
360.1255402278
 30
0.0
 11
493.6224018525
 21
352.1684005815
 31
0.0
  0
LINE
  5
FB
330
1F
100
AcDbEntity
  8
0
  6
Continuous
 62
     7
370
    25
100
AcDbLine
 10
494.9012268525
 20
342.3139255815
 30
0.0
 11
496.0797518525
 21
341.1354005815
 31
0.0
  0
LINE
  5
FC
330
1F
100
AcDbEntity
  8
0
  6
Continuous
 62
     7
370
    25
100
AcDbLine
 10
514.7355518525
 20
341.1354005815
 30
0.0
 11
515.9140768525
 21
342.3139255815
 31
0.0
  0
LINE
  5
FD
330
1F
100
AcDbEntity
  8
0
  6
Continuous
 62
     7
370
    25
100
AcDbLine
 10
515.9140768525
 20
342.3139255815
 30
0.0
 11
515.9140768525
 21
348.9337255815
 31
0.0
  0
LINE
  5
FE
330
1F
100
AcDbEntity
  8
0
  6
Continuous
 62
     7
370
    25
100
AcDbLine
 10
494.9012268525
 20
348.9337255815
 30
0.0
 11
494.9012268525
 21
342.3139255815
 31
0.0
  0
LINE
  5
FF
330
1F
100
AcDbEntity
  8
0
  6
Continuous
 62
     7
370
    25
100
AcDbLine
 10
515.9140768525
 20
348.9337255815
 30
0.0
 11
514.6854018525
 21
350.1624005815
 31
0.0
  0
LINE
  5
100
330
1F
100
AcDbEntity
  8
0
  6
Continuous
 62
     7
370
    25
100
AcDbLine
 10
496.1299018525
 20
350.1624005815
 30
0.0
 11
494.9012268525
 21
348.9337255815
 31
0.0
  0
ARC
  5
101
330
1F
100
AcDbEntity
  8
0
  6
Continuous
 62
     7
370
    25
100
AcDbCircle
 10
515.1869018525
 20
351.6669005815
 30
0.0
 40
0.5014999999999645
100
AcDbArc
 50
90.0
 51
180.0
  0
ARC
  5
102
330
1F
100
AcDbEntity
  8
0
  6
Continuous
 62
     7
370
    25
100
AcDbCircle
 10
495.6284018525
 20
351.6669005815
 30
0.0
 40
0.5014999999999645
100
AcDbArc
 50
0.0
 51
90.0
  0
LINE
  5
103
330
1F
100
AcDbEntity
  8
0
  6
Continuous
 62
     7
370
    25
100
AcDbLine
 10
514.6854018525
 20
350.1624005815
 30
0.0
 11
514.6854018525
 21
351.6669005815
 31
0.0
  0
LINE
  5
104
330
1F
100
AcDbEntity
  8
0
  6
Continuous
 62
     7
370
    25
100
AcDbLine
 10
496.1299018525
 20
351.6669005815
 30
0.0
 11
496.1299018525
 21
350.1624005815
 31
0.0
  0
ARC
  5
105
330
1F
100
AcDbEntity
  8
0
  6
Continuous
 62
     7
370
    25
100
AcDbCircle
 10
381.5026493755
 20
382.2584005815
 30
0.0
 40
72.38795108347487
100
AcDbArc
 50
13.3478534534
 51
27.2725794229
  0
CIRCLE
  5
106
330
1F
100
AcDbEntity
  8
0
  6
Continuous
 62
     7
370
    25
100
AcDbCircle
 10
505.4076518525
 20
382.2584005815
 30
0.0
 40
21.92976224494737
  0
SPLINE
  5
107
330
1F
100
AcDbEntity
  8
0
  6
Continuous
 62
     7
370
    25
100
AcDbSpline
210
0.0
220
0.0
230
1.0
 70
     8
 71
     3
 72
    10
 73
     6
 74
     0
 42
0.00000001
 43
0.00000001
 40
0.0
 40
0.0
 40
0.0
 40
0.0
 40
0.4410223118370395
 40
0.8823670741668358
 40
1.0
 40
1.0
 40
1.0
 40
1.0
 10
509.68624280682
 20
406.6362504361975
 30
0.0
 10
510.0867783698888
 20
406.563657011977
 30
0.0
 10
510.8881423449056
 20
406.4184170873428
 30
0.0
 10
511.3681342833622
 20
406.3079745134928
 30
0.0
 10
511.2799963997349
 20
406.3371077511055
 30
0.0
 10
511.2614484015815
 20
406.3432386362051
 30
0.0
  0
SPLINE
  5
108
330
1F
100
AcDbEntity
  8
0
  6
Continuous
 62
     7
370
    25
100
AcDbSpline
210
0.0
220
0.0
230
1.0
 70
     8
 71
     3
 72
    15
 73
    11
 74
     0
 42
0.00000001
 43
0.00000001
 40
0.0
 40
0.0
 40
0.0
 40
0.0
 40
0.0444847287077766
 40
0.1821021431941689
 40
0.3207982499500044
 40
0.4629983229508651
 40
0.6057078518349257
 40
0.7452972579301005
 40
0.8831853736445823
 40
1.0
 40
1.0
 40
1.0
 40
1.0
 10
499.5619574244134
 20
406.3452330775879
 30
0.0
 10
499.5416355134781
 20
406.3384261953029
 30
0.0
 10
499.4584459865862
 20
406.3105616249533
 30
0.0
 10
499.9740187312355
 20
406.4239765161255
 30
0.0
 10
501.0567057563239
 20
406.6353536757663
 30
0.0
 10
502.6792893047818
 20
406.8696342747966
 30
0.0
 10
504.6124270791383
 20
407.0067782458924
 30
0.0
 10
506.6131449403388
 20
406.9892924536318
 30
0.0
 10
508.3864290096932
 20
406.8373654190908
 30
0.0
 10
509.2775478817711
 20
406.69948616507
 30
0.0
 10
509.68624280682
 20
406.6362504361975
 30
0.0
  0
ARC
  5
109
330
1F
100
AcDbEntity
  8
0
  6
Continuous
 62
     7
370
    25
100
AcDbCircle
 10
505.4076518525
 20
382.2584005815
 30
0.0
 40
25.07500000000005
100
AcDbArc
 50
0.0
 51
76.3494233268
  0
ARC
  5
10A
330
1F
100
AcDbEntity
  8
0
  6
Continuous
 62
     7
370
    25
100
AcDbCircle
 10
505.4076518525
 20
382.2584005815
 30
0.0
 40
25.07500000000005
100
AcDbArc
 50
103.6505766732
 51
0.0
  0
LINE
  5
10B
330
1F
100
AcDbEntity
  8
0
  6
Continuous
 62
     7
370
    25
100
AcDbLine
 10
505.4076518525
 20
428.4967005815
 30
0.0
 11
500.9944518525
 21
428.4967005815
 31
0.0
  0
LINE
  5
10C
330
1F
100
AcDbEntity
  8
0
  6
Continuous
 62
     7
370
    25
100
AcDbLine
 10
509.8208518525
 20
428.4967005815
 30
0.0
 11
505.4076518525
 21
428.4967005815
 31
0.0
  0
LINE
  5
10D
330
1F
100
AcDbEntity
  8
0
  6
Continuous
 62
     7
370
    25
100
AcDbLine
 10
425.5141461009
 20
417.4189802709
 30
0.0
 11
425.5141461009
 21
347.0978208922
 31
0.0
  0
LINE
  5
10E
330
1F
100
AcDbEntity
  8
0
  6
Continuous
 62
     7
370
    25
100
AcDbLine
 10
452.0982018033
 20
397.5850337095
 30
0.0
 11
452.0982018033
 21
366.9317674435
 31
0.0
  0
SPLINE
  5
10F
330
1F
100
AcDbEntity
  8
0
  6
Continuous
 62
     7
370
    25
100
AcDbSpline
210
0.0
220
0.0
230
1.0
 70
     8
 71
     3
 72
    34
 73
    30
 74
     0
 42
0.00000001
 43
0.00000001
 40
0.0
 40
0.0
 40
0.0
 40
0.0
 40
0.0102436354286839
 40
0.0204882363148972
 40
0.0307731700808738
 40
0.0411373572379761
 40
0.0516188027429774
 40
0.0622541783753206
 40
0.0927157460861395
 40
0.1246808247159631
 40
0.1551799782847851
 40
0.1872228984688094
 40
0.2496668338805081
 40
0.3134441107052869
 40
0.3776841904591407
 40
0.4408749461224314
 40
0.5027365256519667
 40
0.5662850802371349
 40
0.6304752486815606
 40
0.6941267219931456
 40
0.7563617984168569
 40
0.8183780767708315
 40
0.8500594693940429
 40
0.8802067043053817
 40
0.9109406958167384
 40
0.9402519345270595
 40
0.9604662120675425
 40
0.9802908615995268
 40
0.9999999999999999
 40
0.9999999999999999
 40
0.9999999999999999
 40
0.9999999999999999
 10
456.0787346987721
 20
392.4955189535227
 30
0.0
 10
456.0300361605143
 20
392.4960027550857
 30
0.0
 10
455.9326344941858
 20
392.4969704038099
 30
0.0
 10
455.7870414491108
 20
392.5048340709562
 30
0.0
 10
455.642281912384
 20
392.5174055003272
 30
0.0
 10
455.4984973061461
 20
392.5351323244166
 30
0.0
 10
455.3558137760902
 20
392.5578712532192
 30
0.0
 10
455.1274434806334
 20
392.6026493955314
 30
0.0
 10
454.8201578980537
 20
392.6854663993777
 30
0.0
 10
454.4695260100157
 20
392.8212395141662
 30
0.0
 10
454.1542117734948
 20
392.9819777913248
 30
0.0
 10
453.7902355372397
 20
393.2174995075863
 30
0.0
 10
453.4219169470391
 20
393.5477036897671
 30
0.0
 10
453.1050458300283
 20
393.97319210609
 30
0.0
 10
452.8935713643368
 20
394.416302220811
 30
0.0
 10
452.7748905880257
 20
394.8627172401237
 30
0.0
 10
452.7390813133163
 20
395.3112508461374
 30
0.0
 10
452.7834561294395
 20
395.7619924460697
 30
0.0
 10
452.9133500024653
 20
396.2127735209756
 30
0.0
 10
453.1359045531149
 20
396.6515370259099
 30
0.0
 10
453.4611516658129
 20
397.0688417209849
 30
0.0
 10
453.8342550299119
 20
397.391545144064
 30
0.0
 10
454.2036167700405
 20
397.6213881295948
 30
0.0
 10
454.5190842504733
 20
397.7756657647745
 30
0.0
 10
454.8648411142672
 20
397.9036213231261
 30
0.0
 10
455.2051572307946
 20
397.9919782792487
 30
0.0
 10
455.5177915616808
 20
398.0451179574119
 30
0.0
 10
455.7969397438054
 20
398.0745229459624
 30
0.0
 10
455.9849861938995
 20
398.0781689392764
 30
0.0
 10
456.0787346987721
 20
398.0799866094414
 30
0.0
  0
SPLINE
  5
110
330
1F
100
AcDbEntity
  8
0
  6
Continuous
 62
     7
370
    25
100
AcDbSpline
210
0.0
220
0.0
230
1.0
 70
     8
 71
     3
 72
    22
 73
    18
 74
     0
 42
0.00000001
 43
0.00000001
 40
0.0
 40
0.0
 40
0.0
 40
0.0
 40
0.0419748895807831
 40
0.0838882729949284
 40
0.1257908881270461
 40
0.190210334001314
 40
0.2540400555479359
 40
0.3820284021383989
 40
0.5077426131969239
 40
0.6329608069202498
 40
0.6967652307076023
 40
0.75792036773658
 40
0.819870812222132
 40
0.8792962455090819
 40
0.9200761609852487
 40
0.9601245962717851
 40
1.0
 40
1.0
 40
1.0
 40
1.0
 10
452.7521600339935
 20
382.2584005815451
 30
0.0
 10
452.753023608194
 20
382.358163333202
 30
0.0
 10
452.7547494911923
 20
382.5575426532976
 30
0.0
 10
452.7687656272411
 20
382.8562443558558
 30
0.0
 10
452.7952357719016
 20
383.2075847684283
 30
0.0
 10
452.8415559486359
 20
383.6095025890272
 30
0.0
 10
452.9411014368166
 20
384.210470727013
 30
0.0
 10
453.1227225059016
 20
384.9447705583172
 30
0.0
 10
453.4454718587442
 20
385.788141751579
 30
0.0
 10
453.8179604490444
 20
386.4418388722335
 30
0.0
 10
454.1880751156301
 20
386.9086865654221
 30
0.0
 10
454.5046775787466
 20
387.2219941437564
 30
0.0
 10
454.8531123423741
 20
387.4830374326179
 30
0.0
 10
455.1961338522217
 20
387.6631385670698
 30
0.0
 10
455.5119250780537
 20
387.7718281536984
 30
0.0
 10
455.7937977256461
 20
387.8317982842597
 30
0.0
 10
455.9838928902569
 20
387.8391835826767
 30
0.0
 10
456.0787346987721
 20
387.8428682374638
 30
0.0
  0
SPLINE
  5
111
330
1F
100
AcDbEntity
  8
0
  6
Continuous
 62
     7
370
    25
100
AcDbSpline
210
0.0
220
0.0
230
1.0
 70
     8
 71
     3
 72
    24
 73
    20
 74
     0
 42
0.00000001
 43
0.00000001
 40
0.0
 40
0.0
 40
0.0
 40
0.0
 40
0.0202722082440592
 40
0.0405292034146713
 40
0.0608467835429647
 40
0.0812995356740449
 40
0.1019596687054136
 40
0.122895975741055
 40
0.1834686160001329
 40
0.2465832355182039
 40
0.3072887160116385
 40
0.3706308374852177
 40
0.4940972471706356
 40
0.6203986198862139
 40
0.7485514964864114
 40
0.8120600485682843
 40
0.8761428608827795
 40
0.9380859446778107
 40
0.9999999999999999
 40
0.9999999999999999
 40
0.9999999999999999
 40
0.9999999999999999
 10
456.0787346987721
 20
376.6739329256264
 30
0.0
 10
456.0305425628974
 20
376.674884159797
 30
0.0
 10
455.9341944564486
 20
376.6767859142942
 30
0.0
 10
455.7902261448309
 20
376.6922021899821
 30
0.0
 10
455.6471874557153
 20
376.7167819386397
 30
0.0
 10
455.5052163539659
 20
376.7513703203384
 30
0.0
 10
455.3644356629544
 20
376.7956668155808
 30
0.0
 10
455.1378496000004
 20
376.8833430924046
 30
0.0
 10
454.8328708669037
 20
377.0459563661449
 30
0.0
 10
454.4834180340575
 20
377.3131588697707
 30
0.0
 10
454.1693020721726
 20
377.629755571513
 30
0.0
 10
453.8061317404295
 20
378.0939850953939
 30
0.0
 10
453.4376705664357
 20
378.7453403063783
 30
0.0
 10
453.1178153039507
 20
379.5873963208009
 30
0.0
 10
452.9378782367626
 20
380.3231719224869
 30
0.0
 10
452.8395440207998
 20
380.9232080392795
 30
0.0
 10
452.7889569899893
 20
381.3709955637776
 30
0.0
 10
452.7578439115098
 20
381.8168247399577
 30
0.0
 10
452.7540543637794
 20
382.1112316344568
 30
0.0
 10
452.7521600339935
 20
382.2584005815451
 30
0.0
  0
SPLINE
  5
112
330
1F
100
AcDbEntity
  8
0
  6
Continuous
 62
     7
370
    25
100
AcDbSpline
210
0.0
220
0.0
230
1.0
 70
     8
 71
     3
 72
    34
 73
    30
 74
     0
 42
0.00000001
 43
0.00000001
 40
0.0
 40
0.0
 40
0.0
 40
0.0
 40
0.0102436354278273
 40
0.0204882363134964
 40
0.0307731700792685
 40
0.0411373572365256
 40
0.05161880274205
 40
0.0622541783752958
 40
0.0927157460876647
 40
0.1246808247157904
 40
0.1551799782896746
 40
0.1872228984685016
 40
0.2496668338800242
 40
0.313444110704625
 40
0.3776841904583055
 40
0.4408749461214597
 40
0.5027365256508154
 40
0.5662850802357816
 40
0.6304752486800306
 40
0.6941267219914762
 40
0.7563617984150941
 40
0.818378076768974
 40
0.8500594693882567
 40
0.8802067043036111
 40
0.9109406958196885
 40
0.9402519345260991
 40
0.960466212073317
 40
0.98029086160556
 40
0.9999999999999999
 40
0.9999999999999999
 40
0.9999999999999999
 40
0.9999999999999999
 10
456.0787346987721
 20
366.4368145536489
 30
0.0
 10
456.0300361605184
 20
366.4373039128519
 30
0.0
 10
455.9326344941963
 20
366.4382826773799
 30
0.0
 10
455.7870414491286
 20
366.4461900323106
 30
0.0
 10
455.6422819124043
 20
366.4587773786898
 30
0.0
 10
455.4984973061643
 20
366.4764872447615
 30
0.0
 10
455.3558137761015
 20
366.4991854063409
 30
0.0
 10
455.1274434806326
 20
366.5439169311803
 30
0.0
 10
454.8201578980472
 20
366.6269347521871
 30
0.0
 10
454.4695260099955
 20
366.7625052850548
 30
0.0
 10
454.154211773477
 20
366.9232961377697
 30
0.0
 10
453.7902355372341
 20
367.1587289113019
 30
0.0
 10
453.4219169470415
 20
367.489254170684
 30
0.0
 10
453.1050458300317
 20
367.9145137608186
 30
0.0
 10
452.893571364339
 20
368.3572431950551
 30
0.0
 10
452.774890588027
 20
368.8040665052227
 30
0.0
 10
452.7390813133163
 20
369.2524240487949
 30
0.0
 10
452.7834561294377
 20
369.7030133489829
 30
0.0
 10
452.9133500024611
 20
370.1540757835813
 30
0.0
 10
453.1359045531088
 20
370.5929700456615
 30
0.0
 10
453.4611516658001
 20
371.0101149761085
 30
0.0
 10
453.8342550298962
 20
371.3327949363546
 30
0.0
 10
454.2036167699985
 20
371.5628010050568
 30
0.0
 10
454.5190842504594
 20
371.7168664329585
 30
0.0
 10
454.8648411142639
 20
371.8449432895187
 30
0.0
 10
455.2051572308286
 20
371.9332933826726
 30
0.0
 10
455.5177915617328
 20
371.9865824888606
 30
0.0
 10
455.7969397438603
 20
372.0159025459241
 30
0.0
 10
455.9849861939277
 20
372.0194924847541
 30
0.0
 10
456.0787346987721
 20
372.0212822095676
 30
0.0
  0
LINE
  5
113
330
1F
100
AcDbEntity
  8
0
  6
Continuous
 62
     7
370
    25
100
AcDbLine
 10
469.1492018512
 20
382.2584005815
 30
0.0
 11
469.1492018512
 21
396.8019005815
 31
0.0
  0
LINE
  5
114
330
1F
100
AcDbEntity
  8
0
  6
Continuous
 62
     7
370
    25
100
AcDbLine
 10
469.1492018512
 20
367.7149005815
 30
0.0
 11
469.1492018512
 21
382.2584005815
 31
0.0
  0
SPLINE
  5
115
330
1F
100
AcDbEntity
  8
0
  6
Continuous
 62
     7
370
    25
100
AcDbSpline
210
0.0
220
0.0
230
1.0
 70
     8
 71
     3
 72
    34
 73
    30
 74
     0
 42
0.00000001
 43
0.00000001
 40
0.0
 40
0.0
 40
0.0
 40
0.0
 40
0.010243635429315
 40
0.0204882363159362
 40
0.0307731700820816
 40
0.0411373572390897
 40
0.0516188027437182
 40
0.0622541783754029
 40
0.0927157460846079
 40
0.1246808247158589
 40
0.1551799782807905
 40
0.1872228984684911
 40
0.2496668338801472
 40
0.313444110704803
 40
0.3776841904584162
 40
0.4408749461213857
 40
0.5027365256508631
 40
0.5662850802359296
 40
0.6304752486801496
 40
0.6941267219915017
 40
0.7563617984150185
 40
0.8183780767688325
 40
0.8500594693867212
 40
0.8802067043031943
 40
0.9109406958132992
 40
0.9402519345260678
 40
0.9604662120705195
 40
0.9802908616028603
 40
1.0
 40
1.0
 40
1.0
 40
1.0
 10
465.1686690037367
 20
372.0212822095676
 30
0.0
 10
465.217367541997
 20
372.0207984080022
 30
0.0
 10
465.3147692083294
 20
372.0198307592732
 30
0.0
 10
465.4603622534078
 20
372.0119670921224
 30
0.0
 10
465.6051217901345
 20
371.9993956627483
 30
0.0
 10
465.7489063963685
 20
371.9816688386576
 30
0.0
 10
465.8915899264168
 20
371.9589299098551
 30
0.0
 10
466.1199602218584
 20
371.9141517675449
 30
0.0
 10
466.427245804426
 20
371.8313347636937
 30
0.0
 10
466.777877692445
 20
371.695561648914
 30
0.0
 10
467.0931919289623
 20
371.5348233717504
 30
0.0
 10
467.4571681652184
 20
371.2993016554962
 30
0.0
 10
467.8254867554201
 20
370.9690974733087
 30
0.0
 10
468.1423578724284
 20
370.5436090569913
 30
0.0
 10
468.3538323381183
 20
370.1004989422761
 30
0.0
 10
468.4725131144295
 20
369.6540839229692
 30
0.0
 10
468.5083223891399
 20
369.2055503169608
 30
0.0
 10
468.4639475730186
 20
368.7548087170336
 30
0.0
 10
468.3340536999953
 20
368.304027642133
 30
0.0
 10
468.1114991493515
 20
367.8652641372041
 30
0.0
 10
467.7862520366572
 20
367.4479594421333
 30
0.0
 10
467.413148672593
 20
367.1252560190689
 30
0.0
 10
467.0437869324541
 20
366.895413033534
 30
0.0
 10
466.7283194520527
 20
366.7411353983553
 30
0.0
 10
466.3825625882646
 20
366.6131798399883
 30
0.0
 10
466.0422464717082
 20
366.5248228838569
 30
0.0
 10
465.7296121407934
 20
366.4716832056875
 30
0.0
 10
465.4504639586704
 20
366.442278217133
 30
0.0
 10
465.2624175085925
 20
366.4386322238154
 30
0.0
 10
465.1686690037367
 20
366.4368145536489
 30
0.0
  0
SPLINE
  5
116
330
1F
100
AcDbEntity
  8
0
  6
Continuous
 62
     7
370
    25
100
AcDbSpline
210
0.0
220
0.0
230
1.0
 70
     8
 71
     3
 72
    22
 73
    18
 74
     0
 42
0.00000001
 43
0.00000001
 40
0.0
 40
0.0
 40
0.0
 40
0.0
 40
0.0419748895800071
 40
0.083888272993948
 40
0.1257908881264449
 40
0.1902103339967807
 40
0.2540400555465008
 40
0.3820284021361123
 40
0.5077426131938803
 40
0.6329608069165868
 40
0.696765230707931
 40
0.7579203677324626
 40
0.8198708122155248
 40
0.8792962455066738
 40
0.9200761609782301
 40
0.9601245962655672
 40
1.0
 40
1.0
 40
1.0
 40
1.0
 10
468.4952436684628
 20
382.2584005815451
 30
0.0
 10
468.4943800942623
 20
382.1586378298911
 30
0.0
 10
468.4926542112641
 20
381.9592585097996
 30
0.0
 10
468.4786380752152
 20
381.6605568072457
 30
0.0
 10
468.4521679305565
 20
381.3092163946852
 30
0.0
 10
468.4058477538217
 20
380.9072985740913
 30
0.0
 10
468.3063022656457
 20
380.3063304361144
 30
0.0
 10
468.1246811965614
 20
379.5720306048136
 30
0.0
 10
467.8019318437268
 20
378.7286594115635
 30
0.0
 10
467.4294432534313
 20
378.0749622909073
 30
0.0
 10
467.0593285868561
 20
377.608114597721
 30
0.0
 10
466.7427261237533
 20
377.294807019388
 30
0.0
 10
466.3942913601325
 20
377.0337637305363
 30
0.0
 10
466.0512698503065
 20
376.8536625960683
 30
0.0
 10
465.7354786244848
 20
376.7449730094154
 30
0.0
 10
465.4536059768908
 20
376.6850028788457
 30
0.0
 10
465.2635108122656
 20
376.6776175804187
 30
0.0
 10
465.1686690037367
 20
376.6739329256264
 30
0.0
  0
SPLINE
  5
117
330
1F
100
AcDbEntity
  8
0
  6
Continuous
 62
     7
370
    25
100
AcDbSpline
210
0.0
220
0.0
230
1.0
 70
     8
 71
     3
 72
    24
 73
    20
 74
     0
 42
0.00000001
 43
0.00000001
 40
0.0
 40
0.0
 40
0.0
 40
0.0
 40
0.0202722082353802
 40
0.0405292034007043
 40
0.0608467835272095
 40
0.081299535660082
 40
0.1019596686968321
 40
0.1228959757414194
 40
0.1834686160021991
 40
0.2465832355189109
 40
0.3072887160243861
 40
0.3706308374856697
 40
0.4940972471710654
 40
0.620398619886564
 40
0.7485514964866085
 40
0.8120600485675572
 40
0.876142860882789
 40
0.9380859446732056
 40
1.0
 40
1.0
 40
1.0
 40
1.0
 10
465.1686690037367
 20
387.8428682374639
 30
0.0
 10
465.2168611395904
 20
387.841917003296
 30
0.0
 10
465.3132092460054
 20
387.840015248804
 30
0.0
 10
465.4571775575846
 20
387.8245989731184
 30
0.0
 10
465.6002162466858
 20
387.8000192244587
 30
0.0
 10
465.7421873484453
 20
387.7654308427525
 30
0.0
 10
465.8829680394909
 20
387.7211343474959
 30
0.0
 10
466.1095541024812
 20
387.6334580706667
 30
0.0
 10
466.4145328356029
 20
387.4708447969289
 30
0.0
 10
466.7639856684464
 20
387.2036422932555
 30
0.0
 10
467.0781016303137
 20
386.8870455915084
 30
0.0
 10
467.4412719620569
 20
386.4228160676354
 30
0.0
 10
467.8097331360255
 20
385.7714608566773
 30
0.0
 10
468.1295883985078
 20
384.9294048422638
 30
0.0
 10
468.309525465697
 20
384.1936292405873
 30
0.0
 10
468.407859681652
 20
383.5935931237996
 30
0.0
 10
468.4584467124664
 20
383.1458055993176
 30
0.0
 10
468.489559790948
 20
382.6999764231397
 30
0.0
 10
468.4933493386773
 20
382.4055695286431
 30
0.0
 10
468.4952436684628
 20
382.2584005815451
 30
0.0
  0
SPLINE
  5
118
330
1F
100
AcDbEntity
  8
0
  6
Continuous
 62
     7
370
    25
100
AcDbSpline
210
0.0
220
0.0
230
1.0
 70
     8
 71
     3
 72
    34
 73
    30
 74
     0
 42
0.00000001
 43
0.00000001
 40
0.0
 40
0.0
 40
0.0
 40
0.0
 40
0.0102436354287357
 40
0.0204882363149859
 40
0.030773170080994
 40
0.0411373572381269
 40
0.0516188027431658
 40
0.062254178375562
 40
0.0927157460883262
 40
0.1246808247159975
 40
0.1551799782820655
 40
0.1872228984685598
 40
0.2496668338801918
 40
0.3134441107048295
 40
0.3776841904584269
 40
0.440874946121385
 40
0.5027365256508323
 40
0.5662850802358682
 40
0.6304752486800592
 40
0.6941267219913958
 40
0.7563617984149155
 40
0.8183780767687595
 40
0.8500594693849585
 40
0.8802067043032318
 40
0.9109406958120186
 40
0.9402519345259124
 40
0.960466212070053
 40
0.9802908616023698
 40
0.9999999999999999
 40
0.9999999999999999
 40
0.9999999999999999
 40
0.9999999999999999
 10
465.1686690037367
 20
398.0799866094414
 30
0.0
 10
465.2173675419943
 20
398.0794972502371
 30
0.0
 10
465.3147692083224
 20
398.0785184857066
 30
0.0
 10
465.4603622533962
 20
398.0706111307721
 30
0.0
 10
465.6051217901214
 20
398.0580237843895
 30
0.0
 10
465.748906396357
 20
398.0403139183152
 30
0.0
 10
465.8915899264103
 20
398.0176157567343
 30
0.0
 10
466.1199602218693
 20
397.9728842318922
 30
0.0
 10
466.4272458044412
 20
397.8898664108832
 30
0.0
 10
466.7778776924624
 20
397.7542958780251
 30
0.0
 10
467.0931919289594
 20
397.5935050253153
 30
0.0
 10
467.4571681652247
 20
397.3580722517836
 30
0.0
 10
467.8254867554188
 20
397.027546992389
 30
0.0
 10
468.1423578724287
 20
396.6022874022577
 30
0.0
 10
468.3538323381182
 20
396.159557968026
 30
0.0
 10
468.4725131144295
 20
395.712734657863
 30
0.0
 10
468.5083223891399
 20
395.2643771142951
 30
0.0
 10
468.4639475730186
 20
394.8137878141109
 30
0.0
 10
468.3340536999956
 20
394.3627253795173
 30
0.0
 10
468.1114991493508
 20
393.9238311174408
 30
0.0
 10
467.7862520366597
 20
393.5066861870017
 30
0.0
 10
467.4131486725885
 20
393.1840062267537
 30
0.0
 10
467.0437869324725
 20
392.9540001580743
 30
0.0
 10
466.7283194520622
 20
392.7999347301665
 30
0.0
 10
466.3825625882594
 20
392.6718578735944
 30
0.0
 10
466.042246471713
 20
392.5835077804459
 30
0.0
 10
465.7296121408008
 20
392.5302186742368
 30
0.0
 10
465.4504639586758
 20
392.5008986171748
 30
0.0
 10
465.2624175085951
 20
392.4973086783392
 30
0.0
 10
465.1686690037367
 20
392.4955189535227
 30
0.0
  0
LINE
  5
119
330
1F
100
AcDbEntity
  8
0
  6
Continuous
 62
     7
370
    25
100
AcDbLine
 10
465.1686690037
 20
376.6739329256
 30
0.0
 11
456.0787346988
 21
376.6739329256
 31
0.0
  0
LINE
  5
11A
330
1F
100
AcDbEntity
  8
0
  6
Continuous
 62
     7
370
    25
100
AcDbLine
 10
456.0787346988
 20
387.8428682375
 30
0.0
 11
465.1686690037
 21
387.8428682375
 31
0.0
  0
LINE
  5
11B
330
1F
100
AcDbEntity
  8
0
  6
Continuous
 62
     7
370
    25
100
AcDbLine
 10
465.1686690037
 20
392.4955189535
 30
0.0
 11
456.0787346988
 21
392.4955189535
 31
0.0
  0
LINE
  5
11C
330
1F
100
AcDbEntity
  8
0
  6
Continuous
 62
     7
370
    25
100
AcDbLine
 10
456.0787346988
 20
372.0212822096
 30
0.0
 11
465.1686690037
 21
372.0212822096
 31
0.0
  0
LINE
  5
11D
330
1F
100
AcDbEntity
  8
0
  6
Continuous
 62
     7
370
    25
100
AcDbLine
 10
465.1686690037
 20
366.4368145536
 30
0.0
 11
456.0787346988
 21
366.4368145536
 31
0.0
  0
LINE
  5
11E
330
1F
100
AcDbEntity
  8
0
  6
Continuous
 62
     7
370
    25
100
AcDbLine
 10
456.0787346988
 20
398.0799866094
 30
0.0
 11
465.1686690037
 21
398.0799866094
 31
0.0
  0
LINE
  5
11F
330
1F
100
AcDbEntity
  8
0
  6
Continuous
 62
     7
370
    25
100
AcDbLine
 10
517.1929018525
 20
352.1684005815
 30
0.0
 11
493.6224018525
 21
352.1684005815
 31
0.0
  0
LINE
  5
120
330
1F
100
AcDbEntity
  8
0
  6
Continuous
 62
     7
370
    25
100
AcDbLine
 10
514.7355518525
 20
341.1354005815
 30
0.0
 11
496.0797518525
 21
341.1354005815
 31
0.0
  0
LINE
  5
121
330
1F
100
AcDbEntity
  8
0
  6
Continuous
 62
     7
370
    25
100
AcDbLine
 10
515.9140768525
 20
342.3139255815
 30
0.0
 11
494.9012268525
 21
342.3139255815
 31
0.0
  0
LINE
  5
122
330
1F
100
AcDbEntity
  8
0
  6
Continuous
 62
     7
370
    25
100
AcDbLine
 10
515.9140768525
 20
348.9337255815
 30
0.0
 11
494.9012268525
 21
348.9337255815
 31
0.0
  0
LINE
  5
123
330
1F
100
AcDbEntity
  8
0
  6
Continuous
 62
     7
370
    25
100
AcDbLine
 10
514.6854018525
 20
350.1624005815
 30
0.0
 11
496.1299018525
 21
350.1624005815
 31
0.0
  0
CIRCLE
  5
124
330
1F
100
AcDbEntity
  8
0
  6
Continuous
 62
     8
370
    18
100
AcDbCircle
 10
505.4076518525
 20
382.2584005815
 30
0.0
 40
23.29455115591765
  0
LINE
  5
125
330
1F
100
AcDbEntity
  8
0
  6
Continuous
 62
     8
370
    18
100
AcDbLine
 10
443.224931899
 20
347.4527419734
 30
0.0
 11
443.224931899
 21
417.0640591896
 31
0.0
  0
SPLINE
  5
126
330
1F
100
AcDbEntity
  8
0
  6
Continuous
 62
     8
370
    18
100
AcDbSpline
210
0.0
220
0.0
230
1.0
 70
    24
 71
     3
 72
    32
 73
    28
 74
     0
 42
0.00000001
 43
0.00000001
 40
0.0
 40
0.0
 40
0.0
 40
0.0
 40
0.0000104817897981
 40
0.0416767117152235
 40
0.0833429416406482
 40
0.1250091715660731
 40
0.1666754014914983
 40
0.2083416314169232
 40
0.2500078613423479
 40
0.2916740912677733
 40
0.3333403211931986
 40
0.3750065511186234
 40
0.4166727810440482
 40
0.4583390109694735
 40
0.5000052408948983
 40
0.5416714708203234
 40
0.5833377007457484
 40
0.6250039306711732
 40
0.6666701605965982
 40
0.7083363905220235
 40
0.7500026204474485
 40
0.7916688503728733
 40
0.8333350802982985
 40
0.8750013102237234
 40
0.9166675401491485
 40
0.9583337700745735
 40
0.9999999999999999
 40
0.9999999999999999
 40
0.9999999999999999
 40
0.9999999999999999
 10
445.8439468536313
 20
415.4212793531981
 30
0.0
 10
445.8439468536313
 20
415.4213031541848
 30
0.0
 10
445.8439468536546
 20
415.5159384103432
 30
0.0
 10
445.8439468536205
 20
415.1877510392027
 30
0.0
 10
445.8439468536342
 20
414.3945142640186
 30
0.0
 10
445.8439468536305
 20
412.9809652336328
 30
0.0
 10
445.8439468536315
 20
411.0604816412442
 30
0.0
 10
445.8439468536313
 20
408.6420247092391
 30
0.0
 10
445.8439468536313
 20
405.7733785662199
 30
0.0
 10
445.8439468536313
 20
402.5019106874802
 30
0.0
 10
445.8439468536313
 20
398.8840565576835
 30
0.0
 10
445.8439468536313
 20
394.9815954706579
 30
0.0
 10
445.8439468536314
 20
390.8613326288988
 30
0.0
 10
445.8439468536314
 20
386.5937580200535
 30
0.0
 10
445.8439468536315
 20
382.251893425256
 30
0.0
 10
445.8439468536314
 20
377.910028617918
 30
0.0
 10
445.8439468536315
 20
373.6424546466944
 30
0.0
 10
445.8439468536315
 20
369.522189466989
 30
0.0
 10
445.8439468536315
 20
365.619737094127
 30
0.0
 10
445.8439468536315
 20
362.0018504456222
 30
0.0
 10
445.8439468536315
 20
358.7305039275513
 30
0.0
 10
445.8439468536315
 20
355.8614048605651
 30
0.0
 10
445.8439468536315
 20
353.444638263759
 30
0.0
 10
445.8439468536315
 20
351.5178462545414
 30
0.0
 10
445.8439468536315
 20
350.1278405562723
 30
0.0
 10
445.8439468536316
 20
349.2467388694506
 30
0.0
 10
445.8439468536316
 20
349.1372036497327
 30
0.0
 10
445.8439468536316
 20
349.0824360398738
 30
0.0
  0
SPLINE
  5
127
330
1F
100
AcDbEntity
  8
0
  6
Continuous
 62
     8
370
    18
100
AcDbSpline
210
0.0
220
0.0
230
1.0
 70
    24
 71
     3
 72
    23
 73
    19
 74
     0
 42
0.00000001
 43
0.00000001
 40
0.0
 40
0.0
 40
0.0
 40
0.0
 40
0.0624615963033226
 40
0.1249641565497676
 40
0.1874667167962127
 40
0.2499692770426577
 40
0.3124718372891026
 40
0.3749743975355482
 40
0.4374769577819932
 40
0.4999795180284382
 40
0.5624820782748832
 40
0.6249846385213281
 40
0.6874871987677735
 40
0.7499897590142185
 40
0.8124923192606635
 40
0.8749948795071083
 40
0.9374974397535534
 40
1.0
 40
1.0
 40
1.0
 40
1.0
 10
451.9353968560463
 20
398.9622647583977
 30
0.0
 10
451.9353968560463
 20
398.9000999162523
 30
0.0
 10
451.9353968560463
 20
398.7757294626373
 30
0.0
 10
451.9353968560463
 20
397.7822312931838
 30
0.0
 10
451.9353968560463
 20
396.2378756703665
 30
0.0
 10
451.9353968560463
 20
394.1436722337358
 30
0.0
 10
451.9353968560463
 20
391.5957900227626
 30
0.0
 10
451.9353968560463
 20
388.6879389919361
 30
0.0
 10
451.9353968560463
 20
385.5329911698241
 30
0.0
 10
451.9353968560464
 20
382.2518933851459
 30
0.0
 10
451.9353968560463
 20
378.9707956285882
 30
0.0
 10
451.9353968560464
 20
375.8158477221147
 30
0.0
 10
451.9353968560464
 20
372.9079970006132
 30
0.0
 10
451.9353968560464
 20
370.3601136367012
 30
0.0
 10
451.9353968560465
 20
368.2659145025008
 30
0.0
 10
451.9353968560464
 20
366.7215428229014
 30
0.0
 10
451.9353968560465
 20
365.7278874857297
 30
0.0
 10
451.9353968560464
 20
365.6035035490094
 30
0.0
 10
451.9353968560464
 20
365.5413115806492
 30
0.0
  0
LINE
  5
128
330
1F
100
AcDbEntity
  8
0
  6
Continuous
 62
     8
370
    18
100
AcDbLine
 10
456.0787346988
 20
398.0799866094
 30
0.0
 11
456.0787346988
 21
398.3064005815
 31
0.0
  0
LINE
  5
129
330
1F
100
AcDbEntity
  8
0
  6
Continuous
 62
     8
370
    18
100
AcDbLine
 10
456.0787346988
 20
387.8428682375
 30
0.0
 11
456.0787346988
 21
392.4955189535
 31
0.0
  0
LINE
  5
12A
330
1F
100
AcDbEntity
  8
0
  6
Continuous
 62
     8
370
    18
100
AcDbLine
 10
456.0787346988
 20
372.0212822096
 30
0.0
 11
456.0787346988
 21
376.6739329256
 31
0.0
  0
LINE
  5
12B
330
1F
100
AcDbEntity
  8
0
  6
Continuous
 62
     8
370
    18
100
AcDbLine
 10
456.0787346988
 20
366.2104005815
 30
0.0
 11
456.0787346988
 21
366.4368145536
 31
0.0
  0
LINE
  5
12C
330
1F
100
AcDbEntity
  8
0
  6
Continuous
 62
     8
370
    18
100
AcDbLine
 10
465.1686690037
 20
366.2104005815
 30
0.0
 11
465.1686690037
 21
366.4368145536
 31
0.0
  0
LINE
  5
12D
330
1F
100
AcDbEntity
  8
0
  6
Continuous
 62
     8
370
    18
100
AcDbLine
 10
465.1686690037
 20
372.0212822096
 30
0.0
 11
465.1686690037
 21
376.6739329256
 31
0.0
  0
LINE
  5
12E
330
1F
100
AcDbEntity
  8
0
  6
Continuous
 62
     8
370
    18
100
AcDbLine
 10
465.1686690037
 20
387.8428682375
 30
0.0
 11
465.1686690037
 21
392.4955189535
 31
0.0
  0
LINE
  5
12F
330
1F
100
AcDbEntity
  8
0
  6
Continuous
 62
     8
370
    18
100
AcDbLine
 10
465.1686690037
 20
398.0799866094
 30
0.0
 11
465.1686690037
 21
398.3064005815
 31
0.0
  0
ARC
  5
130
330
1F
100
AcDbEntity
  8
0
  6
Continuous
 62
     7
370
    25
100
AcDbCircle
 10
268.8067617473
 20
254.3513957619
 30
0.0
 40
3.008999999999992
100
AcDbArc
 50
181.0588103613
 51
242.7519034398
  0
ARC
  5
131
330
1F
100
AcDbEntity
  8
0
  6
Continuous
 62
     7
370
    25
100
AcDbCircle
 10
332.4011065087
 20
254.3513957619
 30
0.0
 40
3.008999999999928
100
AcDbArc
 50
297.0350783715
 51
358.9411896387
  0
LINE
  5
132
330
1F
100
AcDbEntity
  8
0
  6
Continuous
 62
     7
370
    25
100
AcDbLine
 10
265.4433544386
 20
272.0065792264
 30
0.0
 11
265.7982755199
 21
254.2957934283
 31
0.0
  0
LINE
  5
133
330
1F
100
AcDbEntity
  8
0
  6
Continuous
 62
     7
370
    25
100
AcDbLine
 10
335.4095927361
 20
254.2957934283
 30
0.0
 11
335.7645138174
 21
272.0065792264
 31
0.0
  0
LINE
  5
134
330
1F
100
AcDbEntity
  8
0
  6
Continuous
 62
     7
370
    25
100
AcDbLine
 10
115.3159584549
 20
272.0065792264
 30
0.0
 11
115.6708795362
 21
254.2957934283
 31
0.0
  0
LINE
  5
135
330
1F
100
AcDbEntity
  8
0
  6
Continuous
 62
     7
370
    25
100
AcDbLine
 10
185.2821967524
 20
254.2957934283
 30
0.0
 11
185.6371178337
 21
272.0065792264
 31
0.0
  0
ARC
  5
136
330
1F
100
AcDbEntity
  8
0
  6
Continuous
 62
     7
370
    25
100
AcDbCircle
 10
118.6793657636
 20
254.3513957619
 30
0.0
 40
3.008999999999982
100
AcDbArc
 50
181.0588103613
 51
242.8659656789
  0
ARC
  5
137
330
1F
100
AcDbEntity
  8
0
  6
Continuous
 62
     7
370
    25
100
AcDbCircle
 10
182.273710525
 20
254.3513957619
 30
0.0
 40
3.008999999999983
100
AcDbArc
 50
297.1310842192
 51
358.9411896387
  0
ARC
  5
138
330
1F
100
AcDbEntity
  8
0
  6
Continuous
 62
     7
370
    25
100
AcDbCircle
 10
300.5974269363
 20
316.0180759518
 30
0.0
 40
72.38795108347487
100
AcDbArc
 50
283.3471962617
 51
297.2716177506
  0
ARC
  5
139
330
1F
100
AcDbEntity
  8
0
  6
Continuous
 62
     7
370
    25
100
AcDbCircle
 10
300.5974269363
 20
316.0180759518
 30
0.0
 40
72.38795108347485
100
AcDbArc
 50
242.7269126693
 51
256.6526128492
  0
ARC
  5
13A
330
1F
100
AcDbEntity
  8
0
  6
Continuous
 62
     7
370
    25
100
AcDbCircle
 10
150.4765381443
 20
316.0180759518
 30
0.0
 40
72.3879510834749
100
AcDbArc
 50
283.3471962617
 51
297.2716177506
  0
ARC
  5
13B
330
1F
100
AcDbEntity
  8
0
  6
Continuous
 62
     7
370
    25
100
AcDbCircle
 10
150.4765381443
 20
316.0180759518
 30
0.0
 40
72.3879510834749
100
AcDbArc
 50
242.7269126693
 51
256.6526128492
  0
LINE
  5
13C
330
1F
100
AcDbEntity
  8
0
  6
Continuous
 62
     7
370
    25
100
AcDbLine
 10
132.0714881443
 20
217.1880734748
 30
0.0
 11
86.0968668615
 21
216.7868590331
 31
0.0
  0
LINE
  5
13D
330
1F
100
AcDbEntity
  8
0
  6
Continuous
 62
     7
370
    25
100
AcDbLine
 10
86.0968668615
 20
167.4392879165
 30
0.0
 11
132.0714881443
 21
167.0380734748
 31
0.0
  0
LINE
  5
13E
330
1F
100
AcDbEntity
  8
0
  6
Continuous
 62
     7
370
    25
100
AcDbLine
 10
318.8802381443
 20
167.0380734748
 30
0.0
 11
364.8548594271
 21
167.4392879165
 31
0.0
  0
LINE
  5
13F
330
1F
100
AcDbEntity
  8
0
  6
Continuous
 62
     7
370
    25
100
AcDbLine
 10
364.8548594271
 20
216.7868590331
 30
0.0
 11
318.8802381443
 21
217.1880734748
 31
0.0
  0
LINE
  5
140
330
1F
100
AcDbEntity
  8
0
  6
Continuous
 62
     7
370
    25
100
AcDbLine
 10
134.7294381443
 20
217.1880734748
 30
0.0
 11
134.4285381443
 21
216.8871734748
 31
0.0
  0
LINE
  5
141
330
1F
100
AcDbEntity
  8
0
  6
Continuous
 62
     7
370
    25
100
AcDbLine
 10
134.4285381443
 20
167.3389734748
 30
0.0
 11
134.7294381443
 21
167.0380734748
 31
0.0
  0
LINE
  5
142
330
1F
100
AcDbEntity
  8
0
  6
Continuous
 62
     7
370
    25
100
AcDbLine
 10
134.7294381443
 20
167.0380734748
 30
0.0
 11
316.6736381443
 21
167.0380734748
 31
0.0
  0
LINE
  5
143
330
1F
100
AcDbEntity
  8
0
  6
Continuous
 62
     7
370
    25
100
AcDbLine
 10
140.0754022225
 20
217.1880734748
 30
0.0
 11
134.7294381443
 21
217.1880734748
 31
0.0
  0
LINE
  5
144
330
1F
100
AcDbEntity
  8
0
  6
Continuous
 62
     7
370
    25
100
AcDbLine
 10
290.5254022225
 20
217.1880734748
 30
0.0
 11
160.9706257448
 21
217.1880734748
 31
0.0
  0
LINE
  5
145
330
1F
100
AcDbEntity
  8
0
  6
Continuous
 62
     7
370
    25
100
AcDbLine
 10
316.6736381443
 20
217.1880734748
 30
0.0
 11
311.4206257448
 21
217.1880734748
 31
0.0
  0
LINE
  5
146
330
1F
100
AcDbEntity
  8
0
  6
Continuous
 62
     7
370
    25
100
AcDbLine
 10
316.6736381443
 20
167.0380734748
 30
0.0
 11
316.9745381443
 21
167.3389734748
 31
0.0
  0
LINE
  5
147
330
1F
100
AcDbEntity
  8
0
  6
Continuous
 62
     7
370
    25
100
AcDbLine
 10
316.9745381443
 20
216.8871734748
 30
0.0
 11
316.6736381443
 21
217.1880734748
 31
0.0
  0
ARC
  5
148
330
1F
100
AcDbEntity
  8
0
  6
Continuous
 62
     7
370
    25
100
AcDbCircle
 10
86.1095582984
 20
215.3325644103
 30
0.0
 40
1.454350000000012
100
AcDbArc
 50
90.5
 51
177.041602516
  0
ARC
  5
149
330
1F
100
AcDbEntity
  8
0
  6
Continuous
 62
     7
370
    25
100
AcDbCircle
 10
86.1095582984
 20
168.8935825393
 30
0.0
 40
1.454350000000012
100
AcDbArc
 50
182.958397484
 51
269.5
  0
ARC
  5
14A
330
1F
100
AcDbEntity
  8
0
  6
Continuous
 62
     7
370
    25
100
AcDbCircle
 10
364.8421679902
 20
168.8935825393
 30
0.0
 40
1.454350000000012
100
AcDbArc
 50
270.5
 51
357.041602516
  0
ARC
  5
14B
330
1F
100
AcDbEntity
  8
0
  6
Continuous
 62
     7
370
    25
100
AcDbCircle
 10
364.8421679902
 20
215.3325644103
 30
0.0
 40
1.454350000000077
100
AcDbArc
 50
2.958397484
 51
89.5
  0
ARC
  5
14C
330
1F
100
AcDbEntity
  8
0
  6
Continuous
 62
     7
370
    25
100
AcDbCircle
 10
535.4056200768
 20
192.1130734748
 30
0.0
 40
451.3500000000001
100
AcDbArc
 50
182.7849290165
 51
182.958397484
  0
ARC
  5
14D
330
1F
100
AcDbEntity
  8
0
  6
Continuous
 62
     7
370
    25
100
AcDbCircle
 10
535.4056200768
 20
192.1130734748
 30
0.0
 40
451.3500000000001
100
AcDbArc
 50
177.041602516
 51
177.2150709835
  0
ARC
  5
14E
330
1F
100
AcDbEntity
  8
0
  6
Continuous
 62
     7
370
    25
100
AcDbCircle
 10
-84.4538937883
 20
192.1130734748
 30
0.0
 40
451.3500000000003
100
AcDbArc
 50
357.041602516
 51
357.2150709835
  0
ARC
  5
14F
330
1F
100
AcDbEntity
  8
0
  6
Continuous
 62
     7
370
    25
100
AcDbCircle
 10
-84.4538937883
 20
192.1130734748
 30
0.0
 40
451.3500000000002
100
AcDbArc
 50
2.7849290165
 51
2.958397484
  0
LINE
  5
150
330
1F
100
AcDbEntity
  8
0
  6
Continuous
 62
     7
370
    25
100
AcDbLine
 10
132.0714881443
 20
169.1443734748
 30
0.0
 11
134.4285381443
 21
169.1443734748
 31
0.0
  0
LINE
  5
151
330
1F
100
AcDbEntity
  8
0
  6
Continuous
 62
     7
370
    25
100
AcDbLine
 10
134.4285381443
 20
215.0817734748
 30
0.0
 11
132.0714881443
 21
215.0817734748
 31
0.0
  0
LINE
  5
152
330
1F
100
AcDbEntity
  8
0
  6
Continuous
 62
     7
370
    25
100
AcDbLine
 10
318.8802381443
 20
215.0817734748
 30
0.0
 11
316.9745381443
 21
215.0817734748
 31
0.0
  0
LINE
  5
153
330
1F
100
AcDbEntity
  8
0
  6
Continuous
 62
     7
370
    25
100
AcDbLine
 10
316.9745381443
 20
169.1443734748
 30
0.0
 11
318.8802381443
 21
169.1443734748
 31
0.0
  0
ARC
  5
154
330
1F
100
AcDbEntity
  8
0
  6
Continuous
 62
     7
370
    25
100
AcDbCircle
 10
285.2772997978
 20
251.4450662134
 30
0.0
 40
6.022542689417246
100
AcDbArc
 50
256.637399313
 51
270.0000056709
  0
ARC
  5
155
330
1F
100
AcDbEntity
  8
0
  6
Continuous
 62
     7
370
    25
100
AcDbCircle
 10
315.9305684582
 20
251.4450662134
 30
0.0
 40
6.022542689417207
100
AcDbArc
 50
269.9999943291
 51
283.2367846891
  0
ARC
  5
156
330
1F
100
AcDbEntity
  8
0
  6
Continuous
 62
     7
370
    25
100
AcDbCircle
 10
140.4465381441
 20
241.4419906286
 30
0.0
 40
6.017999999875426
100
AcDbArc
 50
138.5903778903
 51
146.4408667787
  0
ARC
  5
157
330
1F
100
AcDbEntity
  8
0
  6
Continuous
 62
     7
370
    25
100
AcDbCircle
 10
160.5065381444
 20
241.4419906286
 30
0.0
 40
6.017999999875426
100
AcDbArc
 50
33.5082207079
 51
41.4096221097
  0
ARC
  5
158
330
1F
100
AcDbEntity
  8
0
  6
Continuous
 62
     7
370
    25
100
AcDbCircle
 10
140.4465381443
 20
232.3520563236
 30
0.0
 40
6.017999999999979
100
AcDbArc
 50
213.5357208799
 51
221.4096221093
  0
ARC
  5
159
330
1F
100
AcDbEntity
  8
0
  6
Continuous
 62
     7
370
    25
100
AcDbCircle
 10
160.5065381443
 20
232.3520563236
 30
0.0
 40
6.018000000000065
100
AcDbArc
 50
318.5903778907
 51
326.4695494591
  0
ARC
  5
15A
330
1F
100
AcDbEntity
  8
0
  6
Continuous
 62
     7
370
    25
100
AcDbCircle
 10
135.1499038141
 20
251.4450662134
 30
0.0
 40
6.022542689419716
100
AcDbArc
 50
256.704740274
 51
270.0000056709
  0
ARC
  5
15B
330
1F
100
AcDbEntity
  8
0
  6
Continuous
 62
     7
370
    25
100
AcDbCircle
 10
165.8031724744
 20
251.4450662134
 30
0.0
 40
6.022542689419732
100
AcDbArc
 50
269.9999943291
 51
283.2918241779
  0
ARC
  5
15C
330
1F
100
AcDbEntity
  8
0
  6
Continuous
 62
     7
370
    25
100
AcDbCircle
 10
290.8965381441
 20
241.4419906286
 30
0.0
 40
6.017999999875386
100
AcDbArc
 50
138.5903778903
 51
180.0000000009
  0
ARC
  5
15D
330
1F
100
AcDbEntity
  8
0
  6
Continuous
 62
     7
370
    25
100
AcDbCircle
 10
310.9565381444
 20
241.4419906286
 30
0.0
 40
6.017999999875437
100
AcDbArc
 50
359.9999999991
 51
41.4096221097
  0
ARC
  5
15E
330
1F
100
AcDbEntity
  8
0
  6
Continuous
 62
     7
370
    25
100
AcDbCircle
 10
290.8965381443
 20
232.3520563236
 30
0.0
 40
6.018000000000119
100
AcDbArc
 50
180.0
 51
221.4096221093
  0
ARC
  5
15F
330
1F
100
AcDbEntity
  8
0
  6
Continuous
 62
     7
370
    25
100
AcDbCircle
 10
310.9565381443
 20
232.3520563236
 30
0.0
 40
6.018000000000153
100
AcDbArc
 50
318.5903778907
 51
360.0
  0
LINE
  5
160
330
1F
100
AcDbEntity
  8
0
  6
Continuous
 62
     7
370
    25
100
AcDbLine
 10
290.3950381443
 20
228.3715234761
 30
0.0
 11
290.3950381443
 21
217.1880734748
 31
0.0
  0
LINE
  5
161
330
1F
100
AcDbEntity
  8
0
  6
Continuous
 62
     7
370
    25
100
AcDbLine
 10
311.4580381443
 20
217.1723856957
 30
0.0
 11
311.4580381443
 21
228.3715234761
 31
0.0
  0
LINE
  5
162
330
1F
100
AcDbEntity
  8
0
  6
Continuous
 62
     7
370
    25
100
AcDbLine
 10
139.9450381443
 20
228.3715234761
 30
0.0
 11
139.9450381443
 21
217.1880734748
 31
0.0
  0
LINE
  5
163
330
1F
100
AcDbEntity
  8
0
  6
Continuous
 62
     7
370
    25
100
AcDbLine
 10
161.0080381443
 20
217.1723856957
 30
0.0
 11
161.0080381443
 21
228.3715234761
 31
0.0
  0
LINE
  5
164
330
1F
100
AcDbEntity
  8
0
  6
Continuous
 62
     7
370
    25
100
AcDbLine
 10
284.8785381443
 20
241.4419906285
 30
0.0
 11
284.8785381443
 21
232.3520563236
 31
0.0
  0
LINE
  5
165
330
1F
100
AcDbEntity
  8
0
  6
Continuous
 62
     7
370
    25
100
AcDbLine
 10
316.9745381443
 20
232.3520563236
 30
0.0
 11
316.9745381443
 21
241.4419906285
 31
0.0
  0
CIRCLE
  5
166
330
1F
100
AcDbEntity
  8
0
  6
Continuous
 62
     7
370
    25
100
AcDbCircle
 10
351.9792381443
 20
192.1130734748
 30
0.0
 40
4.413199999999961
  0
CIRCLE
  5
167
330
1F
100
AcDbEntity
  8
0
  6
Continuous
 62
     7
370
    25
100
AcDbCircle
 10
351.9792381443
 20
192.1130734748
 30
0.0
 40
5.917699999999968
  0
CIRCLE
  5
168
330
1F
100
AcDbEntity
  8
0
  6
Continuous
 62
     7
370
    25
100
AcDbCircle
 10
98.9724881443
 20
192.1130734748
 30
0.0
 40
4.413199999999975
  0
CIRCLE
  5
169
330
1F
100
AcDbEntity
  8
0
  6
Continuous
 62
     7
370
    25
100
AcDbCircle
 10
98.9724881443
 20
192.1130734748
 30
0.0
 40
5.917699999999996
  0
LINE
  5
16A
330
1F
100
AcDbEntity
  8
0
  6
Continuous
 62
     7
370
    25
100
AcDbLine
 10
335.7645138174
 20
272.0065792264
 30
0.0
 11
265.4433544386
 21
272.0065792264
 31
0.0
  0
LINE
  5
16B
330
1F
100
AcDbEntity
  8
0
  6
Continuous
 62
     7
370
    25
100
AcDbLine
 10
185.6371178337
 20
272.0065792264
 30
0.0
 11
115.3159584549
 21
272.0065792264
 31
0.0
  0
LINE
  5
16C
330
1F
100
AcDbEntity
  8
0
  6
Continuous
 62
     7
370
    25
100
AcDbLine
 10
132.0714881443
 20
167.0380734748
 30
0.0
 11
132.0714881443
 21
217.1880734748
 31
0.0
  0
LINE
  5
16D
330
1F
100
AcDbEntity
  8
0
  6
Continuous
 62
     7
370
    25
100
AcDbLine
 10
318.8802381443
 20
217.1880734748
 30
0.0
 11
318.8802381443
 21
167.0380734748
 31
0.0
  0
LINE
  5
16E
330
1F
100
AcDbEntity
  8
0
  6
Continuous
 62
     7
370
    25
100
AcDbLine
 10
134.7294381443
 20
192.1130734748
 30
0.0
 11
134.7294381443
 21
217.1880734748
 31
0.0
  0
LINE
  5
16F
330
1F
100
AcDbEntity
  8
0
  6
Continuous
 62
     7
370
    25
100
AcDbLine
 10
134.7294381443
 20
167.0380734748
 30
0.0
 11
134.7294381443
 21
192.1130734748
 31
0.0
  0
LINE
  5
170
330
1F
100
AcDbEntity
  8
0
  6
Continuous
 62
     7
370
    25
100
AcDbLine
 10
134.4285381443
 20
192.1130734748
 30
0.0
 11
134.4285381443
 21
216.8871734748
 31
0.0
  0
LINE
  5
171
330
1F
100
AcDbEntity
  8
0
  6
Continuous
 62
     7
370
    25
100
AcDbLine
 10
134.4285381443
 20
167.3389734748
 30
0.0
 11
134.4285381443
 21
192.1130734748
 31
0.0
  0
SPLINE
  5
172
330
1F
100
AcDbEntity
  8
0
  6
Continuous
 62
     7
370
    25
100
AcDbSpline
210
0.0
220
0.0
230
1.0
 70
     8
 71
     3
 72
    14
 73
    10
 74
     0
 42
0.00000001
 43
0.00000001
 40
0.0
 40
0.0
 40
0.0
 40
0.0
 40
0.2012620987034718
 40
0.402068169526585
 40
0.6143893151990403
 40
0.7238421710023536
 40
0.8368111436792915
 40
0.9404009534998634
 40
1.0
 40
1.0
 40
1.0
 40
1.0
 10
150.4765381442704
 20
214.8692403917145
 30
0.0
 10
151.6011134524641
 20
214.919714444702
 30
0.0
 10
153.8477159602042
 20
215.0205481845069
 30
0.0
 10
156.8746712173385
 20
215.7090718284601
 30
0.0
 10
158.8868061407439
 20
216.3597088961356
 30
0.0
 10
160.0802189627255
 20
216.8095885792958
 30
0.0
 10
160.6847813029668
 20
217.0528132818487
 30
0.0
 10
160.9912228958376
 20
217.1809938478983
 30
0.0
 10
160.9761357861701
 20
217.1746876151268
 30
0.0
 10
160.9706257447929
 20
217.1723844832301
 30
0.0
  0
SPLINE
  5
173
330
1F
100
AcDbEntity
  8
0
  6
Continuous
 62
     7
370
    25
100
AcDbSpline
210
0.0
220
0.0
230
1.0
 70
     8
 71
     3
 72
    15
 73
    11
 74
     0
 42
0.00000001
 43
0.00000001
 40
0.0
 40
0.0
 40
0.0
 40
0.0
 40
0.1247766559365705
 40
0.3207875337825358
 40
0.5257726120636756
 40
0.6341827896596434
 40
0.7457519850177061
 40
0.8532465204985231
 40
0.9644441989674764
 40
1.0
 40
1.0
 40
1.0
 40
1.0
 10
140.0754022224591
 20
217.1336621136468
 30
0.0
 10
140.0645208221718
 20
217.1380076411892
 30
0.0
 10
140.0365458974068
 20
217.1491795310979
 30
0.0
 10
141.1793348749608
 20
216.6795451904997
 30
0.0
 10
142.8936794867099
 20
216.0755953177653
 30
0.0
 10
144.7305832147105
 20
215.5681049562214
 30
0.0
 10
146.3180765412625
 20
215.2264521803159
 30
0.0
 10
148.0560640748645
 20
214.9756390315456
 30
0.0
 10
149.4623168455607
 20
214.8774228361016
 30
0.0
 10
150.2787344417148
 20
214.870836214833
 30
0.0
 10
150.4765381442704
 20
214.8692403917145
 30
0.0
  0
LINE
  5
174
330
1F
100
AcDbEntity
  8
0
  6
Continuous
 62
     7
370
    25
100
AcDbLine
 10
316.6736381443
 20
192.1130734748
 30
0.0
 11
316.6736381443
 21
217.1880734748
 31
0.0
  0
LINE
  5
175
330
1F
100
AcDbEntity
  8
0
  6
Continuous
 62
     7
370
    25
100
AcDbLine
 10
316.6736381443
 20
167.0380734748
 30
0.0
 11
316.6736381443
 21
192.1130734748
 31
0.0
  0
SPLINE
  5
176
330
1F
100
AcDbEntity
  8
0
  6
Continuous
 62
     7
370
    25
100
AcDbSpline
210
0.0
220
0.0
230
1.0
 70
     8
 71
     3
 72
    14
 73
    10
 74
     0
 42
0.00000001
 43
0.00000001
 40
0.0
 40
0.0
 40
0.0
 40
0.0
 40
0.2012620987034711
 40
0.4020681695265844
 40
0.6143893151990397
 40
0.7238421710023536
 40
0.8368111436792915
 40
0.9404009534998634
 40
1.0
 40
1.0
 40
1.0
 40
1.0
 10
300.9265381442709
 20
214.8692403917145
 30
0.0
 10
302.0511134524646
 20
214.919714444702
 30
0.0
 10
304.2977159602046
 20
215.0205481845069
 30
0.0
 10
307.324671217339
 20
215.7090718284601
 30
0.0
 10
309.3368061407443
 20
216.3597088961356
 30
0.0
 10
310.530218962726
 20
216.8095885792958
 30
0.0
 10
311.1347813029672
 20
217.0528132818486
 30
0.0
 10
311.4412228958382
 20
217.1809938478983
 30
0.0
 10
311.4261357861706
 20
217.1746876151268
 30
0.0
 10
311.4206257447934
 20
217.1723844832301
 30
0.0
  0
SPLINE
  5
177
330
1F
100
AcDbEntity
  8
0
  6
Continuous
 62
     7
370
    25
100
AcDbSpline
210
0.0
220
0.0
230
1.0
 70
     8
 71
     3
 72
    15
 73
    11
 74
     0
 42
0.00000001
 43
0.00000001
 40
0.0
 40
0.0
 40
0.0
 40
0.0
 40
0.1247766559365705
 40
0.3207875337825358
 40
0.5257726120636756
 40
0.6341827896596434
 40
0.7457519850177053
 40
0.8532465204985215
 40
0.9644441989674756
 40
1.0
 40
1.0
 40
1.0
 40
1.0
 10
290.5254022224595
 20
217.1336621136468
 30
0.0
 10
290.5145208221723
 20
217.1380076411892
 30
0.0
 10
290.4865458974073
 20
217.1491795310979
 30
0.0
 10
291.6293348749612
 20
216.6795451904997
 30
0.0
 10
293.3436794867105
 20
216.0755953177653
 30
0.0
 10
295.1805832147109
 20
215.5681049562214
 30
0.0
 10
296.7680765412629
 20
215.2264521803159
 30
0.0
 10
298.506064074865
 20
214.9756390315456
 30
0.0
 10
299.9123168455611
 20
214.8774228361016
 30
0.0
 10
300.7287344417153
 20
214.870836214833
 30
0.0
 10
300.9265381442709
 20
214.8692403917145
 30
0.0
  0
LINE
  5
178
330
1F
100
AcDbEntity
  8
0
  6
Continuous
 62
     7
370
    25
100
AcDbLine
 10
316.9745381443
 20
192.1130734748
 30
0.0
 11
316.9745381443
 21
216.8871734748
 31
0.0
  0
LINE
  5
179
330
1F
100
AcDbEntity
  8
0
  6
Continuous
 62
     7
370
    25
100
AcDbLine
 10
316.9745381443
 20
167.3389734748
 30
0.0
 11
316.9745381443
 21
192.1130734748
 31
0.0
  0
LINE
  5
17A
330
1F
100
AcDbEntity
  8
0
  6
Continuous
 62
     7
370
    25
100
AcDbLine
 10
84.588686025
 20
170.1833112299
 30
0.0
 11
84.588686025
 21
214.0428357198
 31
0.0
  0
LINE
  5
17B
330
1F
100
AcDbEntity
  8
0
  6
Continuous
 62
     7
370
    25
100
AcDbLine
 10
366.3630402636
 20
214.0428357198
 30
0.0
 11
366.3630402636
 21
170.1833112299
 31
0.0
  0
LINE
  5
17C
330
1F
100
AcDbEntity
  8
0
  6
Continuous
 62
     7
370
    25
100
AcDbLine
 10
318.8802381443
 20
183.1569455325
 30
0.0
 11
316.9745381443
 21
183.1569455325
 31
0.0
  0
LINE
  5
17D
330
1F
100
AcDbEntity
  8
0
  6
Continuous
 62
     7
370
    25
100
AcDbLine
 10
316.9745381443
 20
186.9267075365
 30
0.0
 11
318.8802381443
 21
186.9267075365
 31
0.0
  0
LINE
  5
17E
330
1F
100
AcDbEntity
  8
0
  6
Continuous
 62
     7
370
    25
100
AcDbLine
 10
318.8802381443
 20
186.443534535
 30
0.0
 11
316.9745381443
 21
186.443534535
 31
0.0
  0
LINE
  5
17F
330
1F
100
AcDbEntity
  8
0
  6
Continuous
 62
     7
370
    25
100
AcDbLine
 10
316.9745381443
 20
186.6879643944
 30
0.0
 11
318.8802381443
 21
186.6879643944
 31
0.0
  0
LINE
  5
180
330
1F
100
AcDbEntity
  8
0
  6
Continuous
 62
     7
370
    25
100
AcDbLine
 10
316.9745381443
 20
183.4952760631
 30
0.0
 11
318.8802381443
 21
183.4952760631
 31
0.0
  0
LINE
  5
181
330
1F
100
AcDbEntity
  8
0
  6
Continuous
 62
     7
370
    25
100
AcDbLine
 10
318.8802381443
 20
183.3234059277
 30
0.0
 11
316.9745381443
 21
183.3234059277
 31
0.0
  0
LINE
  5
182
330
1F
100
AcDbEntity
  8
0
  6
Continuous
 62
     7
370
    25
100
AcDbLine
 10
315.9305672559
 20
245.422523524
 30
0.0
 11
285.27730099
 21
245.422523524
 31
0.0
  0
LINE
  5
183
330
1F
100
AcDbEntity
  8
0
  6
Continuous
 62
     7
370
    25
100
AcDbLine
 10
147.7903290009
 20
241.4419906285
 30
0.0
 11
153.1627472876
 21
241.4419906285
 31
0.0
  0
SPLINE
  5
184
330
1F
100
AcDbEntity
  8
0
  6
Continuous
 62
     7
370
    25
100
AcDbSpline
210
0.0
220
0.0
230
1.0
 70
     8
 71
     3
 72
    34
 73
    30
 74
     0
 42
0.00000001
 43
0.00000001
 40
0.0
 40
0.0
 40
0.0
 40
0.0
 40
0.0102436354286839
 40
0.0204882363148972
 40
0.0307731700808738
 40
0.0411373572379761
 40
0.0516188027429774
 40
0.0622541783753206
 40
0.0927157460861395
 40
0.1246808247159631
 40
0.1551799782847851
 40
0.1872228984688094
 40
0.2496668338805081
 40
0.3134441107052869
 40
0.3776841904591407
 40
0.4408749461224314
 40
0.5027365256519667
 40
0.5662850802371349
 40
0.6304752486815606
 40
0.6941267219931456
 40
0.7563617984168569
 40
0.8183780767708315
 40
0.8500594693940429
 40
0.8802067043053817
 40
0.9109406958167384
 40
0.9402519345270595
 40
0.9604662120675425
 40
0.9802908615995268
 40
0.9999999999999999
 40
0.9999999999999999
 40
0.9999999999999999
 40
0.9999999999999999
 10
138.1177472876321
 20
241.4419906285194
 30
0.0
 10
138.1185916739305
 20
241.4906891667772
 30
0.0
 10
138.1202805261102
 20
241.5880908331058
 30
0.0
 10
138.133951243451
 20
241.7336838781808
 30
0.0
 10
138.1557439772243
 20
241.8784434149076
 30
0.0
 10
138.1864281557719
 20
242.0222280211455
 30
0.0
 10
138.2257660618321
 20
242.1649115512014
 30
0.0
 10
138.3032702501613
 20
242.3932818466581
 30
0.0
 10
138.4469453922358
 20
242.700567429238
 30
0.0
 10
138.6818774038896
 20
243.0511993172759
 30
0.0
 10
138.9603449756736
 20
243.3665135537968
 30
0.0
 10
139.3681778523071
 20
243.730489790052
 30
0.0
 10
139.9404790207464
 20
244.0988083802525
 30
0.0
 10
140.6771823501285
 20
244.4156794972633
 30
0.0
 10
141.4442320102137
 20
244.6271539629548
 30
0.0
 10
142.2179169585964
 20
244.7458347392659
 30
0.0
 10
142.9945966537195
 20
244.7816440139753
 30
0.0
 10
143.7751281452917
 20
244.7372691978521
 30
0.0
 10
144.5562287563084
 20
244.6073753248263
 30
0.0
 10
145.3163404247101
 20
244.3848207741767
 30
0.0
 10
146.0389488785116
 20
244.0595736614787
 30
0.0
 10
146.5978605105348
 20
243.6864702973797
 30
0.0
 10
146.9961485514382
 20
243.3171085572511
 30
0.0
 10
147.2631202181907
 20
243.0016410768183
 30
0.0
 10
147.4848858094531
 20
242.6558842130243
 30
0.0
 10
147.6379166219841
 20
242.315568096497
 30
0.0
 10
147.7301297890901
 20
242.0029337656108
 30
0.0
 10
147.7809626528073
 20
241.7237855834862
 30
0.0
 10
147.7872129723383
 20
241.5357391333921
 30
0.0
 10
147.7903290009084
 20
241.4419906285194
 30
0.0
  0
LINE
  5
185
330
1F
100
AcDbEntity
  8
0
  6
Continuous
 62
     7
370
    25
100
AcDbLine
 10
135.4315381443
 20
241.4419906285
 30
0.0
 11
138.1177472876
 21
241.4419906285
 31
0.0
  0
SPLINE
  5
186
330
1F
100
AcDbEntity
  8
0
  6
Continuous
 62
     7
370
    25
100
AcDbSpline
210
0.0
220
0.0
230
1.0
 70
     8
 71
     3
 72
    22
 73
    18
 74
     0
 42
0.00000001
 43
0.00000001
 40
0.0
 40
0.0
 40
0.0
 40
0.0
 40
0.0419748895807831
 40
0.0838882729949284
 40
0.1257908881270461
 40
0.190210334001314
 40
0.2540400555479359
 40
0.3820284021383989
 40
0.5077426131969239
 40
0.6329608069202498
 40
0.6967652307076023
 40
0.75792036773658
 40
0.819870812222132
 40
0.8792962455090819
 40
0.9200761609852487
 40
0.9601245962717851
 40
1.0
 40
1.0
 40
1.0
 40
1.0
 10
135.4315381442704
 20
244.7685652932981
 30
0.0
 10
135.4315379148875
 20
244.7677017190976
 30
0.0
 10
135.4315374564579
 20
244.7659758360993
 30
0.0
 10
135.4315072000369
 20
244.7519597000505
 30
0.0
 10
135.431465254576
 20
244.72548955539
 30
0.0
 10
135.4314971362517
 20
244.6791693786558
 30
0.0
 10
135.4315211364075
 20
244.579623890475
 30
0.0
 10
135.4316119508358
 20
244.39800282139
 30
0.0
 10
135.4315277150464
 20
244.0752534685474
 30
0.0
 10
135.4315103343066
 20
243.7027648782472
 30
0.0
 10
135.4316051953042
 20
243.3326502116615
 30
0.0
 10
135.4314856699592
 20
243.016047748545
 30
0.0
 10
135.4315604884159
 20
242.6676129849175
 30
0.0
 10
135.4315419444828
 20
242.3245914750698
 30
0.0
 10
135.4316450912035
 20
242.0088002492379
 30
0.0
 10
135.4315958507175
 20
241.7269276016454
 30
0.0
 10
135.43155735197
 20
241.5368324370347
 30
0.0
 10
135.4315381442703
 20
241.4419906285194
 30
0.0
  0
SPLINE
  5
187
330
1F
100
AcDbEntity
  8
0
  6
Continuous
 62
     7
370
    25
100
AcDbSpline
210
0.0
220
0.0
230
1.0
 70
    24
 71
     3
 72
    14
 73
    10
 74
     0
 42
0.00000001
 43
0.00000001
 40
0.0
 40
0.0
 40
0.0
 40
0.0
 40
0.0623244655734004
 40
0.1246130767618444
 40
0.2493535318402432
 40
0.3745205089314253
 40
0.499707880947803
 40
0.7558596997911089
 40
0.9999999999999999
 40
0.9999999999999999
 40
0.9999999999999999
 40
0.9999999999999999
 10
165.5215381442704
 20
241.4419906285194
 30
0.0
 10
165.5215381442704
 20
241.590022419085
 30
0.0
 10
165.5215381442704
 20
241.8860008396172
 30
0.0
 10
165.5215381442704
 20
242.4521236929797
 30
0.0
 10
165.5215381442704
 20
243.0789446475813
 30
0.0
 10
165.5215381442704
 20
243.6603521161669
 30
0.0
 10
165.5215381442704
 20
244.2453531947475
 30
0.0
 10
165.5215381442704
 20
244.6810048048517
 30
0.0
 10
165.5215381442704
 20
244.7370732754776
 30
0.0
 10
165.5215381442704
 20
244.7644344365465
 30
0.0
  0
LINE
  5
188
330
1F
100
AcDbEntity
  8
0
  6
Continuous
 62
     7
370
    25
100
AcDbLine
 10
162.8353290009
 20
241.4419906285
 30
0.0
 11
165.5215381443
 21
241.4419906285
 31
0.0
  0
SPLINE
  5
189
330
1F
100
AcDbEntity
  8
0
  6
Continuous
 62
     7
370
    25
100
AcDbSpline
210
0.0
220
0.0
230
1.0
 70
     8
 71
     3
 72
    34
 73
    30
 74
     0
 42
0.00000001
 43
0.00000001
 40
0.0
 40
0.0
 40
0.0
 40
0.0
 40
0.0101839707203902
 40
0.0203577798393035
 40
0.0305597664428386
 40
0.0408276875246767
 40
0.0511981211690857
 40
0.0617059345963794
 40
0.0920327062721181
 40
0.1236635961771278
 40
0.1545024458572553
 40
0.1866689656638951
 40
0.2497014961248266
 40
0.3121197613878369
 40
0.3756237360393673
 40
0.4393446122143901
 40
0.5020370603776146
 40
0.5646001550624139
 40
0.62840291098217
 40
0.6921178686082373
 40
0.7547244549902882
 40
0.8171270414315407
 40
0.8489138342596426
 40
0.8793842041990596
 40
0.9102454410581289
 40
0.9398535167124874
 40
0.9601720033452323
 40
0.9801286608725693
 40
0.9999999999999999
 40
0.9999999999999999
 40
0.9999999999999999
 40
0.9999999999999999
 10
153.1627472876322
 20
241.4419906285194
 30
0.0
 10
153.1635754964771
 20
241.4904054402362
 30
0.0
 10
153.1652310877772
 20
241.5871867552018
 30
0.0
 10
153.1786722509486
 20
241.7317808020496
 30
0.0
 10
153.200122765247
 20
241.8753987621028
 30
0.0
 10
153.2303217342186
 20
242.0179006188339
 30
0.0
 10
153.2690027941217
 20
242.1591622189931
 30
0.0
 10
153.3454482709973
 20
242.386118110139
 30
0.0
 10
153.487009597945
 20
242.691409458795
 30
0.0
 10
153.7203424816412
 20
243.0427178747041
 30
0.0
 10
153.9981213787754
 20
243.3597119809686
 30
0.0
 10
154.4089241198007
 20
243.727615483718
 30
0.0
 10
154.9787609176152
 20
244.0946403485193
 30
0.0
 10
155.7090292581653
 20
244.4105535051513
 30
0.0
 10
156.469350184934
 20
244.6231724533888
 30
0.0
 10
157.2453031144976
 20
244.7442060257759
 30
0.0
 10
158.0234832962923
 20
244.7818461854592
 30
0.0
 10
158.8019219953131
 20
244.7390745069455
 30
0.0
 10
159.5778423993516
 20
244.6124940693675
 30
0.0
 10
160.338738059346
 20
244.3930793977486
 30
0.0
 10
161.0657176606683
 20
244.0697801151059
 30
0.0
 10
161.6290645740983
 20
243.697268050814
 30
0.0
 10
162.0312371176436
 20
243.3274530249321
 30
0.0
 10
162.3010854625671
 20
243.011374901263
 30
0.0
 10
162.5257478915244
 20
242.6637279147086
 30
0.0
 10
162.6807200445317
 20
242.3216908066493
 30
0.0
 10
162.7741694919431
 20
242.0068963532696
 30
0.0
 10
162.8257782581779
 20
241.72596135938
 30
0.0
 10
162.8321499697646
 20
241.5365122613192
 30
0.0
 10
162.8353290009084
 20
241.4419906285194
 30
0.0
  0
LINE
  5
18A
330
1F
100
AcDbEntity
  8
0
  6
Continuous
 62
     7
370
    25
100
AcDbLine
 10
135.9330381443
 20
228.3715234761
 30
0.0
 11
165.0200381443
 21
228.3715234761
 31
0.0
  0
LINE
  5
18B
330
1F
100
AcDbEntity
  8
0
  6
Continuous
 62
     7
370
    25
100
AcDbLine
 10
162.8353290009
 20
232.3520563236
 30
0.0
 11
165.5215381443
 21
232.3520563236
 31
0.0
  0
SPLINE
  5
18C
330
1F
100
AcDbEntity
  8
0
  6
Continuous
 62
     7
370
    25
100
AcDbSpline
210
0.0
220
0.0
230
1.0
 70
    24
 71
     3
 72
    14
 73
    10
 74
     0
 42
0.00000001
 43
0.00000001
 40
0.0
 40
0.0
 40
0.0
 40
0.0
 40
0.0062518907664813
 40
0.2617693692491791
 40
0.5133745976126212
 40
0.6375677597288649
 40
0.7611628238443285
 40
0.8810325901250176
 40
1.0
 40
1.0
 40
1.0
 40
1.0
 10
165.5215381442704
 20
229.0295928400128
 30
0.0
 10
165.5215381442704
 20
229.0282672284724
 30
0.0
 10
165.5215381442704
 20
228.9727633001768
 30
0.0
 10
165.5215381442704
 20
229.1648833827463
 30
0.0
 10
165.5215381442704
 20
229.5804140394689
 30
0.0
 10
165.5215381442704
 20
230.1794961362021
 30
0.0
 10
165.5215381442704
 20
230.7631906616236
 30
0.0
 10
165.5215381442704
 20
231.4983535615902
 30
0.0
 10
165.5215381442704
 20
232.0682063944057
 30
0.0
 10
165.5215381442704
 20
232.3520563235549
 30
0.0
  0
SPLINE
  5
18D
330
1F
100
AcDbEntity
  8
0
  6
Continuous
 62
     7
370
    25
100
AcDbSpline
210
0.0
220
0.0
230
1.0
 70
     8
 71
     3
 72
    24
 73
    20
 74
     0
 42
0.00000001
 43
0.00000001
 40
0.0
 40
0.0
 40
0.0
 40
0.0
 40
0.0202722082353802
 40
0.0405292034007043
 40
0.0608467835272095
 40
0.081299535660082
 40
0.1019596686968321
 40
0.1228959757414194
 40
0.1834686160021991
 40
0.2465832355189109
 40
0.3072887160243861
 40
0.3706308374856697
 40
0.4940972471710654
 40
0.620398619886564
 40
0.7485514964866085
 40
0.8120600485675572
 40
0.876142860882789
 40
0.9380859446732056
 40
1.0
 40
1.0
 40
1.0
 40
1.0
 10
135.4315381442703
 20
232.3520563235549
 30
0.0
 10
135.4315419194808
 20
232.3038641877012
 30
0.0
 10
135.4315494670686
 20
232.2075160812862
 30
0.0
 10
135.4315784445402
 20
232.063547769707
 30
0.0
 10
135.431588477789
 20
231.9205090806059
 30
0.0
 10
135.43157658124
 20
231.7785379788463
 30
0.0
 10
135.4315488258069
 20
231.6377572878007
 30
0.0
 10
135.4315195765253
 20
231.4111712248104
 30
0.0
 10
135.4316395029098
 20
231.1061924916887
 30
0.0
 10
135.4315415981715
 20
230.7567396588452
 30
0.0
 10
135.4315524986096
 20
230.4426236969779
 30
0.0
 10
135.4314821933479
 20
230.0794533652347
 30
0.0
 10
135.431661058801
 20
229.7109921912661
 30
0.0
 10
135.4316457255106
 20
229.3911369287838
 30
0.0
 10
135.4313758383263
 20
229.2111998615946
 30
0.0
 10
135.4313438060606
 20
229.1128656456395
 30
0.0
 10
135.4313472258208
 20
229.0622786148252
 30
0.0
 10
135.4315046159677
 20
229.0311655363436
 30
0.0
 10
135.4315269699159
 20
229.0273759886143
 30
0.0
 10
135.4315381442704
 20
229.0254816588288
 30
0.0
  0
LINE
  5
18E
330
1F
100
AcDbEntity
  8
0
  6
Continuous
 62
     7
370
    25
100
AcDbLine
 10
135.4315381443
 20
232.3520563236
 30
0.0
 11
138.1177472876
 21
232.3520563236
 31
0.0
  0
SPLINE
  5
18F
330
1F
100
AcDbEntity
  8
0
  6
Continuous
 62
     7
370
    25
100
AcDbSpline
210
0.0
220
0.0
230
1.0
 70
     8
 71
     3
 72
    34
 73
    30
 74
     0
 42
0.00000001
 43
0.00000001
 40
0.0
 40
0.0
 40
0.0
 40
0.0
 40
0.0102436354287357
 40
0.0204882363149859
 40
0.030773170080994
 40
0.0411373572381269
 40
0.0516188027431658
 40
0.062254178375562
 40
0.0927157460883262
 40
0.1246808247159975
 40
0.1551799782820655
 40
0.1872228984685598
 40
0.2496668338801918
 40
0.3134441107048295
 40
0.3776841904584269
 40
0.440874946121385
 40
0.5027365256508323
 40
0.5662850802358682
 40
0.6304752486800592
 40
0.6941267219913958
 40
0.7563617984149155
 40
0.8183780767687595
 40
0.8500594693849585
 40
0.8802067043032318
 40
0.9109406958120186
 40
0.9402519345259124
 40
0.960466212070053
 40
0.9802908616023698
 40
0.9999999999999999
 40
0.9999999999999999
 40
0.9999999999999999
 40
0.9999999999999999
 10
147.7903290009084
 20
232.3520563235549
 30
0.0
 10
147.7894878233145
 20
232.3033577852973
 30
0.0
 10
147.7878053888461
 20
232.2059561189692
 30
0.0
 10
147.774159894657
 20
232.0603630738954
 30
0.0
 10
147.7523763505692
 20
231.9156035371702
 30
0.0
 10
147.7216823813008
 20
231.7718189309345
 30
0.0
 10
147.6823209382676
 20
231.6291354008813
 30
0.0
 10
147.6047898353124
 20
231.4007651054223
 30
0.0
 10
147.4612306350749
 20
231.0934795228504
 30
0.0
 10
147.2261816626972
 20
230.7428476348292
 30
0.0
 10
146.947744445421
 20
230.4275333983322
 30
0.0
 10
146.5398602176984
 20
230.0635571620668
 30
0.0
 10
145.9677444232635
 20
229.6952385718729
 30
0.0
 10
145.2309089810318
 20
229.3783674548629
 30
0.0
 10
144.4636395349765
 20
229.1668929891734
 30
0.0
 10
143.6901903134395
 20
229.0482122128621
 30
0.0
 10
142.9134089686282
 20
229.0124029381517
 30
0.0
 10
142.1327895467671
 20
229.056777754273
 30
0.0
 10
141.3518513788544
 20
229.186671627296
 30
0.0
 10
140.591815203136
 20
229.4092261779408
 30
0.0
 10
139.8691145091895
 20
229.7344732906319
 30
0.0
 10
139.3101893309315
 20
230.1075766547031
 30
0.0
 10
138.9119954461263
 20
230.4769383948192
 30
0.0
 10
138.6449012614498
 20
230.7924058752294
 30
0.0
 10
138.4232057016946
 20
231.1381627390321
 30
0.0
 10
138.2701709268169
 20
231.4784788555786
 30
0.0
 10
138.1780440320065
 20
231.7911131864908
 30
0.0
 10
138.1271621330536
 20
232.0702613686159
 30
0.0
 10
138.1208794504556
 20
232.2583078186965
 30
0.0
 10
138.117747287632
 20
232.3520563235549
 30
0.0
  0
LINE
  5
190
330
1F
100
AcDbEntity
  8
0
  6
Continuous
 62
     7
370
    25
100
AcDbLine
 10
147.7903290009
 20
232.3520563236
 30
0.0
 11
153.1627472876
 21
232.3520563236
 31
0.0
  0
SPLINE
  5
191
330
1F
100
AcDbEntity
  8
0
  6
Continuous
 62
     7
370
    25
100
AcDbSpline
210
0.0
220
0.0
230
1.0
 70
     8
 71
     3
 72
    34
 73
    30
 74
     0
 42
0.00000001
 43
0.00000001
 40
0.0
 40
0.0
 40
0.0
 40
0.0
 40
0.0101839707187681
 40
0.0203577798366867
 40
0.0305597664398729
 40
0.0408276875220178
 40
0.0511981211673882
 40
0.0617059345962909
 40
0.0920327062664198
 40
0.1236635961767592
 40
0.1545024458512602
 40
0.1866689656632593
 40
0.2497014961240243
 40
0.3121197613865927
 40
0.3756237360374918
 40
0.4393446122119174
 40
0.5020370603746838
 40
0.5646001550593497
 40
0.6284029109788564
 40
0.6921178686046614
 40
0.7547244549865443
 40
0.8171270414276187
 40
0.8489138342582657
 40
0.8793842041951703
 40
0.9102454410601225
 40
0.9398535167104929
 40
0.9601720033435401
 40
0.9801286608716201
 40
1.0
 40
1.0
 40
1.0
 40
1.0
 10
162.8353290009085
 20
232.3520563235549
 30
0.0
 10
162.8344965232886
 20
232.3036415118463
 30
0.0
 10
162.8328323986977
 20
232.206860196894
 30
0.0
 10
162.8193570057788
 20
232.0622661500621
 30
0.0
 10
162.7978919880343
 20
231.9186481900159
 30
0.0
 10
162.7677034096009
 20
231.7761463332831
 30
0.0
 10
162.7290535756766
 20
231.6348847331135
 30
0.0
 10
162.6526569401002
 20
231.4079288419826
 30
0.0
 10
162.5110215676903
 20
231.1026374933321
 30
0.0
 10
162.2777559927144
 20
230.7513290774429
 30
0.0
 10
161.9998664145466
 20
230.4343349711564
 30
0.0
 10
161.5891988181085
 20
230.0664314684209
 30
0.0
 10
161.019324696445
 20
229.6994066036067
 30
0.0
 10
160.2890053311926
 20
229.3834934469798
 30
0.0
 10
159.528732869505
 20
229.1708744987426
 30
0.0
 10
158.752852348614
 20
229.0498409263543
 30
0.0
 10
157.9745536255423
 20
229.0122007666678
 30
0.0
 10
157.1962364901452
 20
229.0549724451771
 30
0.0
 10
156.4202553835838
 20
229.1815528827491
 30
0.0
 10
155.6592709946411
 20
229.4009675543604
 30
0.0
 10
154.9323676948995
 20
229.7242668369905
 30
0.0
 10
154.3690387686795
 20
230.0967789012792
 30
0.0
 10
153.9667730511896
 20
230.4665939271408
 30
0.0
 10
153.6970440640748
 20
230.7826720508264
 30
0.0
 10
153.4723067087535
 20
231.1303190373686
 30
0.0
 10
153.3173513165839
 20
231.4723561454279
 30
0.0
 10
153.2238003657399
 20
231.7871505987935
 30
0.0
 10
153.1722408708434
 20
232.0680855926857
 30
0.0
 10
153.1659072928324
 20
232.257534690752
 30
0.0
 10
153.1627472876321
 20
232.3520563235549
 30
0.0
  0
LINE
  5
192
330
1F
100
AcDbEntity
  8
0
  6
Continuous
 62
     7
370
    25
100
AcDbLine
 10
165.8031712823
 20
245.422523524
 30
0.0
 11
135.1499050063
 21
245.422523524
 31
0.0
  0
SPLINE
  5
193
330
1F
100
AcDbEntity
  8
0
  6
Continuous
 62
     7
370
    25
100
AcDbSpline
210
0.0
220
0.0
230
1.0
 70
     8
 71
     3
 72
    34
 73
    30
 74
     0
 42
0.00000001
 43
0.00000001
 40
0.0
 40
0.0
 40
0.0
 40
0.0
 40
0.0101839707203306
 40
0.0203577798392027
 40
0.0305597664427194
 40
0.0408276875245581
 40
0.0511981211689883
 40
0.0617059345963193
 40
0.0920327062692904
 40
0.1236635961769483
 40
0.1545024458522564
 40
0.186668965663663
 40
0.249701496124538
 40
0.3121197613874868
 40
0.3756237360389754
 40
0.4393446122139611
 40
0.5020370603771646
 40
0.5646001550619125
 40
0.6284029109816273
 40
0.6921178686076669
 40
0.7547244549897005
 40
0.8171270414309225
 40
0.8489138342592847
 40
0.8793842041984012
 40
0.910245441056072
 40
0.9398535167121397
 40
0.9601720033448407
 40
0.980128660872291
 40
1.0
 40
1.0
 40
1.0
 40
1.0
 10
311.1636565162473
 20
241.4419906285196
 30
0.0
 10
311.1641322182688
 20
241.490405440236
 30
0.0
 10
311.1650831476546
 20
241.5871867552011
 30
0.0
 10
311.1728236442773
 20
241.7317808020484
 30
0.0
 10
311.1851997309148
 20
241.8753987621013
 30
0.0
 10
311.2026411127624
 20
242.0179006188324
 30
0.0
 10
311.224991661441
 20
242.1591622189918
 30
0.0
 10
311.2691556766243
 20
242.3861181101264
 30
0.0
 10
311.3508433966899
 20
242.6914094587779
 30
0.0
 10
311.4855970605806
 20
243.0427178746767
 30
0.0
 10
311.6459088798983
 20
243.3597119809542
 30
0.0
 10
311.883163978777
 20
243.7276154837043
 30
0.0
 10
312.2121378584688
 20
244.0946403485183
 30
0.0
 10
312.6337290223337
 20
244.41055350515
 30
0.0
 10
313.0727284953928
 20
244.623172453388
 30
0.0
 10
313.5207669333127
 20
244.7442060257755
 30
0.0
 10
313.9699810309043
 20
244.7818461854593
 30
0.0
 10
314.4194830081161
 20
244.7390745069463
 30
0.0
 10
314.8674258156337
 20
244.6124940693691
 30
0.0
 10
315.3066779020691
 20
244.3930793977515
 30
0.0
 10
315.7264438233232
 20
244.0697801151084
 30
0.0
 10
316.0517027003611
 20
243.6972680508221
 30
0.0
 10
316.2838433326428
 20
243.3274530249309
 30
0.0
 10
316.4397092584926
 20
243.0113749012746
 30
0.0
 10
316.5693749135751
 20
242.6637279147226
 30
0.0
 10
316.6588578047144
 20
242.3216908066613
 30
0.0
 10
316.7127522652931
 20
242.0068963532746
 30
0.0
 10
316.7425770471993
 20
241.7259613593833
 30
0.0
 10
316.7462777730403
 20
241.5365122613207
 30
0.0
 10
316.7481241721661
 20
241.4419906285196
 30
0.0
  0
LINE
  5
194
330
1F
100
AcDbEntity
  8
0
  6
Continuous
 62
     7
370
    25
100
AcDbLine
 10
306.5110058002
 20
241.4419906285
 30
0.0
 11
311.1636565162
 21
241.4419906285
 31
0.0
  0
SPLINE
  5
195
330
1F
100
AcDbEntity
  8
0
  6
Continuous
 62
     7
370
    25
100
AcDbSpline
210
0.0
220
0.0
230
1.0
 70
     8
 71
     3
 72
    34
 73
    30
 74
     0
 42
0.00000001
 43
0.00000001
 40
0.0
 40
0.0
 40
0.0
 40
0.0
 40
0.0102436354304556
 40
0.0204882363177385
 40
0.0307731700840701
 40
0.0411373572408115
 40
0.0516188027447432
 40
0.0622541783753253
 40
0.0927157460901436
 40
0.1246808247157942
 40
0.1551799782832502
 40
0.1872228984684483
 40
0.2496668338799997
 40
0.3134441107046493
 40
0.377684190458397
 40
0.4408749461216009
 40
0.502736525651019
 40
0.566285080236071
 40
0.6304752486804008
 40
0.6941267219918864
 40
0.7563617984154716
 40
0.8183780767692819
 40
0.8500594693880479
 40
0.8802067043038337
 40
0.910940695819335
 40
0.9402519345262184
 40
0.9604662120732338
 40
0.9802908616054365
 40
1.0
 40
1.0
 40
1.0
 40
1.0
 10
295.3420704883512
 20
241.4419906285193
 30
0.0
 10
295.3430436491183
 20
241.4906891667856
 30
0.0
 10
295.3449900623725
 20
241.5880908331276
 30
0.0
 10
295.3607610844518
 20
241.7336838782177
 30
0.0
 10
295.3859198602034
 20
241.8784434149497
 30
0.0
 10
295.4213565503642
 20
242.0222280211825
 30
0.0
 10
295.466793640743
 20
242.1649115512232
 30
0.0
 10
295.5563033079067
 20
242.3932818466803
 30
0.0
 10
295.7221381327565
 20
242.7005674292498
 30
0.0
 10
295.9934817803972
 20
243.0511993172851
 30
0.0
 10
296.3150109102659
 20
243.3665135537821
 30
0.0
 10
296.7859654000466
 20
243.730489790051
 30
0.0
 10
297.4466948416296
 20
244.098808380248
 30
0.0
 10
298.2974428480849
 20
244.4156794972611
 30
0.0
 10
299.1832823970423
 20
244.6271539629528
 30
0.0
 10
300.076520726522
 20
244.7458347392649
 30
0.0
 10
300.9734118761078
 20
244.7816440139753
 30
0.0
 10
301.8747427762277
 20
244.7372691978532
 30
0.0
 10
302.7765862857318
 20
244.6073753248292
 30
0.0
 10
303.6542440527461
 20
244.3848207741809
 30
0.0
 10
304.488693678267
 20
244.0595736614888
 30
0.0
 10
305.134077061583
 20
243.6864702973941
 30
0.0
 10
305.5939261158147
 20
243.3171085572912
 30
0.0
 10
305.9022691789059
 20
243.0016410768332
 30
0.0
 10
306.1583015938259
 20
242.6558842130279
 30
0.0
 10
306.335008643108
 20
242.3155680964641
 30
0.0
 10
306.4414374274591
 20
242.0029337655593
 30
0.0
 10
306.500162473071
 20
241.7237855834323
 30
0.0
 10
306.5073984052119
 20
241.5357391333645
 30
0.0
 10
306.5110058001885
 20
241.4419906285195
 30
0.0
  0
LINE
  5
196
330
1F
100
AcDbEntity
  8
0
  6
Continuous
 62
     7
370
    25
100
AcDbLine
 10
290.6894197723
 20
241.4419906285
 30
0.0
 11
295.3420704884
 21
241.4419906285
 31
0.0
  0
SPLINE
  5
197
330
1F
100
AcDbEntity
  8
0
  6
Continuous
 62
     7
370
    25
100
AcDbSpline
210
0.0
220
0.0
230
1.0
 70
     8
 71
     3
 72
    34
 73
    30
 74
     0
 42
0.00000001
 43
0.00000001
 40
0.0
 40
0.0
 40
0.0
 40
0.0
 40
0.0101839707203912
 40
0.0203577798393036
 40
0.0305597664428383
 40
0.0408276875246765
 40
0.0511981211690858
 40
0.0617059345963796
 40
0.0920327062721173
 40
0.1236635961771292
 40
0.1545024458572568
 40
0.1866689656638953
 40
0.2497014961248265
 40
0.3121197613878363
 40
0.3756237360393674
 40
0.4393446122143886
 40
0.5020370603776152
 40
0.5646001550624148
 40
0.6284029109821716
 40
0.6921178686082383
 40
0.754724454990289
 40
0.8171270414315416
 40
0.8489138342596446
 40
0.8793842041990606
 40
0.9102454410581291
 40
0.9398535167124886
 40
0.9601720033452324
 40
0.9801286608725704
 40
0.9999999999999999
 40
0.9999999999999999
 40
0.9999999999999999
 40
0.9999999999999999
 10
285.1049521163737
 20
241.4419906285192
 30
0.0
 10
285.1054352121294
 20
241.4904054402359
 30
0.0
 10
285.1064009216061
 20
241.5871867552016
 30
0.0
 10
285.1142007058866
 20
241.7317808020493
 30
0.0
 10
285.1266019132249
 20
241.8753987621026
 30
0.0
 10
285.1440252981248
 20
242.0179006188336
 30
0.0
 10
285.1663217618107
 20
242.1591622189928
 30
0.0
 10
285.2104011813942
 20
242.3861181101387
 30
0.0
 10
285.2922171519372
 20
242.6914094587948
 30
0.0
 10
285.4268542337602
 20
243.0427178747038
 30
0.0
 10
285.5873577582357
 20
243.3597119809684
 30
0.0
 10
285.8243787798251
 20
243.7276154837177
 30
0.0
 10
286.153417306295
 20
244.0946403485191
 30
0.0
 10
286.5750968475567
 20
244.4105535051511
 30
0.0
 10
287.0140123766589
 20
244.6231724533886
 30
0.0
 10
287.4619253991044
 20
244.7442060257756
 30
0.0
 10
287.9113448162323
 20
244.7818461854591
 30
0.0
 10
288.3606362390901
 20
244.7390745069452
 30
0.0
 10
288.8086841864781
 20
244.6124940693674
 30
0.0
 10
289.2480899559761
 20
244.3930793977484
 30
0.0
 10
289.6677237190249
 20
244.0697801151058
 30
0.0
 10
289.9929514412969
 20
243.6972680508137
 30
0.0
 10
290.225253455566
 20
243.3274530249319
 30
0.0
 10
290.3809126476068
 20
243.0113749012628
 30
0.0
 10
290.5107080789507
 20
242.6637279147084
 30
0.0
 10
290.6001619394413
 20
242.3216908066491
 30
0.0
 10
290.6542322091435
 20
242.0068963532694
 30
0.0
 10
290.6839716505665
 20
241.7259613593799
 30
0.0
 10
290.6876063270839
 20
241.536512261319
 30
0.0
 10
290.6894197722924
 20
241.4419906285193
 30
0.0
  0
LINE
  5
198
330
1F
100
AcDbEntity
  8
0
  6
Continuous
 62
     7
370
    25
100
AcDbLine
 10
286.3830381443
 20
228.3715234761
 30
0.0
 11
315.4700381443
 21
228.3715234761
 31
0.0
  0
LINE
  5
199
330
1F
100
AcDbEntity
  8
0
  6
Continuous
 62
     7
370
    25
100
AcDbLine
 10
290.6894197723
 20
232.3520563236
 30
0.0
 11
295.3420704884
 21
232.3520563236
 31
0.0
  0
SPLINE
  5
19A
330
1F
100
AcDbEntity
  8
0
  6
Continuous
 62
     7
370
    25
100
AcDbSpline
210
0.0
220
0.0
230
1.0
 70
     8
 71
     3
 72
    34
 73
    30
 74
     0
 42
0.00000001
 43
0.00000001
 40
0.0
 40
0.0
 40
0.0
 40
0.0
 40
0.0102436354293122
 40
0.0204882363159109
 40
0.0307731700820105
 40
0.0411373572389545
 40
0.0516188027434936
 40
0.0622541783750648
 40
0.092715746080186
 40
0.1246808247150713
 40
0.1551799782755466
 40
0.1872228984674192
 40
0.2496668338787217
 40
0.3134441107030255
 40
0.3776841904563116
 40
0.4408749461190327
 40
0.5027365256481462
 40
0.5662850802328052
 40
0.6304752486766809
 40
0.6941267219877616
 40
0.7563617984110648
 40
0.8183780767645888
 40
0.8500594693802291
 40
0.8802067042990476
 40
0.9109406958049909
 40
0.9402519345235191
 40
0.9604662120624199
 40
0.9802908615955387
 40
1.0
 40
1.0
 40
1.0
 40
1.0
 10
306.5110058001888
 20
232.3520563235549
 30
0.0
 10
306.5100326394186
 20
232.3033577852947
 30
0.0
 10
306.5080862261581
 20
232.2059561189623
 30
0.0
 10
306.4923152040716
 20
232.0603630738843
 30
0.0
 10
306.4671564283145
 20
231.9156035371582
 30
0.0
 10
306.43171973815
 20
231.771818930925
 30
0.0
 10
306.3862826477679
 20
231.629135400878
 30
0.0
 10
306.2967729806293
 20
231.4007651054547
 30
0.0
 10
306.1309381557629
 20
231.0934795228952
 30
0.0
 10
305.8595945081593
 20
230.742847634883
 30
0.0
 10
305.5380653782796
 20
230.4275333983417
 30
0.0
 10
305.0671108884891
 20
230.0635571620972
 30
0.0
 10
304.4063814468964
 20
229.695238571878
 30
0.0
 10
303.5556334404517
 20
229.378367454871
 30
0.0
 10
302.6697938915103
 20
229.1668929891785
 30
0.0
 10
301.776555562045
 20
229.0482122128651
 30
0.0
 10
300.8796644124736
 20
229.0124029381516
 30
0.0
 10
299.9783335123673
 20
229.0567777542691
 30
0.0
 10
299.0764900028772
 20
229.1866716272868
 30
0.0
 10
298.1988322358745
 20
229.4092261779255
 30
0.0
 10
297.3643826103645
 20
229.7344732906066
 30
0.0
 10
296.7189992270593
 20
230.1075766546733
 30
0.0
 10
296.2591501728334
 20
230.4769383947697
 30
0.0
 10
295.9508071097541
 20
230.7924058751699
 30
0.0
 10
295.6947746948175
 20
231.1381627389875
 30
0.0
 10
295.518067645522
 20
231.478478855506
 30
0.0
 10
295.4116388611116
 20
231.7911131864103
 30
0.0
 10
295.3529138154974
 20
232.0702613685478
 30
0.0
 10
295.345677883338
 20
232.2583078186642
 30
0.0
 10
295.3420704883512
 20
232.3520563235548
 30
0.0
  0
LINE
  5
19B
330
1F
100
AcDbEntity
  8
0
  6
Continuous
 62
     7
370
    25
100
AcDbLine
 10
306.5110058002
 20
232.3520563236
 30
0.0
 11
311.1636565162
 21
232.3520563236
 31
0.0
  0
SPLINE
  5
19C
330
1F
100
AcDbEntity
  8
0
  6
Continuous
 62
     7
370
    25
100
AcDbSpline
210
0.0
220
0.0
230
1.0
 70
     8
 71
     3
 72
    34
 73
    30
 74
     0
 42
0.00000001
 43
0.00000001
 40
0.0
 40
0.0
 40
0.0
 40
0.0
 40
0.0101839707191857
 40
0.02035777983736
 40
0.0305597664406413
 40
0.0408276875227188
 40
0.0511981211678666
 40
0.0617059345963921
 40
0.0920327062707718
 40
0.1236635961770055
 40
0.1545024458580559
 40
0.1866689656635765
 40
0.249701496124424
 40
0.3121197613870662
 40
0.3756237360380044
 40
0.4393446122124489
 40
0.5020370603752229
 40
0.5646001550599401
 40
0.6284029109794822
 40
0.692117868605311
 40
0.7547244549872164
 40
0.8171270414283538
 40
0.8489138342584154
 40
0.8793842041958213
 40
0.9102454410612614
 40
0.9398535167109335
 40
0.9601720033512877
 40
0.9801286608791574
 40
1.0
 40
1.0
 40
1.0
 40
1.0
 10
316.7481241721663
 20
232.3520563235551
 30
0.0
 10
316.7476410764099
 20
232.3036415118445
 30
0.0
 10
316.7466753669319
 20
232.206860196889
 30
0.0
 10
316.7388755826499
 20
232.0622661500533
 30
0.0
 10
316.7264743753101
 20
231.9186481900058
 30
0.0
 10
316.7090509904082
 20
231.7761463332739
 30
0.0
 10
316.6867545267193
 20
231.6348847331075
 30
0.0
 10
316.6426751071331
 20
231.4079288419624
 30
0.0
 10
316.5608591365867
 20
231.1026374933081
 30
0.0
 10
316.4262220547619
 20
230.7513290774038
 30
0.0
 10
316.2657185302837
 20
230.434334971136
 30
0.0
 10
316.028697508697
 20
230.0664314684026
 30
0.0
 10
315.6996589822326
 20
229.699406603605
 30
0.0
 10
315.2779794409774
 20
229.383493446978
 30
0.0
 10
314.8390639118832
 20
229.1708744987415
 30
0.0
 10
314.3911508894457
 20
229.0498409263537
 30
0.0
 10
313.9417314723248
 20
229.0122007666679
 30
0.0
 10
313.4924400494726
 20
229.054972445178
 30
0.0
 10
313.0443921020899
 20
229.1815528827512
 30
0.0
 10
312.6049863325963
 20
229.4009675543628
 30
0.0
 10
312.1853525695536
 20
229.7242668369981
 30
0.0
 10
311.8601248472722
 20
230.0967789012756
 30
0.0
 10
311.6278228330166
 20
230.4665939271617
 30
0.0
 10
311.4721636409571
 20
230.7826720508356
 30
0.0
 10
311.3423682095906
 20
231.130319037366
 30
0.0
 10
311.2529143491035
 20
231.4723561454691
 30
0.0
 10
311.1988440794199
 20
231.7871505988682
 30
0.0
 10
311.1691046379773
 20
232.0680855927571
 30
0.0
 10
311.165469961457
 20
232.2575346907874
 30
0.0
 10
311.1636565162474
 20
232.352056323555
 30
0.0
  0
SPLINE
  5
19D
330
1F
100
AcDbEntity
  8
0
  6
Continuous
 62
     7
370
    25
100
AcDbSpline
210
0.0
220
0.0
230
1.0
 70
     8
 71
     3
 72
    34
 73
    30
 74
     0
 42
0.00000001
 43
0.00000001
 40
0.0
 40
0.0
 40
0.0
 40
0.0
 40
0.0101839707187696
 40
0.0203577798366865
 40
0.030559766439873
 40
0.0408276875220169
 40
0.0511981211673897
 40
0.0617059345962901
 40
0.0920327062664197
 40
0.1236635961767585
 40
0.1545024458512607
 40
0.1866689656632599
 40
0.2497014961240236
 40
0.3121197613865917
 40
0.3756237360374916
 40
0.4393446122119177
 40
0.5020370603746817
 40
0.5646001550593472
 40
0.6284029109788543
 40
0.6921178686046604
 40
0.7547244549865441
 40
0.8171270414276183
 40
0.8489138342582645
 40
0.879384204195169
 40
0.9102454410601215
 40
0.9398535167104914
 40
0.9601720033435395
 40
0.9801286608716197
 40
0.9999999999999999
 40
0.9999999999999999
 40
0.9999999999999999
 40
0.9999999999999999
 10
290.6894197722926
 20
232.3520563235547
 30
0.0
 10
290.6889440702713
 20
232.3036415118461
 30
0.0
 10
290.687993140886
 20
232.2068601968939
 30
0.0
 10
290.6802526442616
 20
232.0622661500618
 30
0.0
 10
290.6678765576215
 20
231.9186481900158
 30
0.0
 10
290.6504351757705
 20
231.7761463332829
 30
0.0
 10
290.6280846270875
 20
231.6348847331134
 30
0.0
 10
290.5839206119065
 20
231.4079288419824
 30
0.0
 10
290.502232891835
 20
231.1026374933319
 30
0.0
 10
290.3674792279453
 20
230.7513290774427
 30
0.0
 10
290.2071674086302
 20
230.4343349711562
 30
0.0
 10
289.9699123097457
 20
230.0664314684208
 30
0.0
 10
289.6409384300606
 20
229.6994066036065
 30
0.0
 10
289.219347266201
 20
229.3834934469796
 30
0.0
 10
288.7803477931503
 20
229.1708744987425
 30
0.0
 10
288.3323093552384
 20
229.0498409263541
 30
0.0
 10
287.8830952576537
 20
229.0122007666676
 30
0.0
 10
287.4335932804477
 20
229.0549724451769
 30
0.0
 10
286.9856504729352
 20
229.1815528827489
 30
0.0
 10
286.5463983865046
 20
229.4009675543602
 30
0.0
 10
286.1266324652551
 20
229.7242668369903
 30
0.0
 10
285.8013735882128
 20
230.096778901279
 30
0.0
 10
285.5692329559326
 20
230.4665939271406
 30
0.0
 10
285.4133670300677
 20
230.7826720508261
 30
0.0
 10
285.2837013749851
 20
231.1303190373684
 30
0.0
 10
285.1942184838405
 20
231.4723561454277
 30
0.0
 10
285.1403240232625
 20
231.7871505987932
 30
0.0
 10
285.1104992413499
 20
232.0680855926855
 30
0.0
 10
285.1067985155026
 20
232.2575346907517
 30
0.0
 10
285.1049521163737
 20
232.3520563235546
 30
0.0
  0
LINE
  5
19E
330
1F
100
AcDbEntity
  8
0
  6
Continuous
 62
     7
370
    25
100
AcDbLine
 10
147.7903290009
 20
241.4419906285
 30
0.0
 11
147.7903290009
 21
232.3520563236
 31
0.0
  0
LINE
  5
19F
330
1F
100
AcDbEntity
  8
0
  6
Continuous
 62
     7
370
    25
100
AcDbLine
 10
153.1627472876
 20
232.3520563236
 30
0.0
 11
153.1627472876
 21
241.4419906285
 31
0.0
  0
LINE
  5
1A0
330
1F
100
AcDbEntity
  8
0
  6
Continuous
 62
     7
370
    25
100
AcDbLine
 10
162.8353290009
 20
241.4419906285
 30
0.0
 11
162.8353290009
 21
232.3520563236
 31
0.0
  0
LINE
  5
1A1
330
1F
100
AcDbEntity
  8
0
  6
Continuous
 62
     7
370
    25
100
AcDbLine
 10
138.1177472876
 20
232.3520563236
 30
0.0
 11
138.1177472876
 21
241.4419906285
 31
0.0
  0
LINE
  5
1A2
330
1F
100
AcDbEntity
  8
0
  6
Continuous
 62
     7
370
    25
100
AcDbLine
 10
295.3420704884
 20
232.3520563236
 30
0.0
 11
295.3420704884
 21
241.4419906285
 31
0.0
  0
LINE
  5
1A3
330
1F
100
AcDbEntity
  8
0
  6
Continuous
 62
     7
370
    25
100
AcDbLine
 10
306.5110058002
 20
241.4419906285
 30
0.0
 11
306.5110058002
 21
232.3520563236
 31
0.0
  0
LINE
  5
1A4
330
1F
100
AcDbEntity
  8
0
  6
Continuous
 62
     7
370
    25
100
AcDbLine
 10
290.6894197723
 20
241.4419906285
 30
0.0
 11
290.6894197723
 21
232.3520563236
 31
0.0
  0
LINE
  5
1A5
330
1F
100
AcDbEntity
  8
0
  6
Continuous
 62
     7
370
    25
100
AcDbLine
 10
311.1636565162
 20
232.3520563236
 30
0.0
 11
311.1636565162
 21
241.4419906285
 31
0.0
  0
LINE
  5
1A6
330
1F
100
AcDbEntity
  8
0
  6
Continuous
 62
     7
370
    25
100
AcDbLine
 10
316.7481241722
 20
241.4419906285
 30
0.0
 11
316.7481241722
 21
232.3520563236
 31
0.0
  0
LINE
  5
1A7
330
1F
100
AcDbEntity
  8
0
  6
Continuous
 62
     7
370
    25
100
AcDbLine
 10
285.1049521164
 20
232.3520563236
 30
0.0
 11
285.1049521164
 21
241.4419906285
 31
0.0
  0
LINE
  5
1A8
330
1F
100
AcDbEntity
  8
0
  6
Continuous
 62
     7
370
    25
100
AcDbLine
 10
165.5215381443
 20
232.3520563236
 30
0.0
 11
165.5215381443
 21
241.4419906285
 31
0.0
  0
LINE
  5
1A9
330
1F
100
AcDbEntity
  8
0
  6
Continuous
 62
     7
370
    25
100
AcDbLine
 10
135.4315381443
 20
241.4419906285
 30
0.0
 11
135.4315381443
 21
232.3520563236
 31
0.0
  0
LINE
  5
1AA
330
1F
100
AcDbEntity
  8
0
  6
Continuous
 62
     7
370
    18
100
AcDbLine
 10
265.7982755199
 20
254.2957934283
 30
0.0
 11
335.4095927361
 21
254.2957934283
 31
0.0
  0
LINE
  5
1AB
330
1F
100
AcDbEntity
  8
0
  6
Continuous
 62
     7
370
    18
100
AcDbLine
 10
333.7668128996
 20
251.6767784737
 30
0.0
 11
267.4279695863
 21
251.6767784737
 31
0.0
  0
LINE
  5
1AC
330
1F
100
AcDbEntity
  8
0
  6
Continuous
 62
     7
370
    18
100
AcDbLine
 10
115.6708795362
 20
254.2957934283
 30
0.0
 11
185.2821967524
 21
254.2957934283
 31
0.0
  0
SPLINE
  5
1AD
330
1F
100
AcDbEntity
  8
0
  6
Continuous
 62
     7
370
    18
100
AcDbSpline
210
0.0
220
0.0
230
1.0
 70
    24
 71
     3
 72
    31
 73
    27
 74
     0
 42
0.00000001
 43
0.00000001
 40
0.0
 40
0.0
 40
0.0
 40
0.0
 40
0.0415987175676865
 40
0.0832717780219895
 40
0.124944838476293
 40
0.1666178989305959
 40
0.2082909593848989
 40
0.2499640198392024
 40
0.2916370802935053
 40
0.3333101407478083
 40
0.3749832012021118
 40
0.4166562616564147
 40
0.4583293221107176
 40
0.5000023825650212
 40
0.5416754430193248
 40
0.5833485034736275
 40
0.6250215639279306
 40
0.666694624382234
 40
0.7083676848365371
 40
0.7500407452908401
 40
0.7917138057451437
 40
0.8333868661994471
 40
0.8750599266537501
 40
0.9167329871080531
 40
0.9584060475623565
 40
1.0
 40
1.0
 40
1.0
 40
1.0
 10
183.6454892624073
 20
251.6767784736602
 30
0.0
 10
183.5907864126278
 20
251.6767784736602
 30
0.0
 10
183.4812829512144
 20
251.6767784736602
 30
0.0
 10
182.6005603454769
 20
251.6767784736602
 30
0.0
 10
181.2105934874758
 20
251.6767784736602
 30
0.0
 10
179.2837910710409
 20
251.6767784736602
 30
0.0
 10
176.8670272628362
 20
251.6767784736603
 30
0.0
 10
173.9979274486619
 20
251.6767784736603
 30
0.0
 10
170.7265811307417
 20
251.6767784736602
 30
0.0
 10
167.108694428822
 20
251.6767784736603
 30
0.0
 10
163.2062420694691
 20
251.6767784736603
 30
0.0
 10
159.0859768891423
 20
251.6767784736603
 30
0.0
 10
154.8184029068948
 20
251.6767784736603
 30
0.0
 10
150.4765381442741
 20
251.6767784736603
 30
0.0
 10
146.134673381631
 20
251.6767784736603
 30
0.0
 10
141.8670993994509
 20
251.6767784736603
 30
0.0
 10
137.7468342188768
 20
251.6767784736603
 30
0.0
 10
133.8443818604462
 20
251.6767784736603
 30
0.0
 10
130.2264951550844
 20
251.6767784736603
 30
0.0
 10
126.9551488500102
 20
251.6767784736603
 30
0.0
 10
124.0860489878939
 20
251.6767784736603
 30
0.0
 10
121.6692853586115
 20
251.6767784736602
 30
0.0
 10
119.7424822744295
 20
251.6767784736603
 30
0.0
 10
118.3525179084947
 20
251.6767784736602
 30
0.0
 10
117.4718195970088
 20
251.6767784736602
 30
0.0
 10
117.3623181709079
 20
251.6767784736602
 30
0.0
 10
117.307619473898
 20
251.6767784736602
 30
0.0
  0
LINE
  5
1AE
330
1F
100
AcDbEntity
  8
0
  6
Continuous
 62
     8
370
    25
100
AcDbLine
 10
283.8868451271
 20
245.5853284712
 30
0.0
 11
317.3080087455
 21
245.5853284712
 31
0.0
  0
SPLINE
  5
1AF
330
1F
100
AcDbEntity
  8
0
  6
Continuous
 62
     8
370
    25
100
AcDbSpline
210
0.0
220
0.0
230
1.0
 70
    24
 71
     3
 72
    24
 73
    20
 74
     0
 42
0.00000001
 43
0.00000001
 40
0.0
 40
0.0
 40
0.0
 40
0.0
 40
0.0000627735470315
 40
0.0625594311094847
 40
0.1250560886719373
 40
0.18755274623439
 40
0.2500494037968426
 40
0.3125460613592955
 40
0.375042718921748
 40
0.4375393764842008
 40
0.5000360340466532
 40
0.5625326916091059
 40
0.6250293491715585
 40
0.6875260067340113
 40
0.7500226642964639
 40
0.8125193218589166
 40
0.8750159794213699
 40
0.9375126369838226
 40
1.0
 40
1.0
 40
1.0
 40
1.0
 10
167.1867974417348
 20
245.5853284712452
 30
0.0
 10
167.1869050440948
 20
245.5853284712452
 30
0.0
 10
167.2941403803951
 20
245.5853284712495
 30
0.0
 10
166.9220989738876
 20
245.5853284712433
 30
0.0
 10
166.0279080055591
 20
245.5853284712458
 30
0.0
 10
164.4568849286584
 20
245.5853284712451
 30
0.0
 10
162.36982701482
 20
245.5853284712453
 30
0.0
 10
159.820030166761
 20
245.5853284712453
 30
0.0
 10
156.9126921614853
 20
245.5853284712452
 30
0.0
 10
153.7576068742559
 20
245.5853284712452
 30
0.0
 10
150.4765459244962
 20
245.5853284712452
 30
0.0
 10
147.1954382933819
 20
245.5853284712453
 30
0.0
 10
144.0404930502164
 20
245.5853284712453
 30
0.0
 10
141.1326415500399
 20
245.5853284712453
 30
0.0
 10
138.5847586375201
 20
245.5853284712452
 30
0.0
 10
136.490558476426
 20
245.5853284712452
 30
0.0
 10
134.9461904530089
 20
245.5853284712453
 30
0.0
 10
133.952570777713
 20
245.5853284712452
 30
0.0
 10
133.8281899011316
 20
245.5853284712452
 30
0.0
 10
133.7660040876873
 20
245.5853284712452
 30
0.0
  0
LINE
  5
1B0
330
1F
100
AcDbEntity
  8
0
  6
Continuous
 62
     8
370
    25
100
AcDbLine
 10
84.6571465503
 20
168.8185223189
 30
0.0
 11
84.6571465503
 21
215.4076246307
 31
0.0
  0
LINE
  5
1B1
330
1F
100
AcDbEntity
  8
0
  6
Continuous
 62
     8
370
    25
100
AcDbLine
 10
366.2945797382
 20
215.4076246307
 30
0.0
 11
366.2945797382
 21
168.8185223189
 31
0.0
  0
LINE
  5
1B2
330
1F
100
AcDbEntity
  8
0
  6
Continuous
 62
     8
370
    25
100
AcDbLine
 10
284.8785381443
 20
241.4419906285
 30
0.0
 11
285.1049521164
 21
241.4419906285
 31
0.0
  0
LINE
  5
1B3
330
1F
100
AcDbEntity
  8
0
  6
Continuous
 62
     8
370
    25
100
AcDbLine
 10
316.7481241722
 20
241.4419906285
 30
0.0
 11
316.9745381443
 21
241.4419906285
 31
0.0
  0
LINE
  5
1B4
330
1F
100
AcDbEntity
  8
0
  6
Continuous
 62
     8
370
    25
100
AcDbLine
 10
316.7481241722
 20
232.3520563236
 30
0.0
 11
316.9745381443
 21
232.3520563236
 31
0.0
  0
LINE
  5
1B5
330
1F
100
AcDbEntity
  8
0
  6
Continuous
 62
     8
370
    25
100
AcDbLine
 10
284.8785381443
 20
232.3520563236
 30
0.0
 11
285.1049521164
 21
232.3520563236
 31
0.0
  0
ENDSEC
  0
SECTION
  2
OBJECTS
  0
DICTIONARY
  5
C
330
0
100
AcDbDictionary
281
     1
  3
ACAD_GROUP
350
D
  3
ACAD_LAYOUT
350
1A
  3
ACAD_MLINESTYLE
350
17
  3
ACAD_PLOTSETTINGS
350
19
  3
ACAD_PLOTSTYLENAME
350
E
  3
ACAD_SCALELIST
350
47
  3
DWGPROPS
350
1B6
  0
DICTIONARY
  5
D
102
{ACAD_REACTORS
330
C
102
}
330
C
100
AcDbDictionary
281
     1
  0
DICTIONARY
  5
1A
102
{ACAD_REACTORS
330
C
102
}
330
C
100
AcDbDictionary
281
     1
  3
Layout1
350
1E
  3
Layout2
350
26
  3
Model
350
22
  0
DICTIONARY
  5
17
102
{ACAD_REACTORS
330
C
102
}
330
C
100
AcDbDictionary
281
     1
  3
Standard
350
18
  0
DICTIONARY
  5
19
102
{ACAD_REACTORS
330
C
102
}
330
C
100
AcDbDictionary
281
     1
  0
ACDBDICTIONARYWDFLT
  5
E
102
{ACAD_REACTORS
330
C
102
}
330
C
100
AcDbDictionary
281
     1
  3
Normal
350
F
100
AcDbDictionaryWithDefault
340
F
  0
DICTIONARY
  5
47
102
{ACAD_REACTORS
330
C
102
}
330
C
100
AcDbDictionary
281
     1
  3
A0
350
48
  3
A1
350
49
  3
A2
350
4A
  3
A3
350
4B
  3
A4
350
4C
  3
A5
350
4D
  3
A6
350
4E
  3
A7
350
4F
  3
A8
350
50
  3
A9
350
51
  3
B0
350
52
  3
B1
350
53
  3
B2
350
54
  3
B3
350
55
  3
B4
350
56
  3
B5
350
57
  3
B6
350
58
  3
B7
350
59
  3
B8
350
5A
  3
B9
350
5B
  3
C0
350
5C
  3
C1
350
5D
  3
C2
350
5E
  3
C3
350
5F
  3
C4
350
60
  3
C5
350
61
  3
C6
350
62
  3
C7
350
63
  3
C8
350
64
  3
C9
350
65
  3
D0
350
66
  3
D1
350
67
  3
D2
350
68
  0
XRECORD
  5
1B6
102
{ACAD_REACTORS
330
C
102
}
330
C
100
AcDbXrecord
280
     1
  1
DWGPROPS COOKIE
  2

  3

  4

  6

  7

  8
fue-task
  9

300
=
301
=
302
=
303
=
304
=
305
=
306
=
307
=
308
=
309
=
 40
0.0
 41
2459969.328829583
 42
2459969.328830486
  1

 90
        0
  0
LAYOUT
  5
1E
102
{ACAD_REACTORS
330
1A
102
}
330
1A
100
AcDbPlotSettings
  1

  2
none_device
  4

  6

 40
0.0
 41
0.0
 42
0.0
 43
0.0
 44
0.0
 45
0.0
 46
0.0
 47
0.0
 48
0.0
 49
0.0
140
0.0
141
0.0
142
1.0
143
1.0
 70
   688
 72
     1
 73
     0
 74
     5
  7

 75
    16
147
1.0
148
0.0
149
0.0
100
AcDbLayout
  1
Layout1
 70
     1
 71
     1
 10
0.0
 20
0.0
 11
420.0
 21
297.0
 12
0.0
 22
0.0
 32
0.0
 14
1.0000000000E+20
 24
1.0000000000E+20
 34
1.0000000000E+20
 15
-1.0000000000E+20
 25
-1.0000000000E+20
 35
-1.0000000000E+20
146
0.0
 13
0.0
 23
0.0
 33
0.0
 16
1.0
 26
0.0
 36
0.0
 17
0.0
 27
1.0
 37
0.0
 76
     0
330
1B
  0
LAYOUT
  5
26
102
{ACAD_REACTORS
330
1A
102
}
330
1A
100
AcDbPlotSettings
  1

  2
none_device
  4

  6

 40
0.0
 41
0.0
 42
0.0
 43
0.0
 44
0.0
 45
0.0
 46
0.0
 47
0.0
 48
0.0
 49
0.0
140
0.0
141
0.0
142
1.0
143
1.0
 70
   688
 72
     1
 73
     0
 74
     5
  7

 75
    16
147
1.0
148
0.0
149
0.0
100
AcDbLayout
  1
Layout2
 70
     1
 71
     2
 10
0.0
 20
0.0
 11
0.0
 21
0.0
 12
0.0
 22
0.0
 32
0.0
 14
0.0
 24
0.0
 34
0.0
 15
0.0
 25
0.0
 35
0.0
146
0.0
 13
0.0
 23
0.0
 33
0.0
 16
1.0
 26
0.0
 36
0.0
 17
0.0
 27
1.0
 37
0.0
 76
     0
330
23
  0
LAYOUT
  5
22
102
{ACAD_REACTORS
330
1A
102
}
330
1A
100
AcDbPlotSettings
  1

  2
none_device
  4
Letter_(8.50_x_11.00_Inches)
  6

 40
6.35
 41
6.35
 42
6.35000508
 43
6.35000508
 44
215.9
 45
279.4
 46
0.0
 47
0.0
 48
0.0
 49
0.0
140
0.0
141
0.0
142
1.0
143
1.0
 70
  1712
 72
     1
 73
     0
 74
     0
  7

 75
     0
147
1.0
148
0.0
149
0.0
100
AcDbLayout
  1
Model
 70
     1
 71
     0
 10
0.0
 20
0.0
 11
594.0
 21
841.0
 12
0.0
 22
0.0
 32
0.0
 14
0.0
 24
0.0
 34
0.0
 15
594.0
 25
841.0
 35
0.0
146
0.0
 13
0.0
 23
0.0
 33
0.0
 16
1.0
 26
0.0
 36
0.0
 17
0.0
 27
1.0
 37
0.0
 76
     0
330
1F
331
29
  0
MLINESTYLE
  5
18
102
{ACAD_REACTORS
330
17
102
}
330
17
100
AcDbMlineStyle
  2
Standard
 70
     0
  3

 62
   256
 51
90.0
 52
90.0
 71
     2
 49
0.5
 62
   256
  6
BYLAYER
 49
-0.5
 62
   256
  6
BYLAYER
  0
ACDBPLACEHOLDER
  5
F
102
{ACAD_REACTORS
330
E
102
}
330
E
  0
SCALE
  5
48
102
{ACAD_REACTORS
330
47
102
}
330
47
100
AcDbScale
 70
     0
300
1:1
140
1.0
141
1.0
290
     1
  0
SCALE
  5
49
102
{ACAD_REACTORS
330
47
102
}
330
47
100
AcDbScale
 70
     0
300
1:2
140
1.0
141
2.0
290
     0
  0
SCALE
  5
4A
102
{ACAD_REACTORS
330
47
102
}
330
47
100
AcDbScale
 70
     0
300
1:4
140
1.0
141
4.0
290
     0
  0
SCALE
  5
4B
102
{ACAD_REACTORS
330
47
102
}
330
47
100
AcDbScale
 70
     0
300
1:5
140
1.0
141
5.0
290
     0
  0
SCALE
  5
4C
102
{ACAD_REACTORS
330
47
102
}
330
47
100
AcDbScale
 70
     0
300
1:8
140
1.0
141
8.0
290
     0
  0
SCALE
  5
4D
102
{ACAD_REACTORS
330
47
102
}
330
47
100
AcDbScale
 70
     0
300
1:10
140
1.0
141
10.0
290
     0
  0
SCALE
  5
4E
102
{ACAD_REACTORS
330
47
102
}
330
47
100
AcDbScale
 70
     0
300
1:16
140
1.0
141
16.0
290
     0
  0
SCALE
  5
4F
102
{ACAD_REACTORS
330
47
102
}
330
47
100
AcDbScale
 70
     0
300
1:20
140
1.0
141
20.0
290
     0
  0
SCALE
  5
50
102
{ACAD_REACTORS
330
47
102
}
330
47
100
AcDbScale
 70
     0
300
1:30
140
1.0
141
30.0
290
     0
  0
SCALE
  5
51
102
{ACAD_REACTORS
330
47
102
}
330
47
100
AcDbScale
 70
     0
300
1:40
140
1.0
141
40.0
290
     0
  0
SCALE
  5
52
102
{ACAD_REACTORS
330
47
102
}
330
47
100
AcDbScale
 70
     0
300
1:50
140
1.0
141
50.0
290
     0
  0
SCALE
  5
53
102
{ACAD_REACTORS
330
47
102
}
330
47
100
AcDbScale
 70
     0
300
1:100
140
1.0
141
100.0
290
     0
  0
SCALE
  5
54
102
{ACAD_REACTORS
330
47
102
}
330
47
100
AcDbScale
 70
     0
300
2:1
140
2.0
141
1.0
290
     0
  0
SCALE
  5
55
102
{ACAD_REACTORS
330
47
102
}
330
47
100
AcDbScale
 70
     0
300
4:1
140
4.0
141
1.0
290
     0
  0
SCALE
  5
56
102
{ACAD_REACTORS
330
47
102
}
330
47
100
AcDbScale
 70
     0
300
8:1
140
8.0
141
1.0
290
     0
  0
SCALE
  5
57
102
{ACAD_REACTORS
330
47
102
}
330
47
100
AcDbScale
 70
     0
300
10:1
140
10.0
141
1.0
290
     0
  0
SCALE
  5
58
102
{ACAD_REACTORS
330
47
102
}
330
47
100
AcDbScale
 70
     0
300
100:1
140
100.0
141
1.0
290
     0
  0
SCALE
  5
59
102
{ACAD_REACTORS
330
47
102
}
330
47
100
AcDbScale
 70
     0
300
1/128" = 1'-0"
140
0.0078125
141
12.0
290
     0
  0
SCALE
  5
5A
102
{ACAD_REACTORS
330
47
102
}
330
47
100
AcDbScale
 70
     0
300
1/64" = 1'-0"
140
0.015625
141
12.0
290
     0
  0
SCALE
  5
5B
102
{ACAD_REACTORS
330
47
102
}
330
47
100
AcDbScale
 70
     0
300
1/32" = 1'-0"
140
0.03125
141
12.0
290
     0
  0
SCALE
  5
5C
102
{ACAD_REACTORS
330
47
102
}
330
47
100
AcDbScale
 70
     0
300
1/16" = 1'-0"
140
0.0625
141
12.0
290
     0
  0
SCALE
  5
5D
102
{ACAD_REACTORS
330
47
102
}
330
47
100
AcDbScale
 70
     0
300
3/32" = 1'-0"
140
0.09375
141
12.0
290
     0
  0
SCALE
  5
5E
102
{ACAD_REACTORS
330
47
102
}
330
47
100
AcDbScale
 70
     0
300
1/8" = 1'-0"
140
0.125
141
12.0
290
     0
  0
SCALE
  5
5F
102
{ACAD_REACTORS
330
47
102
}
330
47
100
AcDbScale
 70
     0
300
3/16" = 1'-0"
140
0.1875
141
12.0
290
     0
  0
SCALE
  5
60
102
{ACAD_REACTORS
330
47
102
}
330
47
100
AcDbScale
 70
     0
300
1/4" = 1'-0"
140
0.25
141
12.0
290
     0
  0
SCALE
  5
61
102
{ACAD_REACTORS
330
47
102
}
330
47
100
AcDbScale
 70
     0
300
3/8" = 1'-0"
140
0.375
141
12.0
290
     0
  0
SCALE
  5
62
102
{ACAD_REACTORS
330
47
102
}
330
47
100
AcDbScale
 70
     0
300
1/2" = 1'-0"
140
0.5
141
12.0
290
     0
  0
SCALE
  5
63
102
{ACAD_REACTORS
330
47
102
}
330
47
100
AcDbScale
 70
     0
300
3/4" = 1'-0"
140
0.75
141
12.0
290
     0
  0
SCALE
  5
64
102
{ACAD_REACTORS
330
47
102
}
330
47
100
AcDbScale
 70
     0
300
1" = 1'-0"
140
1.0
141
12.0
290
     0
  0
SCALE
  5
65
102
{ACAD_REACTORS
330
47
102
}
330
47
100
AcDbScale
 70
     0
300
1-1/2" = 1'-0"
140
1.5
141
12.0
290
     0
  0
SCALE
  5
66
102
{ACAD_REACTORS
330
47
102
}
330
47
100
AcDbScale
 70
     0
300
3" = 1'-0"
140
3.0
141
12.0
290
     0
  0
SCALE
  5
67
102
{ACAD_REACTORS
330
47
102
}
330
47
100
AcDbScale
 70
     0
300
6" = 1'-0"
140
6.0
141
12.0
290
     0
  0
SCALE
  5
68
102
{ACAD_REACTORS
330
47
102
}
330
47
100
AcDbScale
 70
     0
300
1'-0" = 1'-0"
140
12.0
141
12.0
290
     0
  0
ENDSEC
  0
EOF
