  0
SECTION
  2
HEADER
  9
$ACADVER
  1
AC1015
  9
$ACADMAINTVER
 70
     6
  9
$DWGCODEPAGE
  3
ANSI_1252
  9
$INSBASE
 10
0.0
 20
0.0
 30
0.0
  9
$EXTMIN
 10
0.0
 20
0.0
 30
0.0
  9
$EXTMAX
 10
594.0
 20
841.0
 30
0.0
  9
$LIMMIN
 10
0.0
 20
0.0
  9
$LIMMAX
 10
594.0
 20
841.0
  9
$ORTHOMODE
 70
     0
  9
$REGENMODE
 70
     1
  9
$FILLMODE
 70
     1
  9
$QTEXTMODE
 70
     0
  9
$MIRRTEXT
 70
     1
  9
$LTSCALE
 40
1.0
  9
$ATTMODE
 70
     1
  9
$TEXTSIZE
 40
10.0
  9
$TRACEWID
 40
1.0
  9
$TEXTSTYLE
  7
Standard
  9
$CLAYER
  8
0
  9
$CELTYPE
  6
ByLayer
  9
$CECOLOR
 62
   256
  9
$CELTSCALE
 40
1.0
  9
$DISPSILH
 70
     0
  9
$DIMSCALE
 40
1.0
  9
$DIMASZ
 40
2.5
  9
$DIMEXO
 40
0.0
  9
$DIMDLI
 40
3.75
  9
$DIMRND
 40
0.0
  9
$DIMDLE
 40
0.0
  9
$DIMEXE
 40
1.0
  9
$DIMTP
 40
0.0
  9
$DIMTM
 40
0.0
  9
$DIMTXT
 40
3.5
  9
$DIMCEN
 40
2.5
  9
$DIMTSZ
 40
0.0
  9
$DIMTOL
 70
     0
  9
$DIMLIM
 70
     0
  9
$DIMTIH
 70
     1
  9
$DIMTOH
 70
     1
  9
$DIMSE1
 70
     0
  9
$DIMSE2
 70
     0
  9
$DIMTAD
 70
     1
  9
$DIMZIN
 70
     0
  9
$DIMBLK
  1

  9
$DIMASO
 70
     1
  9
$DIMSHO
 70
     1
  9
$DIMPOST
  1

  9
$DIMAPOST
  1

  9
$DIMALT
 70
     0
  9
$DIMALTD
 70
     3
  9
$DIMALTF
 40
0.0393700787
  9
$DIMLFAC
 40
1.0
  9
$DIMTOFL
 70
     1
  9
$DIMTVP
 40
0.0
  9
$DIMTIX
 70
     0
  9
$DIMSOXD
 70
     0
  9
$DIMSAH
 70
     0
  9
$DIMBLK1
  1

  9
$DIMBLK2
  1

  9
$DIMSTYLE
  2
ISO-25
  9
$DIMCLRD
 70
     0
  9
$DIMCLRE
 70
     0
  9
$DIMCLRT
 70
     0
  9
$DIMTFAC
 40
1.0
  9
$DIMGAP
 40
1.5
  9
$DIMJUST
 70
     0
  9
$DIMSD1
 70
     0
  9
$DIMSD2
 70
     0
  9
$DIMTOLJ
 70
     0
  9
$DIMTZIN
 70
     0
  9
$DIMALTZ
 70
     0
  9
$DIMALTTZ
 70
     0
  9
$DIMUPT
 70
     0
  9
$DIMDEC
 70
     2
  9
$DIMTDEC
 70
     2
  9
$DIMALTU
 70
     2
  9
$DIMALTTD
 70
     3
  9
$DIMTXSTY
  7
Standard
  9
$DIMAUNIT
 70
     0
  9
$DIMADEC
 70
     2
  9
$DIMALTRND
 40
0.0
  9
$DIMAZIN
 70
     0
  9
$DIMDSEP
 70
    44
  9
$DIMATFIT
 70
     3
  9
$DIMFRAC
 70
     0
  9
$DIMLDRBLK
  1

  9
$DIMLUNIT
 70
     2
  9
$DIMLWD
 70
    -2
  9
$DIMLWE
 70
    -2
  9
$DIMTMOVE
 70
     0
  9
$LUNITS
 70
     2
  9
$LUPREC
 70
     2
  9
$SKETCHINC
 40
1.0
  9
$FILLETRAD
 40
0.0
  9
$AUNITS
 70
     0
  9
$AUPREC
 70
     2
  9
$MENU
  1
.
  9
$ELEVATION
 40
0.0
  9
$PELEVATION
 40
0.0
  9
$THICKNESS
 40
0.0
  9
$LIMCHECK
 70
     0
  9
$CHAMFERA
 40
0.0
  9
$CHAMFERB
 40
0.0
  9
$CHAMFERC
 40
0.0
  9
$CHAMFERD
 40
0.0
  9
$SKPOLY
 70
     0
  9
$TDCREATE
 40
2460346.467127303
  9
$TDUCREATE
 40
2460346.425460637
  9
$TDUPDATE
 40
2460346.467128391
  9
$TDUUPDATE
 40
2460346.425461724
  9
$TDINDWG
 40
0.0000000116
  9
$TDUSRTIMER
 40
0.0000000116
  9
$USRTIMER
 70
     1
  9
$ANGBASE
 50
0.0
  9
$ANGDIR
 70
     0
  9
$PDMODE
 70
     0
  9
$PDSIZE
 40
-1.0
  9
$PLINEWID
 40
0.0
  9
$SPLFRAME
 70
     0
  9
$SPLINETYPE
 70
     6
  9
$SPLINESEGS
 70
     8
  9
$HANDSEED
  5
1BC
  9
$SURFTAB1
 70
     6
  9
$SURFTAB2
 70
     6
  9
$SURFTYPE
 70
     6
  9
$SURFU
 70
     6
  9
$SURFV
 70
     6
  9
$UCSBASE
  2

  9
$UCSNAME
  2

  9
$UCSORG
 10
0.0
 20
0.0
 30
0.0
  9
$UCSXDIR
 10
1.0
 20
0.0
 30
0.0
  9
$UCSYDIR
 10
0.0
 20
1.0
 30
0.0
  9
$UCSORTHOREF
  2

  9
$UCSORTHOVIEW
 70
     0
  9
$UCSORGTOP
 10
0.0
 20
0.0
 30
0.0
  9
$UCSORGBOTTOM
 10
0.0
 20
0.0
 30
0.0
  9
$UCSORGLEFT
 10
0.0
 20
0.0
 30
0.0
  9
$UCSORGRIGHT
 10
0.0
 20
0.0
 30
0.0
  9
$UCSORGFRONT
 10
0.0
 20
0.0
 30
0.0
  9
$UCSORGBACK
 10
0.0
 20
0.0
 30
0.0
  9
$PUCSBASE
  2

  9
$PUCSNAME
  2

  9
$PUCSORG
 10
0.0
 20
0.0
 30
0.0
  9
$PUCSXDIR
 10
1.0
 20
0.0
 30
0.0
  9
$PUCSYDIR
 10
0.0
 20
1.0
 30
0.0
  9
$PUCSORTHOREF
  2

  9
$PUCSORTHOVIEW
 70
     0
  9
$PUCSORGTOP
 10
0.0
 20
0.0
 30
0.0
  9
$PUCSORGBOTTOM
 10
0.0
 20
0.0
 30
0.0
  9
$PUCSORGLEFT
 10
0.0
 20
0.0
 30
0.0
  9
$PUCSORGRIGHT
 10
0.0
 20
0.0
 30
0.0
  9
$PUCSORGFRONT
 10
0.0
 20
0.0
 30
0.0
  9
$PUCSORGBACK
 10
0.0
 20
0.0
 30
0.0
  9
$USERI1
 70
     0
  9
$USERI2
 70
     0
  9
$USERI3
 70
     0
  9
$USERI4
 70
     0
  9
$USERI5
 70
     0
  9
$USERR1
 40
0.0
  9
$USERR2
 40
0.0
  9
$USERR3
 40
0.0
  9
$USERR4
 40
0.0
  9
$USERR5
 40
0.0
  9
$WORLDVIEW
 70
     1
  9
$SHADEDGE
 70
     3
  9
$SHADEDIF
 70
    70
  9
$TILEMODE
 70
     1
  9
$MAXACTVP
 70
    64
  9
$PINSBASE
 10
0.0
 20
0.0
 30
0.0
  9
$PLIMCHECK
 70
     0
  9
$PEXTMIN
 10
1.0000000000E+20
 20
1.0000000000E+20
 30
1.0000000000E+20
  9
$PEXTMAX
 10
-1.0000000000E+20
 20
-1.0000000000E+20
 30
-1.0000000000E+20
  9
$PLIMMIN
 10
0.0
 20
0.0
  9
$PLIMMAX
 10
420.0
 20
297.0
  9
$UNITMODE
 70
     0
  9
$VISRETAIN
 70
     1
  9
$PLINEGEN
 70
     0
  9
$PSLTSCALE
 70
     1
  9
$TREEDEPTH
 70
  3020
  9
$CMLSTYLE
  2
Standard
  9
$CMLJUST
 70
     0
  9
$CMLSCALE
 40
20.0
  9
$PROXYGRAPHICS
 70
     1
  9
$MEASUREMENT
 70
     1
  9
$CELWEIGHT
370
    -1
  9
$ENDCAPS
280
     0
  9
$JOINSTYLE
280
     0
  9
$LWDISPLAY
290
     1
  9
$INSUNITS
 70
     4
  9
$HYPERLINKBASE
  1

  9
$STYLESHEET
  1

  9
$XEDIT
290
     1
  9
$CEPSNTYPE
380
     0
  9
$PSTYLEMODE
290
     1
  9
$FINGERPRINTGUID
  2
{3ea74803-db78-4603-8b90-a9b4fc57ce64}
  9
$VERSIONGUID
  2
{FAEB1C32-E019-11D5-929B-00C0DF256EC4}
  9
$EXTNAMES
290
     1
  9
$PSVPSCALE
 40
0.0
  9
$OLESTARTUP
290
     0
  0
ENDSEC
  0
SECTION
  2
CLASSES
  0
CLASS
  1
ACDBDICTIONARYWDFLT
  2
AcDbDictionaryWithDefault
  3
ObjectDBX Classes
 90
        0
280
     0
281
     0
  0
CLASS
  1
VISUALSTYLE
  2
AcDbVisualStyle
  3
ObjectDBX Classes
 90
     4095
280
     0
281
     0
  0
CLASS
  1
MATERIAL
  2
AcDbMaterial
  3
ObjectDBX Classes
 90
     1153
280
     0
281
     0
  0
CLASS
  1
SCALE
  2
AcDbScale
  3
ObjectDBX Classes
 90
     1153
280
     0
281
     0
  0
CLASS
  1
TABLESTYLE
  2
AcDbTableStyle
  3
ObjectDBX Classes
 90
     4095
280
     0
281
     0
  0
CLASS
  1
MLEADERSTYLE
  2
AcDbMLeaderStyle
  3
ACDB_MLEADERSTYLE_CLASS
 90
     4095
280
     0
281
     0
  0
CLASS
  1
SUN
  2
AcDbSun
  3
SCENEOE
 90
     1153
280
     0
281
     0
  0
CLASS
  1
ACDBPLACEHOLDER
  2
AcDbPlaceHolder
  3
ObjectDBX Classes
 90
        0
280
     0
281
     0
  0
CLASS
  1
LAYOUT
  2
AcDbLayout
  3
ObjectDBX Classes
 90
        0
280
     0
281
     0
  0
ENDSEC
  0
SECTION
  2
TABLES
  0
TABLE
  2
VPORT
  5
8
330
0
100
AcDbSymbolTable
 70
     1
  0
VPORT
  5
29
330
8
100
AcDbSymbolTableRecord
100
AcDbViewportTableRecord
  2
*Active
 70
     0
 10
0.0
 20
0.0
 11
1.0
 21
1.0
 12
297.0
 22
420.5
 13
0.0
 23
0.0
 14
10.0
 24
10.0
 15
10.0
 25
10.0
 16
0.0
 26
0.0
 36
1.0
 17
0.0
 27
0.0
 37
0.0
 40
841.0
 41
0.7063020214
 42
50.0
 43
0.0
 44
0.0
 50
0.0
 51
0.0
 71
     0
 72
  2000
 73
     1
 74
     3
 75
     0
 76
     0
 77
     0
 78
     0
281
     0
 65
     1
110
0.0
120
0.0
130
0.0
111
1.0
121
0.0
131
0.0
112
0.0
122
1.0
132
0.0
 79
     0
146
0.0
  0
ENDTAB
  0
TABLE
  2
LTYPE
  5
5
330
0
100
AcDbSymbolTable
 70
     6
  0
LTYPE
  5
14
330
5
100
AcDbSymbolTableRecord
100
AcDbLinetypeTableRecord
  2
ByBlock
 70
     0
  3

 72
    65
 73
     0
 40
0.0
  0
LTYPE
  5
15
330
5
100
AcDbSymbolTableRecord
100
AcDbLinetypeTableRecord
  2
ByLayer
 70
     0
  3

 72
    65
 73
     0
 40
0.0
  0
LTYPE
  5
16
330
5
100
AcDbSymbolTableRecord
100
AcDbLinetypeTableRecord
  2
Continuous
 70
     0
  3
Solid line
 72
    65
 73
     0
 40
0.0
  0
LTYPE
  5
5E
330
5
100
AcDbSymbolTableRecord
100
AcDbLinetypeTableRecord
  2
HIDDEN
 70
     0
  3
Hidden __ __ __ __ __ __ __ __ __ __ __ __ __ __
 72
    65
 73
     2
 40
1.905
 49
1.27
 74
     0
 49
-0.635
 74
     0
  0
LTYPE
  5
5F
330
5
100
AcDbSymbolTableRecord
100
AcDbLinetypeTableRecord
  2
PHANTOM
 70
     0
  3
Phantom ______  __  __  ______  __  __  ______
 72
    65
 73
     6
 40
12.7
 49
6.35
 74
     0
 49
-1.27
 74
     0
 49
1.27
 74
     0
 49
-1.27
 74
     0
 49
1.27
 74
     0
 49
-1.27
 74
     0
  0
LTYPE
  5
60
330
5
100
AcDbSymbolTableRecord
100
AcDbLinetypeTableRecord
  2
CENTER
 70
     0
  3
Center ____ _ ____ _ ____ _ ____ _ ____ _ ____
 72
    65
 73
     4
 40
10.16
 49
6.35
 74
     0
 49
-1.27
 74
     0
 49
1.27
 74
     0
 49
-1.27
 74
     0
  0
LTYPE
  5
61
330
5
100
AcDbSymbolTableRecord
100
AcDbLinetypeTableRecord
  2
CENTERX2
 70
     0
  3
Center (2x) ________  __  ________  __  _____
 72
    65
 73
     4
 40
20.32
 49
12.7
 74
     0
 49
-2.54
 74
     0
 49
2.54
 74
     0
 49
-2.54
 74
     0
  0
LTYPE
  5
62
330
5
100
AcDbSymbolTableRecord
100
AcDbLinetypeTableRecord
  2
DOT2
 70
     0
  3
Dot (.5x) ........................................
 72
    65
 73
     2
 40
0.635
 49
0.0
 74
     0
 49
-0.635
 74
     0
  0
ENDTAB
  0
TABLE
  2
LAYER
  5
2
330
0
100
AcDbSymbolTable
 70
     1
  0
LAYER
  5
10
330
2
100
AcDbSymbolTableRecord
100
AcDbLayerTableRecord
  2
0
 70
     0
 62
     7
  6
Continuous
370
    -3
390
F
  0
ENDTAB
  0
TABLE
  2
STYLE
  5
3
330
0
100
AcDbSymbolTable
 70
     3
  0
STYLE
  5
11
330
3
100
AcDbSymbolTableRecord
100
AcDbTextStyleTableRecord
  2
Standard
 70
     0
 40
0.0
 41
1.0
 50
0.0
 71
     0
 42
10.0
  3
txt
  4

  0
STYLE
  5
66
330
3
100
AcDbSymbolTableRecord
100
AcDbTextStyleTableRecord
  2
SLDTEXTSTYLE0
 70
     0
 40
0.0
 41
0.96
 50
0.0
 71
     0
 42
10.0
  3
ISOCP3
  4

  0
STYLE
  5
7D
330
3
100
AcDbSymbolTableRecord
100
AcDbTextStyleTableRecord
  2
SLDTEXTSTYLE1
 70
     0
 40
0.0
 41
0.605
 50
0.0
 71
     0
 42
10.0
  3
TXT
  4

  0
ENDTAB
  0
TABLE
  2
VIEW
  5
6
330
0
100
AcDbSymbolTable
 70
     0
  0
ENDTAB
  0
TABLE
  2
UCS
  5
7
330
0
100
AcDbSymbolTable
 70
     0
  0
ENDTAB
  0
TABLE
  2
APPID
  5
9
330
0
100
AcDbSymbolTable
 70
     1
  0
APPID
  5
12
330
9
100
AcDbSymbolTableRecord
100
AcDbRegAppTableRecord
  2
ACAD
 70
     0
  0
ENDTAB
  0
TABLE
  2
DIMSTYLE
  5
A
330
0
100
AcDbSymbolTable
 70
     2
100
AcDbDimStyleTable
  0
DIMSTYLE
105
27
330
A
100
AcDbSymbolTableRecord
100
AcDbDimStyleTableRecord
  2
ISO-25
 70
     0
 41
2.5
 42
0.625
 43
3.75
 44
1.25
 73
     0
 74
     0
 77
     1
 78
     8
140
2.5
141
2.5
143
0.0393700787
147
0.625
171
     3
172
     1
178
     0
271
     2
272
     2
274
     3
278
    44
283
     0
284
     8
340
11
  0
DIMSTYLE
105
67
102
{ACAD_REACTORS
330
65
330
72
102
}
330
A
100
AcDbSymbolTableRecord
100
AcDbDimStyleTableRecord
  2
SLDDIMSTYLE0
 70
     0
 41
2.5
 44
0.0
 45
0.000000001
 73
     0
 74
     0
 77
     1
 78
    12
 79
     3
140
6.0
147
1.5
173
     1
178
     0
271
     2
272
     2
276
     2
284
    12
340
66
  0
ENDTAB
  0
TABLE
  2
BLOCK_RECORD
  5
1
330
0
100
AcDbSymbolTable
 70
     3
  0
BLOCK_RECORD
  5
1F
330
1
100
AcDbSymbolTableRecord
100
AcDbBlockTableRecord
  2
*Model_Space
340
22
  0
BLOCK_RECORD
  5
1B
330
1
100
AcDbSymbolTableRecord
100
AcDbBlockTableRecord
  2
*Paper_Space
340
1E
  0
BLOCK_RECORD
  5
23
330
1
100
AcDbSymbolTableRecord
100
AcDbBlockTableRecord
  2
*Paper_Space0
340
26
  0
BLOCK_RECORD
  5
68
330
1
100
AcDbSymbolTableRecord
100
AcDbBlockTableRecord
  2
_D
340
0
  0
BLOCK_RECORD
  5
73
330
1
100
AcDbSymbolTableRecord
100
AcDbBlockTableRecord
  2
_D_1
340
0
  0
ENDTAB
  0
ENDSEC
  0
SECTION
  2
BLOCKS
  0
BLOCK
  5
20
330
1F
100
AcDbEntity
  8
0
100
AcDbBlockBegin
  2
*Model_Space
 70
     0
 10
0.0
 20
0.0
 30
0.0
  3
*Model_Space
  1

  0
ENDBLK
  5
21
330
1F
100
AcDbEntity
  8
0
100
AcDbBlockEnd
  0
BLOCK
  5
1C
330
1B
100
AcDbEntity
 67
     1
  8
0
100
AcDbBlockBegin
  2
*Paper_Space
 70
     0
 10
0.0
 20
0.0
 30
0.0
  3
*Paper_Space
  1

  0
ENDBLK
  5
1D
330
1B
100
AcDbEntity
 67
     1
  8
0
100
AcDbBlockEnd
  0
BLOCK
  5
24
330
23
100
AcDbEntity
  8
0
100
AcDbBlockBegin
  2
*Paper_Space0
 70
     0
 10
0.0
 20
0.0
 30
0.0
  3
*Paper_Space0
  1

  0
ENDBLK
  5
25
330
23
100
AcDbEntity
  8
0
100
AcDbBlockEnd
  0
BLOCK
  5
69
330
68
100
AcDbEntity
  8
0
100
AcDbBlockBegin
  2
_D
 70
     0
 10
0.0
 20
0.0
 30
0.0
  3
_D
  1

  0
SOLID
  5
6B
330
68
100
AcDbEntity
  8
0
  6
Continuous
 62
     7
370
    18
100
AcDbTrace
 10
42.7614395004
 20
152.0299240879
 30
0.0
 11
42.4614395004
 21
149.5299240879
 31
0.0
 12
43.0614395004
 22
149.5299240879
 32
0.0
 13
43.0614395004
 23
149.5299240879
 33
0.0
  0
SOLID
  5
6C
330
68
100
AcDbEntity
  8
0
  6
Continuous
 62
     7
370
    18
100
AcDbTrace
 10
42.7614395004
 20
52.0299240879
 30
0.0
 11
43.0614395004
 21
54.5299240879
 31
0.0
 12
42.4614395004
 22
54.5299240879
 32
0.0
 13
42.4614395004
 23
54.5299240879
 33
0.0
  0
LINE
  5
6D
330
68
100
AcDbEntity
  8
0
  6
Continuous
 62
     7
370
     0
100
AcDbLine
 10
56.6850079902
 20
152.0299240879
 30
0.0
 11
41.7614395004
 21
152.0299240879
 31
0.0
  0
LINE
  5
6E
330
68
100
AcDbEntity
  8
0
  6
Continuous
 62
     7
370
     0
100
AcDbLine
 10
56.6850079902
 20
52.0299240879
 30
0.0
 11
41.7614395004
 21
52.0299240879
 31
0.0
  0
LINE
  5
6F
330
68
100
AcDbEntity
  8
0
  6
Continuous
 62
     7
370
     0
100
AcDbLine
 10
42.7614395004
 20
152.0299240879
 30
0.0
 11
42.7614395004
 21
52.0299240879
 31
0.0
  0
MTEXT
  5
70
330
68
100
AcDbEntity
  8
0
  6
Continuous
 62
     7
370
    18
100
AcDbMText
 10
35.0270332946
 20
94.3680541463
 30
0.0
 40
6.0
 41
0.0
 71
     1
 72
     1
  1
100
  7
SLDTEXTSTYLE0
 11
-7.044195017643634E-15
 21
1.0
 31
0.0
 73
     1
 44
1.0
  0
MTEXT
  5
71
330
68
100
AcDbEntity
  8
0
  6
Continuous
 62
     7
370
    18
100
AcDbMText
 10
35.0270332946
 20
105.7430548466
 30
0.0
 40
6.0
 41
0.0
 71
     1
 72
     1
  1
mm
  7
SLDTEXTSTYLE0
 11
-7.044195017643634E-15
 21
1.0
 31
0.0
 73
     1
 44
1.0
  0
ENDBLK
  5
6A
330
68
100
AcDbEntity
  8
0
100
AcDbBlockEnd
  0
BLOCK
  5
74
330
73
100
AcDbEntity
  8
0
100
AcDbBlockBegin
  2
_D_1
 70
     0
 10
0.0
 20
0.0
 30
0.0
  3
_D_1
  1

  0
SOLID
  5
76
330
73
100
AcDbEntity
  8
0
  6
Continuous
 62
     7
370
    18
100
AcDbTrace
 10
56.6850079902
 20
38.4602342313
 30
0.0
 11
59.1850079902
 21
38.1602342313
 31
0.0
 12
59.1850079902
 22
38.7602342313
 32
0.0
 13
59.1850079902
 23
38.7602342313
 33
0.0
  0
SOLID
  5
77
330
73
100
AcDbEntity
  8
0
  6
Continuous
 62
     7
370
    18
100
AcDbTrace
 10
156.6850079902
 20
38.4602342313
 30
0.0
 11
154.1850079902
 21
38.7602342313
 31
0.0
 12
154.1850079902
 22
38.1602342313
 32
0.0
 13
154.1850079902
 23
38.1602342313
 33
0.0
  0
LINE
  5
78
330
73
100
AcDbEntity
  8
0
  6
Continuous
 62
     7
370
     0
100
AcDbLine
 10
56.6850079902
 20
52.0299240879
 30
0.0
 11
56.6850079902
 21
37.4602342313
 31
0.0
  0
LINE
  5
79
330
73
100
AcDbEntity
  8
0
  6
Continuous
 62
     7
370
     0
100
AcDbLine
 10
156.6850079902
 20
52.0299240879
 30
0.0
 11
156.6850079902
 21
37.4602342313
 31
0.0
  0
LINE
  5
7A
330
73
100
AcDbEntity
  8
0
  6
Continuous
 62
     7
370
     0
100
AcDbLine
 10
56.6850079902
 20
38.4602342313
 30
0.0
 11
156.6850079902
 21
38.4602342313
 31
0.0
  0
MTEXT
  5
7B
330
73
100
AcDbEntity
  8
0
  6
Continuous
 62
     7
370
    18
100
AcDbMText
 10
93.9626484861
 20
46.1946404371
 30
0.0
 40
6.0
 41
0.0
 71
     1
 72
     1
  1
100
  7
SLDTEXTSTYLE0
 73
     1
 44
1.0
  0
MTEXT
  5
7C
330
73
100
AcDbEntity
  8
0
  6
Continuous
 62
     7
370
    18
100
AcDbMText
 10
105.3376491864
 20
46.1946404371
 30
0.0
 40
6.0
 41
0.0
 71
     1
 72
     1
  1
mm
  7
SLDTEXTSTYLE0
 73
     1
 44
1.0
  0
ENDBLK
  5
75
330
73
100
AcDbEntity
  8
0
100
AcDbBlockEnd
  0
ENDSEC
  0
SECTION
  2
ENTITIES
  0
LINE
  5
63
330
1F
100
AcDbEntity
  8
0
  6
Continuous
 62
     7
370
    18
100
AcDbLine
 10
56.6850079902
 20
152.0299240879
 30
0.0
 11
56.6850079902
 21
52.0299240879
 31
0.0
  0
LINE
  5
64
330
1F
100
AcDbEntity
  8
0
  6
Continuous
 62
     7
370
    18
100
AcDbLine
 10
56.6850079902
 20
52.0299240879
 30
0.0
 11
156.6850079902
 21
52.0299240879
 31
0.0
  0
DIMENSION
  5
65
330
1F
100
AcDbEntity
  8
0
  6
Continuous
 62
     7
370
    18
100
AcDbDimension
  2
_D
 10
42.7614395004
 20
52.0299240879
 30
0.0
 11
42.7614395004
 21
105.4472211621
 31
0.0
 70
   160
  1
<>mm
 71
     2
 42
-1.0
  3
SLDDIMSTYLE0
100
AcDbAlignedDimension
 13
56.6850079902
 23
152.0299240879
 33
0.0
 14
56.6850079902
 24
52.0299240879
 34
0.0
 50
90.0
100
AcDbRotatedDimension
  0
DIMENSION
  5
72
330
1F
100
AcDbEntity
  8
0
  6
Continuous
 62
     7
370
    18
100
AcDbDimension
  2
_D_1
 10
156.6850079902
 20
38.4602342313
 30
0.0
 11
105.0418155019
 21
38.4602342313
 31
0.0
 70
   160
  1
<>mm
 71
     2
 42
-1.0
  3
SLDDIMSTYLE0
100
AcDbAlignedDimension
 13
56.6850079902
 23
52.0299240879
 33
0.0
 14
156.6850079902
 24
52.0299240879
 34
0.0
100
AcDbRotatedDimension
  0
MTEXT
  5
7E
330
1F
100
AcDbEntity
  8
0
  6
Continuous
 62
     7
370
     0
100
AcDbMText
 10
412.8252631579
 20
48.4342449499
 30
0.0
 40
10.0
 41
0.0
 71
     1
 72
     1
  1
KLUDI GmbH & Co KG
  7
SLDTEXTSTYLE1
 73
     1
 44
1.0
  0
MTEXT
  5
7F
330
1F
100
AcDbEntity
  8
0
  6
Continuous
 62
     7
370
     0
100
AcDbMText
 10
210.0873490389
 20
48.4342449499
 30
0.0
 40
10.0
 41
0.0
 71
     1
 72
     1
  1
54 290 .. 75
  7
SLDTEXTSTYLE1
 73
     1
 44
1.0
  0
SPLINE
  5
80
330
1F
100
AcDbEntity
  8
0
  6
Continuous
 62
     7
370
    25
100
AcDbSpline
210
0.0
220
0.0
230
1.0
 70
     8
 71
     3
 72
    15
 73
    11
 74
     0
 42
0.00000001
 43
0.00000001
 40
0.0
 40
0.0
 40
0.0
 40
0.0
 40
0.1921590502986304
 40
0.4264055942489676
 40
0.5635796929613279
 40
0.6752481388150572
 40
0.7259574072107775
 40
0.7762870299278116
 40
0.8850346708517122
 40
0.9999999999999999
 40
0.9999999999999999
 40
0.9999999999999999
 40
0.9999999999999999
 10
140.2055060253558
 20
468.4867672321762
 30
0.0
 10
140.185297943594
 20
468.4119067465065
 30
0.0
 10
140.1404557199316
 20
468.2457895127451
 30
0.0
 10
140.1414049333103
 20
467.8212639919237
 30
0.0
 10
140.1796422507686
 20
467.2492565324975
 30
0.0
 10
140.2202422546393
 20
466.7116438718924
 30
0.0
 10
140.2560622883074
 20
466.2315702536818
 30
0.0
 10
140.2936873805252
 20
465.7137874485433
 30
0.0
 10
140.3398827959451
 20
465.0168604149154
 30
0.0
 10
140.3799034052009
 20
464.4681486759054
 30
0.0
 10
140.400469859235
 20
464.1861675924553
 30
0.0
  0
SPLINE
  5
81
330
1F
100
AcDbEntity
  8
0
  6
Continuous
 62
     7
370
    25
100
AcDbSpline
210
0.0
220
0.0
230
1.0
 70
     8
 71
     3
 72
    15
 73
    11
 74
     0
 42
0.00000001
 43
0.00000001
 40
0.0
 40
0.0
 40
0.0
 40
0.0
 40
0.0389908510549392
 40
0.287510346040751
 40
0.4006826607638357
 40
0.4545000224954008
 40
0.509419320509227
 40
0.6312087321073775
 40
0.7807324117494201
 40
1.0
 40
1.0
 40
1.0
 40
1.0
 10
174.4011858612569
 20
464.200260345203
 30
0.0
 10
174.4077385750165
 20
464.2914669849882
 30
0.0
 10
174.4560569099479
 20
464.9640055897215
 30
0.0
 10
174.5182646978635
 20
465.9598397633885
 30
0.0
 10
174.5991525476552
 20
466.9765815649265
 30
0.0
 10
174.6391117946822
 20
467.4512175896725
 30
0.0
 10
174.6749629200021
 20
467.8707089373439
 30
0.0
 10
174.7053602411193
 20
468.2754652750765
 30
0.0
 10
174.7218073481597
 20
468.5812338782488
 30
0.0
 10
174.6764750901327
 20
468.602127167255
 30
0.0
 10
174.6495224593278
 20
468.6145494274598
 30
0.0
  0
SPLINE
  5
82
330
1F
100
AcDbEntity
  8
0
  6
Continuous
 62
     7
370
    25
100
AcDbSpline
210
0.0
220
0.0
230
1.0
 70
     8
 71
     3
 72
    11
 73
     7
 74
     0
 42
0.00000001
 43
0.00000001
 40
0.0
 40
0.0
 40
0.0
 40
0.0
 40
0.2499905421085103
 40
0.5000008208665836
 40
0.7498928970882386
 40
1.0
 40
1.0
 40
1.0
 40
1.0
 10
140.4442950258409
 20
489.0437488965222
 30
0.0
 10
140.3072466562719
 20
489.0297566365923
 30
0.0
 10
140.0331390972219
 20
489.0017710120493
 30
0.0
 10
139.685952347986
 20
488.7618855236257
 30
0.0
 10
139.4437276209782
 20
488.4163562348571
 30
0.0
 10
139.4139876812288
 20
488.1425933714334
 30
0.0
 10
139.3991113164629
 20
488.0056530733025
 30
0.0
  0
SPLINE
  5
83
330
1F
100
AcDbEntity
  8
0
  6
Continuous
 62
     7
370
    25
100
AcDbSpline
210
0.0
220
0.0
230
1.0
 70
     8
 71
     3
 72
    11
 73
     7
 74
     0
 42
0.00000001
 43
0.00000001
 40
0.0
 40
0.0
 40
0.0
 40
0.0
 40
0.2500987146208175
 40
0.4999991971970774
 40
0.7499836093654463
 40
0.9999999999999999
 40
0.9999999999999999
 40
0.9999999999999999
 40
0.9999999999999999
 10
175.3961599054101
 20
488.005661450842
 30
0.0
 10
175.3813106182466
 20
488.1424787244213
 30
0.0
 10
175.3516238136903
 20
488.4160048281282
 30
0.0
 10
175.1098065275252
 20
488.7613341967779
 30
0.0
 10
174.7631401406684
 20
489.0013017041094
 30
0.0
 10
174.4893061050625
 20
489.0296119243832
 30
0.0
 10
174.3523803304811
 20
489.043767939836
 30
0.0
  0
LINE
  5
84
330
1F
100
AcDbEntity
  8
0
  6
Continuous
 62
     7
370
    25
100
AcDbLine
 10
174.3690150169
 20
489.0458606123
 30
0.0
 11
157.3976355774
 21
489.0458606158
 31
0.0
  0
LINE
  5
85
330
1F
100
AcDbEntity
  8
0
  6
Continuous
 62
     7
370
    25
100
AcDbLine
 10
157.3976355773
 20
489.0458606158
 30
0.0
 11
140.4262561377
 21
489.0458606123
 31
0.0
  0
SPLINE
  5
86
330
1F
100
AcDbEntity
  8
0
  6
Continuous
 62
     7
370
    25
100
AcDbSpline
210
0.0
220
0.0
230
1.0
 70
     8
 71
     3
 72
    11
 73
     7
 74
     0
 42
0.00000001
 43
0.00000001
 40
0.0
 40
0.0
 40
0.0
 40
0.0
 40
0.23541146952169
 40
0.4847121331463263
 40
0.7421296700125604
 40
1.0
 40
1.0
 40
1.0
 40
1.0
 10
139.5871961051162
 20
369.2751986118203
 30
0.0
 10
139.5186811277385
 20
368.8118802114808
 30
0.0
 10
139.3776088133577
 20
367.8579077877466
 30
0.0
 10
138.6720078514352
 20
366.4852168567272
 30
0.0
 10
137.6062000395981
 20
365.3064873185484
 30
0.0
 10
136.6930342737414
 20
364.852485688883
 30
0.0
 10
136.2360501828632
 20
364.6252854041732
 30
0.0
  0
LINE
  5
87
330
1F
100
AcDbEntity
  8
0
  6
Continuous
 62
     7
370
    25
100
AcDbLine
 10
139.5871961937
 20
380.2751986118
 30
0.0
 11
139.5871961937
 21
369.2751986867
 31
0.0
  0
ARC
  5
88
330
1F
100
AcDbEntity
  8
0
  6
Continuous
 62
     7
370
    25
100
AcDbCircle
 10
164.6149199712
 20
460.3435405116
 30
0.0
 40
22.81689189189189
100
AcDbArc
 50
170.2246276438
 51
180.0
  0
ARC
  5
89
330
1F
100
AcDbEntity
  8
0
  6
Continuous
 62
     7
370
    25
100
AcDbCircle
 10
150.1811361874
 20
460.3435405116
 30
0.0
 40
22.81689189189191
100
AcDbArc
 50
0.0
 51
9.497597607
  0
LINE
  5
8A
330
1F
100
AcDbEntity
  8
0
  6
Continuous
 62
     7
370
    25
100
AcDbLine
 10
140.3980724988
 20
460.3435405116
 30
0.0
 11
174.3980746852
 21
460.3435405116
 31
0.0
  0
ARC
  5
8B
330
1F
100
AcDbEntity
  8
0
  6
Continuous
 62
     7
370
    25
100
AcDbCircle
 10
174.3980746853
 20
459.3435405116
 30
0.0
 40
1.0
100
AcDbArc
 50
0.0000000866
 51
90.0000000059
  0
LINE
  5
8C
330
1F
100
AcDbEntity
  8
0
  6
Continuous
 62
     7
370
    25
100
AcDbLine
 10
175.3980746853
 20
459.3435405131
 30
0.0
 11
175.3980747004
 21
449.3435390964
 31
0.0
  0
ARC
  5
8D
330
1F
100
AcDbEntity
  8
0
  6
Continuous
 62
     7
370
    25
100
AcDbCircle
 10
140.398072499
 20
459.3435405116
 30
0.0
 40
1.0
100
AcDbArc
 50
90.0000000123
 51
180.0000000862
  0
LINE
  5
8E
330
1F
100
AcDbEntity
  8
0
  6
Continuous
 62
     7
370
    25
100
AcDbLine
 10
139.3980725141
 20
449.3435390964
 30
0.0
 11
139.398072499
 21
459.3435405101
 31
0.0
  0
SPLINE
  5
8F
330
1F
100
AcDbEntity
  8
0
  6
Continuous
 62
     7
370
    25
100
AcDbSpline
210
0.0
220
0.0
230
1.0
 70
     8
 71
     3
 72
    22
 73
    18
 74
     0
 42
0.00000001
 43
0.00000001
 40
0.0
 40
0.0
 40
0.0
 40
0.0
 40
1.642405407302315
 40
1.642405407302315
 40
3.284810814604629
 40
3.284810814604629
 40
4.927216221906944
 40
4.927216221906944
 40
5.748418925558101
 40
5.748418925558101
 40
6.569621629209259
 40
6.569621629209259
 40
8.212027036511573
 40
8.212027036511573
 40
9.854432443813888
 40
9.854432443813888
 40
13.13924325841852
 40
13.13924325841852
 40
13.13924325841852
 40
13.13924325841852
 10
175.3980777825941
 20
449.3435388853849
 30
0.0
 10
175.3978080063839
 20
448.8979277317429
 30
0.0
 10
175.3851272430049
 20
448.4517350225959
 30
0.0
 10
175.3054979479654
 20
447.56401604257
 30
0.0
 10
175.2398106519846
 20
447.1206465860904
 30
0.0
 10
174.9911735741203
 20
446.2654558975349
 30
0.0
 10
174.8005309024605
 20
445.8507613563427
 30
0.0
 10
174.3585167954454
 20
445.3462172147858
 30
0.0
 10
174.1882583409327
 20
445.2000383191061
 30
0.0
 10
173.8142535117233
 20
444.9568237872462
 30
0.0
 10
173.61252548115
 20
444.8594373745744
 30
0.0
 10
172.9856678297521
 20
444.6248931588354
 30
0.0
 10
172.5449751409483
 20
444.539608282955
 30
0.0
 10
171.6614963155019
 20
444.4244021955254
 30
0.0
 10
171.2159254046868
 20
444.3953698730486
 30
0.0
 10
169.8797048841381
 20
444.3413129955023
 30
0.0
 10
168.988007845242
 20
444.3444577635248
 30
0.0
 10
168.096479571775
 20
444.3438655507069
 30
0.0
  0
LINE
  5
90
330
1F
100
AcDbEntity
  8
0
  6
Continuous
 62
     7
370
    25
100
AcDbLine
 10
168.0964795718
 20
444.3438650824
 30
0.0
 11
146.6997202052
 21
444.3438650824
 31
0.0
  0
SPLINE
  5
91
330
1F
100
AcDbEntity
  8
0
  6
Continuous
 62
     7
370
    25
100
AcDbSpline
210
0.0
220
0.0
230
1.0
 70
     8
 71
     3
 72
    22
 73
    18
 74
     0
 42
0.00000001
 43
0.00000001
 40
39.41772977525555
 40
39.41772977525555
 40
39.41772977525555
 40
39.41772977525555
 40
42.70254058986018
 40
42.70254058986018
 40
44.3449459971625
 40
44.3449459971625
 40
45.98735140446481
 40
45.98735140446481
 40
46.80855410811597
 40
46.80855410811597
 40
47.62975681176712
 40
47.62975681176712
 40
49.27216221906944
 40
49.27216221906944
 40
50.91456762637176
 40
50.91456762637176
 40
52.55697303367407
 40
52.55697303367407
 40
52.55697303367407
 40
52.55697303367407
 10
146.6997202051586
 20
444.3438650823973
 30
0.0
 10
145.8083344291676
 20
444.3444564461843
 30
0.0
 10
144.9162357643959
 20
444.3413152127778
 30
0.0
 10
143.5802574845742
 20
444.39537066105
 30
0.0
 10
143.1347691289862
 20
444.424393871568
 30
0.0
 10
142.2512085818464
 20
444.5395943510539
 30
0.0
 10
141.8103647636029
 20
444.6249310190051
 30
0.0
 10
141.1836887736584
 20
444.8594114859897
 30
0.0
 10
140.9818676755546
 20
444.9568459633023
 30
0.0
 10
140.6079882619684
 20
445.1999645943446
 30
0.0
 10
140.4375784056043
 20
445.3462725193258
 30
0.0
 10
139.9956894660149
 20
445.8506783946959
 30
0.0
 10
139.8049896754104
 20
446.2654283343448
 30
0.0
 10
139.5563653305883
 20
447.1205318021688
 30
0.0
 10
139.490641320009
 20
447.5641264242895
 30
0.0
 10
139.4110367557744
 20
448.4516439147569
 30
0.0
 10
139.3983446921934
 20
448.8979278104399
 30
0.0
 10
139.3980777825941
 20
449.343538885385
 30
0.0
  0
SPLINE
  5
92
330
1F
100
AcDbEntity
  8
0
  6
Continuous
 62
     7
370
    25
100
AcDbSpline
210
0.0
220
0.0
230
1.0
 70
     8
 71
     3
 72
     9
 73
     5
 74
     0
 42
0.00000001
 43
0.00000001
 40
0.0
 40
0.0
 40
0.0
 40
0.0
 40
0.22302176997596
 40
1.0
 40
1.0
 40
1.0
 40
1.0
 10
140.1895389703605
 20
468.4842777649449
 30
0.0
 10
140.1813449865161
 20
468.5898120148107
 30
0.0
 10
140.144604251092
 20
469.0630135766004
 30
0.0
 10
139.988201683657
 20
469.5201739163527
 30
0.0
 10
139.86668029364
 20
469.8753775479706
 30
0.0
  0
LINE
  5
93
330
1F
100
AcDbEntity
  8
0
  6
Continuous
 62
     7
370
    25
100
AcDbLine
 10
139.397664592
 20
470.8555853941
 30
0.0
 11
139.397664592
 21
486.0091521762
 31
0.0
  0
SPLINE
  5
94
330
1F
100
AcDbEntity
  8
0
  6
Continuous
 62
     7
370
    25
100
AcDbSpline
210
0.0
220
0.0
230
1.0
 70
     8
 71
     3
 72
    14
 73
    10
 74
     0
 42
0.00000001
 43
0.00000001
 40
0.0
 40
0.0
 40
0.0
 40
0.0
 40
0.25
 40
0.25
 40
0.5
 40
0.5
 40
0.75
 40
0.75
 40
1.0
 40
1.0
 40
1.0
 40
1.0
 10
139.3976646083871
 20
486.0091521693012
 30
0.0
 10
139.3976405477115
 20
486.033305784575
 30
0.0
 10
139.4243948039804
 20
486.0574515583768
 30
0.0
 10
139.5274263850806
 20
486.1024274816992
 30
0.0
 10
139.6036631510442
 20
486.1232417036464
 30
0.0
 10
139.7940849120999
 20
486.1587250031953
 30
0.0
 10
139.9081949467677
 20
486.1733818900397
 30
0.0
 10
140.1570096961221
 20
486.1946567743444
 30
0.0
 10
140.2916164637093
 20
486.2012681742568
 30
0.0
 10
140.4262757304747
 20
486.2035253330538
 30
0.0
  0
LINE
  5
95
330
1F
100
AcDbEntity
  8
0
  6
Continuous
 62
     7
370
    25
100
AcDbLine
 10
140.4262757304
 20
486.2035253331
 30
0.0
 11
174.3689025938
 21
486.2036908731
 31
0.0
  0
SPLINE
  5
96
330
1F
100
AcDbEntity
  8
0
  6
Continuous
 62
     7
370
    25
100
AcDbSpline
210
0.0
220
0.0
230
1.0
 70
     8
 71
     3
 72
    14
 73
    10
 74
     0
 42
0.00000001
 43
0.00000001
 40
0.0
 40
0.0
 40
0.0
 40
0.0
 40
0.25
 40
0.25
 40
0.5
 40
0.5
 40
0.75
 40
0.75
 40
1.0
 40
1.0
 40
1.0
 40
1.0
 10
174.368902591838
 20
486.2036908718857
 30
0.0
 10
174.5035672554808
 20
486.2013973197834
 30
0.0
 10
174.6381818263836
 20
486.1947491724409
 30
0.0
 10
174.8870142285466
 20
486.1733998918824
 30
0.0
 10
175.0011340901099
 20
486.158705356346
 30
0.0
 10
175.1915746762678
 20
486.1231458960698
 30
0.0
 10
175.2678204210513
 20
486.1022931638074
 30
0.0
 10
175.370866837936
 20
486.0572396003889
 30
0.0
 10
175.3976269388489
 20
486.0330546997056
 30
0.0
 10
175.3976065509267
 20
486.0088618370953
 30
0.0
  0
SPLINE
  5
97
330
1F
100
AcDbEntity
  8
0
  6
Continuous
 62
     7
370
    25
100
AcDbSpline
210
0.0
220
0.0
230
1.0
 70
    24
 71
     3
 72
    17
 73
    13
 74
     0
 42
0.00000001
 43
0.00000001
 40
0.0
 40
0.0
 40
0.0
 40
0.0
 40
0.0125608246447145
 40
0.0445525619353226
 40
0.0959752278017525
 40
0.1668288250680362
 40
0.2571133547348524
 40
0.3668288172712102
 40
0.4959752129344207
 40
0.6445525418808434
 40
0.8125608042125857
 40
1.0
 40
1.0
 40
1.0
 40
1.0
 10
175.3976065626814
 20
486.0088618324246
 30
0.0
 10
175.3976065626814
 20
485.9445634709473
 30
0.0
 10
175.3976065626814
 20
485.716500679444
 30
0.0
 10
175.3976065626814
 20
485.2315985679043
 30
0.0
 10
175.3976065626814
 20
484.4505977923505
 30
0.0
 10
175.3976065626814
 20
483.376640998063
 30
0.0
 10
175.3976065626815
 20
482.0083290387188
 30
0.0
 10
175.3976065626815
 20
480.3462604659453
 30
0.0
 10
175.3976065626815
 20
478.3902252850269
 30
0.0
 10
175.3976065626816
 20
476.140306965695
 30
0.0
 10
175.3976065626817
 20
473.5964651907076
 30
0.0
 10
175.3976065626817
 20
471.8027348279053
 30
0.0
 10
175.3976065626817
 20
470.8568415067315
 30
0.0
  0
LINE
  5
98
330
1F
100
AcDbEntity
  8
0
  6
Continuous
 62
     7
370
    25
100
AcDbLine
 10
174.3848684566
 20
464.1403734634
 30
0.0
 11
174.3981194255
 21
464.2004862665
 31
0.0
  0
SPLINE
  5
99
330
1F
100
AcDbEntity
  8
0
  6
Continuous
 62
     7
370
    25
100
AcDbSpline
210
0.0
220
0.0
230
1.0
 70
     8
 71
     3
 72
    12
 73
     8
 74
     0
 42
0.00000001
 43
0.00000001
 40
0.0
 40
0.0
 40
0.0
 40
0.0
 40
0.2500000000000001
 40
0.2500000000000001
 40
0.5000000000000002
 40
0.5000000000000002
 40
1.0
 40
1.0
 40
1.0
 40
1.0
 10
174.0228335301745
 20
464.1164696993082
 30
0.0
 10
174.0756456866203
 20
464.1184561927996
 30
0.0
 10
174.1190265356925
 20
464.1204449717262
 30
0.0
 10
174.198597207429
 20
464.1244242721398
 30
0.0
 10
174.2340595211978
 20
464.12641496992
 30
0.0
 10
174.3253120858616
 20
464.1323907306881
 30
0.0
 10
174.3640760308868
 20
464.1363799195638
 30
0.0
 10
174.3848684267392
 20
464.1403734633831
 30
0.0
  0
SPLINE
  5
9A
330
1F
100
AcDbEntity
  8
0
  6
Continuous
 62
     7
370
    25
100
AcDbSpline
210
0.0
220
0.0
230
1.0
 70
     8
 71
     3
 72
    14
 73
    10
 74
     0
 42
0.00000001
 43
0.00000001
 40
0.0
 40
0.0
 40
0.0
 40
0.0
 40
0.25
 40
0.25
 40
0.5
 40
0.5
 40
0.75
 40
0.75
 40
1.0
 40
1.0
 40
1.0
 40
1.0
 10
172.3647333686176
 20
464.0894464905153
 30
0.0
 10
172.58888744881
 20
464.0916140173596
 30
0.0
 10
172.7802413349507
 20
464.0938137447542
 30
0.0
 10
173.1337054498789
 20
464.0982419085763
 30
0.0
 10
173.291618290441
 20
464.1004744656566
 30
0.0
 10
173.5681519027855
 20
464.1049781535597
 30
0.0
 10
173.6869462940026
 20
464.1072491139369
 30
0.0
 10
173.88381417377
 20
464.111831011146
 30
0.0
 10
173.9609727033531
 20
464.1141428462099
 30
0.0
 10
174.0228335301745
 20
464.1164696993082
 30
0.0
  0
SPLINE
  5
9B
330
1F
100
AcDbEntity
  8
0
  6
Continuous
 62
     7
370
    25
100
AcDbSpline
210
0.0
220
0.0
230
1.0
 70
     8
 71
     3
 72
    22
 73
    18
 74
     0
 42
0.00000001
 43
0.00000001
 40
0.0
 40
0.0
 40
0.0
 40
0.0
 40
0.125
 40
0.125
 40
0.25
 40
0.25
 40
0.375
 40
0.375
 40
0.5
 40
0.5
 40
0.625
 40
0.625
 40
0.75
 40
0.75
 40
0.875
 40
0.875
 40
1.0
 40
1.0
 40
1.0
 40
1.0
 10
165.1741902322015
 20
464.0671096005356
 30
0.0
 10
165.5717478337866
 20
464.0673298919863
 30
0.0
 10
165.9627644180052
 20
464.0676343210764
 30
0.0
 10
166.7283945584996
 20
464.0684541727414
 30
0.0
 10
167.1032984228668
 20
464.0689658610599
 30
0.0
 10
167.8373604016182
 20
464.0701917765616
 30
0.0
 10
168.1989509725079
 20
464.0709121599743
 30
0.0
 10
168.8876293656851
 20
464.0725196114221
 30
0.0
 10
169.2161815128114
 20
464.0734075128914
 30
0.0
 10
169.8421422181461
 20
464.0753493718634
 30
0.0
 10
170.1395412736347
 20
464.0764033800342
 30
0.0
 10
170.7013581783638
 20
464.0786872504914
 30
0.0
 10
170.9627104543143
 20
464.0799059362627
 30
0.0
 10
171.43823342535
 20
464.0824406387516
 30
0.0
 10
171.6540410132007
 20
464.083763990133
 30
0.0
 10
172.0410557115274
 20
464.0865244600674
 30
0.0
 10
172.2113994419974
 20
464.0879637809352
 30
0.0
 10
172.3647333686176
 20
464.0894464905153
 30
0.0
  0
SPLINE
  5
9C
330
1F
100
AcDbEntity
  8
0
  6
Continuous
 62
     7
370
    25
100
AcDbSpline
210
0.0
220
0.0
230
1.0
 70
     8
 71
     3
 72
    14
 73
    10
 74
     0
 42
0.00000001
 43
0.00000001
 40
0.0
 40
0.0
 40
0.0
 40
0.0
 40
0.5000000000000027
 40
0.5000000000000027
 40
0.7500000000000014
 40
0.7500000000000014
 40
0.8750000000000008
 40
0.8750000000000008
 40
1.0
 40
1.0
 40
1.0
 40
1.0
 10
157.3980342930896
 20
464.0650879971525
 30
0.0
 10
158.6995507367259
 20
464.0650870294252
 30
0.0
 10
159.998285187853
 20
464.0652572751941
 30
0.0
 10
161.9423224936999
 20
464.0657627793671
 30
0.0
 10
162.589636690557
 20
464.0659742527796
 30
0.0
 10
163.5595991293098
 20
464.0663535514388
 30
0.0
 10
163.8827941837179
 20
464.0664877239413
 30
0.0
 10
164.5287054408535
 20
464.0667855391444
 30
0.0
 10
164.8517184549074
 20
464.0669309150435
 30
0.0
 10
165.1741902322015
 20
464.0671096005356
 30
0.0
  0
SPLINE
  5
9D
330
1F
100
AcDbEntity
  8
0
  6
Continuous
 62
     7
370
    25
100
AcDbSpline
210
0.0
220
0.0
230
1.0
 70
     8
 71
     3
 72
    14
 73
    10
 74
     0
 42
0.00000001
 43
0.00000001
 40
0.0
 40
0.0
 40
0.0
 40
0.0
 40
0.1249999999999991
 40
0.1249999999999991
 40
0.2499999999999982
 40
0.2499999999999982
 40
0.4999999999999989
 40
0.4999999999999989
 40
1.0
 40
1.0
 40
1.0
 40
1.0
 10
149.6216678107808
 20
464.0671077632559
 30
0.0
 10
149.9441177938941
 20
464.0669271828891
 30
0.0
 10
150.2671849491782
 20
464.0667846210249
 30
0.0
 10
150.9131925978942
 20
464.0664916947834
 30
0.0
 10
151.2362917355738
 20
464.066351103071
 30
0.0
 10
152.2063284774711
 20
464.0659748714262
 30
0.0
 10
152.853650561943
 20
464.0657629159118
 30
0.0
 10
154.7977300075653
 20
464.0652572243949
 30
0.0
 10
156.0965242872574
 20
464.0650889648752
 30
0.0
 10
157.3980342930896
 20
464.0650879971525
 30
0.0
  0
SPLINE
  5
9E
330
1F
100
AcDbEntity
  8
0
  6
Continuous
 62
     7
370
    25
100
AcDbSpline
210
0.0
220
0.0
230
1.0
 70
     8
 71
     3
 72
    22
 73
    18
 74
     0
 42
0.00000001
 43
0.00000001
 40
0.0
 40
0.0
 40
0.0
 40
0.0
 40
0.125
 40
0.125
 40
0.25
 40
0.25
 40
0.375
 40
0.375
 40
0.5
 40
0.5
 40
0.625
 40
0.625
 40
0.75
 40
0.75
 40
0.875
 40
0.875
 40
1.0
 40
1.0
 40
1.0
 40
1.0
 10
142.432327237574
 20
464.0894473347724
 30
0.0
 10
142.5851914073916
 20
464.0879639803665
 30
0.0
 10
142.7531429995579
 20
464.086518553697
 30
0.0
 10
143.1399978343141
 20
464.0837557859065
 30
0.0
 10
143.3570286126832
 20
464.0824337376641
 30
0.0
 10
143.8344148550917
 20
464.0798985535714
 30
0.0
 10
144.0971452829559
 20
464.0786771358747
 30
0.0
 10
144.6580459173106
 20
464.0763991401611
 30
0.0
 10
144.9549073974867
 20
464.0753458823191
 30
0.0
 10
145.5803030503064
 20
464.0734048404123
 30
0.0
 10
145.9087685578523
 20
464.0725166976071
 30
0.0
 10
146.5981021785836
 20
464.0709096992
 30
0.0
 10
146.9596716905146
 20
464.0701912286993
 30
0.0
 10
147.6931848323339
 20
464.0689665563319
 30
0.0
 10
148.0677932002877
 20
464.0684539542437
 30
0.0
 10
148.8330988784464
 20
464.0676331129789
 30
0.0
 10
149.2242265803957
 20
464.0673303406694
 30
0.0
 10
149.6216678107808
 20
464.0671077632559
 30
0.0
  0
SPLINE
  5
9F
330
1F
100
AcDbEntity
  8
0
  6
Continuous
 62
     7
370
    25
100
AcDbSpline
210
0.0
220
0.0
230
1.0
 70
     8
 71
     3
 72
    14
 73
    10
 74
     0
 42
0.00000001
 43
0.00000001
 40
0.0
 40
0.0
 40
0.0
 40
0.0
 40
0.25
 40
0.25
 40
0.5
 40
0.5
 40
0.75
 40
0.75
 40
1.0
 40
1.0
 40
1.0
 40
1.0
 10
140.7705039878812
 20
464.116610516453
 30
0.0
 10
140.8320566484243
 20
464.1142716123067
 30
0.0
 10
140.9077891939379
 20
464.1119465881753
 30
0.0
 10
141.1042043892657
 20
464.1073405394315
 30
0.0
 10
141.2229827304224
 20
464.105057650782
 30
0.0
 10
141.5007274898841
 20
464.1005312116802
 30
0.0
 10
141.6597237645649
 20
464.0982876904528
 30
0.0
 10
142.0147740737013
 20
464.0938369220767
 30
0.0
 10
142.2077417944887
 20
464.0916266538824
 30
0.0
 10
142.432327237574
 20
464.0894473347724
 30
0.0
  0
SPLINE
  5
A0
330
1F
100
AcDbEntity
  8
0
  6
Continuous
 62
     7
370
    25
100
AcDbSpline
210
0.0
220
0.0
230
1.0
 70
     8
 71
     3
 72
    12
 73
     8
 74
     0
 42
0.00000001
 43
0.00000001
 40
0.0
 40
0.0
 40
0.0
 40
0.0
 40
0.5000000000000018
 40
0.5000000000000018
 40
0.7500000000000009
 40
0.7500000000000009
 40
1.0
 40
1.0
 40
1.0
 40
1.0
 10
140.4129610840709
 20
464.1403734490453
 30
0.0
 10
140.4344168343626
 20
464.1364037798742
 30
0.0
 10
140.4714956648778
 20
464.1324378717418
 30
0.0
 10
140.5624800919013
 20
464.1264975234588
 30
0.0
 10
140.5976472941998
 20
464.1245185723008
 30
0.0
 10
140.6756477018601
 20
464.120562515468
 30
0.0
 10
140.7185306410809
 20
464.1185854217661
 30
0.0
 10
140.7705039878812
 20
464.116610516453
 30
0.0
  0
LINE
  5
A1
330
1F
100
AcDbEntity
  8
0
  6
Continuous
 62
     7
370
    25
100
AcDbLine
 10
140.4026562116
 20
464.1863280892
 30
0.0
 11
140.4129610794
 21
464.1403734499
 31
0.0
  0
LINE
  5
A2
330
1F
100
AcDbEntity
  8
0
  6
Continuous
 62
     7
370
    25
100
AcDbLine
 10
175.3976065627
 20
488.0172690762
 30
0.0
 11
175.3976065627
 21
485.99910783
 31
0.0
  0
LINE
  5
A3
330
1F
100
AcDbEntity
  8
0
  6
Continuous
 62
     7
370
    25
100
AcDbLine
 10
139.397664592
 20
485.99910783
 30
0.0
 11
139.397664592
 21
488.0172690759
 31
0.0
  0
SPLINE
  5
A4
330
1F
100
AcDbEntity
  8
0
  6
Continuous
 62
     7
370
    25
100
AcDbSpline
210
0.0
220
0.0
230
1.0
 70
     8
 71
     3
 72
    10
 73
     6
 74
     0
 42
0.00000001
 43
0.00000001
 40
0.0
 40
0.0
 40
0.0
 40
0.0
 40
0.5
 40
0.5
 40
1.0
 40
1.0
 40
1.0
 40
1.0
 10
139.3976645901393
 20
488.0169755664991
 30
0.0
 10
139.3976645901632
 20
488.1492953445682
 30
0.0
 10
139.4249363780158
 20
488.2933119021793
 30
0.0
 10
139.5486412922294
 20
488.5671116528056
 30
0.0
 10
139.6454659766937
 20
488.6955413761802
 30
0.0
 10
139.7656619337433
 20
488.7949090150757
 30
0.0
  0
LINE
  5
A5
330
1F
100
AcDbEntity
  8
0
  6
Continuous
 62
     7
370
    25
100
AcDbLine
 10
139.7656619337
 20
488.7949090151
 30
0.0
 11
139.8619351496
 21
488.8488158599
 31
0.0
  0
SPLINE
  5
A6
330
1F
100
AcDbEntity
  8
0
  6
Continuous
 62
     7
370
    25
100
AcDbSpline
210
0.0
220
0.0
230
1.0
 70
     8
 71
     3
 72
    45
 73
    41
 74
     0
 42
0.00000001
 43
0.00000001
 40
0.0
 40
0.0
 40
0.0
 40
0.0
 40
0.0019531250000001
 40
0.0019531250000001
 40
0.0039062500000003
 40
0.0039062500000003
 40
0.0078125000000006
 40
0.0078125000000006
 40
0.0156250000000012
 40
0.0156250000000012
 40
0.0312500000000014
 40
0.0312500000000014
 40
0.0625000000000009
 40
0.0625000000000009
 40
0.1249999999999999
 40
0.1249999999999999
 40
0.1874999999999989
 40
0.1874999999999989
 40
0.2499999999999979
 40
0.2499999999999979
 40
0.4999999999999967
 40
0.7499999999999956
 40
0.7499999999999956
 40
0.8124999999999958
 40
0.8124999999999958
 40
0.874999999999996
 40
0.874999999999996
 40
0.9374999999999961
 40
0.9374999999999961
 40
0.9687499999999972
 40
0.9687499999999972
 40
0.9843749999999987
 40
0.9843749999999987
 40
0.9921874999999994
 40
0.9921874999999994
 40
0.9960937499999998
 40
0.9960937499999998
 40
0.998046875
 40
0.998046875
 40
1.0
 40
1.0
 40
1.0
 40
1.0
 10
146.6997204198879
 20
444.3438650822399
 30
0.0
 10
146.6996471227332
 20
444.3438651308667
 30
0.0
 10
146.7147964489441
 20
444.3438551090691
 30
0.0
 10
146.7395213317224
 20
444.3438392357579
 30
0.0
 10
146.7527531725499
 20
444.343830927243
 30
0.0
 10
146.7927431722213
 20
444.3438064563193
 30
0.0
 10
146.8199211845057
 20
444.3437906486048
 30
0.0
 10
146.9019410218914
 20
444.3437454396412
 30
0.0
 10
146.9574330365765
 20
444.3437181648314
 30
0.0
 10
147.1240032516582
 20
444.3436455562883
 30
0.0
 10
147.2353356588233
 20
444.343609259386
 30
0.0
 10
147.5696554187673
 20
444.3435292137081
 30
0.0
 10
147.7930693151619
 20
444.3435143053359
 30
0.0
 10
148.4631647457525
 20
444.3435207783862
 30
0.0
 10
148.909850272057
 20
444.3435931266605
 30
0.0
 10
149.8033608118438
 20
444.3435262396459
 30
0.0
 10
150.250107551754
 20
444.3435428784607
 30
0.0
 10
151.1436085902868
 20
444.3435372086464
 30
0.0
 10
151.5903593564855
 20
444.3435383880057
 30
0.0
 10
153.8241127571414
 20
444.3435372925874
 30
0.0
 10
157.3981183179442
 20
444.3435378325496
 30
0.0
 10
160.9721238661751
 20
444.3435372928802
 30
0.0
 10
163.2058773232989
 20
444.3435383883757
 30
0.0
 10
163.652628008456
 20
444.3435372121648
 30
0.0
 10
164.5461294424375
 20
444.3435428816875
 30
0.0
 10
164.9928891590926
 20
444.3435262331168
 30
0.0
 10
165.8863121876661
 20
444.3435931978055
 30
0.0
 10
166.3330338849558
 20
444.3435207509856
 30
0.0
 10
167.0031089024251
 20
444.3435142715049
 30
0.0
 10
167.2265592826854
 20
444.3435291860643
 30
0.0
 10
167.561184824577
 20
444.3436094656486
 30
0.0
 10
167.6726625354931
 20
444.3436459047876
 30
0.0
 10
167.8390644547433
 20
444.3437185812563
 30
0.0
 10
167.8944157190921
 20
444.3437458305638
 30
0.0
 10
167.9764571030572
 20
444.3437911223473
 30
0.0
 10
168.0036932464521
 20
444.3438069929052
 30
0.0
 10
168.0434107297775
 20
444.3438313304256
 30
0.0
 10
168.0565468469156
 20
444.3438395888148
 30
0.0
 10
168.081059567373
 20
444.3438553415721
 30
0.0
 10
168.0957733702133
 20
444.3438650817985
 30
0.0
 10
168.095774249593
 20
444.3438650823821
 30
0.0
  0
SPLINE
  5
A7
330
1F
100
AcDbEntity
  8
0
  6
Continuous
 62
     7
370
    25
100
AcDbSpline
210
0.0
220
0.0
230
1.0
 70
     8
 71
     3
 72
    38
 73
    34
 74
     0
 42
0.00000001
 43
0.00000001
 40
0.0
 40
0.0
 40
0.0
 40
0.0
 40
0.0625
 40
0.0625
 40
0.125
 40
0.125
 40
0.1874999999999999
 40
0.1874999999999999
 40
0.2499999999999999
 40
0.2499999999999999
 40
0.3124999999999998
 40
0.3124999999999998
 40
0.3749999999999998
 40
0.3749999999999998
 40
0.4374999999999998
 40
0.4374999999999998
 40
0.4999999999999997
 40
0.4999999999999997
 40
0.5624999999999997
 40
0.5624999999999997
 40
0.6249999999999997
 40
0.6249999999999997
 40
0.6874999999999997
 40
0.6874999999999997
 40
0.7499999999999997
 40
0.7499999999999997
 40
0.8124999999999998
 40
0.8124999999999998
 40
0.8749999999999999
 40
0.8749999999999999
 40
0.9375
 40
0.9375
 40
1.0
 40
1.0
 40
1.0
 40
1.0
 10
139.3980777825944
 20
449.3435388853699
 30
0.0
 10
139.3980777825944
 20
449.3435388853699
 30
0.0
 10
139.3980777823989
 20
449.3440453844405
 30
0.0
 10
139.3980777708222
 20
449.3351344713087
 30
0.0
 10
139.3980777594616
 20
449.3256309294209
 30
0.0
 10
139.3980777191231
 20
449.2749851222304
 30
0.0
 10
139.3980776901658
 20
449.2337567272422
 30
0.0
 10
139.398077611907
 20
449.0899246489172
 30
0.0
 10
139.3980775626262
 20
448.9872348358948
 30
0.0
 10
139.3980774440804
 20
448.6853054943391
 30
0.0
 10
139.398077374836
 20
448.4859798361202
 30
0.0
 10
139.3980772191932
 20
447.9527504053452
 30
0.0
 10
139.3980771328153
 20
447.6187605031035
 30
0.0
 10
139.3980769475875
 20
446.7779041043569
 30
0.0
 10
139.3980768487581
 20
446.2709514781664
 30
0.0
 10
139.3980766445445
 20
445.0481849610601
 30
0.0
 10
139.3980765391807
 20
444.3322849404588
 30
0.0
 10
139.3980763284326
 20
442.6605366640974
 30
0.0
 10
139.3980762230688
 20
441.704602278652
 30
0.0
 10
139.3980760188551
 20
439.5291798927614
 30
0.0
 10
139.3980759200257
 20
438.3096057626307
 30
0.0
 10
139.3980757347979
 20
435.5933639886858
 30
0.0
 10
139.3980756484199
 20
434.0966102151859
 30
0.0
 10
139.3980754927771
 20
430.825118627539
 30
0.0
 10
139.3980754235328
 20
429.0502946837066
 30
0.0
 10
139.3980753049869
 20
425.2370054907165
 30
0.0
 10
139.398075255706
 20
423.1984541118733
 30
0.0
 10
139.3980751774472
 20
418.8898699370324
 30
0.0
 10
139.39807514849
 20
416.6197510113493
 30
0.0
 10
139.3980751081514
 20
411.9005926744128
 30
0.0
 10
139.3980750967908
 20
409.4514671334741
 30
0.0
 10
139.398075085214
 20
404.449841431588
 30
0.0
 10
139.3980750850185
 20
401.8972551409552
 30
0.0
 10
139.3980750850185
 20
399.3435388853699
 30
0.0
  0
SPLINE
  5
A8
330
1F
100
AcDbEntity
  8
0
  6
Continuous
 62
     7
370
    25
100
AcDbSpline
210
0.0
220
0.0
230
1.0
 70
     8
 71
     3
 72
    38
 73
    34
 74
     0
 42
0.00000001
 43
0.00000001
 40
0.0
 40
0.0
 40
0.0
 40
0.0
 40
0.0625
 40
0.0625
 40
0.1250000000000001
 40
0.1250000000000001
 40
0.1875000000000001
 40
0.1875000000000001
 40
0.2500000000000001
 40
0.2500000000000001
 40
0.3125000000000001
 40
0.3125000000000001
 40
0.3750000000000002
 40
0.3750000000000002
 40
0.4375000000000002
 40
0.4375000000000002
 40
0.5000000000000002
 40
0.5000000000000002
 40
0.5625000000000002
 40
0.5625000000000002
 40
0.6250000000000001
 40
0.6250000000000001
 40
0.6875000000000001
 40
0.6875000000000001
 40
0.75
 40
0.75
 40
0.8125
 40
0.8125
 40
0.875
 40
0.875
 40
0.9375
 40
0.9375
 40
1.0
 40
1.0
 40
1.0
 40
1.0
 10
175.3980750850185
 20
399.3435388853698
 30
0.0
 10
175.3980750850185
 20
401.8972551409551
 30
0.0
 10
175.398075085214
 20
404.4498414315878
 30
0.0
 10
175.3980750967908
 20
409.4514671334739
 30
0.0
 10
175.3980751081515
 20
411.9005926744127
 30
0.0
 10
175.39807514849
 20
416.6197510113492
 30
0.0
 10
175.3980751774473
 20
418.8898699370323
 30
0.0
 10
175.3980752557061
 20
423.1984541118732
 30
0.0
 10
175.398075304987
 20
425.2370054907163
 30
0.0
 10
175.3980754235328
 20
429.0502946837065
 30
0.0
 10
175.3980754927771
 20
430.8251186275389
 30
0.0
 10
175.39807564842
 20
434.0966102151858
 30
0.0
 10
175.3980757347979
 20
435.5933639886856
 30
0.0
 10
175.3980759200257
 20
438.3096057626306
 30
0.0
 10
175.3980760188551
 20
439.5291798927612
 30
0.0
 10
175.3980762230688
 20
441.7046022786518
 30
0.0
 10
175.3980763284326
 20
442.6605366640973
 30
0.0
 10
175.3980765391807
 20
444.3322849404586
 30
0.0
 10
175.3980766445445
 20
445.0481849610599
 30
0.0
 10
175.3980768487582
 20
446.2709514781662
 30
0.0
 10
175.3980769475875
 20
446.7779041043568
 30
0.0
 10
175.3980771328153
 20
447.6187605031034
 30
0.0
 10
175.3980772191932
 20
447.9527504053451
 30
0.0
 10
175.3980773748361
 20
448.4859798361201
 30
0.0
 10
175.3980774440804
 20
448.6853054943389
 30
0.0
 10
175.3980775626262
 20
448.9872348358948
 30
0.0
 10
175.398077611907
 20
449.0899246489171
 30
0.0
 10
175.3980776901658
 20
449.2337567272421
 30
0.0
 10
175.3980777191231
 20
449.2749851222302
 30
0.0
 10
175.3980777594616
 20
449.3256309294207
 30
0.0
 10
175.3980777708222
 20
449.3351344713085
 30
0.0
 10
175.398077782399
 20
449.3440453844404
 30
0.0
 10
175.3980777825945
 20
449.3435388853698
 30
0.0
 10
175.3980777825944
 20
449.3435388853698
 30
0.0
  0
LINE
  5
A9
330
1F
100
AcDbEntity
  8
0
  6
Continuous
 62
     7
370
    25
100
AcDbLine
 10
181.4980280891
 20
363.2751985979
 30
0.0
 11
181.4980280891
 21
359.2751985973
 31
0.0
  0
LINE
  5
AA
330
1F
100
AcDbEntity
  8
0
  6
Continuous
 62
     7
370
    25
100
AcDbLine
 10
181.4980280891
 20
359.2751985973
 30
0.0
 11
180.4980280891
 21
359.2751985973
 31
0.0
  0
ARC
  5
AB
330
1F
100
AcDbEntity
  8
0
  6
Continuous
 62
     7
370
    25
100
AcDbCircle
 10
180.4980280891
 20
363.2751985979
 30
0.0
 40
1.0
100
AcDbArc
 50
0.0
 51
90.0
  0
LINE
  5
AC
330
1F
100
AcDbEntity
  8
0
  6
Continuous
 62
     7
370
    25
100
AcDbLine
 10
134.2980280891
 20
364.2751985979
 30
0.0
 11
180.4980280891
 21
364.2751985979
 31
0.0
  0
LINE
  5
AD
330
1F
100
AcDbEntity
  8
0
  6
Continuous
 62
     7
370
    25
100
AcDbLine
 10
180.4980280891
 20
359.2751985973
 30
0.0
 11
134.2980280891
 21
359.2751985973
 31
0.0
  0
ARC
  5
AE
330
1F
100
AcDbEntity
  8
0
  6
Continuous
 62
     7
370
    25
100
AcDbCircle
 10
134.2980280891
 20
363.2751985979
 30
0.0
 40
1.0
100
AcDbArc
 50
90.0
 51
180.0
  0
LINE
  5
AF
330
1F
100
AcDbEntity
  8
0
  6
Continuous
 62
     7
370
    25
100
AcDbLine
 10
133.2980280891
 20
359.2751985973
 30
0.0
 11
133.2980280891
 21
363.2751985979
 31
0.0
  0
LINE
  5
B0
330
1F
100
AcDbEntity
  8
0
  6
Continuous
 62
     7
370
    25
100
AcDbLine
 10
134.2980280891
 20
359.2751985973
 30
0.0
 11
133.2980280891
 21
359.2751985973
 31
0.0
  0
SPLINE
  5
B1
330
1F
100
AcDbEntity
  8
0
  6
Continuous
 62
     7
370
    25
100
AcDbSpline
210
0.0
220
0.0
230
1.0
 70
     8
 71
     3
 72
    10
 73
     6
 74
     0
 42
0.00000001
 43
0.00000001
 40
0.0
 40
0.0
 40
0.0
 40
0.0
 40
0.1402372199441788
 40
0.4411018757567667
 40
1.0
 40
1.0
 40
1.0
 40
1.0
 10
138.286586361399
 20
366.1742425561056
 30
0.0
 10
138.3886479469801
 20
366.2933555530468
 30
0.0
 10
138.709672257505
 20
366.6680133393226
 30
0.0
 10
139.2185299534774
 20
367.6871328957203
 30
0.0
 10
139.3273156483966
 20
368.6495615463435
 30
0.0
 10
139.3980329697848
 20
369.2751987337504
 30
0.0
  0
ARC
  5
B2
330
1F
100
AcDbEntity
  8
0
  6
Continuous
 62
     7
370
    25
100
AcDbCircle
 10
180.3980371176
 20
369.2751985988
 30
0.0
 40
5.000000000935074
100
AcDbArc
 50
179.9999996668
 51
269.9999999906
  0
LINE
  5
B3
330
1F
100
AcDbEntity
  8
0
  6
Continuous
 62
     7
370
    25
100
AcDbLine
 10
139.3980726122
 20
384.3435395399
 30
0.0
 11
139.3980725895
 21
399.343539512
 31
0.0
  0
LINE
  5
B4
330
1F
100
AcDbEntity
  8
0
  6
Continuous
 62
     7
370
    25
100
AcDbLine
 10
175.3980747985
 20
384.3435395399
 30
0.0
 11
175.3980747758
 21
399.343539512
 31
0.0
  0
LINE
  5
B5
330
1F
100
AcDbEntity
  8
0
  6
Continuous
 62
     7
370
    25
100
AcDbLine
 10
175.3980371168
 20
380.2751985904
 30
0.0
 11
175.3980371106
 21
384.3435395399
 31
0.0
  0
LINE
  5
B6
330
1F
100
AcDbEntity
  8
0
  6
Continuous
 62
     7
370
    25
100
AcDbLine
 10
139.3980329698
 20
380.2751987338
 30
0.0
 11
139.3980328593
 21
384.3435395399
 31
0.0
  0
LINE
  5
B7
330
1F
100
AcDbEntity
  8
0
  6
Continuous
 62
     7
370
    25
100
AcDbLine
 10
175.398036224
 20
380.2751985904
 30
0.0
 11
175.398036224
 21
369.2751986278
 31
0.0
  0
SPLINE
  5
B8
330
1F
100
AcDbEntity
  8
0
  6
Continuous
 62
     7
370
    25
100
AcDbSpline
210
0.0
220
0.0
230
1.0
 70
     8
 71
     3
 72
    10
 73
     6
 74
     0
 42
0.00000001
 43
0.00000001
 40
0.0
 40
0.0
 40
0.0
 40
0.0
 40
0.5
 40
0.5
 40
1.0
 40
1.0
 40
1.0
 40
1.0
 10
175.3976064279545
 20
469.1212193609114
 30
0.0
 10
175.3974835999323
 20
469.0810274275289
 30
0.0
 10
175.311248869032
 20
468.992755315764
 30
0.0
 10
175.0363209769754
 20
468.7929809157782
 30
0.0
 10
174.844210735607
 20
468.6801601071563
 30
0.0
 10
174.6345761942125
 20
468.5747311439679
 30
0.0
  0
SPLINE
  5
B9
330
1F
100
AcDbEntity
  8
0
  6
Continuous
 62
     7
370
    25
100
AcDbSpline
210
0.0
220
0.0
230
1.0
 70
    24
 71
     3
 72
    14
 73
    10
 74
     0
 42
0.00000001
 43
0.00000001
 40
0.0000000000000009
 40
0.0000000000000009
 40
0.0000000000000009
 40
0.0000000000000009
 40
0.0027220924773576
 40
0.0027220924773576
 40
0.0027220924773576
 40
0.0054441839602498
 40
0.0054441839602498
 40
0.0054441839602498
 40
0.0104862958462568
 40
0.0104862958462568
 40
0.0104862958462568
 40
0.0104862958462568
 10
175.3976065626817
 20
470.856847503461
 30
0.0
 10
175.3976065626817
 20
470.7072195000969
 30
0.0
 10
175.3976065626817
 20
470.5565356294323
 30
0.0
 10
175.3976065626817
 20
470.4058325853084
 30
0.0
 10
175.3976065626817
 20
470.2551295861892
 30
0.0
 10
175.3976065626817
 20
470.1044360872262
 30
0.0
 10
175.3976065626817
 20
469.954209424254
 30
0.0
 10
175.3976065626817
 20
469.6759455803461
 30
0.0
 10
175.3976065626818
 20
469.3981892732909
 30
0.0
 10
175.3976065626818
 20
469.1212286799141
 30
0.0
  0
SPLINE
  5
BA
330
1F
100
AcDbEntity
  8
0
  6
Continuous
 62
     7
370
    25
100
AcDbSpline
210
0.0
220
0.0
230
1.0
 70
     8
 71
     3
 72
    12
 73
     8
 74
     0
 42
0.00000001
 43
0.00000001
 40
0.0
 40
0.0
 40
0.0
 40
0.0
 40
0.5
 40
0.5
 40
0.75
 40
0.75
 40
1.0
 40
1.0
 40
1.0
 40
1.0
 10
140.1605431160131
 20
468.5747271318501
 30
0.0
 10
139.9501252000991
 20
468.680548266566
 30
0.0
 10
139.7584100598586
 20
468.7932164417018
 30
0.0
 10
139.5524054354726
 20
468.9429710440306
 30
0.0
 10
139.4967291405341
 20
468.9894494966608
 30
0.0
 10
139.4189184039766
 20
469.0688067072621
 30
0.0
 10
139.3976658920284
 20
469.1009253029238
 30
0.0
 10
139.3976645920426
 20
469.1211909038344
 30
0.0
  0
SPLINE
  5
BB
330
1F
100
AcDbEntity
  8
0
  6
Continuous
 62
     7
370
    25
100
AcDbSpline
210
0.0
220
0.0
230
1.0
 70
    24
 71
     3
 72
    14
 73
    10
 74
     0
 42
0.00000001
 43
0.00000001
 40
0.0
 40
0.0
 40
0.0
 40
0.0
 40
0.0026283545570112
 40
0.0026283545570112
 40
0.0026283545570112
 40
0.0052567090778632
 40
0.0052567090778632
 40
0.0052567090778632
 40
0.0104863578434055
 40
0.0104863578434055
 40
0.0104863578434055
 40
0.0104863578434055
 10
139.3976645920018
 20
469.121190905503
 30
0.0
 10
139.3976645920018
 20
469.2655921658584
 30
0.0
 10
139.3976645920017
 20
469.4101952659757
 30
0.0
 10
139.3976645920017
 20
469.55501064111
 30
0.0
 10
139.3976645920017
 20
469.6998260153181
 30
0.0
 10
139.3976645920017
 20
469.8448513401311
 30
0.0
 10
139.3976645920017
 20
469.9899984265762
 30
0.0
 10
139.3976645920017
 20
470.2787982295624
 30
0.0
 10
139.3976645920017
 20
470.5699401868644
 30
0.0
 10
139.3976645920017
 20
470.8577284960112
 30
0.0
  0
LINE
  5
BC
330
1F
100
AcDbEntity
  8
0
  6
Continuous
 62
     7
370
    25
100
AcDbLine
 10
139.3980325497
 20
384.3435395399
 30
0.0
 11
139.3980326602
 21
380.2751987338
 31
0.0
  0
LINE
  5
BD
330
1F
100
AcDbEntity
  8
0
  6
Continuous
 62
     7
370
    25
100
AcDbLine
 10
139.3980325937
 20
380.2751987338
 30
0.0
 11
139.3980325937
 21
369.2751987712
 31
0.0
  0
LINE
  5
BE
330
1F
100
AcDbEntity
  8
0
  6
Continuous
 62
     8
370
    18
100
AcDbLine
 10
174.3980746853
 20
459.3435405116
 30
0.0
 11
140.398072499
 21
459.3435405116
 31
0.0
  0
SPLINE
  5
BF
330
1F
100
AcDbEntity
  8
0
  6
Continuous
 62
     8
370
    18
100
AcDbSpline
210
0.0
220
0.0
230
1.0
 70
    24
 71
     3
 72
    10
 73
     6
 74
     0
 42
0.00000001
 43
0.00000001
 40
0.0
 40
0.0
 40
0.0
 40
0.0
 40
0.5
 40
0.5
 40
1.0
 40
1.0
 40
1.0
 40
1.0
 10
140.3980724990121
 20
459.343540511579
 30
0.0
 10
140.398072498956
 20
459.6053398993775
 30
0.0
 10
140.3980724989003
 20
459.8655271703407
 30
0.0
 10
140.398072498821
 20
460.2357674151858
 30
0.0
 10
140.398072498798
 20
460.3435405115755
 30
0.0
 10
140.398072498798
 20
460.3435405115755
 30
0.0
  0
SPLINE
  5
C0
330
1F
100
AcDbEntity
  8
0
  6
Continuous
 62
     8
370
    18
100
AcDbSpline
210
0.0
220
0.0
230
1.0
 70
    24
 71
     3
 72
    10
 73
     6
 74
     0
 42
0.00000001
 43
0.00000001
 40
0.0
 40
0.0
 40
0.0
 40
0.0
 40
0.5
 40
0.5
 40
1.0
 40
1.0
 40
1.0
 40
1.0
 10
174.3980746851892
 20
460.3435405115754
 30
0.0
 10
174.3980746851893
 20
460.3435405115753
 30
0.0
 10
174.3980746852003
 20
460.2357674151852
 30
0.0
 10
174.3980746852382
 20
459.8655271703387
 30
0.0
 10
174.3980746852649
 20
459.6053398993745
 30
0.0
 10
174.3980746852917
 20
459.3435405115754
 30
0.0
  0
SPLINE
  5
C1
330
1F
100
AcDbEntity
  8
0
  6
Continuous
 62
     8
370
    18
100
AcDbSpline
210
0.0
220
0.0
230
1.0
 70
    24
 71
     3
 72
    10
 73
     6
 74
     0
 42
0.00000001
 43
0.00000001
 40
0.0
 40
0.0
 40
0.0
 40
0.0
 40
0.5
 40
0.5
 40
1.0
 40
1.0
 40
1.0
 40
1.0
 10
175.3980746852917
 20
459.3435405130876
 30
0.0
 10
175.3980746852917
 20
459.3435405130876
 30
0.0
 10
175.2903015889015
 20
459.343540512925
 30
0.0
 10
174.920061344055
 20
459.3435405123664
 30
0.0
 10
174.6598740730909
 20
459.3435405119739
 30
0.0
 10
174.3980746852917
 20
459.3435405115789
 30
0.0
  0
SPLINE
  5
C2
330
1F
100
AcDbEntity
  8
0
  6
Continuous
 62
     8
370
    18
100
AcDbSpline
210
0.0
220
0.0
230
1.0
 70
     8
 71
     3
 72
    20
 73
    16
 74
     0
 42
0.00000001
 43
0.00000001
 40
0.0
 40
0.0
 40
0.0
 40
0.0
 40
0.0602272229753265
 40
0.1211099551034193
 40
0.1826481804362426
 40
0.2448418828437014
 40
0.3076910460129245
 40
0.3711956534478627
 40
0.435355688468664
 40
0.5001711342115299
 40
0.5807099122410407
 40
0.6709677465480005
 40
0.7709393622804155
 40
0.8806189167904627
 40
0.9999999999999999
 40
0.9999999999999999
 40
0.9999999999999999
 40
0.9999999999999999
 10
175.3980777825941
 20
449.3435388853848
 30
0.0
 10
175.3972158509798
 20
449.3435388611967
 30
0.0
 10
175.395482606544
 20
449.3435388125573
 30
0.0
 10
175.3813881512235
 20
449.3435385829954
 30
0.0
 10
175.3586748276442
 20
449.3435384032218
 30
0.0
 10
175.3264329111595
 20
449.343538329859
 30
0.0
 10
175.2849109251284
 20
449.34353839774
 30
0.0
 10
175.2341751601679
 20
449.343538600244
 30
0.0
 10
175.1744789074406
 20
449.3435388093632
 30
0.0
 10
175.1008877005046
 20
449.3435391164654
 30
0.0
 10
175.0081350449713
 20
449.343538261351
 30
0.0
 10
174.8898671011478
 20
449.3435370759941
 30
0.0
 10
174.7472177676562
 20
449.3435369736929
 30
0.0
 10
174.5806608905385
 20
449.3435383161414
 30
0.0
 10
174.4606332233468
 20
449.3435388268528
 30
0.0
 10
174.3980775914971
 20
449.3435390930237
 30
0.0
  0
LINE
  5
C3
330
1F
100
AcDbEntity
  8
0
  6
Continuous
 62
     8
370
    18
100
AcDbLine
 10
174.3980747004
 20
449.3435390949
 30
0.0
 11
174.3980746853
 21
459.3435405116
 31
0.0
  0
LINE
  5
C4
330
1F
100
AcDbEntity
  8
0
  6
Continuous
 62
     8
370
    18
100
AcDbLine
 10
140.398072499
 20
459.3435405116
 30
0.0
 11
140.3980725141
 21
449.3441378596
 31
0.0
  0
SPLINE
  5
C5
330
1F
100
AcDbEntity
  8
0
  6
Continuous
 62
     8
370
    18
100
AcDbSpline
210
0.0
220
0.0
230
1.0
 70
     8
 71
     3
 72
    28
 73
    24
 74
     0
 42
0.00000001
 43
0.00000001
 40
0.0
 40
0.0
 40
0.0
 40
0.0
 40
0.2499999999999911
 40
0.2499999999999911
 40
0.3749999999999889
 40
0.3749999999999889
 40
0.4374999999999902
 40
0.4374999999999902
 40
0.4999999999999916
 40
0.4999999999999916
 40
0.5624999999999929
 40
0.5624999999999929
 40
0.6249999999999942
 40
0.6249999999999942
 40
0.6562499999999948
 40
0.6562499999999948
 40
0.6874999999999953
 40
0.6874999999999953
 40
0.7499999999999986
 40
0.7499999999999986
 40
0.8749999999999993
 40
0.8749999999999993
 40
1.0
 40
1.0
 40
1.0
 40
1.0
 10
168.0964795713192
 20
445.3438657706432
 30
0.0
 10
168.8556307048065
 20
445.344368476191
 30
0.0
 10
169.6149148261864
 20
445.3419774101669
 30
0.0
 10
170.7521478515116
 20
445.3752333293272
 30
0.0
 10
171.1310034681712
 20
445.3911505524664
 30
0.0
 10
171.6981350690374
 20
445.440089690589
 30
0.0
 10
171.8869826161912
 20
445.4606745891238
 30
0.0
 10
172.2641105407537
 20
445.5141858080476
 30
0.0
 10
172.4533188993111
 20
445.5474367984359
 30
0.0
 10
172.8240502725785
 20
445.6372696627124
 30
0.0
 10
173.0060741682621
 20
445.6927827527557
 30
0.0
 10
173.356523274646
 20
445.8469297069686
 30
0.0
 10
173.5223040046697
 20
445.946654458898
 30
0.0
 10
173.7314702164828
 20
446.1437888289738
 30
0.0
 10
173.7947890297768
 20
446.2177812275232
 30
0.0
 10
173.9036375246448
 20
446.3735069914811
 30
0.0
 10
173.9506607399325
 20
446.4558306882355
 30
0.0
 10
174.0756832223516
 20
446.712473865091
 30
0.0
 10
174.1367876723066
 20
446.8956523815617
 30
0.0
 10
174.2805174031962
 20
447.4456912311803
 30
0.0
 10
174.3281801676325
 20
447.8235551741578
 30
0.0
 10
174.3883042076726
 20
448.5824727374078
 30
0.0
 10
174.3978370727714
 20
448.9628076325673
 30
0.0
 10
174.398077591497
 20
449.3435390930237
 30
0.0
  0
LINE
  5
C6
330
1F
100
AcDbEntity
  8
0
  6
Continuous
 62
     8
370
    18
100
AcDbLine
 10
146.6997202052
 20
445.3438650824
 30
0.0
 11
168.0964795718
 21
445.3438650824
 31
0.0
  0
SPLINE
  5
C7
330
1F
100
AcDbEntity
  8
0
  6
Continuous
 62
     8
370
    18
100
AcDbSpline
210
0.0
220
0.0
230
1.0
 70
     8
 71
     3
 72
    26
 73
    22
 74
     0
 42
0.00000001
 43
0.00000001
 40
0.0
 40
0.0
 40
0.0
 40
0.0
 40
0.1249999999999972
 40
0.1249999999999972
 40
0.1874999999999982
 40
0.1874999999999982
 40
0.2499999999999992
 40
0.2499999999999992
 40
0.3125000000000002
 40
0.3125000000000002
 40
0.3750000000000011
 40
0.3750000000000011
 40
0.4375000000000021
 40
0.4375000000000021
 40
0.500000000000003
 40
0.500000000000003
 40
0.6250000000000017
 40
0.6250000000000017
 40
0.7500000000000003
 40
0.7500000000000003
 40
1.0
 40
1.0
 40
1.0
 40
1.0
 10
140.398077603209
 20
449.3441378596171
 30
0.0
 10
140.3983072360564
 20
448.9607610900395
 30
0.0
 10
140.4079847126219
 20
448.5781652791092
 30
0.0
 10
140.4535579907418
 20
448.0068387391873
 30
0.0
 10
140.4735515990208
 20
447.8167935350925
 30
0.0
 10
140.5298149493943
 20
447.4380485119268
 30
0.0
 10
140.5664526338572
 20
447.248302742005
 30
0.0
 10
140.6650229445429
 20
446.8771616676106
 30
0.0
 10
140.7266094527659
 20
446.6959024763414
 30
0.0
 10
140.8989091244426
 20
446.3506018752169
 30
0.0
 10
141.0092995898223
 20
446.1916363950669
 30
0.0
 10
141.2957324830743
 20
445.9309789714625
 30
0.0
 10
141.463510173279
 20
445.8339523797718
 30
0.0
 10
141.8202407602427
 20
445.682397142589
 30
0.0
 10
142.0021728532017
 20
445.628831966921
 30
0.0
 10
142.5524409186563
 20
445.499242149546
 30
0.0
 10
142.9256447400738
 20
445.4545594974011
 30
0.0
 10
143.6759314416598
 20
445.3906403084188
 30
0.0
 10
144.0538176805771
 20
445.3748519590108
 30
0.0
 10
145.1875533279336
 20
445.3419813646627
 30
0.0
 10
145.9436531497687
 20
445.3443653283853
 30
0.0
 10
146.6997202053036
 20
445.3438653017742
 30
0.0
  0
SPLINE
  5
C8
330
1F
100
AcDbEntity
  8
0
  6
Continuous
 62
     8
370
    18
100
AcDbSpline
210
0.0
220
0.0
230
1.0
 70
    24
 71
     3
 72
    10
 73
     6
 74
     0
 42
0.00000001
 43
0.00000001
 40
0.0
 40
0.0
 40
0.0
 40
0.0
 40
0.5
 40
0.5
 40
1.0
 40
1.0
 40
1.0
 40
1.0
 10
140.3980724990121
 20
459.343540511579
 30
0.0
 10
140.136273111213
 20
459.343540511184
 30
0.0
 10
139.8760858402488
 20
459.3435405107914
 30
0.0
 10
139.5058455954023
 20
459.3435405102328
 30
0.0
 10
139.3980724990121
 20
459.3435405100702
 30
0.0
 10
139.3980724990121
 20
459.3435405100702
 30
0.0
  0
SPLINE
  5
C9
330
1F
100
AcDbEntity
  8
0
  6
Continuous
 62
     8
370
    18
100
AcDbSpline
210
0.0
220
0.0
230
1.0
 70
    24
 71
     3
 72
    10
 73
     6
 74
     0
 42
0.00000001
 43
0.00000001
 40
0.0
 40
0.0
 40
0.0
 40
0.0
 40
0.5
 40
0.5
 40
1.0
 40
1.0
 40
1.0
 40
1.0
 10
140.398077603209
 20
449.3441378596173
 30
0.0
 10
140.1362782623728
 20
449.3439810485299
 30
0.0
 10
139.8760910380824
 20
449.3438252030591
 30
0.0
 10
139.5058508596514
 20
449.3436034386928
 30
0.0
 10
139.3980777825941
 20
449.3435388853851
 30
0.0
 10
139.3980777825941
 20
449.3435388853851
 30
0.0
  0
SPLINE
  5
CA
330
1F
100
AcDbEntity
  8
0
  6
Continuous
 62
     8
370
    18
100
AcDbSpline
210
0.0
220
0.0
230
1.0
 70
    24
 71
     3
 72
    10
 73
     6
 74
     0
 42
0.00000001
 43
0.00000001
 40
0.0
 40
0.0
 40
0.0
 40
0.0
 40
0.5
 40
0.5
 40
1.0
 40
1.0
 40
1.0
 40
1.0
 10
168.096479571775
 20
444.3438650823973
 30
0.0
 10
168.096479571775
 20
444.3438650823973
 30
0.0
 10
168.096479571775
 20
444.4516381787875
 30
0.0
 10
168.096479571775
 20
444.8218784236341
 30
0.0
 10
168.096479571775
 20
445.0820656945982
 30
0.0
 10
168.096479571775
 20
445.3438650823973
 30
0.0
  0
SPLINE
  5
CB
330
1F
100
AcDbEntity
  8
0
  6
Continuous
 62
     8
370
    18
100
AcDbSpline
210
0.0
220
0.0
230
1.0
 70
    24
 71
     3
 72
    10
 73
     6
 74
     0
 42
0.00000001
 43
0.00000001
 40
0.0
 40
0.0
 40
0.0
 40
0.0
 40
0.5
 40
0.5
 40
1.0
 40
1.0
 40
1.0
 40
1.0
 10
146.6997202051586
 20
445.3438650823973
 30
0.0
 10
146.6997202051586
 20
445.0820656945982
 30
0.0
 10
146.6997202051586
 20
444.8218784236341
 30
0.0
 10
146.6997202051586
 20
444.4516381787875
 30
0.0
 10
146.6997202051586
 20
444.3438650823973
 30
0.0
 10
146.6997202051586
 20
444.3438650823973
 30
0.0
  0
SPLINE
  5
CC
330
1F
100
AcDbEntity
  8
0
  6
Continuous
 62
     8
370
    18
100
AcDbSpline
210
0.0
220
0.0
230
1.0
 70
     8
 71
     3
 72
    12
 73
     8
 74
     0
 42
0.00000001
 43
0.00000001
 40
8.172668223544306
 40
8.172668223544306
 40
8.172668223544306
 40
8.172668223544306
 40
8.176115058065218
 40
8.176115058065218
 40
8.468667056942998
 40
8.468667056942998
 40
8.487454801976572
 40
8.487454801976572
 40
8.487454801976572
 40
8.487454801976572
 10
139.7271296904547
 20
470.25681638233
 30
0.0
 10
139.727495256437
 20
470.2560338290319
 30
0.0
 10
139.727860601689
 20
470.2552512081687
 30
0.0
 10
139.7592159416867
 20
470.1880372604349
 30
0.0
 10
139.7885523982427
 20
470.1212632576353
 30
0.0
 10
139.8180962378444
 20
470.049689428585
 30
0.0
 10
139.8198729947224
 20
470.045367130745
 30
0.0
 10
139.821643297992
 20
470.0410427098
 30
0.0
  0
SPLINE
  5
CD
330
1F
100
AcDbEntity
  8
0
  6
Continuous
 62
     8
370
    18
100
AcDbSpline
210
0.0
220
0.0
230
1.0
 70
     8
 71
     3
 72
    16
 73
    12
 74
     0
 42
0.00000001
 43
0.00000001
 40
8.487454801976607
 40
8.487454801976607
 40
8.487454801976607
 40
8.487454801976607
 40
8.505695716722828
 40
8.505695716722828
 40
8.523980216652689
 40
8.523980216652689
 40
8.54226471658255
 40
8.54226471658255
 40
8.57883371644228
 40
8.57883371644228
 40
8.648524881640771
 40
8.648524881640771
 40
8.648524881640771
 40
8.648524881640771
 10
139.6743611611074
 20
470.3662372911588
 30
0.0
 10
139.6764195347033
 20
470.3620970399929
 30
0.0
 10
139.6784686066166
 20
470.3579596839771
 30
0.0
 10
139.6825460583647
 20
470.3497067631898
 30
0.0
 10
139.6845795379787
 20
470.3455764981035
 30
0.0
 10
139.6886385015967
 20
470.3373029478855
 30
0.0
 10
139.6906540517897
 20
470.3331799951874
 30
0.0
 10
139.6966926278167
 20
470.3207839443886
 30
0.0
 10
139.7007017794607
 20
470.3124950775132
 30
0.0
 10
139.712256779
 20
470.28843347822
 30
0.0
 10
139.7197383523715
 20
470.2726387407396
 30
0.0
 10
139.7271296904547
 20
470.25681638233
 30
0.0
  0
SPLINE
  5
CE
330
1F
100
AcDbEntity
  8
0
  6
Continuous
 62
     8
370
    18
100
AcDbSpline
210
0.0
220
0.0
230
1.0
 70
     8
 71
     3
 72
    16
 73
    12
 74
     0
 42
0.00000001
 43
0.00000001
 40
8.648524881646212
 40
8.648524881646212
 40
8.648524881646212
 40
8.648524881646212
 40
8.673847827925675
 40
8.673847827925675
 40
8.746985827645116
 40
8.746985827645116
 40
8.783554827504846
 40
8.783554827504846
 40
8.801839327434706
 40
8.801839327434706
 40
8.801882912612903
 40
8.801882912612903
 40
8.801882912612903
 40
8.801882912612903
 10
139.6210116044457
 20
470.4705709029622
 30
0.0
 10
139.6240300289616
 20
470.4648283277914
 30
0.0
 10
139.6270384653994
 20
470.4590774368195
 30
0.0
 10
139.6386756503727
 20
470.4367345460738
 30
0.0
 10
139.6471872584967
 20
470.4201771815108
 30
0.0
 10
139.6598228969956
 20
470.3952695035142
 30
0.0
 10
139.6639907812227
 20
470.3869983194683
 30
0.0
 10
139.6702210992067
 20
470.3745508620721
 30
0.0
 10
139.6722830695487
 20
470.3704171273437
 30
0.0
 10
139.6743513244207
 20
470.366257076764
 30
0.0
 10
139.6743562427897
 20
470.366247183955
 30
0.0
 10
139.6743611611055
 20
470.3662372911625
 30
0.0
  0
SPLINE
  5
CF
330
1F
100
AcDbEntity
  8
0
  6
Continuous
 62
     8
370
    18
100
AcDbSpline
210
0.0
220
0.0
230
1.0
 70
     8
 71
     3
 72
    18
 73
    14
 74
     0
 42
0.00000001
 43
0.00000001
 40
8.801882912619199
 40
8.801882912619199
 40
8.801882912619199
 40
8.801882912619199
 40
8.809500601130553
 40
8.809500601130553
 40
8.818642851095484
 40
8.818642851095484
 40
8.836927351025343
 40
8.836927351025343
 40
8.910065350744784
 40
8.910065350744784
 40
8.946634350604514
 40
8.946634350604514
 40
8.957880404178475
 40
8.957880404178475
 40
8.957880404178475
 40
8.957880404178475
 10
139.5640851229633
 20
470.575757758782
 30
0.0
 10
139.5650299167117
 20
470.5740624762803
 30
0.0
 10
139.5659749928163
 20
470.5723645524761
 30
0.0
 10
139.5680406478177
 20
470.5686470505042
 30
0.0
 10
139.5691782730377
 20
470.5665946015572
 30
0.0
 10
139.5725719880587
 20
470.5604635329103
 30
0.0
 10
139.5748220837007
 20
470.5563847339704
 30
0.0
 10
139.5860738505147
 20
470.5359203787531
 30
0.0
 10
139.5949857268867
 20
470.5194922139775
 30
0.0
 10
139.6082253568477
 20
470.4947523622674
 30
0.0
 10
139.6126145168787
 20
470.4864943224101
 30
0.0
 10
139.6183286381072
 20
470.4756698784932
 30
0.0
 10
139.619671106247
 20
470.4731212107905
 30
0.0
 10
139.6210116044434
 20
470.4705709029665
 30
0.0
  0
SPLINE
  5
D0
330
1F
100
AcDbEntity
  8
0
  6
Continuous
 62
     8
370
    18
100
AcDbSpline
210
0.0
220
0.0
230
1.0
 70
     8
 71
     3
 72
    18
 73
    14
 74
     0
 42
0.00000001
 43
0.00000001
 40
8.957880404168646
 40
8.957880404168646
 40
8.957880404168646
 40
8.957880404168646
 40
8.963411976457541
 40
8.963411976457541
 40
8.97255422642247
 40
8.97255422642247
 40
9.0091232262822
 40
9.0091232262822
 40
9.082261226001641
 40
9.082261226001641
 40
9.11883022586136
 40
9.11883022586136
 40
9.120354787324775
 40
9.120354787324775
 40
9.120354787324775
 40
9.120354787324775
 10
139.5021831157282
 20
470.683815446883
 30
0.0
 10
139.5029060041915
 20
470.6825848618578
 30
0.0
 10
139.503628131962
 20
470.6813547761257
 30
0.0
 10
139.5055315079217
 20
470.6781142891331
 30
0.0
 10
139.5067199485467
 20
470.6760883206381
 30
0.0
 10
139.5126380970397
 20
470.6659836423726
 30
0.0
 10
139.5173509968287
 20
470.6578883592404
 30
0.0
 10
139.5314076165197
 20
470.6335966967366
 30
0.0
 10
139.5406787403677
 20
470.6173783732415
 30
0.0
 10
139.5544322297247
 20
470.5930189185441
 30
0.0
 10
139.5589842226567
 20
470.5849063042878
 30
0.0
 10
139.5637069628304
 20
470.5764362216489
 30
0.0
 10
139.563896037244
 20
470.5760970431093
 30
0.0
 10
139.564085122967
 20
470.5757577587755
 30
0.0
  0
SPLINE
  5
D1
330
1F
100
AcDbEntity
  8
0
  6
Continuous
 62
     8
370
    18
100
AcDbSpline
210
0.0
220
0.0
230
1.0
 70
     8
 71
     3
 72
    22
 73
    18
 74
     0
 42
0.00000001
 43
0.00000001
 40
9.120354787332598
 40
9.120354787332598
 40
9.120354787332598
 40
9.120354787332598
 40
9.15692378719232
 40
9.15692378719232
 40
9.175208287122178
 40
9.175208287122178
 40
9.193492787052039
 40
9.193492787052039
 40
9.230061786911758
 40
9.230061786911758
 40
9.266630786771488
 40
9.266630786771488
 40
9.339768786490929
 40
9.339768786490929
 40
9.35805328642079
 40
9.35805328642079
 40
9.361663964089
 40
9.361663964089
 40
9.361663964089
 40
9.361663964089
 10
139.4015065149947
 20
470.8509774115888
 30
0.0
 10
139.4070104147087
 20
470.841935608255
 30
0.0
 10
139.4124612499087
 20
470.8329531295025
 30
0.0
 10
139.4205352758586
 20
470.8196528105881
 30
0.0
 10
139.4232099697057
 20
470.8152474408016
 30
0.0
 10
139.4285007037107
 20
470.8065400176111
 30
0.0
 10
139.4311205355397
 20
470.8022333764033
 30
0.0
 10
139.4389436709347
 20
470.7893618065643
 30
0.0
 10
139.4440690713957
 20
470.7809221165287
 30
0.0
 10
139.4542436410167
 20
470.7641246164567
 30
0.0
 10
139.4592695798917
 20
470.7558018023091
 30
0.0
 10
139.4742077001097
 20
470.7309891475153
 30
0.0
 10
139.4839577473967
 20
470.7146792889645
 30
0.0
 10
139.4959744061477
 20
470.6943611099022
 30
0.0
 10
139.4983802927767
 20
470.6902821366186
 30
0.0
 10
139.5012390754027
 20
470.6854221633921
 30
0.0
 10
139.5017112576178
 20
470.6846186987734
 30
0.0
 10
139.5021831157252
 20
470.6838154468882
 30
0.0
  0
SPLINE
  5
D2
330
1F
100
AcDbEntity
  8
0
  6
Continuous
 62
     8
370
    18
100
AcDbSpline
210
0.0
220
0.0
230
1.0
 70
     8
 71
     3
 72
     9
 73
     5
 74
     0
 42
0.00000001
 43
0.00000001
 40
0.0
 40
0.0
 40
0.0
 40
0.0
 40
0.479672523675569
 40
1.0
 40
1.0
 40
1.0
 40
1.0
 10
175.302578249408
 20
470.6827507278558
 30
0.0
 10
175.3176050253645
 20
470.7088097435948
 30
0.0
 10
175.3489321813194
 20
470.763136423679
 30
0.0
 10
175.3837565990632
 20
470.8225161939517
 30
0.0
 10
175.4018767004624
 20
470.8534131199625
 30
0.0
  0
SPLINE
  5
D3
330
1F
100
AcDbEntity
  8
0
  6
Continuous
 62
     8
370
    18
100
AcDbSpline
210
0.0
220
0.0
230
1.0
 70
     8
 71
     3
 72
     9
 73
     5
 74
     0
 42
0.00000001
 43
0.00000001
 40
0.0
 40
0.0
 40
0.0
 40
0.0
 40
0.900087510103297
 40
0.9999999999999999
 40
0.9999999999999999
 40
0.9999999999999999
 40
0.9999999999999999
 10
175.2403928027664
 20
470.571464179466
 30
0.0
 10
175.2588290151193
 20
470.6048855674696
 30
0.0
 10
175.279311703909
 20
470.6420168326283
 30
0.0
 10
175.300464791735
 20
470.6790505926802
 30
0.0
 10
175.3025782494087
 20
470.6827507278572
 30
0.0
  0
LWPOLYLINE
  5
D4
330
1F
100
AcDbEntity
  8
0
  6
Continuous
 62
     8
370
    18
100
AcDbPolyline
 90
        3
 70
   128
 43
0.0
 10
175.1710508514
 20
470.4634192865
 10
175.1995944029
 20
470.5171355498
 10
175.2287460339
 20
470.5704057915
  0
LWPOLYLINE
  5
D5
330
1F
100
AcDbEntity
  8
0
  6
Continuous
 62
     8
370
    18
100
AcDbPolyline
 90
        3
 70
   128
 43
0.0
 10
175.116389204
 20
470.3560133351
 10
175.1433232934
 20
470.4097077979
 10
175.1710508514
 20
470.4634192865
  0
SPLINE
  5
D6
330
1F
100
AcDbEntity
  8
0
  6
Continuous
 62
     8
370
    18
100
AcDbSpline
210
0.0
220
0.0
230
1.0
 70
     8
 71
     3
 72
     9
 73
     5
 74
     0
 42
0.00000001
 43
0.00000001
 40
0.0
 40
0.0
 40
0.0
 40
0.0
 40
0.5215921636478461
 40
1.0
 40
1.0
 40
1.0
 40
1.0
 10
174.9777405795789
 20
470.0218448626694
 30
0.0
 10
175.0023877599429
 20
470.0803380360644
 30
0.0
 10
175.0496414997069
 20
470.1924815410318
 30
0.0
 10
175.103140656201
 20
470.3031585883466
 30
0.0
 10
175.1287350719061
 20
470.3561073550863
 30
0.0
  0
LINE
  5
D7
330
1F
100
AcDbEntity
  8
0
  6
Continuous
 62
     8
370
    18
100
AcDbLine
 10
174.6120006212
 20
468.6072696228
 30
0.0
 11
174.9668383223
 21
470.0229789153
 31
0.0
  0
ARC
  5
D8
330
1F
100
AcDbEntity
  8
0
  6
Continuous
 62
     8
370
    18
100
AcDbCircle
 10
174.6193639577
 20
486.477638849
 30
0.0
 40
1.725144280448992
100
AcDbArc
 50
63.1846021029
 51
98.3440939803
  0
LINE
  5
D9
330
1F
100
AcDbEntity
  8
0
  6
Continuous
 62
     8
370
    18
100
AcDbLine
 10
174.3690150169
 20
486.2046359724
 30
0.0
 11
174.3690150169
 21
488.1845214419
 31
0.0
  0
LINE
  5
DA
330
1F
100
AcDbEntity
  8
0
  6
Continuous
 62
     8
370
    18
100
AcDbLine
 10
140.4262561378
 20
488.1845214388
 30
0.0
 11
140.4262561378
 21
486.2046359724
 31
0.0
  0
ARC
  5
DB
330
1F
100
AcDbEntity
  8
0
  6
Continuous
 62
     8
370
    18
100
AcDbCircle
 10
140.1759071971
 20
486.4776388419
 30
0.0
 40
1.725144281375843
100
AcDbArc
 50
81.6559060272
 51
116.8153978849
  0
LINE
  5
DC
330
1F
100
AcDbEntity
  8
0
  6
Continuous
 62
     8
370
    18
100
AcDbLine
 10
140.426256137
 20
488.1845214386
 30
0.0
 11
157.3976355773
 21
488.184521442
 31
0.0
  0
LINE
  5
DD
330
1F
100
AcDbEntity
  8
0
  6
Continuous
 62
     8
370
    18
100
AcDbLine
 10
157.3976355773
 20
488.1845214389
 30
0.0
 11
174.3690150177
 21
488.1845214372
 31
0.0
  0
LINE
  5
DE
330
1F
100
AcDbEntity
  8
0
  6
Continuous
 62
     8
370
    18
100
AcDbLine
 10
140.4262561377
 20
489.0458606123
 30
0.0
 11
140.4262561378
 21
488.1845214384
 31
0.0
  0
LINE
  5
DF
330
1F
100
AcDbEntity
  8
0
  6
Continuous
 62
     8
370
    18
100
AcDbLine
 10
174.3690150169
 20
488.1845214415
 30
0.0
 11
174.3690150169
 21
489.0458606123
 31
0.0
  0
LINE
  5
E0
330
1F
100
AcDbEntity
  8
0
  6
Continuous
 62
     8
370
    18
100
AcDbLine
 10
157.3976355773
 20
488.184521442
 30
0.0
 11
157.3976355773
 21
489.0458606158
 31
0.0
  0
LINE
  5
E1
330
1F
100
AcDbEntity
  8
0
  6
Continuous
 62
     8
370
    18
100
AcDbLine
 10
180.4980280891
 20
359.2751985973
 30
0.0
 11
180.4980280891
 21
363.2751985979
 31
0.0
  0
LINE
  5
E2
330
1F
100
AcDbEntity
  8
0
  6
Continuous
 62
     8
370
    18
100
AcDbLine
 10
181.4980280891
 20
363.2751985979
 30
0.0
 11
180.4980280891
 21
363.2751985979
 31
0.0
  0
LINE
  5
E3
330
1F
100
AcDbEntity
  8
0
  6
Continuous
 62
     8
370
    18
100
AcDbLine
 10
180.4980280891
 20
364.2751985979
 30
0.0
 11
180.4980280891
 21
363.2751985979
 31
0.0
  0
LINE
  5
E4
330
1F
100
AcDbEntity
  8
0
  6
Continuous
 62
     8
370
    18
100
AcDbLine
 10
180.4980280891
 20
363.2751985979
 30
0.0
 11
134.2980280891
 21
363.2751985979
 31
0.0
  0
LINE
  5
E5
330
1F
100
AcDbEntity
  8
0
  6
Continuous
 62
     8
370
    18
100
AcDbLine
 10
134.2980280891
 20
364.2751985979
 30
0.0
 11
134.2980280891
 21
363.2751985979
 31
0.0
  0
LINE
  5
E6
330
1F
100
AcDbEntity
  8
0
  6
Continuous
 62
     8
370
    18
100
AcDbLine
 10
134.2980280891
 20
363.2751985979
 30
0.0
 11
134.2980280891
 21
359.2751985973
 31
0.0
  0
LINE
  5
E7
330
1F
100
AcDbEntity
  8
0
  6
Continuous
 62
     8
370
    18
100
AcDbLine
 10
133.2980280891
 20
363.2751985979
 30
0.0
 11
134.2980280891
 21
363.2751985979
 31
0.0
  0
LINE
  5
E8
330
1F
100
AcDbEntity
  8
0
  6
Continuous
 62
     8
370
    18
100
AcDbLine
 10
134.3980329698
 20
364.2751985979
 30
0.0
 11
136.2361781752
 21
364.6258129819
 31
0.0
  0
LINE
  5
E9
330
1F
100
AcDbEntity
  8
0
  6
Continuous
 62
     8
370
    18
100
AcDbLine
 10
139.3980330635
 20
369.2751987712
 30
0.0
 11
139.3980330635
 21
380.2751987338
 31
0.0
  0
LINE
  5
EA
330
1F
100
AcDbEntity
  8
0
  6
Continuous
 62
     8
370
    18
100
AcDbLine
 10
139.3980325937
 20
369.2751987712
 30
0.0
 11
139.3980330635
 21
369.2751987712
 31
0.0
  0
LINE
  5
EB
330
1F
100
AcDbEntity
  8
0
  6
Continuous
 62
     7
370
    25
100
AcDbLine
 10
139.4148375068
 20
270.2056733293
 30
0.0
 11
139.4001293702
 21
269.4207477978
 31
0.0
  0
SPLINE
  5
EC
330
1F
100
AcDbEntity
  8
0
  6
Continuous
 62
     7
370
    25
100
AcDbSpline
210
0.0
220
0.0
230
1.0
 70
     8
 71
     3
 72
    12
 73
     8
 74
     0
 42
0.00000001
 43
0.00000001
 40
0.0
 40
0.0
 40
0.0
 40
0.0
 40
0.0600108557798614
 40
0.2768902772588813
 40
0.4892058280781625
 40
0.6954826849494172
 40
1.0
 40
1.0
 40
1.0
 40
1.0
 10
139.4257794613861
 20
169.7008003471713
 30
0.0
 10
139.4247061886479
 20
169.6818271440093
 30
0.0
 10
139.4197541048591
 20
169.594284724963
 30
0.0
 10
139.448409059412
 20
169.4352003814308
 30
0.0
 10
139.5126071168135
 20
169.2405041883936
 30
0.0
 10
139.6222549414726
 20
169.0315393032204
 30
0.0
 10
139.7455773424217
 20
168.9276255065742
 30
0.0
 10
139.8190977709757
 20
168.8656757974921
 30
0.0
  0
SPLINE
  5
ED
330
1F
100
AcDbEntity
  8
0
  6
Continuous
 62
     7
370
    25
100
AcDbSpline
210
0.0
220
0.0
230
1.0
 70
     8
 71
     3
 72
    12
 73
     8
 74
     0
 42
0.00000001
 43
0.00000001
 40
0.0
 40
0.0
 40
0.0
 40
0.0
 40
0.3034558529679964
 40
0.5100624173104237
 40
0.7227101278259501
 40
0.939922852030274
 40
0.9999999999999999
 40
0.9999999999999999
 40
0.9999999999999999
 40
0.9999999999999999
 10
174.9772728992108
 20
168.8667362899715
 30
0.0
 10
175.0504085559703
 20
168.9283824524045
 30
0.0
 10
175.1733382985128
 20
169.0320001296416
 30
0.0
 10
175.2827084011467
 20
169.2405466959094
 30
0.0
 10
175.3469073078727
 20
169.4352221612367
 30
0.0
 10
175.3755548761978
 20
169.5942853106619
 30
0.0
 10
175.3706032145247
 20
169.6818096682223
 30
0.0
 10
175.369530396002
 20
169.7007725453692
 30
0.0
  0
LINE
  5
EE
330
1F
100
AcDbEntity
  8
0
  6
Continuous
 62
     7
370
    25
100
AcDbLine
 10
175.3951417845
 20
269.420747798
 30
0.0
 11
175.3804336479
 21
270.2056733293
 31
0.0
  0
LINE
  5
EF
330
1F
100
AcDbEntity
  8
0
  6
Continuous
 62
     7
370
    18
100
AcDbLine
 10
157.3976355774
 20
169.8324956148
 30
0.0
 11
174.3689800901
 21
169.8324956143
 31
0.0
  0
LINE
  5
F0
330
1F
100
AcDbEntity
  8
0
  6
Continuous
 62
     7
370
    18
100
AcDbLine
 10
140.4262212091
 20
169.8324956143
 30
0.0
 11
157.3976355774
 21
169.8324956148
 31
0.0
  0
SPLINE
  5
F1
330
1F
100
AcDbEntity
  8
0
  6
Continuous
 62
     7
370
    18
100
AcDbSpline
210
0.0
220
0.0
230
1.0
 70
     8
 71
     3
 72
    23
 73
    19
 74
     0
 42
0.00000001
 43
0.00000001
 40
0.0
 40
0.0
 40
0.0
 40
0.0
 40
1.736884773864148
 40
3.473769547728295
 40
5.210654321592443
 40
6.947539095456591
 40
8.684423869320739
 40
10.42130864318489
 40
12.15819341704903
 40
13.89507819091318
 40
15.63196296477733
 40
17.36884773864148
 40
19.10573251250563
 40
20.84261728636977
 40
52.39352589075726
 40
83.94443449514475
 40
92.75701556081138
 40
101.569596626478
 40
101.569596626478
 40
101.569596626478
 40
101.569596626478
 10
140.4262212101975
 20
270.202307673417
 30
0.0
 10
140.4262210582302
 20
269.6310961942181
 30
0.0
 10
140.4262207300864
 20
268.4882803772492
 30
0.0
 10
140.4262202023837
 20
266.7764007231584
 30
0.0
 10
140.4262196763586
 20
265.0639186173819
 30
0.0
 10
140.4262191891541
 20
263.3516490328458
 30
0.0
 10
140.4262187779297
 20
261.6393937790067
 30
0.0
 10
140.4262184798309
 20
259.9272403189507
 30
0.0
 10
140.4262183320153
 20
258.2151425065275
 30
0.0
 10
140.426218371632
 20
256.5032989688431
 30
0.0
 10
140.4262186358385
 20
254.7910587905347
 30
0.0
 10
140.4262191617809
 20
253.078748371682
 30
0.0
 10
140.4262199866126
 20
251.366453491346
 30
0.0
 10
140.4262277897414
 20
239.8584510120933
 30
0.0
 10
140.4262867353337
 20
218.4527948460744
 30
0.0
 10
140.4263154448089
 20
194.7943597359331
 30
0.0
 10
140.4262620737324
 20
178.5586255563773
 30
0.0
 10
140.4262354310985
 20
172.7414144470345
 30
0.0
 10
140.4262212091136
 20
169.8324472464748
 30
0.0
  0
LINE
  5
F2
330
1F
100
AcDbEntity
  8
0
  6
Continuous
 62
     7
370
    18
100
AcDbLine
 10
157.3976355775
 20
270.2023076734
 30
0.0
 11
140.4262212102
 21
270.2023076734
 31
0.0
  0
LINE
  5
F3
330
1F
100
AcDbEntity
  8
0
  6
Continuous
 62
     7
370
    18
100
AcDbLine
 10
174.3689800904
 20
270.2023076734
 30
0.0
 11
157.3976355775
 21
270.2023076734
 31
0.0
  0
LINE
  5
F4
330
1F
100
AcDbEntity
  8
0
  6
Continuous
 62
     7
370
    18
100
AcDbLine
 10
174.3689800901
 20
169.8324472465
 30
0.0
 11
174.3689800904
 21
270.2023076734
 31
0.0
  0
ARC
  5
F5
330
1F
100
AcDbEntity
  8
0
  6
Continuous
 62
     7
370
    18
100
AcDbCircle
 10
140.1691123668
 20
334.4928800831
 30
0.0
 40
64.2910866581555
100
AcDbArc
 50
269.3124744848
 51
270.2291653905
  0
SPLINE
  5
F6
330
1F
100
AcDbEntity
  8
0
  6
Continuous
 62
     7
370
    18
100
AcDbSpline
210
0.0
220
0.0
230
1.0
 70
     8
 71
     3
 72
    10
 73
     6
 74
     0
 42
0.00000001
 43
0.00000001
 40
0.0
 40
0.0
 40
0.0
 40
0.0
 40
0.5
 40
0.5
 40
1.0
 40
1.0
 40
1.0
 40
1.0
 10
139.7656619337433
 20
169.7933955704747
 30
0.0
 10
139.8627627077695
 20
169.8066245314535
 30
0.0
 10
139.9742571255441
 20
169.8167076722014
 30
0.0
 10
140.2020424590809
 20
169.8295989200165
 30
0.0
 10
140.3179192877537
 20
169.8324472465262
 30
0.0
 10
140.4262561359035
 20
169.8324472464748
 30
0.0
  0
SPLINE
  5
F7
330
1F
100
AcDbEntity
  8
0
  6
Continuous
 62
     7
370
    18
100
AcDbSpline
210
0.0
220
0.0
230
1.0
 70
     8
 71
     3
 72
     8
 73
     4
 74
     0
 42
0.00000001
 43
0.00000001
 40
0.0
 40
0.0
 40
0.0
 40
0.0
 40
1.0
 40
1.0
 40
1.0
 40
1.0
 10
139.3976645901392
 20
270.2064220066871
 30
0.0
 10
139.5025693101336
 20
236.7289944786797
 30
0.0
 10
139.6222280268873
 20
203.2564318145677
 30
0.0
 10
139.7656619337433
 20
169.7933955704747
 30
0.0
  0
SPLINE
  5
F8
330
1F
100
AcDbEntity
  8
0
  6
Continuous
 62
     7
370
    25
100
AcDbSpline
210
0.0
220
0.0
230
1.0
 70
     8
 71
     3
 72
     9
 73
     5
 74
     0
 42
0.00000001
 43
0.00000001
 40
0.0
 40
0.0
 40
0.0
 40
0.0
 40
0.9376853652102407
 40
1.0
 40
1.0
 40
1.0
 40
1.0
 10
139.3976645901393
 20
169.6651948777411
 30
0.0
 10
139.3980360369887
 20
169.6766685611967
 30
0.0
 10
139.3984321686372
 20
169.6889047375105
 30
0.0
 10
139.421610509214
 20
169.7003652764032
 30
0.0
 10
139.4230548590421
 20
169.7010794356988
 30
0.0
  0
SPLINE
  5
F9
330
1F
100
AcDbEntity
  8
0
  6
Continuous
 62
     7
370
    18
100
AcDbSpline
210
0.0
220
0.0
230
1.0
 70
     8
 71
     3
 72
    16
 73
    12
 74
     0
 42
0.00000001
 43
0.00000001
 40
0.0
 40
0.0
 40
0.0
 40
0.0
 40
0.1445578844925529
 40
0.2820183326617268
 40
0.4115521941843813
 40
0.5325416620284427
 40
0.6445656509225017
 40
0.7473756175406338
 40
0.8408661968057106
 40
0.9250443774193379
 40
1.0
 40
1.0
 40
1.0
 40
1.0
 10
175.0297556749974
 20
169.7934239819062
 30
0.0
 10
175.0026087436225
 20
169.7969303970681
 30
0.0
 10
174.9496477283857
 20
169.8037710710379
 30
0.0
 10
174.8652073545798
 20
169.8122532711685
 30
0.0
 10
174.7818742825381
 20
169.8190771821253
 30
0.0
 10
174.7008798642865
 20
169.8242402963218
 30
0.0
 10
174.6237912391983
 20
169.8279267065114
 30
0.0
 10
174.5516556606328
 20
169.8303497260374
 30
0.0
 10
174.485233529547
 20
169.8317467281001
 30
0.0
 10
174.4249946379414
 20
169.8324093626185
 30
0.0
 10
174.3869397379057
 20
169.8324679967668
 30
0.0
 10
174.3690150187879
 20
169.8324956147775
 30
0.0
  0
LINE
  5
FA
330
1F
100
AcDbEntity
  8
0
  6
Continuous
 62
     7
370
    18
100
AcDbLine
 10
175.3956034406
 20
269.659842675
 30
0.0
 11
175.0296092209
 21
169.7933955705
 31
0.0
  0
SPLINE
  5
FB
330
1F
100
AcDbEntity
  8
0
  6
Continuous
 62
     7
370
    18
100
AcDbSpline
210
0.0
220
0.0
230
1.0
 70
     8
 71
     3
 72
    20
 73
    16
 74
     0
 42
0.00000001
 43
0.00000001
 40
0.0
 40
0.0
 40
0.0
 40
0.0
 40
0.2499999999999952
 40
0.2499999999999952
 40
0.4999999999999903
 40
0.4999999999999903
 40
0.7499999999999856
 40
0.7499999999999856
 40
0.8749999999999785
 40
0.8749999999999785
 40
0.937499999999988
 40
0.937499999999988
 40
0.9687499999999939
 40
0.9687499999999939
 40
1.0
 40
1.0
 40
1.0
 40
1.0
 10
174.3690150169246
 20
270.2023076734182
 30
0.0
 10
174.4902356931198
 20
270.2023076734242
 30
0.0
 10
174.6210176407747
 20
270.2023960441192
 30
0.0
 10
174.874250605742
 20
270.202797051405
 30
0.0
 10
174.9959165778305
 20
270.2031110469821
 30
0.0
 10
175.196761570286
 20
270.203914420525
 30
0.0
 10
175.2752610920115
 20
270.204401080518
 30
0.0
 10
175.3504505581729
 20
270.2051607733297
 30
0.0
 10
175.3686507686198
 20
270.20541863862
 30
0.0
 10
175.3863265243953
 20
270.2058007057727
 30
0.0
 10
175.390625975389
 20
270.2059272950965
 30
0.0
 10
175.3948557361512
 20
270.206114825834
 30
0.0
 10
175.3958962424225
 20
270.2061769459547
 30
0.0
 10
175.3972716453315
 20
270.2063002314605
 30
0.0
 10
175.3976065626888
 20
270.2063546860742
 30
0.0
 10
175.3976065626888
 20
270.206422006687
 30
0.0
  0
LINE
  5
FC
330
1F
100
AcDbEntity
  8
0
  6
Continuous
 62
     7
370
    25
100
AcDbLine
 10
139.397664592
 20
270.0986434509
 30
0.0
 11
139.397664592
 21
169.6651948777
 31
0.0
  0
LINE
  5
FD
330
1F
100
AcDbEntity
  8
0
  6
Continuous
 62
     7
370
    25
100
AcDbLine
 10
139.3976645901
 20
270.2071719516
 30
0.0
 11
139.3976645901
 21
270.2144219422
 31
0.0
  0
LINE
  5
FE
330
1F
100
AcDbEntity
  8
0
  6
Continuous
 62
     7
370
    25
100
AcDbLine
 10
175.3976065627
 20
270.2064220067
 30
0.0
 11
175.3976065627
 21
270.2124269537
 31
0.0
  0
LINE
  5
FF
330
1F
100
AcDbEntity
  8
0
  6
Continuous
 62
     7
370
    25
100
AcDbLine
 10
175.3976065627
 20
269.99013495
 30
0.0
 11
175.3976065627
 21
169.6651948777
 31
0.0
  0
LINE
  5
100
330
1F
100
AcDbEntity
  8
0
  6
Continuous
 62
     7
370
    25
100
AcDbLine
 10
140.4262757304
 20
168.3238795003
 30
0.0
 11
174.3689025938
 21
168.3239067807
 31
0.0
  0
SPLINE
  5
101
330
1F
100
AcDbEntity
  8
0
  6
Continuous
 62
     7
370
    25
100
AcDbSpline
210
0.0
220
0.0
230
1.0
 70
     8
 71
     3
 72
    14
 73
    10
 74
     0
 42
0.00000001
 43
0.00000001
 40
0.0
 40
0.0
 40
0.0
 40
0.0
 40
0.25
 40
0.25
 40
0.5
 40
0.5
 40
0.75
 40
0.75
 40
1.0
 40
1.0
 40
1.0
 40
1.0
 10
174.368902591838
 20
168.3239067868252
 30
0.0
 10
174.5035672554808
 20
168.3235139001285
 30
0.0
 10
174.6381818263836
 20
168.3495450928075
 30
0.0
 10
174.8870142285466
 20
168.4504737277646
 30
0.0
 10
175.0011340901099
 20
168.5253311347254
 30
0.0
 10
175.1915746762678
 20
168.7124884306815
 30
0.0
 10
175.2678204210513
 20
168.8247143346178
 30
0.0
 10
175.370866837936
 20
169.0694827106214
 30
0.0
 10
175.3976269388489
 20
169.2019285151333
 30
0.0
 10
175.3976065509267
 20
169.3344226333358
 30
0.0
  0
LINE
  5
102
330
1F
100
AcDbEntity
  8
0
  6
Continuous
 62
     7
370
    25
100
AcDbLine
 10
175.3976065627
 20
169.665243248
 30
0.0
 11
175.3976065627
 21
169.3326604187
 31
0.0
  0
SPLINE
  5
103
330
1F
100
AcDbEntity
  8
0
  6
Continuous
 62
     7
370
    25
100
AcDbSpline
210
0.0
220
0.0
230
1.0
 70
     8
 71
     3
 72
    14
 73
    10
 74
     0
 42
0.00000001
 43
0.00000001
 40
0.0
 40
0.0
 40
0.0
 40
0.0
 40
0.25
 40
0.25
 40
0.5
 40
0.5
 40
0.75
 40
0.75
 40
1.0
 40
1.0
 40
1.0
 40
1.0
 10
139.3976646083871
 20
169.3344989180211
 30
0.0
 10
139.3976405477115
 20
169.202003803071
 30
0.0
 10
139.4243948039804
 20
169.0695562708801
 30
0.0
 10
139.5274263850806
 20
168.8247807157306
 30
0.0
 10
139.6036631510442
 20
168.7125493427346
 30
0.0
 10
139.7940849120999
 20
168.525375890688
 30
0.0
 10
139.9081949467677
 20
168.4505077862604
 30
0.0
 10
140.1570096961221
 20
168.349552288228
 30
0.0
 10
140.2916164637093
 20
168.323504929142
 30
0.0
 10
140.4262757304747
 20
168.3238795005709
 30
0.0
  0
LINE
  5
104
330
1F
100
AcDbEntity
  8
0
  6
Continuous
 62
     7
370
    25
100
AcDbLine
 10
139.397664592
 20
169.3326604187
 30
0.0
 11
139.397664592
 21
169.6652432479
 31
0.0
  0
SPLINE
  5
105
330
1F
100
AcDbEntity
  8
0
  6
Continuous
 62
     7
370
    25
100
AcDbSpline
210
0.0
220
0.0
230
1.0
 70
     8
 71
     3
 72
    12
 73
     8
 74
     0
 42
0.00000001
 43
0.00000001
 40
0.0
 40
0.0
 40
0.0
 40
0.0
 40
0.5
 40
0.5
 40
0.75
 40
0.75
 40
1.0
 40
1.0
 40
1.0
 40
1.0
 10
140.1605431160131
 20
271.2196463936151
 30
0.0
 10
139.9501252000991
 20
271.1629561958756
 30
0.0
 10
139.7584100598586
 20
271.037921619448
 30
0.0
 10
139.5524054354726
 20
270.7781724446855
 30
0.0
 10
139.4967291405341
 20
270.6796174705038
 30
0.0
 10
139.4189184039766
 20
270.4618949512927
 30
0.0
 10
139.3976658920284
 20
270.3450552078514
 30
0.0
 10
139.3976645920426
 20
270.2237850242608
 30
0.0
  0
ELLIPSE
  5
106
330
1F
100
AcDbEntity
  8
0
  6
Continuous
 62
     7
370
    25
100
AcDbEllipse
 10
140.4262561373
 20
270.2263527114
 30
0.0
 11
1.028591545345336
 21
-2.057618075923529E-9
 31
0.0
210
0.0
220
0.0
230
1.0
 40
0.9996126348
 41
1.570796328383772
 42
1.832086402291868
  0
LINE
  5
107
330
1F
100
AcDbEntity
  8
0
  6
Continuous
 62
     7
370
    25
100
AcDbLine
 10
140.4262561378
 20
271.2545458162
 30
0.0
 11
174.3690150162
 21
271.2545458162
 31
0.0
  0
SPLINE
  5
108
330
1F
100
AcDbEntity
  8
0
  6
Continuous
 62
     7
370
    25
100
AcDbSpline
210
0.0
220
0.0
230
1.0
 70
     8
 71
     3
 72
    10
 73
     6
 74
     0
 42
0.00000001
 43
0.00000001
 40
0.0
 40
0.0
 40
0.0
 40
0.0
 40
0.5
 40
0.5
 40
1.0
 40
1.0
 40
1.0
 40
1.0
 10
175.3976064279545
 20
270.2243003768995
 30
0.0
 10
175.3974835999323
 20
270.4644265908366
 30
0.0
 10
175.311248869032
 20
270.6921767357061
 30
0.0
 10
175.0363209769754
 20
271.0383731186556
 30
0.0
 10
174.844210735607
 20
271.1632421419229
 30
0.0
 10
174.6345761942125
 20
271.2196869691832
 30
0.0
  0
ELLIPSE
  5
109
330
1F
100
AcDbEntity
  8
0
  6
Continuous
 62
     7
370
    25
100
AcDbEllipse
 10
174.3690150173
 20
270.2263527114
 30
0.0
 11
1.028591545345307
 21
2.057731762761250E-9
 31
0.0
210
0.0
220
0.0
230
1.0
 40
0.9996126348
 41
1.309659058651216
 42
1.570796325925274
  0
LINE
  5
10A
330
1F
100
AcDbEntity
  8
0
  6
Continuous
 62
     7
370
    25
100
AcDbLine
 10
139.398072499
 20
112.3258265409
 30
0.0
 11
139.398072499
 21
169.3324797931
 31
0.0
  0
LINE
  5
10B
330
1F
100
AcDbEntity
  8
0
  6
Continuous
 62
     7
370
    25
100
AcDbLine
 10
175.3980746853
 20
112.3258265409
 30
0.0
 11
175.3980746853
 21
169.5566673864
 31
0.0
  0
LINE
  5
10C
330
1F
100
AcDbEntity
  8
0
  6
Continuous
 62
     7
370
    25
100
AcDbLine
 10
174.3980746853
 20
111.3258265409
 30
0.0
 11
140.398072499
 21
111.3258265409
 31
0.0
  0
SPLINE
  5
10D
330
1F
100
AcDbEntity
  8
0
  6
Continuous
 62
     7
370
    25
100
AcDbSpline
210
0.0
220
0.0
230
1.0
 70
     8
 71
     3
 72
    10
 73
     6
 74
     0
 42
0.00000001
 43
0.00000001
 40
0.0
 40
0.0
 40
0.0
 40
0.0
 40
0.5
 40
0.5
 40
1.0
 40
1.0
 40
1.0
 40
1.0
 10
140.3980724990121
 20
111.3258265408707
 30
0.0
 10
140.136273111213
 20
111.3258265408707
 30
0.0
 10
139.8760858402488
 20
111.4335996372609
 30
0.0
 10
139.5058455954023
 20
111.8038398821075
 30
0.0
 10
139.3980724990121
 20
112.0640271530716
 30
0.0
 10
139.3980724990121
 20
112.3258265408707
 30
0.0
  0
SPLINE
  5
10E
330
1F
100
AcDbEntity
  8
0
  6
Continuous
 62
     7
370
    25
100
AcDbSpline
210
0.0
220
0.0
230
1.0
 70
     8
 71
     3
 72
    10
 73
     6
 74
     0
 42
0.00000001
 43
0.00000001
 40
0.0
 40
0.0
 40
0.0
 40
0.0
 40
0.5
 40
0.5
 40
1.0
 40
1.0
 40
1.0
 40
1.0
 10
175.3980746852917
 20
112.3258265408706
 30
0.0
 10
175.3980746852917
 20
112.0640271530715
 30
0.0
 10
175.2903015889015
 20
111.8038398821073
 30
0.0
 10
174.920061344055
 20
111.4335996372608
 30
0.0
 10
174.6598740730909
 20
111.3258265408706
 30
0.0
 10
174.3980746852917
 20
111.3258265408706
 30
0.0
  0
ARC
  5
10F
330
1F
100
AcDbEntity
  8
0
  6
Continuous
 62
     7
370
    25
100
AcDbCircle
 10
140.3980724987
 20
270.2258265406
 30
0.0
 40
1.000000000034051
100
AcDbArc
 50
89.9999967546
 51
179.9999999862
  0
LINE
  5
110
330
1F
100
AcDbEntity
  8
0
  6
Continuous
 62
     7
370
    25
100
AcDbLine
 10
134.2980280891
 20
277.3258255379
 30
0.0
 11
180.4980280891
 21
277.3258255379
 31
0.0
  0
ARC
  5
111
330
1F
100
AcDbEntity
  8
0
  6
Continuous
 62
     7
370
    25
100
AcDbCircle
 10
134.2980280891
 20
276.3258255379
 30
0.0
 40
1.0
100
AcDbArc
 50
90.0
 51
180.0
  0
LINE
  5
112
330
1F
100
AcDbEntity
  8
0
  6
Continuous
 62
     7
370
    25
100
AcDbLine
 10
133.2980280891
 20
230.1258255377
 30
0.0
 11
133.2980280891
 21
276.3258255379
 31
0.0
  0
ARC
  5
113
330
1F
100
AcDbEntity
  8
0
  6
Continuous
 62
     7
370
    25
100
AcDbCircle
 10
180.4980280891
 20
276.3258255379
 30
0.0
 40
1.0
100
AcDbArc
 50
0.0
 51
90.0
  0
LINE
  5
114
330
1F
100
AcDbEntity
  8
0
  6
Continuous
 62
     7
370
    25
100
AcDbLine
 10
180.4980280891
 20
229.1258255377
 30
0.0
 11
175.3980746853
 21
229.1258255377
 31
0.0
  0
LINE
  5
115
330
1F
100
AcDbEntity
  8
0
  6
Continuous
 62
     7
370
    25
100
AcDbLine
 10
139.397664592
 20
229.1258255377
 30
0.0
 11
134.2980280891
 21
229.1258255377
 31
0.0
  0
ARC
  5
116
330
1F
100
AcDbEntity
  8
0
  6
Continuous
 62
     7
370
    25
100
AcDbCircle
 10
134.2980280891
 20
230.1258255377
 30
0.0
 40
1.0
100
AcDbArc
 50
180.0
 51
270.0
  0
LINE
  5
117
330
1F
100
AcDbEntity
  8
0
  6
Continuous
 62
     7
370
    25
100
AcDbLine
 10
181.4980280891
 20
276.3258255379
 30
0.0
 11
181.4980280891
 21
230.1258255377
 31
0.0
  0
ARC
  5
118
330
1F
100
AcDbEntity
  8
0
  6
Continuous
 62
     7
370
    25
100
AcDbCircle
 10
180.4980280891
 20
230.1258255377
 30
0.0
 40
1.0
100
AcDbArc
 50
270.0
 51
0.0
  0
LINE
  5
119
330
1F
100
AcDbEntity
  8
0
  6
Continuous
 62
     8
370
    18
100
AcDbLine
 10
140.4262561378
 20
169.8324956158
 30
0.0
 11
140.4262561378
 21
168.6503406862
 31
0.0
  0
LINE
  5
11A
330
1F
100
AcDbEntity
  8
0
  6
Continuous
 62
     8
370
    18
100
AcDbLine
 10
157.3976355773
 20
168.6503406837
 30
0.0
 11
157.3976355773
 21
169.8324956154
 31
0.0
  0
LINE
  5
11B
330
1F
100
AcDbEntity
  8
0
  6
Continuous
 62
     8
370
    18
100
AcDbLine
 10
140.426256137
 20
168.6503406848
 30
0.0
 11
157.3976355773
 21
168.6503406837
 31
0.0
  0
SPLINE
  5
11C
330
1F
100
AcDbEntity
  8
0
  6
Continuous
 62
     8
370
    18
100
AcDbSpline
210
0.0
220
0.0
230
1.0
 70
     8
 71
     3
 72
    10
 73
     6
 74
     0
 42
0.00000001
 43
0.00000001
 40
0.0
 40
0.0
 40
0.0
 40
0.0
 40
0.3087215474092329
 40
0.6516173241370983
 40
1.0
 40
1.0
 40
1.0
 40
1.0
 10
139.4230548590421
 20
169.7010794356988
 30
0.0
 10
139.4415550195295
 20
169.7119789390668
 30
0.0
 10
139.4806032336048
 20
169.734984476836
 30
0.0
 10
139.5968198198769
 20
169.7669862079343
 30
0.0
 10
139.7090842029642
 20
169.7845459904167
 30
0.0
 10
139.7656619337432
 20
169.7933955704751
 30
0.0
  0
ARC
  5
11D
330
1F
100
AcDbEntity
  8
0
  6
Continuous
 62
     8
370
    18
100
AcDbCircle
 10
140.4194571914
 20
169.6721338971
 30
0.0
 40
1.021815833324119
100
AcDbArc
 50
180.3863789842
 51
270.3812367639
  0
LINE
  5
11E
330
1F
100
AcDbEntity
  8
0
  6
Continuous
 62
     8
370
    18
100
AcDbLine
 10
174.3690150169
 20
168.6503406867
 30
0.0
 11
174.3690150169
 21
169.8324956161
 31
0.0
  0
SPLINE
  5
11F
330
1F
100
AcDbEntity
  8
0
  6
Continuous
 62
     8
370
    18
100
AcDbSpline
210
0.0
220
0.0
230
1.0
 70
     8
 71
     3
 72
    13
 73
     9
 74
     0
 42
0.00000001
 43
0.00000001
 40
0.0
 40
0.0
 40
0.0
 40
0.0
 40
0.1022359318077118
 40
0.2311188623515477
 40
0.386889920436085
 40
0.5687097487423877
 40
0.7741023563612988
 40
1.0
 40
1.0
 40
1.0
 40
1.0
 10
175.3976065194037
 20
169.6651948777431
 30
0.0
 10
175.3968134171592
 20
169.6700435825213
 30
0.0
 10
175.3950204967522
 20
169.6810047691844
 30
0.0
 10
175.3775864200622
 20
169.6986731633572
 30
0.0
 10
175.3406092563142
 20
169.7201261937508
 30
0.0
 10
175.2741944868243
 20
169.7444909638356
 30
0.0
 10
175.173514215357
 20
169.7707257182769
 30
0.0
 10
175.0791703336854
 20
169.7856218231806
 30
0.0
 10
175.0297556749974
 20
169.7934239819062
 30
0.0
  0
ARC
  5
120
330
1F
100
AcDbEntity
  8
0
  6
Continuous
 62
     8
370
    18
100
AcDbCircle
 10
174.3758139633
 20
169.6721338981
 30
0.0
 40
1.021815833319985
100
AcDbArc
 50
269.6187632359
 51
359.6136210311
  0
LINE
  5
121
330
1F
100
AcDbEntity
  8
0
  6
Continuous
 62
     8
370
    18
100
AcDbLine
 10
157.3976355773
 20
168.6503406832
 30
0.0
 11
174.3690150177
 21
168.6503407126
 31
0.0
  0
LINE
  5
122
330
1F
100
AcDbEntity
  8
0
  6
Continuous
 62
     8
370
    18
100
AcDbLine
 10
139.3976645901
 20
270.2064220067
 30
0.0
 11
139.3976645901
 21
270.2071719516
 31
0.0
  0
LINE
  5
123
330
1F
100
AcDbEntity
  8
0
  6
Continuous
 62
     8
370
    18
100
AcDbLine
 10
140.4262561378
 20
168.6503406834
 30
0.0
 11
140.4262561378
 21
168.3240625297
 31
0.0
  0
LINE
  5
124
330
1F
100
AcDbEntity
  8
0
  6
Continuous
 62
     8
370
    18
100
AcDbLine
 10
174.3690150169
 20
168.3240625297
 30
0.0
 11
174.3690150169
 21
168.6503406839
 31
0.0
  0
SPLINE
  5
125
330
1F
100
AcDbEntity
  8
0
  6
Continuous
 62
     8
370
    18
100
AcDbSpline
210
0.0
220
0.0
230
1.0
 70
     8
 71
     3
 72
    14
 73
    10
 74
     0
 42
0.00000001
 43
0.00000001
 40
0.0
 40
0.0
 40
0.0
 40
0.0
 40
0.25
 40
0.25
 40
0.5
 40
0.5
 40
0.75
 40
0.75
 40
1.0
 40
1.0
 40
1.0
 40
1.0
 10
139.3976645931385
 20
270.2144219422221
 30
0.0
 10
139.397658107705
 20
270.3490673119702
 30
0.0
 10
139.4244247715681
 20
270.4836609875961
 30
0.0
 10
139.527469712898
 20
270.7324569130096
 30
0.0
 10
139.6037074416259
 20
270.8465612602615
 30
0.0
 10
139.7941216872392
 20
271.036983154292
 30
0.0
 10
139.9082232750942
 20
271.1132257690305
 30
0.0
 10
140.1570162272765
 20
271.2162818694909
 30
0.0
 10
140.291609690238
 20
271.2430548020826
 30
0.0
 10
140.4262561373009
 20
271.2430548020812
 30
0.0
  0
LINE
  5
126
330
1F
100
AcDbEntity
  8
0
  6
Continuous
 62
     8
370
    18
100
AcDbLine
 10
140.4262561375
 20
271.2350053236
 30
0.0
 11
140.4262561373
 21
271.2430052596
 31
0.0
  0
LINE
  5
127
330
1F
100
AcDbEntity
  8
0
  6
Continuous
 62
     8
370
    18
100
AcDbLine
 10
140.4262561378
 20
270.2023076734
 30
0.0
 11
140.4262561375
 21
271.2350053236
 31
0.0
  0
LINE
  5
128
330
1F
100
AcDbEntity
  8
0
  6
Continuous
 62
     8
370
    18
100
AcDbLine
 10
157.3976355775
 20
271.2350053236
 30
0.0
 11
140.4262561375
 21
271.2350053236
 31
0.0
  0
LINE
  5
129
330
1F
100
AcDbEntity
  8
0
  6
Continuous
 62
     8
370
    18
100
AcDbLine
 10
157.3976355775
 20
270.2023076734
 30
0.0
 11
157.3976355775
 21
271.2350053236
 31
0.0
  0
LINE
  5
12A
330
1F
100
AcDbEntity
  8
0
  6
Continuous
 62
     8
370
    18
100
AcDbLine
 10
174.3690150174
 20
270.2023076734
 30
0.0
 11
174.3690150174
 21
271.2350053236
 31
0.0
  0
LINE
  5
12B
330
1F
100
AcDbEntity
  8
0
  6
Continuous
 62
     8
370
    18
100
AcDbLine
 10
174.3690150174
 20
271.2350053236
 30
0.0
 11
174.3690150174
 21
271.2430052596
 31
0.0
  0
SPLINE
  5
12C
330
1F
100
AcDbEntity
  8
0
  6
Continuous
 62
     8
370
    18
100
AcDbSpline
210
0.0
220
0.0
230
1.0
 70
     8
 71
     3
 72
    10
 73
     6
 74
     0
 42
0.00000001
 43
0.00000001
 40
0.0
 40
0.0
 40
0.0
 40
0.0
 40
0.5
 40
0.5
 40
1.0
 40
1.0
 40
1.0
 40
1.0
 10
175.3976065626888
 20
270.214421942222
 30
0.0
 10
175.3992677348269
 20
270.4843120530874
 30
0.0
 10
175.2867306204822
 20
270.7513842331267
 30
0.0
 10
174.9064950851151
 20
271.1323269558367
 30
0.0
 10
174.6383921162281
 20
271.2432073522545
 30
0.0
 10
174.369015017391
 20
271.2430052595848
 30
0.0
  0
LINE
  5
12D
330
1F
100
AcDbEntity
  8
0
  6
Continuous
 62
     8
370
    18
100
AcDbLine
 10
157.3976355775
 20
271.2350053236
 30
0.0
 11
174.3690150174
 21
271.2350053236
 31
0.0
  0
LINE
  5
12E
330
1F
100
AcDbEntity
  8
0
  6
Continuous
 62
     8
370
    18
100
AcDbLine
 10
157.3976355773
 20
271.2430052596
 30
0.0
 11
140.4262561373
 21
271.2430052596
 31
0.0
  0
LINE
  5
12F
330
1F
100
AcDbEntity
  8
0
  6
Continuous
 62
     8
370
    18
100
AcDbLine
 10
157.3976355773
 20
271.2350053236
 30
0.0
 11
157.3976355773
 21
271.2430052596
 31
0.0
  0
LINE
  5
130
330
1F
100
AcDbEntity
  8
0
  6
Continuous
 62
     8
370
    18
100
AcDbLine
 10
157.3976355773
 20
271.2430536288
 30
0.0
 11
174.3690150165
 21
271.2430536288
 31
0.0
  0
LINE
  5
131
330
1F
100
AcDbEntity
  8
0
  6
Continuous
 62
     8
370
    18
100
AcDbLine
 10
140.4262561378
 20
271.2545458162
 30
0.0
 11
140.4262561389
 21
271.2430536293
 31
0.0
  0
LINE
  5
132
330
1F
100
AcDbEntity
  8
0
  6
Continuous
 62
     8
370
    18
100
AcDbLine
 10
174.3690150165
 20
271.2430536296
 30
0.0
 11
174.3690150162
 21
271.2545458162
 31
0.0
  0
LINE
  5
133
330
1F
100
AcDbEntity
  8
0
  6
Continuous
 62
     8
370
    18
100
AcDbLine
 10
174.3980746852
 20
112.3258265409
 30
0.0
 11
174.3980746852
 21
168.3239068041
 31
0.0
  0
LINE
  5
134
330
1F
100
AcDbEntity
  8
0
  6
Continuous
 62
     8
370
    18
100
AcDbLine
 10
140.3980724988
 20
112.3258265409
 30
0.0
 11
174.3980746852
 21
112.3258265409
 31
0.0
  0
LINE
  5
135
330
1F
100
AcDbEntity
  8
0
  6
Continuous
 62
     8
370
    18
100
AcDbLine
 10
140.3980724988
 20
112.3258265409
 30
0.0
 11
140.3980724988
 21
168.3238794776
 31
0.0
  0
LINE
  5
136
330
1F
100
AcDbEntity
  8
0
  6
Continuous
 62
     8
370
    18
100
AcDbLine
 10
139.398072499
 20
112.3258265409
 30
0.0
 11
140.3980724988
 21
112.3258265409
 31
0.0
  0
LINE
  5
137
330
1F
100
AcDbEntity
  8
0
  6
Continuous
 62
     8
370
    18
100
AcDbLine
 10
174.3980746852
 20
112.3258265409
 30
0.0
 11
175.3980746853
 21
112.3258265409
 31
0.0
  0
SPLINE
  5
138
330
1F
100
AcDbEntity
  8
0
  6
Continuous
 62
     8
370
    18
100
AcDbSpline
210
0.0
220
0.0
230
1.0
 70
    24
 71
     3
 72
    10
 73
     6
 74
     0
 42
0.00000001
 43
0.00000001
 40
0.0
 40
0.0
 40
0.0
 40
0.0
 40
0.5
 40
0.5
 40
1.0
 40
1.0
 40
1.0
 40
1.0
 10
140.3980724990121
 20
111.3258265408707
 30
0.0
 10
140.398072498956
 20
111.3258265408716
 30
0.0
 10
140.3980724989003
 20
111.4335996372622
 30
0.0
 10
140.398072498821
 20
111.8038398821086
 30
0.0
 10
140.398072498798
 20
112.0640271530721
 30
0.0
 10
140.398072498798
 20
112.3258265408707
 30
0.0
  0
SPLINE
  5
139
330
1F
100
AcDbEntity
  8
0
  6
Continuous
 62
     8
370
    18
100
AcDbSpline
210
0.0
220
0.0
230
1.0
 70
    24
 71
     3
 72
    10
 73
     6
 74
     0
 42
0.00000001
 43
0.00000001
 40
0.0
 40
0.0
 40
0.0
 40
0.0
 40
0.5
 40
0.5
 40
1.0
 40
1.0
 40
1.0
 40
1.0
 10
174.3980746851892
 20
112.3258265408706
 30
0.0
 10
174.3980746851893
 20
112.0640271530715
 30
0.0
 10
174.3980746852003
 20
111.8038398821073
 30
0.0
 10
174.3980746852382
 20
111.4335996372608
 30
0.0
 10
174.3980746852649
 20
111.3258265408706
 30
0.0
 10
174.3980746852917
 20
111.3258265408706
 30
0.0
  0
SPLINE
  5
13A
330
1F
100
AcDbEntity
  8
0
  6
Continuous
 62
     8
370
    18
100
AcDbSpline
210
0.0
220
0.0
230
1.0
 70
     8
 71
     3
 72
    33
 73
    29
 74
     0
 42
0.00000001
 43
0.00000001
 40
0.0
 40
0.0
 40
0.0
 40
0.0
 40
0.0190878135363985
 40
0.0381795741833243
 40
0.0572924407854318
 40
0.0868746858683158
 40
0.1165117299857797
 40
0.1774738038076334
 40
0.2399833085890991
 40
0.3037884199867951
 40
0.3686009915720377
 40
0.4059787639266889
 40
0.4341242959769487
 40
0.4717449285430055
 40
0.4999981980460815
 40
0.537662016135679
 40
0.5658720918559887
 40
0.6033780455041943
 40
0.6313953720067801
 40
0.6685474158622448
 40
0.696228501151532
 40
0.7600336125491289
 40
0.8225431173304683
 40
0.8835051911521791
 40
0.9427084540340297
 40
0.9716034496708348
 40
0.9857879152615971
 40
1.0
 40
1.0
 40
1.0
 40
1.0
 10
134.3980326601637
 20
270.2258262039703
 30
0.0
 10
134.3985515505352
 20
270.2857796297502
 30
0.0
 10
134.3995894385779
 20
270.4056988788955
 30
0.0
 10
134.4079913874641
 20
270.5854891524708
 30
0.0
 10
134.4238385974579
 20
270.7978254580253
 30
0.0
 10
134.4516753090895
 20
271.042376008632
 30
0.0
 10
134.5117135966283
 20
271.4151452718041
 30
0.0
 10
134.6219290539149
 20
271.8840542511117
 30
0.0
 10
134.8116417292348
 20
272.4418027392169
 30
0.0
 10
135.0606977256264
 20
272.9890846184765
 30
0.0
 10
135.3239072776403
 20
273.4402453079227
 30
0.0
 10
135.558000971461
 20
273.7763295962106
 30
0.0
 10
135.7566393586289
 20
274.0323617079953
 30
0.0
 10
135.9495806473874
 20
274.2561627045046
 30
0.0
 10
136.1744304255493
 20
274.4912180267901
 30
0.0
 10
136.3897082993548
 20
274.6941231634389
 30
0.0
 10
136.6372599647613
 20
274.904369714468
 30
0.0
 10
136.8713353905358
 20
275.0832336346383
 30
0.0
 10
137.1373760945814
 20
275.2656439649346
 30
0.0
 10
137.386179826544
 20
275.4181346494805
 30
0.0
 10
137.7410293319076
 20
275.6115043423573
 30
0.0
 10
138.1820725122656
 20
275.8122279867785
 30
0.0
 10
138.7398188331265
 20
276.0019337943479
 30
0.0
 10
139.2991865504929
 20
276.1333972038721
 30
0.0
 10
139.7637265108728
 20
276.1972655791508
 30
0.0
 10
140.0843477443998
 20
276.2187317000736
 30
0.0
 10
140.2642029038803
 20
276.2249646556584
 30
0.0
 10
140.3533930854683
 20
276.2255381660345
 30
0.0
 10
140.3980315504885
 20
276.2258252001272
 30
0.0
  0
SPLINE
  5
13B
330
1F
100
AcDbEntity
  8
0
  6
Continuous
 62
     8
370
    18
100
AcDbSpline
210
0.0
220
0.0
230
1.0
 70
     8
 71
     3
 72
    18
 73
    14
 74
     0
 42
0.00000001
 43
0.00000001
 40
0.0
 40
0.0
 40
0.0
 40
0.0
 40
0.2500000000000016
 40
0.2500000000000016
 40
0.3750000000000012
 40
0.3750000000000012
 40
0.500000000000001
 40
0.500000000000001
 40
0.6250000000000008
 40
0.6250000000000008
 40
0.7500000000000004
 40
0.7500000000000004
 40
1.0
 40
1.0
 40
1.0
 40
1.0
 10
140.3980315666124
 20
271.2258251963428
 30
0.0
 10
140.3980315670472
 20
271.2258251829939
 30
0.0
 10
140.3980315670898
 20
271.3332188651784
 30
0.0
 10
140.3980315663192
 20
271.6987160538645
 30
0.0
 10
140.3980315659255
 20
271.8539668279831
 30
0.0
 10
140.3980315648627
 20
272.2277283671937
 30
0.0
 10
140.3980315641938
 20
272.4462135624598
 30
0.0
 10
140.398031562615
 20
272.9343689276736
 30
0.0
 10
140.3980315617056
 20
273.2039292018962
 30
0.0
 10
140.3980315597106
 20
273.7756235746638
 30
0.0
 10
140.3980315586256
 20
274.0776092375222
 30
0.0
 10
140.3980315552283
 20
275.0008363786753
 30
0.0
 10
140.3980315527824
 20
275.636569535796
 30
0.0
 10
140.3980315504418
 20
276.2258252001272
 30
0.0
  0
SPLINE
  5
13C
330
1F
100
AcDbEntity
  8
0
  6
Continuous
 62
     8
370
    18
100
AcDbSpline
210
0.0
220
0.0
230
1.0
 70
    24
 71
     3
 72
    18
 73
    14
 74
     0
 42
0.00000001
 43
0.00000001
 40
0.0
 40
0.0
 40
0.0
 40
0.0
 40
0.2499999999999998
 40
0.2499999999999998
 40
0.3749999999999993
 40
0.3749999999999993
 40
0.499999999999999
 40
0.499999999999999
 40
0.6249999999999987
 40
0.6249999999999987
 40
0.7499999999999982
 40
0.7499999999999982
 40
1.0
 40
1.0
 40
1.0
 40
1.0
 10
139.3980326601636
 20
270.2258263071774
 30
0.0
 10
139.3980326761702
 20
270.2258263071772
 30
0.0
 10
139.2906389963746
 20
270.2258263049602
 30
0.0
 10
138.9251418085836
 20
270.2258262974156
 30
0.0
 10
138.769891034331
 20
270.2258262942109
 30
0.0
 10
138.3961294940423
 20
270.2258262864958
 30
0.0
 10
138.1776442978336
 20
270.2258262819859
 30
0.0
 10
137.6894889303982
 20
270.2258262719097
 30
0.0
 10
137.4199286549049
 20
270.2258262663456
 30
0.0
 10
136.848234280011
 20
270.2258262545451
 30
0.0
 10
136.5462486163074
 20
270.2258262483117
 30
0.0
 10
135.6230214743294
 20
270.2258262292553
 30
0.0
 10
134.987288319155
 20
270.2258262161331
 30
0.0
 10
134.3980326601628
 20
270.2258262039703
 30
0.0
  0
SPLINE
  5
13D
330
1F
100
AcDbEntity
  8
0
  6
Continuous
 62
     8
370
    18
100
AcDbSpline
210
0.0
220
0.0
230
1.0
 70
    24
 71
     3
 72
    18
 73
    14
 74
     0
 42
0.00000001
 43
0.00000001
 40
0.0
 40
0.0
 40
0.0
 40
0.0
 40
0.2500000000000003
 40
0.2500000000000003
 40
0.3750000000000004
 40
0.3750000000000004
 40
0.5000000000000004
 40
0.5000000000000004
 40
0.6250000000000004
 40
0.6250000000000004
 40
0.7500000000000006
 40
0.7500000000000006
 40
1.0
 40
1.0
 40
1.0
 40
1.0
 10
134.398032969784
 20
255.2258253572808
 30
0.0
 10
134.9872886287761
 20
255.2258253694434
 30
0.0
 10
135.6230217839504
 20
255.2258253825655
 30
0.0
 10
136.5462489259283
 20
255.2258254016219
 30
0.0
 10
136.8482345896319
 20
255.2258254078552
 30
0.0
 10
137.4199289645257
 20
255.2258254196556
 30
0.0
 10
137.689489240019
 20
255.2258254252196
 30
0.0
 10
138.1776446074545
 20
255.2258254352958
 30
0.0
 10
138.3961298036631
 20
255.2258254398056
 30
0.0
 10
138.7698913439519
 20
255.2258254475206
 30
0.0
 10
138.9251421182045
 20
255.2258254507252
 30
0.0
 10
139.2906393059956
 20
255.2258254582698
 30
0.0
 10
139.3980329857912
 20
255.2258254604868
 30
0.0
 10
139.3980329697848
 20
255.225825460487
 30
0.0
  0
LINE
  5
13E
330
1F
100
AcDbEntity
  8
0
  6
Continuous
 62
     8
370
    18
100
AcDbLine
 10
134.3980329698
 20
270.225826204
 30
0.0
 11
134.3980329698
 21
255.2258253573
 31
0.0
  0
LINE
  5
13F
330
1F
100
AcDbEntity
  8
0
  6
Continuous
 62
     8
370
    18
100
AcDbLine
 10
180.3980371168
 20
255.2258254605
 30
0.0
 11
175.3980371167
 21
255.2258254605
 31
0.0
  0
SPLINE
  5
140
330
1F
100
AcDbEntity
  8
0
  6
Continuous
 62
     8
370
    18
100
AcDbSpline
210
0.0
220
0.0
230
1.0
 70
     8
 71
     3
 72
    14
 73
    10
 74
     0
 42
0.00000001
 43
0.00000001
 40
0.0
 40
0.0
 40
0.0
 40
0.0
 40
0.173874836581938
 40
0.3472541162797814
 40
0.5204005074010033
 40
0.6504965794542747
 40
0.7805651010075199
 40
0.9106665187162659
 40
1.0
 40
1.0
 40
1.0
 40
1.0
 10
134.3980329697858
 20
255.2258253572808
 30
0.0
 10
134.4118555086241
 20
254.1396955280021
 30
0.0
 10
134.4394611909839
 20
251.9705314244112
 30
0.0
 10
134.7562046608865
 20
248.7309890007874
 30
0.0
 10
135.3400131128373
 20
245.805649496638
 30
0.0
 10
136.1644015952134
 20
243.2225413523638
 30
0.0
 10
137.1501978002175
 20
240.9905136590213
 30
0.0
 10
138.2205811502166
 20
239.0787641895577
 30
0.0
 10
139.0573983622764
 20
237.992016225252
 30
0.0
 10
139.3980724988641
 20
237.5495935323477
 30
0.0
  0
SPLINE
  5
141
330
1F
100
AcDbEntity
  8
0
  6
Continuous
 62
     8
370
    18
100
AcDbSpline
210
0.0
220
0.0
230
1.0
 70
     8
 71
     3
 72
    14
 73
    10
 74
     0
 42
0.00000001
 43
0.00000001
 40
0.0
 40
0.0
 40
0.0
 40
0.0
 40
0.0893607590446235
 40
0.2194460873065106
 40
0.3495264999918509
 40
0.4796119160856787
 40
0.6528274409662009
 40
0.8260500970649813
 40
1.0
 40
1.0
 40
1.0
 40
1.0
 10
175.3980746852922
 20
237.5487727998564
 30
0.0
 10
175.7387509796964
 20
237.9914485883318
 30
0.0
 10
176.575360702402
 20
239.0785417460535
 30
0.0
 10
177.6435837813611
 20
240.9915771631846
 30
0.0
 10
178.6339458769497
 20
243.2215738930575
 30
0.0
 10
179.455797347113
 20
245.8062161183363
 30
0.0
 10
180.0393928456964
 20
248.7309027693657
 30
0.0
 10
180.3559598378635
 20
251.970503272969
 30
0.0
 10
180.3839917836419
 20
254.139203754715
 30
0.0
 10
180.3980371167777
 20
255.2258254604878
 30
0.0
  0
LINE
  5
142
330
1F
100
AcDbEntity
  8
0
  6
Continuous
 62
     8
370
    18
100
AcDbLine
 10
140.3980315505
 20
276.2258263069
 30
0.0
 11
174.3980337403
 21
276.2258263069
 31
0.0
  0
SPLINE
  5
143
330
1F
100
AcDbEntity
  8
0
  6
Continuous
 62
     8
370
    18
100
AcDbSpline
210
0.0
220
0.0
230
1.0
 70
     8
 71
     3
 72
    18
 73
    14
 74
     0
 42
0.00000001
 43
0.00000001
 40
0.0
 40
0.0
 40
0.0
 40
0.0
 40
0.2499999999999994
 40
0.2499999999999994
 40
0.3749999999999991
 40
0.3749999999999991
 40
0.4999999999999988
 40
0.4999999999999988
 40
0.6249999999999984
 40
0.6249999999999984
 40
0.7499999999999982
 40
0.7499999999999982
 40
1.0
 40
1.0
 40
1.0
 40
1.0
 10
174.3980337433182
 20
276.2258296836287
 30
0.0
 10
174.3980337429626
 20
275.636574033086
 30
0.0
 10
174.3980337424947
 20
275.0008408888374
 30
0.0
 10
174.3980337416506
 20
274.0776137620177
 30
0.0
 10
174.3980337413464
 20
273.7756281030993
 30
0.0
 10
174.3980337407079
 20
273.2039337360272
 30
0.0
 10
174.3980337403736
 20
272.9343734635555
 30
0.0
 10
174.3980337396957
 20
272.4462180993877
 30
0.0
 10
174.3980337393522
 20
272.2277329034156
 30
0.0
 10
174.3980337386776
 20
271.8539713604053
 30
0.0
 10
174.3980337383467
 20
271.6987205831958
 30
0.0
 10
174.398033737401
 20
271.3332233822346
 30
0.0
 10
174.3980337368368
 20
271.2258296878563
 30
0.0
 10
174.398033736374
 20
271.2258296874142
 30
0.0
  0
LINE
  5
144
330
1F
100
AcDbEntity
  8
0
  6
Continuous
 62
     8
370
    18
100
AcDbLine
 10
175.3980371168
 20
270.2258263072
 30
0.0
 11
180.3980371168
 21
270.2258263072
 31
0.0
  0
SPLINE
  5
145
330
1F
100
AcDbEntity
  8
0
  6
Continuous
 62
     8
370
    18
100
AcDbSpline
210
0.0
220
0.0
230
1.0
 70
     8
 71
     3
 72
    22
 73
    18
 74
     0
 42
0.00000001
 43
0.00000001
 40
0.0
 40
0.0
 40
0.0
 40
0.0
 40
0.125
 40
0.125
 40
0.25
 40
0.25
 40
0.375
 40
0.375
 40
0.5
 40
0.5
 40
0.625
 40
0.625
 40
0.75
 40
0.75
 40
0.875
 40
0.875
 40
1.0
 40
1.0
 40
1.0
 40
1.0
 10
180.3980371167768
 20
270.2258263071773
 30
0.0
 10
180.3980371167583
 20
270.5793798966417
 30
0.0
 10
180.3666070154462
 20
270.9461551401195
 30
0.0
 10
180.2291315263751
 20
271.689055331356
 30
0.0
 10
180.1229656488048
 20
272.0651047479046
 30
0.0
 10
179.8305677236741
 20
272.8036868656114
 30
0.0
 10
179.6442666862198
 20
273.1660698605681
 30
0.0
 10
179.1957525821653
 20
273.852103487751
 30
0.0
 10
178.9335701993766
 20
274.1755759970578
 30
0.0
 10
178.3477834324685
 20
274.7613627642581
 30
0.0
 10
178.0243109232924
 20
275.0235451472082
 30
0.0
 10
177.3382772963332
 20
275.4720592516049
 30
0.0
 10
176.9758943014695
 20
275.65836028924
 30
0.0
 10
176.2373121839084
 20
275.9507582147391
 30
0.0
 10
175.8612627674128
 20
276.0569240924971
 30
0.0
 10
175.1183625762447
 20
276.1943995819387
 30
0.0
 10
174.7515873327826
 20
276.2258296834338
 30
0.0
 10
174.3980337433182
 20
276.2258296836287
 30
0.0
  0
LINE
  5
146
330
1F
100
AcDbEntity
  8
0
  6
Continuous
 62
     8
370
    18
100
AcDbLine
 10
180.3980371168
 20
255.2258254605
 30
0.0
 11
180.3980371168
 21
270.2258263072
 31
0.0
  0
LINE
  5
147
330
1F
100
AcDbEntity
  8
0
  6
Continuous
 62
     8
370
    18
100
AcDbLine
 10
180.4980280891
 20
276.3258255379
 30
0.0
 11
134.2980280891
 21
276.3258255379
 31
0.0
  0
LINE
  5
148
330
1F
100
AcDbEntity
  8
0
  6
Continuous
 62
     8
370
    18
100
AcDbLine
 10
180.4980280891
 20
230.1258255377
 30
0.0
 11
180.4980280891
 21
276.3258255379
 31
0.0
  0
LINE
  5
149
330
1F
100
AcDbEntity
  8
0
  6
Continuous
 62
     8
370
    18
100
AcDbLine
 10
134.2980280891
 20
230.1258255377
 30
0.0
 11
139.397664592
 21
230.1258255377
 31
0.0
  0
LINE
  5
14A
330
1F
100
AcDbEntity
  8
0
  6
Continuous
 62
     8
370
    18
100
AcDbLine
 10
175.3980746853
 20
230.1258255377
 30
0.0
 11
180.4980280891
 21
230.1258255377
 31
0.0
  0
LINE
  5
14B
330
1F
100
AcDbEntity
  8
0
  6
Continuous
 62
     8
370
    18
100
AcDbLine
 10
134.2980280891
 20
276.3258255379
 30
0.0
 11
134.2980280891
 21
230.1258255377
 31
0.0
  0
LINE
  5
14C
330
1F
100
AcDbEntity
  8
0
  6
Continuous
 62
     8
370
    18
100
AcDbLine
 10
180.4980280891
 20
277.3258255379
 30
0.0
 11
180.4980280891
 21
276.3258255379
 31
0.0
  0
LINE
  5
14D
330
1F
100
AcDbEntity
  8
0
  6
Continuous
 62
     8
370
    18
100
AcDbLine
 10
134.2980280891
 20
277.3258255379
 30
0.0
 11
134.2980280891
 21
276.3258255379
 31
0.0
  0
LINE
  5
14E
330
1F
100
AcDbEntity
  8
0
  6
Continuous
 62
     8
370
    18
100
AcDbLine
 10
134.2980280891
 20
276.3258255379
 30
0.0
 11
133.2980280891
 21
276.3258255379
 31
0.0
  0
LINE
  5
14F
330
1F
100
AcDbEntity
  8
0
  6
Continuous
 62
     8
370
    18
100
AcDbLine
 10
134.2980280891
 20
230.1258255377
 30
0.0
 11
133.2980280891
 21
230.1258255377
 31
0.0
  0
LINE
  5
150
330
1F
100
AcDbEntity
  8
0
  6
Continuous
 62
     8
370
    18
100
AcDbLine
 10
181.4980280891
 20
276.3258255379
 30
0.0
 11
180.4980280891
 21
276.3258255379
 31
0.0
  0
LINE
  5
151
330
1F
100
AcDbEntity
  8
0
  6
Continuous
 62
     8
370
    18
100
AcDbLine
 10
180.4980280891
 20
230.1258255377
 30
0.0
 11
180.4980280891
 21
229.1258255377
 31
0.0
  0
LINE
  5
152
330
1F
100
AcDbEntity
  8
0
  6
Continuous
 62
     8
370
    18
100
AcDbLine
 10
134.2980280891
 20
230.1258255377
 30
0.0
 11
134.2980280891
 21
229.1258255377
 31
0.0
  0
LINE
  5
153
330
1F
100
AcDbEntity
  8
0
  6
Continuous
 62
     8
370
    18
100
AcDbLine
 10
181.4980280891
 20
230.1258255377
 30
0.0
 11
180.4980280891
 21
230.1258255377
 31
0.0
  0
SPLINE
  5
154
330
1F
100
AcDbEntity
  8
0
  6
Continuous
 62
     7
370
    25
100
AcDbSpline
210
0.0
220
0.0
230
1.0
 70
     8
 71
     3
 72
    31
 73
    27
 74
     0
 42
0.00000001
 43
0.00000001
 40
0.0
 40
0.0
 40
0.0
 40
0.0
 40
0.0280936424366942
 40
0.0554975164660648
 40
0.0755688082495387
 40
0.0963206744227285
 40
0.1333002144924671
 40
0.1741407769333451
 40
0.218498573174842
 40
0.2646180056237922
 40
0.3123451489455294
 40
0.3615099550378015
 40
0.4593274032025452
 40
0.5607356280083573
 40
0.656107128199143
 40
0.7409213682284954
 40
0.8161852312032474
 40
0.8449408745745326
 40
0.8722492083045718
 40
0.8973419839554488
 40
0.9138115298681398
 40
0.9292521396997819
 40
0.9448369792220574
 40
0.9616829784986035
 40
0.9806707625341524
 40
1.0
 40
1.0
 40
1.0
 40
1.0
 10
310.0110219842001
 20
464.0540647667889
 30
0.0
 10
310.4947189799934
 20
464.3996510664433
 30
0.0
 10
311.4502370139799
 20
465.0823386673385
 30
0.0
 10
312.8293253990165
 20
465.9592089622687
 30
0.0
 10
314.1058475508556
 20
466.7149322159062
 30
0.0
 10
315.6621165248902
 20
467.5823205445244
 30
0.0
 10
317.7203060782778
 20
468.6383180966116
 30
0.0
 10
320.3064053035041
 20
469.8320624582238
 30
0.0
 10
323.1107959182182
 20
470.9859027716595
 30
0.0
 10
326.1278064245539
 20
472.0964141497598
 30
0.0
 10
329.2833614418412
 20
473.1593462564815
 30
0.0
 10
333.6117217503706
 20
474.5295999675854
 30
0.0
 10
339.1638747500716
 20
476.1977323744131
 30
0.0
 10
345.7646936234939
 20
478.1347480859066
 30
0.0
 10
352.0838861084397
 20
479.9613319840478
 30
0.0
 10
357.8274662858985
 20
481.5924165832046
 30
0.0
 10
362.0811446384063
 20
482.7696633116146
 30
0.0
 10
365.0434062642536
 20
483.5735110161145
 30
0.0
 10
366.870035804924
 20
484.0621349533723
 30
0.0
 10
368.4339164631464
 20
484.4747131215161
 30
0.0
 10
369.6587079040788
 20
484.7949560076052
 30
0.0
 10
370.5483066351507
 20
485.0293301915728
 30
0.0
 10
371.2325028649189
 20
485.2159015934273
 30
0.0
 10
371.7069549152845
 20
485.353800775783
 30
0.0
 10
371.9911347566904
 20
485.4461186168379
 30
0.0
 10
372.0207213668094
 20
485.4698257708364
 30
0.0
 10
372.0356464990455
 20
485.4817849782937
 30
0.0
  0
SPLINE
  5
155
330
1F
100
AcDbEntity
  8
0
  6
Continuous
 62
     7
370
    25
100
AcDbSpline
210
0.0
220
0.0
230
1.0
 70
     8
 71
     3
 72
    13
 73
     9
 74
     0
 42
0.00000001
 43
0.00000001
 40
0.0
 40
0.0
 40
0.0
 40
0.0
 40
0.2394557791914636
 40
0.3683592375999086
 40
0.4999984459826752
 40
0.6316379126455172
 40
0.7605420833652973
 40
1.0
 40
1.0
 40
1.0
 40
1.0
 10
313.176228345665
 20
364.2751985979303
 30
0.0
 10
312.5472524971157
 20
364.3419886798237
 30
0.0
 10
311.579687359107
 20
364.4447330935462
 30
0.0
 10
310.4156185151321
 20
365.0682212069769
 30
0.0
 10
309.6145925973769
 20
365.7135302488078
 30
0.0
 10
308.9692901365922
 20
366.5145639307253
 30
0.0
 10
308.3458082502389
 20
367.6786448201822
 30
0.0
 10
308.2430653827195
 20
368.646217256573
 30
0.0
 10
308.1762762264793
 20
369.2751985979355
 30
0.0
  0
SPLINE
  5
156
330
1F
100
AcDbEntity
  8
0
  6
Continuous
 62
     7
370
    25
100
AcDbSpline
210
0.0
220
0.0
230
1.0
 70
     8
 71
     3
 72
    13
 73
     9
 74
     0
 42
0.00000001
 43
0.00000001
 40
0.0
 40
0.0
 40
0.0
 40
0.0
 40
0.2268652797870775
 40
0.470577135965594
 40
0.5950858510865118
 40
0.7260689191965461
 40
0.8622424065684461
 40
1.0
 40
1.0
 40
1.0
 40
1.0
 10
374.7538334047591
 20
488.1704658451774
 30
0.0
 10
374.7220553434087
 20
488.2898991394272
 30
0.0
 10
374.6561394434049
 20
488.5376346130959
 30
0.0
 10
374.426895630166
 20
488.7790341586437
 30
0.0
 10
374.1917273528574
 20
488.9215232618215
 30
0.0
 10
373.9861502475072
 20
488.9949549918661
 30
0.0
 10
373.7615236431265
 20
489.0310577133019
 30
0.0
 10
373.6125188045248
 20
489.0169102396081
 30
0.0
 10
373.5375855478997
 20
489.0097955963063
 30
0.0
  0
LINE
  5
157
330
1F
100
AcDbEntity
  8
0
  6
Continuous
 62
     7
370
    25
100
AcDbLine
 10
308.1761321178
 20
380.275198631
 30
0.0
 11
308.1761321178
 21
384.3435395399
 31
0.0
  0
LINE
  5
158
330
1F
100
AcDbEntity
  8
0
  6
Continuous
 62
     7
370
    25
100
AcDbLine
 10
308.1761318842
 20
384.3435395399
 30
0.0
 11
308.1761318842
 21
399.3435401805
 31
0.0
  0
LINE
  5
159
330
1F
100
AcDbEntity
  8
0
  6
Continuous
 62
     7
370
    25
100
AcDbLine
 10
308.1762762265
 20
369.2751986728
 30
0.0
 11
308.1762762265
 21
380.2751985979
 31
0.0
  0
SPLINE
  5
15A
330
1F
100
AcDbEntity
  8
0
  6
Continuous
 62
     7
370
    25
100
AcDbSpline
210
0.0
220
0.0
230
1.0
 70
     8
 71
     3
 72
    27
 73
    23
 74
     0
 42
0.00000001
 43
0.00000001
 40
0.0
 40
0.0
 40
0.0
 40
0.0
 40
0.0877694702711231
 40
0.1696715055538856
 40
0.2452734996176729
 40
0.3136091891838327
 40
0.3739157539079979
 40
0.4258679236426197
 40
0.4695438322820463
 40
0.5073354632571327
 40
0.5432565584889125
 40
0.5774633374552084
 40
0.6180171338578188
 40
0.6582807194412493
 40
0.7023851810750825
 40
0.7504219189069647
 40
0.7823843616652211
 40
0.8139749666019622
 40
0.8459295169564096
 40
0.8861376685520672
 40
0.9374308051819618
 40
1.0
 40
1.0
 40
1.0
 40
1.0
 10
308.1759529854649
 20
399.3435388853698
 30
0.0
 10
308.1759306533093
 20
401.2022358838001
 30
0.0
 10
308.1758874819142
 20
404.7953750142742
 30
0.0
 10
308.2900250588961
 20
409.9890361873643
 30
0.0
 10
308.5792394497859
 20
414.7644693759922
 30
0.0
 10
309.0589441806347
 20
419.0652730694895
 30
0.0
 10
309.7091385204682
 20
422.83661432479
 30
0.0
 10
310.4842869302287
 20
426.0492011274608
 30
0.0
 10
311.3366528634822
 20
428.7453934211147
 30
0.0
 10
312.2529952079527
 20
431.0584989717635
 30
0.0
 10
313.2533868223678
 20
433.1160271412938
 30
0.0
 10
314.4513950245287
 20
435.133842999902
 30
0.0
 10
315.9042487924614
 20
437.0962349442623
 30
0.0
 10
317.7378905066395
 20
439.0136333491877
 30
0.0
 10
319.9554288953317
 20
440.7477146068903
 30
0.0
 10
322.2712865579879
 20
442.0168658221734
 30
0.0
 10
324.4771802908222
 20
442.873845255092
 30
0.0
 10
326.4247759929277
 20
443.4289604937856
 30
0.0
 10
328.5812428230091
 20
443.8599485884378
 30
0.0
 10
331.178790175813
 20
444.177320919121
 30
0.0
 10
334.4395808335697
 20
444.3425556507577
 30
0.0
 10
336.8510116200019
 20
444.3431901961635
 30
0.0
 10
338.1761318836379
 20
444.3435388891388
 30
0.0
  0
SPLINE
  5
15B
330
1F
100
AcDbEntity
  8
0
  6
Continuous
 62
     7
370
    25
100
AcDbSpline
210
0.0
220
0.0
230
1.0
 70
     8
 71
     3
 72
    14
 73
    10
 74
     0
 42
0.00000001
 43
0.00000001
 40
0.0
 40
0.0
 40
0.0
 40
0.0
 40
0.1204350252592675
 40
0.2438890632801402
 40
0.4927195107692228
 40
0.6163145501269937
 40
0.743041367423489
 40
0.8718494210946994
 40
1.0
 40
1.0
 40
1.0
 40
1.0
 10
273.1892762285126
 20
460.3434541114378
 30
0.0
 10
273.126043521392
 20
460.3407320503704
 30
0.0
 10
272.9979930171879
 20
460.3352196927945
 30
0.0
 10
272.7522807516459
 20
460.2618326431506
 30
0.0
 10
272.5340926709686
 20
460.1174940879894
 30
0.0
 10
272.3682424476379
 20
459.9155466371841
 30
0.0
 10
272.2736137271746
 20
459.7394961799818
 30
0.0
 10
272.2098895108756
 20
459.5449952808704
 30
0.0
 10
272.1985044702341
 20
459.4105774560973
 30
0.0
 10
272.1928265152479
 20
459.3435405097719
 30
0.0
  0
ARC
  5
15C
330
1F
100
AcDbEntity
  8
0
  6
Continuous
 62
     7
370
    25
100
AcDbCircle
 10
296.2930247785
 20
460.3435405116
 30
0.0
 40
22.816891891892
100
AcDbArc
 50
169.9031072981
 51
180.0
  0
ARC
  5
15D
330
1F
100
AcDbEntity
  8
0
  6
Continuous
 62
     7
370
    25
100
AcDbCircle
 10
281.8592409947
 20
460.3435405116
 30
0.0
 40
22.81689189189189
100
AcDbArc
 50
0.0
 51
9.4863676011
  0
LINE
  5
15E
330
1F
100
AcDbEntity
  8
0
  6
Continuous
 62
     7
370
    25
100
AcDbLine
 10
275.1318245182
 20
468.2795214769
 30
0.0
 11
275.1437213111
 21
468.1435405116
 31
0.0
  0
LWPOLYLINE
  5
15F
330
1F
100
AcDbEntity
  8
0
  6
Continuous
 62
     7
370
    25
100
AcDbPolyline
 90
        8
 70
   128
 43
0.0
 10
283.5201053436
 20
470.8555853941
 10
350.9596291167
 20
482.1370860336
 10
368.0550059992
 20
484.999298417
 10
372.4465981895
 20
485.7357701246
 10
373.6033702218
 20
485.9303473574
 10
373.9220002223
 20
485.9842213185
 10
374.0163762187
 20
486.0003046353
 10
374.0674595457
 20
486.0091521762
  0
SPLINE
  5
160
330
1F
100
AcDbEntity
  8
0
  6
Continuous
 62
     7
370
    25
100
AcDbSpline
210
0.0
220
0.0
230
1.0
 70
     8
 71
     3
 72
    14
 73
    10
 74
     0
 42
0.00000001
 43
0.00000001
 40
0.0
 40
0.0
 40
0.0
 40
0.0
 40
0.25
 40
0.25
 40
0.5
 40
0.5
 40
0.75
 40
0.75
 40
1.0
 40
1.0
 40
1.0
 40
1.0
 10
374.0674595064868
 20
486.0091521693012
 30
0.0
 10
374.199954621437
 20
486.033305784575
 30
0.0
 10
374.3324021536279
 20
486.0574515583768
 30
0.0
 10
374.5771777087773
 20
486.1024274816992
 30
0.0
 10
374.6894090817734
 20
486.1232417036464
 30
0.0
 10
374.87658253382
 20
486.1587250031953
 30
0.0
 10
374.9514506382475
 20
486.1733818900397
 30
0.0
 10
375.05240613628
 20
486.1946567743444
 30
0.0
 10
375.078453495366
 20
486.2012681742568
 30
0.0
 10
375.0780789239371
 20
486.2035253330538
 30
0.0
  0
SPLINE
  5
161
330
1F
100
AcDbEntity
  8
0
  6
Continuous
 62
     7
370
    25
100
AcDbSpline
210
0.0
220
0.0
230
1.0
 70
     8
 71
     3
 72
    10
 73
     6
 74
     0
 42
0.00000001
 43
0.00000001
 40
0.0
 40
0.0
 40
0.0
 40
0.0
 40
0.1343875136950555
 40
0.4677207743934548
 40
1.0
 40
1.0
 40
1.0
 40
1.0
 10
374.067535765318
 20
486.0088618324246
 30
0.0
 10
373.7918402944413
 20
485.961980217718
 30
0.0
 10
372.8323129128439
 20
485.7988139790365
 30
0.0
 10
370.7799616447853
 20
485.4550188029522
 30
0.0
 10
369.0035027118186
 20
485.156947553486
 30
0.0
 10
367.9111291611576
 20
484.9736586842154
 30
0.0
  0
SPLINE
  5
162
330
1F
100
AcDbEntity
  8
0
  6
Continuous
 62
     7
370
    25
100
AcDbSpline
210
0.0
220
0.0
230
1.0
 70
    24
 71
     3
 72
     9
 73
     5
 74
     0
 42
0.00000001
 43
0.00000001
 40
0.0
 40
0.0
 40
0.0
 40
0.0
 40
0.5622445587648947
 40
0.9999999999999999
 40
0.9999999999999999
 40
0.9999999999999999
 40
0.9999999999999999
 10
309.5270579395698
 20
464.0671077632559
 30
0.0
 10
309.67650739932
 20
464.0665099654169
 30
0.0
 10
309.942316036185
 20
464.0654467308694
 30
0.0
 10
309.9847741601957
 20
464.0652768983734
 30
0.0
 10
310.0033604350061
 20
464.0652025532742
 30
0.0
  0
SPLINE
  5
163
330
1F
100
AcDbEntity
  8
0
  6
Continuous
 62
     7
370
    25
100
AcDbSpline
210
0.0
220
0.0
230
1.0
 70
    24
 71
     3
 72
    22
 73
    18
 74
     0
 42
0.00000001
 43
0.00000001
 40
0.0
 40
0.0
 40
0.0
 40
0.0
 40
0.125
 40
0.125
 40
0.25
 40
0.25
 40
0.375
 40
0.375
 40
0.5
 40
0.5
 40
0.625
 40
0.625
 40
0.75
 40
0.75
 40
0.875
 40
0.875
 40
1.0
 40
1.0
 40
1.0
 40
1.0
 10
303.9421650604651
 20
464.0894473347724
 30
0.0
 10
304.3130036619502
 20
464.0879639803665
 30
0.0
 10
304.6743603293272
 20
464.086518553697
 30
0.0
 10
305.3650522769386
 20
464.0837557859065
 30
0.0
 10
305.6955643375368
 20
464.0824337376641
 30
0.0
 10
306.3293603607004
 20
464.0798985535714
 30
0.0
 10
306.634714784894
 20
464.0786771358747
 30
0.0
 10
307.2042137132872
 20
464.0763991401611
 30
0.0
 10
307.4675281737539
 20
464.0753458823191
 30
0.0
 10
307.9527886504627
 20
464.0734048404123
 30
0.0
 10
308.1748243517943
 20
464.0725166976071
 30
0.0
 10
308.5765739535718
 20
464.0709096992
 30
0.0
 10
308.7561915787323
 20
464.0701912286993
 30
0.0
 10
309.0623596705847
 20
464.0689665563319
 30
0.0
 10
309.1905101926201
 20
464.0684539542437
 30
0.0
 10
309.3957205088297
 20
464.0676331129789
 30
0.0
 10
309.4714135862155
 20
464.0673303406694
 30
0.0
 10
309.5270579395698
 20
464.0671077632559
 30
0.0
  0
SPLINE
  5
164
330
1F
100
AcDbEntity
  8
0
  6
Continuous
 62
     7
370
    25
100
AcDbSpline
210
0.0
220
0.0
230
1.0
 70
    24
 71
     3
 72
    14
 73
    10
 74
     0
 42
0.00000001
 43
0.00000001
 40
0.0
 40
0.0
 40
0.0
 40
0.0
 40
0.25
 40
0.25
 40
0.5
 40
0.5
 40
0.75
 40
0.75
 40
1.0
 40
1.0
 40
1.0
 40
1.0
 10
297.1513696403132
 20
464.116610516453
 30
0.0
 10
297.7360956769131
 20
464.1142716123067
 30
0.0
 10
298.3173517097741
 20
464.1119465881753
 30
0.0
 10
299.4688638957157
 20
464.1073405394315
 30
0.0
 10
300.0395860580887
 20
464.105057650782
 30
0.0
 10
301.1711958335243
 20
464.1005312116802
 30
0.0
 10
301.7320761403406
 20
464.0982876904528
 30
0.0
 10
302.8447682343598
 20
464.0938369220767
 30
0.0
 10
303.3973352829766
 20
464.0916266538824
 30
0.0
 10
303.9421650604651
 20
464.0894473347724
 30
0.0
  0
SPLINE
  5
165
330
1F
100
AcDbEntity
  8
0
  6
Continuous
 62
     7
370
    25
100
AcDbSpline
210
0.0
220
0.0
230
1.0
 70
    24
 71
     3
 72
    12
 73
     8
 74
     0
 42
0.00000001
 43
0.00000001
 40
0.0
 40
0.0
 40
0.0
 40
0.0
 40
0.5000000000000018
 40
0.5000000000000018
 40
0.7500000000000009
 40
0.7500000000000009
 40
1.0
 40
1.0
 40
1.0
 40
1.0
 10
291.2106364922558
 20
464.1403734490453
 30
0.0
 10
292.2030537850486
 20
464.1364037798742
 30
0.0
 10
293.1945308181197
 20
464.1324378717418
 30
0.0
 10
294.6796178888821
 20
464.1264975234588
 30
0.0
 10
295.174355678404
 20
464.1245185723008
 30
0.0
 10
296.1633698865913
 20
464.120562515468
 30
0.0
 10
296.6576433120732
 20
464.1185854217661
 30
0.0
 10
297.1513696403132
 20
464.116610516453
 30
0.0
  0
SPLINE
  5
166
330
1F
100
AcDbEntity
  8
0
  6
Continuous
 62
     7
370
    25
100
AcDbSpline
210
0.0
220
0.0
230
1.0
 70
     8
 71
     3
 72
     8
 73
     4
 74
     0
 42
0.00000001
 43
0.00000001
 40
0.0
 40
0.0
 40
0.0
 40
0.0
 40
1.0
 40
1.0
 40
1.0
 40
1.0
 10
289.6795293510297
 20
464.2248794922652
 30
0.0
 10
290.1885333689024
 20
464.1705811846375
 30
0.0
 10
290.6988841830028
 20
464.1424204651012
 30
0.0
 10
291.210636057004
 20
464.1403734507863
 30
0.0
  0
LINE
  5
167
330
1F
100
AcDbEntity
  8
0
  6
Continuous
 62
     7
370
    25
100
AcDbLine
 10
313.2761328868
 20
359.2751985973
 30
0.0
 11
267.0761328866
 21
359.2751985973
 31
0.0
  0
LINE
  5
168
330
1F
100
AcDbEntity
  8
0
  6
Continuous
 62
     7
370
    25
100
AcDbLine
 10
267.0761328866
 20
364.2751985979
 30
0.0
 11
313.2761328868
 21
364.2751985979
 31
0.0
  0
LINE
  5
169
330
1F
100
AcDbEntity
  8
0
  6
Continuous
 62
     7
370
    25
100
AcDbLine
 10
266.0761328866
 20
359.2751985973
 30
0.0
 11
266.0761328866
 21
363.2751985979
 31
0.0
  0
LINE
  5
16A
330
1F
100
AcDbEntity
  8
0
  6
Continuous
 62
     7
370
    25
100
AcDbLine
 10
267.0761328866
 20
359.2751985973
 30
0.0
 11
266.0761328866
 21
359.2751985973
 31
0.0
  0
LINE
  5
16B
330
1F
100
AcDbEntity
  8
0
  6
Continuous
 62
     7
370
    25
100
AcDbLine
 10
314.2761328868
 20
363.2751985979
 30
0.0
 11
314.2761328868
 21
359.2751985973
 31
0.0
  0
LINE
  5
16C
330
1F
100
AcDbEntity
  8
0
  6
Continuous
 62
     7
370
    25
100
AcDbLine
 10
314.2761328868
 20
359.2751985973
 30
0.0
 11
313.2761328868
 21
359.2751985973
 31
0.0
  0
ARC
  5
16D
330
1F
100
AcDbEntity
  8
0
  6
Continuous
 62
     7
370
    25
100
AcDbCircle
 10
267.0761328866
 20
363.2751985979
 30
0.0
 40
1.0
100
AcDbArc
 50
90.0
 51
180.0
  0
ARC
  5
16E
330
1F
100
AcDbEntity
  8
0
  6
Continuous
 62
     7
370
    25
100
AcDbCircle
 10
313.2761328868
 20
363.2751985979
 30
0.0
 40
1.0
100
AcDbArc
 50
0.0
 51
90.0
  0
SPLINE
  5
16F
330
1F
100
AcDbEntity
  8
0
  6
Continuous
 62
     7
370
    25
100
AcDbSpline
210
0.0
220
0.0
230
1.0
 70
     8
 71
     3
 72
    18
 73
    14
 74
     0
 42
0.00000001
 43
0.00000001
 40
0.0
 40
0.0
 40
0.0
 40
0.0
 40
0.2500000000000016
 40
0.2500000000000016
 40
0.3750000000000012
 40
0.3750000000000012
 40
0.500000000000001
 40
0.500000000000001
 40
0.6250000000000008
 40
0.6250000000000008
 40
0.7500000000000004
 40
0.7500000000000004
 40
1.0
 40
1.0
 40
1.0
 40
1.0
 10
272.1761332281652
 20
369.2751987345071
 30
0.0
 10
272.1761332415141
 20
368.6859430701757
 30
0.0
 10
272.0687395593296
 20
368.0502099103002
 30
0.0
 10
271.7032423706435
 20
367.1269827597719
 30
0.0
 10
271.5479915965249
 20
366.8249970929311
 30
0.0
 10
271.1742300573143
 20
366.2533027105764
 30
0.0
 10
270.9557448620482
 20
365.9837424307496
 30
0.0
 10
270.4675894968343
 20
365.4955870530144
 30
0.0
 10
270.1980292226117
 20
365.2771018508339
 30
0.0
 10
269.6263348498442
 20
364.9033402969591
 30
0.0
 10
269.3243491869858
 20
364.7480895150945
 30
0.0
 10
268.4011220458327
 20
364.3825923027273
 30
0.0
 10
267.765388888712
 20
364.2751986042362
 30
0.0
 10
267.1761332243807
 20
364.2751986024705
 30
0.0
  0
LINE
  5
170
330
1F
100
AcDbEntity
  8
0
  6
Continuous
 62
     7
370
    25
100
AcDbLine
 10
338.1761328866
 20
444.3438650824
 30
0.0
 11
431.0761318836
 21
444.3438650824
 31
0.0
  0
SPLINE
  5
171
330
1F
100
AcDbEntity
  8
0
  6
Continuous
 62
     7
370
    25
100
AcDbSpline
210
0.0
220
0.0
230
1.0
 70
    24
 71
     3
 72
    26
 73
    22
 74
     0
 42
0.00000001
 43
0.00000001
 40
0.0
 40
0.0
 40
0.0
 40
0.0
 40
0.1249999999999972
 40
0.1249999999999972
 40
0.1874999999999982
 40
0.1874999999999982
 40
0.2499999999999992
 40
0.2499999999999992
 40
0.3125000000000002
 40
0.3125000000000002
 40
0.3750000000000011
 40
0.3750000000000011
 40
0.4375000000000021
 40
0.4375000000000021
 40
0.500000000000003
 40
0.500000000000003
 40
0.6250000000000017
 40
0.6250000000000017
 40
0.7500000000000003
 40
0.7500000000000003
 40
1.0
 40
1.0
 40
1.0
 40
1.0
 10
432.0761318836372
 20
449.3441378596171
 30
0.0
 10
432.0761318836372
 20
448.9607610900395
 30
0.0
 10
432.0761318836373
 20
448.5781652791092
 30
0.0
 10
432.0761318836372
 20
448.0068387391873
 30
0.0
 10
432.0761318836372
 20
447.8167935350925
 30
0.0
 10
432.0761318836372
 20
447.4380485119268
 30
0.0
 10
432.0761318836372
 20
447.248302742005
 30
0.0
 10
432.0761318836373
 20
446.8771616676106
 30
0.0
 10
432.0761318836372
 20
446.6959024763414
 30
0.0
 10
432.0761318836372
 20
446.3506018752169
 30
0.0
 10
432.0761318836373
 20
446.1916363950669
 30
0.0
 10
432.0761318836373
 20
445.9309789714625
 30
0.0
 10
432.0761318836372
 20
445.8339523797718
 30
0.0
 10
432.0761318836372
 20
445.682397142589
 30
0.0
 10
432.0761318836373
 20
445.628831966921
 30
0.0
 10
432.0761318836373
 20
445.499242149546
 30
0.0
 10
432.0761318836372
 20
445.4545594974011
 30
0.0
 10
432.0761318836372
 20
445.3906403084188
 30
0.0
 10
432.0761318836373
 20
445.3748519590108
 30
0.0
 10
432.0761318836373
 20
445.3419813646627
 30
0.0
 10
432.0761318836373
 20
445.3443653283853
 30
0.0
 10
432.0761318836373
 20
445.3438653017742
 30
0.0
  0
SPLINE
  5
172
330
1F
100
AcDbEntity
  8
0
  6
Continuous
 62
     7
370
    25
100
AcDbSpline
210
0.0
220
0.0
230
1.0
 70
     8
 71
     3
 72
    10
 73
     6
 74
     0
 42
0.00000001
 43
0.00000001
 40
0.0
 40
0.0
 40
0.0
 40
0.0
 40
0.5
 40
0.5
 40
1.0
 40
1.0
 40
1.0
 40
1.0
 10
432.0761318836371
 20
445.3438650823973
 30
0.0
 10
432.0761318836371
 20
445.0820656945982
 30
0.0
 10
431.9683587872469
 20
444.8218784236341
 30
0.0
 10
431.5981185424005
 20
444.4516381787875
 30
0.0
 10
431.3379312714364
 20
444.3438650823973
 30
0.0
 10
431.0761318836372
 20
444.3438650823973
 30
0.0
  0
SPLINE
  5
173
330
1F
100
AcDbEntity
  8
0
  6
Continuous
 62
     7
370
    25
100
AcDbSpline
210
0.0
220
0.0
230
1.0
 70
     8
 71
     3
 72
    14
 73
    10
 74
     0
 42
0.00000001
 43
0.00000001
 40
0.0
 40
0.0
 40
0.0
 40
0.0
 40
0.0026283545570112
 40
0.0026283545570112
 40
0.0026283545570112
 40
0.0052567090778632
 40
0.0052567090778632
 40
0.0052567090778632
 40
0.0104863578434055
 40
0.0104863578434055
 40
0.0104863578434055
 40
0.0104863578434055
 10
273.1781734100864
 20
469.121190905503
 30
0.0
 10
274.0423095980048
 20
469.2655921658584
 30
0.0
 10
274.9064120843249
 20
469.4101952659757
 30
0.0
 10
275.7704789696914
 20
469.55501064111
 30
0.0
 10
276.6345458495321
 20
469.6998260153181
 30
0.0
 10
277.4985775494745
 20
469.8448513401311
 30
0.0
 10
278.3625887697379
 20
469.9899984265762
 30
0.0
 10
280.0817157346743
 20
470.2787982295624
 30
0.0
 10
281.8004493655376
 20
470.5699401868644
 30
0.0
 10
283.5197459475427
 20
470.8577284960112
 30
0.0
  0
LINE
  5
174
330
1F
100
AcDbEntity
  8
0
  6
Continuous
 62
     7
370
    25
100
AcDbLine
 10
374.7516177411
 20
488.1845214388
 30
0.0
 11
375.0778958948
 21
486.2046359724
 31
0.0
  0
SPLINE
  5
175
330
1F
100
AcDbEntity
  8
0
  6
Continuous
 62
     7
370
    25
100
AcDbSpline
210
0.0
220
0.0
230
1.0
 70
    24
 71
     3
 72
    10
 73
     6
 74
     0
 42
0.00000001
 43
0.00000001
 40
0.0
 40
0.0
 40
0.0
 40
0.0
 40
0.5
 40
0.5
 40
1.0
 40
1.0
 40
1.0
 40
1.0
 10
373.6085628540333
 20
488.7949090150757
 30
0.0
 10
373.5953338930545
 20
488.8751835507865
 30
0.0
 10
373.5852507523066
 20
488.9363689639703
 30
0.0
 10
373.5723595044915
 20
489.0145942259442
 30
0.0
 10
373.5695111779818
 20
489.0318781299587
 30
0.0
 10
373.5695111780332
 20
489.0318781299613
 30
0.0
  0
ARC
  5
176
330
1F
100
AcDbEntity
  8
0
  6
Continuous
 62
     7
370
    25
100
AcDbCircle
 10
373.736715175
 20
488.017269066
 30
0.0
 40
1.028591546237896
100
AcDbArc
 50
9.3580330718
 51
99.3580327291
  0
LINE
  5
177
330
1F
100
AcDbEntity
  8
0
  6
Continuous
 62
     7
370
    25
100
AcDbLine
 10
272.1474126083
 20
468.5781779723
 30
0.0
 11
272.1589047952
 21
471.451224828
 31
0.0
  0
SPLINE
  5
178
330
1F
100
AcDbEntity
  8
0
  6
Continuous
 62
     7
370
    25
100
AcDbSpline
210
0.0
220
0.0
230
1.0
 70
     8
 71
     3
 72
    12
 73
     8
 74
     0
 42
0.00000001
 43
0.00000001
 40
0.0
 40
0.0
 40
0.0
 40
0.0
 40
0.5
 40
0.5
 40
0.75
 40
0.75
 40
1.0
 40
1.0
 40
1.0
 40
1.0
 10
272.1823120308929
 20
468.5747271318501
 30
0.0
 10
272.2390022286324
 20
468.680548266566
 30
0.0
 10
272.36403680506
 20
468.7932164417018
 30
0.0
 10
272.6237859798225
 20
468.9429710440306
 30
0.0
 10
272.7223409540042
 20
468.9894494966608
 30
0.0
 10
272.9400634732153
 20
469.0688067072621
 30
0.0
 10
273.0569032166567
 20
469.1009253029238
 30
0.0
 10
273.1781734002472
 20
469.1211909038344
 30
0.0
  0
LINE
  5
179
330
1F
100
AcDbEntity
  8
0
  6
Continuous
 62
     7
370
    25
100
AcDbLine
 10
272.1823120309
 20
468.5747271319
 30
0.0
 11
272.1474126083
 21
468.5781779723
 31
0.0
  0
SPLINE
  5
17A
330
1F
100
AcDbEntity
  8
0
  6
Continuous
 62
     7
370
    25
100
AcDbSpline
210
0.0
220
0.0
230
1.0
 70
    24
 71
     3
 72
     8
 73
     4
 74
     0
 42
0.00000001
 43
0.00000001
 40
0.0
 40
0.0
 40
0.0
 40
0.0
 40
1.0
 40
1.0
 40
1.0
 40
1.0
 10
272.1823120308941
 20
468.5747271318527
 30
0.0
 10
273.0952684366547
 20
468.4844543797627
 30
0.0
 10
274.0485372122679
 20
468.390195557202
 30
0.0
 10
275.0290164666757
 20
468.293246173744
 30
0.0
  0
SPLINE
  5
17B
330
1F
100
AcDbEntity
  8
0
  6
Continuous
 62
     7
370
    25
100
AcDbSpline
210
0.0
220
0.0
230
1.0
 70
     8
 71
     3
 72
    10
 73
     6
 74
     0
 42
0.00000001
 43
0.00000001
 40
0.0
 40
0.0
 40
0.0
 40
0.0
 40
0.5
 40
0.5
 40
1.0
 40
1.0
 40
1.0
 40
1.0
 10
284.8727654608673
 20
465.5731146440157
 30
0.0
 10
285.6357382105995
 20
465.2133187595093
 30
0.0
 10
286.4178267877753
 20
464.9225807808817
 30
0.0
 10
288.0196752007442
 20
464.4731737630945
 30
0.0
 10
288.8394174484501
 20
464.3144989068904
 30
0.0
 10
289.6795297788258
 20
464.2248794466298
 30
0.0
  0
SPLINE
  5
17C
330
1F
100
AcDbEntity
  8
0
  6
Continuous
 62
     7
370
    25
100
AcDbSpline
210
0.0
220
0.0
230
1.0
 70
     8
 71
     3
 72
    14
 73
    10
 74
     0
 42
0.00000001
 43
0.00000001
 40
0.0
 40
0.0
 40
0.0
 40
0.0
 40
0.25
 40
0.25
 40
0.5
 40
0.5
 40
0.75
 40
0.75
 40
1.0
 40
1.0
 40
1.0
 40
1.0
 10
275.0290164666756
 20
468.293246173744
 30
0.0
 10
275.8810035708042
 20
468.2090020410016
 30
0.0
 10
276.731993539574
 20
468.087904302869
 30
0.0
 10
278.4186517562564
 20
467.7734529600415
 30
0.0
 10
279.2524774161886
 20
467.580649448117
 30
0.0
 10
280.9020464749418
 20
467.1242225737332
 30
0.0
 10
281.7184563750229
 20
466.8601293854649
 30
0.0
 10
283.3172031728005
 20
466.2666190510577
 30
0.0
 10
284.1021610728041
 20
465.9365093884611
 30
0.0
 10
284.8727654608673
 20
465.5731146440157
 30
0.0
  0
LINE
  5
17D
330
1F
100
AcDbEntity
  8
0
  6
Continuous
 62
     7
370
    25
100
AcDbLine
 10
272.1761318839
 20
459.3435405116
 30
0.0
 11
272.1761318839
 21
384.3435395399
 31
0.0
  0
LINE
  5
17E
330
1F
100
AcDbEntity
  8
0
  6
Continuous
 62
     7
370
    25
100
AcDbLine
 10
272.1928649925
 20
459.3435405113
 30
0.0
 11
272.1761318839
 21
459.3435405116
 31
0.0
  0
LINE
  5
17F
330
1F
100
AcDbEntity
  8
0
  6
Continuous
 62
     7
370
    25
100
AcDbLine
 10
272.1761321176
 20
384.3435395399
 30
0.0
 11
272.1761321176
 21
380.2751985979
 31
0.0
  0
LINE
  5
180
330
1F
100
AcDbEntity
  8
0
  6
Continuous
 62
     7
370
    25
100
AcDbLine
 10
431.0761318836
 20
460.3435405116
 30
0.0
 11
273.1761318837
 21
460.3435405116
 31
0.0
  0
LINE
  5
181
330
1F
100
AcDbEntity
  8
0
  6
Continuous
 62
     7
370
    25
100
AcDbLine
 10
432.0761318836
 20
459.3435405116
 30
0.0
 11
432.0761318836
 21
449.3441378596
 31
0.0
  0
SPLINE
  5
182
330
1F
100
AcDbEntity
  8
0
  6
Continuous
 62
     7
370
    25
100
AcDbSpline
210
0.0
220
0.0
230
1.0
 70
     8
 71
     3
 72
    10
 73
     6
 74
     0
 42
0.00000001
 43
0.00000001
 40
0.0
 40
0.0
 40
0.0
 40
0.0
 40
0.5
 40
0.5
 40
1.0
 40
1.0
 40
1.0
 40
1.0
 10
432.0761318836372
 20
459.343540511579
 30
0.0
 10
432.0761318836364
 20
459.6053398993775
 30
0.0
 10
431.9683587872457
 20
459.8655271703407
 30
0.0
 10
431.5981185423994
 20
460.2357674151858
 30
0.0
 10
431.3379312714358
 20
460.3435405115755
 30
0.0
 10
431.0761318836372
 20
460.3435405115755
 30
0.0
  0
SPLINE
  5
183
330
1F
100
AcDbEntity
  8
0
  6
Continuous
 62
     7
370
    18
100
AcDbSpline
210
0.0
220
0.0
230
1.0
 70
     8
 71
     3
 72
     8
 73
     4
 74
     0
 42
0.00000001
 43
0.00000001
 40
0.0
 40
0.0
 40
0.0
 40
0.0
 40
1.0
 40
1.0
 40
1.0
 40
1.0
 10
273.1955364178208
 20
473.4468009903509
 30
0.0
 10
306.6729639458283
 20
478.6217926456305
 30
0.0
 10
340.1455266099402
 20
483.7478872137236
 30
0.0
 10
373.6085628540333
 20
488.7949090150757
 30
0.0
  0
LINE
  5
184
330
1F
100
AcDbEntity
  8
0
  6
Continuous
 62
     7
370
    18
100
AcDbLine
 10
273.1996507511
 20
474.4753843076
 30
0.0
 11
273.1955364178
 21
473.4468009904
 31
0.0
  0
LINE
  5
185
330
1F
100
AcDbEntity
  8
0
  6
Continuous
 62
     7
370
    25
100
AcDbLine
 10
272.1669531009
 20
473.4509153238
 30
0.0
 11
272.1589531649
 21
471.4509313234
 31
0.0
  0
ARC
  5
186
330
1F
100
AcDbEntity
  8
0
  6
Continuous
 62
     7
370
    25
100
AcDbCircle
 10
273.1955364178
 20
473.4468009907
 30
0.0
 40
1.028591545499509
100
AcDbArc
 50
89.7708181024
 51
179.7708181144
  0
SPLINE
  5
187
330
1F
100
AcDbEntity
  8
0
  6
Continuous
 62
     7
370
    25
100
AcDbSpline
210
0.0
220
0.0
230
1.0
 70
     8
 71
     3
 72
    18
 73
    14
 74
     0
 42
0.00000001
 43
0.00000001
 40
0.0
 40
0.0
 40
0.0
 40
0.0
 40
0.0312500000000047
 40
0.0312500000000047
 40
0.0625000000000093
 40
0.0625000000000093
 40
0.1250000000000171
 40
0.1250000000000171
 40
0.2500000000000149
 40
0.2500000000000149
 40
0.5000000000000099
 40
0.5000000000000099
 40
1.0
 40
1.0
 40
1.0
 40
1.0
 10
338.1762172418384
 20
444.3438650822399
 30
0.0
 10
338.1639349765813
 20
444.3438651236828
 30
0.0
 10
338.1554601155997
 20
444.3438572992742
 30
0.0
 10
338.1430975787931
 20
444.3438440199044
 30
0.0
 10
338.1384435504303
 20
444.3438370214912
 30
0.0
 10
338.1259143747207
 20
444.3438160397393
 30
0.0
 10
338.1198552831409
 20
444.3438023116825
 30
0.0
 10
338.1038010989626
 20
444.3437627354307
 30
0.0
 10
338.0962803131101
 20
444.343738378426
 30
0.0
 10
338.0770121728929
 20
444.3436718834571
 30
0.0
 10
338.0690672885114
 20
444.343636572481
 30
0.0
 10
338.050671959958
 20
444.3435532795115
 30
0.0
 10
338.0462810640875
 20
444.3435279004927
 30
0.0
 10
338.0446952009769
 20
444.3435195626905
 30
0.0
  0
SPLINE
  5
188
330
1F
100
AcDbEntity
  8
0
  6
Continuous
 62
     7
370
    25
100
AcDbSpline
210
0.0
220
0.0
230
1.0
 70
     8
 71
     3
 72
    23
 73
    19
 74
     0
 42
0.00000001
 43
0.00000001
 40
0.0
 40
0.0
 40
0.0
 40
0.0
 40
1.736884773864148
 40
3.473769547728295
 40
5.210654321592443
 40
6.947539095456591
 40
8.684423869320739
 40
10.42130864318489
 40
12.15819341704903
 40
13.89507819091318
 40
15.63196296477733
 40
17.36884773864148
 40
19.10573251250563
 40
20.84261728636977
 40
52.39352589075726
 40
83.94443449514475
 40
92.75701556081138
 40
101.569596626478
 40
101.569596626478
 40
101.569596626478
 40
101.569596626478
 10
273.199650751091
 20
474.475384307569
 30
0.0
 10
273.7708622302899
 20
474.5581487852638
 30
0.0
 10
274.9136780472589
 20
474.7237223804835
 30
0.0
 10
276.6255577013497
 20
474.9717247447154
 30
0.0
 10
278.3380398071261
 20
475.2198153461417
 30
0.0
 10
280.0503093916622
 20
475.467894926524
 30
0.0
 10
281.7625646455013
 20
475.716011165161
 30
0.0
 10
283.4747181055572
 20
475.9641703134279
 30
0.0
 10
285.1868159179805
 20
476.2123979998316
 30
0.0
 10
286.8986594556649
 20
476.4606843537607
 30
0.0
 10
288.6108996339733
 20
476.7091427124865
 30
0.0
 10
290.323210052826
 20
476.9577446746399
 30
0.0
 10
292.035504933162
 20
477.2064967357958
 30
0.0
 10
303.5435074124147
 20
478.8794629429121
 30
0.0
 10
324.9491635784336
 20
482.0139397198004
 30
0.0
 10
348.6075986885749
 20
485.4597221696614
 30
0.0
 10
364.8433328681307
 20
487.7871629418564
 30
0.0
 10
370.6605439774735
 20
488.6172442152721
 30
0.0
 10
373.5695111780332
 20
489.0318781299613
 30
0.0
  0
LINE
  5
189
330
1F
100
AcDbEntity
  8
0
  6
Continuous
 62
     7
370
    25
100
AcDbLine
 10
272.1761324349
 20
369.2751987333
 30
0.0
 11
272.1761324349
 21
380.2751986958
 31
0.0
  0
LWPOLYLINE
  5
18A
330
1F
100
AcDbEntity
  8
0
  6
Continuous
 62
     7
370
    25
100
AcDbPolyline
 90
        2
 70
   128
 43
0.0
 10
273.1996507511
 20
474.4753843076
 10
273.1996507511
 20
474.4753843076
  0
LINE
  5
18B
330
1F
100
AcDbEntity
  8
0
  6
Continuous
 62
     7
370
    25
100
AcDbLine
 10
272.1761311517
 20
380.275198592
 30
0.0
 11
272.1761311517
 21
369.2751986294
 31
0.0
  0
LINE
  5
18C
330
1F
100
AcDbEntity
  8
0
  6
Continuous
 62
     7
370
    25
100
AcDbLine
 10
272.1761324349
 20
380.2751986958
 30
0.0
 11
272.1761311517
 21
380.275198592
 31
0.0
  0
SPLINE
  5
18D
330
1F
100
AcDbEntity
  8
0
  6
Continuous
 62
     7
370
    25
100
AcDbSpline
210
0.0
220
0.0
230
1.0
 70
     8
 71
     3
 72
    18
 73
    14
 74
     0
 42
0.00000001
 43
0.00000001
 40
0.0
 40
0.0
 40
0.0
 40
0.0
 40
0.2500000000000051
 40
0.2500000000000051
 40
0.3750000000000054
 40
0.3750000000000054
 40
0.5000000000000058
 40
0.5000000000000058
 40
0.6250000000000061
 40
0.6250000000000061
 40
0.7500000000000063
 40
0.7500000000000063
 40
1.0
 40
1.0
 40
1.0
 40
1.0
 10
274.1732419419266
 20
465.6935405115755
 30
0.0
 10
274.1306195051928
 20
465.5175508508851
 30
0.0
 10
274.0880017830767
 20
465.345328893175
 30
0.0
 10
274.0267255025396
 20
465.1019335354627
 30
0.0
 10
274.0071426273176
 20
465.0248647236967
 30
0.0
 10
273.969750025036
 20
464.8787734883296
 30
0.0
 10
273.9517786667616
 20
464.8091359458256
 30
0.0
 10
273.919191360589
 20
464.6836138929679
 30
0.0
 10
273.904442972133
 20
464.6272028305264
 30
0.0
 10
273.878227551431
 20
464.5273648374571
 30
0.0
 10
273.8668103516118
 20
464.4841317759903
 30
0.0
 10
273.8393895010369
 20
464.3805751733552
 30
0.0
 10
273.829486419495
 20
464.3435405115756
 30
0.0
 10
273.8294864194951
 20
464.3435405115755
 30
0.0
  0
SPLINE
  5
18E
330
1F
100
AcDbEntity
  8
0
  6
Continuous
 62
     7
370
    25
100
AcDbSpline
210
0.0
220
0.0
230
1.0
 70
     8
 71
     3
 72
     8
 73
     4
 74
     0
 42
0.00000001
 43
0.00000001
 40
0.0
 40
0.0
 40
0.0
 40
0.0
 40
1.0
 40
1.0
 40
1.0
 40
1.0
 10
274.8669091757846
 20
468.0107469167379
 30
0.0
 10
274.5932533444692
 20
467.2471666124073
 30
0.0
 10
274.3624245400692
 20
466.4746826471986
 30
0.0
 10
274.1732419419266
 20
465.6935405115755
 30
0.0
  0
SPLINE
  5
18F
330
1F
100
AcDbEntity
  8
0
  6
Continuous
 62
     7
370
    25
100
AcDbSpline
210
0.0
220
0.0
230
1.0
 70
     8
 71
     3
 72
    10
 73
     6
 74
     0
 42
0.00000001
 43
0.00000001
 40
0.0
 40
0.0
 40
0.0
 40
0.0
 40
0.5
 40
0.5
 40
1.0
 40
1.0
 40
1.0
 40
1.0
 10
275.0561389766536
 20
468.1435405115755
 30
0.0
 10
275.0149494075301
 20
468.1435405115755
 30
0.0
 10
274.9741280050009
 20
468.130622107778
 30
0.0
 10
274.9070811460216
 20
468.0837107208927
 30
0.0
 10
274.8808070565918
 20
468.0495260942371
 30
0.0
 10
274.8669091757846
 20
468.0107469167379
 30
0.0
  0
LINE
  5
190
330
1F
100
AcDbEntity
  8
0
  6
Continuous
 62
     7
370
    25
100
AcDbLine
 10
275.0561389767
 20
468.1435405116
 30
0.0
 11
276.0852916884
 21
468.1435405116
 31
0.0
  0
SPLINE
  5
191
330
1F
100
AcDbEntity
  8
0
  6
Continuous
 62
     8
370
    18
100
AcDbSpline
210
0.0
220
0.0
230
1.0
 70
     8
 71
     3
 72
    10
 73
     6
 74
     0
 42
0.00000001
 43
0.00000001
 40
0.5781271939100351
 40
0.5781271939100351
 40
0.5781271939100351
 40
0.5781271939100351
 40
1.154236230988856
 40
1.154236230988856
 40
1.161213034834384
 40
1.161213034834384
 40
1.161213034834384
 40
1.161213034834384
 10
288.9746350715429
 20
464.9789829213174
 30
0.0
 10
289.1044292812294
 20
464.8396474857905
 30
0.0
 10
289.2343457846172
 20
464.7003914795819
 30
0.0
 10
289.365942917361
 20
464.5596762136943
 30
0.0
 10
289.3675175406703
 20
464.5579925275047
 30
0.0
 10
289.3690921863781
 20
464.556308857304
 30
0.0
  0
SPLINE
  5
192
330
1F
100
AcDbEntity
  8
0
  6
Continuous
 62
     8
370
    18
100
AcDbSpline
210
0.0
220
0.0
230
1.0
 70
     8
 71
     3
 72
    44
 73
    40
 74
     0
 42
0.00000001
 43
0.00000001
 40
1.161213034834251
 40
1.161213034834251
 40
1.161213034834251
 40
1.161213034834251
 40
1.215563289518784
 40
1.215563289518784
 40
1.288701289238223
 40
1.288701289238223
 40
1.434977288677113
 40
1.434977288677113
 40
1.727529287554893
 40
1.727529287554893
 40
2.020081286432672
 40
2.020081286432672
 40
2.312633285310463
 40
2.312633285310463
 40
2.897737283066022
 40
2.897737283066022
 40
3.190289281943802
 40
3.190289281943802
 40
3.482841280821583
 40
3.482841280821583
 40
4.067945278577153
 40
4.067945278577153
 40
4.360497277454932
 40
4.360497277454932
 40
4.653049276332712
 40
4.653049276332712
 40
5.238153274088273
 40
5.238153274088273
 40
5.823257271843833
 40
5.823257271843833
 40
6.408361269599403
 40
6.408361269599403
 40
6.993465267354963
 40
6.993465267354963
 40
7.578569265110523
 40
7.578569265110523
 40
8.163673262866084
 40
8.163673262866084
 40
8.172668223542962
 40
8.172668223542962
 40
8.172668223542962
 40
8.172668223542962
 10
284.2653978709231
 20
470.0410427097991
 30
0.0
 10
284.2772456198143
 20
470.0285327795598
 30
0.0
 10
284.2891031229909
 20
470.0160050818617
 30
0.0
 10
284.3169616581685
 20
469.9866378645057
 30
0.0
 10
284.3329540089531
 20
469.9697522866713
 30
0.0
 10
284.3809775148824
 20
469.9190409795179
 30
0.0
 10
284.4130564974803
 20
469.8851294622827
 30
0.0
 10
284.5094611919304
 20
469.7831422446889
 30
0.0
 10
284.5739424282565
 20
469.7148249973881
 30
0.0
 10
284.7033888525975
 20
469.5776166433823
 30
0.0
 10
284.7683046024285
 20
469.5087549262624
 30
0.0
 10
284.8984597423401
 20
469.3705058241176
 30
0.0
 10
284.9636463350087
 20
469.3011881555983
 30
0.0
 10
285.159542597925
 20
469.0924147425428
 30
0.0
 10
285.2903344207078
 20
468.9524143754112
 30
0.0
 10
285.4868503481881
 20
468.7415811613006
 30
0.0
 10
285.552363369738
 20
468.6712136724169
 30
0.0
 10
285.6835326492903
 20
468.5302423157585
 30
0.0
 10
285.7491214424339
 20
468.4597049202349
 30
0.0
 10
285.9459738642051
 20
468.2478123038957
 30
0.0
 10
286.0772542995506
 20
468.1062813415083
 30
0.0
 10
286.2741668253683
 20
467.8937691371156
 30
0.0
 10
286.3398216233787
 20
467.822875492087
 30
0.0
 10
286.4710884611886
 20
467.6810806242319
 30
0.0
 10
286.5367419946173
 20
467.6101357296478
 30
0.0
 10
286.7336603660114
 20
467.3972927237666
 30
0.0
 10
286.8649479561258
 20
467.2553167488319
 30
0.0
 10
287.1275321297109
 20
466.9713419464865
 30
0.0
 10
287.2588580292435
 20
466.8293130595356
 30
0.0
 10
287.5215056541938
 20
466.545340071932
 30
0.0
 10
287.652883865897
 20
466.4033365907409
 30
0.0
 10
287.9156792823462
 20
466.1194525531343
 30
0.0
 10
288.0471281246117
 20
465.9775275015901
 30
0.0
 10
288.3101379999387
 20
465.6938148972259
 30
0.0
 10
288.4416859835523
 20
465.5520337032112
 30
0.0
 10
288.7050076974679
 20
465.2686197418666
 30
0.0
 10
288.8367387723846
 20
465.1270228388641
 30
0.0
 10
288.9705820706367
 20
464.9833339113568
 30
0.0
 10
288.9726085561837
 20
464.9811584066555
 30
0.0
 10
288.974635071543
 20
464.9789829213173
 30
0.0
  0
SPLINE
  5
193
330
1F
100
AcDbEntity
  8
0
  6
Continuous
 62
     8
370
    18
100
AcDbSpline
210
0.0
220
0.0
230
1.0
 70
     8
 71
     3
 72
    12
 73
     8
 74
     0
 42
0.00000001
 43
0.00000001
 40
8.172668223544306
 40
8.172668223544306
 40
8.172668223544306
 40
8.172668223544306
 40
8.176115058065218
 40
8.176115058065218
 40
8.468667056942998
 40
8.468667056942998
 40
8.487454801976572
 40
8.487454801976572
 40
8.487454801976572
 40
8.487454801976572
 10
284.0604745600048
 20
470.25681638233
 30
0.0
 10
284.0612182600183
 20
470.2560338290319
 30
0.0
 10
284.0619620353073
 20
470.2552512081687
 30
0.0
 10
284.1258407098595
 20
470.1880372604349
 30
0.0
 10
284.1893716912094
 20
470.1212632576353
 30
0.0
 10
284.2572079990649
 20
470.049689428585
 30
0.0
 10
284.2613023522042
 20
470.045367130745
 30
0.0
 10
284.2653978709222
 20
470.0410427098
 30
0.0
  0
SPLINE
  5
194
330
1F
100
AcDbEntity
  8
0
  6
Continuous
 62
     8
370
    18
100
AcDbSpline
210
0.0
220
0.0
230
1.0
 70
     8
 71
     3
 72
    16
 73
    12
 74
     0
 42
0.00000001
 43
0.00000001
 40
8.487454801976607
 40
8.487454801976607
 40
8.487454801976607
 40
8.487454801976607
 40
8.505695716722828
 40
8.505695716722828
 40
8.523980216652689
 40
8.523980216652689
 40
8.54226471658255
 40
8.54226471658255
 40
8.57883371644228
 40
8.57883371644228
 40
8.648524881640771
 40
8.648524881640771
 40
8.648524881640771
 40
8.648524881640771
 10
283.9566997931676
 20
470.3662372911588
 30
0.0
 10
283.9605876639733
 20
470.3620970399929
 30
0.0
 10
283.9644567818034
 20
470.3579596839771
 30
0.0
 10
283.9722793836872
 20
470.3497067631898
 30
0.0
 10
283.9761964140777
 20
470.3455764981035
 30
0.0
 10
283.9840434779485
 20
470.3373029478855
 30
0.0
 10
283.9879548477442
 20
470.3331799951874
 30
0.0
 10
283.9997168976171
 20
470.3207839443886
 30
0.0
 10
284.0075848858783
 20
470.3124950775132
 30
0.0
 10
284.0304317565825
 20
470.28843347822
 30
0.0
 10
284.0454377718492
 20
470.2726387407396
 30
0.0
 10
284.0604745600048
 20
470.25681638233
 30
0.0
  0
SPLINE
  5
195
330
1F
100
AcDbEntity
  8
0
  6
Continuous
 62
     8
370
    18
100
AcDbSpline
210
0.0
220
0.0
230
1.0
 70
     8
 71
     3
 72
    16
 73
    12
 74
     0
 42
0.00000001
 43
0.00000001
 40
8.648524881646212
 40
8.648524881646212
 40
8.648524881646212
 40
8.648524881646212
 40
8.673847827925675
 40
8.673847827925675
 40
8.746985827645116
 40
8.746985827645116
 40
8.783554827504846
 40
8.783554827504846
 40
8.801839327434706
 40
8.801839327434706
 40
8.801882912612903
 40
8.801882912612903
 40
8.801882912612903
 40
8.801882912612903
 10
283.8597084878182
 20
470.4705709029622
 30
0.0
 10
283.8650053778502
 20
470.4648283277914
 30
0.0
 10
283.8703017096274
 20
470.4590774368195
 30
0.0
 10
283.8909423704186
 20
470.4367345460738
 30
0.0
 10
283.9063036833991
 20
470.4201771815108
 30
0.0
 10
283.9295200921371
 20
470.3952695035142
 30
0.0
 10
283.9372466241809
 20
470.3869983194683
 30
0.0
 10
283.9489015486011
 20
470.3745508620721
 30
0.0
 10
283.9527746728809
 20
470.3704171273437
 30
0.0
 10
283.9566812135566
 20
470.366257076764
 30
0.0
 10
283.956690503414
 20
470.366247183955
 30
0.0
 10
283.9566997931642
 20
470.3662372911625
 30
0.0
  0
SPLINE
  5
196
330
1F
100
AcDbEntity
  8
0
  6
Continuous
 62
     8
370
    18
100
AcDbSpline
210
0.0
220
0.0
230
1.0
 70
     8
 71
     3
 72
    18
 73
    14
 74
     0
 42
0.00000001
 43
0.00000001
 40
8.801882912619199
 40
8.801882912619199
 40
8.801882912619199
 40
8.801882912619199
 40
8.809500601130553
 40
8.809500601130553
 40
8.818642851095484
 40
8.818642851095484
 40
8.836927351025343
 40
8.836927351025343
 40
8.910065350744784
 40
8.910065350744784
 40
8.946634350604514
 40
8.946634350604514
 40
8.957880404178475
 40
8.957880404178475
 40
8.957880404178475
 40
8.957880404178475
 10
283.7615321704131
 20
470.575757758782
 30
0.0
 10
283.7631424146617
 20
470.5740624762803
 30
0.0
 10
283.7647562772166
 20
470.5723645524761
 30
0.0
 10
283.7682771628329
 20
470.5686470505042
 30
0.0
 10
283.770204757625
 20
470.5665946015572
 30
0.0
 10
283.7759769915794
 20
470.5604635329103
 30
0.0
 10
283.7798102450737
 20
470.5563847339704
 30
0.0
 10
283.7990210489087
 20
470.5359203787531
 30
0.0
 10
283.8143620307959
 20
470.5194922139775
 30
0.0
 10
283.8373459025197
 20
470.4947523622674
 30
0.0
 10
283.8449962959655
 20
470.4864943224101
 30
0.0
 10
283.8550036242883
 20
470.4756698784932
 30
0.0
 10
283.8573561111034
 20
470.4731212107905
 30
0.0
 10
283.8597084878141
 20
470.4705709029665
 30
0.0
  0
SPLINE
  5
197
330
1F
100
AcDbEntity
  8
0
  6
Continuous
 62
     8
370
    18
100
AcDbSpline
210
0.0
220
0.0
230
1.0
 70
     8
 71
     3
 72
    18
 73
    14
 74
     0
 42
0.00000001
 43
0.00000001
 40
8.957880404168646
 40
8.957880404168646
 40
8.957880404168646
 40
8.957880404168646
 40
8.963411976457541
 40
8.963411976457541
 40
8.97255422642247
 40
8.97255422642247
 40
9.0091232262822
 40
9.0091232262822
 40
9.082261226001641
 40
9.082261226001641
 40
9.11883022586136
 40
9.11883022586136
 40
9.120354787324775
 40
9.120354787324775
 40
9.120354787324775
 40
9.120354787324775
 10
283.6592502632644
 20
470.683815446883
 30
0.0
 10
283.6603949597847
 20
470.6825848618578
 30
0.0
 10
283.6615414261311
 20
470.6813547761257
 30
0.0
 10
283.6645983383189
 20
470.6781142891331
 30
0.0
 10
283.6665129406711
 20
470.6760883206381
 30
0.0
 10
283.6760578592178
 20
470.6659836423726
 30
0.0
 10
283.6837101620195
 20
470.6578883592404
 30
0.0
 10
283.7066869165217
 20
470.6335966967366
 30
0.0
 10
283.7220473606846
 20
470.6173783732415
 30
0.0
 10
283.7451475289093
 20
470.5930189185441
 30
0.0
 10
283.7528461643197
 20
470.5849063042878
 30
0.0
 10
283.7608877848368
 20
470.5764362216489
 30
0.0
 10
283.7612099051646
 20
470.5760970431093
 30
0.0
 10
283.7615321704193
 20
470.5757577587755
 30
0.0
  0
SPLINE
  5
198
330
1F
100
AcDbEntity
  8
0
  6
Continuous
 62
     8
370
    18
100
AcDbSpline
210
0.0
220
0.0
230
1.0
 70
     8
 71
     3
 72
    22
 73
    18
 74
     0
 42
0.00000001
 43
0.00000001
 40
9.120354787332598
 40
9.120354787332598
 40
9.120354787332598
 40
9.120354787332598
 40
9.15692378719232
 40
9.15692378719232
 40
9.175208287122178
 40
9.175208287122178
 40
9.193492787052039
 40
9.193492787052039
 40
9.230061786911758
 40
9.230061786911758
 40
9.266630786771488
 40
9.266630786771488
 40
9.339768786490929
 40
9.339768786490929
 40
9.35805328642079
 40
9.35805328642079
 40
9.361663964089
 40
9.361663964089
 40
9.361663964089
 40
9.361663964089
 10
283.5212132182461
 20
470.8509774115888
 30
0.0
 10
283.5270773378032
 20
470.841935608255
 30
0.0
 10
283.5330226553509
 20
470.8329531295025
 30
0.0
 10
283.5423671502319
 20
470.8196528105881
 30
0.0
 10
283.5455503079799
 20
470.8152474408016
 30
0.0
 10
283.5520503791417
 20
470.8065400176111
 30
0.0
 10
283.5553790992589
 20
470.8022333764033
 30
0.0
 10
283.5655166096743
 20
470.7893618065643
 30
0.0
 10
283.5724438020353
 20
470.7809221165287
 30
0.0
 10
283.5865819698004
 20
470.7641246164567
 30
0.0
 10
283.5937630241547
 20
470.7558018023091
 30
0.0
 10
283.6156172906642
 20
470.7309891475153
 30
0.0
 10
283.6305795115169
 20
470.7146792889645
 30
0.0
 10
283.649434683969
 20
470.6943611099022
 30
0.0
 10
283.653227869162
 20
470.6902821366186
 30
0.0
 10
283.6577566392576
 20
470.6854221633921
 30
0.0
 10
283.6585030742243
 20
470.6846186987734
 30
0.0
 10
283.6592502632595
 20
470.6838154468882
 30
0.0
  0
SPLINE
  5
199
330
1F
100
AcDbEntity
  8
0
  6
Continuous
 62
     8
370
    18
100
AcDbSpline
210
0.0
220
0.0
230
1.0
 70
     8
 71
     3
 72
     8
 73
     4
 74
     0
 42
0.00000001
 43
0.00000001
 40
0.1199204586113763
 40
0.1199204586113763
 40
0.1199204586113763
 40
0.1199204586113763
 40
0.5781271939121826
 40
0.5781271939121826
 40
0.5781271939121826
 40
0.5781271939121826
 10
289.3690921863767
 20
464.5563088573056
 30
0.0
 10
289.4725082039404
 20
464.4457325758065
 30
0.0
 10
289.5760208329239
 20
464.3352252590623
 30
0.0
 10
289.6795744791792
 20
464.2248317937648
 30
0.0
  0
LINE
  5
19A
330
1F
100
AcDbEntity
  8
0
  6
Continuous
 62
     8
370
    18
100
AcDbLine
 10
267.0761328866
 20
363.2751985979
 30
0.0
 11
267.0761328866
 21
359.2751985973
 31
0.0
  0
LINE
  5
19B
330
1F
100
AcDbEntity
  8
0
  6
Continuous
 62
     8
370
    18
100
AcDbLine
 10
313.2761328868
 20
363.2751985979
 30
0.0
 11
267.0761328866
 21
363.2751985979
 31
0.0
  0
LINE
  5
19C
330
1F
100
AcDbEntity
  8
0
  6
Continuous
 62
     8
370
    18
100
AcDbLine
 10
313.2761328868
 20
359.2751985973
 30
0.0
 11
313.2761328868
 21
363.2751985979
 31
0.0
  0
LINE
  5
19D
330
1F
100
AcDbEntity
  8
0
  6
Continuous
 62
     8
370
    18
100
AcDbLine
 10
313.2761328868
 20
364.2751985979
 30
0.0
 11
313.2761328868
 21
363.2751985979
 31
0.0
  0
LINE
  5
19E
330
1F
100
AcDbEntity
  8
0
  6
Continuous
 62
     8
370
    18
100
AcDbLine
 10
267.0761328866
 20
364.2751985979
 30
0.0
 11
267.0761328866
 21
363.2751985979
 31
0.0
  0
LINE
  5
19F
330
1F
100
AcDbEntity
  8
0
  6
Continuous
 62
     8
370
    18
100
AcDbLine
 10
266.0761328866
 20
363.2751985979
 30
0.0
 11
267.0761328866
 21
363.2751985979
 31
0.0
  0
LINE
  5
1A0
330
1F
100
AcDbEntity
  8
0
  6
Continuous
 62
     8
370
    18
100
AcDbLine
 10
313.2761328868
 20
363.2751985979
 30
0.0
 11
314.2761328868
 21
363.2751985979
 31
0.0
  0
SPLINE
  5
1A1
330
1F
100
AcDbEntity
  8
0
  6
Continuous
 62
     8
370
    18
100
AcDbSpline
210
0.0
220
0.0
230
1.0
 70
     8
 71
     3
 72
    18
 73
    14
 74
     0
 42
0.00000001
 43
0.00000001
 40
0.0
 40
0.0
 40
0.0
 40
0.0
 40
0.2499999999999998
 40
0.2499999999999998
 40
0.3749999999999993
 40
0.3749999999999993
 40
0.499999999999999
 40
0.499999999999999
 40
0.6249999999999987
 40
0.6249999999999987
 40
0.7499999999999982
 40
0.7499999999999982
 40
1.0
 40
1.0
 40
1.0
 40
1.0
 10
273.1761321173306
 20
369.2751987337504
 30
0.0
 10
273.1761321173308
 20
368.6859430747583
 30
0.0
 10
273.1761321195478
 20
368.0502099166667
 30
0.0
 10
273.1761321270924
 20
367.1269827647605
 30
0.0
 10
273.1761321302971
 20
366.8249970968398
 30
0.0
 10
273.1761321380122
 20
366.2533027117932
 30
0.0
 10
273.1761321425221
 20
365.9837424303649
 30
0.0
 10
273.1761321525983
 20
365.4955870496693
 30
0.0
 10
273.1761321581624
 20
365.2771018461383
 30
0.0
 10
273.1761321699629
 20
364.9033402903202
 30
0.0
 10
273.1761321761963
 20
364.7480895078644
 30
0.0
 10
273.1761321952527
 20
364.3825922949949
 30
0.0
 10
273.1761322083749
 20
364.2751985979303
 30
0.0
 10
273.1761322205377
 20
364.2751985979303
 30
0.0
  0
SPLINE
  5
1A2
330
1F
100
AcDbEntity
  8
0
  6
Continuous
 62
     8
370
    18
100
AcDbSpline
210
0.0
220
0.0
230
1.0
 70
     8
 71
     3
 72
    18
 73
    14
 74
     0
 42
0.00000001
 43
0.00000001
 40
0.0
 40
0.0
 40
0.0
 40
0.0
 40
0.2500000000000003
 40
0.2500000000000003
 40
0.3750000000000004
 40
0.3750000000000004
 40
0.5000000000000004
 40
0.5000000000000004
 40
0.6250000000000004
 40
0.6250000000000004
 40
0.7500000000000006
 40
0.7500000000000006
 40
1.0
 40
1.0
 40
1.0
 40
1.0
 10
288.1761330672272
 20
364.2751985979303
 30
0.0
 10
288.1761330550645
 20
364.2751985979303
 30
0.0
 10
288.1761330419425
 20
364.3825922949949
 30
0.0
 10
288.1761330228861
 20
364.7480895078644
 30
0.0
 10
288.1761330166528
 20
364.9033402903202
 30
0.0
 10
288.1761330048524
 20
365.2771018461383
 30
0.0
 10
288.1761329992884
 20
365.4955870496693
 30
0.0
 10
288.1761329892122
 20
365.9837424303649
 30
0.0
 10
288.1761329847024
 20
366.2533027117932
 30
0.0
 10
288.1761329769874
 20
366.8249970968398
 30
0.0
 10
288.1761329737827
 20
367.1269827647605
 30
0.0
 10
288.1761329662382
 20
368.0502099166667
 30
0.0
 10
288.1761329640212
 20
368.6859430747583
 30
0.0
 10
288.176132964021
 20
369.2751987337504
 30
0.0
  0
LINE
  5
1A3
330
1F
100
AcDbEntity
  8
0
  6
Continuous
 62
     8
370
    18
100
AcDbLine
 10
338.1761318836
 20
449.3435388854
 30
0.0
 11
431.0761318836
 21
449.3435390964
 31
0.0
  0
SPLINE
  5
1A4
330
1F
100
AcDbEntity
  8
0
  6
Continuous
 62
     8
370
    18
100
AcDbSpline
210
0.0
220
0.0
230
1.0
 70
    24
 71
     3
 72
    22
 73
    18
 74
     0
 42
0.00000001
 43
0.00000001
 40
39.41772977525555
 40
39.41772977525555
 40
39.41772977525555
 40
39.41772977525555
 40
42.70254058986018
 40
42.70254058986018
 40
44.3449459971625
 40
44.3449459971625
 40
45.98735140446481
 40
45.98735140446481
 40
46.80855410811597
 40
46.80855410811597
 40
47.62975681176712
 40
47.62975681176712
 40
49.27216221906944
 40
49.27216221906944
 40
50.91456762637176
 40
50.91456762637176
 40
52.55697303367407
 40
52.55697303367407
 40
52.55697303367407
 40
52.55697303367407
 10
431.0761318836373
 20
444.3438650823973
 30
0.0
 10
431.0761318836373
 20
444.3444564461843
 30
0.0
 10
431.0761318836373
 20
444.3413152127778
 30
0.0
 10
431.0761318836373
 20
444.39537066105
 30
0.0
 10
431.0761318836373
 20
444.424393871568
 30
0.0
 10
431.0761318836373
 20
444.5395943510539
 30
0.0
 10
431.0761318836373
 20
444.6249310190051
 30
0.0
 10
431.0761318836373
 20
444.8594114859897
 30
0.0
 10
431.0761318836373
 20
444.9568459633023
 30
0.0
 10
431.0761318836373
 20
445.1999645943446
 30
0.0
 10
431.0761318836373
 20
445.3462725193258
 30
0.0
 10
431.0761318836373
 20
445.8506783946959
 30
0.0
 10
431.0761318836373
 20
446.2654283343448
 30
0.0
 10
431.0761318836373
 20
447.1205318021688
 30
0.0
 10
431.0761318836373
 20
447.5641264242895
 30
0.0
 10
431.0761318836373
 20
448.4516439147569
 30
0.0
 10
431.0761318836373
 20
448.8979278104399
 30
0.0
 10
431.0761318836373
 20
449.343538885385
 30
0.0
  0
SPLINE
  5
1A5
330
1F
100
AcDbEntity
  8
0
  6
Continuous
 62
     8
370
    18
100
AcDbSpline
210
0.0
220
0.0
230
1.0
 70
     8
 71
     3
 72
    10
 73
     6
 74
     0
 42
0.00000001
 43
0.00000001
 40
0.0
 40
0.0
 40
0.0
 40
0.0
 40
0.5
 40
0.5
 40
1.0
 40
1.0
 40
1.0
 40
1.0
 10
432.0761318836372
 20
449.3441378596173
 30
0.0
 10
432.0761318836372
 20
449.3439810485299
 30
0.0
 10
431.9683587872471
 20
449.3438252030591
 30
0.0
 10
431.5981185424005
 20
449.3436034386928
 30
0.0
 10
431.3379312714364
 20
449.3435388853851
 30
0.0
 10
431.0761318836372
 20
449.3435388853851
 30
0.0
  0
LINE
  5
1A6
330
1F
100
AcDbEntity
  8
0
  6
Continuous
 62
     8
370
    18
100
AcDbLine
 10
273.1874881127
 20
471.4471104941
 30
0.0
 11
273.1781811126
 21
469.1203604677
 31
0.0
  0
LINE
  5
1A7
330
1F
100
AcDbEntity
  8
0
  6
Continuous
 62
     8
370
    18
100
AcDbLine
 10
273.1875364823
 20
471.4468169902
 30
0.0
 11
373.7367635468
 21
488.0169755665
 31
0.0
  0
LINE
  5
1A8
330
1F
100
AcDbEntity
  8
0
  6
Continuous
 62
     8
370
    18
100
AcDbLine
 10
374.0692980058
 20
485.99910783
 30
0.0
 11
373.7367151766
 21
488.0172690759
 31
0.0
  0
LINE
  5
1A9
330
1F
100
AcDbEntity
  8
0
  6
Continuous
 62
     8
370
    18
100
AcDbLine
 10
373.7367151776
 20
488.0172690699
 30
0.0
 11
374.7516177411
 21
488.1845214388
 31
0.0
  0
SPLINE
  5
1AA
330
1F
100
AcDbEntity
  8
0
  6
Continuous
 62
     8
370
    18
100
AcDbSpline
210
0.0
220
0.0
230
1.0
 70
    24
 71
     3
 72
    10
 73
     6
 74
     0
 42
0.00000001
 43
0.00000001
 40
0.0
 40
0.0
 40
0.0
 40
0.0
 40
0.5
 40
0.5
 40
1.0
 40
1.0
 40
1.0
 40
1.0
 10
373.7367635467669
 20
488.0169755664991
 30
0.0
 10
373.7149577133487
 20
488.1492953445682
 30
0.0
 10
373.6912242918445
 20
488.2933119021793
 30
0.0
 10
373.6461030571645
 20
488.5671116528056
 30
0.0
 10
373.6249382910187
 20
488.6955413761802
 30
0.0
 10
373.6085628540333
 20
488.7949090150757
 30
0.0
  0
SPLINE
  5
1AB
330
1F
100
AcDbEntity
  8
0
  6
Continuous
 62
     8
370
    18
100
AcDbSpline
210
0.0
220
0.0
230
1.0
 70
    24
 71
     3
 72
    14
 73
    10
 74
     0
 42
0.00000001
 43
0.00000001
 40
0.0
 40
0.0
 40
0.0
 40
0.0
 40
0.25
 40
0.25
 40
0.5
 40
0.5
 40
0.75
 40
0.75
 40
1.0
 40
1.0
 40
1.0
 40
1.0
 10
273.1875364822859
 20
471.4468169901571
 30
0.0
 10
273.0528911125378
 20
471.4473555716339
 30
0.0
 10
272.9182974369119
 20
471.4478939463345
 30
0.0
 10
272.6695015114984
 20
471.4488891300339
 30
0.0
 10
272.5553971642465
 20
471.4493455474222
 30
0.0
 10
272.364975270216
 20
471.4501072349984
 30
0.0
 10
272.2887326554775
 20
471.450412205458
 30
0.0
 10
272.1856765550171
 20
471.4508244298622
 30
0.0
 10
272.1589036224254
 20
471.4509315215943
 30
0.0
 10
272.1589036224267
 20
471.4509315215965
 30
0.0
  0
LINE
  5
1AC
330
1F
100
AcDbEntity
  8
0
  6
Continuous
 62
     8
370
    18
100
AcDbLine
 10
273.1761318837
 20
459.3435405101
 30
0.0
 11
272.1928649925
 21
459.3435405113
 31
0.0
  0
LINE
  5
1AD
330
1F
100
AcDbEntity
  8
0
  6
Continuous
 62
     8
370
    18
100
AcDbLine
 10
273.1761318837
 20
459.3435405101
 30
0.0
 11
273.1761318835
 21
384.3435395399
 31
0.0
  0
LINE
  5
1AE
330
1F
100
AcDbEntity
  8
0
  6
Continuous
 62
     8
370
    18
100
AcDbLine
 10
273.1761321173
 20
384.3435395399
 30
0.0
 11
273.1761321173
 21
380.2751987338
 31
0.0
  0
LINE
  5
1AF
330
1F
100
AcDbEntity
  8
0
  6
Continuous
 62
     8
370
    18
100
AcDbLine
 10
288.1761322992
 20
380.2751987338
 30
0.0
 11
288.1761322992
 21
384.3435395399
 31
0.0
  0
SPLINE
  5
1B0
330
1F
100
AcDbEntity
  8
0
  6
Continuous
 62
     8
370
    18
100
AcDbSpline
210
0.0
220
0.0
230
1.0
 70
     8
 71
     3
 72
    38
 73
    34
 74
     0
 42
0.00000001
 43
0.00000001
 40
0.0
 40
0.0
 40
0.0
 40
0.0
 40
0.0625
 40
0.0625
 40
0.125
 40
0.125
 40
0.1874999999999999
 40
0.1874999999999999
 40
0.2499999999999999
 40
0.2499999999999999
 40
0.3124999999999998
 40
0.3124999999999998
 40
0.3749999999999998
 40
0.3749999999999998
 40
0.4374999999999998
 40
0.4374999999999998
 40
0.4999999999999997
 40
0.4999999999999997
 40
0.5624999999999997
 40
0.5624999999999997
 40
0.6249999999999997
 40
0.6249999999999997
 40
0.6874999999999997
 40
0.6874999999999997
 40
0.7499999999999997
 40
0.7499999999999997
 40
0.8124999999999998
 40
0.8124999999999998
 40
0.8749999999999999
 40
0.8749999999999999
 40
0.9375
 40
0.9375
 40
1.0
 40
1.0
 40
1.0
 40
1.0
 10
338.1761318836379
 20
449.3435388853699
 30
0.0
 10
335.6224156280434
 20
449.3435388853699
 30
0.0
 10
333.0698293374184
 20
449.3440453844405
 30
0.0
 10
328.0682036363047
 20
449.3351344713087
 30
0.0
 10
325.6190780961292
 20
449.3256309294209
 30
0.0
 10
320.8999197619067
 20
449.2749851222304
 30
0.0
 10
318.6298008381729
 20
449.2337567272422
 30
0.0
 10
314.3212166685994
 20
449.0899246489172
 30
0.0
 10
312.2826652930732
 20
448.9872348358948
 30
0.0
 10
308.4693761080606
 20
448.6853054943391
 30
0.0
 10
306.6945521688875
 20
448.4859798361202
 30
0.0
 10
303.4230605917119
 20
447.9527504053452
 30
0.0
 10
301.9263068240227
 20
447.6187605031035
 30
0.0
 10
299.2100650625365
 20
446.7779041043569
 30
0.0
 10
297.9904909390527
 20
446.2709514781664
 30
0.0
 10
295.8150685668951
 20
445.0481849610601
 30
0.0
 10
294.8591341885346
 20
444.3322849404588
 30
0.0
 10
293.1873859263436
 20
442.6605366640974
 30
0.0
 10
292.4714859128262
 20
441.704602278652
 30
0.0
 10
291.248719409449
 20
439.5291798927614
 30
0.0
 10
290.7417667899023
 20
438.3096057626307
 30
0.0
 10
289.9009104036069
 20
435.5933639886858
 30
0.0
 10
289.5669205071713
 20
434.0966102151859
 30
0.0
 10
289.0336910868579
 20
430.825118627539
 30
0.0
 10
288.834365433293
 20
429.0502946837066
 30
0.0
 10
288.5324360997046
 20
425.2370054907165
 30
0.0
 10
288.4297462899942
 20
423.1984541118733
 30
0.0
 10
288.2859142169286
 20
418.8898699370324
 30
0.0
 10
288.2446858238864
 20
416.6197510113493
 30
0.0
 10
288.1940400194066
 20
411.9005926744128
 30
0.0
 10
288.1845364782822
 20
409.4514671334741
 30
0.0
 10
288.1756255659283
 20
404.449841431588
 30
0.0
 10
288.176132065012
 20
401.8972551409552
 30
0.0
 10
288.1761320650121
 20
399.3435388853699
 30
0.0
  0
LINE
  5
1B1
330
1F
100
AcDbEntity
  8
0
  6
Continuous
 62
     8
370
    18
100
AcDbLine
 10
288.176132065
 20
384.3435395399
 30
0.0
 11
288.176132065
 21
399.343539512
 31
0.0
  0
LINE
  5
1B2
330
1F
100
AcDbEntity
  8
0
  6
Continuous
 62
     8
370
    18
100
AcDbLine
 10
431.0761318836
 20
459.3435405101
 30
0.0
 11
273.1761318837
 21
459.3435405101
 31
0.0
  0
LINE
  5
1B3
330
1F
100
AcDbEntity
  8
0
  6
Continuous
 62
     8
370
    18
100
AcDbLine
 10
431.0761318836
 20
449.3435390964
 30
0.0
 11
431.0761318836
 21
459.3435405101
 31
0.0
  0
LINE
  5
1B4
330
1F
100
AcDbEntity
  8
0
  6
Continuous
 62
     8
370
    18
100
AcDbLine
 10
273.1761318837
 20
460.3435405116
 30
0.0
 11
273.1761318837
 21
459.3435405101
 31
0.0
  0
LINE
  5
1B5
330
1F
100
AcDbEntity
  8
0
  6
Continuous
 62
     8
370
    18
100
AcDbLine
 10
431.0761318836
 20
459.3435405101
 30
0.0
 11
431.0761318836
 21
460.3435405116
 31
0.0
  0
SPLINE
  5
1B6
330
1F
100
AcDbEntity
  8
0
  6
Continuous
 62
     8
370
    18
100
AcDbSpline
210
0.0
220
0.0
230
1.0
 70
     8
 71
     3
 72
    10
 73
     6
 74
     0
 42
0.00000001
 43
0.00000001
 40
0.0
 40
0.0
 40
0.0
 40
0.0
 40
0.5
 40
0.5
 40
1.0
 40
1.0
 40
1.0
 40
1.0
 10
432.0761318836372
 20
459.343540511579
 30
0.0
 10
432.0761318836372
 20
459.343540511184
 30
0.0
 10
431.9683587872471
 20
459.3435405107914
 30
0.0
 10
431.5981185424005
 20
459.3435405102328
 30
0.0
 10
431.3379312714364
 20
459.3435405100702
 30
0.0
 10
431.0761318836372
 20
459.3435405100702
 30
0.0
  0
LINE
  5
1B7
330
1F
100
AcDbEntity
  8
0
  6
Continuous
 62
     8
370
    18
100
AcDbLine
 10
273.1955364178
 20
473.4468009904
 30
0.0
 11
273.1875364823
 21
471.4468169902
 31
0.0
  0
LINE
  5
1B8
330
1F
100
AcDbEntity
  8
0
  6
Continuous
 62
     8
370
    18
100
AcDbLine
 10
288.176132964
 20
369.2751987712
 30
0.0
 11
288.176132964
 21
380.2751987338
 31
0.0
  0
LINE
  5
1B9
330
1F
100
AcDbEntity
  8
0
  6
Continuous
 62
     8
370
    18
100
AcDbLine
 10
273.1761321173
 20
380.2751987338
 30
0.0
 11
273.1761321173
 21
369.2751987712
 31
0.0
  0
LINE
  5
1BA
330
1F
100
AcDbEntity
  8
0
  6
Continuous
 62
     8
370
    18
100
AcDbLine
 10
277.0453267893
 20
468.0107469167
 30
0.0
 11
274.8669091758
 21
468.0107469167
 31
0.0
  0
ENDSEC
  0
SECTION
  2
OBJECTS
  0
DICTIONARY
  5
C
330
0
100
AcDbDictionary
281
     1
  3
ACAD_GROUP
350
D
  3
ACAD_LAYOUT
350
1A
  3
ACAD_MLINESTYLE
350
17
  3
ACAD_PLOTSETTINGS
350
19
  3
ACAD_PLOTSTYLENAME
350
E
  3
ACAD_SCALELIST
350
47
  3
DWGPROPS
350
1BB
  0
DICTIONARY
  5
D
102
{ACAD_REACTORS
330
C
102
}
330
C
100
AcDbDictionary
281
     1
  0
DICTIONARY
  5
1A
102
{ACAD_REACTORS
330
C
102
}
330
C
100
AcDbDictionary
281
     1
  3
Layout1
350
1E
  3
Layout2
350
26
  3
Model
350
22
  0
DICTIONARY
  5
17
102
{ACAD_REACTORS
330
C
102
}
330
C
100
AcDbDictionary
281
     1
  3
Standard
350
18
  0
DICTIONARY
  5
19
102
{ACAD_REACTORS
330
C
102
}
330
C
100
AcDbDictionary
281
     1
  0
ACDBDICTIONARYWDFLT
  5
E
102
{ACAD_REACTORS
330
C
102
}
330
C
100
AcDbDictionary
281
     1
  3
Normal
350
F
100
AcDbDictionaryWithDefault
340
F
  0
DICTIONARY
  5
47
102
{ACAD_REACTORS
330
C
102
}
330
C
100
AcDbDictionary
281
     1
  3
A0
350
48
  3
A1
350
49
  3
A2
350
4A
  3
A3
350
4B
  3
A4
350
4C
  3
A5
350
4D
  3
A6
350
4E
  3
A7
350
4F
  3
A8
350
50
  3
A9
350
51
  3
B0
350
52
  3
B1
350
53
  3
B2
350
54
  3
B3
350
55
  3
B4
350
56
  3
B5
350
57
  3
B6
350
58
  0
XRECORD
  5
1BB
102
{ACAD_REACTORS
330
C
102
}
330
C
100
AcDbXrecord
280
     1
  1
DWGPROPS COOKIE
  2

  3

  4

  6

  7

  8
fue-task
  9

300
=
301
=
302
=
303
=
304
=
305
=
306
=
307
=
308
=
309
=
 40
0.0
 41
2460346.425460637
 42
2460346.425461724
  1

 90
        0
  0
LAYOUT
  5
1E
102
{ACAD_REACTORS
330
1A
102
}
330
1A
100
AcDbPlotSettings
  1

  2
none_device
  4

  6

 40
0.0
 41
0.0
 42
0.0
 43
0.0
 44
0.0
 45
0.0
 46
0.0
 47
0.0
 48
0.0
 49
0.0
140
0.0
141
0.0
142
1.0
143
1.0
 70
   688
 72
     1
 73
     0
 74
     5
  7

 75
    16
147
1.0
148
0.0
149
0.0
100
AcDbLayout
  1
Layout1
 70
     1
 71
     1
 10
0.0
 20
0.0
 11
420.0
 21
297.0
 12
0.0
 22
0.0
 32
0.0
 14
1.0000000000E+20
 24
1.0000000000E+20
 34
1.0000000000E+20
 15
-1.0000000000E+20
 25
-1.0000000000E+20
 35
-1.0000000000E+20
146
0.0
 13
0.0
 23
0.0
 33
0.0
 16
1.0
 26
0.0
 36
0.0
 17
0.0
 27
1.0
 37
0.0
 76
     0
330
1B
  0
LAYOUT
  5
26
102
{ACAD_REACTORS
330
1A
102
}
330
1A
100
AcDbPlotSettings
  1

  2
none_device
  4

  6

 40
0.0
 41
0.0
 42
0.0
 43
0.0
 44
0.0
 45
0.0
 46
0.0
 47
0.0
 48
0.0
 49
0.0
140
0.0
141
0.0
142
1.0
143
1.0
 70
   688
 72
     1
 73
     0
 74
     5
  7

 75
    16
147
1.0
148
0.0
149
0.0
100
AcDbLayout
  1
Layout2
 70
     1
 71
     2
 10
0.0
 20
0.0
 11
0.0
 21
0.0
 12
0.0
 22
0.0
 32
0.0
 14
0.0
 24
0.0
 34
0.0
 15
0.0
 25
0.0
 35
0.0
146
0.0
 13
0.0
 23
0.0
 33
0.0
 16
1.0
 26
0.0
 36
0.0
 17
0.0
 27
1.0
 37
0.0
 76
     0
330
23
  0
LAYOUT
  5
22
102
{ACAD_REACTORS
330
1A
102
}
330
1A
100
AcDbPlotSettings
  1

  2
none_device
  4
Letter_(8.50_x_11.00_Inches)
  6

 40
6.35
 41
6.35
 42
6.35000508
 43
6.35000508
 44
215.9
 45
279.4
 46
0.0
 47
0.0
 48
0.0
 49
0.0
140
0.0
141
0.0
142
1.0
143
1.0
 70
  1712
 72
     1
 73
     0
 74
     0
  7

 75
     0
147
1.0
148
0.0
149
0.0
100
AcDbLayout
  1
Model
 70
     1
 71
     0
 10
0.0
 20
0.0
 11
594.0
 21
841.0
 12
0.0
 22
0.0
 32
0.0
 14
0.0
 24
0.0
 34
0.0
 15
594.0
 25
841.0
 35
0.0
146
0.0
 13
0.0
 23
0.0
 33
0.0
 16
1.0
 26
0.0
 36
0.0
 17
0.0
 27
1.0
 37
0.0
 76
     0
330
1F
331
29
  0
MLINESTYLE
  5
18
102
{ACAD_REACTORS
330
17
102
}
330
17
100
AcDbMlineStyle
  2
Standard
 70
     0
  3

 62
   256
 51
90.0
 52
90.0
 71
     2
 49
0.5
 62
   256
  6
BYLAYER
 49
-0.5
 62
   256
  6
BYLAYER
  0
ACDBPLACEHOLDER
  5
F
102
{ACAD_REACTORS
330
E
102
}
330
E
  0
SCALE
  5
48
102
{ACAD_REACTORS
330
47
102
}
330
47
100
AcDbScale
 70
     0
300
1:1
140
1.0
141
1.0
290
     1
  0
SCALE
  5
49
102
{ACAD_REACTORS
330
47
102
}
330
47
100
AcDbScale
 70
     0
300
1:2
140
1.0
141
2.0
290
     0
  0
SCALE
  5
4A
102
{ACAD_REACTORS
330
47
102
}
330
47
100
AcDbScale
 70
     0
300
1:4
140
1.0
141
4.0
290
     0
  0
SCALE
  5
4B
102
{ACAD_REACTORS
330
47
102
}
330
47
100
AcDbScale
 70
     0
300
1:5
140
1.0
141
5.0
290
     0
  0
SCALE
  5
4C
102
{ACAD_REACTORS
330
47
102
}
330
47
100
AcDbScale
 70
     0
300
1:8
140
1.0
141
8.0
290
     0
  0
SCALE
  5
4D
102
{ACAD_REACTORS
330
47
102
}
330
47
100
AcDbScale
 70
     0
300
1:10
140
1.0
141
10.0
290
     0
  0
SCALE
  5
4E
102
{ACAD_REACTORS
330
47
102
}
330
47
100
AcDbScale
 70
     0
300
1:16
140
1.0
141
16.0
290
     0
  0
SCALE
  5
4F
102
{ACAD_REACTORS
330
47
102
}
330
47
100
AcDbScale
 70
     0
300
1:20
140
1.0
141
20.0
290
     0
  0
SCALE
  5
50
102
{ACAD_REACTORS
330
47
102
}
330
47
100
AcDbScale
 70
     0
300
1:30
140
1.0
141
30.0
290
     0
  0
SCALE
  5
51
102
{ACAD_REACTORS
330
47
102
}
330
47
100
AcDbScale
 70
     0
300
1:40
140
1.0
141
40.0
290
     0
  0
SCALE
  5
52
102
{ACAD_REACTORS
330
47
102
}
330
47
100
AcDbScale
 70
     0
300
1:50
140
1.0
141
50.0
290
     0
  0
SCALE
  5
53
102
{ACAD_REACTORS
330
47
102
}
330
47
100
AcDbScale
 70
     0
300
1:100
140
1.0
141
100.0
290
     0
  0
SCALE
  5
54
102
{ACAD_REACTORS
330
47
102
}
330
47
100
AcDbScale
 70
     0
300
2:1
140
2.0
141
1.0
290
     0
  0
SCALE
  5
55
102
{ACAD_REACTORS
330
47
102
}
330
47
100
AcDbScale
 70
     0
300
4:1
140
4.0
141
1.0
290
     0
  0
SCALE
  5
56
102
{ACAD_REACTORS
330
47
102
}
330
47
100
AcDbScale
 70
     0
300
8:1
140
8.0
141
1.0
290
     0
  0
SCALE
  5
57
102
{ACAD_REACTORS
330
47
102
}
330
47
100
AcDbScale
 70
     0
300
10:1
140
10.0
141
1.0
290
     0
  0
SCALE
  5
58
102
{ACAD_REACTORS
330
47
102
}
330
47
100
AcDbScale
 70
     0
300
100:1
140
100.0
141
1.0
290
     0
  0
ENDSEC
  0
EOF
