  0
SECTION
  2
HEADER
  9
$ACADVER
  1
AC1015
  9
$ACADMAINTVER
 70
     6
  9
$DWGCODEPAGE
  3
ANSI_1252
  9
$INSBASE
 10
0.0
 20
0.0
 30
0.0
  9
$EXTMIN
 10
0.0
 20
0.0
 30
0.0
  9
$EXTMAX
 10
594.0
 20
841.0
 30
0.0
  9
$LIMMIN
 10
0.0
 20
0.0
  9
$LIMMAX
 10
594.0
 20
841.0
  9
$ORTHOMODE
 70
     0
  9
$REGENMODE
 70
     1
  9
$FILLMODE
 70
     1
  9
$QTEXTMODE
 70
     0
  9
$MIRRTEXT
 70
     1
  9
$LTSCALE
 40
1.0
  9
$ATTMODE
 70
     1
  9
$TEXTSIZE
 40
10.0
  9
$TRACEWID
 40
1.0
  9
$TEXTSTYLE
  7
Standard
  9
$CLAYER
  8
0
  9
$CELTYPE
  6
ByLayer
  9
$CECOLOR
 62
   256
  9
$CELTSCALE
 40
1.0
  9
$DISPSILH
 70
     0
  9
$DIMSCALE
 40
1.0
  9
$DIMASZ
 40
2.5
  9
$DIMEXO
 40
0.0
  9
$DIMDLI
 40
3.75
  9
$DIMRND
 40
0.0
  9
$DIMDLE
 40
0.0
  9
$DIMEXE
 40
1.0
  9
$DIMTP
 40
0.0
  9
$DIMTM
 40
0.0
  9
$DIMTXT
 40
3.5
  9
$DIMCEN
 40
2.5
  9
$DIMTSZ
 40
0.0
  9
$DIMTOL
 70
     0
  9
$DIMLIM
 70
     0
  9
$DIMTIH
 70
     1
  9
$DIMTOH
 70
     1
  9
$DIMSE1
 70
     0
  9
$DIMSE2
 70
     0
  9
$DIMTAD
 70
     1
  9
$DIMZIN
 70
     0
  9
$DIMBLK
  1

  9
$DIMASO
 70
     1
  9
$DIMSHO
 70
     1
  9
$DIMPOST
  1

  9
$DIMAPOST
  1

  9
$DIMALT
 70
     0
  9
$DIMALTD
 70
     3
  9
$DIMALTF
 40
0.0393700787
  9
$DIMLFAC
 40
1.0
  9
$DIMTOFL
 70
     1
  9
$DIMTVP
 40
0.0
  9
$DIMTIX
 70
     0
  9
$DIMSOXD
 70
     0
  9
$DIMSAH
 70
     0
  9
$DIMBLK1
  1

  9
$DIMBLK2
  1

  9
$DIMSTYLE
  2
ISO-25
  9
$DIMCLRD
 70
     0
  9
$DIMCLRE
 70
     0
  9
$DIMCLRT
 70
     0
  9
$DIMTFAC
 40
1.0
  9
$DIMGAP
 40
1.5
  9
$DIMJUST
 70
     0
  9
$DIMSD1
 70
     0
  9
$DIMSD2
 70
     0
  9
$DIMTOLJ
 70
     0
  9
$DIMTZIN
 70
     0
  9
$DIMALTZ
 70
     0
  9
$DIMALTTZ
 70
     0
  9
$DIMUPT
 70
     0
  9
$DIMDEC
 70
     2
  9
$DIMTDEC
 70
     2
  9
$DIMALTU
 70
     2
  9
$DIMALTTD
 70
     3
  9
$DIMTXSTY
  7
Standard
  9
$DIMAUNIT
 70
     0
  9
$DIMADEC
 70
     2
  9
$DIMALTRND
 40
0.0
  9
$DIMAZIN
 70
     0
  9
$DIMDSEP
 70
    44
  9
$DIMATFIT
 70
     3
  9
$DIMFRAC
 70
     0
  9
$DIMLDRBLK
  1

  9
$DIMLUNIT
 70
     2
  9
$DIMLWD
 70
    -2
  9
$DIMLWE
 70
    -2
  9
$DIMTMOVE
 70
     0
  9
$LUNITS
 70
     2
  9
$LUPREC
 70
     2
  9
$SKETCHINC
 40
1.0
  9
$FILLETRAD
 40
10.0
  9
$AUNITS
 70
     0
  9
$AUPREC
 70
     2
  9
$MENU
  1
.
  9
$ELEVATION
 40
0.0
  9
$PELEVATION
 40
0.0
  9
$THICKNESS
 40
0.0
  9
$LIMCHECK
 70
     0
  9
$CHAMFERA
 40
0.0
  9
$CHAMFERB
 40
0.0
  9
$CHAMFERC
 40
0.0
  9
$CHAMFERD
 40
0.0
  9
$SKPOLY
 70
     0
  9
$TDCREATE
 40
2459074.393908206
  9
$TDUCREATE
 40
2459074.310574873
  9
$TDUPDATE
 40
2459074.393909479
  9
$TDUUPDATE
 40
2459074.310576146
  9
$TDINDWG
 40
0.0000000116
  9
$TDUSRTIMER
 40
0.0000000116
  9
$USRTIMER
 70
     1
  9
$ANGBASE
 50
0.0
  9
$ANGDIR
 70
     0
  9
$PDMODE
 70
     0
  9
$PDSIZE
 40
-1.0
  9
$PLINEWID
 40
0.0
  9
$SPLFRAME
 70
     0
  9
$SPLINETYPE
 70
     6
  9
$SPLINESEGS
 70
     8
  9
$HANDSEED
  5
188
  9
$SURFTAB1
 70
     6
  9
$SURFTAB2
 70
     6
  9
$SURFTYPE
 70
     6
  9
$SURFU
 70
     6
  9
$SURFV
 70
     6
  9
$UCSBASE
  2

  9
$UCSNAME
  2

  9
$UCSORG
 10
0.0
 20
0.0
 30
0.0
  9
$UCSXDIR
 10
1.0
 20
0.0
 30
0.0
  9
$UCSYDIR
 10
0.0
 20
1.0
 30
0.0
  9
$UCSORTHOREF
  2

  9
$UCSORTHOVIEW
 70
     0
  9
$UCSORGTOP
 10
0.0
 20
0.0
 30
0.0
  9
$UCSORGBOTTOM
 10
0.0
 20
0.0
 30
0.0
  9
$UCSORGLEFT
 10
0.0
 20
0.0
 30
0.0
  9
$UCSORGRIGHT
 10
0.0
 20
0.0
 30
0.0
  9
$UCSORGFRONT
 10
0.0
 20
0.0
 30
0.0
  9
$UCSORGBACK
 10
0.0
 20
0.0
 30
0.0
  9
$PUCSBASE
  2

  9
$PUCSNAME
  2

  9
$PUCSORG
 10
0.0
 20
0.0
 30
0.0
  9
$PUCSXDIR
 10
1.0
 20
0.0
 30
0.0
  9
$PUCSYDIR
 10
0.0
 20
1.0
 30
0.0
  9
$PUCSORTHOREF
  2

  9
$PUCSORTHOVIEW
 70
     0
  9
$PUCSORGTOP
 10
0.0
 20
0.0
 30
0.0
  9
$PUCSORGBOTTOM
 10
0.0
 20
0.0
 30
0.0
  9
$PUCSORGLEFT
 10
0.0
 20
0.0
 30
0.0
  9
$PUCSORGRIGHT
 10
0.0
 20
0.0
 30
0.0
  9
$PUCSORGFRONT
 10
0.0
 20
0.0
 30
0.0
  9
$PUCSORGBACK
 10
0.0
 20
0.0
 30
0.0
  9
$USERI1
 70
     0
  9
$USERI2
 70
     0
  9
$USERI3
 70
     0
  9
$USERI4
 70
     0
  9
$USERI5
 70
     0
  9
$USERR1
 40
0.0
  9
$USERR2
 40
0.0
  9
$USERR3
 40
0.0
  9
$USERR4
 40
0.0
  9
$USERR5
 40
0.0
  9
$WORLDVIEW
 70
     1
  9
$SHADEDGE
 70
     3
  9
$SHADEDIF
 70
    70
  9
$TILEMODE
 70
     1
  9
$MAXACTVP
 70
    64
  9
$PINSBASE
 10
0.0
 20
0.0
 30
0.0
  9
$PLIMCHECK
 70
     0
  9
$PEXTMIN
 10
1.0000000000E+20
 20
1.0000000000E+20
 30
1.0000000000E+20
  9
$PEXTMAX
 10
-1.0000000000E+20
 20
-1.0000000000E+20
 30
-1.0000000000E+20
  9
$PLIMMIN
 10
0.0
 20
0.0
  9
$PLIMMAX
 10
420.0
 20
297.0
  9
$UNITMODE
 70
     0
  9
$VISRETAIN
 70
     1
  9
$PLINEGEN
 70
     0
  9
$PSLTSCALE
 70
     1
  9
$TREEDEPTH
 70
  3020
  9
$CMLSTYLE
  2
Standard
  9
$CMLJUST
 70
     0
  9
$CMLSCALE
 40
20.0
  9
$PROXYGRAPHICS
 70
     1
  9
$MEASUREMENT
 70
     1
  9
$CELWEIGHT
370
    -1
  9
$ENDCAPS
280
     0
  9
$JOINSTYLE
280
     0
  9
$LWDISPLAY
290
     1
  9
$INSUNITS
 70
     4
  9
$HYPERLINKBASE
  1

  9
$STYLESHEET
  1

  9
$XEDIT
290
     1
  9
$CEPSNTYPE
380
     0
  9
$PSTYLEMODE
290
     1
  9
$FINGERPRINTGUID
  2
{bf3f38d8-f883-42b5-82ab-961644678ba2}
  9
$VERSIONGUID
  2
{FAEB1C32-E019-11D5-929B-00C0DF256EC4}
  9
$EXTNAMES
290
     1
  9
$PSVPSCALE
 40
0.0
  9
$OLESTARTUP
290
     0
  0
ENDSEC
  0
SECTION
  2
CLASSES
  0
CLASS
  1
ACDBDICTIONARYWDFLT
  2
AcDbDictionaryWithDefault
  3
ObjectDBX Classes
 90
        0
280
     0
281
     0
  0
CLASS
  1
VISUALSTYLE
  2
AcDbVisualStyle
  3
ObjectDBX Classes
 90
     4095
280
     0
281
     0
  0
CLASS
  1
MATERIAL
  2
AcDbMaterial
  3
ObjectDBX Classes
 90
     1153
280
     0
281
     0
  0
CLASS
  1
SCALE
  2
AcDbScale
  3
ObjectDBX Classes
 90
     1153
280
     0
281
     0
  0
CLASS
  1
TABLESTYLE
  2
AcDbTableStyle
  3
ObjectDBX Classes
 90
     4095
280
     0
281
     0
  0
CLASS
  1
MLEADERSTYLE
  2
AcDbMLeaderStyle
  3
ACDB_MLEADERSTYLE_CLASS
 90
     4095
280
     0
281
     0
  0
CLASS
  1
SUN
  2
AcDbSun
  3
SCENEOE
 90
     1153
280
     0
281
     0
  0
CLASS
  1
ACDBPLACEHOLDER
  2
AcDbPlaceHolder
  3
ObjectDBX Classes
 90
        0
280
     0
281
     0
  0
CLASS
  1
LAYOUT
  2
AcDbLayout
  3
ObjectDBX Classes
 90
        0
280
     0
281
     0
  0
ENDSEC
  0
SECTION
  2
TABLES
  0
TABLE
  2
VPORT
  5
8
330
0
100
AcDbSymbolTable
 70
     1
  0
VPORT
  5
29
330
8
100
AcDbSymbolTableRecord
100
AcDbViewportTableRecord
  2
*Active
 70
     0
 10
0.0
 20
0.0
 11
1.0
 21
1.0
 12
297.0
 22
420.5
 13
0.0
 23
0.0
 14
10.0
 24
10.0
 15
10.0
 25
10.0
 16
0.0
 26
0.0
 36
1.0
 17
0.0
 27
0.0
 37
0.0
 40
841.0
 41
0.7063020214
 42
50.0
 43
0.0
 44
0.0
 50
0.0
 51
0.0
 71
     0
 72
  2000
 73
     1
 74
     3
 75
     0
 76
     0
 77
     0
 78
     0
281
     0
 65
     1
110
0.0
120
0.0
130
0.0
111
1.0
121
0.0
131
0.0
112
0.0
122
1.0
132
0.0
 79
     0
146
0.0
  0
ENDTAB
  0
TABLE
  2
LTYPE
  5
5
330
0
100
AcDbSymbolTable
 70
     6
  0
LTYPE
  5
14
330
5
100
AcDbSymbolTableRecord
100
AcDbLinetypeTableRecord
  2
ByBlock
 70
     0
  3

 72
    65
 73
     0
 40
0.0
  0
LTYPE
  5
15
330
5
100
AcDbSymbolTableRecord
100
AcDbLinetypeTableRecord
  2
ByLayer
 70
     0
  3

 72
    65
 73
     0
 40
0.0
  0
LTYPE
  5
16
330
5
100
AcDbSymbolTableRecord
100
AcDbLinetypeTableRecord
  2
Continuous
 70
     0
  3
Solid line
 72
    65
 73
     0
 40
0.0
  0
LTYPE
  5
6E
330
5
100
AcDbSymbolTableRecord
100
AcDbLinetypeTableRecord
  2
HIDDEN
 70
     0
  3
Hidden __ __ __ __ __ __ __ __ __ __ __ __ __ __
 72
    65
 73
     2
 40
1.905
 49
1.27
 74
     0
 49
-0.635
 74
     0
  0
LTYPE
  5
6F
330
5
100
AcDbSymbolTableRecord
100
AcDbLinetypeTableRecord
  2
PHANTOM
 70
     0
  3
Phantom ______  __  __  ______  __  __  ______
 72
    65
 73
     6
 40
12.7
 49
6.35
 74
     0
 49
-1.27
 74
     0
 49
1.27
 74
     0
 49
-1.27
 74
     0
 49
1.27
 74
     0
 49
-1.27
 74
     0
  0
LTYPE
  5
70
330
5
100
AcDbSymbolTableRecord
100
AcDbLinetypeTableRecord
  2
CENTER
 70
     0
  3
Center ____ _ ____ _ ____ _ ____ _ ____ _ ____
 72
    65
 73
     4
 40
10.16
 49
6.35
 74
     0
 49
-1.27
 74
     0
 49
1.27
 74
     0
 49
-1.27
 74
     0
  0
LTYPE
  5
71
330
5
100
AcDbSymbolTableRecord
100
AcDbLinetypeTableRecord
  2
CENTERX2
 70
     0
  3
Center (2x) ________  __  ________  __  _____
 72
    65
 73
     4
 40
20.32
 49
12.7
 74
     0
 49
-2.54
 74
     0
 49
2.54
 74
     0
 49
-2.54
 74
     0
  0
LTYPE
  5
72
330
5
100
AcDbSymbolTableRecord
100
AcDbLinetypeTableRecord
  2
DOT2
 70
     0
  3
Dot (.5x) ........................................
 72
    65
 73
     2
 40
0.635
 49
0.0
 74
     0
 49
-0.635
 74
     0
  0
ENDTAB
  0
TABLE
  2
LAYER
  5
2
330
0
100
AcDbSymbolTable
 70
     1
  0
LAYER
  5
10
330
2
100
AcDbSymbolTableRecord
100
AcDbLayerTableRecord
  2
0
 70
     0
 62
     7
  6
Continuous
370
    -3
390
F
  0
ENDTAB
  0
TABLE
  2
STYLE
  5
3
330
0
100
AcDbSymbolTable
 70
     3
  0
STYLE
  5
11
330
3
100
AcDbSymbolTableRecord
100
AcDbTextStyleTableRecord
  2
Standard
 70
     0
 40
0.0
 41
1.0
 50
0.0
 71
     0
 42
10.0
  3
txt
  4

  0
STYLE
  5
76
330
3
100
AcDbSymbolTableRecord
100
AcDbTextStyleTableRecord
  2
SLDTEXTSTYLE0
 70
     0
 40
0.0
 41
0.96
 50
0.0
 71
     0
 42
10.0
  3
ISOCP3
  4

  0
STYLE
  5
8D
330
3
100
AcDbSymbolTableRecord
100
AcDbTextStyleTableRecord
  2
SLDTEXTSTYLE1
 70
     0
 40
0.0
 41
0.605
 50
0.0
 71
     0
 42
10.0
  3
TXT
  4

  0
ENDTAB
  0
TABLE
  2
VIEW
  5
6
330
0
100
AcDbSymbolTable
 70
     0
  0
ENDTAB
  0
TABLE
  2
UCS
  5
7
330
0
100
AcDbSymbolTable
 70
     0
  0
ENDTAB
  0
TABLE
  2
APPID
  5
9
330
0
100
AcDbSymbolTable
 70
     1
  0
APPID
  5
12
330
9
100
AcDbSymbolTableRecord
100
AcDbRegAppTableRecord
  2
ACAD
 70
     0
  0
ENDTAB
  0
TABLE
  2
DIMSTYLE
  5
A
330
0
100
AcDbSymbolTable
 70
     2
100
AcDbDimStyleTable
  0
DIMSTYLE
105
27
330
A
100
AcDbSymbolTableRecord
100
AcDbDimStyleTableRecord
  2
ISO-25
 70
     0
 41
2.5
 42
0.625
 43
3.75
 44
1.25
 73
     0
 74
     0
 77
     1
 78
     8
140
2.5
141
2.5
143
0.0393700787
147
0.625
171
     3
172
     1
178
     0
271
     2
272
     2
274
     3
278
    44
283
     0
284
     8
340
11
  0
DIMSTYLE
105
77
102
{ACAD_REACTORS
330
75
330
82
102
}
330
A
100
AcDbSymbolTableRecord
100
AcDbDimStyleTableRecord
  2
SLDDIMSTYLE0
 70
     0
 41
2.5
 44
0.0
 45
0.000000001
 73
     0
 74
     0
 77
     1
 78
    12
 79
     3
140
6.0
147
1.5
173
     1
178
     0
271
     2
272
     2
276
     2
284
    12
340
76
  0
ENDTAB
  0
TABLE
  2
BLOCK_RECORD
  5
1
330
0
100
AcDbSymbolTable
 70
     3
  0
BLOCK_RECORD
  5
1F
330
1
100
AcDbSymbolTableRecord
100
AcDbBlockTableRecord
  2
*Model_Space
340
22
  0
BLOCK_RECORD
  5
1B
330
1
100
AcDbSymbolTableRecord
100
AcDbBlockTableRecord
  2
*Paper_Space
340
1E
  0
BLOCK_RECORD
  5
23
330
1
100
AcDbSymbolTableRecord
100
AcDbBlockTableRecord
  2
*Paper_Space0
340
26
  0
BLOCK_RECORD
  5
78
330
1
100
AcDbSymbolTableRecord
100
AcDbBlockTableRecord
  2
_D
340
0
  0
BLOCK_RECORD
  5
83
330
1
100
AcDbSymbolTableRecord
100
AcDbBlockTableRecord
  2
_D_1
340
0
  0
ENDTAB
  0
ENDSEC
  0
SECTION
  2
BLOCKS
  0
BLOCK
  5
20
330
1F
100
AcDbEntity
  8
0
100
AcDbBlockBegin
  2
*Model_Space
 70
     0
 10
0.0
 20
0.0
 30
0.0
  3
*Model_Space
  1

  0
ENDBLK
  5
21
330
1F
100
AcDbEntity
  8
0
100
AcDbBlockEnd
  0
BLOCK
  5
1C
330
1B
100
AcDbEntity
 67
     1
  8
0
100
AcDbBlockBegin
  2
*Paper_Space
 70
     0
 10
0.0
 20
0.0
 30
0.0
  3
*Paper_Space
  1

  0
ENDBLK
  5
1D
330
1B
100
AcDbEntity
 67
     1
  8
0
100
AcDbBlockEnd
  0
BLOCK
  5
24
330
23
100
AcDbEntity
  8
0
100
AcDbBlockBegin
  2
*Paper_Space0
 70
     0
 10
0.0
 20
0.0
 30
0.0
  3
*Paper_Space0
  1

  0
ENDBLK
  5
25
330
23
100
AcDbEntity
  8
0
100
AcDbBlockEnd
  0
BLOCK
  5
79
330
78
100
AcDbEntity
  8
0
100
AcDbBlockBegin
  2
_D
 70
     0
 10
0.0
 20
0.0
 30
0.0
  3
_D
  1

  0
SOLID
  5
7B
330
78
100
AcDbEntity
  8
0
  6
Continuous
 62
     7
370
    18
100
AcDbTrace
 10
42.7614395004
 20
152.0299240879
 30
0.0
 11
42.4614395004
 21
149.5299240879
 31
0.0
 12
43.0614395004
 22
149.5299240879
 32
0.0
 13
43.0614395004
 23
149.5299240879
 33
0.0
  0
SOLID
  5
7C
330
78
100
AcDbEntity
  8
0
  6
Continuous
 62
     7
370
    18
100
AcDbTrace
 10
42.7614395004
 20
52.0299240879
 30
0.0
 11
43.0614395004
 21
54.5299240879
 31
0.0
 12
42.4614395004
 22
54.5299240879
 32
0.0
 13
42.4614395004
 23
54.5299240879
 33
0.0
  0
LINE
  5
7D
330
78
100
AcDbEntity
  8
0
  6
Continuous
 62
     7
370
     0
100
AcDbLine
 10
56.6850079902
 20
152.0299240879
 30
0.0
 11
41.7614395004
 21
152.0299240879
 31
0.0
  0
LINE
  5
7E
330
78
100
AcDbEntity
  8
0
  6
Continuous
 62
     7
370
     0
100
AcDbLine
 10
56.6850079902
 20
52.0299240879
 30
0.0
 11
41.7614395004
 21
52.0299240879
 31
0.0
  0
LINE
  5
7F
330
78
100
AcDbEntity
  8
0
  6
Continuous
 62
     7
370
     0
100
AcDbLine
 10
42.7614395004
 20
152.0299240879
 30
0.0
 11
42.7614395004
 21
52.0299240879
 31
0.0
  0
MTEXT
  5
80
330
78
100
AcDbEntity
  8
0
  6
Continuous
 62
     7
370
    18
100
AcDbMText
 10
35.0270332946
 20
94.3680541463
 30
0.0
 40
6.0
 41
0.0
 71
     1
 72
     1
  1
100
  7
SLDTEXTSTYLE0
 11
-7.044195017643634E-15
 21
1.0
 31
0.0
 73
     1
 44
1.0
  0
MTEXT
  5
81
330
78
100
AcDbEntity
  8
0
  6
Continuous
 62
     7
370
    18
100
AcDbMText
 10
35.0270332946
 20
105.7430548466
 30
0.0
 40
6.0
 41
0.0
 71
     1
 72
     1
  1
mm
  7
SLDTEXTSTYLE0
 11
-7.044195017643634E-15
 21
1.0
 31
0.0
 73
     1
 44
1.0
  0
ENDBLK
  5
7A
330
78
100
AcDbEntity
  8
0
100
AcDbBlockEnd
  0
BLOCK
  5
84
330
83
100
AcDbEntity
  8
0
100
AcDbBlockBegin
  2
_D_1
 70
     0
 10
0.0
 20
0.0
 30
0.0
  3
_D_1
  1

  0
SOLID
  5
86
330
83
100
AcDbEntity
  8
0
  6
Continuous
 62
     7
370
    18
100
AcDbTrace
 10
56.6850079902
 20
38.4602342313
 30
0.0
 11
59.1850079902
 21
38.1602342313
 31
0.0
 12
59.1850079902
 22
38.7602342313
 32
0.0
 13
59.1850079902
 23
38.7602342313
 33
0.0
  0
SOLID
  5
87
330
83
100
AcDbEntity
  8
0
  6
Continuous
 62
     7
370
    18
100
AcDbTrace
 10
156.6850079902
 20
38.4602342313
 30
0.0
 11
154.1850079902
 21
38.7602342313
 31
0.0
 12
154.1850079902
 22
38.1602342313
 32
0.0
 13
154.1850079902
 23
38.1602342313
 33
0.0
  0
LINE
  5
88
330
83
100
AcDbEntity
  8
0
  6
Continuous
 62
     7
370
     0
100
AcDbLine
 10
56.6850079902
 20
52.0299240879
 30
0.0
 11
56.6850079902
 21
37.4602342313
 31
0.0
  0
LINE
  5
89
330
83
100
AcDbEntity
  8
0
  6
Continuous
 62
     7
370
     0
100
AcDbLine
 10
156.6850079902
 20
52.0299240879
 30
0.0
 11
156.6850079902
 21
37.4602342313
 31
0.0
  0
LINE
  5
8A
330
83
100
AcDbEntity
  8
0
  6
Continuous
 62
     7
370
     0
100
AcDbLine
 10
56.6850079902
 20
38.4602342313
 30
0.0
 11
156.6850079902
 21
38.4602342313
 31
0.0
  0
MTEXT
  5
8B
330
83
100
AcDbEntity
  8
0
  6
Continuous
 62
     7
370
    18
100
AcDbMText
 10
93.9626484861
 20
46.1946404371
 30
0.0
 40
6.0
 41
0.0
 71
     1
 72
     1
  1
100
  7
SLDTEXTSTYLE0
 73
     1
 44
1.0
  0
MTEXT
  5
8C
330
83
100
AcDbEntity
  8
0
  6
Continuous
 62
     7
370
    18
100
AcDbMText
 10
105.3376491864
 20
46.1946404371
 30
0.0
 40
6.0
 41
0.0
 71
     1
 72
     1
  1
mm
  7
SLDTEXTSTYLE0
 73
     1
 44
1.0
  0
ENDBLK
  5
85
330
83
100
AcDbEntity
  8
0
100
AcDbBlockEnd
  0
ENDSEC
  0
SECTION
  2
ENTITIES
  0
LINE
  5
73
330
1F
100
AcDbEntity
  8
0
  6
Continuous
 62
     7
370
    18
100
AcDbLine
 10
56.6850079902
 20
152.0299240879
 30
0.0
 11
56.6850079902
 21
52.0299240879
 31
0.0
  0
LINE
  5
74
330
1F
100
AcDbEntity
  8
0
  6
Continuous
 62
     7
370
    18
100
AcDbLine
 10
56.6850079902
 20
52.0299240879
 30
0.0
 11
156.6850079902
 21
52.0299240879
 31
0.0
  0
DIMENSION
  5
75
330
1F
100
AcDbEntity
  8
0
  6
Continuous
 62
     7
370
    18
100
AcDbDimension
  2
_D
 10
42.7614395004
 20
52.0299240879
 30
0.0
 11
42.7614395004
 21
105.4472211621
 31
0.0
 70
   160
  1
<>mm
 71
     2
 42
-1.0
  3
SLDDIMSTYLE0
100
AcDbAlignedDimension
 13
56.6850079902
 23
152.0299240879
 33
0.0
 14
56.6850079902
 24
52.0299240879
 34
0.0
 50
90.0
100
AcDbRotatedDimension
  0
DIMENSION
  5
82
330
1F
100
AcDbEntity
  8
0
  6
Continuous
 62
     7
370
    18
100
AcDbDimension
  2
_D_1
 10
156.6850079902
 20
38.4602342313
 30
0.0
 11
105.0418155019
 21
38.4602342313
 31
0.0
 70
   160
  1
<>mm
 71
     2
 42
-1.0
  3
SLDDIMSTYLE0
100
AcDbAlignedDimension
 13
56.6850079902
 23
52.0299240879
 33
0.0
 14
156.6850079902
 24
52.0299240879
 34
0.0
100
AcDbRotatedDimension
  0
MTEXT
  5
8E
330
1F
100
AcDbEntity
  8
0
  6
Continuous
 62
     7
370
     0
100
AcDbMText
 10
412.8252631579
 20
48.4342449499
 30
0.0
 40
10.0
 41
0.0
 71
     1
 72
     1
  1
KLUDI GmbH & Co KG
  7
SLDTEXTSTYLE1
 73
     1
 44
1.0
  0
MTEXT
  5
8F
330
1F
100
AcDbEntity
  8
0
  6
Continuous
 62
     7
370
     0
100
AcDbMText
 10
210.0873490389
 20
48.4342449499
 30
0.0
 40
10.0
 41
0.0
 71
     1
 72
     1
  1
38 711 05 38
  7
SLDTEXTSTYLE1
 73
     1
 44
1.0
  0
SPLINE
  5
90
330
1F
100
AcDbEntity
  8
0
  6
Continuous
 62
     7
370
    25
100
AcDbSpline
210
0.0
220
0.0
230
1.0
 70
     8
 71
     3
 72
    10
 73
     6
 74
     0
 42
0.000000001
 43
0.00000001
 40
0.0
 40
0.0
 40
0.0
 40
0.0
 40
0.5
 40
0.5
 40
1.0
 40
1.0
 40
1.0
 40
1.0
 10
177.2628615821487
 20
364.1637233750046
 30
0.0
 10
177.0781876885281
 20
363.0699952680998
 30
0.0
 10
176.9856755030534
 20
361.9598041536787
 30
0.0
 10
176.9863572823839
 20
359.7539691244699
 30
0.0
 10
177.0781488597505
 20
358.6556765420105
 30
0.0
 10
177.2628614951497
 20
357.5620832514895
 30
0.0
  0
SPLINE
  5
91
330
1F
100
AcDbEntity
  8
0
  6
Continuous
 62
     7
370
    25
100
AcDbSpline
210
0.0
220
0.0
230
1.0
 70
     8
 71
     3
 72
    28
 73
    24
 74
     0
 42
0.000000001
 43
0.00000001
 40
0.0
 40
0.0
 40
0.0
 40
0.0
 40
0.1250000000000002
 40
0.1250000000000002
 40
0.2500000000000004
 40
0.2500000000000004
 40
0.3750000000000007
 40
0.3750000000000007
 40
0.4375000000000007
 40
0.4375000000000007
 40
0.5000000000000007
 40
0.5000000000000007
 40
0.6250000000000007
 40
0.6250000000000007
 40
0.6875000000000006
 40
0.6875000000000006
 40
0.7500000000000004
 40
0.7500000000000004
 40
0.8125000000000003
 40
0.8125000000000003
 40
0.8750000000000002
 40
0.8750000000000002
 40
1.0
 40
1.0
 40
1.0
 40
1.0
 10
193.508857444942
 20
380.409719150074
 30
0.0
 10
192.4953375852205
 20
380.238531201106
 30
0.0
 10
191.5038678441723
 20
379.9905291319289
 30
0.0
 10
189.5643435228016
 20
379.3432832920022
 30
0.0
 10
188.6128026214936
 20
378.9412106067396
 30
0.0
 10
186.8062119284923
 20
378.0074044276341
 30
0.0
 10
185.9439718721006
 20
377.4750645963971
 30
0.0
 10
184.7134599349178
 20
376.576383154851
 30
0.0
 10
184.3136866151307
 20
376.2602507020035
 30
0.0
 10
183.5351092302125
 20
375.5945635577496
 30
0.0
 10
183.1570838164004
 20
375.2453951428076
 30
0.0
 10
182.0753066688878
 20
374.1643380018022
 30
0.0
 10
181.4161324756404
 20
373.3941688745866
 30
0.0
 10
180.5169696708055
 20
372.1674445912603
 30
0.0
 10
180.23266911991
 20
371.7462360211545
 30
0.0
 10
179.695061496987
 20
370.8790961158449
 30
0.0
 10
179.4411372718565
 20
370.43211135837
 30
0.0
 10
178.9685945977512
 20
369.5195167374249
 30
0.0
 10
178.7505287842809
 20
369.0549620850563
 30
0.0
 10
178.3510729352683
 20
368.1099632186957
 30
0.0
 10
178.1693149482245
 20
367.6285093502773
 30
0.0
 10
177.6822321586
 20
366.1699065471489
 30
0.0
 10
177.4339694202832
 20
365.1771067407328
 30
0.0
 10
177.2628615821487
 20
364.1637233750046
 30
0.0
  0
SPLINE
  5
92
330
1F
100
AcDbEntity
  8
0
  6
Continuous
 62
     7
370
    25
100
AcDbSpline
210
0.0
220
0.0
230
1.0
 70
     8
 71
     3
 72
    10
 73
     6
 74
     0
 42
0.000000001
 43
0.00000001
 40
0.0
 40
0.0
 40
0.0
 40
0.0
 40
0.5
 40
0.5
 40
1.0
 40
1.0
 40
1.0
 40
1.0
 10
200.1104975683278
 20
380.4097190629777
 30
0.0
 10
199.0167694612944
 20
380.5943929591811
 30
0.0
 10
197.9065783459181
 20
380.6869051490334
 30
0.0
 10
195.7007433178303
 20
380.6862233558357
 30
0.0
 10
194.6024507318694
 20
380.5944318520486
 30
0.0
 10
193.5088574449418
 20
380.4097191500739
 30
0.0
  0
SPLINE
  5
93
330
1F
100
AcDbEntity
  8
0
  6
Continuous
 62
     7
370
    25
100
AcDbSpline
210
0.0
220
0.0
230
1.0
 70
     8
 71
     3
 72
    28
 73
    24
 74
     0
 42
0.000000001
 43
0.00000001
 40
0.0
 40
0.0
 40
0.0
 40
0.0
 40
0.125
 40
0.125
 40
0.25
 40
0.25
 40
0.375
 40
0.375
 40
0.4375000000000001
 40
0.4375000000000001
 40
0.5000000000000001
 40
0.5000000000000001
 40
0.6250000000000002
 40
0.6250000000000002
 40
0.6875000000000003
 40
0.6875000000000003
 40
0.7500000000000004
 40
0.7500000000000004
 40
0.8125000000000003
 40
0.8125000000000003
 40
0.8750000000000002
 40
0.8750000000000002
 40
1.0
 40
1.0
 40
1.0
 40
1.0
 10
216.3564933437598
 20
364.1637232002819
 30
0.0
 10
216.1853053832397
 20
365.1772430565788
 30
0.0
 10
215.9373033256086
 20
366.1687128010658
 30
0.0
 10
215.2900574852228
 20
368.1082371230143
 30
0.0
 10
214.8879848004137
 20
369.0597780239718
 30
0.0
 10
213.9541786214381
 20
370.866368715624
 30
0.0
 10
213.4218387904684
 20
371.7286087719864
 30
0.0
 10
212.5231573492958
 20
372.9591207099015
 30
0.0
 10
212.2070248958739
 20
373.3588940296255
 30
0.0
 10
211.5413377505757
 20
374.1374714147477
 30
0.0
 10
211.1921693359784
 20
374.5154968279342
 30
0.0
 10
210.1111121973394
 20
375.597273976615
 30
0.0
 10
209.3409430691128
 20
376.2564481679624
 30
0.0
 10
208.1142187862367
 20
377.1556109732316
 30
0.0
 10
207.6930102165179
 20
377.4399115247097
 30
0.0
 10
206.8258703109553
 20
377.9775191477937
 30
0.0
 10
206.378885553089
 20
378.2314433728138
 30
0.0
 10
205.4662909319556
 20
378.7039860468008
 30
0.0
 10
205.0017362797231
 20
378.9220518604602
 30
0.0
 10
204.0567374135655
 20
379.321507709494
 30
0.0
 10
203.5752835451546
 20
379.5032656965171
 30
0.0
 10
202.1166807410003
 20
379.9903484863979
 30
0.0
 10
201.1238809335756
 20
380.2386112225515
 30
0.0
 10
200.1104975683278
 20
380.4097190629777
 30
0.0
  0
SPLINE
  5
94
330
1F
100
AcDbEntity
  8
0
  6
Continuous
 62
     7
370
    25
100
AcDbSpline
210
0.0
220
0.0
230
1.0
 70
     8
 71
     3
 72
    10
 73
     6
 74
     0
 42
0.000000001
 43
0.00000001
 40
0.0
 40
0.0
 40
0.0
 40
0.0
 40
0.5
 40
0.5
 40
1.0
 40
1.0
 40
1.0
 40
1.0
 10
216.3564932563696
 20
357.5620830765747
 30
0.0
 10
216.5411671567502
 20
358.655811184206
 30
0.0
 10
216.6336793320967
 20
359.7660023003028
 30
0.0
 10
216.6329975598914
 20
361.9718373287096
 30
0.0
 10
216.5412060586449
 20
363.0701299144114
 30
0.0
 10
216.3564933437597
 20
364.163723200282
 30
0.0
  0
SPLINE
  5
95
330
1F
100
AcDbEntity
  8
0
  6
Continuous
 62
     7
370
    25
100
AcDbSpline
210
0.0
220
0.0
230
1.0
 70
     8
 71
     3
 72
    28
 73
    24
 74
     0
 42
0.000000001
 43
0.00000001
 40
0.0
 40
0.0
 40
0.0
 40
0.0
 40
0.125
 40
0.125
 40
0.2499999999999999
 40
0.2499999999999999
 40
0.3749999999999997
 40
0.3749999999999997
 40
0.4374999999999997
 40
0.4374999999999997
 40
0.4999999999999997
 40
0.4999999999999997
 40
0.6249999999999997
 40
0.6249999999999997
 40
0.6874999999999997
 40
0.6874999999999997
 40
0.7499999999999997
 40
0.7499999999999997
 40
0.8124999999999996
 40
0.8124999999999996
 40
0.8749999999999996
 40
0.8749999999999996
 40
1.0
 40
1.0
 40
1.0
 40
1.0
 10
200.110497393788
 20
341.3160873012443
 30
0.0
 10
201.1240172465868
 20
341.4872752734519
 30
0.0
 10
202.1154869946571
 20
341.735277319384
 30
0.0
 10
204.0550113175934
 20
342.3825231604281
 30
0.0
 10
205.0065522179499
 20
342.7845958446575
 30
0.0
 10
206.8131429076691
 20
343.7184020232623
 30
0.0
 10
207.6753829639872
 20
344.2507418538768
 30
0.0
 10
208.9058949029434
 20
345.1494232947418
 30
0.0
 10
209.3056682226876
 20
345.4655557489113
 30
0.0
 10
210.0842456082884
 20
346.1312428956704
 30
0.0
 10
210.4622710205315
 20
346.4804113097031
 30
0.0
 10
211.5440481703541
 20
347.5614684451657
 30
0.0
 10
212.2032223592792
 20
348.3316375745257
 30
0.0
 10
213.1023851651187
 20
349.5583618567769
 30
0.0
 10
213.3866857173689
 20
349.9795704260001
 30
0.0
 10
213.9242933407205
 20
350.8467103319455
 30
0.0
 10
214.1782175656303
 20
351.2936950903732
 30
0.0
 10
214.650760239469
 20
352.2062897117548
 30
0.0
 10
214.8688260533619
 20
352.6708443637623
 30
0.0
 10
215.2682819024437
 20
353.6158432297064
 30
0.0
 10
215.4500398894428
 20
354.0972970981309
 30
0.0
 10
215.9371226795997
 20
355.555899903331
 30
0.0
 10
216.1853854123026
 20
356.5486997121332
 30
0.0
 10
216.3564932563696
 20
357.5620830765747
 30
0.0
  0
SPLINE
  5
96
330
1F
100
AcDbEntity
  8
0
  6
Continuous
 62
     7
370
    25
100
AcDbSpline
210
0.0
220
0.0
230
1.0
 70
     8
 71
     3
 72
    10
 73
     6
 74
     0
 42
0.000000001
 43
0.00000001
 40
0.0
 40
0.0
 40
0.0
 40
0.0
 40
0.5
 40
0.5
 40
1.0
 40
1.0
 40
1.0
 40
1.0
 10
193.508857270139
 20
341.3160873888818
 30
0.0
 10
194.6025853782487
 20
341.1314134850687
 30
0.0
 10
195.712776494865
 20
341.0389013226671
 30
0.0
 10
197.91861152349
 20
341.0395830756469
 30
0.0
 10
199.0169041089832
 20
341.1313745732907
 30
0.0
 10
200.1104973937881
 20
341.3160873012444
 30
0.0
  0
SPLINE
  5
97
330
1F
100
AcDbEntity
  8
0
  6
Continuous
 62
     7
370
    25
100
AcDbSpline
210
0.0
220
0.0
230
1.0
 70
     8
 71
     3
 72
    28
 73
    24
 74
     0
 42
0.000000001
 43
0.00000001
 40
0.0
 40
0.0
 40
0.0
 40
0.0
 40
0.1250000000000001
 40
0.1250000000000001
 40
0.2500000000000001
 40
0.2500000000000001
 40
0.3750000000000002
 40
0.3750000000000002
 40
0.4375000000000001
 40
0.4375000000000001
 40
0.5
 40
0.5
 40
0.6249999999999998
 40
0.6249999999999998
 40
0.6874999999999999
 40
0.6874999999999999
 40
0.7499999999999999
 40
0.7499999999999999
 40
0.8124999999999999
 40
0.8124999999999999
 40
0.8749999999999999
 40
0.8749999999999999
 40
1.0
 40
1.0
 40
1.0
 40
1.0
 10
177.2628614951497
 20
357.5620832514896
 30
0.0
 10
177.434049384308
 20
356.5485633772408
 30
0.0
 10
177.6820515210648
 20
355.5570936569757
 30
0.0
 10
178.3292973236989
 20
353.6175693252044
 30
0.0
 10
178.7313700320646
 20
352.6660284357972
 30
0.0
 10
179.6651762220313
 20
350.8594377527807
 30
0.0
 10
180.1975160439119
 20
349.9971976902016
 30
0.0
 10
181.0961974807352
 20
348.7666857466671
 30
0.0
 10
181.4123299353198
 20
348.3669124263584
 30
0.0
 10
182.0780170842086
 20
347.5883350401535
 30
0.0
 10
182.4271854988728
 20
347.2103096290631
 30
0.0
 10
183.5082426343991
 20
346.1285324790109
 30
0.0
 10
184.2784117647049
 20
345.4693582903477
 30
0.0
 10
185.5051360471005
 20
344.5701954822668
 30
0.0
 10
185.9263446162906
 20
344.2858949289893
 30
0.0
 10
186.7934845234061
 20
343.7482873047741
 30
0.0
 10
187.2404692827701
 20
343.4943630797553
 30
0.0
 10
188.1530639055778
 20
343.0218204056692
 30
0.0
 10
188.6176185577861
 20
342.8037545915366
 30
0.0
 10
189.5626174266117
 20
342.4042987413558
 30
0.0
 10
190.0440712962986
 20
342.2225407541185
 30
0.0
 10
191.5026740967953
 20
341.735457965838
 30
0.0
 10
192.4954739052812
 20
341.4871952361248
 30
0.0
 10
193.508857270139
 20
341.3160873888818
 30
0.0
  0
CIRCLE
  5
98
330
1F
100
AcDbEntity
  8
0
  6
Continuous
 62
     7
370
    25
100
AcDbCircle
 10
196.8096774194
 20
360.8629032258
 30
0.0
 40
20.0
  0
SPLINE
  5
99
330
1F
100
AcDbEntity
  8
0
  6
Continuous
 62
     7
370
    25
100
AcDbSpline
210
0.0
220
0.0
230
1.0
 70
     8
 71
     3
 72
    22
 73
    18
 74
     0
 42
0.000000001
 43
0.00000001
 40
0.0
 40
0.0
 40
0.0
 40
0.0
 40
0.125
 40
0.125
 40
0.25
 40
0.25
 40
0.375
 40
0.375
 40
0.5
 40
0.5
 40
0.625
 40
0.625
 40
0.75
 40
0.75
 40
0.875
 40
0.875
 40
1.0
 40
1.0
 40
1.0
 40
1.0
 10
208.8754785879595
 20
315.4575163651998
 30
0.0
 10
208.871496076102
 20
315.1510505775532
 30
0.0
 10
208.8378357426123
 20
314.848168513828
 30
0.0
 10
208.711673663201
 20
314.2495097386478
 30
0.0
 10
208.6199668478174
 20
313.9588656359056
 30
0.0
 10
208.3841320275515
 20
313.4025011938453
 30
0.0
 10
208.2383614028593
 20
313.1334455641682
 30
0.0
 10
207.8969894615224
 20
312.6277118499977
 30
0.0
 10
207.7043689113181
 20
312.3945753272766
 30
0.0
 10
207.276364659762
 20
311.9667680873555
 30
0.0
 10
207.0381021722623
 20
311.7705081627156
 30
0.0
 10
206.5347207861756
 20
311.4317666914365
 30
0.0
 10
206.2690876260039
 20
311.2878429177877
 30
0.0
 10
205.7097986647501
 20
311.0511406284675
 30
0.0
 10
205.4154795606115
 20
310.9590016740827
 30
0.0
 10
204.8228310709115
 20
310.8347219718843
 30
0.0
 10
204.5215343992571
 20
310.8010846253526
 30
0.0
 10
204.2150642799652
 20
310.7971020572054
 30
0.0
  0
SPLINE
  5
9A
330
1F
100
AcDbEntity
  8
0
  6
Continuous
 62
     7
370
    25
100
AcDbSpline
210
0.0
220
0.0
230
1.0
 70
     8
 71
     3
 72
    22
 73
    18
 74
     0
 42
0.000000001
 43
0.00000001
 40
0.0
 40
0.0
 40
0.0
 40
0.0
 40
0.125
 40
0.125
 40
0.25
 40
0.25
 40
0.375
 40
0.375
 40
0.5
 40
0.5
 40
0.625
 40
0.625
 40
0.75
 40
0.75
 40
0.875
 40
0.875
 40
1.0
 40
1.0
 40
1.0
 40
1.0
 10
189.4042905587443
 20
310.7971020572053
 30
0.0
 10
189.0978247710976
 20
310.8010845690629
 30
0.0
 10
188.7949427073725
 20
310.8347449025526
 30
0.0
 10
188.1962839321922
 20
310.9609069819638
 30
0.0
 10
187.9056398294501
 20
311.0526137973475
 30
0.0
 10
187.3492753873897
 20
311.2884486176134
 30
0.0
 10
187.0802197577126
 20
311.4342192423055
 30
0.0
 10
186.5744860435421
 20
311.7755911836425
 30
0.0
 10
186.341349520821
 20
311.9682117338468
 30
0.0
 10
185.9135422808999
 20
312.3962159854029
 30
0.0
 10
185.71728235626
 20
312.6344784729025
 30
0.0
 10
185.3785408849809
 20
313.1378598589893
 30
0.0
 10
185.2346171113321
 20
313.403493019161
 30
0.0
 10
184.9979148220118
 20
313.9627819804147
 30
0.0
 10
184.9057758676272
 20
314.2571010845534
 30
0.0
 10
184.7814961654286
 20
314.8497495742534
 30
0.0
 10
184.747858818897
 20
315.1510462459078
 30
0.0
 10
184.7438762507499
 20
315.4575163651997
 30
0.0
  0
SPLINE
  5
9B
330
1F
100
AcDbEntity
  8
0
  6
Continuous
 62
     7
370
    25
100
AcDbSpline
210
0.0
220
0.0
230
1.0
 70
     8
 71
     3
 72
    22
 73
    18
 74
     0
 42
0.000000001
 43
0.00000001
 40
0.0
 40
0.0
 40
0.0
 40
0.0
 40
0.125
 40
0.125
 40
0.25
 40
0.25
 40
0.375
 40
0.375
 40
0.5
 40
0.5
 40
0.625
 40
0.625
 40
0.75
 40
0.75
 40
0.875
 40
0.875
 40
1.0
 40
1.0
 40
1.0
 40
1.0
 10
204.215064279965
 20
334.9287043944151
 30
0.0
 10
204.5215300676117
 20
334.9247218825576
 30
0.0
 10
204.8244121313369
 20
334.8910615490679
 30
0.0
 10
205.4230709065171
 20
334.7648994696567
 30
0.0
 10
205.7137150092593
 20
334.673192654273
 30
0.0
 10
206.2700794513196
 20
334.4373578340071
 30
0.0
 10
206.5391350809967
 20
334.291587209315
 30
0.0
 10
207.0448687951672
 20
333.950215267978
 30
0.0
 10
207.2780053178883
 20
333.7575947177737
 30
0.0
 10
207.7058125578094
 20
333.3295904662176
 30
0.0
 10
207.9020724824493
 20
333.0913279787179
 30
0.0
 10
208.2408139537284
 20
332.5879465926312
 30
0.0
 10
208.3847377273773
 20
332.3223134324595
 30
0.0
 10
208.6214400166975
 20
331.7630244712058
 30
0.0
 10
208.7135789710822
 20
331.4687053670671
 30
0.0
 10
208.8378586732806
 20
330.8760568773671
 30
0.0
 10
208.8714960198123
 20
330.5747602057127
 30
0.0
 10
208.8754785879594
 20
330.2682900864208
 30
0.0
  0
SPLINE
  5
9C
330
1F
100
AcDbEntity
  8
0
  6
Continuous
 62
     7
370
    25
100
AcDbSpline
210
0.0
220
0.0
230
1.0
 70
     8
 71
     3
 72
    22
 73
    18
 74
     0
 42
0.000000001
 43
0.00000001
 40
0.0
 40
0.0
 40
0.0
 40
0.0
 40
0.125
 40
0.125
 40
0.25
 40
0.25
 40
0.375
 40
0.375
 40
0.5
 40
0.5
 40
0.625
 40
0.625
 40
0.75
 40
0.75
 40
0.875
 40
0.875
 40
1.0
 40
1.0
 40
1.0
 40
1.0
 10
184.7438762507498
 20
330.2682900864207
 30
0.0
 10
184.7478587626073
 20
330.5747558740673
 30
0.0
 10
184.781519096097
 20
330.8776379377924
 30
0.0
 10
184.9076811755083
 20
331.4762967129727
 30
0.0
 10
184.9993879908919
 20
331.7669408157149
 30
0.0
 10
185.2352228111578
 20
332.3233052577752
 30
0.0
 10
185.38099343585
 20
332.5923608874522
 30
0.0
 10
185.7223653771869
 20
333.0980946016228
 30
0.0
 10
185.9149859273912
 20
333.3312311243438
 30
0.0
 10
186.3429901789473
 20
333.7590383642649
 30
0.0
 10
186.581252666447
 20
333.9552982889048
 30
0.0
 10
187.0846340525337
 20
334.294039760184
 30
0.0
 10
187.3502672127054
 20
334.4379635338328
 30
0.0
 10
187.9095561739591
 20
334.6746658231531
 30
0.0
 10
188.2038752780979
 20
334.7668047775377
 30
0.0
 10
188.7965237677978
 20
334.8910844797363
 30
0.0
 10
189.0978204394522
 20
334.9247218262679
 30
0.0
 10
189.4042905587441
 20
334.928704394415
 30
0.0
  0
SPLINE
  5
9D
330
1F
100
AcDbEntity
  8
0
  6
Continuous
 62
     7
370
    25
100
AcDbSpline
210
0.0
220
0.0
230
1.0
 70
     8
 71
     3
 72
    22
 73
    18
 74
     0
 42
0.000000001
 43
0.00000001
 40
0.0
 40
0.0
 40
0.0
 40
0.0
 40
0.125
 40
0.125
 40
0.25
 40
0.25
 40
0.375
 40
0.375
 40
0.5
 40
0.5
 40
0.625
 40
0.625
 40
0.75
 40
0.75
 40
0.875
 40
0.875
 40
1.0
 40
1.0
 40
1.0
 40
1.0
 10
204.2150642799788
 20
386.7971020572056
 30
0.0
 10
204.5215300676255
 20
386.8010845690631
 30
0.0
 10
204.8244121313507
 20
386.8347449025529
 30
0.0
 10
205.4230709065309
 20
386.9609069819641
 30
0.0
 10
205.713715009273
 20
387.0526137973478
 30
0.0
 10
206.2700794513334
 20
387.2884486176138
 30
0.0
 10
206.5391350810105
 20
387.434219242306
 30
0.0
 10
207.044868795181
 20
387.775591183643
 30
0.0
 10
207.2780053179021
 20
387.9682117338473
 30
0.0
 10
207.7058125578232
 20
388.3962159854034
 30
0.0
 10
207.9020724824631
 20
388.6344784729031
 30
0.0
 10
208.2408139537421
 20
389.1378598589899
 30
0.0
 10
208.3847377273909
 20
389.4034930191617
 30
0.0
 10
208.6214400167111
 20
389.9627819804155
 30
0.0
 10
208.7135789710957
 20
390.2571010845541
 30
0.0
 10
208.8378586732941
 20
390.8497495742537
 30
0.0
 10
208.8714960198258
 20
391.1510462459079
 30
0.0
 10
208.8754785879729
 20
391.4575163651998
 30
0.0
  0
SPLINE
  5
9E
330
1F
100
AcDbEntity
  8
0
  6
Continuous
 62
     7
370
    25
100
AcDbSpline
210
0.0
220
0.0
230
1.0
 70
     8
 71
     3
 72
    22
 73
    18
 74
     0
 42
0.000000001
 43
0.00000001
 40
0.0
 40
0.0
 40
0.0
 40
0.0
 40
0.125
 40
0.125
 40
0.25
 40
0.25
 40
0.375
 40
0.375
 40
0.5
 40
0.5
 40
0.625
 40
0.625
 40
0.75
 40
0.75
 40
0.875
 40
0.875
 40
1.0
 40
1.0
 40
1.0
 40
1.0
 10
184.7438762507637
 20
391.4575163651996
 30
0.0
 10
184.7478587626212
 20
391.1510505775529
 30
0.0
 10
184.7815190961109
 20
390.8481685138278
 30
0.0
 10
184.9076811755222
 20
390.2495097386475
 30
0.0
 10
184.9993879909059
 20
389.9588656359053
 30
0.0
 10
185.2352228111718
 20
389.402501193845
 30
0.0
 10
185.3809934358641
 20
389.133445564168
 30
0.0
 10
185.7223653772011
 20
388.6277118499974
 30
0.0
 10
185.9149859274054
 20
388.3945753272764
 30
0.0
 10
186.3429901789615
 20
387.9667680873553
 30
0.0
 10
186.5812526664612
 20
387.7705081627154
 30
0.0
 10
187.084634052548
 20
387.4317666914363
 30
0.0
 10
187.3502672127198
 20
387.2878429177874
 30
0.0
 10
187.9095561739735
 20
387.0511406284672
 30
0.0
 10
188.2038752781121
 20
386.9590016740827
 30
0.0
 10
188.7965237678118
 20
386.8347219718843
 30
0.0
 10
189.0978204394661
 20
386.8010846253526
 30
0.0
 10
189.4042905587579
 20
386.7971020572055
 30
0.0
  0
SPLINE
  5
9F
330
1F
100
AcDbEntity
  8
0
  6
Continuous
 62
     7
370
    25
100
AcDbSpline
210
0.0
220
0.0
230
1.0
 70
     8
 71
     3
 72
    22
 73
    18
 74
     0
 42
0.000000001
 43
0.00000001
 40
0.0
 40
0.0
 40
0.0
 40
0.0
 40
0.125
 40
0.125
 40
0.25
 40
0.25
 40
0.375
 40
0.375
 40
0.5
 40
0.5
 40
0.625
 40
0.625
 40
0.75
 40
0.75
 40
0.875
 40
0.875
 40
1.0
 40
1.0
 40
1.0
 40
1.0
 10
208.8754785879729
 20
406.2682900864207
 30
0.0
 10
208.8714960761153
 20
406.5747558740674
 30
0.0
 10
208.8378357426255
 20
406.8776379377926
 30
0.0
 10
208.7116736632142
 20
407.4762967129728
 30
0.0
 10
208.6199668478305
 20
407.766940815715
 30
0.0
 10
208.3841320275646
 20
408.3233052577754
 30
0.0
 10
208.2383614028724
 20
408.5923608874525
 30
0.0
 10
207.8969894615354
 20
409.098094601623
 30
0.0
 10
207.7043689113311
 20
409.331231124344
 30
0.0
 10
207.2763646597749
 20
409.7590383642651
 30
0.0
 10
207.0381021722752
 20
409.955298288905
 30
0.0
 10
206.5347207861884
 20
410.294039760184
 30
0.0
 10
206.2690876260167
 20
410.4379635338329
 30
0.0
 10
205.709798664763
 20
410.6746658231531
 30
0.0
 10
205.4154795606244
 20
410.7668047775377
 30
0.0
 10
204.8228310709247
 20
410.891084479736
 30
0.0
 10
204.5215343992704
 20
410.9247218262677
 30
0.0
 10
204.2150642799786
 20
410.9287043944149
 30
0.0
  0
SPLINE
  5
A0
330
1F
100
AcDbEntity
  8
0
  6
Continuous
 62
     7
370
    25
100
AcDbSpline
210
0.0
220
0.0
230
1.0
 70
     8
 71
     3
 72
    22
 73
    18
 74
     0
 42
0.000000001
 43
0.00000001
 40
0.0
 40
0.0
 40
0.0
 40
0.0
 40
0.125
 40
0.125
 40
0.25
 40
0.25
 40
0.375
 40
0.375
 40
0.5
 40
0.5
 40
0.625
 40
0.625
 40
0.75
 40
0.75
 40
0.875
 40
0.875
 40
1.0
 40
1.0
 40
1.0
 40
1.0
 10
189.4042905587577
 20
410.9287043944147
 30
0.0
 10
189.097824771111
 20
410.9247218825572
 30
0.0
 10
188.7949427073858
 20
410.8910615490674
 30
0.0
 10
188.1962839322055
 20
410.7648994696562
 30
0.0
 10
187.9056398294634
 20
410.6731926542726
 30
0.0
 10
187.349275387403
 20
410.4373578340066
 30
0.0
 10
187.080219757726
 20
410.2915872093143
 30
0.0
 10
186.5744860435555
 20
409.9502152679773
 30
0.0
 10
186.3413495208345
 20
409.757594717773
 30
0.0
 10
185.9135422809134
 20
409.3295904662169
 30
0.0
 10
185.7172823562735
 20
409.0913279787172
 30
0.0
 10
185.3785408849944
 20
408.5879465926304
 30
0.0
 10
185.2346171113456
 20
408.3223134324587
 30
0.0
 10
184.9979148220254
 20
407.7630244712049
 30
0.0
 10
184.9057758676408
 20
407.4687053670663
 30
0.0
 10
184.7814961654424
 20
406.8760568773666
 30
0.0
 10
184.7478588189108
 20
406.5747602057124
 30
0.0
 10
184.7438762507636
 20
406.2682900864206
 30
0.0
  0
SPLINE
  5
A1
330
1F
100
AcDbEntity
  8
0
  6
Continuous
 62
     7
370
    25
100
AcDbSpline
210
0.0
220
0.0
230
1.0
 70
     8
 71
     3
 72
    16
 73
    12
 74
     0
 42
0.000000001
 43
0.00000001
 40
0.0
 40
0.0
 40
0.0
 40
0.0
 40
0.4999999999999972
 40
0.4999999999999972
 40
0.5624999999999972
 40
0.5624999999999972
 40
0.6249999999999972
 40
0.6249999999999972
 40
0.7499999999999986
 40
0.7499999999999986
 40
1.0
 40
1.0
 40
1.0
 40
1.0
 10
208.8754785879593
 20
330.2682900864208
 30
0.0
 10
208.9074183157355
 20
327.8104358024149
 30
0.0
 10
208.9150198143818
 20
325.3523555824374
 30
0.0
 10
208.9151205460564
 20
322.5869368832987
 30
0.0
 10
208.9149650816582
 20
322.2747047816262
 30
0.0
 10
208.9143131454687
 20
321.6549378480526
 30
0.0
 10
208.9138168715528
 20
321.3450548140713
 30
0.0
 10
208.9117857150241
 20
320.4154081217957
 30
0.0
 10
208.9097168556368
 20
319.7956464280866
 30
0.0
 10
208.9008348860164
 20
317.9363717071095
 30
0.0
 10
208.8915837248224
 20
316.6968531532429
 30
0.0
 10
208.8754785879595
 20
315.4575163651998
 30
0.0
  0
SPLINE
  5
A2
330
1F
100
AcDbEntity
  8
0
  6
Continuous
 62
     7
370
    25
100
AcDbSpline
210
0.0
220
0.0
230
1.0
 70
     8
 71
     3
 72
    16
 73
    12
 74
     0
 42
0.000000001
 43
0.00000001
 40
0.0
 40
0.0
 40
0.0
 40
0.0
 40
0.5
 40
0.5
 40
0.5625
 40
0.5625
 40
0.625
 40
0.625
 40
0.75
 40
0.75
 40
1.0
 40
1.0
 40
1.0
 40
1.0
 10
204.2150642799652
 20
310.7971020572056
 30
0.0
 10
201.7572099964593
 20
310.7651623294359
 30
0.0
 10
199.299129776979
 20
310.7575608307874
 30
0.0
 10
196.5337110783989
 20
310.757460099108
 30
0.0
 10
196.2214789765633
 20
310.7576155635057
 30
0.0
 10
195.6017120428629
 20
310.7582674996943
 30
0.0
 10
195.2918290088184
 20
310.7587637736099
 30
0.0
 10
194.362182316353
 20
310.7607949301376
 30
0.0
 10
193.7424206225172
 20
310.7628637895247
 30
0.0
 10
191.8831459011603
 20
310.7717457591446
 30
0.0
 10
190.6436273470405
 20
310.7809969203392
 30
0.0
 10
189.4042905587443
 20
310.7971020572054
 30
0.0
  0
SPLINE
  5
A3
330
1F
100
AcDbEntity
  8
0
  6
Continuous
 62
     7
370
    25
100
AcDbSpline
210
0.0
220
0.0
230
1.0
 70
     8
 71
     3
 72
    16
 73
    12
 74
     0
 42
0.000000001
 43
0.00000001
 40
0.0
 40
0.0
 40
0.0
 40
0.0
 40
0.5
 40
0.5
 40
0.5625
 40
0.5625
 40
0.625
 40
0.625
 40
0.75
 40
0.75
 40
1.0
 40
1.0
 40
1.0
 40
1.0
 10
189.4042905587441
 20
334.928704394415
 30
0.0
 10
191.8621448403562
 20
334.96064412216
 30
0.0
 10
194.3202250579548
 20
334.9682456208168
 30
0.0
 10
197.0856437544223
 20
334.9683463525143
 30
0.0
 10
197.3978758568752
 20
334.9681908881184
 30
0.0
 10
198.0176427910547
 20
334.9675389519331
 30
0.0
 10
198.3275258253388
 20
334.9670426780189
 30
0.0
 10
199.257172518523
 20
334.9650115214945
 30
0.0
 10
199.8769342128379
 20
334.9629426621091
 30
0.0
 10
201.7362089356324
 20
334.9540606924907
 30
0.0
 10
202.9757274907106
 20
334.9448095312937
 30
0.0
 10
204.215064279965
 20
334.9287043944151
 30
0.0
  0
SPLINE
  5
A4
330
1F
100
AcDbEntity
  8
0
  6
Continuous
 62
     7
370
    25
100
AcDbSpline
210
0.0
220
0.0
230
1.0
 70
     8
 71
     3
 72
    16
 73
    12
 74
     0
 42
0.000000001
 43
0.00000001
 40
0.0
 40
0.0
 40
0.0
 40
0.0
 40
0.4999999999999972
 40
0.4999999999999972
 40
0.5624999999999976
 40
0.5624999999999976
 40
0.6249999999999979
 40
0.6249999999999979
 40
0.7499999999999986
 40
0.7499999999999986
 40
1.0
 40
1.0
 40
1.0
 40
1.0
 10
184.74387625075
 20
315.4575163651996
 30
0.0
 10
184.7119365230909
 20
317.9153706401933
 30
0.0
 10
184.7043350244051
 20
320.3734508512152
 30
0.0
 10
184.7042342926443
 20
323.1388695402985
 30
0.0
 10
184.7043897570335
 20
323.4511016449089
 30
0.0
 10
184.7050416932077
 20
324.070868580763
 30
0.0
 10
184.7055379671172
 20
324.3807516158847
 30
0.0
 10
184.7075691236293
 20
325.310398311581
 30
0.0
 10
184.7096379830096
 20
325.9301600075706
 30
0.0
 10
184.7185199526227
 20
327.7894347353893
 30
0.0
 10
184.7277711138277
 20
329.0289532938173
 30
0.0
 10
184.7438762507499
 20
330.2682900864207
 30
0.0
  0
SPLINE
  5
A5
330
1F
100
AcDbEntity
  8
0
  6
Continuous
 62
     7
370
    25
100
AcDbSpline
210
0.0
220
0.0
230
1.0
 70
     8
 71
     3
 72
    16
 73
    12
 74
     0
 42
0.000000001
 43
0.00000001
 40
0.0
 40
0.0
 40
0.0
 40
0.0
 40
0.5000000000000042
 40
0.5000000000000042
 40
0.5625000000000044
 40
0.5625000000000044
 40
0.6250000000000046
 40
0.6250000000000046
 40
0.7500000000000036
 40
0.7500000000000036
 40
1.0
 40
1.0
 40
1.0
 40
1.0
 10
208.8754785879728
 20
391.4575163651998
 30
0.0
 10
208.907418315707
 20
393.9153706459783
 30
0.0
 10
208.9150198143675
 20
396.3734508627481
 30
0.0
 10
208.9151205460729
 20
399.1388695582851
 30
0.0
 10
208.9149650816779
 20
399.4511016610084
 30
0.0
 10
208.9143131454939
 20
400.070868595399
 30
0.0
 10
208.9138168715803
 20
400.3807516297887
 30
0.0
 10
208.9117857150575
 20
401.3103983232897
 30
0.0
 10
208.9097168556726
 20
401.9301600178158
 30
0.0
 10
208.9008348860548
 20
403.7894347412436
 30
0.0
 10
208.8915837248569
 20
405.0289532967441
 30
0.0
 10
208.8754785879727
 20
406.2682900864207
 30
0.0
  0
SPLINE
  5
A6
330
1F
100
AcDbEntity
  8
0
  6
Continuous
 62
     7
370
    25
100
AcDbSpline
210
0.0
220
0.0
230
1.0
 70
     8
 71
     3
 72
    16
 73
    12
 74
     0
 42
0.000000001
 43
0.00000001
 40
0.0
 40
0.0
 40
0.0
 40
0.0
 40
0.5
 40
0.5
 40
0.5625
 40
0.5625
 40
0.625
 40
0.625
 40
0.75
 40
0.75
 40
1.0
 40
1.0
 40
1.0
 40
1.0
 10
189.4042905587579
 20
386.7971020572056
 30
0.0
 10
191.8621448398278
 20
386.7651623294676
 30
0.0
 10
194.3202250568879
 20
386.7575608308084
 30
0.0
 10
197.085643752751
 20
386.7574600991058
 30
0.0
 10
197.3978758553791
 20
386.7576155635011
 30
0.0
 10
198.0176427896959
 20
386.7582674996856
 30
0.0
 10
198.3275258240486
 20
386.7587637735994
 30
0.0
 10
199.2571725174387
 20
386.7607949301227
 30
0.0
 10
199.8769342118909
 20
386.7628637895078
 30
0.0
 10
201.7362089350971
 20
386.7717457591257
 30
0.0
 10
202.9757274904499
 20
386.7809969203234
 30
0.0
 10
204.2150642799788
 20
386.7971020572057
 30
0.0
  0
SPLINE
  5
A7
330
1F
100
AcDbEntity
  8
0
  6
Continuous
 62
     7
370
    25
100
AcDbSpline
210
0.0
220
0.0
230
1.0
 70
     8
 71
     3
 72
    16
 73
    12
 74
     0
 42
0.000000001
 43
0.00000001
 40
0.0
 40
0.0
 40
0.0
 40
0.0
 40
0.5000000000000001
 40
0.5000000000000001
 40
0.5625000000000001
 40
0.5625000000000001
 40
0.6250000000000001
 40
0.6250000000000001
 40
0.7500000000000002
 40
0.7500000000000002
 40
1.0
 40
1.0
 40
1.0
 40
1.0
 10
204.2150642799787
 20
410.9287043944148
 30
0.0
 10
201.7572100152067
 20
410.960644121941
 30
0.0
 10
199.2991298143423
 20
410.9682456206716
 30
0.0
 10
196.5337111366638
 20
410.9683463525301
 30
0.0
 10
196.2214790287227
 20
410.9681908881511
 30
0.0
 10
195.6017120902818
 20
410.9675389519942
 30
0.0
 10
195.2918290538669
 20
410.9670426780921
 30
0.0
 10
194.3621823542905
 20
410.9650115215987
 30
0.0
 10
193.7424206557141
 20
410.9629426622265
 30
0.0
 10
191.8831459201354
 20
410.9540606926215
 30
0.0
 10
190.6436273565335
 20
410.9448095314042
 30
0.0
 10
189.4042905587577
 20
410.9287043944147
 30
0.0
  0
SPLINE
  5
A8
330
1F
100
AcDbEntity
  8
0
  6
Continuous
 62
     7
370
    25
100
AcDbSpline
210
0.0
220
0.0
230
1.0
 70
     8
 71
     3
 72
    16
 73
    12
 74
     0
 42
0.000000001
 43
0.00000001
 40
0.0
 40
0.0
 40
0.0
 40
0.0
 40
0.4999999999999992
 40
0.4999999999999992
 40
0.5624999999999993
 40
0.5624999999999993
 40
0.6249999999999994
 40
0.6249999999999994
 40
0.7499999999999996
 40
0.7499999999999996
 40
1.0
 40
1.0
 40
1.0
 40
1.0
 10
184.7438762507637
 20
406.2682900864206
 30
0.0
 10
184.711936523062
 20
403.8104358081459
 30
0.0
 10
184.7043350243905
 20
401.3523555938638
 30
0.0
 10
184.7042342926612
 20
398.58693690112
 30
0.0
 10
184.7043897570537
 20
398.2747047975806
 30
0.0
 10
184.7050416932335
 20
397.6549378625564
 30
0.0
 10
184.7055379671452
 20
397.34505482785
 30
0.0
 10
184.7075691236634
 20
396.4154081333987
 30
0.0
 10
184.7096379830463
 20
395.7956464382391
 30
0.0
 10
184.7185199526621
 20
393.9363717129107
 30
0.0
 10
184.7277711138631
 20
392.696853156143
 30
0.0
 10
184.7438762507638
 20
391.4575163651996
 30
0.0
  0
ELLIPSE
  5
A9
330
1F
100
AcDbEntity
  8
0
  6
Continuous
 62
     7
370
    25
100
AcDbEllipse
 10
144.8175616466
 20
308.8707874531
 30
0.0
 11
-16.27460403869705
 21
-16.2746040386973
 31
1.136868377216160E-13
210
3.492768163553921E-15
220
3.492768163553976E-15
230
1.0
 40
0.999315002
 41
5.498129760120321
 42
7.068240854238866
  0
ELLIPSE
  5
AA
330
1F
100
AcDbEntity
  8
0
  6
Continuous
 62
     7
370
    25
100
AcDbEllipse
 10
248.8017931921
 20
308.8707874531
 30
0.0
 11
16.2746040386973
 21
-16.27460403869702
 31
1.136868377216160E-13
210
-3.492768163553982E-15
220
3.492768163553921E-15
230
1.0
 40
0.999315002
 41
5.498129760120319
 42
7.068240854238867
  0
ELLIPSE
  5
AB
330
1F
100
AcDbEntity
  8
0
  6
Continuous
 62
     7
370
    25
100
AcDbEllipse
 10
144.8175616466
 20
412.8550189985
 30
0.0
 11
-16.27460403869728
 21
16.27460403869708
 31
-1.136868377216160E-13
210
-3.492768163553970E-15
220
3.492768163553927E-15
230
1.0
 40
0.999315002
 41
5.498129760120321
 42
7.068240854238867
  0
ELLIPSE
  5
AC
330
1F
100
AcDbEntity
  8
0
  6
Continuous
 62
     7
370
    25
100
AcDbEllipse
 10
248.8017931921
 20
412.8550189985
 30
0.0
 11
16.27460403869699
 21
16.27460403869724
 31
-1.136868377216160E-13
210
3.492768163553934E-15
220
3.492768163553988E-15
230
1.0
 40
0.999315002
 41
5.498129760120318
 42
7.068240854238865
  0
LINE
  5
AD
330
1F
100
AcDbEntity
  8
0
  6
Continuous
 62
     7
370
    25
100
AcDbLine
 10
248.8175574812
 20
285.8629002456
 30
0.0
 11
206.8801727268
 21
285.8629002456
 31
0.0
  0
LINE
  5
AE
330
1F
100
AcDbEntity
  8
0
  6
Continuous
 62
     7
370
    25
100
AcDbLine
 10
206.7496776703
 20
285.928107727
 30
0.0
 11
206.8801727268
 21
285.8629002456
 31
0.0
  0
LINE
  5
AF
330
1F
100
AcDbEntity
  8
0
  6
Continuous
 62
     7
370
    25
100
AcDbLine
 10
186.8696771684
 20
285.928107727
 30
0.0
 11
206.7496776703
 21
285.928107727
 31
0.0
  0
LINE
  5
B0
330
1F
100
AcDbEntity
  8
0
  6
Continuous
 62
     7
370
    25
100
AcDbLine
 10
186.7391821119
 20
285.8629002456
 30
0.0
 11
186.8696771684
 21
285.928107727
 31
0.0
  0
LINE
  5
B1
330
1F
100
AcDbEntity
  8
0
  6
Continuous
 62
     7
370
    25
100
AcDbLine
 10
186.7391821119
 20
285.8629002456
 30
0.0
 11
144.8017973575
 21
285.8629002456
 31
0.0
  0
LINE
  5
B2
330
1F
100
AcDbEntity
  8
0
  6
Continuous
 62
     7
370
    25
100
AcDbLine
 10
121.8096744391
 20
308.8550231639
 30
0.0
 11
121.8096744391
 21
412.8707832877
 31
0.0
  0
LINE
  5
B3
330
1F
100
AcDbEntity
  8
0
  6
Continuous
 62
     7
370
    25
100
AcDbLine
 10
271.8096803996
 20
412.8707832877
 30
0.0
 11
271.8096803996
 21
308.8550231639
 31
0.0
  0
LINE
  5
B4
330
1F
100
AcDbEntity
  8
0
  6
Continuous
 62
     7
370
    25
100
AcDbLine
 10
144.8017973575
 20
435.862906206
 30
0.0
 11
248.8175574812
 21
435.862906206
 31
0.0
  0
SPLINE
  5
B5
330
1F
100
AcDbEntity
  8
0
  6
Continuous
 62
     8
370
    18
100
AcDbSpline
210
0.0
220
0.0
230
1.0
 70
    11
 71
     3
 72
    98
 73
    94
 74
     0
 42
0.000000001
 43
0.00000001
 40
0.0
 40
0.0
 40
0.0
 40
0.0
 40
0.0093154216561949
 40
0.018649674506361
 40
0.0282690879564198
 40
0.0413999575478351
 40
0.0586821716171409
 40
0.0641298935155193
 40
0.0717875055414153
 40
0.081655012431858
 40
0.0937324179563848
 40
0.1080197250467394
 40
0.1245169351578718
 40
0.1540022317234103
 40
0.1759471171778412
 40
0.1903516137687324
 40
0.19640398434704
 40
0.2016737551433646
 40
0.2061644680722308
 40
0.2139258974020027
 40
0.2208933553787271
 40
0.2305306871139283
 40
0.2398704858456464
 40
0.2491770867891461
 40
0.2584556380462164
 40
0.2677411223437866
 40
0.2772984972527531
 40
0.2905524001678574
 40
0.3076400189940585
 40
0.3135719408341329
 40
0.3231162361358801
 40
0.3362729148706428
 40
0.353041983872746
 40
0.3734234472867992
 40
0.4029316355514996
 40
0.4248615622651234
 40
0.4392132474696143
 40
0.4482357103139163
 40
0.4550796131046328
 40
0.4700660460403651
 40
0.4846213939033138
 40
0.4987631346619841
 40
0.5129168301440976
 40
0.5273974074644423
 40
0.5344908572378451
 40
0.5423186006165851
 40
0.5495202561221185
 40
0.5582784426580979
 40
0.5648561855621456
 40
0.574839399053201
 40
0.5882280914103761
 40
0.6050222689701092
 40
0.6252219352655773
 40
0.6504763439867229
 40
0.6700509961484412
 40
0.6839459018714178
 40
0.6921610773009246
 40
0.6984481473168431
 40
0.7042768750281997
 40
0.7096556041863723
 40
0.7145949545324347
 40
0.7191086439737203
 40
0.7232146582630187
 40
0.7291781313562884
 40
0.7350008651894517
 40
0.7407440294686217
 40
0.7464713442270474
 40
0.7522470538518088
 40
0.761770578444513
 40
0.7713718333627725
 40
0.7813306870464107
 40
0.7961595110902248
 40
0.8027948808155704
 40
0.8118880155181518
 40
0.8220433334415473
 40
0.8362591133800037
 40
0.8545353648137289
 40
0.8768720931116265
 40
0.901035419767241
 40
0.9199202831781638
 40
0.9335266926521603
 40
0.9418546625514953
 40
0.9479852368323687
 40
0.9536616146012808
 40
0.9588907730255836
 40
0.9636816388046839
 40
0.9680458249287811
 40
0.9719987060001553
 40
0.977760766144566
 40
0.9833870646098708
 40
0.9889314250054808
 40
0.9944500690783892
 40
0.9999999999999999
 40
0.9999999999999999
 40
0.9999999999999999
 40
0.9999999999999999
 10
184.043531942963
 20
348.0967427025301
 30
0.0
 10
184.2761171706117
 20
347.8642404697823
 30
0.0
 10
184.7809554341443
 20
347.4369632651459
 30
0.0
 10
185.6463671150913
 20
346.9327631856852
 30
0.0
 10
186.7084657931649
 20
346.5252883886608
 30
0.0
 10
188.1099378461384
 20
346.2944875867513
 30
0.0
 10
189.3754320566453
 20
346.2531623277941
 30
0.0
 10
190.4472769490235
 20
346.2532891350973
 30
0.0
 10
191.2576394921863
 20
346.2513450674169
 30
0.0
 10
192.3018435681605
 20
346.2506223688576
 30
0.0
 10
193.5799127341146
 20
346.2498163698353
 30
0.0
 10
195.0918381338338
 20
346.2494089056688
 30
0.0
 10
197.2178163309343
 20
346.249325311683
 30
0.0
 10
199.6139098737456
 20
346.2490686539042
 30
0.0
 10
201.9361853935678
 20
346.2521128345981
 30
0.0
 10
203.4318753278903
 20
346.2512423234003
 30
0.0
 10
204.3393616621812
 20
346.259165520519
 30
0.0
 10
204.8969247198364
 20
346.277588495951
 30
0.0
 10
205.5138761470894
 20
346.3158663641723
 30
0.0
 10
206.1879073449025
 20
346.3967781456905
 30
0.0
 10
207.0290876589603
 20
346.5798926888523
 30
0.0
 10
207.8928913354783
 20
346.8947329020309
 30
0.0
 10
208.7660587520326
 20
347.387081765681
 30
0.0
 10
209.5313905432958
 20
348.0146997360394
 30
0.0
 10
210.1813901991747
 20
348.7586953838867
 30
0.0
 10
210.6969173386416
 20
349.6114597158053
 30
0.0
 10
211.120959086003
 20
350.6674130604773
 30
0.0
 10
211.3714807573903
 20
352.0612599524021
 30
0.0
 10
211.4194858870276
 20
353.3415473307672
 30
0.0
 10
211.4192012587683
 20
354.4901253720488
 30
0.0
 10
211.4216856243779
 20
355.5001552316598
 30
0.0
 10
211.4223228576074
 20
356.8924237573059
 30
0.0
 10
211.4231694977855
 20
358.666980978728
 30
0.0
 10
211.4232376707177
 20
361.0183246693413
 30
0.0
 10
211.4235022078285
 20
363.5516990054914
 30
0.0
 10
211.420742230034
 20
365.8724300796259
 30
0.0
 10
211.421436031112
 20
367.4704170207839
 30
0.0
 10
211.4116458229593
 20
368.536497609853
 30
0.0
 10
211.3660157201113
 20
369.6236821369481
 30
0.0
 10
211.1856370688069
 20
370.9025607006472
 30
0.0
 10
210.616721554166
 20
372.3527967824776
 30
0.0
 10
209.7107662623716
 20
373.5838302608444
 30
0.0
 10
208.5231117022305
 20
374.5417369902805
 30
0.0
 10
207.3563954925507
 20
375.0563539055256
 30
0.0
 10
206.3471309517621
 20
375.3012172842289
 30
0.0
 10
205.5727644433692
 20
375.407535625926
 30
0.0
 10
204.7349324098506
 20
375.4596935907546
 30
0.0
 10
203.9398757442991
 20
375.4724552182847
 30
0.0
 10
203.0467802400863
 20
375.4728470276512
 30
0.0
 10
201.9903209586891
 20
375.4749553215643
 30
0.0
 10
200.5734920230092
 20
375.4756896641344
 30
0.0
 10
198.7962803172301
 20
375.4763936203505
 30
0.0
 10
196.6005147413809
 20
375.4765861910191
 30
0.0
 10
194.3066687288295
 20
375.4761115245165
 30
0.0
 10
192.2352209285191
 20
375.4758162279327
 30
0.0
 10
190.764817820065
 20
375.4727452988657
 30
0.0
 10
189.7631359832103
 20
375.4734135627325
 30
0.0
 10
189.045973177337
 20
375.4615061082337
 30
0.0
 10
188.4296376448521
 20
375.4275418410962
 30
0.0
 10
187.862435443667
 20
375.3737591880617
 30
0.0
 10
187.3443662877846
 20
375.2992476622324
 30
0.0
 10
186.8751549932012
 20
375.2047734047529
 30
0.0
 10
186.3790522604639
 20
375.0670937906393
 30
0.0
 10
185.8536632088505
 20
374.868667475739
 30
0.0
 10
185.2982275952234
 20
374.594651077207
 30
0.0
 10
184.7817000793024
 20
374.2679517968307
 30
0.0
 10
184.3040966819286
 20
373.8892489690534
 30
0.0
 10
183.7739014088739
 20
373.3689335922643
 30
0.0
 10
183.2338280224535
 20
372.6701642212399
 30
0.0
 10
182.7570317712931
 20
371.7562002935675
 30
0.0
 10
182.3794584757318
 20
370.5976391566481
 30
0.0
 10
182.2427357905754
 20
369.4906168541935
 30
0.0
 10
182.2060633482605
 20
368.4136918731388
 30
0.0
 10
182.199105903634
 20
367.5004996817917
 30
0.0
 10
182.1985762831697
 20
366.3201311417105
 30
0.0
 10
182.1967720569388
 20
364.815751283641
 30
0.0
 10
182.1962684502669
 20
362.8817121321879
 30
0.0
 10
182.1959598707808
 20
360.5967675237416
 30
0.0
 10
182.1964816741401
 20
358.290358198834
 30
0.0
 10
182.1968351984963
 20
356.2919056697987
 30
0.0
 10
182.1997288603205
 20
354.852032295258
 30
0.0
 10
182.199174566404
 20
353.8620682026408
 30
0.0
 10
182.209899504155
 20
353.1518198077031
 30
0.0
 10
182.2404186368176
 20
352.5515210670983
 30
0.0
 10
182.2887547456549
 20
351.9998046608995
 30
0.0
 10
182.3557532739437
 20
351.4966678909296
 30
0.0
 10
182.4406841652445
 20
351.0418655397756
 30
0.0
 10
182.5648833647313
 20
350.5606191769814
 30
0.0
 10
182.7450823591165
 20
350.0493947219713
 30
0.0
 10
182.9952724235849
 20
349.5060491243115
 30
0.0
 10
183.2946191299306
 20
348.9979442268437
 30
0.0
 10
183.6424651169204
 20
348.5250278798404
 30
0.0
 10
183.904962590498
 20
348.2352626083909
 30
0.0
 10
184.043531942963
 20
348.0967427025302
 30
0.0
  0
SPLINE
  5
B6
330
1F
100
AcDbEntity
  8
0
  6
Continuous
 62
     8
370
    18
100
AcDbSpline
210
0.0
220
0.0
230
1.0
 70
    11
 71
     3
 72
    76
 73
    72
 74
     0
 42
0.000000001
 43
0.00000001
 40
0.0
 40
0.0
 40
0.0
 40
0.0
 40
0.0145867881941747
 40
0.0305902348822599
 40
0.0452724241663409
 40
0.0617437388420483
 40
0.0637356405905705
 40
0.0834437574543812
 40
0.1231750237743091
 40
0.1517310101263029
 40
0.1716228234256299
 40
0.1845722560486799
 40
0.1909575561249587
 40
0.2016180697360681
 40
0.2157070571815165
 40
0.2273408276711246
 40
0.237863348428668
 40
0.2474882330038381
 40
0.2627410726109122
 40
0.2792191759791753
 40
0.2943819085514998
 40
0.3113996994890942
 40
0.3175440134541413
 40
0.3284313176073123
 40
0.3466604218817009
 40
0.3746851240388397
 40
0.4060889551195441
 40
0.4259501621163517
 40
0.4379641982606003
 40
0.4495233896265584
 40
0.4600239037198306
 40
0.4698981436141694
 40
0.4788405851835051
 40
0.4892906970468958
 40
0.5012999146211896
 40
0.5160530234626527
 40
0.5326882519418276
 40
0.5478247867335301
 40
0.558720486010933
 40
0.564286663423204
 40
0.5770745076321829
 40
0.5970575405179332
 40
0.6264499881618911
 40
0.6508418032106866
 40
0.6684943311153707
 40
0.6803962663991855
 40
0.6886462791118785
 40
0.7000076409245642
 40
0.7103616916144763
 40
0.7201132628062851
 40
0.7288832928267139
 40
0.7391322747438357
 40
0.7509071452154895
 40
0.765520516688868
 40
0.7818114352846052
 40
0.797505188602961
 40
0.8083824078147396
 40
0.813201810500193
 40
0.8216946686453656
 40
0.8338337224445862
 40
0.8515845433429182
 40
0.8754159192663311
 40
0.9062080500176246
 40
0.9257570407587771
 40
0.9376424217240162
 40
0.9490163717859529
 40
0.9593468940438195
 40
0.9690572820812743
 40
0.9779173979497721
 40
0.988216030810014
 40
1.0
 40
1.0
 40
1.0
 40
1.0
 10
183.3522078465372
 20
347.4054283686721
 30
0.0
 10
182.9661779242479
 20
347.7915103706434
 30
0.0
 10
182.252051196031
 20
348.6976353003027
 30
0.0
 10
181.552069545181
 20
350.2567998135631
 30
0.0
 10
181.2023572847189
 20
351.9944280722659
 30
0.0
 10
181.1697295302493
 20
353.2352776882257
 30
0.0
 10
181.1602344961083
 20
354.661140773133
 30
0.0
 10
181.1572973810579
 20
356.9562908416682
 30
0.0
 10
181.1555138979436
 20
360.2436354575706
 30
0.0
 10
181.1563664226175
 20
363.537948186625
 30
0.0
 10
181.1582910464523
 20
365.8316775095637
 30
0.0
 10
181.1621469485675
 20
367.2971628133316
 30
0.0
 10
181.167934136817
 20
368.4176818582367
 30
0.0
 10
181.2087389389163
 20
369.5806945567964
 30
0.0
 10
181.4212384686617
 20
370.930200554909
 30
0.0
 10
181.8678236836312
 20
372.2155531427123
 30
0.0
 10
182.4457995280054
 20
373.2591229491212
 30
0.0
 10
183.2668267362
 20
374.3019506711083
 30
0.0
 10
184.4585753415981
 20
375.3113146064593
 30
0.0
 10
186.0561621595965
 20
376.0767807641452
 30
0.0
 10
187.8451017738907
 20
376.4642722632568
 30
0.0
 10
189.2800393305694
 20
376.5060987314952
 30
0.0
 10
190.551704010745
 20
376.5105620191409
 30
0.0
 10
191.8691382397859
 20
376.5141550517548
 30
0.0
 10
194.0038039246412
 20
376.516129111104
 30
0.0
 10
196.9050661087398
 20
376.5167643590126
 30
0.0
 10
199.8672065682907
 20
376.5166244342477
 30
0.0
 10
202.2313485936377
 20
376.5126308163996
 30
0.0
 10
203.8538185193639
 20
376.5102880633313
 30
0.0
 10
205.127274724099
 20
376.4878863941728
 30
0.0
 10
206.3149721925194
 20
376.350963000324
 30
0.0
 10
207.3818138459029
 20
376.0892336342822
 30
0.0
 10
208.4008858981268
 20
375.6844365080192
 30
0.0
 10
209.4183884114227
 20
375.0897066669442
 30
0.0
 10
210.4798143621687
 20
374.1786095032489
 30
0.0
 10
211.4638642258993
 20
372.8704495807666
 30
0.0
 10
212.1383967045751
 20
371.2473478486366
 30
0.0
 10
212.4054662777147
 20
369.6666604682562
 30
0.0
 10
212.4499515747458
 20
368.4863055511293
 30
0.0
 10
212.4570430402411
 20
367.3936632870887
 30
0.0
 10
212.4607252761946
 20
365.9613983595255
 30
0.0
 10
212.4630217051493
 20
363.6390520250131
 30
0.0
 10
212.4636253461379
 20
360.8831686255501
 30
0.0
 10
212.4629258993989
 20
358.2143482845152
 30
0.0
 10
212.4614017879382
 20
356.1989861909859
 30
0.0
 10
212.4581265918058
 20
354.7866032927148
 30
0.0
 10
212.4547244332777
 20
353.6094340302137
 30
0.0
 10
212.4307377099509
 20
352.4895077412008
 30
0.0
 10
212.2904133602545
 20
351.3198308188771
 30
0.0
 10
212.0286541781146
 20
350.2700907856918
 30
0.0
 10
211.6288047840121
 20
349.2691884652489
 30
0.0
 10
211.0466514535676
 20
348.2709990886772
 30
0.0
 10
210.1546135361828
 20
347.2221916672851
 30
0.0
 10
208.8756305704096
 20
346.2449250070748
 30
0.0
 10
207.2583743589499
 20
345.5513197126172
 30
0.0
 10
205.6712588842678
 20
345.2715235795516
 30
0.0
 10
204.4988122244146
 20
345.2243117041435
 30
0.0
 10
203.5952118330037
 20
345.2168137243899
 30
0.0
 10
202.6443639006424
 20
345.2135549113709
 30
0.0
 10
201.2104323403831
 20
345.2110534760664
 30
0.0
 10
199.2034530414116
 20
345.2095050562575
 30
0.0
 10
196.4996080427873
 20
345.2090643331968
 30
0.0
 10
193.7286260112858
 20
345.2092858840753
 30
0.0
 10
191.4038198855813
 20
345.2130099110316
 30
0.0
 10
189.8047185262614
 20
345.2157006717409
 30
0.0
 10
188.5494010830647
 20
345.2355381061031
 30
0.0
 10
187.3803549067434
 20
345.3626638731548
 30
0.0
 10
186.3262430892809
 20
345.6098095323858
 30
0.0
 10
185.3158139649921
 20
345.9954487016907
 30
0.0
 10
184.3041137562741
 20
346.5653065203278
 30
0.0
 10
183.6640629753095
 20
347.0935311672129
 30
0.0
 10
183.3522078465372
 20
347.4054283686719
 30
0.0
  0
SPLINE
  5
B7
330
1F
100
AcDbEntity
  8
0
  6
Continuous
 62
     8
370
    18
100
AcDbSpline
210
0.0
220
0.0
230
1.0
 70
     8
 71
     3
 72
    22
 73
    18
 74
     0
 42
0.000000001
 43
0.00000001
 40
0.0
 40
0.0
 40
0.0
 40
0.0
 40
0.125
 40
0.125
 40
0.25
 40
0.25
 40
0.375
 40
0.375
 40
0.5
 40
0.5
 40
0.625
 40
0.625
 40
0.75
 40
0.75
 40
0.875
 40
0.875
 40
1.0
 40
1.0
 40
1.0
 40
1.0
 10
189.3997975795681
 20
334.5297256781911
 30
0.0
 10
189.1187323029087
 20
334.529822738082
 30
0.0
 10
188.8407254391845
 20
334.5023432756224
 30
0.0
 10
188.2907844998951
 20
334.3926283544845
 30
0.0
 10
188.0230464964666
 20
334.3108908422641
 30
0.0
 10
187.5111476859228
 20
334.0984385374645
 30
0.0
 10
187.2635379008337
 20
333.9661363198333
 30
0.0
 10
186.7985400463784
 20
333.6548497104203
 30
0.0
 10
186.5843947187022
 20
333.4786078544728
 30
0.0
 10
186.1919556740674
 20
333.0858872811617
 30
0.0
 10
186.0123174386525
 20
332.8668017012621
 30
0.0
 10
185.7037317189713
 20
332.4041203319741
 30
0.0
 10
185.5731404889437
 20
332.1596643196958
 30
0.0
 10
185.3597837111619
 20
331.6442878910507
 30
0.0
 10
185.2780925338473
 20
331.3740497994716
 30
0.0
 10
185.1702345741573
 20
330.8302382281648
 30
0.0
 10
185.142757907218
 20
330.553847950683
 30
0.0
 10
185.1428549669736
 20
330.2727830655966
 30
0.0
  0
LWPOLYLINE
  5
B8
330
1F
100
AcDbEntity
  8
0
  6
Continuous
 62
     8
370
    18
100
AcDbPolyline
 90
        9
 70
   128
 43
0.0
 10
204.2195573571
 20
334.5297257636
 10
202.3672456975
 20
334.5291651074
 10
200.5147985305
 20
334.5287665013
 10
198.6622606759
 20
334.5285262201
 10
196.8096774194
 20
334.5284461264
 10
194.9570941628
 20
334.5285262201
 10
193.1045563082
 20
334.5287665013
 10
191.2521091412
 20
334.5291651074
 10
189.3997974816
 20
334.5297257636
  0
SPLINE
  5
B9
330
1F
100
AcDbEntity
  8
0
  6
Continuous
 62
     8
370
    18
100
AcDbSpline
210
0.0
220
0.0
230
1.0
 70
     8
 71
     3
 72
    22
 73
    18
 74
     0
 42
0.000000001
 43
0.00000001
 40
0.0
 40
0.0
 40
0.0
 40
0.0
 40
0.125
 40
0.125
 40
0.25
 40
0.25
 40
0.375
 40
0.375
 40
0.5
 40
0.5
 40
0.625
 40
0.625
 40
0.75
 40
0.75
 40
0.875
 40
0.875
 40
1.0
 40
1.0
 40
1.0
 40
1.0
 10
208.4764998717355
 20
330.2727830655967
 30
0.0
 10
208.4765969316264
 20
330.5538483422562
 30
0.0
 10
208.4491174691667
 20
330.8318552059803
 30
0.0
 10
208.3394025480289
 20
331.3817961452697
 30
0.0
 10
208.2576650358085
 20
331.6495341486983
 30
0.0
 10
208.0452127310089
 20
332.1614329592421
 30
0.0
 10
207.9129105133778
 20
332.4090427443311
 30
0.0
 10
207.6016239039647
 20
332.8740405987865
 30
0.0
 10
207.4253820480173
 20
333.0881859264627
 30
0.0
 10
207.0326614747061
 20
333.4806249710975
 30
0.0
 10
206.8135758948065
 20
333.6602632065124
 30
0.0
 10
206.3508945255186
 20
333.9688489261937
 30
0.0
 10
206.1064385132402
 20
334.0994401562212
 30
0.0
 10
205.5910620845951
 20
334.3127969340031
 30
0.0
 10
205.320823993016
 20
334.3944881113177
 30
0.0
 10
204.7770124217093
 20
334.5023460710076
 30
0.0
 10
204.5006221442274
 20
334.5298227379469
 30
0.0
 10
204.2195572591409
 20
334.5297256781912
 30
0.0
  0
LWPOLYLINE
  5
BA
330
1F
100
AcDbEntity
  8
0
  6
Continuous
 62
     8
370
    18
100
AcDbPolyline
 90
        9
 70
   128
 43
0.0
 10
208.4764996666
 20
315.4530226473
 10
208.4759399417
 20
317.3053338412
 10
208.4755404043
 20
319.1577828709
 10
208.4753001231
 20
321.0103213076
 10
208.4752209607
 20
322.8629044477
 10
208.4753001231
 20
324.7154875878
 10
208.4755404043
 20
326.5680260245
 10
208.4759399417
 20
328.4204713289
 10
208.4764996666
 20
330.2727825228
  0
SPLINE
  5
BB
330
1F
100
AcDbEntity
  8
0
  6
Continuous
 62
     8
370
    18
100
AcDbSpline
210
0.0
220
0.0
230
1.0
 70
     8
 71
     3
 72
    22
 73
    18
 74
     0
 42
0.000000001
 43
0.00000001
 40
0.0
 40
0.0
 40
0.0
 40
0.0
 40
0.125
 40
0.125
 40
0.25
 40
0.25
 40
0.375
 40
0.375
 40
0.5
 40
0.5
 40
0.625
 40
0.625
 40
0.75
 40
0.75
 40
0.875
 40
0.875
 40
1.0
 40
1.0
 40
1.0
 40
1.0
 10
204.2195572591411
 20
311.1960807734293
 30
0.0
 10
204.5006225358005
 20
311.1959837135385
 30
0.0
 10
204.7786293995248
 20
311.2234631759981
 30
0.0
 10
205.3285703388142
 20
311.333178097136
 30
0.0
 10
205.5963083422427
 20
311.4149156093564
 30
0.0
 10
206.1082071527865
 20
311.627367914156
 30
0.0
 10
206.3558169378755
 20
311.7596701317872
 30
0.0
 10
206.8208147923309
 20
312.0709567412002
 30
0.0
 10
207.0349601200071
 20
312.2471985971476
 30
0.0
 10
207.4273991646419
 20
312.6399191704588
 30
0.0
 10
207.6070374000568
 20
312.8590047503584
 30
0.0
 10
207.9156231197381
 20
313.3216861196464
 30
0.0
 10
208.0462143497656
 20
313.5661421319247
 30
0.0
 10
208.2595711275474
 20
314.0815185605698
 30
0.0
 10
208.3412623048621
 20
314.3517566521489
 30
0.0
 10
208.449120264552
 20
314.8955682234557
 30
0.0
 10
208.4765969314913
 20
315.1719585009375
 30
0.0
 10
208.4764998717356
 20
315.4530233860239
 30
0.0
  0
LWPOLYLINE
  5
BC
330
1F
100
AcDbEntity
  8
0
  6
Continuous
 62
     8
370
    18
100
AcDbPolyline
 90
        9
 70
   128
 43
0.0
 10
189.3997974816
 20
311.1960812692
 10
191.2521091412
 20
311.1966400627
 10
193.1045563082
 20
311.1970386688
 10
194.9570941628
 20
311.1972808127
 10
196.8096774194
 20
311.1973590437
 10
198.6622606759
 20
311.1972808127
 10
200.5147985305
 20
311.1970386688
 10
202.3672456975
 20
311.1966400627
 10
204.2195573571
 20
311.1960812692
  0
SPLINE
  5
BD
330
1F
100
AcDbEntity
  8
0
  6
Continuous
 62
     8
370
    18
100
AcDbSpline
210
0.0
220
0.0
230
1.0
 70
     8
 71
     3
 72
    22
 73
    18
 74
     0
 42
0.000000001
 43
0.00000001
 40
0.0
 40
0.0
 40
0.0
 40
0.0
 40
0.125
 40
0.125
 40
0.25
 40
0.25
 40
0.375
 40
0.375
 40
0.5
 40
0.5
 40
0.625
 40
0.625
 40
0.75
 40
0.75
 40
0.875
 40
0.875
 40
1.0
 40
1.0
 40
1.0
 40
1.0
 10
185.1428549669737
 20
315.4530233860237
 30
0.0
 10
185.1427579070829
 20
315.1719581093643
 30
0.0
 10
185.1702373695425
 20
314.8939512456401
 30
0.0
 10
185.2799522906804
 20
314.3440103063508
 30
0.0
 10
185.3616898029008
 20
314.0762723029222
 30
0.0
 10
185.5741421077004
 20
313.5643734923784
 30
0.0
 10
185.7064443253316
 20
313.3167637072893
 30
0.0
 10
186.0177309347446
 20
312.851765852834
 30
0.0
 10
186.193972790692
 20
312.6376205251577
 30
0.0
 10
186.5866933640032
 20
312.245181480523
 30
0.0
 10
186.8057789439028
 20
312.0655432451081
 30
0.0
 10
187.2684603131907
 20
311.7569575254268
 30
0.0
 10
187.5129163254691
 20
311.6263662953992
 30
0.0
 10
188.0282927541142
 20
311.4130095176174
 30
0.0
 10
188.2985308456933
 20
311.3313183403028
 30
0.0
 10
188.8423424170001
 20
311.2234603806129
 30
0.0
 10
189.1187326944819
 20
311.1959837136735
 30
0.0
 10
189.3997975795684
 20
311.1960807734292
 30
0.0
  0
LWPOLYLINE
  5
BE
330
1F
100
AcDbEntity
  8
0
  6
Continuous
 62
     8
370
    18
100
AcDbPolyline
 90
        9
 70
   128
 43
0.0
 10
185.1428551721
 20
330.2727825228
 10
185.143414897
 20
328.4204713289
 10
185.1438144344
 20
326.5680260245
 10
185.1440547156
 20
324.7154875878
 10
185.144133878
 20
322.8629044477
 10
185.1440547156
 20
321.0103213076
 10
185.1438144344
 20
319.1577828709
 10
185.143414897
 20
317.3053338412
 10
185.1428551721
 20
315.4530226473
  0
SPLINE
  5
BF
330
1F
100
AcDbEntity
  8
0
  6
Continuous
 62
     8
370
    18
100
AcDbSpline
210
0.0
220
0.0
230
1.0
 70
     8
 71
     3
 72
    22
 73
    18
 74
     0
 42
0.000000001
 43
0.00000001
 40
0.0
 40
0.0
 40
0.0
 40
0.0
 40
0.125
 40
0.125
 40
0.25
 40
0.25
 40
0.375
 40
0.375
 40
0.5
 40
0.5
 40
0.625
 40
0.625
 40
0.75
 40
0.75
 40
0.875
 40
0.875
 40
1.0
 40
1.0
 40
1.0
 40
1.0
 10
189.3997975795817
 20
410.529725678191
 30
0.0
 10
189.1187323029223
 20
410.5298227380819
 30
0.0
 10
188.8407254391981
 20
410.5023432756223
 30
0.0
 10
188.2907844999087
 20
410.3926283544844
 30
0.0
 10
188.0230464964802
 20
410.310890842264
 30
0.0
 10
187.5111476859364
 20
410.0984385374644
 30
0.0
 10
187.2635379008473
 20
409.9661363198333
 30
0.0
 10
186.798540046392
 20
409.6548497104201
 30
0.0
 10
186.5843947187158
 20
409.4786078544728
 30
0.0
 10
186.191955674081
 20
409.0858872811616
 30
0.0
 10
186.0123174386661
 20
408.866801701262
 30
0.0
 10
185.7037317189848
 20
408.4041203319741
 30
0.0
 10
185.5731404889573
 20
408.1596643196958
 30
0.0
 10
185.3597837111755
 20
407.6442878910506
 30
0.0
 10
185.2780925338608
 20
407.3740497994715
 30
0.0
 10
185.1702345741709
 20
406.8302382281648
 30
0.0
 10
185.1427579072316
 20
406.553847950683
 30
0.0
 10
185.1428549669872
 20
406.2727830655965
 30
0.0
  0
LWPOLYLINE
  5
C0
330
1F
100
AcDbEntity
  8
0
  6
Continuous
 62
     8
370
    18
100
AcDbPolyline
 90
        9
 70
   128
 43
0.0
 10
204.2195573571
 20
410.5297251824
 10
202.3672456975
 20
410.5291663889
 10
200.5147985305
 20
410.5287677828
 10
198.6622606759
 20
410.528525639
 10
196.8096774194
 20
410.5284474079
 10
194.9570941628
 20
410.528525639
 10
193.1045563082
 20
410.5287677828
 10
191.2521091412
 20
410.5291663889
 10
189.3997974816
 20
410.5297251824
  0
SPLINE
  5
C1
330
1F
100
AcDbEntity
  8
0
  6
Continuous
 62
     8
370
    18
100
AcDbSpline
210
0.0
220
0.0
230
1.0
 70
     8
 71
     3
 72
    22
 73
    18
 74
     0
 42
0.000000001
 43
0.00000001
 40
0.0
 40
0.0
 40
0.0
 40
0.0
 40
0.125
 40
0.125
 40
0.25
 40
0.25
 40
0.375
 40
0.375
 40
0.5
 40
0.5
 40
0.625
 40
0.625
 40
0.75
 40
0.75
 40
0.875
 40
0.875
 40
1.0
 40
1.0
 40
1.0
 40
1.0
 10
208.4764998717491
 20
406.2727830655966
 30
0.0
 10
208.47659693164
 20
406.5538483422561
 30
0.0
 10
208.4491174691804
 20
406.8318552059803
 30
0.0
 10
208.3394025480425
 20
407.3817961452697
 30
0.0
 10
208.2576650358221
 20
407.6495341486982
 30
0.0
 10
208.0452127310225
 20
408.161432959242
 30
0.0
 10
207.9129105133914
 20
408.4090427443311
 30
0.0
 10
207.6016239039783
 20
408.8740405987865
 30
0.0
 10
207.4253820480309
 20
409.0881859264626
 30
0.0
 10
207.0326614747197
 20
409.4806249710974
 30
0.0
 10
206.8135758948201
 20
409.6602632065124
 30
0.0
 10
206.3508945255322
 20
409.9688489261936
 30
0.0
 10
206.1064385132538
 20
410.0994401562211
 30
0.0
 10
205.5910620846087
 20
410.312796934003
 30
0.0
 10
205.3208239930296
 20
410.3944881113176
 30
0.0
 10
204.7770124217228
 20
410.5023460710075
 30
0.0
 10
204.500622144241
 20
410.5298227379468
 30
0.0
 10
204.2195572591545
 20
410.5297256781912
 30
0.0
  0
LWPOLYLINE
  5
C2
330
1F
100
AcDbEntity
  8
0
  6
Continuous
 62
     8
370
    18
100
AcDbPolyline
 90
        9
 70
   128
 43
0.0
 10
208.4764996666
 20
391.4530239288
 10
208.4759399417
 20
393.3053351227
 10
208.4755404043
 20
395.1577804271
 10
208.4753001231
 20
397.0103188638
 10
208.4752209607
 20
398.8629020039
 10
208.4753001231
 20
400.715485144
 10
208.4755404043
 20
402.5680235807
 10
208.4759399417
 20
404.4204726104
 10
208.4764996666
 20
406.2727838043
  0
SPLINE
  5
C3
330
1F
100
AcDbEntity
  8
0
  6
Continuous
 62
     8
370
    18
100
AcDbSpline
210
0.0
220
0.0
230
1.0
 70
     8
 71
     3
 72
    22
 73
    18
 74
     0
 42
0.000000001
 43
0.00000001
 40
0.0
 40
0.0
 40
0.0
 40
0.0
 40
0.125
 40
0.125
 40
0.25
 40
0.25
 40
0.375
 40
0.375
 40
0.5
 40
0.5
 40
0.625
 40
0.625
 40
0.75
 40
0.75
 40
0.875
 40
0.875
 40
1.0
 40
1.0
 40
1.0
 40
1.0
 10
204.2195572591547
 20
387.1960807734293
 30
0.0
 10
204.5006225358141
 20
387.1959837135384
 30
0.0
 10
204.7786293995383
 20
387.2234631759981
 30
0.0
 10
205.3285703388277
 20
387.3331780971359
 30
0.0
 10
205.5963083422563
 20
387.4149156093563
 30
0.0
 10
206.1082071528001
 20
387.6273679141559
 30
0.0
 10
206.3558169378891
 20
387.7596701317871
 30
0.0
 10
206.8208147923445
 20
388.0709567412002
 30
0.0
 10
207.0349601200207
 20
388.2471985971476
 30
0.0
 10
207.4273991646555
 20
388.6399191704587
 30
0.0
 10
207.6070374000704
 20
388.8590047503583
 30
0.0
 10
207.9156231197516
 20
389.3216861196462
 30
0.0
 10
208.0462143497792
 20
389.5661421319246
 30
0.0
 10
208.259571127561
 20
390.0815185605697
 30
0.0
 10
208.3412623048757
 20
390.3517566521488
 30
0.0
 10
208.4491202645656
 20
390.8955682234555
 30
0.0
 10
208.4765969315049
 20
391.1719585009374
 30
0.0
 10
208.4764998717492
 20
391.4530233860239
 30
0.0
  0
LWPOLYLINE
  5
C4
330
1F
100
AcDbEntity
  8
0
  6
Continuous
 62
     8
370
    18
100
AcDbPolyline
 90
        9
 70
   128
 43
0.0
 10
189.3997974816
 20
387.196080688
 10
191.2521091412
 20
387.1966413442
 10
193.1045563082
 20
387.1970399503
 10
194.9570941628
 20
387.1972802315
 10
196.8096774194
 20
387.1973603252
 10
198.6622606759
 20
387.1972802315
 10
200.5147985305
 20
387.1970399503
 10
202.3672456975
 20
387.1966413442
 10
204.2195573571
 20
387.196080688
  0
SPLINE
  5
C5
330
1F
100
AcDbEntity
  8
0
  6
Continuous
 62
     8
370
    18
100
AcDbSpline
210
0.0
220
0.0
230
1.0
 70
     8
 71
     3
 72
    22
 73
    18
 74
     0
 42
0.000000001
 43
0.00000001
 40
0.0
 40
0.0
 40
0.0
 40
0.0
 40
0.125
 40
0.125
 40
0.25
 40
0.25
 40
0.375
 40
0.375
 40
0.5
 40
0.5
 40
0.625
 40
0.625
 40
0.75
 40
0.75
 40
0.875
 40
0.875
 40
1.0
 40
1.0
 40
1.0
 40
1.0
 10
185.1428549669873
 20
391.4530233860237
 30
0.0
 10
185.1427579070965
 20
391.1719581093643
 30
0.0
 10
185.1702373695561
 20
390.89395124564
 30
0.0
 10
185.279952290694
 20
390.3440103063506
 30
0.0
 10
185.3616898029144
 20
390.0762723029221
 30
0.0
 10
185.574142107714
 20
389.5643734923783
 30
0.0
 10
185.7064443253451
 20
389.3167637072892
 30
0.0
 10
186.0177309347582
 20
388.8517658528339
 30
0.0
 10
186.1939727907057
 20
388.6376205251577
 30
0.0
 10
186.5866933640168
 20
388.2451814805229
 30
0.0
 10
186.8057789439164
 20
388.065543245108
 30
0.0
 10
187.2684603132043
 20
387.7569575254267
 30
0.0
 10
187.5129163254827
 20
387.6263662953992
 30
0.0
 10
188.0282927541278
 20
387.4130095176174
 30
0.0
 10
188.2985308457069
 20
387.3313183403027
 30
0.0
 10
188.8423424170136
 20
387.2234603806128
 30
0.0
 10
189.1187326944955
 20
387.1959837136735
 30
0.0
 10
189.399797579582
 20
387.1960807734292
 30
0.0
  0
LWPOLYLINE
  5
C6
330
1F
100
AcDbEntity
  8
0
  6
Continuous
 62
     8
370
    18
100
AcDbPolyline
 90
        9
 70
   128
 43
0.0
 10
185.1428551721
 20
406.2727838043
 10
185.143414897
 20
404.4204726104
 10
185.1438144344
 20
402.5680235807
 10
185.1440547156
 20
400.715485144
 10
185.144133878
 20
398.8629020039
 10
185.1440547156
 20
397.0103188638
 10
185.1438144344
 20
395.1577804271
 10
185.143414897
 20
393.3053351227
 10
185.1428551721
 20
391.4530239288
  0
ARC
  5
C7
330
1F
100
AcDbEntity
  8
0
  6
Continuous
 62
     8
370
    18
100
AcDbCircle
 10
188.5774459864
 20
311.1727229907
 30
0.0
 40
15.64212881111408
100
AcDbArc
 50
358.6240026685
 51
0.0855594075
  0
ARC
  5
C8
330
1F
100
AcDbEntity
  8
0
  6
Continuous
 62
     8
370
    18
100
AcDbCircle
 10
208.4997615957
 20
331.1053112347
 30
0.0
 40
15.65230587292611
100
AcDbArc
 50
269.9148489134
 51
271.3754552839
  0
ARC
  5
C9
330
1F
100
AcDbEntity
  8
0
  6
Continuous
 62
     8
370
    18
100
AcDbCircle
 10
185.119593243
 20
331.1053112347
 30
0.0
 40
15.65230587292611
100
AcDbArc
 50
268.6245447161
 51
270.0851510866
  0
ARC
  5
CA
330
1F
100
AcDbEntity
  8
0
  6
Continuous
 62
     8
370
    18
100
AcDbCircle
 10
205.0419088523
 20
311.1727229907
 30
0.0
 40
15.64212881111408
100
AcDbArc
 50
179.9144405925
 51
181.3759973315
  0
ARC
  5
CB
330
1F
100
AcDbEntity
  8
0
  6
Continuous
 62
     8
370
    18
100
AcDbCircle
 10
208.4998629932
 20
314.6294986389
 30
0.0
 40
15.64330133058309
100
AcDbArc
 50
88.6241243188
 51
90.0855714839
  0
ARC
  5
CC
330
1F
100
AcDbEntity
  8
0
  6
Continuous
 62
     8
370
    18
100
AcDbCircle
 10
188.57736726
 20
334.5530831555
 30
0.0
 40
15.64220753612883
100
AcDbArc
 50
359.9144442706
 51
1.3759936534
  0
ARC
  5
CD
330
1F
100
AcDbEntity
  8
0
  6
Continuous
 62
     8
370
    18
100
AcDbCircle
 10
205.0419875787
 20
334.5530831555
 30
0.0
 40
15.6422075361288
100
AcDbArc
 50
178.6240063466
 51
180.0855557294
  0
ARC
  5
CE
330
1F
100
AcDbEntity
  8
0
  6
Continuous
 62
     8
370
    18
100
AcDbCircle
 10
185.1194918455
 20
314.6294986389
 30
0.0
 40
15.6433013305831
100
AcDbArc
 50
89.9144285161
 51
91.3758756812
  0
ARC
  5
CF
330
1F
100
AcDbEntity
  8
0
  6
Continuous
 62
     8
370
    18
100
AcDbCircle
 10
208.4998629932
 20
407.0963078128
 30
0.0
 40
15.64330133058298
100
AcDbArc
 50
269.9144285161
 51
271.3758756812
  0
ARC
  5
D0
330
1F
100
AcDbEntity
  8
0
  6
Continuous
 62
     8
370
    18
100
AcDbCircle
 10
188.57736726
 20
387.1727232961
 30
0.0
 40
15.64220753612883
100
AcDbArc
 50
358.6240063466
 51
0.0855557294
  0
ARC
  5
D1
330
1F
100
AcDbEntity
  8
0
  6
Continuous
 62
     8
370
    18
100
AcDbCircle
 10
205.0419875787
 20
387.1727232961
 30
0.0
 40
15.6422075361288
100
AcDbArc
 50
179.9144442706
 51
181.3759936534
  0
ARC
  5
D2
330
1F
100
AcDbEntity
  8
0
  6
Continuous
 62
     8
370
    18
100
AcDbCircle
 10
185.1194918455
 20
407.0963078128
 30
0.0
 40
15.64330133058298
100
AcDbArc
 50
268.6241243188
 51
270.0855714839
  0
ARC
  5
D3
330
1F
100
AcDbEntity
  8
0
  6
Continuous
 62
     8
370
    18
100
AcDbCircle
 10
188.5774459864
 20
410.553083461
 30
0.0
 40
15.64212881111408
100
AcDbArc
 50
359.9144405925
 51
1.3759973315
  0
ARC
  5
D4
330
1F
100
AcDbEntity
  8
0
  6
Continuous
 62
     8
370
    18
100
AcDbCircle
 10
208.4997615957
 20
390.620495217
 30
0.0
 40
15.65230587292623
100
AcDbArc
 50
88.6245447161
 51
90.0851510866
  0
ARC
  5
D5
330
1F
100
AcDbEntity
  8
0
  6
Continuous
 62
     8
370
    18
100
AcDbCircle
 10
185.119593243
 20
390.620495217
 30
0.0
 40
15.65230587292623
100
AcDbArc
 50
89.9148489134
 51
91.3754552839
  0
ARC
  5
D6
330
1F
100
AcDbEntity
  8
0
  6
Continuous
 62
     8
370
    18
100
AcDbCircle
 10
205.0419088523
 20
410.553083461
 30
0.0
 40
15.64212881111408
100
AcDbArc
 50
178.6240026685
 51
180.0855594075
  0
LINE
  5
D7
330
1F
100
AcDbEntity
  8
0
  6
Continuous
 62
     8
370
    18
100
AcDbLine
 10
248.1906879815
 20
286.4897771958
 30
0.0
 11
145.4286668572
 21
286.4897771958
 31
0.0
  0
LINE
  5
D8
330
1F
100
AcDbEntity
  8
0
  6
Continuous
 62
     8
370
    18
100
AcDbLine
 10
145.4286668572
 20
286.4897771958
 30
0.0
 11
145.4286668572
 21
287.989258695
 31
0.0
  0
LINE
  5
D9
330
1F
100
AcDbEntity
  8
0
  6
Continuous
 62
     8
370
    18
100
AcDbLine
 10
145.4286668572
 20
287.989258695
 30
0.0
 11
248.1906879815
 21
287.989258695
 31
0.0
  0
LINE
  5
DA
330
1F
100
AcDbEntity
  8
0
  6
Continuous
 62
     8
370
    18
100
AcDbLine
 10
248.1906879815
 20
286.4897771958
 30
0.0
 11
248.1906879815
 21
287.989258695
 31
0.0
  0
ELLIPSE
  5
DB
330
1F
100
AcDbEntity
  8
0
  6
Continuous
 62
     8
370
    18
100
AcDbEllipse
 10
248.1759496666
 20
412.229175473
 30
0.0
 11
15.213216818782
 21
15.21321681878226
 31
-1.065814103640150E-13
210
2.680988340852298E-17
220
6.979033235347893E-15
230
1.0
 40
0.999315002
 41
5.498129760120321
 42
7.068240854238864
  0
LINE
  5
DC
330
1F
100
AcDbEntity
  8
0
  6
Continuous
 62
     8
370
    18
100
AcDbLine
 10
269.6833219501
 20
309.4818926636
 30
0.0
 11
269.6833219501
 21
412.243913788
 31
0.0
  0
ELLIPSE
  5
DD
330
1F
100
AcDbEntity
  8
0
  6
Continuous
 62
     8
370
    18
100
AcDbEllipse
 10
248.1759496666
 20
309.4966309786
 30
0.0
 11
15.21321681878223
 21
-15.21321681878209
 31
1.056932319443149E-13
210
3.159215207335819E-17
220
6.979053244840213E-15
230
1.0
 40
0.999315002
 41
5.498129760120321
 42
7.068240854238867
  0
ELLIPSE
  5
DE
330
1F
100
AcDbEntity
  8
0
  6
Continuous
 62
     8
370
    18
100
AcDbEllipse
 10
145.4434051721
 20
309.4966309786
 30
0.0
 11
-15.21321681878206
 21
-15.21321681878214
 31
1.065814103640150E-13
210
2.680988340853521E-17
220
6.979033235347932E-15
230
1.0
 40
0.999315002
 41
5.498129760120323
 42
7.068240854238867
  0
LINE
  5
DF
330
1F
100
AcDbEntity
  8
0
  6
Continuous
 62
     8
370
    18
100
AcDbLine
 10
123.9360328886
 20
412.243913788
 30
0.0
 11
123.9360328886
 21
309.4818926636
 31
0.0
  0
ELLIPSE
  5
E0
330
1F
100
AcDbEntity
  8
0
  6
Continuous
 62
     8
370
    18
100
AcDbEllipse
 10
145.4434051721
 20
412.229175473
 30
0.0
 11
-15.21321681878223
 21
15.21321681878209
 31
-1.056932319443149E-13
210
6.080317456049754E-17
220
7.008264267327353E-15
230
1.0
 40
0.999315002
 41
5.498129760120322
 42
7.068240854238867
  0
LINE
  5
E1
330
1F
100
AcDbEntity
  8
0
  6
Continuous
 62
     8
370
    18
100
AcDbLine
 10
248.1906879815
 20
433.7365477566
 30
0.0
 11
145.4286668572
 21
433.7365477566
 31
0.0
  0
ELLIPSE
  5
E2
330
1F
100
AcDbEntity
  8
0
  6
Continuous
 62
     8
370
    18
100
AcDbEllipse
 10
145.4434051721
 20
309.4966309786
 30
0.0
 11
16.27315044045406
 21
16.27315044045247
 31
0.0
210
0.0
220
0.0
230
1.0
 40
0.9994042657
 41
2.356537106530566
 42
3.926648200649142
  0
LINE
  5
E3
330
1F
100
AcDbEntity
  8
0
  6
Continuous
 62
     8
370
    18
100
AcDbLine
 10
122.4365513894
 20
309.4818926636
 30
0.0
 11
123.9360328886
 21
309.4818926636
 31
0.0
  0
LINE
  5
E4
330
1F
100
AcDbEntity
  8
0
  6
Continuous
 62
     8
370
    18
100
AcDbLine
 10
269.6833219501
 20
309.4818926636
 30
0.0
 11
271.1828034493
 21
309.4818926636
 31
0.0
  0
ELLIPSE
  5
E5
330
1F
100
AcDbEntity
  8
0
  6
Continuous
 62
     8
370
    18
100
AcDbEllipse
 10
248.1759496666
 20
309.4966309786
 30
0.0
 11
-16.27315044045329
 21
16.2731504404532
 31
0.0
210
0.0
220
0.0
230
1.0
 40
0.9994042657
 41
2.356537106530519
 42
3.926648200649088
  0
LINE
  5
E6
330
1F
100
AcDbEntity
  8
0
  6
Continuous
 62
     8
370
    18
100
AcDbLine
 10
122.4365513894
 20
309.4818926636
 30
0.0
 11
122.4365513894
 21
412.243913788
 31
0.0
  0
LINE
  5
E7
330
1F
100
AcDbEntity
  8
0
  6
Continuous
 62
     8
370
    18
100
AcDbLine
 10
122.4365513894
 20
412.243913788
 30
0.0
 11
123.9360328886
 21
412.243913788
 31
0.0
  0
LINE
  5
E8
330
1F
100
AcDbEntity
  8
0
  6
Continuous
 62
     8
370
    18
100
AcDbLine
 10
269.6833219501
 20
412.243913788
 30
0.0
 11
271.1828034493
 21
412.243913788
 31
0.0
  0
LINE
  5
E9
330
1F
100
AcDbEntity
  8
0
  6
Continuous
 62
     8
370
    18
100
AcDbLine
 10
271.1828034493
 20
412.243913788
 30
0.0
 11
271.1828034493
 21
309.4818926636
 31
0.0
  0
ELLIPSE
  5
EA
330
1F
100
AcDbEntity
  8
0
  6
Continuous
 62
     8
370
    18
100
AcDbEllipse
 10
145.4434051721
 20
412.229175473
 30
0.0
 11
16.27315044045411
 21
-16.27315044045241
 31
0.0
210
0.0
220
0.0
230
1.0
 40
0.9994042657
 41
2.356537106530468
 42
3.92664820064904
  0
LINE
  5
EB
330
1F
100
AcDbEntity
  8
0
  6
Continuous
 62
     8
370
    18
100
AcDbLine
 10
145.4286668572
 20
433.7365477566
 30
0.0
 11
145.4286668572
 21
435.2360292558
 31
0.0
  0
LINE
  5
EC
330
1F
100
AcDbEntity
  8
0
  6
Continuous
 62
     8
370
    18
100
AcDbLine
 10
248.1906879815
 20
433.7365477566
 30
0.0
 11
248.1906879815
 21
435.2360292558
 31
0.0
  0
ELLIPSE
  5
ED
330
1F
100
AcDbEntity
  8
0
  6
Continuous
 62
     8
370
    18
100
AcDbEllipse
 10
248.1759496666
 20
412.229175473
 30
0.0
 11
16.27315044045244
 21
16.27315044045406
 31
0.0
210
0.0
220
0.0
230
1.0
 40
0.9994042657
 41
5.498129760120278
 42
7.068240854238822
  0
LINE
  5
EE
330
1F
100
AcDbEntity
  8
0
  6
Continuous
 62
     8
370
    18
100
AcDbLine
 10
145.4286668572
 20
435.2360292558
 30
0.0
 11
248.1906879815
 21
435.2360292558
 31
0.0
  0
LINE
  5
EF
330
1F
100
AcDbEntity
  8
0
  6
Continuous
 62
     8
370
    18
100
AcDbLine
 10
121.8096744391
 20
308.8550231639
 30
0.0
 11
122.4365513894
 21
309.4818926636
 31
0.0
  0
LINE
  5
F0
330
1F
100
AcDbEntity
  8
0
  6
Continuous
 62
     8
370
    18
100
AcDbLine
 10
145.4286668572
 20
286.4897771958
 30
0.0
 11
144.8017973575
 21
285.8629002456
 31
0.0
  0
LINE
  5
F1
330
1F
100
AcDbEntity
  8
0
  6
Continuous
 62
     8
370
    18
100
AcDbLine
 10
248.8175574812
 20
285.8629002456
 30
0.0
 11
248.1906879815
 21
286.4897771958
 31
0.0
  0
LINE
  5
F2
330
1F
100
AcDbEntity
  8
0
  6
Continuous
 62
     8
370
    18
100
AcDbLine
 10
271.1828034493
 20
309.4818926636
 30
0.0
 11
271.8096803996
 21
308.8550231639
 31
0.0
  0
LINE
  5
F3
330
1F
100
AcDbEntity
  8
0
  6
Continuous
 62
     8
370
    18
100
AcDbLine
 10
144.8017973575
 20
435.862906206
 30
0.0
 11
145.4286668572
 21
435.2360292558
 31
0.0
  0
LINE
  5
F4
330
1F
100
AcDbEntity
  8
0
  6
Continuous
 62
     8
370
    18
100
AcDbLine
 10
122.4365513894
 20
412.243913788
 30
0.0
 11
121.8096744391
 21
412.8707832877
 31
0.0
  0
LINE
  5
F5
330
1F
100
AcDbEntity
  8
0
  6
Continuous
 62
     8
370
    18
100
AcDbLine
 10
271.8096803996
 20
412.8707832877
 30
0.0
 11
271.1828034493
 21
412.243913788
 31
0.0
  0
LINE
  5
F6
330
1F
100
AcDbEntity
  8
0
  6
Continuous
 62
     8
370
    18
100
AcDbLine
 10
248.1906879815
 20
435.2360292558
 30
0.0
 11
248.8175574812
 21
435.862906206
 31
0.0
  0
ARC
  5
F7
330
1F
100
AcDbEntity
  8
0
  6
Continuous
 62
     7
370
    25
100
AcDbCircle
 10
196.8096774194
 20
533.9938893113
 30
0.0
 40
375.0000000000001
100
AcDbArc
 50
268.217348702
 51
270.0
  0
ARC
  5
F8
330
1F
100
AcDbEntity
  8
0
  6
Continuous
 62
     7
370
    25
100
AcDbCircle
 10
196.8096774194
 20
533.9938893113
 30
0.0
 40
375.0000000000001
100
AcDbArc
 50
270.0
 51
271.782651298
  0
ARC
  5
F9
330
1F
100
AcDbEntity
  8
0
  6
Continuous
 62
     7
370
    25
100
AcDbCircle
 10
208.4596665175
 20
159.6751377719
 30
0.0
 40
0.5000000000000306
100
AcDbArc
 50
271.782651298
 51
335.6572124501
  0
ARC
  5
FA
330
1F
100
AcDbEntity
  8
0
  6
Continuous
 62
     7
370
    25
100
AcDbCircle
 10
185.1596883212
 20
159.6751377719
 30
0.0
 40
0.5000000000000333
100
AcDbArc
 50
204.3665387787
 51
268.217348702
  0
ARC
  5
FB
330
1F
100
AcDbEntity
  8
0
  6
Continuous
 62
     7
370
    25
100
AcDbCircle
 10
216.0096774194
 20
158.8688096261
 30
0.0
 40
0.8000000000000398
100
AcDbArc
 50
270.0
 51
0.0
  0
ARC
  5
FC
330
1F
100
AcDbEntity
  8
0
  6
Continuous
 62
     7
370
    25
100
AcDbCircle
 10
177.6096774194
 20
158.8688096261
 30
0.0
 40
0.8000000000000114
100
AcDbArc
 50
180.0
 51
270.0
  0
LINE
  5
FD
330
1F
100
AcDbEntity
  8
0
  6
Continuous
 62
     7
370
    25
100
AcDbLine
 10
216.8096769723
 20
158.8688090901
 30
0.0
 11
216.8096769723
 21
159.4688099335
 31
0.0
  0
LINE
  5
FE
330
1F
100
AcDbEntity
  8
0
  6
Continuous
 62
     7
370
    25
100
AcDbLine
 10
176.8096778664
 20
159.4688099335
 30
0.0
 11
176.8096778664
 21
158.8688090901
 31
0.0
  0
SPLINE
  5
FF
330
1F
100
AcDbEntity
  8
0
  6
Continuous
 62
     7
370
    25
100
AcDbSpline
210
0.0
220
0.0
230
1.0
 70
     8
 71
     3
 72
    11
 73
     7
 74
     0
 42
0.000000001
 43
0.00000001
 40
0.0
 40
0.0
 40
0.0
 40
0.0
 40
0.248134318867683
 40
0.4971624795369235
 40
0.7477881170193269
 40
1.0
 40
1.0
 40
1.0
 40
1.0
 10
176.9860703620206
 20
157.3688097755654
 30
0.0
 10
177.0829613482363
 20
154.4111280503137
 30
0.0
 10
177.2770923462038
 20
148.4851102913948
 30
0.0
 10
178.3109126819111
 20
139.6351910441514
 30
0.0
 10
179.6558745472444
 20
130.8113962100315
 30
0.0
 10
180.6799966638391
 20
124.9642702223127
 30
0.0
 10
181.1936730641018
 20
122.031484590028
 30
0.0
  0
SPLINE
  5
100
330
1F
100
AcDbEntity
  8
0
  6
Continuous
 62
     7
370
    25
100
AcDbSpline
210
0.0
220
0.0
230
1.0
 70
     8
 71
     3
 72
    11
 73
     7
 74
     0
 42
0.000000001
 43
0.00000001
 40
0.0
 40
0.0
 40
0.0
 40
0.0
 40
0.2522120347531716
 40
0.5028377039492609
 40
0.7518658992092162
 40
1.0
 40
1.0
 40
1.0
 40
1.0
 10
212.4256817746054
 20
122.031484590028
 30
0.0
 10
212.9393589156033
 20
124.9642699220352
 30
0.0
 10
213.9634822664315
 20
130.8113939261129
 30
0.0
 10
215.3084438278328
 20
139.6351904494095
 30
0.0
 10
216.3422644791587
 20
148.4851107757
 30
0.0
 10
216.5363941848447
 20
154.4111292173749
 30
0.0
 10
216.6332844766866
 20
157.3688097755654
 30
0.0
  0
SPLINE
  5
101
330
1F
100
AcDbEntity
  8
0
  6
Continuous
 62
     7
370
    25
100
AcDbSpline
210
0.0
220
0.0
230
1.0
 70
     8
 71
     3
 72
    11
 73
     7
 74
     0
 42
0.000000001
 43
0.00000001
 40
0.0
 40
0.0
 40
0.0
 40
0.0
 40
0.2436306426096416
 40
0.4999834357148689
 40
0.756343441419203
 40
1.0
 40
1.0
 40
1.0
 40
1.0
 10
181.1559144529592
 20
122.2409278611882
 30
0.0
 10
181.18832586748
 20
122.1226850490749
 30
0.0
 10
181.2548411884383
 20
121.8800249024868
 30
0.0
 10
181.5013514686443
 20
121.5785373326149
 30
0.0
 10
181.8268634839005
 20
121.3647159683792
 30
0.0
 10
182.0751275261234
 20
121.323819443879
 30
0.0
 10
182.1961058425795
 20
121.3038906912548
 30
0.0
  0
SPLINE
  5
102
330
1F
100
AcDbEntity
  8
0
  6
Continuous
 62
     7
370
    25
100
AcDbSpline
210
0.0
220
0.0
230
1.0
 70
     8
 71
     3
 72
    11
 73
     7
 74
     0
 42
0.000000001
 43
0.00000001
 40
0.0
 40
0.0
 40
0.0
 40
0.0
 40
0.2430932622550653
 40
0.5000028087563698
 40
0.7569092462849693
 40
1.0
 40
1.0
 40
1.0
 40
1.0
 10
211.4232499274503
 20
121.3038906912548
 30
0.0
 10
211.5443454683834
 20
121.3238938454147
 30
0.0
 10
211.7934190545155
 20
121.3650370394759
 30
0.0
 10
212.1178982134929
 20
121.5786580258782
 30
0.0
 10
212.3640924751499
 20
121.8791697339862
 30
0.0
 10
212.4309050236594
 20
122.1226138651339
 30
0.0
 10
212.4633882316839
 20
122.2409725646718
 30
0.0
  0
SPLINE
  5
103
330
1F
100
AcDbEntity
  8
0
  6
Continuous
 62
     7
370
    25
100
AcDbSpline
210
0.0
220
0.0
230
1.0
 70
     8
 71
     3
 72
    11
 73
     7
 74
     0
 42
0.000000001
 43
0.00000001
 40
0.0
 40
0.0
 40
0.0
 40
0.0
 40
0.2501354186195411
 40
0.5000000045432454
 40
0.7498645970962554
 40
1.0
 40
1.0
 40
1.0
 40
1.0
 10
182.0206930982958
 20
121.3163331608517
 30
0.0
 10
184.484854634715
 20
121.1765211890445
 30
0.0
 10
189.4105096507242
 20
120.897048626044
 30
0.0
 10
196.8096715657822
 20
120.8630736083559
 30
0.0
 10
204.2088333264372
 20
120.8970486143891
 30
0.0
 10
209.1344882520576
 20
121.1765211893197
 30
0.0
 10
211.5986496332179
 20
121.3163331608517
 30
0.0
  0
ARC
  5
104
330
1F
100
AcDbEntity
  8
0
  6
Continuous
 62
     7
370
    25
100
AcDbCircle
 10
177.1860043284
 20
157.1688096261
 30
0.0
 40
0.2000000000000345
100
AcDbArc
 50
89.4261252281
 51
182.2543966291
  0
ARC
  5
105
330
1F
100
AcDbEntity
  8
0
  6
Continuous
 62
     7
370
    25
100
AcDbCircle
 10
216.4333505103
 20
157.1688096261
 30
0.0
 40
0.1999999999999902
100
AcDbArc
 50
28.3795563821
 51
90.0000002034
  0
LINE
  5
106
330
1F
100
AcDbEntity
  8
0
  6
Continuous
 62
     7
370
    25
100
AcDbLine
 10
216.6316192719
 20
157.195067824
 30
0.0
 11
216.6333161417
 21
157.1725167792
 31
0.0
  0
LINE
  5
107
330
1F
100
AcDbEntity
  8
0
  6
Continuous
 62
     7
370
    25
100
AcDbLine
 10
144.8017973575
 20
184.8688096261
 30
0.0
 11
248.8175574812
 21
184.8688096261
 31
0.0
  0
LINE
  5
108
330
1F
100
AcDbEntity
  8
0
  6
Continuous
 62
     7
370
    25
100
AcDbLine
 10
248.8175574812
 20
184.8688096261
 30
0.0
 11
271.8096803996
 21
184.8688096261
 31
0.0
  0
LINE
  5
109
330
1F
100
AcDbEntity
  8
0
  6
Continuous
 62
     7
370
    25
100
AcDbLine
 10
271.8096803996
 20
184.8688096261
 30
0.0
 11
271.1828034493
 21
160.9295446883
 31
0.0
  0
LINE
  5
10A
330
1F
100
AcDbEntity
  8
0
  6
Continuous
 62
     7
370
    25
100
AcDbLine
 10
122.4365513894
 20
160.9295446883
 30
0.0
 11
121.8096744391
 21
184.8688096261
 31
0.0
  0
LINE
  5
10B
330
1F
100
AcDbEntity
  8
0
  6
Continuous
 62
     7
370
    25
100
AcDbLine
 10
121.8096744391
 20
184.8688096261
 30
0.0
 11
144.8017973575
 21
184.8688096261
 31
0.0
  0
LINE
  5
10C
330
1F
100
AcDbEntity
  8
0
  6
Continuous
 62
     7
370
    25
100
AcDbLine
 10
248.1906879815
 20
159.4688099335
 30
0.0
 11
145.4286668572
 21
159.4688099335
 31
0.0
  0
LINE
  5
10D
330
1F
100
AcDbEntity
  8
0
  6
Continuous
 62
     7
370
    25
100
AcDbLine
 10
269.6833219501
 20
159.4688099335
 30
0.0
 11
248.1906879815
 21
159.4688099335
 31
0.0
  0
ARC
  5
10E
330
1F
100
AcDbEntity
  8
0
  6
Continuous
 62
     7
370
    25
100
AcDbCircle
 10
269.6833197051
 20
160.9688096261
 30
0.0
 40
1.500000000000009
100
AcDbArc
 50
270.0
 51
358.5
  0
LINE
  5
10F
330
1F
100
AcDbEntity
  8
0
  6
Continuous
 62
     7
370
    25
100
AcDbLine
 10
145.4286668572
 20
159.4688099335
 30
0.0
 11
123.9360328886
 21
159.4688099335
 31
0.0
  0
ARC
  5
110
330
1F
100
AcDbEntity
  8
0
  6
Continuous
 62
     7
370
    25
100
AcDbCircle
 10
123.9360351336
 20
160.9688096261
 30
0.0
 40
1.500000000000008
100
AcDbArc
 50
181.5
 51
270.0
  0
ARC
  5
111
330
1F
100
AcDbEntity
  8
0
  6
Continuous
 62
     7
370
    25
100
AcDbCircle
 10
196.8096774194
 20
533.7856577598
 30
0.0
 40
374.6102781648161
100
AcDbArc
 50
268.866602008
 51
271.133397992
  0
SPLINE
  5
112
330
1F
100
AcDbEntity
  8
0
  6
Continuous
 62
     7
370
    25
100
AcDbSpline
210
0.0
220
0.0
230
1.0
 70
    24
 71
     3
 72
    10
 73
     6
 74
     0
 42
0.000000001
 43
0.00000001
 40
0.0
 40
0.0
 40
0.0
 40
0.0
 40
0.5
 40
0.5
 40
1.0
 40
1.0
 40
1.0
 40
1.0
 10
193.5421648792806
 20
157.368809626131
 30
0.0
 10
194.6313376065206
 20
157.368809626131
 30
0.0
 10
195.7205103063316
 20
157.3688096261311
 30
0.0
 10
197.8988556532699
 20
157.3688096261311
 30
0.0
 10
198.9880283004066
 20
157.368809626131
 30
0.0
 10
200.0772009201368
 20
157.368809626131
 30
0.0
  0
SPLINE
  5
113
330
1F
100
AcDbEntity
  8
0
  6
Continuous
 62
     7
370
    25
100
AcDbSpline
210
0.0
220
0.0
230
1.0
 70
    24
 71
     3
 72
    28
 73
    24
 74
     0
 42
0.000000001
 43
0.00000001
 40
0.0
 40
0.0
 40
0.0
 40
0.0
 40
0.1249999999999997
 40
0.1249999999999997
 40
0.2499999999999994
 40
0.2499999999999994
 40
0.3124999999999994
 40
0.3124999999999994
 40
0.3749999999999994
 40
0.3749999999999994
 40
0.4999999999999996
 40
0.4999999999999996
 40
0.5624999999999997
 40
0.5624999999999997
 40
0.6249999999999997
 40
0.6249999999999997
 40
0.7499999999999997
 40
0.7499999999999997
 40
0.8124999999999998
 40
0.8124999999999998
 40
0.8749999999999999
 40
0.8749999999999999
 40
1.0
 40
1.0
 40
1.0
 40
1.0
 10
177.4600600236803
 20
157.3688096261309
 30
0.0
 10
177.6297877191748
 20
157.3688096261309
 30
0.0
 10
177.8751794804955
 20
157.368809626131
 30
0.0
 10
178.510749720919
 20
157.368809626131
 30
0.0
 10
178.9008737684525
 20
157.368809626131
 30
0.0
 10
179.5983852281362
 20
157.368809626131
 30
0.0
 10
179.849955410743
 20
157.368809626131
 30
0.0
 10
180.381843795238
 20
157.368809626131
 30
0.0
 10
180.6631865003189
 20
157.368809626131
 30
0.0
 10
181.5532409777852
 20
157.368809626131
 30
0.0
 10
182.2060326232552
 20
157.368809626131
 30
0.0
 10
183.2775428526136
 20
157.3688096261311
 30
0.0
 10
183.6520169997877
 20
157.368809626131
 30
0.0
 10
184.4237167308667
 20
157.3688096261311
 30
0.0
 10
184.8199927426845
 20
157.3688096261311
 30
0.0
 10
186.039813416677
 20
157.3688096261311
 30
0.0
 10
186.8946865696054
 20
157.3688096261311
 30
0.0
 10
188.2381943772776
 20
157.3688096261311
 30
0.0
 10
188.6963846137274
 20
157.3688096261311
 30
0.0
 10
189.6341604978455
 20
157.3688096261311
 30
0.0
 10
190.1106118959848
 20
157.3688096261311
 30
0.0
 10
191.5533906351303
 20
157.3688096261311
 30
0.0
 10
192.5368194475106
 20
157.368809626131
 30
0.0
 10
193.5421648792806
 20
157.368809626131
 30
0.0
  0
SPLINE
  5
114
330
1F
100
AcDbEntity
  8
0
  6
Continuous
 62
     7
370
    25
100
AcDbSpline
210
0.0
220
0.0
230
1.0
 70
    24
 71
     3
 72
    28
 73
    24
 74
     0
 42
0.000000001
 43
0.00000001
 40
0.0
 40
0.0
 40
0.0
 40
0.0
 40
0.1250000000000001
 40
0.1250000000000001
 40
0.2500000000000002
 40
0.2500000000000002
 40
0.3125000000000001
 40
0.3125000000000001
 40
0.375
 40
0.375
 40
0.5000000000000001
 40
0.5000000000000001
 40
0.5625000000000001
 40
0.5625000000000001
 40
0.6250000000000002
 40
0.6250000000000002
 40
0.7500000000000002
 40
0.7500000000000002
 40
0.8125000000000003
 40
0.8125000000000003
 40
0.8750000000000002
 40
0.8750000000000002
 40
1.0
 40
1.0
 40
1.0
 40
1.0
 10
200.0772009201368
 20
157.368809626131
 30
0.0
 10
201.082408329515
 20
157.368809626131
 30
0.0
 10
202.0611931125246
 20
157.3688096261311
 30
0.0
 10
203.9682017466467
 20
157.3688096261311
 30
0.0
 10
204.8964446063793
 20
157.3688096261311
 30
0.0
 10
206.2495837778824
 20
157.3688096261311
 30
0.0
 10
206.6944415813298
 20
157.3688096261311
 30
0.0
 10
207.5556892886319
 20
157.3688096261311
 30
0.0
 10
207.9740301608256
 20
157.3688096261311
 30
0.0
 10
209.1923387825074
 20
157.3688096261311
 30
0.0
 10
209.9571451998982
 20
157.3688096261311
 30
0.0
 10
211.0307114300311
 20
157.368809626131
 30
0.0
 10
211.3774203143602
 20
157.368809626131
 30
0.0
 10
212.038690344898
 20
157.368809626131
 30
0.0
 10
212.3527075490359
 20
157.368809626131
 30
0.0
 10
213.2453612513008
 20
157.368809626131
 30
0.0
 10
213.7740645407175
 20
157.368809626131
 30
0.0
 10
214.4695783432369
 20
157.368809626131
 30
0.0
 10
214.6849129778467
 20
157.368809626131
 30
0.0
 10
215.0814809702487
 20
157.368809626131
 30
0.0
 10
215.2613525643881
 20
157.368809626131
 30
0.0
 10
215.7433326266636
 20
157.368809626131
 30
0.0
 10
215.989489152571
 20
157.3688096261309
 30
0.0
 10
216.1592967254441
 20
157.3688096261309
 30
0.0
  0
LINE
  5
115
330
1F
100
AcDbEntity
  8
0
  6
Continuous
 62
     7
370
    25
100
AcDbLine
 10
196.8096774194
 20
158.0688104491
 30
0.0
 11
177.6096765074
 21
158.0688104491
 31
0.0
  0
LINE
  5
116
330
1F
100
AcDbEntity
  8
0
  6
Continuous
 62
     7
370
    25
100
AcDbLine
 10
216.0096783313
 20
158.0688104491
 30
0.0
 11
196.8096774194
 21
158.0688104491
 31
0.0
  0
SPLINE
  5
117
330
1F
100
AcDbEntity
  8
0
  6
Continuous
 62
     7
370
    25
100
AcDbSpline
210
0.0
220
0.0
230
1.0
 70
     8
 71
     3
 72
     9
 73
     5
 74
     0
 42
0.000000001
 43
0.00000001
 40
0.0
 40
0.0
 40
0.0
 40
0.0
 40
0.5467106113697627
 40
1.0
 40
1.0
 40
1.0
 40
1.0
 10
181.1558455350887
 20
122.2408533553822
 30
0.0
 10
181.1556151040971
 20
122.2406502842577
 30
0.0
 10
181.1551936178724
 20
122.2402788425475
 30
0.0
 10
181.1555332559255
 20
122.240499853653
 30
0.0
 10
181.155687210251
 20
122.2406000356419
 30
0.0
  0
SPLINE
  5
118
330
1F
100
AcDbEntity
  8
0
  6
Continuous
 62
     7
370
    25
100
AcDbSpline
210
0.0
220
0.0
230
1.0
 70
     8
 71
     3
 72
    10
 73
     6
 74
     0
 42
0.000000001
 43
0.00000001
 40
0.0
 40
0.0
 40
0.0
 40
0.0
 40
0.04739387138981
 40
0.7065836737895338
 40
0.9999999999999999
 40
0.9999999999999999
 40
0.9999999999999999
 40
0.9999999999999999
 10
212.4631982418786
 20
122.2411290268643
 30
0.0
 10
212.4632603983283
 20
122.2410773979579
 30
0.0
 10
212.4641870736816
 20
122.2403076751799
 30
0.0
 10
212.4630903863394
 20
122.2410664575629
 30
0.0
 10
212.4626146259818
 20
122.2414959316092
 30
0.0
 10
212.4624680849801
 20
122.2416282157643
 30
0.0
  0
LINE
  5
119
330
1F
100
AcDbEntity
  8
0
  6
Continuous
 62
     7
370
    25
100
AcDbLine
 10
177.0209763321
 20
157.1667109142
 30
0.0
 11
177.0186722401
 21
157.1667090516
 31
0.0
  0
SPLINE
  5
11A
330
1F
100
AcDbEntity
  8
0
  6
Continuous
 62
     7
370
    25
100
AcDbSpline
210
0.0
220
0.0
230
1.0
 70
     8
 71
     3
 72
     9
 73
     5
 74
     0
 42
0.000000001
 43
0.00000001
 40
0.0
 40
0.0
 40
0.0
 40
0.0
 40
0.2969581021921585
 40
1.0
 40
1.0
 40
1.0
 40
1.0
 10
216.6006825986396
 20
157.1667090515835
 30
0.0
 10
216.6090632125663
 20
157.1667059899941
 30
0.0
 10
216.6372847490887
 20
157.1666956801577
 30
0.0
 10
216.4724084741219
 20
157.1667472803161
 30
0.0
 10
216.3564935448657
 20
157.1667835573895
 30
0.0
  0
LINE
  5
11B
330
1F
100
AcDbEntity
  8
0
  6
Continuous
 62
     7
370
    25
100
AcDbLine
 10
181.8096777546
 20
158.0688104491
 30
0.0
 11
181.8096777546
 21
157.3688097756
 31
0.0
  0
LINE
  5
11C
330
1F
100
AcDbEntity
  8
0
  6
Continuous
 62
     7
370
    25
100
AcDbLine
 10
211.8096770841
 20
157.3688097756
 30
0.0
 11
211.8096770841
 21
158.0688104491
 31
0.0
  0
SPLINE
  5
11D
330
1F
100
AcDbEntity
  8
0
  6
Continuous
 62
     7
370
    25
100
AcDbSpline
210
0.0
220
0.0
230
1.0
 70
     8
 71
     3
 72
     9
 73
     5
 74
     0
 42
0.000000001
 43
0.00000001
 40
0.0
 40
0.0
 40
0.0
 40
0.0
 40
0.0373186849345055
 40
1.0
 40
1.0
 40
1.0
 40
1.0
 10
211.4232452708374
 20
121.3038981418354
 30
0.0
 10
211.4232471641964
 20
121.303895613764
 30
0.0
 10
211.4232978990744
 20
121.3038278709851
 30
0.0
 10
211.4232824729862
 20
121.303856082233
 30
0.0
 10
211.4232676225792
 20
121.3038832406743
 30
0.0
  0
SPLINE
  5
11E
330
1F
100
AcDbEntity
  8
0
  6
Continuous
 62
     7
370
    25
100
AcDbSpline
210
0.0
220
0.0
230
1.0
 70
     8
 71
     3
 72
     9
 73
     5
 74
     0
 42
0.000000001
 43
0.00000001
 40
0.0
 40
0.0
 40
0.0
 40
0.0
 40
0.9273968925452309
 40
1.0
 40
1.0
 40
1.0
 40
1.0
 10
182.1962334337722
 20
121.3039726476414
 30
0.0
 10
182.1961817602609
 20
121.3039326611628
 30
0.0
 10
182.1961260413862
 20
121.3038895442634
 30
0.0
 10
182.1961011318325
 20
121.3038906136165
 30
0.0
 10
182.1960993233215
 20
121.3038906912548
 30
0.0
  0
LINE
  5
11F
330
1F
100
AcDbEntity
  8
0
  6
Continuous
 62
     7
370
    25
100
AcDbLine
 10
177.1896164986
 20
157.3688097756
 30
0.0
 11
177.4600595358
 21
157.3688097756
 31
0.0
  0
LINE
  5
120
330
1F
100
AcDbEntity
  8
0
  6
Continuous
 62
     8
370
    18
100
AcDbLine
 10
248.1906879815
 20
160.9295446883
 30
0.0
 11
248.8175574812
 21
184.8688096261
 31
0.0
  0
LINE
  5
121
330
1F
100
AcDbEntity
  8
0
  6
Continuous
 62
     8
370
    18
100
AcDbLine
 10
145.4286668572
 20
160.9295446883
 30
0.0
 11
248.1906879815
 21
160.9295446883
 31
0.0
  0
LINE
  5
122
330
1F
100
AcDbEntity
  8
0
  6
Continuous
 62
     8
370
    18
100
AcDbLine
 10
144.8017973575
 20
184.8688096261
 30
0.0
 11
145.4286668572
 21
160.9295446883
 31
0.0
  0
ELLIPSE
  5
123
330
1F
100
AcDbEntity
  8
0
  6
Continuous
 62
     8
370
    18
100
AcDbEllipse
 10
248.1759496666
 20
160.9688096261
 30
0.0
 11
23.00685604886374
 21
-0.03926378423113874
 31
0.0
210
0.0
220
0.0
230
1.0
 40
0.0017055857
 41
4.71303246336667
 42
6.283143557493359
  0
ELLIPSE
  5
124
330
1F
100
AcDbEntity
  8
0
  6
Continuous
 62
     8
370
    18
100
AcDbEllipse
 10
145.4434051721
 20
160.9688096261
 30
0.0
 11
23.00685604886376
 21
0.03926378423113874
 31
0.0
210
0.0
220
0.0
230
1.0
 40
0.0017055857
 41
3.141634403291948
 42
4.711745497402695
  0
LINE
  5
125
330
1F
100
AcDbEntity
  8
0
  6
Continuous
 62
     8
370
    18
100
AcDbLine
 10
145.4286668572
 20
159.4688099335
 30
0.0
 11
145.4286668572
 21
160.9295446883
 31
0.0
  0
LINE
  5
126
330
1F
100
AcDbEntity
  8
0
  6
Continuous
 62
     8
370
    18
100
AcDbLine
 10
248.1906879815
 20
159.4688099335
 30
0.0
 11
248.1906879815
 21
160.9295446883
 31
0.0
  0
SPLINE
  5
127
330
1F
100
AcDbEntity
  8
0
  6
Continuous
 62
     8
370
    18
100
AcDbSpline
210
0.0
220
0.0
230
1.0
 70
     8
 71
     3
 72
    22
 73
    18
 74
     0
 42
0.000000001
 43
0.00000001
 40
0.0
 40
0.0
 40
0.0
 40
0.0
 40
0.125
 40
0.125
 40
0.25
 40
0.25
 40
0.375
 40
0.375
 40
0.5
 40
0.5
 40
0.625
 40
0.625
 40
0.75
 40
0.75
 40
0.875
 40
0.875
 40
1.0
 40
1.0
 40
1.0
 40
1.0
 10
208.4764998717491
 20
159.2486706164539
 30
0.0
 10
208.47659693164
 20
159.2542311738773
 30
0.0
 10
208.4491174691804
 20
159.2591859854139
 30
0.0
 10
208.3394025480425
 20
159.2678926964944
 30
0.0
 10
208.2576650358221
 20
159.2715714552045
 30
0.0
 10
208.0452127310225
 20
159.277494028223
 30
0.0
 10
207.9129105133914
 20
159.2797746611092
 30
0.0
 10
207.6016239039783
 20
159.2828148786161
 30
0.0
 10
207.4253820480309
 20
159.2835645690863
 30
0.0
 10
207.0326614747197
 20
159.2835590007651
 30
0.0
 10
206.8135758948201
 20
159.2827787742828
 30
0.0
 10
206.3508945255322
 20
159.2797309540558
 30
0.0
 10
206.1064385132538
 20
159.2774788574567
 30
0.0
 10
205.5910620846087
 20
159.2715053923905
 30
0.0
 10
205.3208239930296
 20
159.2677762717492
 30
0.0
 10
204.7770124217228
 20
159.259154061265
 30
0.0
 10
204.500622144241
 20
159.2542311661304
 30
0.0
 10
204.2195572591545
 20
159.2486706164538
 30
0.0
  0
ARC
  5
128
330
1F
100
AcDbEntity
  8
0
  6
Continuous
 62
     8
370
    18
100
AcDbCircle
 10
332.9837851545
 20
161.9869447273
 30
0.0
 40
128.7933402833074
100
AcDbArc
 50
181.1203039648
 51
181.2182565453
  0
ARC
  5
129
330
1F
100
AcDbEntity
  8
0
  6
Continuous
 62
     8
370
    18
100
AcDbCircle
 10
208.4609705348
 20
159.7484394839
 30
0.0
 40
0.5000093375794686
100
AcDbArc
 50
271.7797603896
 51
325.9961467425
  0
SPLINE
  5
12A
330
1F
100
AcDbEntity
  8
0
  6
Continuous
 62
     8
370
    18
100
AcDbSpline
210
0.0
220
0.0
230
1.0
 70
     8
 71
     3
 72
    22
 73
    18
 74
     0
 42
0.000000001
 43
0.00000001
 40
0.0
 40
0.0
 40
0.0
 40
0.0
 40
0.125
 40
0.125
 40
0.25
 40
0.25
 40
0.375
 40
0.375
 40
0.5
 40
0.5
 40
0.625
 40
0.625
 40
0.75
 40
0.75
 40
0.875
 40
0.875
 40
1.0
 40
1.0
 40
1.0
 40
1.0
 10
189.3997975795817
 20
159.2486706164539
 30
0.0
 10
189.1187323029223
 20
159.2542311738773
 30
0.0
 10
188.8407254391981
 20
159.2591859854139
 30
0.0
 10
188.2907844999087
 20
159.2678926964944
 30
0.0
 10
188.0230464964802
 20
159.2715714552045
 30
0.0
 10
187.5111476859364
 20
159.277494028223
 30
0.0
 10
187.2635379008473
 20
159.2797746611092
 30
0.0
 10
186.798540046392
 20
159.2828148786162
 30
0.0
 10
186.5843947187158
 20
159.2835645690863
 30
0.0
 10
186.191955674081
 20
159.2835590007651
 30
0.0
 10
186.0123174386661
 20
159.2827787742829
 30
0.0
 10
185.7037317189848
 20
159.2797309540559
 30
0.0
 10
185.5731404889573
 20
159.2774788574566
 30
0.0
 10
185.3597837111755
 20
159.2715053923905
 30
0.0
 10
185.2780925338608
 20
159.2677762717492
 30
0.0
 10
185.1702345741709
 20
159.259154061265
 30
0.0
 10
185.1427579072316
 20
159.2542311661304
 30
0.0
 10
185.1428549669872
 20
159.2486706164538
 30
0.0
  0
ARC
  5
12B
330
1F
100
AcDbEntity
  8
0
  6
Continuous
 62
     8
370
    18
100
AcDbCircle
 10
185.1583843039
 20
159.7484394839
 30
0.0
 40
0.500009337579491
100
AcDbArc
 50
214.0038532575
 51
268.2202396104
  0
ARC
  5
12C
330
1F
100
AcDbEntity
  8
0
  6
Continuous
 62
     8
370
    18
100
AcDbCircle
 10
60.6355696842
 20
161.9869447273
 30
0.0
 40
128.7933402833074
100
AcDbArc
 50
358.7817434547
 51
358.8796960352
  0
LWPOLYLINE
  5
12D
330
1F
100
AcDbEntity
  8
0
  6
Continuous
 62
     8
370
    18
100
AcDbPolyline
 90
        5
 70
   128
 43
0.0
 10
208.4752209607
 20
159.1753799926
 10
208.4753001231
 20
159.179960237
 10
208.4755404043
 20
159.1937028329
 10
208.4759399417
 20
159.2166059177
 10
208.4764996666
 20
159.2486713539
  0
LWPOLYLINE
  5
12E
330
1F
100
AcDbEntity
  8
0
  6
Continuous
 62
     8
370
    18
100
AcDbPolyline
 90
        5
 70
   128
 43
0.0
 10
185.1428551721
 20
159.2486713539
 10
185.143414897
 20
159.2166059177
 10
185.1438144344
 20
159.1937028329
 10
185.1440547156
 20
159.179960237
 10
185.144133878
 20
159.1753799926
  0
SPLINE
  5
12F
330
1F
100
AcDbEntity
  8
0
  6
Continuous
 62
     8
370
    18
100
AcDbSpline
210
0.0
220
0.0
230
1.0
 70
     8
 71
     3
 72
    10
 73
     6
 74
     0
 42
0.000000001
 43
0.00000001
 40
0.0
 40
0.0
 40
0.0
 40
0.0
 40
0.5
 40
0.5
 40
1.0
 40
1.0
 40
1.0
 40
1.0
 10
200.1104975683278
 20
157.1667828289419
 30
0.0
 10
199.0167694612944
 20
157.1667455840951
 30
0.0
 10
197.9065783459181
 20
157.166693425945
 30
0.0
 10
195.7007433178303
 20
157.1666935674335
 30
0.0
 10
194.6024507318694
 20
157.1667499808871
 30
0.0
 10
193.5088574449418
 20
157.1667827092221
 30
0.0
  0
ARC
  5
130
330
1F
100
AcDbEntity
  8
0
  6
Continuous
 62
     8
370
    18
100
AcDbCircle
 10
193.8380260603
 20
157.2162730763
 30
0.0
 40
0.3328681635705683
100
AcDbArc
 50
152.7257857382
 51
188.5502086749
  0
ARC
  5
131
330
1F
100
AcDbEntity
  8
0
  6
Continuous
 62
     8
370
    18
100
AcDbCircle
 10
199.7812334756
 20
157.2162733568
 30
0.0
 40
0.3329626794446676
100
AcDbArc
 50
351.4521877811
 51
27.2657749873
  0
SPLINE
  5
132
330
1F
100
AcDbEntity
  8
0
  6
Continuous
 62
     8
370
    18
100
AcDbSpline
210
0.0
220
0.0
230
1.0
 70
     8
 71
     3
 72
    28
 73
    24
 74
     0
 42
0.000000001
 43
0.00000001
 40
0.0
 40
0.0
 40
0.0
 40
0.0
 40
0.1250000000000002
 40
0.1250000000000002
 40
0.2500000000000004
 40
0.2500000000000004
 40
0.3750000000000007
 40
0.3750000000000007
 40
0.4375000000000007
 40
0.4375000000000007
 40
0.5000000000000007
 40
0.5000000000000007
 40
0.6250000000000007
 40
0.6250000000000007
 40
0.6875000000000006
 40
0.6875000000000006
 40
0.7500000000000004
 40
0.7500000000000004
 40
0.8125000000000003
 40
0.8125000000000003
 40
0.8750000000000002
 40
0.8750000000000002
 40
1.0
 40
1.0
 40
1.0
 40
1.0
 10
193.508857444942
 20
157.166782709222
 30
0.0
 10
192.4953375852205
 20
157.1668130411726
 30
0.0
 10
191.5038678441723
 20
157.1668526026637
 30
0.0
 10
189.5643435228016
 20
157.16691212398
 30
0.0
 10
188.6128026214936
 20
157.1669374950718
 30
0.0
 10
186.8062119284923
 20
157.1669772170229
 30
0.0
 10
185.9439718721006
 20
157.1669919759515
 30
0.0
 10
184.7134599349178
 20
157.1670070571323
 30
0.0
 10
184.3136866151307
 20
157.1670107914807
 30
0.0
 10
183.5351092302125
 20
157.1670157660449
 30
0.0
 10
183.1570838164004
 20
157.1670169880703
 30
0.0
 10
182.0753066688878
 20
157.1670170158267
 30
0.0
 10
181.4161324756404
 20
157.1670123025413
 30
0.0
 10
180.5169696708055
 20
157.1669974375548
 30
0.0
 10
180.23266911991
 20
157.1669912022419
 30
0.0
 10
179.695061496987
 20
157.1669763739994
 30
0.0
 10
179.4411372718565
 20
157.1669676992643
 30
0.0
 10
178.9685945977512
 20
157.1669476924656
 30
0.0
 10
178.7505287842809
 20
157.1669363569715
 30
0.0
 10
178.3510729352683
 20
157.1669112903596
 30
0.0
 10
178.1693149482245
 20
157.1668974963867
 30
0.0
 10
177.6822321586
 20
157.1668527778408
 30
0.0
 10
177.4339694202832
 20
157.1668173402063
 30
0.0
 10
177.2628615821487
 20
157.1667828290632
 30
0.0
  0
SPLINE
  5
133
330
1F
100
AcDbEntity
  8
0
  6
Continuous
 62
     8
370
    18
100
AcDbSpline
210
0.0
220
0.0
230
1.0
 70
     8
 71
     3
 72
    28
 73
    24
 74
     0
 42
0.000000001
 43
0.00000001
 40
0.0
 40
0.0
 40
0.0
 40
0.0
 40
0.125
 40
0.125
 40
0.25
 40
0.25
 40
0.375
 40
0.375
 40
0.4375000000000001
 40
0.4375000000000001
 40
0.5000000000000001
 40
0.5000000000000001
 40
0.6250000000000002
 40
0.6250000000000002
 40
0.6875000000000003
 40
0.6875000000000003
 40
0.7500000000000004
 40
0.7500000000000004
 40
0.8125000000000003
 40
0.8125000000000003
 40
0.8750000000000002
 40
0.8750000000000002
 40
1.0
 40
1.0
 40
1.0
 40
1.0
 10
216.3564933437598
 20
157.1667827094435
 30
0.0
 10
216.1853053832397
 20
157.1668130297643
 30
0.0
 10
215.9373033256086
 20
157.1668526028388
 30
0.0
 10
215.2900574852228
 20
157.1669121239267
 30
0.0
 10
214.8879848004137
 20
157.1669374953576
 30
0.0
 10
213.9541786214381
 20
157.1669772167648
 30
0.0
 10
213.4218387904684
 20
157.1669919757971
 30
0.0
 10
212.5231573492958
 20
157.1670070576199
 30
0.0
 10
212.2070248958739
 20
157.1670107914669
 30
0.0
 10
211.5413377505757
 20
157.1670157653807
 30
0.0
 10
211.1921693359784
 20
157.1670169872563
 30
0.0
 10
210.1111121973394
 20
157.167017017401
 30
0.0
 10
209.3409430691128
 20
157.1670123019675
 30
0.0
 10
208.1142187862367
 20
157.1669974374455
 30
0.0
 10
207.6930102165179
 20
157.1669912027622
 30
0.0
 10
206.8258703109553
 20
157.1669763744357
 30
0.0
 10
206.378885553089
 20
157.1669676993841
 30
0.0
 10
205.4662909319556
 20
157.1669476923335
 30
0.0
 10
205.0017362797231
 20
157.1669363570337
 30
0.0
 10
204.0567374135655
 20
157.1669112904468
 30
0.0
 10
203.5752835451546
 20
157.1668974964081
 30
0.0
 10
202.1166807410003
 20
157.1668527776937
 30
0.0
 10
201.1238809335756
 20
157.1668173378001
 30
0.0
 10
200.1104975683278
 20
157.1667828289419
 30
0.0
  0
LINE
  5
134
330
1F
100
AcDbEntity
  8
0
  6
Continuous
 62
     8
370
    18
100
AcDbLine
 10
196.8096774194
 20
158.8688090901
 30
0.0
 11
176.8096778664
 21
158.8688090901
 31
0.0
  0
LINE
  5
135
330
1F
100
AcDbEntity
  8
0
  6
Continuous
 62
     8
370
    18
100
AcDbLine
 10
216.8096769723
 20
158.8688090901
 30
0.0
 11
196.8096774194
 21
158.8688090901
 31
0.0
  0
SPLINE
  5
136
330
1F
100
AcDbEntity
  8
0
  6
Continuous
 62
     8
370
    18
100
AcDbSpline
210
0.0
220
0.0
230
1.0
 70
     8
 71
     3
 72
    30
 73
    26
 74
     0
 42
0.000000001
 43
0.00000001
 40
0.0
 40
0.0
 40
0.0
 40
0.0
 40
0.013950343017062
 40
0.0530589919987797
 40
0.0924532658097092
 40
0.1321142926884384
 40
0.1656766208622014
 40
0.1994016214578756
 40
0.2329526225704435
 40
0.2666896518145092
 40
0.3007517024813476
 40
0.3349112732444464
 40
0.4691253323799751
 40
0.5092792333277408
 40
0.5494403723365581
 40
0.5897977443670411
 40
0.6304941465338043
 40
0.67096188359052
 40
0.704410321623847
 40
0.7374569140073144
 40
0.7704726897023055
 40
0.8040169439521873
 40
0.8376451202998603
 40
0.8710067245954194
 40
1.0
 40
1.0
 40
1.0
 40
1.0
 10
181.155687210251
 20
122.2406000356419
 30
0.0
 10
181.1556233397079
 20
122.2405966601049
 30
0.0
 10
181.1553804133057
 20
122.240583821525
 30
0.0
 10
181.1640594791056
 20
122.2432581403618
 30
0.0
 10
181.1540900247179
 20
122.2552320998143
 30
0.0
 10
181.377321087877
 20
122.2857391169777
 30
0.0
 10
182.0681373173063
 20
122.3089164221672
 30
0.0
 10
183.0963787530703
 20
122.319660267731
 30
0.0
 10
184.4794598879585
 20
122.3138280741624
 30
0.0
 10
186.1065740316572
 20
122.295204996119
 30
0.0
 10
187.8816964938101
 20
122.2675118517144
 30
0.0
 10
191.4494536138939
 20
122.2287932818629
 30
0.0
 10
195.1217715523344
 20
122.2434265755099
 30
0.0
 10
198.9009633739653
 20
122.2396934877147
 30
0.0
 10
201.0267003588393
 20
122.239101022424
 30
0.0
 10
203.1619110890533
 20
122.2433328872306
 30
0.0
 10
205.3027983592525
 20
122.260362499807
 30
0.0
 10
207.3155515864918
 20
122.2926285472487
 30
0.0
 10
209.0431850950971
 20
122.3129076021723
 30
0.0
 10
210.4246324880808
 20
122.3196918624138
 30
0.0
 10
211.4758521699438
 20
122.3104644884363
 30
0.0
 10
212.1568216539398
 20
122.2896687842098
 30
0.0
 10
212.4327099573722
 20
122.2624412369384
 30
0.0
 10
212.4803760447581
 20
122.2314389983076
 30
0.0
 10
212.4708036480529
 20
122.2368388039801
 30
0.0
 10
212.4631982418786
 20
122.2411290268643
 30
0.0
  0
SPLINE
  5
137
330
1F
100
AcDbEntity
  8
0
  6
Continuous
 62
     8
370
    18
100
AcDbSpline
210
0.0
220
0.0
230
1.0
 70
     8
 71
     3
 72
    10
 73
     6
 74
     0
 42
0.000000001
 43
0.00000001
 40
0.0
 40
0.0
 40
0.0
 40
0.0
 40
0.1317671254057425
 40
0.6592794381438952
 40
1.0
 40
1.0
 40
1.0
 40
1.0
 10
177.2628612938415
 20
157.1667835573895
 30
0.0
 10
177.2415073622793
 20
157.1667793902793
 30
0.0
 10
177.1346657812767
 20
157.166758540693
 30
0.0
 10
177.0098747492548
 20
157.1667065182552
 30
0.0
 10
177.0178475618633
 20
157.1667096753071
 30
0.0
 10
177.0209763321172
 20
157.1667109142287
 30
0.0
  0
SPLINE
  5
138
330
1F
100
AcDbEntity
  8
0
  6
Continuous
 62
     8
370
    18
100
AcDbSpline
210
0.0
220
0.0
230
1.0
 70
     8
 71
     3
 72
    30
 73
    26
 74
     0
 42
0.000000001
 43
0.00000001
 40
0.0
 40
0.0
 40
0.0
 40
0.0
 40
0.0462067016044845
 40
0.0955744792969044
 40
0.1446571868725585
 40
0.1901745142854753
 40
0.2192390836073201
 40
0.24758682390152
 40
0.2759619882800303
 40
0.3048689116903357
 40
0.3346895051309875
 40
0.366617628059062
 40
0.500574499830073
 40
0.5407517303166967
 40
0.5809549010735949
 40
0.6212020281857737
 40
0.6603278916828584
 40
0.6965985131397755
 40
0.7257370913408345
 40
0.7545433241752425
 40
0.7835053171144903
 40
0.8126345815152128
 40
0.8423077086693821
 40
0.8737781426629059
 40
1.0
 40
1.0
 40
1.0
 40
1.0
 10
211.4232676225792
 20
121.3038832406743
 30
0.0
 10
211.4240043224652
 20
121.3038053619864
 30
0.0
 10
211.4255281210822
 20
121.303644276802
 30
0.0
 10
211.4151633826246
 20
121.3039966956937
 30
0.0
 10
211.4451435885049
 20
121.3080165602115
 30
0.0
 10
211.2911740655412
 20
121.3130568684961
 30
0.0
 10
210.6127400537923
 20
121.3147048948591
 30
0.0
 10
209.712916702779
 20
121.3151228457459
 30
0.0
 10
208.5186253202776
 20
121.3148403718516
 30
0.0
 10
207.1015971876563
 20
121.3136353244267
 30
0.0
 10
205.5150235471853
 20
121.3107386898858
 30
0.0
 10
202.0634554183813
 20
121.3029504612796
 30
0.0
 10
198.4320706858203
 20
121.3040516984879
 30
0.0
 10
194.653614029582
 20
121.30381985357
 30
0.0
 10
192.5272335427146
 20
121.3040699522189
 30
0.0
 10
190.4192759560674
 20
121.3056904386743
 30
0.0
 10
188.3809719136721
 20
121.310145562524
 30
0.0
 10
186.5406530770522
 20
121.3136633873718
 30
0.0
 10
185.0166932457858
 20
121.3148835680612
 30
0.0
 10
183.8219449498488
 20
121.3151245639038
 30
0.0
 10
182.9419452368542
 20
121.314611607997
 30
0.0
 10
182.3969947091302
 20
121.3130940940446
 30
0.0
 10
182.2060556940285
 20
121.309830902496
 30
0.0
 10
182.1938364912184
 20
121.3027670144652
 30
0.0
 10
182.1951678069181
 20
121.3034366501947
 30
0.0
 10
182.1962334337722
 20
121.3039726476414
 30
0.0
  0
ARC
  5
139
330
1F
100
AcDbEntity
  8
0
  6
Continuous
 62
     7
370
    25
100
AcDbCircle
 10
404.5289323094
 20
380.0629032258
 30
0.0
 40
0.8000000000000682
100
AcDbArc
 50
0.0
 51
90.0
  0
ARC
  5
13A
330
1F
100
AcDbEntity
  8
0
  6
Continuous
 62
     7
370
    25
100
AcDbCircle
 10
404.5289323094
 20
341.6629032258
 30
0.0
 40
0.8000000000000114
100
AcDbArc
 50
270.0
 51
0.0
  0
LINE
  5
13B
330
1F
100
AcDbEntity
  8
0
  6
Continuous
 62
     7
370
    25
100
AcDbLine
 10
404.5289328454
 20
380.8629027788
 30
0.0
 11
403.928932002
 21
380.8629027788
 31
0.0
  0
LINE
  5
13C
330
1F
100
AcDbEntity
  8
0
  6
Continuous
 62
     7
370
    25
100
AcDbLine
 10
403.928932002
 20
340.8629036728
 30
0.0
 11
404.5289328454
 21
340.8629036728
 31
0.0
  0
SPLINE
  5
13D
330
1F
100
AcDbEntity
  8
0
  6
Continuous
 62
     7
370
    25
100
AcDbSpline
210
0.0
220
0.0
230
1.0
 70
     8
 71
     3
 72
    11
 73
     7
 74
     0
 42
0.000000001
 43
0.00000001
 40
0.0
 40
0.0
 40
0.0
 40
0.0
 40
0.2481340369473433
 40
0.4971621887209199
 40
0.7477878764590348
 40
1.0
 40
1.0
 40
1.0
 40
1.0
 10
406.0289321599185
 20
341.0392961684761
 30
0.0
 10
408.9866127457512
 20
341.1361866614157
 30
0.0
 10
414.9126314882024
 20
341.3303167780604
 30
0.0
 10
423.7625526206899
 20
342.3641345666155
 30
0.0
 10
432.5863493358518
 20
343.7090964135588
 30
0.0
 10
438.4334721858567
 20
344.7332210257157
 30
0.0
 10
441.3662573454558
 20
345.2468988705573
 30
0.0
  0
SPLINE
  5
13E
330
1F
100
AcDbEntity
  8
0
  6
Continuous
 62
     7
370
    25
100
AcDbSpline
210
0.0
220
0.0
230
1.0
 70
     8
 71
     3
 72
    11
 73
     7
 74
     0
 42
0.000000001
 43
0.00000001
 40
0.0
 40
0.0
 40
0.0
 40
0.0
 40
0.2522119363107611
 40
0.5028375855142481
 40
0.7518658246825
 40
1.0
 40
1.0
 40
1.0
 40
1.0
 10
441.3662573454558
 20
376.4789075810609
 30
0.0
 10
438.4334718145457
 20
376.9925839540944
 30
0.0
 10
432.5863465088786
 20
378.0167059323405
 30
0.0
 10
423.7625503571705
 20
379.3616681896979
 30
0.0
 10
414.9126306107847
 20
380.3954879216017
 30
0.0
 10
408.9866126579025
 20
380.5896192002259
 30
0.0
 10
406.0289321599185
 20
380.6865102831421
 30
0.0
  0
SPLINE
  5
13F
330
1F
100
AcDbEntity
  8
0
  6
Continuous
 62
     7
370
    25
100
AcDbSpline
210
0.0
220
0.0
230
1.0
 70
     8
 71
     3
 72
    11
 73
     7
 74
     0
 42
0.000000001
 43
0.00000001
 40
0.0
 40
0.0
 40
0.0
 40
0.0
 40
0.2430343079535053
 40
0.4999994679543124
 40
0.756967370332333
 40
1.0
 40
1.0
 40
1.0
 40
1.0
 10
441.1567619202315
 20
345.2091980014143
 30
0.0
 10
441.2751350466201
 20
345.2416886008186
 30
0.0
 10
441.5186665081357
 20
345.3085321775648
 30
0.0
 10
441.8190713190383
 20
345.5546947675891
 30
0.0
 10
442.03267050517
 20
345.8790608890963
 30
0.0
 10
442.073840137505
 20
346.1282209394473
 30
0.0
 10
442.093851244229
 20
346.2493288550672
 30
0.0
  0
SPLINE
  5
140
330
1F
100
AcDbEntity
  8
0
  6
Continuous
 62
     7
370
    25
100
AcDbSpline
210
0.0
220
0.0
230
1.0
 70
     8
 71
     3
 72
    11
 73
     7
 74
     0
 42
0.000000001
 43
0.00000001
 40
0.0
 40
0.0
 40
0.0
 40
0.0
 40
0.2430184513594145
 40
0.5000004389446602
 40
0.7569797027762537
 40
1.0
 40
1.0
 40
1.0
 40
1.0
 10
442.093851244229
 20
375.4764775965509
 30
0.0
 10
442.0738382446806
 20
375.597588496128
 30
0.0
 10
442.0326623236638
 20
375.8467691760753
 30
0.0
 10
441.8190684199904
 20
376.1711090765689
 30
0.0
 10
441.5186890210753
 20
376.4172637451168
 30
0.0
 10
441.2751378029759
 20
376.4841156715939
 30
0.0
 10
441.1567619202315
 20
376.5166084502039
 30
0.0
  0
LINE
  5
141
330
1F
100
AcDbEntity
  8
0
  6
Continuous
 62
     7
370
    25
100
AcDbLine
 10
406.0289321599
 20
377.8629041497
 30
0.0
 11
405.3289314864
 21
377.8629041497
 31
0.0
  0
LINE
  5
142
330
1F
100
AcDbEntity
  8
0
  6
Continuous
 62
     7
370
    25
100
AcDbLine
 10
405.3289314864
 20
343.8629023019
 30
0.0
 11
406.0289321599
 21
343.8629023019
 31
0.0
  0
SPLINE
  5
143
330
1F
100
AcDbEntity
  8
0
  6
Continuous
 62
     7
370
    25
100
AcDbSpline
210
0.0
220
0.0
230
1.0
 70
     8
 71
     3
 72
    19
 73
    15
 74
     0
 42
0.000000001
 43
0.00000001
 40
0.0
 40
0.0
 40
0.0
 40
0.0
 40
0.1339136267361967
 40
0.240662278452425
 40
0.3203517161596728
 40
0.3735083862426266
 40
0.4195101925665823
 40
0.4683839823241837
 40
0.5201305227147864
 40
0.5808487962330665
 40
0.6591299440633924
 40
0.7550464091544702
 40
0.8686378059338712
 40
0.9999999999999999
 40
0.9999999999999999
 40
0.9999999999999999
 40
0.9999999999999999
 10
442.0814087746322
 20
346.0739580202994
 30
0.0
 10
442.1658543230841
 20
347.3924907203759
 30
0.0
 10
442.3176152647519
 20
349.7620858956267
 30
0.0
 10
442.4274332097504
 20
352.9210187910627
 30
0.0
 10
442.4792622552993
 20
355.2842437361146
 30
0.0
 10
442.5035294815847
 20
357.0485633699138
 30
0.0
 10
442.5165177012419
 20
358.5089605888391
 30
0.0
 10
442.5232350297204
 20
359.9554892726669
 30
0.0
 10
442.5239804846563
 20
361.5472231602299
 30
0.0
 10
442.5161229045758
 20
363.4290677003912
 30
0.0
 10
442.4923604535535
 20
365.7466026892226
 30
0.0
 10
442.4351855063438
 20
368.5853079163874
 30
0.0
 10
442.3190908842521
 20
371.9466251276945
 30
0.0
 10
442.1643775063777
 20
374.3584523802866
 30
0.0
 10
442.0814087746322
 20
375.651852156609
 30
0.0
  0
ARC
  5
144
330
1F
100
AcDbEntity
  8
0
  6
Continuous
 62
     7
370
    25
100
AcDbCircle
 10
29.4038526242
 20
322.8629032258
 30
0.0
 40
375.0
100
AcDbArc
 50
358.217348702
 51
0.0
  0
ARC
  5
145
330
1F
100
AcDbEntity
  8
0
  6
Continuous
 62
     7
370
    25
100
AcDbCircle
 10
29.4038526242
 20
322.8629032258
 30
0.0
 40
375.0
100
AcDbArc
 50
0.0
 51
1.782651298
  0
ARC
  5
146
330
1F
100
AcDbEntity
  8
0
  6
Continuous
 62
     7
370
    25
100
AcDbCircle
 10
29.4038526242
 20
398.8629032258
 30
0.0
 40
375.0000000000001
100
AcDbArc
 50
358.217348702
 51
0.0
  0
ARC
  5
147
330
1F
100
AcDbEntity
  8
0
  6
Continuous
 62
     7
370
    25
100
AcDbCircle
 10
29.4038526242
 20
398.8629032258
 30
0.0
 40
375.0
100
AcDbArc
 50
0.0
 51
1.782651298
  0
ARC
  5
148
330
1F
100
AcDbEntity
  8
0
  6
Continuous
 62
     7
370
    25
100
AcDbCircle
 10
403.7226041636
 20
334.512892324
 30
0.0
 40
0.5000000000000298
100
AcDbArc
 50
1.782651298
 51
65.6572124553
  0
ARC
  5
149
330
1F
100
AcDbEntity
  8
0
  6
Continuous
 62
     7
370
    25
100
AcDbCircle
 10
403.7226041636
 20
311.2129141276
 30
0.0
 40
0.499999999999975
100
AcDbArc
 50
294.3665387743
 51
358.217348702
  0
ARC
  5
14A
330
1F
100
AcDbEntity
  8
0
  6
Continuous
 62
     7
370
    25
100
AcDbCircle
 10
403.7226041636
 20
410.512892324
 30
0.0
 40
0.500000000000047
100
AcDbArc
 50
1.782651298
 51
65.6572124501
  0
ARC
  5
14B
330
1F
100
AcDbEntity
  8
0
  6
Continuous
 62
     7
370
    25
100
AcDbCircle
 10
403.7226041636
 20
387.2129141276
 30
0.0
 40
0.4999999999999885
100
AcDbArc
 50
294.3665387787
 51
358.217348702
  0
ARC
  5
14C
330
1F
100
AcDbEntity
  8
0
  6
Continuous
 62
     7
370
    25
100
AcDbCircle
 10
406.2289323094
 20
341.2392301349
 30
0.0
 40
0.200000000000041
100
AcDbArc
 50
179.4261465005
 51
272.2543915691
  0
ARC
  5
14D
330
1F
100
AcDbEntity
  8
0
  6
Continuous
 62
     7
370
    25
100
AcDbCircle
 10
406.2289323094
 20
380.4865763168
 30
0.0
 40
0.1999999999999912
100
AcDbArc
 50
91.0622742341
 51
180.000000203
  0
LINE
  5
14E
330
1F
100
AcDbEntity
  8
0
  6
Continuous
 62
     7
370
    25
100
AcDbLine
 10
378.5289323094
 20
412.8707832877
 30
0.0
 11
378.5289323094
 21
435.862906206
 31
0.0
  0
LINE
  5
14F
330
1F
100
AcDbEntity
  8
0
  6
Continuous
 62
     7
370
    25
100
AcDbLine
 10
378.5289323094
 20
435.862906206
 30
0.0
 11
402.4681972472
 21
435.2360292558
 31
0.0
  0
LINE
  5
150
330
1F
100
AcDbEntity
  8
0
  6
Continuous
 62
     7
370
    25
100
AcDbLine
 10
378.5289323094
 20
308.8550231639
 30
0.0
 11
378.5289323094
 21
412.8707832877
 31
0.0
  0
LINE
  5
151
330
1F
100
AcDbEntity
  8
0
  6
Continuous
 62
     7
370
    25
100
AcDbLine
 10
402.4681972472
 20
286.4897771958
 30
0.0
 11
378.5289323094
 21
285.8629002456
 31
0.0
  0
LINE
  5
152
330
1F
100
AcDbEntity
  8
0
  6
Continuous
 62
     7
370
    25
100
AcDbLine
 10
378.5289323094
 20
285.8629002456
 30
0.0
 11
378.5289323094
 21
308.8550231639
 31
0.0
  0
LINE
  5
153
330
1F
100
AcDbEntity
  8
0
  6
Continuous
 62
     7
370
    25
100
AcDbLine
 10
403.928932002
 20
433.7365477566
 30
0.0
 11
403.928932002
 21
412.243913788
 31
0.0
  0
ARC
  5
154
330
1F
100
AcDbEntity
  8
0
  6
Continuous
 62
     7
370
    25
100
AcDbCircle
 10
402.4289323094
 20
433.7365455116
 30
0.0
 40
1.500000000000009
100
AcDbArc
 50
0.0
 51
88.5
  0
LINE
  5
155
330
1F
100
AcDbEntity
  8
0
  6
Continuous
 62
     7
370
    25
100
AcDbLine
 10
403.928932002
 20
412.243913788
 30
0.0
 11
403.928932002
 21
309.4818926636
 31
0.0
  0
LINE
  5
156
330
1F
100
AcDbEntity
  8
0
  6
Continuous
 62
     7
370
    25
100
AcDbLine
 10
403.928932002
 20
309.4818926636
 30
0.0
 11
403.928932002
 21
287.989258695
 31
0.0
  0
ARC
  5
157
330
1F
100
AcDbEntity
  8
0
  6
Continuous
 62
     7
370
    25
100
AcDbCircle
 10
402.4289323094
 20
287.98926094
 30
0.0
 40
1.500000000000008
100
AcDbArc
 50
271.5
 51
0.0
  0
SPLINE
  5
158
330
1F
100
AcDbEntity
  8
0
  6
Continuous
 62
     7
370
    25
100
AcDbSpline
210
0.0
220
0.0
230
1.0
 70
    24
 71
     3
 72
    10
 73
     6
 74
     0
 42
0.000000001
 43
0.00000001
 40
0.0
 40
0.0
 40
0.0
 40
0.0
 40
0.5
 40
0.5
 40
1.0
 40
1.0
 40
1.0
 40
1.0
 10
406.028932309353
 20
357.5953906741666
 30
0.0
 10
406.028932309353
 20
358.6845634033897
 30
0.0
 10
406.028932309353
 20
359.7737361052124
 30
0.0
 10
406.0289323093529
 20
361.9520814562291
 30
0.0
 10
406.028932309353
 20
363.0412541054325
 30
0.0
 10
406.028932309353
 20
364.1304267272578
 30
0.0
  0
SPLINE
  5
159
330
1F
100
AcDbEntity
  8
0
  6
Continuous
 62
     7
370
    25
100
AcDbSpline
210
0.0
220
0.0
230
1.0
 70
    24
 71
     3
 72
    28
 73
    24
 74
     0
 42
0.000000001
 43
0.00000001
 40
0.0
 40
0.0
 40
0.0
 40
0.0
 40
0.1250000000000001
 40
0.1250000000000001
 40
0.2500000000000002
 40
0.2500000000000002
 40
0.3125000000000002
 40
0.3125000000000002
 40
0.3750000000000002
 40
0.3750000000000002
 40
0.5000000000000001
 40
0.5000000000000001
 40
0.5625000000000001
 40
0.5625000000000001
 40
0.6250000000000002
 40
0.6250000000000002
 40
0.75
 40
0.75
 40
0.8125000000000001
 40
0.8125000000000001
 40
0.875
 40
0.875
 40
1.0
 40
1.0
 40
1.0
 40
1.0
 10
406.0289323093531
 20
341.513285830116
 30
0.0
 10
406.0289323093531
 20
341.6830135343915
 30
0.0
 10
406.028932309353
 20
341.9284052873102
 30
0.0
 10
406.028932309353
 20
342.5639755274874
 30
0.0
 10
406.028932309353
 20
342.9540995760714
 30
0.0
 10
406.028932309353
 20
343.6516110339855
 30
0.0
 10
406.028932309353
 20
343.9031812161735
 30
0.0
 10
406.028932309353
 20
344.4350696014735
 30
0.0
 10
406.028932309353
 20
344.7164123086187
 30
0.0
 10
406.028932309353
 20
345.6064667888233
 30
0.0
 10
406.028932309353
 20
346.2592584290859
 30
0.0
 10
406.028932309353
 20
347.3307686601385
 30
0.0
 10
406.028932309353
 20
347.7052428042934
 30
0.0
 10
406.028932309353
 20
348.4769425361282
 30
0.0
 10
406.028932309353
 20
348.8732185481704
 30
0.0
 10
406.028932309353
 20
350.0930392275073
 30
0.0
 10
406.028932309353
 20
350.9479123861176
 30
0.0
 10
406.028932309353
 20
352.2914201854938
 30
0.0
 10
406.028932309353
 20
352.7496104161926
 30
0.0
 10
406.028932309353
 20
353.6873862908828
 30
0.0
 10
406.028932309353
 20
354.1638376911705
 30
0.0
 10
406.028932309353
 20
355.6066164372102
 30
0.0
 10
406.028932309353
 20
356.5900452285092
 30
0.0
 10
406.028932309353
 20
357.5953906741666
 30
0.0
  0
ARC
  5
15A
330
1F
100
AcDbEntity
  8
0
  6
Continuous
 62
     7
370
    25
100
AcDbCircle
 10
406.2275790689
 20
380.2110960627
 30
0.0
 40
0.1986520337761118
100
AcDbArc
 50
89.0252831062
 51
179.5884432463
  0
SPLINE
  5
15B
330
1F
100
AcDbEntity
  8
0
  6
Continuous
 62
     7
370
    25
100
AcDbSpline
210
0.0
220
0.0
230
1.0
 70
    24
 71
     3
 72
    28
 73
    24
 74
     0
 42
0.000000001
 43
0.00000001
 40
0.0
 40
0.0
 40
0.0
 40
0.0
 40
0.1249999999999997
 40
0.1249999999999997
 40
0.2499999999999994
 40
0.2499999999999994
 40
0.3124999999999994
 40
0.3124999999999994
 40
0.3749999999999994
 40
0.3749999999999994
 40
0.4999999999999996
 40
0.4999999999999996
 40
0.5624999999999997
 40
0.5624999999999997
 40
0.6249999999999997
 40
0.6249999999999997
 40
0.7499999999999997
 40
0.7499999999999997
 40
0.8124999999999998
 40
0.8124999999999998
 40
0.8749999999999999
 40
0.8749999999999999
 40
1.0
 40
1.0
 40
1.0
 40
1.0
 10
406.028932309353
 20
364.1304267272578
 30
0.0
 10
406.028932309353
 20
365.1356341370505
 30
0.0
 10
406.0289323093529
 20
366.114418919058
 30
0.0
 10
406.0289323093529
 20
368.0214275528557
 30
0.0
 10
406.0289323093529
 20
368.9496704126796
 30
0.0
 10
406.0289323093529
 20
370.3028095841812
 30
0.0
 10
406.0289323093529
 20
370.7476673871724
 30
0.0
 10
406.0289323093529
 20
371.6089150940007
 30
0.0
 10
406.0289323093529
 20
372.0272559664611
 30
0.0
 10
406.0289323093529
 20
373.2455645883616
 30
0.0
 10
406.0289323093529
 20
374.010371004535
 30
0.0
 10
406.0289323093529
 20
375.0839372367921
 30
0.0
 10
406.0289323093529
 20
375.4306461214581
 30
0.0
 10
406.0289323093529
 20
376.0919161508422
 30
0.0
 10
406.0289323093528
 20
376.4059333543478
 30
0.0
 10
406.0289323093528
 20
377.2985870567915
 30
0.0
 10
406.0289323093528
 20
377.8272903464497
 30
0.0
 10
406.0289323093528
 20
378.5228041489906
 30
0.0
 10
406.0289323093528
 20
378.7381387839592
 30
0.0
 10
406.0289323093528
 20
379.134706776742
 30
0.0
 10
406.0289323093528
 20
379.3145783704958
 30
0.0
 10
406.0289323093528
 20
379.7965584324636
 30
0.0
 10
406.0289323093529
 20
380.0427149698804
 30
0.0
 10
406.0289323093529
 20
380.2125225313766
 30
0.0
  0
LINE
  5
15C
330
1F
100
AcDbEntity
  8
0
  6
Continuous
 62
     7
370
    25
100
AcDbLine
 10
405.3289314864
 20
380.0629041378
 30
0.0
 11
405.3289314864
 21
341.6629023139
 31
0.0
  0
SPLINE
  5
15D
330
1F
100
AcDbEntity
  8
0
  6
Continuous
 62
     7
370
    25
100
AcDbSpline
210
0.0
220
0.0
230
1.0
 70
     8
 71
     3
 72
     9
 73
     5
 74
     0
 42
0.000000001
 43
0.00000001
 40
0.0
 40
0.0
 40
0.0
 40
0.0
 40
0.6523640670921728
 40
1.0
 40
1.0
 40
1.0
 40
1.0
 10
441.1567917225539
 20
376.516658741623
 30
0.0
 10
441.1572317991975
 20
376.5172944063057
 30
0.0
 10
441.1579063866951
 20
376.5182688080467
 30
0.0
 10
441.1578422120789
 20
376.5184299706146
 30
0.0
 10
441.1578199026763
 20
376.5184859965143
 30
0.0
  0
SPLINE
  5
15E
330
1F
100
AcDbEntity
  8
0
  6
Continuous
 62
     7
370
    25
100
AcDbSpline
210
0.0
220
0.0
230
1.0
 70
     8
 71
     3
 72
     9
 73
     5
 74
     0
 42
0.000000001
 43
0.00000001
 40
0.0
 40
0.0
 40
0.0
 40
0.0
 40
0.2969581106451281
 40
1.0
 40
1.0
 40
1.0
 40
1.0
 10
406.2310328839004
 20
380.6539084050951
 30
0.0
 10
406.2310359454899
 20
380.6622890193968
 30
0.0
 10
406.2310462553265
 20
380.6905105563791
 30
0.0
 10
406.2309946551675
 20
380.5256342801036
 30
0.0
 10
406.2309583780944
 20
380.4097193513212
 30
0.0
  0
LINE
  5
15F
330
1F
100
AcDbEntity
  8
0
  6
Continuous
 62
     7
370
    25
100
AcDbLine
 10
406.2310310213
 20
341.0742021386
 30
0.0
 11
406.2310328839
 21
341.0718980465
 31
0.0
  0
LINE
  5
160
330
1F
100
AcDbEntity
  8
0
  6
Continuous
 62
     7
370
    25
100
AcDbLine
 10
406.0289321599
 20
352.8629028458
 30
0.0
 11
405.3289314864
 21
352.8629028458
 31
0.0
  0
LINE
  5
161
330
1F
100
AcDbEntity
  8
0
  6
Continuous
 62
     7
370
    25
100
AcDbLine
 10
405.3289314864
 20
368.8629036058
 30
0.0
 11
406.0289321599
 21
368.8629036058
 31
0.0
  0
ARC
  5
162
330
1F
100
AcDbEntity
  8
0
  6
Continuous
 62
     7
370
    25
100
AcDbCircle
 10
29.6121051008
 20
322.8629025851
 30
0.0
 40
374.6102572437948
100
AcDbArc
 50
358.8666019447
 51
1.1333980554
  0
ARC
  5
163
330
1F
100
AcDbEntity
  8
0
  6
Continuous
 62
     7
370
    25
100
AcDbCircle
 10
29.6121051008
 20
398.8629038666
 30
0.0
 40
374.6102572437948
100
AcDbArc
 50
358.8666019447
 51
1.1333980554
  0
LINE
  5
164
330
1F
100
AcDbEntity
  8
0
  6
Continuous
 62
     7
370
    25
100
AcDbLine
 10
406.0289321599
 20
341.2428423051
 30
0.0
 11
406.0289321599
 21
341.5132853422
 31
0.0
  0
ELLIPSE
  5
165
330
1F
100
AcDbEntity
  8
0
  6
Continuous
 62
     8
370
    18
100
AcDbEllipse
 10
402.4289323094
 20
412.229175473
 30
0.0
 11
0.03926378423096821
 21
23.00685604886376
 31
0.0
210
0.0
220
0.0
230
1.0
 40
0.0017055857
 41
4.71303246336667
 42
6.283143557491798
  0
LINE
  5
166
330
1F
100
AcDbEntity
  8
0
  6
Continuous
 62
     8
370
    18
100
AcDbLine
 10
402.4681972472
 20
412.243913788
 30
0.0
 11
378.5289323094
 21
412.8707832877
 31
0.0
  0
LINE
  5
167
330
1F
100
AcDbEntity
  8
0
  6
Continuous
 62
     8
370
    18
100
AcDbLine
 10
402.4681972472
 20
309.4818926636
 30
0.0
 11
402.4681972472
 21
412.243913788
 31
0.0
  0
LINE
  5
168
330
1F
100
AcDbEntity
  8
0
  6
Continuous
 62
     8
370
    18
100
AcDbLine
 10
378.5289323094
 20
308.8550231639
 30
0.0
 11
402.4681972472
 21
309.4818926636
 31
0.0
  0
ELLIPSE
  5
169
330
1F
100
AcDbEntity
  8
0
  6
Continuous
 62
     8
370
    18
100
AcDbEllipse
 10
402.4289323094
 20
309.4966309786
 30
0.0
 11
-0.03926378423130927
 21
23.00685604886382
 31
0.0
210
0.0
220
0.0
230
1.0
 40
0.0017055857
 41
3.141634403291166
 42
4.711745497402698
  0
LINE
  5
16A
330
1F
100
AcDbEntity
  8
0
  6
Continuous
 62
     8
370
    18
100
AcDbLine
 10
402.4681972472
 20
412.243913788
 30
0.0
 11
403.928932002
 21
412.243913788
 31
0.0
  0
LINE
  5
16B
330
1F
100
AcDbEntity
  8
0
  6
Continuous
 62
     8
370
    18
100
AcDbLine
 10
402.4681972472
 20
309.4818926636
 30
0.0
 11
403.928932002
 21
309.4818926636
 31
0.0
  0
SPLINE
  5
16C
330
1F
100
AcDbEntity
  8
0
  6
Continuous
 62
     8
370
    18
100
AcDbSpline
210
0.0
220
0.0
230
1.0
 70
     8
 71
     3
 72
    10
 73
     6
 74
     0
 42
0.000000001
 43
0.00000001
 40
0.0
 40
0.0
 40
0.0
 40
0.0
 40
0.5
 40
0.5
 40
1.0
 40
1.0
 40
1.0
 40
1.0
 10
406.2309591064206
 20
364.1637233750046
 30
0.0
 10
406.2309963537334
 20
363.0699952680998
 30
0.0
 10
406.2310485161957
 20
361.9598041536787
 30
0.0
 10
406.2310483613781
 20
359.7539691244699
 30
0.0
 10
406.2309920191655
 20
358.6556765420105
 30
0.0
 10
406.2309592261759
 20
357.5620832514895
 30
0.0
  0
ARC
  5
16D
330
1F
100
AcDbEntity
  8
0
  6
Continuous
 62
     8
370
    18
100
AcDbCircle
 10
406.1814690836
 20
357.8912552962
 30
0.0
 40
0.3328715215970297
100
AcDbArc
 50
242.7260402745
 51
278.5500827082
  0
ARC
  5
16E
330
1F
100
AcDbEntity
  8
0
  6
Continuous
 62
     8
370
    18
100
AcDbCircle
 10
406.1814685787
 20
363.834459282
 30
0.0
 40
0.3329626794446744
100
AcDbArc
 50
81.4521877811
 51
117.2657749873
  0
SPLINE
  5
16F
330
1F
100
AcDbEntity
  8
0
  6
Continuous
 62
     8
370
    18
100
AcDbSpline
210
0.0
220
0.0
230
1.0
 70
     8
 71
     3
 72
    28
 73
    24
 74
     0
 42
0.000000001
 43
0.00000001
 40
0.0
 40
0.0
 40
0.0
 40
0.0
 40
0.1250000000000001
 40
0.1250000000000001
 40
0.2500000000000001
 40
0.2500000000000001
 40
0.3750000000000002
 40
0.3750000000000002
 40
0.4375000000000001
 40
0.4375000000000001
 40
0.5
 40
0.5
 40
0.6249999999999998
 40
0.6249999999999998
 40
0.6874999999999999
 40
0.6874999999999999
 40
0.7499999999999999
 40
0.7499999999999999
 40
0.8124999999999999
 40
0.8124999999999999
 40
0.8749999999999999
 40
0.8749999999999999
 40
1.0
 40
1.0
 40
1.0
 40
1.0
 10
406.2309592261759
 20
357.5620832514896
 30
0.0
 10
406.2309288343044
 20
356.5485633772408
 30
0.0
 10
406.230889341677
 20
355.5570936569757
 30
0.0
 10
406.2308297831881
 20
353.6175693252044
 30
0.0
 10
406.2308044377739
 20
352.6660284357972
 30
0.0
 10
406.2307647309025
 20
350.8594377527807
 30
0.0
 10
406.2307499618583
 20
349.9971976902016
 30
0.0
 10
406.2307348741249
 20
348.7666857466671
 30
0.0
 10
406.2307311410508
 20
348.3669124263584
 30
0.0
 10
406.2307261694421
 20
347.5883350401535
 30
0.0
 10
406.230724949098
 20
347.2103096290631
 30
0.0
 10
406.2307249164003
 20
346.1285324790109
 30
0.0
 10
406.230729635611
 20
345.4693582903477
 30
0.0
 10
406.2307444981819
 20
344.5701954822668
 30
0.0
 10
406.2307507313018
 20
344.2858949289893
 30
0.0
 10
406.2307655597547
 20
343.7482873047741
 30
0.0
 10
406.2307742356181
 20
343.4943630797553
 30
0.0
 10
406.2307942434552
 20
343.0218204056692
 30
0.0
 10
406.230805578386
 20
342.8037545915366
 30
0.0
 10
406.2308306449619
 20
342.4042987413558
 30
0.0
 10
406.2308444391264
 20
342.2225407541185
 30
0.0
 10
406.2308891581011
 20
341.735457965838
 30
0.0
 10
406.2309246046017
 20
341.4871952361248
 30
0.0
 10
406.2309591068833
 20
341.3160873888818
 30
0.0
  0
ARC
  5
170
330
1F
100
AcDbEntity
  8
0
  6
Continuous
 62
     8
370
    18
100
AcDbCircle
 10
406.2275808656
 20
341.5147122161
 30
0.0
 40
0.1986538301430645
100
AcDbArc
 50
180.4115428048
 51
270.9741898085
  0
SPLINE
  5
171
330
1F
100
AcDbEntity
  8
0
  6
Continuous
 62
     8
370
    18
100
AcDbSpline
210
0.0
220
0.0
230
1.0
 70
     8
 71
     3
 72
    28
 73
    24
 74
     0
 42
0.000000001
 43
0.00000001
 40
0.0
 40
0.0
 40
0.0
 40
0.0
 40
0.1250000000000002
 40
0.1250000000000002
 40
0.2500000000000004
 40
0.2500000000000004
 40
0.3750000000000007
 40
0.3750000000000007
 40
0.4375000000000007
 40
0.4375000000000007
 40
0.5000000000000007
 40
0.5000000000000007
 40
0.6250000000000007
 40
0.6250000000000007
 40
0.6875000000000006
 40
0.6875000000000006
 40
0.7500000000000004
 40
0.7500000000000004
 40
0.8125000000000003
 40
0.8125000000000003
 40
0.8750000000000002
 40
0.8750000000000002
 40
1.0
 40
1.0
 40
1.0
 40
1.0
 10
406.2309592262618
 20
380.409719150074
 30
0.0
 10
406.2309288943113
 20
380.238531201106
 30
0.0
 10
406.2308893328202
 20
379.9905291319289
 30
0.0
 10
406.2308298115038
 20
379.3432832920022
 30
0.0
 10
406.230804440412
 20
378.9412106067396
 30
0.0
 10
406.230764718461
 20
378.0074044276341
 30
0.0
 10
406.2307499595323
 20
377.4750645963971
 30
0.0
 10
406.2307348783516
 20
376.576383154851
 30
0.0
 10
406.2307311440031
 20
376.2602507020035
 30
0.0
 10
406.230726169439
 20
375.5945635577496
 30
0.0
 10
406.2307249474136
 20
375.2453951428076
 30
0.0
 10
406.2307249196572
 20
374.1643380018022
 30
0.0
 10
406.2307296329426
 20
373.3941688745866
 30
0.0
 10
406.2307444979291
 20
372.1674445912603
 30
0.0
 10
406.2307507332419
 20
371.7462360211545
 30
0.0
 10
406.2307655614845
 20
370.8790961158449
 30
0.0
 10
406.2307742362196
 20
370.43211135837
 30
0.0
 10
406.2307942430182
 20
369.5195167374249
 30
0.0
 10
406.2308055785124
 20
369.0549620850563
 30
0.0
 10
406.2308306451243
 20
368.1099632186957
 30
0.0
 10
406.2308444390972
 20
367.6285093502773
 30
0.0
 10
406.230889157643
 20
366.1699065471489
 30
0.0
 10
406.2309245952776
 20
365.1771067407328
 30
0.0
 10
406.2309591064206
 20
364.1637233750046
 30
0.0
  0
LINE
  5
172
330
1F
100
AcDbEntity
  8
0
  6
Continuous
 62
     8
370
    18
100
AcDbLine
 10
404.5289328454
 20
380.8629027788
 30
0.0
 11
404.5289328454
 21
340.8629036728
 31
0.0
  0
SPLINE
  5
173
330
1F
100
AcDbEntity
  8
0
  6
Continuous
 62
     8
370
    18
100
AcDbSpline
210
0.0
220
0.0
230
1.0
 70
     8
 71
     3
 72
    25
 73
    21
 74
     0
 42
0.000000001
 43
0.00000001
 40
0.0
 40
0.0
 40
0.0
 40
0.0
 40
0.0407536574592205
 40
0.0815267724344729
 40
0.1228867302428338
 40
0.1645278771042782
 40
0.328254895902813
 40
0.3772817136657186
 40
0.4263175244350102
 40
0.4754658639211414
 40
0.5249731517840964
 40
0.5748156716398856
 40
0.6169938788134486
 40
0.6593765185006704
 40
0.7015404908115241
 40
0.74393824705506
 40
0.7867444618785424
 40
0.8296732314545544
 40
0.9983417565495605
 40
1.0
 40
1.0
 40
1.0
 40
1.0
 10
441.080654239434
 20
347.4054279957113
 30
0.0
 10
441.0820972799224
 20
347.8397471825764
 30
0.0
 10
441.0849840498678
 20
348.7085929186164
 30
0.0
 10
441.1050184242765
 20
350.3144666203257
 30
0.0
 10
441.1314272586737
 20
352.0273642525137
 30
0.0
 10
441.1680519499325
 20
355.4894145642539
 30
0.0
 10
441.1548686978682
 20
359.0531293297967
 30
0.0
 10
441.1575858562446
 20
362.7229961114638
 30
0.0
 10
441.1575219314806
 20
364.7863706326492
 30
0.0
 10
441.1545815128105
 20
366.8569571131878
 30
0.0
 10
441.1424832204296
 20
368.9371593317489
 30
0.0
 10
441.112008782832
 20
370.923925976022
 30
0.0
 10
441.0888239403236
 20
372.6970750771789
 30
0.0
 10
441.0780823940466
 20
374.1689001685767
 30
0.0
 10
441.0839125276174
 20
375.3200978928434
 30
0.0
 10
441.1025415957886
 20
376.0992728727915
 30
0.0
 10
441.1302126024841
 20
376.456383263118
 30
0.0
 10
441.1690950516234
 20
376.5659719604185
 30
0.0
 10
441.1557229391168
 20
376.514650455578
 30
0.0
 10
441.1567814175679
 20
376.5166393781496
 30
0.0
 10
441.1567917225539
 20
376.5166587416229
 30
0.0
  0
SPLINE
  5
174
330
1F
100
AcDbEntity
  8
0
  6
Continuous
 62
     8
370
    18
100
AcDbSpline
210
0.0
220
0.0
230
1.0
 70
     8
 71
     3
 72
    13
 73
     9
 74
     0
 42
0.000000001
 43
0.00000001
 40
0.0
 40
0.0
 40
0.0
 40
0.0
 40
0.0960658237870187
 40
0.2899078405838701
 40
0.4854797712630802
 40
0.6799135928538876
 40
0.8404034095376111
 40
1.0
 40
1.0
 40
1.0
 40
1.0
 10
441.1577081439673
 20
345.207733962327
 30
0.0
 10
441.1577979035235
 20
345.2074579984596
 30
0.0
 10
441.1580687802838
 20
345.2066251935586
 30
0.0
 10
441.1543020418366
 20
345.2160385666031
 30
0.0
 10
441.138021754726
 20
345.2165678060536
 30
0.0
 10
441.1068010490517
 20
345.5290758083961
 30
0.0
 10
441.0851431768181
 20
346.2710848336681
 30
0.0
 10
441.0821477655854
 20
347.0280177018735
 30
0.0
 10
441.080654239434
 20
347.4054279957113
 30
0.0
  0
SPLINE
  5
175
330
1F
100
AcDbEntity
  8
0
  6
Continuous
 62
     8
370
    18
100
AcDbSpline
210
0.0
220
0.0
230
1.0
 70
     8
 71
     3
 72
    10
 73
     6
 74
     0
 42
0.000000001
 43
0.00000001
 40
0.0
 40
0.0
 40
0.0
 40
0.0
 40
0.1317670180337406
 40
0.6592789009222412
 40
1.0
 40
1.0
 40
1.0
 40
1.0
 10
406.2309583780944
 20
341.316087100297
 30
0.0
 10
406.2309625452047
 20
341.2947331684439
 30
0.0
 10
406.2309833947916
 20
341.187891585986
 30
0.0
 10
406.2310354172591
 20
341.0631004832021
 30
0.0
 10
406.2310322601867
 20
341.0710733446187
 30
0.0
 10
406.2310310212552
 20
341.0742021385727
 30
0.0
  0
SPLINE
  5
176
330
1F
100
AcDbEntity
  8
0
  6
Continuous
 62
     8
370
    18
100
AcDbSpline
210
0.0
220
0.0
230
1.0
 70
     8
 71
     3
 72
    29
 73
    25
 74
     0
 42
0.000000001
 43
0.00000001
 40
0.0
 40
0.0
 40
0.0
 40
0.0
 40
0.0188240350491349
 40
0.0375558351656699
 40
0.0562290496296823
 40
0.0748776449682469
 40
0.0935357222748651
 40
0.1122373308546357
 40
0.1310162832603871
 40
0.1499059766980902
 40
0.1689392253851982
 40
0.1881481077859677
 40
0.2075638317929389
 40
0.2272166199589861
 40
0.2656025453228895
 40
0.3090630407281124
 40
0.3577920722101147
 40
0.4119270359952955
 40
0.4715680396498633
 40
0.5261725151498612
 40
0.6063178962963662
 40
0.7120042427705442
 40
0.8432316019316478
 40
1.0
 40
1.0
 40
1.0
 40
1.0
 10
442.0827323599308
 20
348.09674270253
 30
0.0
 10
442.0827328944609
 20
348.0389705337856
 30
0.0
 10
442.0827339609019
 20
347.9237092712099
 30
0.0
 10
442.082744478004
 20
347.7607681314211
 30
0.0
 10
442.082772981364
 20
347.6058308933297
 30
0.0
 10
442.0828262522379
 20
347.4595583139539
 30
0.0
 10
442.0829094743754
 20
347.3217760939211
 30
0.0
 10
442.0830260992936
 20
347.1925322043555
 30
0.0
 10
442.0831781092982
 20
347.0718158213252
 30
0.0
 10
442.0833658143418
 20
346.9596268132987
 30
0.0
 10
442.0835895511469
 20
346.8559789397786
 30
0.0
 10
442.0838447062398
 20
346.7608164291618
 30
0.0
 10
442.0841425263814
 20
346.6743492390479
 30
0.0
 10
442.0845249181923
 20
346.5711773485427
 30
0.0
 10
442.0854577009871
 20
346.4658603417033
 30
0.0
 10
442.0869495718308
 20
346.3732949277628
 30
0.0
 10
442.0883259492209
 20
346.3063726526487
 30
0.0
 10
442.0893507653136
 20
346.2648899925332
 30
0.0
 10
442.0904431579647
 20
346.2528099658596
 30
0.0
 10
442.0919995916337
 20
346.2530561973283
 30
0.0
 10
442.0930632534307
 20
346.2507792062663
 30
0.0
 10
442.0937476515664
 20
346.2501446459672
 30
0.0
 10
442.0938775340356
 20
346.2493981701103
 30
0.0
 10
442.0938590319531
 20
346.2493534962277
 30
0.0
 10
442.093848960479
 20
346.2493291783242
 30
0.0
  0
LWPOLYLINE
  5
177
330
1F
100
AcDbEntity
  8
0
  6
Continuous
 62
     8
370
    18
100
AcDbPolyline
 90
       20
 70
   128
 43
0.0
 10
442.0938512442
 20
375.4764775966
 10
442.0938586948
 20
375.4762773622
 10
442.0934414623
 20
375.4756198485
 10
442.0915266631
 20
375.4734116826
 10
442.0875853059
 20
375.4224599559
 10
442.0842548964
 20
375.0795320828
 10
442.0830031989
 20
374.4290889461
 10
442.0827424286
 20
373.4544431079
 10
442.0832937715
 20
372.1979837153
 10
442.0849105475
 20
370.7555475865
 10
442.087868428
 20
369.2018286545
 10
442.0911392329
 20
367.5380078364
 10
442.0938512442
 20
360.6612002784
 10
442.0939332006
 20
358.5952081937
 10
442.0935010669
 20
356.5279347111
 10
442.091563916
 20
354.4680461507
 10
442.0877343176
 20
352.4579125676
 10
442.0844262598
 20
350.6238394637
 10
442.0830926058
 20
349.2624917288
 10
442.082734978
 20
348.0967431549
  0
ARC
  5
178
330
1F
100
AcDbEntity
  8
0
  6
Continuous
 62
     8
370
    18
100
AcDbCircle
 10
403.6493024516
 20
334.5141966318
 30
0.0
 40
0.5000093375795699
100
AcDbArc
 50
1.7797603896
 51
55.9961467425
  0
SPLINE
  5
179
330
1F
100
AcDbEntity
  8
0
  6
Continuous
 62
     8
370
    18
100
AcDbSpline
210
0.0
220
0.0
230
1.0
 70
     8
 71
     3
 72
    22
 73
    18
 74
     0
 42
0.000000001
 43
0.00000001
 40
0.0
 40
0.0
 40
0.0
 40
0.0
 40
0.125
 40
0.125
 40
0.25
 40
0.25
 40
0.375
 40
0.375
 40
0.5
 40
0.5
 40
0.625
 40
0.625
 40
0.75
 40
0.75
 40
0.875
 40
0.875
 40
1.0
 40
1.0
 40
1.0
 40
1.0
 10
404.1490713190308
 20
334.5297256781911
 30
0.0
 10
404.1435107616074
 20
334.529822738082
 30
0.0
 10
404.1385559500708
 20
334.5023432756224
 30
0.0
 10
404.1298492389903
 20
334.3926283544845
 30
0.0
 10
404.1261704802802
 20
334.3108908422641
 30
0.0
 10
404.1202479072617
 20
334.0984385374645
 30
0.0
 10
404.1179672743755
 20
333.9661363198333
 30
0.0
 10
404.1149270568685
 20
333.6548497104203
 30
0.0
 10
404.1141773663985
 20
333.4786078544728
 30
0.0
 10
404.1141829347197
 20
333.0858872811617
 30
0.0
 10
404.1149631612019
 20
332.8668017012621
 30
0.0
 10
404.1180109814289
 20
332.4041203319741
 30
0.0
 10
404.1202630780281
 20
332.1596643196958
 30
0.0
 10
404.1262365430943
 20
331.6442878910507
 30
0.0
 10
404.1299656637356
 20
331.3740497994716
 30
0.0
 10
404.1385878742198
 20
330.8302382281648
 30
0.0
 10
404.1435107693544
 20
330.553847950683
 30
0.0
 10
404.1490713190309
 20
330.2727830655966
 30
0.0
  0
ARC
  5
17A
330
1F
100
AcDbEntity
  8
0
  6
Continuous
 62
     8
370
    18
100
AcDbCircle
 10
401.4317087
 20
458.0257112369
 30
0.0
 40
127.7818251967929
100
AcDbArc
 50
271.1197951249
 51
271.2185230894
  0
ARC
  5
17B
330
1F
100
AcDbEntity
  8
0
  6
Continuous
 62
     8
370
    18
100
AcDbCircle
 10
401.5100405371
 20
191.5382890027
 30
0.0
 40
123.9428323614377
100
AcDbArc
 50
88.7799479151
 51
88.8817338706
  0
SPLINE
  5
17C
330
1F
100
AcDbEntity
  8
0
  6
Continuous
 62
     8
370
    18
100
AcDbSpline
210
0.0
220
0.0
230
1.0
 70
     8
 71
     3
 72
    22
 73
    18
 74
     0
 42
0.000000001
 43
0.00000001
 40
0.0
 40
0.0
 40
0.0
 40
0.0
 40
0.125
 40
0.125
 40
0.25
 40
0.25
 40
0.375
 40
0.375
 40
0.5
 40
0.5
 40
0.625
 40
0.625
 40
0.75
 40
0.75
 40
0.875
 40
0.875
 40
1.0
 40
1.0
 40
1.0
 40
1.0
 10
404.149071319031
 20
315.4530233860237
 30
0.0
 10
404.1435107616076
 20
315.1719581093643
 30
0.0
 10
404.138555950071
 20
314.8939512456401
 30
0.0
 10
404.1298492389905
 20
314.3440103063508
 30
0.0
 10
404.1261704802803
 20
314.0762723029222
 30
0.0
 10
404.1202479072619
 20
313.5643734923784
 30
0.0
 10
404.1179672743757
 20
313.3167637072893
 30
0.0
 10
404.1149270568687
 20
312.851765852834
 30
0.0
 10
404.1141773663986
 20
312.6376205251577
 30
0.0
 10
404.1141829347198
 20
312.245181480523
 30
0.0
 10
404.1149631612021
 20
312.0655432451081
 30
0.0
 10
404.1180109814291
 20
311.7569575254268
 30
0.0
 10
404.1202630780283
 20
311.6263662953992
 30
0.0
 10
404.1262365430945
 20
311.4130095176174
 30
0.0
 10
404.1299656637357
 20
311.3313183403028
 30
0.0
 10
404.1385878742199
 20
311.2234603806129
 30
0.0
 10
404.1435107693545
 20
311.1959837136735
 30
0.0
 10
404.149071319031
 20
311.1960807734292
 30
0.0
  0
ARC
  5
17D
330
1F
100
AcDbEntity
  8
0
  6
Continuous
 62
     8
370
    18
100
AcDbCircle
 10
403.6493042048
 20
311.2116094336
 30
0.0
 40
0.5000075551671079
100
AcDbArc
 50
304.0037487024
 51
358.2203441655
  0
SPLINE
  5
17E
330
1F
100
AcDbEntity
  8
0
  6
Continuous
 62
     8
370
    18
100
AcDbSpline
210
0.0
220
0.0
230
1.0
 70
     8
 71
     3
 72
    22
 73
    18
 74
     0
 42
0.000000001
 43
0.00000001
 40
0.0
 40
0.0
 40
0.0
 40
0.0
 40
0.125
 40
0.125
 40
0.25
 40
0.25
 40
0.375
 40
0.375
 40
0.5
 40
0.5
 40
0.625
 40
0.625
 40
0.75
 40
0.75
 40
0.875
 40
0.875
 40
1.0
 40
1.0
 40
1.0
 40
1.0
 10
404.1490713190299
 20
410.529725678191
 30
0.0
 10
404.1435107616065
 20
410.5298227380819
 30
0.0
 10
404.1385559500699
 20
410.5023432756223
 30
0.0
 10
404.1298492389894
 20
410.3926283544844
 30
0.0
 10
404.1261704802793
 20
410.310890842264
 30
0.0
 10
404.1202479072609
 20
410.0984385374644
 30
0.0
 10
404.1179672743747
 20
409.9661363198333
 30
0.0
 10
404.1149270568677
 20
409.6548497104201
 30
0.0
 10
404.1141773663975
 20
409.4786078544728
 30
0.0
 10
404.1141829347188
 20
409.0858872811616
 30
0.0
 10
404.114963161201
 20
408.866801701262
 30
0.0
 10
404.118010981428
 20
408.4041203319741
 30
0.0
 10
404.1202630780272
 20
408.1596643196958
 30
0.0
 10
404.1262365430935
 20
407.6442878910506
 30
0.0
 10
404.1299656637347
 20
407.3740497994715
 30
0.0
 10
404.1385878742189
 20
406.8302382281648
 30
0.0
 10
404.1435107693535
 20
406.553847950683
 30
0.0
 10
404.14907131903
 20
406.2727830655965
 30
0.0
  0
ARC
  5
17F
330
1F
100
AcDbEntity
  8
0
  6
Continuous
 62
     8
370
    18
100
AcDbCircle
 10
401.5100405371
 20
530.1875174489
 30
0.0
 40
123.9428323614376
100
AcDbArc
 50
271.1182661294
 51
271.2200520849
  0
ARC
  5
180
330
1F
100
AcDbEntity
  8
0
  6
Continuous
 62
     8
370
    18
100
AcDbCircle
 10
403.6493042048
 20
410.514197018
 30
0.0
 40
0.5000075551671888
100
AcDbArc
 50
1.7796558346
 51
55.9962512976
  0
SPLINE
  5
181
330
1F
100
AcDbEntity
  8
0
  6
Continuous
 62
     8
370
    18
100
AcDbSpline
210
0.0
220
0.0
230
1.0
 70
     8
 71
     3
 72
    22
 73
    18
 74
     0
 42
0.000000001
 43
0.00000001
 40
0.0
 40
0.0
 40
0.0
 40
0.0
 40
0.125
 40
0.125
 40
0.25
 40
0.25
 40
0.375
 40
0.375
 40
0.5
 40
0.5
 40
0.625
 40
0.625
 40
0.75
 40
0.75
 40
0.875
 40
0.875
 40
1.0
 40
1.0
 40
1.0
 40
1.0
 10
404.1490713190301
 20
391.4530233860237
 30
0.0
 10
404.1435107616067
 20
391.1719581093643
 30
0.0
 10
404.1385559500701
 20
390.89395124564
 30
0.0
 10
404.1298492389896
 20
390.3440103063506
 30
0.0
 10
404.1261704802794
 20
390.0762723029221
 30
0.0
 10
404.120247907261
 20
389.5643734923783
 30
0.0
 10
404.1179672743748
 20
389.3167637072892
 30
0.0
 10
404.1149270568679
 20
388.8517658528339
 30
0.0
 10
404.1141773663978
 20
388.6376205251577
 30
0.0
 10
404.114182934719
 20
388.2451814805229
 30
0.0
 10
404.1149631612012
 20
388.065543245108
 30
0.0
 10
404.1180109814282
 20
387.7569575254267
 30
0.0
 10
404.1202630780273
 20
387.6263662953992
 30
0.0
 10
404.1262365430936
 20
387.4130095176174
 30
0.0
 10
404.1299656637348
 20
387.3313183403027
 30
0.0
 10
404.138587874219
 20
387.2234603806128
 30
0.0
 10
404.1435107693536
 20
387.1959837136735
 30
0.0
 10
404.1490713190302
 20
387.1960807734292
 30
0.0
  0
ARC
  5
182
330
1F
100
AcDbEntity
  8
0
  6
Continuous
 62
     8
370
    18
100
AcDbCircle
 10
403.6493024516
 20
387.2116098198
 30
0.0
 40
0.5000093375795237
100
AcDbArc
 50
304.0038532575
 51
358.2202396104
  0
ARC
  5
183
330
1F
100
AcDbEntity
  8
0
  6
Continuous
 62
     8
370
    18
100
AcDbCircle
 10
401.4317087
 20
263.7000952147
 30
0.0
 40
127.7818251967931
100
AcDbArc
 50
88.7814769106
 51
88.8802048751
  0
LWPOLYLINE
  5
184
330
1F
100
AcDbEntity
  8
0
  6
Continuous
 62
     8
370
    18
100
AcDbPolyline
 90
        5
 70
   128
 43
0.0
 10
404.2223619429
 20
334.5284461264
 10
404.2177816985
 20
334.5285262201
 10
404.2040391026
 20
334.5287665013
 10
404.1811360178
 20
334.5291651074
 10
404.1490705816
 20
334.5297257636
  0
LWPOLYLINE
  5
185
330
1F
100
AcDbEntity
  8
0
  6
Continuous
 62
     8
370
    18
100
AcDbPolyline
 90
        5
 70
   128
 43
0.0
 10
404.1490705816
 20
311.1960812692
 10
404.1811360178
 20
311.1966400627
 10
404.2040391026
 20
311.1970386688
 10
404.2177816985
 20
311.1972808127
 10
404.2223619429
 20
311.1973590437
  0
LWPOLYLINE
  5
186
330
1F
100
AcDbEntity
  8
0
  6
Continuous
 62
     8
370
    18
100
AcDbPolyline
 90
        5
 70
   128
 43
0.0
 10
404.2223619429
 20
410.5284474079
 10
404.2177816985
 20
410.528525639
 10
404.2040391026
 20
410.5287677828
 10
404.1811360178
 20
410.5291663889
 10
404.1490705816
 20
410.5297251824
  0
LWPOLYLINE
  5
187
330
1F
100
AcDbEntity
  8
0
  6
Continuous
 62
     8
370
    18
100
AcDbPolyline
 90
        5
 70
   128
 43
0.0
 10
404.1490705816
 20
387.196080688
 10
404.1811360178
 20
387.1966413442
 10
404.2040391026
 20
387.1970399503
 10
404.2177816985
 20
387.1972802315
 10
404.2223619429
 20
387.1973603252
  0
ENDSEC
  0
SECTION
  2
OBJECTS
  0
DICTIONARY
  5
C
330
0
100
AcDbDictionary
281
     1
  3
ACAD_GROUP
350
D
  3
ACAD_LAYOUT
350
1A
  3
ACAD_MLINESTYLE
350
17
  3
ACAD_PLOTSETTINGS
350
19
  3
ACAD_PLOTSTYLENAME
350
E
  3
ACAD_SCALELIST
350
47
  0
DICTIONARY
  5
D
102
{ACAD_REACTORS
330
C
102
}
330
C
100
AcDbDictionary
281
     1
  0
DICTIONARY
  5
1A
102
{ACAD_REACTORS
330
C
102
}
330
C
100
AcDbDictionary
281
     1
  3
Layout1
350
1E
  3
Layout2
350
26
  3
Model
350
22
  0
DICTIONARY
  5
17
102
{ACAD_REACTORS
330
C
102
}
330
C
100
AcDbDictionary
281
     1
  3
Standard
350
18
  0
DICTIONARY
  5
19
102
{ACAD_REACTORS
330
C
102
}
330
C
100
AcDbDictionary
281
     1
  0
ACDBDICTIONARYWDFLT
  5
E
102
{ACAD_REACTORS
330
C
102
}
330
C
100
AcDbDictionary
281
     1
  3
Normal
350
F
100
AcDbDictionaryWithDefault
340
F
  0
DICTIONARY
  5
47
102
{ACAD_REACTORS
330
C
102
}
330
C
100
AcDbDictionary
281
     1
  3
A0
350
48
  3
A1
350
49
  3
A2
350
4A
  3
A3
350
4B
  3
A4
350
4C
  3
A5
350
4D
  3
A6
350
4E
  3
A7
350
4F
  3
A8
350
50
  3
A9
350
51
  3
B0
350
52
  3
B1
350
53
  3
B2
350
54
  3
B3
350
55
  3
B4
350
56
  3
B5
350
57
  3
B6
350
58
  3
B7
350
59
  3
B8
350
5A
  3
B9
350
5B
  3
C0
350
5C
  3
C1
350
5D
  3
C2
350
5E
  3
C3
350
5F
  3
C4
350
60
  3
C5
350
61
  3
C6
350
62
  3
C7
350
63
  3
C8
350
64
  3
C9
350
65
  3
D0
350
66
  3
D1
350
67
  3
D2
350
68
  0
LAYOUT
  5
1E
102
{ACAD_REACTORS
330
1A
102
}
330
1A
100
AcDbPlotSettings
  1

  2
none_device
  4

  6

 40
0.0
 41
0.0
 42
0.0
 43
0.0
 44
0.0
 45
0.0
 46
0.0
 47
0.0
 48
0.0
 49
0.0
140
0.0
141
0.0
142
1.0
143
1.0
 70
   688
 72
     1
 73
     0
 74
     5
  7

 75
    16
147
1.0
148
0.0
149
0.0
100
AcDbLayout
  1
Layout1
 70
     1
 71
     1
 10
0.0
 20
0.0
 11
420.0
 21
297.0
 12
0.0
 22
0.0
 32
0.0
 14
1.0000000000E+20
 24
1.0000000000E+20
 34
1.0000000000E+20
 15
-1.0000000000E+20
 25
-1.0000000000E+20
 35
-1.0000000000E+20
146
0.0
 13
0.0
 23
0.0
 33
0.0
 16
1.0
 26
0.0
 36
0.0
 17
0.0
 27
1.0
 37
0.0
 76
     0
330
1B
  0
LAYOUT
  5
26
102
{ACAD_REACTORS
330
1A
102
}
330
1A
100
AcDbPlotSettings
  1

  2
none_device
  4

  6

 40
0.0
 41
0.0
 42
0.0
 43
0.0
 44
0.0
 45
0.0
 46
0.0
 47
0.0
 48
0.0
 49
0.0
140
0.0
141
0.0
142
1.0
143
1.0
 70
   688
 72
     1
 73
     0
 74
     5
  7

 75
    16
147
1.0
148
0.0
149
0.0
100
AcDbLayout
  1
Layout2
 70
     1
 71
     2
 10
0.0
 20
0.0
 11
0.0
 21
0.0
 12
0.0
 22
0.0
 32
0.0
 14
0.0
 24
0.0
 34
0.0
 15
0.0
 25
0.0
 35
0.0
146
0.0
 13
0.0
 23
0.0
 33
0.0
 16
1.0
 26
0.0
 36
0.0
 17
0.0
 27
1.0
 37
0.0
 76
     0
330
23
  0
LAYOUT
  5
22
102
{ACAD_REACTORS
330
1A
102
}
330
1A
100
AcDbPlotSettings
  1

  2
none_device
  4
Letter_(8.50_x_11.00_Inches)
  6

 40
6.35
 41
6.35
 42
6.35000508
 43
6.35000508
 44
215.9
 45
279.4
 46
0.0
 47
0.0
 48
0.0
 49
0.0
140
0.0
141
0.0
142
1.0
143
1.0
 70
  1712
 72
     1
 73
     0
 74
     0
  7

 75
     0
147
1.0
148
0.0
149
0.0
100
AcDbLayout
  1
Model
 70
     1
 71
     0
 10
0.0
 20
0.0
 11
594.0
 21
841.0
 12
0.0
 22
0.0
 32
0.0
 14
0.0
 24
0.0
 34
0.0
 15
594.0
 25
841.0
 35
0.0
146
0.0
 13
0.0
 23
0.0
 33
0.0
 16
1.0
 26
0.0
 36
0.0
 17
0.0
 27
1.0
 37
0.0
 76
     0
330
1F
331
29
  0
MLINESTYLE
  5
18
102
{ACAD_REACTORS
330
17
102
}
330
17
100
AcDbMlineStyle
  2
Standard
 70
     0
  3

 62
   256
 51
90.0
 52
90.0
 71
     2
 49
0.5
 62
   256
  6
BYLAYER
 49
-0.5
 62
   256
  6
BYLAYER
  0
ACDBPLACEHOLDER
  5
F
102
{ACAD_REACTORS
330
E
102
}
330
E
  0
SCALE
  5
48
102
{ACAD_REACTORS
330
47
102
}
330
47
100
AcDbScale
 70
     0
300
1:1
140
1.0
141
1.0
290
     1
  0
SCALE
  5
49
102
{ACAD_REACTORS
330
47
102
}
330
47
100
AcDbScale
 70
     0
300
1:2
140
1.0
141
2.0
290
     0
  0
SCALE
  5
4A
102
{ACAD_REACTORS
330
47
102
}
330
47
100
AcDbScale
 70
     0
300
1:4
140
1.0
141
4.0
290
     0
  0
SCALE
  5
4B
102
{ACAD_REACTORS
330
47
102
}
330
47
100
AcDbScale
 70
     0
300
1:5
140
1.0
141
5.0
290
     0
  0
SCALE
  5
4C
102
{ACAD_REACTORS
330
47
102
}
330
47
100
AcDbScale
 70
     0
300
1:8
140
1.0
141
8.0
290
     0
  0
SCALE
  5
4D
102
{ACAD_REACTORS
330
47
102
}
330
47
100
AcDbScale
 70
     0
300
1:10
140
1.0
141
10.0
290
     0
  0
SCALE
  5
4E
102
{ACAD_REACTORS
330
47
102
}
330
47
100
AcDbScale
 70
     0
300
1:16
140
1.0
141
16.0
290
     0
  0
SCALE
  5
4F
102
{ACAD_REACTORS
330
47
102
}
330
47
100
AcDbScale
 70
     0
300
1:20
140
1.0
141
20.0
290
     0
  0
SCALE
  5
50
102
{ACAD_REACTORS
330
47
102
}
330
47
100
AcDbScale
 70
     0
300
1:30
140
1.0
141
30.0
290
     0
  0
SCALE
  5
51
102
{ACAD_REACTORS
330
47
102
}
330
47
100
AcDbScale
 70
     0
300
1:40
140
1.0
141
40.0
290
     0
  0
SCALE
  5
52
102
{ACAD_REACTORS
330
47
102
}
330
47
100
AcDbScale
 70
     0
300
1:50
140
1.0
141
50.0
290
     0
  0
SCALE
  5
53
102
{ACAD_REACTORS
330
47
102
}
330
47
100
AcDbScale
 70
     0
300
1:100
140
1.0
141
100.0
290
     0
  0
SCALE
  5
54
102
{ACAD_REACTORS
330
47
102
}
330
47
100
AcDbScale
 70
     0
300
2:1
140
2.0
141
1.0
290
     0
  0
SCALE
  5
55
102
{ACAD_REACTORS
330
47
102
}
330
47
100
AcDbScale
 70
     0
300
4:1
140
4.0
141
1.0
290
     0
  0
SCALE
  5
56
102
{ACAD_REACTORS
330
47
102
}
330
47
100
AcDbScale
 70
     0
300
8:1
140
8.0
141
1.0
290
     0
  0
SCALE
  5
57
102
{ACAD_REACTORS
330
47
102
}
330
47
100
AcDbScale
 70
     0
300
10:1
140
10.0
141
1.0
290
     0
  0
SCALE
  5
58
102
{ACAD_REACTORS
330
47
102
}
330
47
100
AcDbScale
 70
     0
300
100:1
140
100.0
141
1.0
290
     0
  0
SCALE
  5
59
102
{ACAD_REACTORS
330
47
102
}
330
47
100
AcDbScale
 70
     0
300
1/128" = 1'-0"
140
0.0078125
141
12.0
290
     0
  0
SCALE
  5
5A
102
{ACAD_REACTORS
330
47
102
}
330
47
100
AcDbScale
 70
     0
300
1/64" = 1'-0"
140
0.015625
141
12.0
290
     0
  0
SCALE
  5
5B
102
{ACAD_REACTORS
330
47
102
}
330
47
100
AcDbScale
 70
     0
300
1/32" = 1'-0"
140
0.03125
141
12.0
290
     0
  0
SCALE
  5
5C
102
{ACAD_REACTORS
330
47
102
}
330
47
100
AcDbScale
 70
     0
300
1/16" = 1'-0"
140
0.0625
141
12.0
290
     0
  0
SCALE
  5
5D
102
{ACAD_REACTORS
330
47
102
}
330
47
100
AcDbScale
 70
     0
300
3/32" = 1'-0"
140
0.09375
141
12.0
290
     0
  0
SCALE
  5
5E
102
{ACAD_REACTORS
330
47
102
}
330
47
100
AcDbScale
 70
     0
300
1/8" = 1'-0"
140
0.125
141
12.0
290
     0
  0
SCALE
  5
5F
102
{ACAD_REACTORS
330
47
102
}
330
47
100
AcDbScale
 70
     0
300
3/16" = 1'-0"
140
0.1875
141
12.0
290
     0
  0
SCALE
  5
60
102
{ACAD_REACTORS
330
47
102
}
330
47
100
AcDbScale
 70
     0
300
1/4" = 1'-0"
140
0.25
141
12.0
290
     0
  0
SCALE
  5
61
102
{ACAD_REACTORS
330
47
102
}
330
47
100
AcDbScale
 70
     0
300
3/8" = 1'-0"
140
0.375
141
12.0
290
     0
  0
SCALE
  5
62
102
{ACAD_REACTORS
330
47
102
}
330
47
100
AcDbScale
 70
     0
300
1/2" = 1'-0"
140
0.5
141
12.0
290
     0
  0
SCALE
  5
63
102
{ACAD_REACTORS
330
47
102
}
330
47
100
AcDbScale
 70
     0
300
3/4" = 1'-0"
140
0.75
141
12.0
290
     0
  0
SCALE
  5
64
102
{ACAD_REACTORS
330
47
102
}
330
47
100
AcDbScale
 70
     0
300
1" = 1'-0"
140
1.0
141
12.0
290
     0
  0
SCALE
  5
65
102
{ACAD_REACTORS
330
47
102
}
330
47
100
AcDbScale
 70
     0
300
1-1/2" = 1'-0"
140
1.5
141
12.0
290
     0
  0
SCALE
  5
66
102
{ACAD_REACTORS
330
47
102
}
330
47
100
AcDbScale
 70
     0
300
3" = 1'-0"
140
3.0
141
12.0
290
     0
  0
SCALE
  5
67
102
{ACAD_REACTORS
330
47
102
}
330
47
100
AcDbScale
 70
     0
300
6" = 1'-0"
140
6.0
141
12.0
290
     0
  0
SCALE
  5
68
102
{ACAD_REACTORS
330
47
102
}
330
47
100
AcDbScale
 70
     0
300
1'-0" = 1'-0"
140
12.0
141
12.0
290
     0
  0
ENDSEC
  0
EOF
