  0
SECTION
  2
HEADER
  9
$ACADVER
  1
AC1015
  9
$ACADMAINTVER
 70
     6
  9
$DWGCODEPAGE
  3
ANSI_1252
  9
$INSBASE
 10
0.0
 20
0.0
 30
0.0
  9
$EXTMIN
 10
35.3395332945999
 20
37.46023423129998
 30
0.0
  9
$EXTMAX
 10
769.5250664616667
 20
292.1672148662119
 30
0.0
  9
$LIMMIN
 10
0.0
 20
0.0
  9
$LIMMAX
 10
841.0
 20
594.0
  9
$ORTHOMODE
 70
     0
  9
$REGENMODE
 70
     1
  9
$FILLMODE
 70
     1
  9
$QTEXTMODE
 70
     0
  9
$MIRRTEXT
 70
     1
  9
$LTSCALE
 40
1.0
  9
$ATTMODE
 70
     1
  9
$TEXTSIZE
 40
10.0
  9
$TRACEWID
 40
1.0
  9
$TEXTSTYLE
  7
Standard
  9
$CLAYER
  8
0
  9
$CELTYPE
  6
ByLayer
  9
$CECOLOR
 62
   256
  9
$CELTSCALE
 40
1.0
  9
$DISPSILH
 70
     0
  9
$DIMSCALE
 40
1.0
  9
$DIMASZ
 40
2.5
  9
$DIMEXO
 40
0.0
  9
$DIMDLI
 40
3.75
  9
$DIMRND
 40
0.0
  9
$DIMDLE
 40
0.0
  9
$DIMEXE
 40
1.0
  9
$DIMTP
 40
0.0
  9
$DIMTM
 40
0.0
  9
$DIMTXT
 40
3.5
  9
$DIMCEN
 40
2.5
  9
$DIMTSZ
 40
0.0
  9
$DIMTOL
 70
     0
  9
$DIMLIM
 70
     0
  9
$DIMTIH
 70
     1
  9
$DIMTOH
 70
     1
  9
$DIMSE1
 70
     0
  9
$DIMSE2
 70
     0
  9
$DIMTAD
 70
     1
  9
$DIMZIN
 70
     0
  9
$DIMBLK
  1

  9
$DIMASO
 70
     1
  9
$DIMSHO
 70
     1
  9
$DIMPOST
  1

  9
$DIMAPOST
  1

  9
$DIMALT
 70
     0
  9
$DIMALTD
 70
     3
  9
$DIMALTF
 40
0.0393700787
  9
$DIMLFAC
 40
1.0
  9
$DIMTOFL
 70
     1
  9
$DIMTVP
 40
0.0
  9
$DIMTIX
 70
     0
  9
$DIMSOXD
 70
     0
  9
$DIMSAH
 70
     0
  9
$DIMBLK1
  1

  9
$DIMBLK2
  1

  9
$DIMSTYLE
  2
ISO-25
  9
$DIMCLRD
 70
     0
  9
$DIMCLRE
 70
     0
  9
$DIMCLRT
 70
     0
  9
$DIMTFAC
 40
1.0
  9
$DIMGAP
 40
1.5
  9
$DIMJUST
 70
     0
  9
$DIMSD1
 70
     0
  9
$DIMSD2
 70
     0
  9
$DIMTOLJ
 70
     0
  9
$DIMTZIN
 70
     0
  9
$DIMALTZ
 70
     0
  9
$DIMALTTZ
 70
     0
  9
$DIMUPT
 70
     0
  9
$DIMDEC
 70
     2
  9
$DIMTDEC
 70
     2
  9
$DIMALTU
 70
     2
  9
$DIMALTTD
 70
     3
  9
$DIMTXSTY
  7
Standard
  9
$DIMAUNIT
 70
     0
  9
$DIMADEC
 70
     2
  9
$DIMALTRND
 40
0.0
  9
$DIMAZIN
 70
     0
  9
$DIMDSEP
 70
    44
  9
$DIMATFIT
 70
     3
  9
$DIMFRAC
 70
     0
  9
$DIMLDRBLK
  1

  9
$DIMLUNIT
 70
     2
  9
$DIMLWD
 70
    -2
  9
$DIMLWE
 70
    -2
  9
$DIMTMOVE
 70
     0
  9
$LUNITS
 70
     2
  9
$LUPREC
 70
     2
  9
$SKETCHINC
 40
1.0
  9
$FILLETRAD
 40
10.0
  9
$AUNITS
 70
     0
  9
$AUPREC
 70
     2
  9
$MENU
  1
.
  9
$ELEVATION
 40
0.0
  9
$PELEVATION
 40
0.0
  9
$THICKNESS
 40
0.0
  9
$LIMCHECK
 70
     0
  9
$CHAMFERA
 40
0.0
  9
$CHAMFERB
 40
0.0
  9
$CHAMFERC
 40
0.0
  9
$CHAMFERD
 40
0.0
  9
$SKPOLY
 70
     0
  9
$TDCREATE
 40
2458355.403313993
  9
$TDUCREATE
 40
2458355.31998066
  9
$TDUPDATE
 40
2458404.436009479
  9
$TDUUPDATE
 40
2458404.352676146
  9
$TDINDWG
 40
0.0002810764
  9
$TDUSRTIMER
 40
2458404.352395093
  9
$USRTIMER
 70
     1
  9
$ANGBASE
 50
0.0
  9
$ANGDIR
 70
     0
  9
$PDMODE
 70
     0
  9
$PDSIZE
 40
-1.0
  9
$PLINEWID
 40
0.0
  9
$SPLFRAME
 70
     0
  9
$SPLINETYPE
 70
     6
  9
$SPLINESEGS
 70
     8
  9
$HANDSEED
  5
239
  9
$SURFTAB1
 70
     6
  9
$SURFTAB2
 70
     6
  9
$SURFTYPE
 70
     6
  9
$SURFU
 70
     6
  9
$SURFV
 70
     6
  9
$UCSBASE
  2

  9
$UCSNAME
  2

  9
$UCSORG
 10
0.0
 20
0.0
 30
0.0
  9
$UCSXDIR
 10
1.0
 20
0.0
 30
0.0
  9
$UCSYDIR
 10
0.0
 20
1.0
 30
0.0
  9
$UCSORTHOREF
  2

  9
$UCSORTHOVIEW
 70
     0
  9
$UCSORGTOP
 10
0.0
 20
0.0
 30
0.0
  9
$UCSORGBOTTOM
 10
0.0
 20
0.0
 30
0.0
  9
$UCSORGLEFT
 10
0.0
 20
0.0
 30
0.0
  9
$UCSORGRIGHT
 10
0.0
 20
0.0
 30
0.0
  9
$UCSORGFRONT
 10
0.0
 20
0.0
 30
0.0
  9
$UCSORGBACK
 10
0.0
 20
0.0
 30
0.0
  9
$PUCSBASE
  2

  9
$PUCSNAME
  2

  9
$PUCSORG
 10
0.0
 20
0.0
 30
0.0
  9
$PUCSXDIR
 10
1.0
 20
0.0
 30
0.0
  9
$PUCSYDIR
 10
0.0
 20
1.0
 30
0.0
  9
$PUCSORTHOREF
  2

  9
$PUCSORTHOVIEW
 70
     0
  9
$PUCSORGTOP
 10
0.0
 20
0.0
 30
0.0
  9
$PUCSORGBOTTOM
 10
0.0
 20
0.0
 30
0.0
  9
$PUCSORGLEFT
 10
0.0
 20
0.0
 30
0.0
  9
$PUCSORGRIGHT
 10
0.0
 20
0.0
 30
0.0
  9
$PUCSORGFRONT
 10
0.0
 20
0.0
 30
0.0
  9
$PUCSORGBACK
 10
0.0
 20
0.0
 30
0.0
  9
$USERI1
 70
     0
  9
$USERI2
 70
     0
  9
$USERI3
 70
     0
  9
$USERI4
 70
     0
  9
$USERI5
 70
     0
  9
$USERR1
 40
0.0
  9
$USERR2
 40
0.0
  9
$USERR3
 40
0.0
  9
$USERR4
 40
0.0
  9
$USERR5
 40
0.0
  9
$WORLDVIEW
 70
     1
  9
$SHADEDGE
 70
     3
  9
$SHADEDIF
 70
    70
  9
$TILEMODE
 70
     1
  9
$MAXACTVP
 70
    64
  9
$PINSBASE
 10
0.0
 20
0.0
 30
0.0
  9
$PLIMCHECK
 70
     0
  9
$PEXTMIN
 10
1.000000000000000E+20
 20
1.000000000000000E+20
 30
1.000000000000000E+20
  9
$PEXTMAX
 10
-1.000000000000000E+20
 20
-1.000000000000000E+20
 30
-1.000000000000000E+20
  9
$PLIMMIN
 10
0.0
 20
0.0
  9
$PLIMMAX
 10
0.0
 20
0.0
  9
$UNITMODE
 70
     0
  9
$VISRETAIN
 70
     1
  9
$PLINEGEN
 70
     0
  9
$PSLTSCALE
 70
     1
  9
$TREEDEPTH
 70
  3020
  9
$CMLSTYLE
  2
Standard
  9
$CMLJUST
 70
     0
  9
$CMLSCALE
 40
20.0
  9
$PROXYGRAPHICS
 70
     1
  9
$MEASUREMENT
 70
     1
  9
$CELWEIGHT
370
    -1
  9
$ENDCAPS
280
     0
  9
$JOINSTYLE
280
     0
  9
$LWDISPLAY
290
     1
  9
$INSUNITS
 70
     4
  9
$HYPERLINKBASE
  1

  9
$STYLESHEET
  1

  9
$XEDIT
290
     1
  9
$CEPSNTYPE
380
     0
  9
$PSTYLEMODE
290
     1
  9
$FINGERPRINTGUID
  2
{D56F73E8-DA14-476B-B40D-60C78D76E54F}
  9
$VERSIONGUID
  2
{FAEB1C32-E019-11D5-929B-00C0DF256EC4}
  9
$EXTNAMES
290
     1
  9
$PSVPSCALE
 40
0.0
  9
$OLESTARTUP
290
     0
  0
ENDSEC
  0
SECTION
  2
CLASSES
  0
CLASS
  1
ACDBDICTIONARYWDFLT
  2
AcDbDictionaryWithDefault
  3
ObjectDBX Classes
 90
        0
280
     0
281
     0
  0
CLASS
  1
VISUALSTYLE
  2
AcDbVisualStyle
  3
ObjectDBX Classes
 90
     4095
280
     0
281
     0
  0
CLASS
  1
MATERIAL
  2
AcDbMaterial
  3
ObjectDBX Classes
 90
     1153
280
     0
281
     0
  0
CLASS
  1
SCALE
  2
AcDbScale
  3
ObjectDBX Classes
 90
     1153
280
     0
281
     0
  0
CLASS
  1
TABLESTYLE
  2
AcDbTableStyle
  3
ObjectDBX Classes
 90
     4095
280
     0
281
     0
  0
CLASS
  1
MLEADERSTYLE
  2
AcDbMLeaderStyle
  3
ACDB_MLEADERSTYLE_CLASS
 90
     4095
280
     0
281
     0
  0
CLASS
  1
SUN
  2
AcDbSun
  3
SCENEOE
 90
     1153
280
     0
281
     0
  0
CLASS
  1
ACDBPLACEHOLDER
  2
AcDbPlaceHolder
  3
ObjectDBX Classes
 90
        0
280
     0
281
     0
  0
CLASS
  1
LAYOUT
  2
AcDbLayout
  3
ObjectDBX Classes
 90
        0
280
     0
281
     0
  0
CLASS
  1
RASTERVARIABLES
  2
AcDbRasterVariables
  3
ISM
 90
        0
280
     0
281
     0
  0
ENDSEC
  0
SECTION
  2
TABLES
  0
TABLE
  2
VPORT
  5
8
330
0
100
AcDbSymbolTable
 70
     1
  0
VPORT
  5
29
330
8
100
AcDbSymbolTableRecord
100
AcDbViewportTableRecord
  2
*Active
 70
     0
 10
0.0
 20
0.0
 11
1.0
 21
1.0
 12
420.5
 22
297.0
 13
0.0
 23
0.0
 14
10.0
 24
10.0
 15
10.0
 25
10.0
 16
0.0
 26
0.0
 36
1.0
 17
0.0
 27
0.0
 37
0.0
 40
594.0
 41
1.4158249158
 42
50.0
 43
0.0
 44
0.0
 50
0.0
 51
0.0
 71
     0
 72
  2000
 73
     1
 74
     3
 75
     0
 76
     0
 77
     0
 78
     0
281
     0
 65
     1
110
0.0
120
0.0
130
0.0
111
1.0
121
0.0
131
0.0
112
0.0
122
1.0
132
0.0
 79
     0
146
0.0
  0
ENDTAB
  0
TABLE
  2
LTYPE
  5
5
330
0
100
AcDbSymbolTable
 70
     6
  0
LTYPE
  5
14
330
5
100
AcDbSymbolTableRecord
100
AcDbLinetypeTableRecord
  2
ByBlock
 70
     0
  3

 72
    65
 73
     0
 40
0.0
  0
LTYPE
  5
15
330
5
100
AcDbSymbolTableRecord
100
AcDbLinetypeTableRecord
  2
ByLayer
 70
     0
  3

 72
    65
 73
     0
 40
0.0
  0
LTYPE
  5
16
330
5
100
AcDbSymbolTableRecord
100
AcDbLinetypeTableRecord
  2
Continuous
 70
     0
  3
Solid line
 72
    65
 73
     0
 40
0.0
  0
LTYPE
  5
6E
330
5
100
AcDbSymbolTableRecord
100
AcDbLinetypeTableRecord
  2
HIDDEN
 70
     0
  3
Hidden __ __ __ __ __ __ __ __ __ __ __ __ __ __
 72
    65
 73
     2
 40
1.905
 49
1.27
 74
     0
 49
-0.635
 74
     0
  0
LTYPE
  5
6F
330
5
100
AcDbSymbolTableRecord
100
AcDbLinetypeTableRecord
  2
PHANTOM
 70
     0
  3
Phantom ______  __  __  ______  __  __  ______
 72
    65
 73
     6
 40
12.7
 49
6.35
 74
     0
 49
-1.27
 74
     0
 49
1.27
 74
     0
 49
-1.27
 74
     0
 49
1.27
 74
     0
 49
-1.27
 74
     0
  0
LTYPE
  5
70
330
5
100
AcDbSymbolTableRecord
100
AcDbLinetypeTableRecord
  2
CENTER
 70
     0
  3
Center ____ _ ____ _ ____ _ ____ _ ____ _ ____
 72
    65
 73
     4
 40
10.16
 49
6.35
 74
     0
 49
-1.27
 74
     0
 49
1.27
 74
     0
 49
-1.27
 74
     0
  0
LTYPE
  5
71
330
5
100
AcDbSymbolTableRecord
100
AcDbLinetypeTableRecord
  2
CENTERX2
 70
     0
  3
Center (2x) ________  __  ________  __  _____
 72
    65
 73
     4
 40
20.32
 49
12.7
 74
     0
 49
-2.54
 74
     0
 49
2.54
 74
     0
 49
-2.54
 74
     0
  0
LTYPE
  5
72
330
5
100
AcDbSymbolTableRecord
100
AcDbLinetypeTableRecord
  2
DOT2
 70
     0
  3
Dot (.5x) ........................................
 72
    65
 73
     2
 40
0.635
 49
0.0
 74
     0
 49
-0.635
 74
     0
  0
ENDTAB
  0
TABLE
  2
LAYER
  5
2
330
0
100
AcDbSymbolTable
 70
     1
  0
LAYER
  5
10
330
2
100
AcDbSymbolTableRecord
100
AcDbLayerTableRecord
  2
0
 70
     0
 62
     7
  6
Continuous
370
    -3
390
F
  0
ENDTAB
  0
TABLE
  2
STYLE
  5
3
330
0
100
AcDbSymbolTable
 70
     3
  0
STYLE
  5
11
330
3
100
AcDbSymbolTableRecord
100
AcDbTextStyleTableRecord
  2
Standard
 70
     0
 40
0.0
 41
1.0
 50
0.0
 71
     0
 42
10.0
  3
txt
  4

  0
STYLE
  5
76
330
3
100
AcDbSymbolTableRecord
100
AcDbTextStyleTableRecord
  2
SLDTEXTSTYLE0
 70
     0
 40
0.0
 41
0.96
 50
0.0
 71
     0
 42
10.0
  3
ISOCP3
  4

  0
STYLE
  5
8D
330
3
100
AcDbSymbolTableRecord
100
AcDbTextStyleTableRecord
  2
SLDTEXTSTYLE1
 70
     0
 40
0.0
 41
0.605
 50
0.0
 71
     0
 42
10.0
  3
TXT
  4

  0
ENDTAB
  0
TABLE
  2
VIEW
  5
6
330
0
100
AcDbSymbolTable
 70
     0
  0
ENDTAB
  0
TABLE
  2
UCS
  5
7
330
0
100
AcDbSymbolTable
 70
     0
  0
ENDTAB
  0
TABLE
  2
APPID
  5
9
330
0
100
AcDbSymbolTable
 70
     1
  0
APPID
  5
12
330
9
100
AcDbSymbolTableRecord
100
AcDbRegAppTableRecord
  2
ACAD
 70
     0
  0
ENDTAB
  0
TABLE
  2
DIMSTYLE
  5
A
330
0
100
AcDbSymbolTable
 70
     2
100
AcDbDimStyleTable
  0
DIMSTYLE
105
27
330
A
100
AcDbSymbolTableRecord
100
AcDbDimStyleTableRecord
  2
ISO-25
 70
     0
 41
2.5
 42
0.625
 43
3.75
 44
1.25
 73
     0
 74
     0
 77
     1
 78
     8
140
2.5
141
2.5
143
0.0393700787
147
0.625
171
     3
172
     1
178
     0
271
     2
272
     2
274
     3
278
    44
283
     0
284
     8
340
11
  0
DIMSTYLE
105
77
102
{ACAD_REACTORS
330
75
330
82
102
}
330
A
100
AcDbSymbolTableRecord
100
AcDbDimStyleTableRecord
  2
SLDDIMSTYLE0
 70
     0
 41
2.5
 44
0.0
 45
0.000000001
 73
     0
 74
     0
 77
     1
 78
    12
 79
     3
140
6.0
147
1.5
173
     1
178
     0
271
     2
272
     2
276
     2
284
    12
340
76
  0
ENDTAB
  0
TABLE
  2
BLOCK_RECORD
  5
1
330
0
100
AcDbSymbolTable
 70
     3
  0
BLOCK_RECORD
  5
1F
330
1
100
AcDbSymbolTableRecord
100
AcDbBlockTableRecord
  2
*Model_Space
340
22
  0
BLOCK_RECORD
  5
1B
330
1
100
AcDbSymbolTableRecord
100
AcDbBlockTableRecord
  2
*Paper_Space
340
1E
  0
BLOCK_RECORD
  5
23
330
1
100
AcDbSymbolTableRecord
100
AcDbBlockTableRecord
  2
*Paper_Space0
340
26
  0
BLOCK_RECORD
  5
78
330
1
100
AcDbSymbolTableRecord
100
AcDbBlockTableRecord
  2
_D
340
0
  0
BLOCK_RECORD
  5
83
330
1
100
AcDbSymbolTableRecord
100
AcDbBlockTableRecord
  2
_D_1
340
0
  0
ENDTAB
  0
ENDSEC
  0
SECTION
  2
BLOCKS
  0
BLOCK
  5
20
330
1F
100
AcDbEntity
  8
0
100
AcDbBlockBegin
  2
*Model_Space
 70
     0
 10
0.0
 20
0.0
 30
0.0
  3
*Model_Space
  1

  0
ENDBLK
  5
21
330
1F
100
AcDbEntity
  8
0
100
AcDbBlockEnd
  0
BLOCK
  5
1C
330
1B
100
AcDbEntity
 67
     1
  8
0
100
AcDbBlockBegin
  2
*Paper_Space
 70
     0
 10
0.0
 20
0.0
 30
0.0
  3
*Paper_Space
  1

  0
ENDBLK
  5
1D
330
1B
100
AcDbEntity
 67
     1
  8
0
100
AcDbBlockEnd
  0
BLOCK
  5
24
330
23
100
AcDbEntity
  8
0
100
AcDbBlockBegin
  2
*Paper_Space0
 70
     0
 10
0.0
 20
0.0
 30
0.0
  3
*Paper_Space0
  1

  0
ENDBLK
  5
25
330
23
100
AcDbEntity
  8
0
100
AcDbBlockEnd
  0
BLOCK
  5
79
330
78
100
AcDbEntity
  8
0
100
AcDbBlockBegin
  2
_D
 70
     0
 10
0.0
 20
0.0
 30
0.0
  3
_D
  1

  0
SOLID
  5
7B
330
78
100
AcDbEntity
  8
0
  6
Continuous
 62
     7
370
    18
100
AcDbTrace
 10
42.7614395004
 20
152.0299240879
 30
0.0
 11
42.4614395004
 21
149.5299240879
 31
0.0
 12
43.0614395004
 22
149.5299240879
 32
0.0
 13
43.0614395004
 23
149.5299240879
 33
0.0
  0
SOLID
  5
7C
330
78
100
AcDbEntity
  8
0
  6
Continuous
 62
     7
370
    18
100
AcDbTrace
 10
42.7614395004
 20
52.0299240879
 30
0.0
 11
43.0614395004
 21
54.5299240879
 31
0.0
 12
42.4614395004
 22
54.5299240879
 32
0.0
 13
42.4614395004
 23
54.5299240879
 33
0.0
  0
LINE
  5
7D
330
78
100
AcDbEntity
  8
0
  6
Continuous
 62
     7
370
    18
100
AcDbLine
 10
56.6850079902
 20
152.0299240879
 30
0.0
 11
41.7614395004
 21
152.0299240879
 31
0.0
  0
LINE
  5
7E
330
78
100
AcDbEntity
  8
0
  6
Continuous
 62
     7
370
    18
100
AcDbLine
 10
56.6850079902
 20
52.0299240879
 30
0.0
 11
41.7614395004
 21
52.0299240879
 31
0.0
  0
LINE
  5
7F
330
78
100
AcDbEntity
  8
0
  6
Continuous
 62
     7
370
    18
100
AcDbLine
 10
42.7614395004
 20
152.0299240879
 30
0.0
 11
42.7614395004
 21
52.0299240879
 31
0.0
  0
MTEXT
  5
80
330
78
100
AcDbEntity
  8
0
  6
Continuous
 62
     7
370
    18
100
AcDbMText
 10
35.0270332946
 20
94.3680541463
 30
0.0
 40
6.0
 41
0.0
 71
     1
 72
     1
  1
100
  7
SLDTEXTSTYLE0
 11
-7.044195017643634E-15
 21
1.0
 31
0.0
 73
     1
 44
1.0
  0
MTEXT
  5
81
330
78
100
AcDbEntity
  8
0
  6
Continuous
 62
     7
370
    18
100
AcDbMText
 10
35.0270332946
 20
105.7430548466
 30
0.0
 40
6.0
 41
0.0
 71
     1
 72
     1
  1
mm
  7
SLDTEXTSTYLE0
 11
-7.044195017643634E-15
 21
1.0
 31
0.0
 73
     1
 44
1.0
  0
ENDBLK
  5
7A
330
78
100
AcDbEntity
  8
0
100
AcDbBlockEnd
  0
BLOCK
  5
84
330
83
100
AcDbEntity
  8
0
100
AcDbBlockBegin
  2
_D_1
 70
     0
 10
0.0
 20
0.0
 30
0.0
  3
_D_1
  1

  0
SOLID
  5
86
330
83
100
AcDbEntity
  8
0
  6
Continuous
 62
     7
370
    18
100
AcDbTrace
 10
56.6850079902
 20
38.4602342313
 30
0.0
 11
59.1850079902
 21
38.1602342313
 31
0.0
 12
59.1850079902
 22
38.7602342313
 32
0.0
 13
59.1850079902
 23
38.7602342313
 33
0.0
  0
SOLID
  5
87
330
83
100
AcDbEntity
  8
0
  6
Continuous
 62
     7
370
    18
100
AcDbTrace
 10
156.6850079902
 20
38.4602342313
 30
0.0
 11
154.1850079902
 21
38.7602342313
 31
0.0
 12
154.1850079902
 22
38.1602342313
 32
0.0
 13
154.1850079902
 23
38.1602342313
 33
0.0
  0
LINE
  5
88
330
83
100
AcDbEntity
  8
0
  6
Continuous
 62
     7
370
    18
100
AcDbLine
 10
56.6850079902
 20
52.0299240879
 30
0.0
 11
56.6850079902
 21
37.4602342313
 31
0.0
  0
LINE
  5
89
330
83
100
AcDbEntity
  8
0
  6
Continuous
 62
     7
370
    18
100
AcDbLine
 10
156.6850079902
 20
52.0299240879
 30
0.0
 11
156.6850079902
 21
37.4602342313
 31
0.0
  0
LINE
  5
8A
330
83
100
AcDbEntity
  8
0
  6
Continuous
 62
     7
370
    18
100
AcDbLine
 10
56.6850079902
 20
38.4602342313
 30
0.0
 11
156.6850079902
 21
38.4602342313
 31
0.0
  0
MTEXT
  5
8B
330
83
100
AcDbEntity
  8
0
  6
Continuous
 62
     7
370
    18
100
AcDbMText
 10
93.9626484861
 20
46.1946404371
 30
0.0
 40
6.0
 41
0.0
 71
     1
 72
     1
  1
100
  7
SLDTEXTSTYLE0
 73
     1
 44
1.0
  0
MTEXT
  5
8C
330
83
100
AcDbEntity
  8
0
  6
Continuous
 62
     7
370
    18
100
AcDbMText
 10
105.3376491864
 20
46.1946404371
 30
0.0
 40
6.0
 41
0.0
 71
     1
 72
     1
  1
mm
  7
SLDTEXTSTYLE0
 73
     1
 44
1.0
  0
ENDBLK
  5
85
330
83
100
AcDbEntity
  8
0
100
AcDbBlockEnd
  0
ENDSEC
  0
SECTION
  2
ENTITIES
  0
LINE
  5
73
330
1F
100
AcDbEntity
  8
0
  6
Continuous
 62
     7
370
    18
100
AcDbLine
 10
56.6850079902
 20
152.0299240879
 30
0.0
 11
56.6850079902
 21
52.0299240879
 31
0.0
  0
LINE
  5
74
330
1F
100
AcDbEntity
  8
0
  6
Continuous
 62
     7
370
    18
100
AcDbLine
 10
56.6850079902
 20
52.0299240879
 30
0.0
 11
156.6850079902
 21
52.0299240879
 31
0.0
  0
DIMENSION
  5
75
330
1F
100
AcDbEntity
  8
0
  6
Continuous
 62
     7
370
    18
100
AcDbDimension
  2
_D
 10
42.7614395004
 20
52.0299240879
 30
0.0
 11
42.7614395004
 21
105.4472211621
 31
0.0
 70
   160
  1
<>mm
 71
     2
 42
-1.0
  3
SLDDIMSTYLE0
100
AcDbAlignedDimension
 13
56.6850079902
 23
152.0299240879
 33
0.0
 14
56.6850079902
 24
52.0299240879
 34
0.0
 50
90.0
100
AcDbRotatedDimension
  0
DIMENSION
  5
82
330
1F
100
AcDbEntity
  8
0
  6
Continuous
 62
     7
370
    18
100
AcDbDimension
  2
_D_1
 10
156.6850079902
 20
38.4602342313
 30
0.0
 11
105.0418155019
 21
38.4602342313
 31
0.0
 70
   160
  1
<>mm
 71
     2
 42
-1.0
  3
SLDDIMSTYLE0
100
AcDbAlignedDimension
 13
56.6850079902
 23
52.0299240879
 33
0.0
 14
156.6850079902
 24
52.0299240879
 34
0.0
100
AcDbRotatedDimension
  0
MTEXT
  5
8E
330
1F
100
AcDbEntity
  8
0
  6
Continuous
 62
     7
370
     0
100
AcDbMText
 10
664.658399795
 20
48.4342449499
 30
0.0
 40
10.0
 41
0.0
 71
     1
 72
     1
  1
KLUDI GmbH & Co KG
  7
SLDTEXTSTYLE1
 73
     1
 44
1.0
  0
MTEXT
  5
8F
330
1F
100
AcDbEntity
  8
0
  6
Continuous
 62
     7
370
     0
100
AcDbMText
 10
349.0758972247
 20
48.4342449499
 30
0.0
 40
10.0
 41
0.0
 71
     1
 72
     1
  1
{64 552 05-00}
  7
SLDTEXTSTYLE1
 73
     1
 44
1.0
1001
ACAD
1000
ACAD_MTEXT_DEFINED_HEIGHT_BEGIN
1070
    46
1040
10.0
1000
ACAD_MTEXT_DEFINED_HEIGHT_END
  0
ARC
  5
90
330
1F
100
AcDbEntity
  8
0
  6
Continuous
 62
     7
370
    25
100
AcDbCircle
 10
223.6940142155
 20
264.4345036251
 30
0.0
 40
39.80000000000086
100
AcDbArc
 50
252.8186900679
 51
257.2029306013
  0
ARC
  5
91
330
1F
100
AcDbEntity
  8
0
  6
Continuous
 62
     7
370
    25
100
AcDbCircle
 10
223.6940142155
 20
264.4345036251
 30
0.0
 40
39.80000000000084
100
AcDbArc
 50
282.7935877517
 51
287.1813099321
  0
ARC
  5
92
330
1F
100
AcDbEntity
  8
0
  6
Continuous
 62
     7
370
    25
100
AcDbCircle
 10
212.1440142155
 20
257.8538664722
 30
0.0
 40
0.6999999999999318
100
AcDbArc
 50
107.1813099321
 51
180.0
  0
ARC
  5
93
330
1F
100
AcDbEntity
  8
0
  6
Continuous
 62
     7
370
    25
100
AcDbCircle
 10
212.1440142155
 20
227.0793500315
 30
0.0
 40
0.6999999999999507
100
AcDbArc
 50
201.7867892981
 51
252.8186900679
  0
ARC
  5
94
330
1F
100
AcDbEntity
  8
0
  6
Continuous
 62
     7
370
    25
100
AcDbCircle
 10
235.2440142155
 20
227.0793500315
 30
0.0
 40
0.6999999999999527
100
AcDbArc
 50
287.1813099321
 51
338.2132107016
  0
ARC
  5
95
330
1F
100
AcDbEntity
  8
0
  6
Continuous
 62
     7
370
    25
100
AcDbCircle
 10
235.2440142155
 20
257.8538664722
 30
0.0
 40
0.6999999999999602
100
AcDbArc
 50
360.0
 51
72.8186900679
  0
LINE
  5
96
330
1F
100
AcDbEntity
  8
0
  6
Continuous
 62
     7
370
    25
100
AcDbLine
 10
236.1440144867
 20
257.3666080865
 30
0.0
 11
235.9440138951
 21
257.3666080865
 31
0.0
  0
LINE
  5
97
330
1F
100
AcDbEntity
  8
0
  6
Continuous
 62
     7
370
    25
100
AcDbLine
 10
211.4440145358
 20
257.3666080865
 30
0.0
 11
211.2440139443
 21
257.3666080865
 31
0.0
  0
SPLINE
  5
98
330
1F
100
AcDbEntity
  8
0
  6
Continuous
 62
     7
370
    25
100
AcDbSpline
210
0.0
220
0.0
230
1.0
 70
     8
 71
     3
 72
     9
 73
     5
 74
     0
 42
0.000000001
 43
0.00000001
 40
0.0
 40
0.0
 40
0.0
 40
0.0
 40
0.8224379840935683
 40
1.0
 40
1.0
 40
1.0
 40
1.0
 10
203.6941171079824
 20
227.9328938605695
 30
0.0
 10
203.6941891299182
 20
227.8938986819477
 30
0.0
 10
203.6942767011845
 20
227.846484555441
 30
0.0
 10
203.6971813556558
 20
227.7986714974833
 30
0.0
 10
203.6976971119592
 20
227.7901817145257
 30
0.0
  0
SPLINE
  5
99
330
1F
100
AcDbEntity
  8
0
  6
Continuous
 62
     7
370
    25
100
AcDbSpline
210
0.0
220
0.0
230
1.0
 70
     8
 71
     3
 72
     9
 73
     5
 74
     0
 42
0.000000001
 43
0.00000001
 40
0.0
 40
0.0
 40
0.0
 40
0.0
 40
0.1775912698166894
 40
1.0
 40
1.0
 40
1.0
 40
1.0
 10
243.6903257310341
 20
227.7900997581391
 30
0.0
 10
243.6908421417023
 20
227.7985911114782
 30
0.0
 10
243.6937500023688
 20
227.8464051360519
 30
0.0
 10
243.6938385228938
 20
227.8938186315538
 30
0.0
 10
243.6939113229463
 20
227.9328119041829
 30
0.0
  0
ARC
  5
9A
330
1F
100
AcDbEntity
  8
0
  6
Continuous
 62
     7
370
    25
100
AcDbCircle
 10
223.6940142155
 20
220.4987128786
 30
0.0
 40
39.80000000000084
100
AcDbArc
 50
100.357023261
 51
107.1813099321
  0
ARC
  5
9B
330
1F
100
AcDbEntity
  8
0
  6
Continuous
 62
     7
370
    25
100
AcDbCircle
 10
223.6940142155
 20
220.4987128786
 30
0.0
 40
39.80000000000086
100
AcDbArc
 50
72.8186900679
 51
79.5606414964
  0
LINE
  5
9C
330
1F
100
AcDbEntity
  8
0
  6
Continuous
 62
     7
370
    25
100
AcDbLine
 10
236.4945084244
 20
228.2272513988
 30
0.0
 11
238.7940146416
 21
228.2272513988
 31
0.0
  0
LINE
  5
9D
330
1F
100
AcDbEntity
  8
0
  6
Continuous
 62
     7
370
    25
100
AcDbLine
 10
208.5940137893
 20
228.2272513988
 30
0.0
 11
210.8940760061
 21
228.2272513988
 31
0.0
  0
LINE
  5
9E
330
1F
100
AcDbEntity
  8
0
  6
Continuous
 62
     7
370
    25
100
AcDbLine
 10
208.894014211
 20
225.9616835075
 30
0.0
 11
211.4940144509
 21
225.9616835075
 31
0.0
  0
LINE
  5
9F
330
1F
100
AcDbEntity
  8
0
  6
Continuous
 62
     7
370
    25
100
AcDbLine
 10
235.89401398
 20
225.9616835075
 30
0.0
 11
238.4940142199
 21
225.9616835075
 31
0.0
  0
SPLINE
  5
A0
330
1F
100
AcDbEntity
  8
0
  6
Continuous
 62
     7
370
    25
100
AcDbSpline
210
0.0
220
0.0
230
1.0
 70
     8
 71
     3
 72
    16
 73
    12
 74
     0
 42
0.000000001
 43
0.00000001
 40
0.0
 40
0.0
 40
0.0
 40
0.0
 40
0.0939346716508143
 40
0.2266407512124602
 40
0.3580094964817348
 40
0.4869011161799944
 40
0.610348479495399
 40
0.7235984669706795
 40
0.8042461376768116
 40
0.8929753789162608
 40
1.0
 40
1.0
 40
1.0
 40
1.0
 10
231.4901876650701
 20
257.5376799362211
 30
0.0
 10
231.2777347484145
 20
257.6325875828971
 30
0.0
 10
230.7651392628298
 20
257.8615758782775
 30
0.0
 10
229.8976589652161
 20
258.1676962217517
 30
0.0
 10
228.911240270958
 20
258.4601518348451
 30
0.0
 10
227.9128024796191
 20
258.6942815346592
 30
0.0
 10
226.9370887538689
 20
258.8703327728687
 30
0.0
 10
226.0744994043621
 20
258.9838304303291
 30
0.0
 10
225.2983544919604
 20
259.0552244610196
 30
0.0
 10
224.5343662878153
 20
259.1019920114844
 30
0.0
 10
223.9910576549759
 20
259.1084351520843
 30
0.0
 10
223.6940142154695
 20
259.1119578140288
 30
0.0
  0
SPLINE
  5
A1
330
1F
100
AcDbEntity
  8
0
  6
Continuous
 62
     7
370
    25
100
AcDbSpline
210
0.0
220
0.0
230
1.0
 70
     8
 71
     3
 72
    17
 73
    13
 74
     0
 42
0.000000001
 43
0.00000001
 40
0.0
 40
0.0
 40
0.0
 40
0.0
 40
0.0602115731785232
 40
0.1265916124355398
 40
0.2366067719054172
 40
0.3504513287672352
 40
0.4721680680711243
 40
0.5987156951026155
 40
0.7288656015365489
 40
0.861645611214569
 40
0.9963796637810559
 40
1.0
 40
1.0
 40
1.0
 40
1.0
 10
222.9088597503441
 20
259.08919442766
 30
0.0
 10
222.7575841292027
 20
259.0861764586538
 30
0.0
 10
222.4395352261172
 20
259.0798313402221
 30
0.0
 10
221.8490472626095
 20
259.0341749524834
 30
0.0
 10
221.1285697071529
 20
258.9629099580739
 30
0.0
 10
220.2814904195471
 20
258.8415396494199
 30
0.0
 10
219.4089250371369
 20
258.6787058014049
 30
0.0
 10
218.5185968369851
 20
258.4685232567853
 30
0.0
 10
217.6280121429043
 20
258.2125205550616
 30
0.0
 10
216.7574521868657
 20
257.9051426114217
 30
0.0
 10
216.1764716248094
 20
257.679609444773
 30
0.0
 10
215.9014008309987
 20
257.5461836825621
 30
0.0
 10
215.8942030198822
 20
257.5426923143177
 30
0.0
  0
SPLINE
  5
A2
330
1F
100
AcDbEntity
  8
0
  6
Continuous
 62
     7
370
    25
100
AcDbSpline
210
0.0
220
0.0
230
1.0
 70
     8
 71
     3
 72
    18
 73
    14
 74
     0
 42
0.000000001
 43
0.00000001
 40
0.0
 40
0.0
 40
0.0
 40
0.0
 40
0.2500000000000011
 40
0.2500000000000011
 40
0.3750000000000016
 40
0.3750000000000016
 40
0.500000000000002
 40
0.500000000000002
 40
0.7500000000000022
 40
0.7500000000000022
 40
0.8750000000000011
 40
0.8750000000000011
 40
1.0
 40
1.0
 40
1.0
 40
1.0
 10
216.1909896396853
 20
246.469886248195
 30
0.0
 10
215.5383691963571
 20
247.0463964284584
 30
0.0
 10
214.9569292811228
 20
247.6580992871978
 30
0.0
 10
214.1824736763335
 20
248.6139088904275
 30
0.0
 10
213.9408285971762
 20
248.9390425663541
 30
0.0
 10
213.4915629153327
 20
249.6014771804408
 30
0.0
 10
213.2843742795436
 20
249.9386481062851
 30
0.0
 10
212.7301688571359
 20
250.942378927695
 30
0.0
 10
212.4437884768429
 20
251.6091670025162
 30
0.0
 10
212.1475624319235
 20
252.601987106987
 30
0.0
 10
212.0710685032147
 20
252.93353974167
 30
0.0
 10
211.9689210794559
 20
253.5828330871946
 30
0.0
 10
211.9428905953911
 20
253.9007763202508
 30
0.0
 10
211.9428853625328
 20
254.2120106780722
 30
0.0
  0
LINE
  5
A3
330
1F
100
AcDbEntity
  8
0
  6
Continuous
 62
     7
370
    25
100
AcDbLine
 10
216.1940143831
 20
225.4440618711
 30
0.0
 11
216.1940143831
 21
246.4729805509
 31
0.0
  0
SPLINE
  5
A4
330
1F
100
AcDbEntity
  8
0
  6
Continuous
 62
     7
370
    25
100
AcDbSpline
210
0.0
220
0.0
230
1.0
 70
     8
 71
     3
 72
     9
 73
     5
 74
     0
 42
0.000000001
 43
0.00000001
 40
0.0
 40
0.0
 40
0.0
 40
0.0
 40
0.3890846816494077
 40
1.0
 40
1.0
 40
1.0
 40
1.0
 10
214.88086957633
 20
225.6329862432985
 30
0.0
 10
215.0311027711118
 20
225.598082932149
 30
0.0
 10
215.4172223020709
 20
225.5083767247456
 30
0.0
 10
215.8993120852333
 20
225.4684731213108
 30
0.0
 10
216.1938281185875
 20
225.444095398715
 30
0.0
  0
LINE
  5
A5
330
1F
100
AcDbEntity
  8
0
  6
Continuous
 62
     7
370
    25
100
AcDbLine
 10
215.7440137505
 20
259.0558866071
 30
0.0
 11
215.7440137505
 21
246.9224144737
 31
0.0
  0
SPLINE
  5
A6
330
1F
100
AcDbEntity
  8
0
  6
Continuous
 62
     7
370
    25
100
AcDbSpline
210
0.0
220
0.0
230
1.0
 70
     8
 71
     3
 72
    16
 73
    12
 74
     0
 42
0.000000001
 43
0.00000001
 40
0.0
 40
0.0
 40
0.0
 40
0.0
 40
0.2500000000000025
 40
0.2500000000000025
 40
0.3750000000000019
 40
0.3750000000000019
 40
0.5000000000000013
 40
0.5000000000000013
 40
0.7500000000000007
 40
0.7500000000000007
 40
1.0
 40
1.0
 40
1.0
 40
1.0
 10
211.9428852876104
 20
254.2120107067561
 30
0.0
 10
211.9428759387417
 20
254.7679509332181
 30
0.0
 10
212.0253431163727
 20
255.2868829985395
 30
0.0
 10
212.272200699921
 20
256.0152303349221
 30
0.0
 10
212.3751634204545
 20
256.2496382005827
 30
0.0
 10
212.624288725028
 20
256.7022818090305
 30
0.0
 10
212.7684979392085
 20
256.916845662197
 30
0.0
 10
213.2563717534676
 20
257.5261264303301
 30
0.0
 10
213.6553989029988
 20
257.8879390144949
 30
0.0
 10
214.6047049660941
 20
258.5364135240066
 30
0.0
 10
215.1438022050766
 20
258.8151898231
 30
0.0
 10
215.7439870043562
 20
259.0558605078426
 30
0.0
  0
SPLINE
  5
A7
330
1F
100
AcDbEntity
  8
0
  6
Continuous
 62
     7
370
    25
100
AcDbSpline
210
0.0
220
0.0
230
1.0
 70
     8
 71
     3
 72
     9
 73
     5
 74
     0
 42
0.000000001
 43
0.00000001
 40
0.0
 40
0.0
 40
0.0
 40
0.0
 40
0.8873248159320097
 40
1.0
 40
1.0
 40
1.0
 40
1.0
 10
231.1939092740367
 20
225.4440749096184
 30
0.0
 10
231.6302779809774
 20
225.4745485896252
 30
0.0
 10
232.1220581037753
 20
225.5088919095229
 30
0.0
 10
232.4665302449839
 20
225.6212467838559
 30
0.0
 10
232.5053437069008
 20
225.6339063900023
 30
0.0
  0
SPLINE
  5
A8
330
1F
100
AcDbEntity
  8
0
  6
Continuous
 62
     7
370
    25
100
AcDbSpline
210
0.0
220
0.0
230
1.0
 70
     8
 71
     3
 72
     9
 73
     5
 74
     0
 42
0.000000001
 43
0.00000001
 40
0.0
 40
0.0
 40
0.0
 40
0.0
 40
0.1344722182870635
 40
1.0
 40
1.0
 40
1.0
 40
1.0
 10
231.6440146803806
 20
246.9013265366166
 30
0.0
 10
231.6440146771377
 20
247.44687530683
 30
0.0
 10
231.644014653022
 20
251.5038379803308
 30
0.0
 10
231.6440151669147
 20
255.5520402100908
 30
0.0
 10
231.6440156117032
 20
259.0558717059403
 30
0.0
  0
SPLINE
  5
A9
330
1F
100
AcDbEntity
  8
0
  6
Continuous
 62
     7
370
    25
100
AcDbSpline
210
0.0
220
0.0
230
1.0
 70
     8
 71
     3
 72
    18
 73
    14
 74
     0
 42
0.000000001
 43
0.00000001
 40
0.0
 40
0.0
 40
0.0
 40
0.0
 40
0.2500000000000009
 40
0.2500000000000009
 40
0.3750000000000012
 40
0.3750000000000012
 40
0.5000000000000016
 40
0.5000000000000016
 40
0.7500000000000026
 40
0.7500000000000026
 40
0.8750000000000013
 40
0.8750000000000013
 40
1.0
 40
1.0
 40
1.0
 40
1.0
 10
231.6440182763553
 20
259.055869790919
 30
0.0
 10
232.2443982957416
 20
258.8151224462186
 30
0.0
 10
232.7786374717039
 20
258.5384672482703
 30
0.0
 10
233.4840091980013
 20
258.0583296431057
 30
0.0
 10
233.7030020549041
 20
257.8873583498108
 30
0.0
 10
234.1076121668165
 20
257.5206475235871
 30
0.0
 10
234.2913167652678
 20
257.3263539414717
 30
0.0
 10
234.780054625603
 20
256.7171281893384
 30
0.0
 10
235.0270035121078
 20
256.2728217187049
 30
0.0
 10
235.2777967143431
 20
255.5395078268018
 30
0.0
 10
235.3409819808532
 20
255.2838607769156
 30
0.0
 10
235.424431875214
 20
254.7593966155559
 30
0.0
 10
235.4451887946611
 20
254.4893485587725
 30
0.0
 10
235.4451429937539
 20
254.2111879836279
 30
0.0
  0
SPLINE
  5
AA
330
1F
100
AcDbEntity
  8
0
  6
Continuous
 62
     7
370
    25
100
AcDbSpline
210
0.0
220
0.0
230
1.0
 70
     8
 71
     3
 72
     8
 73
     4
 74
     0
 42
0.000000001
 43
0.00000001
 40
0.998728259988568
 40
0.998728259988568
 40
0.998728259988568
 40
0.998728259988568
 40
1.0
 40
1.0
 40
1.0
 40
1.0
 10
235.445144546419
 20
254.2111881158729
 30
0.0
 10
235.4451406995188
 20
254.1939433281235
 30
0.0
 10
235.4450571526039
 20
254.1766503127435
 30
0.0
 10
235.4448934729973
 20
254.1593089599442
 30
0.0
  0
SPLINE
  5
AB
330
1F
100
AcDbEntity
  8
0
  6
Continuous
 62
     7
370
    25
100
AcDbSpline
210
0.0
220
0.0
230
1.0
 70
     8
 71
     3
 72
    16
 73
    12
 74
     0
 42
0.000000001
 43
0.00000001
 40
0.0
 40
0.0
 40
0.0
 40
0.0
 40
0.2499999999999999
 40
0.2499999999999999
 40
0.3749999999999998
 40
0.3749999999999998
 40
0.4999999999999997
 40
0.4999999999999997
 40
0.7499999999999999
 40
0.7499999999999999
 40
1.0
 40
1.0
 40
1.0
 40
1.0
 10
235.4448934729973
 20
254.1593089599442
 30
0.0
 10
235.4390488502297
 20
253.5400890858912
 30
0.0
 10
235.3321555236694
 20
252.902187113048
 30
0.0
 10
235.0355173578932
 20
251.9188428270021
 30
0.0
 10
234.9134574062735
 20
251.5861597660861
 30
0.0
 10
234.6240442013623
 20
250.9143825559796
 30
0.0
 10
234.4589990281136
 20
250.5804671345473
 30
0.0
 10
233.9065216741213
 20
249.5853236340772
 30
0.0
 10
233.4612991179622
 20
248.9288444612421
 30
0.0
 10
232.4235185517488
 20
247.6494466410816
 30
0.0
 10
231.8420830562701
 20
247.0394500264717
 30
0.0
 10
231.1945307210308
 20
246.4676712109114
 30
0.0
  0
LINE
  5
AC
330
1F
100
AcDbEntity
  8
0
  6
Continuous
 62
     7
370
    25
100
AcDbLine
 10
231.1940140478
 20
246.4675840022
 30
0.0
 11
231.1940140478
 21
225.4441065746
 31
0.0
  0
LINE
  5
AD
330
1F
100
AcDbEntity
  8
0
  6
Continuous
 62
     7
370
    25
100
AcDbLine
 10
238.7940146416
 20
228.2410349729
 30
0.0
 11
238.7940146416
 21
225.9722614693
 31
0.0
  0
LINE
  5
AE
330
1F
100
AcDbEntity
  8
0
  6
Continuous
 62
     7
370
    25
100
AcDbLine
 10
239.2538132533
 20
258.9666081625
 30
0.0
 11
236.6036333531
 21
258.9666081625
 31
0.0
  0
LINE
  5
AF
330
1F
100
AcDbEntity
  8
0
  6
Continuous
 62
     7
370
    25
100
AcDbLine
 10
208.5940137893
 20
228.2410349729
 30
0.0
 11
208.5940137893
 21
225.9722614693
 31
0.0
  0
LINE
  5
B0
330
1F
100
AcDbEntity
  8
0
  6
Continuous
 62
     7
370
    25
100
AcDbLine
 10
210.7843950778
 20
258.9666081625
 30
0.0
 11
208.1338752449
 21
258.9666081625
 31
0.0
  0
SPLINE
  5
B1
330
1F
100
AcDbEntity
  8
0
  6
Continuous
 62
     7
370
    25
100
AcDbSpline
210
0.0
220
0.0
230
1.0
 70
     8
 71
     3
 72
     8
 73
     4
 74
     0
 42
0.000000001
 43
0.00000001
 40
0.0
 40
0.0
 40
0.0
 40
0.0
 40
1.0
 40
1.0
 40
1.0
 40
1.0
 10
211.2440142154644
 20
228.9801947909282
 30
0.0
 10
211.2440142154644
 20
228.7793238030217
 30
0.0
 10
211.2240200653304
 20
228.5809190088501
 30
0.0
 10
211.1585203912203
 20
228.3881271283252
 30
0.0
  0
SPLINE
  5
B2
330
1F
100
AcDbEntity
  8
0
  6
Continuous
 62
     7
370
    25
100
AcDbSpline
210
0.0
220
0.0
230
1.0
 70
     8
 71
     3
 72
    12
 73
     8
 74
     0
 42
0.000000001
 43
0.00000001
 40
0.0
 40
0.0
 40
0.0
 40
0.0
 40
0.2500000000000113
 40
0.2500000000000113
 40
0.5000000000000225
 40
0.5000000000000225
 40
1.0
 40
1.0
 40
1.0
 40
1.0
 10
211.1585203912203
 20
228.388127128325
 30
0.0
 10
211.1479869029009
 20
228.3571228363315
 30
0.0
 10
211.1227343274423
 20
228.3201565335959
 30
0.0
 10
211.0638952324281
 20
228.2687629874693
 30
0.0
 10
211.0306856594262
 20
228.2519579416156
 30
0.0
 10
210.9288310057511
 20
228.2207421210651
 30
0.0
 10
210.8565086844852
 20
228.2239420235509
 30
0.0
 10
210.7843948076931
 20
228.2410353923363
 30
0.0
  0
ARC
  5
B3
330
1F
100
AcDbEntity
  8
0
  6
Continuous
 62
     7
370
    25
100
AcDbCircle
 10
210.7843948077
 20
258.5069888441
 30
0.0
 40
0.4596194077712425
100
AcDbArc
 50
0.0000000058
 51
90.0
  0
LINE
  5
B4
330
1F
100
AcDbEntity
  8
0
  6
Continuous
 62
     7
370
    25
100
AcDbLine
 10
211.2440139443
 20
258.506989296
 30
0.0
 11
211.2440139443
 21
228.9801949667
 31
0.0
  0
SPLINE
  5
B5
330
1F
100
AcDbEntity
  8
0
  6
Continuous
 62
     7
370
    25
100
AcDbSpline
210
0.0
220
0.0
230
1.0
 70
     8
 71
     3
 72
    12
 73
     8
 74
     0
 42
0.000000001
 43
0.00000001
 40
0.0
 40
0.0
 40
0.0
 40
0.0
 40
0.4999999999999953
 40
0.4999999999999953
 40
0.7499999999999977
 40
0.7499999999999977
 40
1.0
 40
1.0
 40
1.0
 40
1.0
 10
236.603633623236
 20
228.2410353923363
 30
0.0
 10
236.5324043231898
 20
228.2241516990776
 30
0.0
 10
236.460017309651
 20
228.2205986988845
 30
0.0
 10
236.3575444777895
 20
228.2518426798085
 30
0.0
 10
236.3243254277111
 20
228.2686228639803
 30
0.0
 10
236.2652993304638
 20
228.3201242799719
 30
0.0
 10
236.2399693601775
 20
228.357335255336
 30
0.0
 10
236.2295080397082
 20
228.3881271283261
 30
0.0
  0
SPLINE
  5
B6
330
1F
100
AcDbEntity
  8
0
  6
Continuous
 62
     7
370
    25
100
AcDbSpline
210
0.0
220
0.0
230
1.0
 70
     8
 71
     3
 72
     8
 73
     4
 74
     0
 42
0.000000001
 43
0.00000001
 40
0.0
 40
0.0
 40
0.0
 40
0.0
 40
1.0
 40
1.0
 40
1.0
 40
1.0
 10
236.2295080397022
 20
228.3881271283439
 30
0.0
 10
236.1634797967774
 20
228.5824747994561
 30
0.0
 10
236.1440142154644
 20
228.7805546698262
 30
0.0
 10
236.1440142154644
 20
228.9801947909291
 30
0.0
  0
LINE
  5
B7
330
1F
100
AcDbEntity
  8
0
  6
Continuous
 62
     7
370
    25
100
AcDbLine
 10
236.1440144867
 20
228.9801949667
 30
0.0
 11
236.1440144867
 21
258.506989296
 31
0.0
  0
ARC
  5
B8
330
1F
100
AcDbEntity
  8
0
  6
Continuous
 62
     7
370
    25
100
AcDbCircle
 10
236.6036336232
 20
258.5069888441
 30
0.0
 40
0.4596194077716405
100
AcDbArc
 50
90.0
 51
180.0
  0
LINE
  5
B9
330
1F
100
AcDbEntity
  8
0
  6
Continuous
 62
     7
370
    25
100
AcDbLine
 10
240.4846016705
 20
224.597929235
 30
0.0
 11
243.1310814261
 21
226.717408936
 31
0.0
  0
LINE
  5
BA
330
1F
100
AcDbEntity
  8
0
  6
Continuous
 62
     7
370
    25
100
AcDbLine
 10
204.2569470048
 20
226.717408936
 30
0.0
 11
206.9034696013
 21
224.5978957074
 31
0.0
  0
SPLINE
  5
BB
330
1F
100
AcDbEntity
  8
0
  6
Continuous
 62
     7
370
    25
100
AcDbSpline
210
0.0
220
0.0
230
1.0
 70
     8
 71
     3
 72
     8
 73
     4
 74
     0
 42
0.000000001
 43
0.00000001
 40
0.0
 40
0.0
 40
0.0
 40
0.0
 40
1.0
 40
1.0
 40
1.0
 40
1.0
 10
211.4440142154672
 20
230.2660481091672
 30
0.0
 10
211.4440142154672
 20
230.0198317972855
 30
0.0
 10
211.4561193201329
 20
229.7735524468694
 30
0.0
 10
211.4940142154663
 20
229.5288473325836
 30
0.0
  0
LINE
  5
BC
330
1F
100
AcDbEntity
  8
0
  6
Continuous
 62
     7
370
    25
100
AcDbLine
 10
211.4440145358
 20
257.8538667443
 30
0.0
 11
211.4440145358
 21
230.2660478311
 31
0.0
  0
SPLINE
  5
BD
330
1F
100
AcDbEntity
  8
0
  6
Continuous
 62
     7
370
    25
100
AcDbSpline
210
0.0
220
0.0
230
1.0
 70
     8
 71
     3
 72
     8
 73
     4
 74
     0
 42
0.000000001
 43
0.00000001
 40
0.0
 40
0.0
 40
0.0
 40
0.0
 40
1.0
 40
1.0
 40
1.0
 40
1.0
 10
235.9440142154671
 20
230.2660481091663
 30
0.0
 10
235.9440142154671
 20
230.019831797281
 30
0.0
 10
235.9319091108011
 20
229.7735524468612
 30
0.0
 10
235.8940142154663
 20
229.5288473325718
 30
0.0
  0
LINE
  5
BE
330
1F
100
AcDbEntity
  8
0
  6
Continuous
 62
     7
370
    25
100
AcDbLine
 10
235.9440138951
 20
230.2660478311
 30
0.0
 11
235.9440138951
 21
257.8538667443
 31
0.0
  0
SPLINE
  5
BF
330
1F
100
AcDbEntity
  8
0
  6
Continuous
 62
     7
370
    25
100
AcDbSpline
210
0.0
220
0.0
230
1.0
 70
     8
 71
     3
 72
    12
 73
     8
 74
     0
 42
0.000000001
 43
0.00000001
 40
0.0
 40
0.0
 40
0.0
 40
0.0
 40
0.5000000000000001
 40
0.5000000000000001
 40
0.75
 40
0.75
 40
1.0
 40
1.0
 40
1.0
 40
1.0
 10
204.2569475382883
 20
226.7174095764238
 30
0.0
 10
204.0806148364247
 20
226.8586288123757
 30
0.0
 10
203.938328627626
 20
227.0387818619063
 30
0.0
 10
203.7936881418378
 20
227.3401397789606
 30
0.0
 10
203.7561593425372
 20
227.4476435315306
 30
0.0
 10
203.7065951230628
 20
227.6656923144287
 30
0.0
 10
203.6940142154644
 20
227.7766520503031
 30
0.0
 10
203.6940142154644
 20
227.8896073591636
 30
0.0
  0
SPLINE
  5
C0
330
1F
100
AcDbEntity
  8
0
  6
Continuous
 62
     7
370
    25
100
AcDbSpline
210
0.0
220
0.0
230
1.0
 70
     8
 71
     3
 72
    12
 73
     8
 74
     0
 42
0.000000001
 43
0.00000001
 40
0.0
 40
0.0
 40
0.0
 40
0.0
 40
0.5000000000000018
 40
0.5000000000000018
 40
0.7500000000000009
 40
0.7500000000000009
 40
1.0
 40
1.0
 40
1.0
 40
1.0
 10
243.6940142154644
 20
227.8896073591636
 30
0.0
 10
243.6940142154644
 20
227.663696489994
 30
0.0
 10
243.6423751200272
 20
227.4400159175783
 30
0.0
 10
243.4976153636298
 20
227.1387162920969
 30
0.0
 10
243.4371784404298
 20
227.042212801188
 30
0.0
 10
243.2979852963203
 20
226.8672064427369
 30
0.0
 10
243.2192473947509
 20
226.7880193154739
 30
0.0
 10
243.1310808926406
 20
226.7174095764239
 30
0.0
  0
LINE
  5
C1
330
1F
100
AcDbEntity
  8
0
  6
Continuous
 62
     7
370
    25
100
AcDbLine
 10
203.6940146625
 20
279.1360860723
 30
0.0
 11
203.6940146625
 21
227.8896069186
 31
0.0
  0
LINE
  5
C2
330
1F
100
AcDbEntity
  8
0
  6
Continuous
 62
     7
370
    25
100
AcDbLine
 10
243.6940137684
 20
279.1360860723
 30
0.0
 11
243.6940137684
 21
227.8896069186
 31
0.0
  0
LINE
  5
C3
330
1F
100
AcDbEntity
  8
0
  6
Continuous
 62
     7
370
    25
100
AcDbLine
 10
235.89401398
 20
227.5788385453
 30
0.0
 11
238.4940142199
 21
227.5788385453
 31
0.0
  0
LINE
  5
C4
330
1F
100
AcDbEntity
  8
0
  6
Continuous
 62
     7
370
    25
100
AcDbLine
 10
235.89401398
 20
229.52884734
 30
0.0
 11
235.89401398
 21
227.5788385453
 31
0.0
  0
LINE
  5
C5
330
1F
100
AcDbEntity
  8
0
  6
Continuous
 62
     7
370
    25
100
AcDbLine
 10
238.4940142199
 20
227.5788385453
 30
0.0
 11
238.4940142199
 21
228.2272513988
 31
0.0
  0
LINE
  5
C6
330
1F
100
AcDbEntity
  8
0
  6
Continuous
 62
     7
370
    25
100
AcDbLine
 10
211.4940144509
 20
229.52884734
 30
0.0
 11
211.4940144509
 21
227.5788385453
 31
0.0
  0
LINE
  5
C7
330
1F
100
AcDbEntity
  8
0
  6
Continuous
 62
     7
370
    25
100
AcDbLine
 10
211.4940144509
 20
227.5788385453
 30
0.0
 11
208.894014211
 21
227.5788385453
 31
0.0
  0
LINE
  5
C8
330
1F
100
AcDbEntity
  8
0
  6
Continuous
 62
     7
370
    25
100
AcDbLine
 10
208.894014211
 20
227.5788385453
 30
0.0
 11
208.894014211
 21
228.2272513988
 31
0.0
  0
LWPOLYLINE
  5
C9
330
1F
100
AcDbEntity
  8
0
  6
Continuous
 62
     7
370
    25
100
AcDbPolyline
 90
        9
 70
   128
 43
0.0
 10
231.6440146804
 20
259.4909893381
 10
231.6440146804
 20
259.4744695383
 10
231.6440146804
 20
259.4470774787
 10
231.6440146804
 20
259.4088299232
 10
231.6440146804
 20
259.3597529488
 10
231.6440146804
 20
259.2998763578
 10
231.6440146804
 20
259.2292392659
 10
231.6440146804
 20
259.1478863763
 10
231.6440156117
 20
259.0558717059
  0
SPLINE
  5
CA
330
1F
100
AcDbEntity
  8
0
  6
Continuous
 62
     7
370
    25
100
AcDbSpline
210
0.0
220
0.0
230
1.0
 70
     8
 71
     3
 72
    24
 73
    20
 74
     0
 42
0.000000001
 43
0.00000001
 40
0.0
 40
0.0
 40
0.0
 40
0.0
 40
0.2500000000000002
 40
0.2500000000000002
 40
0.3125000000000001
 40
0.3125000000000001
 40
0.375
 40
0.375
 40
0.5000000000000002
 40
0.5000000000000002
 40
0.6250000000000004
 40
0.6250000000000004
 40
0.7500000000000008
 40
0.7500000000000008
 40
0.8125000000000006
 40
0.8125000000000006
 40
0.8750000000000003
 40
0.8750000000000003
 40
1.0
 40
1.0
 40
1.0
 40
1.0
 10
215.74402137344
 20
259.4909906312234
 30
0.0
 10
216.9158468068036
 20
259.749610045311
 30
0.0
 10
218.1740363348675
 20
259.9176572033539
 30
0.0
 10
219.8588736885494
 20
260.0561952760604
 30
0.0
 10
220.2027535473446
 20
260.0802102960051
 30
0.0
 10
220.8909956320033
 20
260.1205957950044
 30
0.0
 10
221.2364354191085
 20
260.1370819732588
 30
0.0
 10
222.2766629401943
 20
260.1763990939156
 30
0.0
 10
222.9753410921356
 20
260.1892425344261
 30
0.0
 10
224.3832655209576
 20
260.1896012764653
 30
0.0
 10
225.0974122314406
 20
260.1767755934166
 30
0.0
 10
226.4897568983702
 20
260.1244489739925
 30
0.0
 10
227.1727183460558
 20
260.0851114596953
 30
0.0
 10
228.1779199646315
 20
260.0030357588714
 30
0.0
 10
228.5097684754524
 20
259.9717969349193
 30
0.0
 10
229.1669774625101
 20
259.9005587405435
 30
0.0
 10
229.4925745417318
 20
259.8604867713004
 30
0.0
 10
230.4470377899838
 20
259.7270949913
 30
0.0
 10
231.0580070941498
 20
259.6203195961139
 30
0.0
 10
231.6440071411456
 20
259.4909906127617
 30
0.0
  0
LINE
  5
CB
330
1F
100
AcDbEntity
  8
0
  6
Continuous
 62
     7
370
    25
100
AcDbLine
 10
215.7440137505
 20
259.0558586674
 30
0.0
 11
215.7440137505
 21
259.4909893381
 31
0.0
  0
SPLINE
  5
CC
330
1F
100
AcDbEntity
  8
0
  6
Continuous
 62
     7
370
    25
100
AcDbSpline
210
0.0
220
0.0
230
1.0
 70
     8
 71
     3
 72
    31
 73
    27
 74
     0
 42
0.000000001
 43
0.00000001
 40
0.0
 40
0.0
 40
0.0
 40
0.0
 40
0.0078431133974167
 40
0.0157806280132477
 40
0.0199610204477234
 40
0.0315423093609909
 40
0.0467558899235661
 40
0.0630204274634884
 40
0.1258314315639129
 40
0.1806852389351933
 40
0.251419004652836
 40
0.3773329674650033
 40
0.501326564115418
 40
0.5358451867774399
 40
0.5711706262545254
 40
0.6072641336066
 40
0.6440900923125774
 40
0.6816147585649235
 40
0.7197885325631121
 40
0.7585543623908213
 40
0.7978556506431389
 40
0.8376334298610573
 40
0.8778157826339011
 40
0.9183241262218487
 40
0.9590780758279437
 40
1.0
 40
1.0
 40
1.0
 40
1.0
 10
215.8940142154684
 20
254.9207046878534
 30
0.0
 10
215.9275202524904
 20
254.9390586393108
 30
0.0
 10
215.9949356116279
 20
254.9759874539084
 30
0.0
 10
216.0781733508387
 20
255.0193167905806
 30
0.0
 10
216.1800388107866
 20
255.0724630210183
 30
0.0
 10
216.3141361177924
 20
255.1407129017977
 30
0.0
 10
216.5039248917304
 20
255.2335490176321
 30
0.0
 10
216.9274604700927
 20
255.4309026762269
 30
0.0
 10
217.5580460429034
 20
255.6889704863949
 30
0.0
 10
218.4941284429354
 20
256.0064295257513
 30
0.0
 10
219.8067430030458
 20
256.3578874485317
 30
0.0
 10
221.5794995074911
 20
256.657800872048
 30
0.0
 10
223.2084143763723
 20
256.7453576535633
 30
0.0
 10
224.315855179919
 20
256.7266455500351
 30
0.0
 10
224.9195407584544
 20
256.6978668395702
 30
0.0
 10
225.532832769047
 20
256.6491586282513
 30
0.0
 10
226.1531199525787
 20
256.5793906360997
 30
0.0
 10
226.7773696916393
 20
256.4873830640745
 30
0.0
 10
227.4024689087354
 20
256.3726684354278
 30
0.0
 10
228.0250519948965
 20
256.2348497426966
 30
0.0
 10
228.6414754767372
 20
256.073502534929
 30
0.0
 10
229.2478455517908
 20
255.8884280337795
 30
0.0
 10
229.8407673441885
 20
255.6803142841306
 30
0.0
 10
230.4157494471746
 20
255.4492955174481
 30
0.0
 10
230.9712686998386
 20
255.1975688520185
 30
0.0
 10
231.3193859745296
 20
255.0129579361966
 30
0.0
 10
231.4938025807917
 20
254.9204626429216
 30
0.0
  0
LINE
  5
CD
330
1F
100
AcDbEntity
  8
0
  6
Continuous
 62
     7
370
    25
100
AcDbLine
 10
231.4928777903
 20
254.9213023888
 30
0.0
 11
231.4926798843
 21
246.7553212339
 31
0.0
  0
SPLINE
  5
CE
330
1F
100
AcDbEntity
  8
0
  6
Continuous
 62
     7
370
    25
100
AcDbSpline
210
0.0
220
0.0
230
1.0
 70
     8
 71
     3
 72
    22
 73
    18
 74
     0
 42
0.000000001
 43
0.00000001
 40
0.0
 40
0.0
 40
0.0
 40
0.0
 40
0.0436960022010237
 40
0.1123437654879298
 40
0.1817052210330809
 40
0.2403089796093723
 40
0.299240690507971
 40
0.3657671012301495
 40
0.4323411857615271
 40
0.5060345572773185
 40
0.5797564239905818
 40
0.6546776319002077
 40
0.7293445333355016
 40
0.8042700379477022
 40
0.8787745555497742
 40
0.9520528422884936
 40
1.0
 40
1.0
 40
1.0
 40
1.0
 10
231.1940140478263
 20
231.4806414800196
 30
0.0
 10
231.0217112670917
 20
231.5897921931226
 30
0.0
 10
230.5787155188143
 20
231.8704220333371
 30
0.0
 10
229.7698067011558
 20
232.275184844072
 30
0.0
 10
228.8400410498834
 20
232.6637060744964
 30
0.0
 10
227.904888834461
 20
232.9766395629454
 30
0.0
 10
226.9478038430328
 20
233.2292694034804
 30
0.0
 10
225.9169921858113
 20
233.4267055962344
 30
0.0
 10
224.7817086555777
 20
233.5562220328896
 30
0.0
 10
223.5928122615574
 20
233.5979703339999
 30
0.0
 10
222.3590687614561
 20
233.5373538933374
 30
0.0
 10
221.137732268671
 20
233.3756962613194
 30
0.0
 10
219.9454975617444
 20
233.1135917740135
 30
0.0
 10
218.8048808099625
 20
232.7631172076248
 30
0.0
 10
217.7414000387739
 20
232.3321882629092
 30
0.0
 10
216.8626619360831
 20
231.9012724250979
 30
0.0
 10
216.3835234954913
 20
231.5989790927025
 30
0.0
 10
216.1940143831024
 20
231.4794158595114
 30
0.0
  0
LINE
  5
CF
330
1F
100
AcDbEntity
  8
0
  6
Continuous
 62
     7
370
    25
100
AcDbLine
 10
215.8953965098
 20
246.7691513742
 30
0.0
 11
215.8952372536
 21
254.9206858533
 31
0.0
  0
LINE
  5
D0
330
1F
100
AcDbEntity
  8
0
  6
Continuous
 62
     7
370
    25
100
AcDbLine
 10
211.4940144509
 20
225.9616835075
 30
0.0
 11
211.4940144509
 21
227.5788385453
 31
0.0
  0
LINE
  5
D1
330
1F
100
AcDbEntity
  8
0
  6
Continuous
 62
     7
370
    25
100
AcDbLine
 10
208.894014211
 20
227.5788385453
 30
0.0
 11
208.894014211
 21
225.9616835075
 31
0.0
  0
LINE
  5
D2
330
1F
100
AcDbEntity
  8
0
  6
Continuous
 62
     7
370
    25
100
AcDbLine
 10
235.89401398
 20
225.9616835075
 30
0.0
 11
235.89401398
 21
227.5788385453
 31
0.0
  0
LINE
  5
D3
330
1F
100
AcDbEntity
  8
0
  6
Continuous
 62
     7
370
    25
100
AcDbLine
 10
238.4940142199
 20
227.5788385453
 30
0.0
 11
238.4940142199
 21
225.9616835075
 31
0.0
  0
SPLINE
  5
D4
330
1F
100
AcDbEntity
  8
0
  6
Continuous
 62
     7
370
    25
100
AcDbSpline
210
0.0
220
0.0
230
1.0
 70
     8
 71
     3
 72
    14
 73
    10
 74
     0
 42
0.000000001
 43
0.00000001
 40
0.0
 40
0.0
 40
0.0
 40
0.0
 40
0.25
 40
0.25
 40
0.5
 40
0.5
 40
0.75
 40
0.75
 40
1.0
 40
1.0
 40
1.0
 40
1.0
 10
231.4929388242178
 20
255.5281937486113
 30
0.0
 10
231.4929402113917
 20
255.5017325466146
 30
0.0
 10
231.492941429539
 20
255.4709453879618
 30
0.0
 10
231.4929434813598
 20
255.3995312286566
 30
0.0
 10
231.4929442854312
 20
255.3595710279299
 30
0.0
 10
231.4929450157163
 20
255.2759938470357
 30
0.0
 10
231.4929448824918
 20
255.2310729916398
 30
0.0
 10
231.4929432009485
 20
255.1641232554003
 30
0.0
 10
231.4929416996228
 20
255.1441033500265
 30
0.0
 10
231.4929400943096
 20
255.1383230276596
 30
0.0
  0
SPLINE
  5
D5
330
1F
100
AcDbEntity
  8
0
  6
Continuous
 62
     7
370
    25
100
AcDbSpline
210
0.0
220
0.0
230
1.0
 70
     8
 71
     3
 72
    14
 73
    10
 74
     0
 42
0.000000001
 43
0.00000001
 40
0.0
 40
0.0
 40
0.0
 40
0.0
 40
0.0859264657449675
 40
0.1674802529700664
 40
0.2513206367218211
 40
0.3712867399186268
 40
0.5021189411818943
 40
0.7313127180774439
 40
0.9999999999999999
 40
0.9999999999999999
 40
0.9999999999999999
 40
0.9999999999999999
 10
215.8951921037475
 20
255.1372555155738
 30
0.0
 10
215.8951917162262
 20
255.1401091716465
 30
0.0
 10
215.895190960904
 20
255.1456712651972
 30
0.0
 10
215.8951899708081
 20
255.167865656313
 30
0.0
 10
215.8951890968746
 20
255.2031104051119
 30
0.0
 10
215.8951884844319
 20
255.2551893115671
 30
0.0
 10
215.8951883981539
 20
255.3361775558534
 30
0.0
 10
215.8951894113524
 20
255.4407034634928
 30
0.0
 10
215.8951911736136
 20
255.4973013729384
 30
0.0
 10
215.8951921246382
 20
255.5278450905233
 30
0.0
  0
LINE
  5
D6
330
1F
100
AcDbEntity
  8
0
  6
Continuous
 62
     7
370
    25
100
AcDbLine
 10
231.4928358808
 20
257.4804101171
 30
0.0
 11
231.492938792
 21
255.5281950193
 31
0.0
  0
LINE
  5
D7
330
1F
100
AcDbEntity
  8
0
  6
Continuous
 62
     7
370
    25
100
AcDbLine
 10
215.8951920845
 20
255.527844842
 30
0.0
 11
215.895261468
 21
257.4804101171
 31
0.0
  0
SPLINE
  5
D8
330
1F
100
AcDbEntity
  8
0
  6
Continuous
 62
     7
370
    25
100
AcDbSpline
210
0.0
220
0.0
230
1.0
 70
     8
 71
     3
 72
    14
 73
    10
 74
     0
 42
0.000000001
 43
0.00000001
 40
0.0
 40
0.0
 40
0.0
 40
0.0
 40
0.0004253954600769
 40
0.0004253954600769
 40
0.0004253954600769
 40
0.0008507909225051
 40
0.0008507909225051
 40
0.0008507909225051
 40
0.0016506256811204
 40
0.0016506256811204
 40
0.0016506256811204
 40
0.0016506256811204
 10
231.4929400944372
 20
255.1383219893678
 30
0.0
 10
231.4929347515834
 20
255.1196186324777
 30
0.0
 10
231.4929294087276
 20
255.1009154752007
 30
0.0
 10
231.4929240658431
 20
255.0822153961585
 30
0.0
 10
231.4929187229586
 20
255.063515317064
 30
0.0
 10
231.4929133800246
 20
255.0448205564641
 30
0.0
 10
231.4929080368934
 20
255.0261469241428
 30
0.0
 10
231.4928979906606
 20
254.9910364893708
 30
0.0
 10
231.492887943681
 20
254.9560060907016
 30
0.0
 10
231.4928778959996
 20
254.9210512064028
 30
0.0
  0
LINE
  5
D9
330
1F
100
AcDbEntity
  8
0
  6
Continuous
 62
     7
370
    25
100
AcDbLine
 10
215.8952372536
 20
254.9207063424
 30
0.0
 11
215.8951920845
 21
255.1372556048
 31
0.0
  0
SPLINE
  5
DA
330
1F
100
AcDbEntity
  8
0
  6
Continuous
 62
     7
370
    25
100
AcDbSpline
210
0.0
220
0.0
230
1.0
 70
     8
 71
     3
 72
    11
 73
     7
 74
     0
 42
0.000000001
 43
0.00000001
 40
0.0
 40
0.0
 40
0.0
 40
0.0
 40
0.027398604237817
 40
0.4348579304494499
 40
0.9197660129268851
 40
1.0
 40
1.0
 40
1.0
 40
1.0
 10
231.492829361553
 20
257.54318870925
 30
0.0
 10
231.4928293593303
 20
257.5433429810972
 30
0.0
 10
231.4928293240527
 20
257.5457915122574
 30
0.0
 10
231.492832802224
 20
257.529660824329
 30
0.0
 10
231.4928346305114
 20
257.5040444562355
 30
0.0
 10
231.4928357253721
 20
257.4833483687813
 30
0.0
 10
231.492835880811
 20
257.4804101171403
 30
0.0
  0
SPLINE
  5
DB
330
1F
100
AcDbEntity
  8
0
  6
Continuous
 62
     7
370
    25
100
AcDbSpline
210
0.0
220
0.0
230
1.0
 70
     8
 71
     3
 72
    10
 73
     6
 74
     0
 42
0.000000001
 43
0.00000001
 40
0.0
 40
0.0
 40
0.0
 40
0.0
 40
0.4717106410229315
 40
0.9490859247447931
 40
1.0
 40
1.0
 40
1.0
 40
1.0
 10
215.8952614679883
 20
257.4804101171403
 30
0.0
 10
215.895262132956
 20
257.4969943509736
 30
0.0
 10
215.8952634708769
 20
257.5303619741201
 30
0.0
 10
215.8952643164448
 20
257.5433910691996
 30
0.0
 10
215.8952659656577
 20
257.5409061706968
 30
0.0
 10
215.8952661246011
 20
257.5406666877179
 30
0.0
  0
LINE
  5
DC
330
1F
100
AcDbEntity
  8
0
  6
Continuous
 62
     7
370
    25
100
AcDbLine
 10
231.6440146804
 20
253.0871175262
 30
0.0
 11
231.5005765684
 21
253.1398518043
 31
0.0
  0
LINE
  5
DD
330
1F
100
AcDbEntity
  8
0
  6
Continuous
 62
     7
370
    25
100
AcDbLine
 10
215.891193451
 20
253.1412106039
 30
0.0
 11
215.7440137505
 21
253.0871184575
 31
0.0
  0
SPLINE
  5
DE
330
1F
100
AcDbEntity
  8
0
  6
Continuous
 62
     7
370
    25
100
AcDbSpline
210
0.0
220
0.0
230
1.0
 70
     8
 71
     3
 72
    18
 73
    14
 74
     0
 42
0.000000001
 43
0.00000001
 40
0.0
 40
0.0
 40
0.0
 40
0.0
 40
0.2499999999999999
 40
0.2499999999999999
 40
0.4999999999999999
 40
0.4999999999999999
 40
0.5624999999999999
 40
0.5624999999999999
 40
0.6249999999999999
 40
0.6249999999999999
 40
0.7499999999999999
 40
0.7499999999999999
 40
1.0
 40
1.0
 40
1.0
 40
1.0
 10
238.7940142154602
 20
224.4309632165827
 30
0.0
 10
236.3243273546828
 20
224.4124905619397
 30
0.0
 10
233.8347432600259
 20
224.3987497050075
 30
0.0
 10
228.8173967076139
 20
224.3803472577513
 30
0.0
 10
226.2896295998532
 20
224.375686773253
 30
0.0
 10
223.1056779419267
 20
224.37562638603
 30
0.0
 10
222.4676700905008
 20
224.3759038492135
 30
0.0
 10
221.1891877529183
 20
224.3770453705135
 30
0.0
 10
220.5476761673125
 20
224.3779115441115
 30
0.0
 10
218.6279734776773
 20
224.3813876816414
 30
0.0
 10
217.3558214622536
 20
224.3848672352804
 30
0.0
 10
213.5619730235513
 20
224.3987403682707
 30
0.0
 10
211.0627765614112
 20
224.4125520664102
 30
0.0
 10
208.594014215467
 20
224.4309872136183
 30
0.0
  0
LINE
  5
DF
330
1F
100
AcDbEntity
  8
0
  6
Continuous
 62
     7
370
    25
100
AcDbLine
 10
239.2579203859
 20
224.1672167587
 30
0.0
 11
208.130108045
 21
224.1672167587
 31
0.0
  0
LWPOLYLINE
  5
E0
330
1F
100
AcDbEntity
  8
0
  6
Continuous
 62
     7
370
    25
100
AcDbPolyline
 90
       20
 70
   128
 43
0.0
 10
233.19401391
 20
224.2166625368
 10
232.7433860317
 20
224.2179291355
 10
232.0816347763
 20
224.2248991536
 10
231.5451939046
 20
224.2372131007
 10
231.1945332602
 20
224.253494482
 10
231.0695874892
 20
224.2718918281
 10
231.1842300385
 20
224.2903264272
 10
231.5253585964
 20
224.3067270177
 10
232.0546562239
 20
224.319249581
 10
232.7120544776
 20
224.3264747816
 10
233.423753494
 20
224.3275998192
 10
234.1100134343
 20
224.3224887209
 10
234.6930679321
 20
224.3117151814
 10
235.1069020495
 20
224.2964973705
 10
235.3050250947
 20
224.2785470592
 10
235.2649903312
 20
224.2598870801
 10
234.9914851054
 20
224.242638986
 10
234.5156044155
 20
224.2287380653
 10
233.8906739294
 20
224.2197396266
 10
233.19401391
 20
224.2166625368
  0
LWPOLYLINE
  5
E1
330
1F
100
AcDbEntity
  8
0
  6
Continuous
 62
     7
370
    25
100
AcDbPolyline
 90
       20
 70
   128
 43
0.0
 10
214.1940145209
 20
224.2166625368
 10
213.7433857113
 20
224.2179291355
 10
213.0816344559
 20
224.2248991536
 10
212.5451935843
 20
224.2372131007
 10
212.1945338711
 20
224.253494482
 10
212.0695876345
 20
224.2718918281
 10
212.1842297181
 20
224.2903264272
 10
212.5253582761
 20
224.3067270177
 10
213.0546568349
 20
224.319249581
 10
213.7120541573
 20
224.3264747816
 10
214.423754105
 20
224.3275998192
 10
215.1100131139
 20
224.3224887209
 10
215.6930676117
 20
224.3117151814
 10
216.1069021948
 20
224.2964973705
 10
216.3050247744
 20
224.2785470592
 10
216.2649904765
 20
224.2598870801
 10
215.9914847851
 20
224.242638986
 10
215.5156050265
 20
224.2287380653
 10
214.8906745404
 20
224.2197396266
 10
214.1940145209
 20
224.2166625368
  0
LINE
  5
E2
330
1F
100
AcDbEntity
  8
0
  6
Continuous
 62
     7
370
    25
100
AcDbLine
 10
208.5940137893
 20
225.9722614693
 30
0.0
 11
208.5940137893
 21
224.4309878009
 31
0.0
  0
LINE
  5
E3
330
1F
100
AcDbEntity
  8
0
  6
Continuous
 62
     7
370
    25
100
AcDbLine
 10
238.7940146416
 20
225.9722614693
 30
0.0
 11
238.7940146416
 21
224.4309635865
 31
0.0
  0
SPLINE
  5
E4
330
1F
100
AcDbEntity
  8
0
  6
Continuous
 62
     7
370
    25
100
AcDbSpline
210
0.0
220
0.0
230
1.0
 70
     8
 71
     3
 72
     8
 73
     4
 74
     0
 42
0.000000001
 43
0.00000001
 40
0.0
 40
0.0
 40
0.0
 40
0.0
 40
1.0
 40
1.0
 40
1.0
 40
1.0
 10
240.484601312445
 20
224.5979285827106
 30
0.0
 10
240.1377606536207
 20
224.3201549709182
 30
0.0
 10
239.7022836937468
 20
224.1672165482724
 30
0.0
 10
239.2579205740567
 20
224.1672165482724
 30
0.0
  0
SPLINE
  5
E5
330
1F
100
AcDbEntity
  8
0
  6
Continuous
 62
     7
370
    25
100
AcDbSpline
210
0.0
220
0.0
230
1.0
 70
     8
 71
     3
 72
     8
 73
     4
 74
     0
 42
0.000000001
 43
0.00000001
 40
0.0
 40
0.0
 40
0.0
 40
0.0
 40
1.0
 40
1.0
 40
1.0
 40
1.0
 10
208.130107857167
 20
224.1672165482724
 30
0.0
 10
207.6858372745576
 20
224.1672165483361
 30
0.0
 10
207.2503027575412
 20
224.3201269560548
 30
0.0
 10
206.9034689209054
 20
224.5978951048517
 30
0.0
  0
SPLINE
  5
E6
330
1F
100
AcDbEntity
  8
0
  6
Continuous
 62
     7
370
    25
100
AcDbSpline
210
0.0
220
0.0
230
1.0
 70
     8
 71
     3
 72
     9
 73
     5
 74
     0
 42
0.000000001
 43
0.00000001
 40
0.0
 40
0.0
 40
0.0
 40
0.0
 40
0.5033078594579806
 40
1.0
 40
1.0
 40
1.0
 40
1.0
 10
211.5508567929218
 20
258.1985631989746
 30
0.0
 10
211.4566625840064
 20
258.267394750648
 30
0.0
 10
211.2695122998508
 20
258.4041530992013
 30
0.0
 10
211.2524758266197
 20
258.4603672244923
 30
0.0
 10
211.2440139442632
 20
258.4882883387118
 30
0.0
  0
SPLINE
  5
E7
330
1F
100
AcDbEntity
  8
0
  6
Continuous
 62
     7
370
    25
100
AcDbSpline
210
0.0
220
0.0
230
1.0
 70
     8
 71
     3
 72
     9
 73
     5
 74
     0
 42
0.000000001
 43
0.00000001
 40
0.0
 40
0.0
 40
0.0
 40
0.0
 40
0.7546812028978065
 40
1.0
 40
1.0
 40
1.0
 40
1.0
 10
236.1440144866655
 20
258.4882827507763
 30
0.0
 10
236.1303909036335
 20
258.4452482308599
 30
0.0
 10
236.1123388003352
 20
258.3882247887082
 30
0.0
 10
235.8923460561225
 20
258.2371636146636
 30
0.0
 10
235.8383777007411
 20
258.2001054691582
 30
0.0
  0
SPLINE
  5
E8
330
1F
100
AcDbEntity
  8
0
  6
Continuous
 62
     7
370
    25
100
AcDbSpline
210
0.0
220
0.0
230
1.0
 70
    24
 71
     3
 72
    13
 73
     9
 74
     0
 42
0.000000001
 43
0.00000001
 40
0.0
 40
0.0
 40
0.0
 40
0.0
 40
0.1811026881537406
 40
0.3579661387135374
 40
0.5322525972740592
 40
0.7152931084224456
 40
0.8912783592499919
 40
1.0
 40
1.0
 40
1.0
 40
1.0
 10
210.7843950778196
 20
258.9666081624537
 30
0.0
 10
210.8003124949197
 20
258.9666081624537
 30
0.0
 10
210.8317747354623
 20
258.9666081624537
 30
0.0
 10
211.0967763102173
 20
258.9666081624537
 30
0.0
 10
211.5260527288437
 20
258.9666081624537
 30
0.0
 10
212.1561043402523
 20
258.9666081624537
 30
0.0
 10
212.8709935480094
 20
258.9666081624537
 30
0.0
 10
213.4524297910538
 20
258.9666081624537
 30
0.0
 10
213.6744641154955
 20
258.9666081624537
 30
0.0
  0
SPLINE
  5
E9
330
1F
100
AcDbEntity
  8
0
  6
Continuous
 62
     7
370
    25
100
AcDbSpline
210
0.0
220
0.0
230
1.0
 70
    24
 71
     3
 72
    12
 73
     8
 74
     0
 42
0.000000001
 43
0.00000001
 40
0.0
 40
0.0
 40
0.0
 40
0.0
 40
0.1076755433507049
 40
0.2851244379649166
 40
0.4697991835123365
 40
0.7321651358095208
 40
1.0
 40
1.0
 40
1.0
 40
1.0
 10
233.6901797369073
 20
258.9666081624537
 30
0.0
 10
233.9111210021345
 20
258.9666081624537
 30
0.0
 10
234.4961726499908
 20
258.9666081624537
 30
0.0
 10
235.2183342615976
 20
258.9666081624537
 30
0.0
 10
235.9536982588278
 20
258.9666081624537
 30
0.0
 10
236.4948135184431
 20
258.9666081624537
 30
0.0
 10
236.5671114953217
 20
258.9666081624537
 30
0.0
 10
236.6036333531091
 20
258.9666081624537
 30
0.0
  0
SPLINE
  5
EA
330
1F
100
AcDbEntity
  8
0
  6
Continuous
 62
     7
370
    25
100
AcDbSpline
210
0.0
220
0.0
230
1.0
 70
     8
 71
     3
 72
    10
 73
     6
 74
     0
 42
0.000000001
 43
0.00000001
 40
0.0
 40
0.0
 40
0.0
 40
0.0
 40
0.5
 40
0.5
 40
1.0
 40
1.0
 40
1.0
 40
1.0
 10
231.4925664856839
 20
252.8368460292125
 30
0.0
 10
231.4925684721562
 20
252.8061637572578
 30
0.0
 10
231.4925701471535
 20
252.7617718901929
 30
0.0
 10
231.492572165506
 20
252.6568600908296
 30
0.0
 10
231.4925724365483
 20
252.5945345145987
 30
0.0
 10
231.492571534188
 20
252.544808969597
 30
0.0
  0
SPLINE
  5
EB
330
1F
100
AcDbEntity
  8
0
  6
Continuous
 62
     7
370
    25
100
AcDbSpline
210
0.0
220
0.0
230
1.0
 70
     8
 71
     3
 72
    13
 73
     9
 74
     0
 42
0.000000001
 43
0.00000001
 40
0.0
 40
0.0
 40
0.0
 40
0.0
 40
0.1235194745732021
 40
0.2446551143789059
 40
0.3685856165522086
 40
0.5001600784062834
 40
0.7516635172084876
 40
1.0
 40
1.0
 40
1.0
 40
1.0
 10
215.8954614329023
 20
252.5443204154991
 30
0.0
 10
215.895461299335
 20
252.5572624500998
 30
0.0
 10
215.8954610347781
 20
252.5828967475779
 30
0.0
 10
215.895460924393
 20
252.6244839973875
 30
0.0
 10
215.8954610428323
 20
252.6670230220805
 30
0.0
 10
215.8954615022987
 20
252.7221034373947
 30
0.0
 10
215.8954624848774
 20
252.787210478778
 30
0.0
 10
215.8954637810188
 20
252.8205861735697
 30
0.0
 10
215.8954644249834
 20
252.8371682877571
 30
0.0
  0
SPLINE
  5
EC
330
1F
100
AcDbEntity
  8
0
  6
Continuous
 62
     7
370
    25
100
AcDbSpline
210
0.0
220
0.0
230
1.0
 70
     8
 71
     3
 72
    14
 73
    10
 74
     0
 42
0.000000001
 43
0.00000001
 40
0.0
 40
0.0
 40
0.0
 40
0.0
 40
0.1033965772235292
 40
0.2525403938780537
 40
0.4016716957740191
 40
0.5568950170186682
 40
0.7121220942930961
 40
0.8887896783305821
 40
1.0
 40
1.0
 40
1.0
 40
1.0
 10
231.1940140478263
 20
227.4737350674777
 30
0.0
 10
230.6951143698966
 20
227.384009446745
 30
0.0
 10
229.4765796315791
 20
227.1648596043685
 30
0.0
 10
227.4646427247253
 20
226.9512809443779
 30
0.0
 10
225.1685070005794
 20
226.8074600410139
 30
0.0
 10
222.821863476296
 20
226.7911344644411
 30
0.0
 10
220.3487041141046
 20
226.9113822411651
 30
0.0
 10
218.1208415080986
 20
227.1306172890978
 30
0.0
 10
216.7309459427752
 20
227.3791406462352
 30
0.0
 10
216.1940143831024
 20
227.4751478838234
 30
0.0
  0
LINE
  5
ED
330
1F
100
AcDbEntity
  8
0
  6
Continuous
 62
     7
370
    25
100
AcDbLine
 10
238.7940146416
 20
228.1504172864
 30
0.0
 11
238.4940142199
 21
228.1504172864
 31
0.0
  0
LINE
  5
EE
330
1F
100
AcDbEntity
  8
0
  6
Continuous
 62
     7
370
    25
100
AcDbLine
 10
208.894014211
 20
228.1504172864
 30
0.0
 11
208.5940137893
 21
228.1504172864
 31
0.0
  0
LINE
  5
EF
330
1F
100
AcDbEntity
  8
0
  6
Continuous
 62
     7
370
    25
100
AcDbLine
 10
238.7940146416
 20
227.7926702084
 30
0.0
 11
238.4940142199
 21
227.7830952811
 31
0.0
  0
LINE
  5
F0
330
1F
100
AcDbEntity
  8
0
  6
Continuous
 62
     7
370
    25
100
AcDbLine
 10
208.894014211
 20
227.7833988922
 30
0.0
 11
208.5940137893
 21
227.7927242252
 31
0.0
  0
SPLINE
  5
F1
330
1F
100
AcDbEntity
  8
0
  6
Continuous
 62
     7
370
    25
100
AcDbSpline
210
0.0
220
0.0
230
1.0
 70
     8
 71
     3
 72
    24
 73
    20
 74
     0
 42
0.000000001
 43
0.00000001
 40
0.0
 40
0.0
 40
0.0
 40
0.0
 40
0.0469288838296193
 40
0.0887151159747529
 40
0.1253317901715239
 40
0.1566686865734841
 40
0.1988642940261934
 40
0.2395029809516256
 40
0.309868089530176
 40
0.3776062709083514
 40
0.4429528583335834
 40
0.5071599328256919
 40
0.5779776248378461
 40
0.6637440027283458
 40
0.7652604518101846
 40
0.8242532947170378
 40
0.8831778009813461
 40
0.9417578129744351
 40
1.0
 40
1.0
 40
1.0
 40
1.0
 10
230.810222838405
 20
292.1355656806648
 30
0.0
 10
231.1636943438995
 20
292.1322378195021
 30
0.0
 10
231.8319025569388
 20
292.1259467772931
 30
0.0
 10
232.7755013430998
 20
292.0965789098175
 30
0.0
 10
233.6004174261981
 20
292.0454575111244
 30
0.0
 10
234.4257250736146
 20
291.9657417024786
 30
0.0
 10
235.2761570913518
 20
291.8461509067673
 30
0.0
 10
236.403870223448
 20
291.620571685494
 30
0.0
 10
237.6890618872527
 20
291.2422920376371
 30
0.0
 10
239.0678249411782
 20
290.6186376144361
 30
0.0
 10
240.2737165232519
 20
289.8133070627919
 30
0.0
 10
241.3106375818835
 20
288.8010506197182
 30
0.0
 10
242.20084098494
 20
287.5159874455021
 30
0.0
 10
242.9331395454843
 20
285.8702894578786
 30
0.0
 10
243.3498479254148
 20
284.2211122371879
 30
0.0
 10
243.5605106721185
 20
282.7325090533008
 30
0.0
 10
243.6521996315504
 20
281.5272679198147
 30
0.0
 10
243.6852127886574
 20
280.3277689429299
 30
0.0
 10
243.6848937996111
 20
279.532601472542
 30
0.0
 10
243.6847347663123
 20
279.1361674649988
 30
0.0
  0
SPLINE
  5
F2
330
1F
100
AcDbEntity
  8
0
  6
Continuous
 62
     7
370
    25
100
AcDbSpline
210
0.0
220
0.0
230
1.0
 70
     8
 71
     3
 72
    32
 73
    28
 74
     0
 42
0.000000001
 43
0.00000001
 40
0.0
 40
0.0
 40
0.0
 40
0.0
 40
0.1249999999999994
 40
0.1249999999999994
 40
0.2499999999999988
 40
0.2499999999999988
 40
0.3124999999999986
 40
0.3124999999999986
 40
0.3749999999999983
 40
0.3749999999999983
 40
0.4374999999999981
 40
0.4374999999999981
 40
0.4999999999999979
 40
0.4999999999999979
 40
0.5312499999999983
 40
0.5312499999999983
 40
0.5624999999999987
 40
0.5624999999999987
 40
0.624999999999999
 40
0.624999999999999
 40
0.6874999999999992
 40
0.6874999999999992
 40
0.7499999999999994
 40
0.7499999999999994
 40
0.8749999999999997
 40
0.8749999999999997
 40
1.0
 40
1.0
 40
1.0
 40
1.0
 10
203.6941105067635
 20
279.1360859134853
 30
0.0
 10
203.6941105066876
 20
280.0315841388241
 30
0.0
 10
203.6972074163798
 20
280.9267996041245
 30
0.0
 10
203.8119930768439
 20
282.7073156726709
 30
0.0
 10
203.9209750456035
 20
283.5928634157571
 30
0.0
 10
204.2127216712467
 20
284.9094731397374
 30
0.0
 10
204.3317707679776
 20
285.3465941543935
 30
0.0
 10
204.6172027437873
 20
286.1970270115426
 30
0.0
 10
204.7839204175741
 20
286.6125188354375
 30
0.0
 10
205.1756592016418
 20
287.4198800646125
 30
0.0
 10
205.4032892097038
 20
287.8149737711146
 30
0.0
 10
205.9139110288473
 20
288.5516116927285
 30
0.0
 10
206.1971660364642
 20
288.8948026528806
 30
0.0
 10
206.6663011087111
 20
289.3697961330531
 30
0.0
 10
206.8300364183293
 20
289.5215117459041
 30
0.0
 10
207.1722941730986
 20
289.8116460260129
 30
0.0
 10
207.351707449181
 20
289.9506779112372
 30
0.0
 10
207.9048927132489
 20
290.3430691004114
 30
0.0
 10
208.2915823698713
 20
290.5710538972574
 30
0.0
 10
209.0946315797873
 20
290.9713131968807
 30
0.0
 10
209.5131062421456
 20
291.1442574284062
 30
0.0
 10
210.3653128422842
 20
291.4392592668675
 30
0.0
 10
210.7963484015219
 20
291.5607567887848
 30
0.0
 10
212.1012264941949
 20
291.8631891971751
 30
0.0
 10
212.9868904511839
 20
291.9818002756368
 30
0.0
 10
214.7778989706595
 20
292.1152641776407
 30
0.0
 10
215.6790599117344
 20
292.1275715264609
 30
0.0
 10
216.5784830998768
 20
292.1355716849986
 30
0.0
  0
SPLINE
  5
F3
330
1F
100
AcDbEntity
  8
0
  6
Continuous
 62
     7
370
    25
100
AcDbSpline
210
0.0
220
0.0
230
1.0
 70
     8
 71
     3
 72
     9
 73
     5
 74
     0
 42
0.000000001
 43
0.00000001
 40
0.0
 40
0.0
 40
0.0
 40
0.0
 40
0.5121635696876621
 40
1.0
 40
1.0
 40
1.0
 40
1.0
 10
216.5784830998931
 20
292.1355716829887
 30
0.0
 10
216.5787400515618
 20
292.1355739688087
 30
0.0
 10
216.5792417500111
 20
292.1355784318752
 30
0.0
 10
216.5811077313488
 20
292.1355950235066
 30
0.0
 10
216.5820180250236
 20
292.1356031175089
 30
0.0
  0
SPLINE
  5
F4
330
1F
100
AcDbEntity
  8
0
  6
Continuous
 62
     7
370
    25
100
AcDbSpline
210
0.0
220
0.0
230
1.0
 70
     8
 71
     3
 72
    32
 73
    28
 74
     0
 42
0.000000001
 43
0.00000001
 40
0.0
 40
0.0
 40
0.0
 40
0.0
 40
0.1249999999999985
 40
0.1249999999999985
 40
0.2499999999999971
 40
0.2499999999999971
 40
0.3124999999999964
 40
0.3124999999999964
 40
0.3749999999999958
 40
0.3749999999999958
 40
0.4374999999999954
 40
0.4374999999999954
 40
0.499999999999995
 40
0.499999999999995
 40
0.531249999999995
 40
0.531249999999995
 40
0.5624999999999949
 40
0.5624999999999949
 40
0.6249999999999957
 40
0.6249999999999957
 40
0.6874999999999963
 40
0.6874999999999963
 40
0.749999999999997
 40
0.749999999999997
 40
0.8749999999999984
 40
0.8749999999999984
 40
1.0
 40
1.0
 40
1.0
 40
1.0
 10
230.8095453309292
 20
292.1355716849997
 30
0.0
 10
231.705082359874
 20
292.1276060931646
 30
0.0
 10
232.6001923243728
 20
292.1153927451564
 30
0.0
 10
234.3796582270806
 20
291.9840021424116
 30
0.0
 10
235.264263132143
 20
291.8673012129679
 30
0.0
 10
236.5783160728577
 20
291.5643945754709
 30
0.0
 10
237.0144092582874
 20
291.4416763947841
 30
0.0
 10
237.862368066023
 20
291.1490502648081
 30
0.0
 10
238.2764034365547
 20
290.9787898341443
 30
0.0
 10
239.0803007781175
 20
290.5800542406358
 30
0.0
 10
239.473362671448
 20
290.348939232888
 30
0.0
 10
240.205388381545
 20
289.8317795933427
 30
0.0
 10
240.5460169270643
 20
289.5454567540331
 30
0.0
 10
241.0167925769093
 20
289.0720729933973
 30
0.0
 10
241.1670380777696
 20
288.906978011585
 30
0.0
 10
241.4541040273248
 20
288.5621155399655
 30
0.0
 10
241.5915327569208
 20
288.3814466357831
 30
0.0
 10
241.9789328056745
 20
287.8248300696944
 30
0.0
 10
242.203483597872
 20
287.4361530034955
 30
0.0
 10
242.5967450992069
 20
286.6296509240402
 30
0.0
 10
242.7661134747669
 20
286.2096852100413
 30
0.0
 10
243.0538588834037
 20
285.3550890989417
 30
0.0
 10
243.1717260712219
 20
284.9230790626596
 30
0.0
 10
243.4630772157052
 20
283.6157697017835
 30
0.0
 10
243.5739993774635
 20
282.7291347064608
 30
0.0
 10
243.6907926339965
 20
280.9368303465679
 30
0.0
 10
243.6939179241358
 20
280.0355660473221
 30
0.0
 10
243.693917924049
 20
279.1360859138626
 30
0.0
  0
SPLINE
  5
F5
330
1F
100
AcDbEntity
  8
0
  6
Continuous
 62
     7
370
    25
100
AcDbSpline
210
0.0
220
0.0
230
1.0
 70
     8
 71
     3
 72
     9
 73
     5
 74
     0
 42
0.000000001
 43
0.00000001
 40
0.0
 40
0.0
 40
0.0
 40
0.0
 40
0.4878364881478593
 40
1.0
 40
1.0
 40
1.0
 40
1.0
 10
230.8060104036662
 20
292.1356031175287
 30
0.0
 10
230.8069206977833
 20
292.1355950235226
 30
0.0
 10
230.8087866798066
 20
292.1355784318852
 30
0.0
 10
230.8092883789283
 20
292.1355739688127
 30
0.0
 10
230.8095453309124
 20
292.1355716829897
 30
0.0
  0
SPLINE
  5
F6
330
1F
100
AcDbEntity
  8
0
  6
Continuous
 62
     7
370
    25
100
AcDbSpline
210
0.0
220
0.0
230
1.0
 70
     8
 71
     3
 72
    12
 73
     8
 74
     0
 42
0.000000001
 43
0.00000001
 40
0.0
 40
0.0
 40
0.0
 40
0.0
 40
0.1666822053750177
 40
0.3333488125275562
 40
0.5000001392492995
 40
0.749982684370753
 40
1.0
 40
1.0
 40
1.0
 40
1.0
 10
216.5820180250108
 20
292.1356031175088
 30
0.0
 10
217.372295223178
 20
292.1419504683989
 30
0.0
 10
218.9527756648902
 20
292.1546445761902
 30
0.0
 10
221.3234584851855
 20
292.1648191441884
 30
0.0
 10
224.0891192500173
 20
292.1688852949393
 30
0.0
 10
227.2499949105483
 20
292.162653084282
 30
0.0
 10
229.6206169541228
 20
292.1446201911219
 30
0.0
 10
230.8060104036652
 20
292.1356031175287
 30
0.0
  0
LINE
  5
F7
330
1F
100
AcDbEntity
  8
0
  6
Continuous
 62
     8
370
    18
100
AcDbLine
 10
211.9372364521
 20
254.2107339981
 30
0.0
 11
211.9372364521
 21
226.410588439
 31
0.0
  0
LINE
  5
F8
330
1F
100
AcDbEntity
  8
0
  6
Continuous
 62
     8
370
    18
100
AcDbLine
 10
235.4507919788
 20
226.410588439
 30
0.0
 11
235.4507919788
 21
254.1579810935
 31
0.0
  0
SPLINE
  5
F9
330
1F
100
AcDbEntity
  8
0
  6
Continuous
 62
     8
370
    18
100
AcDbSpline
210
0.0
220
0.0
230
1.0
 70
     8
 71
     3
 72
    22
 73
    18
 74
     0
 42
0.000000001
 43
0.00000001
 40
0.0
 40
0.0
 40
0.0
 40
0.0
 40
0.125
 40
0.125
 40
0.25
 40
0.25
 40
0.375
 40
0.375
 40
0.5
 40
0.5
 40
0.625
 40
0.625
 40
0.75
 40
0.75
 40
0.875
 40
0.875
 40
1.0
 40
1.0
 40
1.0
 40
1.0
 10
239.2537593288528
 20
225.9722623897639
 30
0.0
 10
239.2537615683873
 20
226.0283293881092
 30
0.0
 10
239.2537638079218
 20
226.5064672538665
 30
0.0
 10
239.2537682869907
 20
228.2359862469106
 30
0.0
 10
239.2537705265252
 20
229.4867092031368
 30
0.0
 10
239.2537750055942
 20
232.5746243365783
 30
0.0
 10
239.2537772451287
 20
234.4106414030335
 30
0.0
 10
239.2537817241977
 20
238.3945491930623
 30
0.0
 10
239.2537839637322
 20
240.5409238345196
 30
0.0
 10
239.2537884428011
 20
244.8242493230559
 30
0.0
 10
239.2537906823356
 20
246.959570144162
 30
0.0
 10
239.2537951614046
 20
250.9009017176737
 30
0.0
 10
239.2537974009391
 20
252.7054125904061
 30
0.0
 10
239.2538018800081
 20
255.7145509164357
 30
0.0
 10
239.2538041195426
 20
256.9180332376056
 30
0.0
 10
239.2538085986115
 20
258.54437135803
 30
0.0
 10
239.253810838146
 20
258.9666082518606
 30
0.0
 10
239.2538130776805
 20
258.9666082518606
 30
0.0
  0
LINE
  5
FA
330
1F
100
AcDbEntity
  8
0
  6
Continuous
 62
     8
370
    18
100
AcDbLine
 10
239.2542835712
 20
225.9722614693
 30
0.0
 11
238.7940146416
 21
225.9722614693
 31
0.0
  0
LINE
  5
FB
330
1F
100
AcDbEntity
  8
0
  6
Continuous
 62
     8
370
    18
100
AcDbLine
 10
236.6036333531
 20
228.2410349729
 30
0.0
 11
238.7940146416
 21
228.2410349729
 31
0.0
  0
LINE
  5
FC
330
1F
100
AcDbEntity
  8
0
  6
Continuous
 62
     8
370
    18
100
AcDbLine
 10
236.6036333531
 20
258.9666081625
 30
0.0
 11
236.6036333531
 21
228.2410349729
 31
0.0
  0
LINE
  5
FD
330
1F
100
AcDbEntity
  8
0
  6
Continuous
 62
     8
370
    18
100
AcDbLine
 10
208.5940137893
 20
225.9722614693
 30
0.0
 11
208.1342691943
 21
225.9722614693
 31
0.0
  0
SPLINE
  5
FE
330
1F
100
AcDbEntity
  8
0
  6
Continuous
 62
     8
370
    18
100
AcDbSpline
210
0.0
220
0.0
230
1.0
 70
     8
 71
     3
 72
    22
 73
    18
 74
     0
 42
0.000000001
 43
0.00000001
 40
0.0
 40
0.0
 40
0.0
 40
0.0
 40
0.125
 40
0.125
 40
0.25
 40
0.25
 40
0.3749999999999999
 40
0.3749999999999999
 40
0.4999999999999999
 40
0.4999999999999999
 40
0.6249999999999999
 40
0.6249999999999999
 40
0.7499999999999999
 40
0.7499999999999999
 40
0.875
 40
0.875
 40
1.0
 40
1.0
 40
1.0
 40
1.0
 10
208.1342153532482
 20
258.9666082518606
 30
0.0
 10
208.1342175927827
 20
258.9666082518606
 30
0.0
 10
208.1342198323172
 20
258.54437135803
 30
0.0
 10
208.1342243113862
 20
256.9180332376056
 30
0.0
 10
208.1342265509207
 20
255.7145509164357
 30
0.0
 10
208.1342310299896
 20
252.7054125904061
 30
0.0
 10
208.1342332695241
 20
250.9009017176737
 30
0.0
 10
208.1342377485931
 20
246.959570144162
 30
0.0
 10
208.1342399881276
 20
244.8242493230559
 30
0.0
 10
208.1342444671966
 20
240.5409238345195
 30
0.0
 10
208.1342467067311
 20
238.3945491930623
 30
0.0
 10
208.1342511858001
 20
234.4106414030335
 30
0.0
 10
208.1342534253346
 20
232.5746243365783
 30
0.0
 10
208.1342579044035
 20
229.4867092031368
 30
0.0
 10
208.134260143938
 20
228.2359862469106
 30
0.0
 10
208.134264623007
 20
226.5064672538665
 30
0.0
 10
208.1342668625415
 20
226.0283293881092
 30
0.0
 10
208.134269102076
 20
225.9722623897639
 30
0.0
  0
LINE
  5
FF
330
1F
100
AcDbEntity
  8
0
  6
Continuous
 62
     8
370
    18
100
AcDbLine
 10
210.7843950778
 20
228.2410349729
 30
0.0
 11
210.7843950778
 21
258.9666081625
 31
0.0
  0
LINE
  5
100
330
1F
100
AcDbEntity
  8
0
  6
Continuous
 62
     8
370
    18
100
AcDbLine
 10
208.5940137893
 20
228.2410349729
 30
0.0
 11
210.7843950778
 21
228.2410349729
 31
0.0
  0
SPLINE
  5
101
330
1F
100
AcDbEntity
  8
0
  6
Continuous
 62
     8
370
    18
100
AcDbSpline
210
0.0
220
0.0
230
1.0
 70
     8
 71
     3
 72
   139
 73
   135
 74
     0
 42
0.000000001
 43
0.00000001
 40
0.0
 40
0.0
 40
0.0
 40
0.0
 40
0.0075486193097146
 40
0.0151048021818206
 40
0.0226683513127223
 40
0.0302390518479945
 40
0.0378166792021865
 40
0.0454010067916513
 40
0.052991813684503
 40
0.0605888921717595
 40
0.0681920552634657
 40
0.0758011441130842
 40
0.0834160353726489
 40
0.091036648480185
 40
0.0986629528796859
 40
0.1062949751724651
 40
0.1139328061970777
 40
0.121576608033148
 40
0.1292265766191116
 40
0.1368826217607529
 40
0.144544479230794
 40
0.1522118586693338
 40
0.1598844529730182
 40
0.1675619468165594
 40
0.1752440250884639
 40
0.1829303812467744
 40
0.1906207256004882
 40
0.1983147935219273
 40
0.2060123535946206
 40
0.213713215700258
 40
0.2214172390470029
 40
0.2291243401398991
 40
0.2368345006922756
 40
0.2445477754749911
 40
0.2522642927318878
 40
0.2599840748232117
 40
0.2677069513236785
 40
0.2754326995613816
 40
0.2831610607492402
 40
0.2908917489276054
 40
0.2986244598267668
 40
0.3063588796540427
 40
0.3140946938107965
 40
0.3218315955450522
 40
0.3295692945453219
 40
0.33730752548092
 40
0.3450460564933368
 40
0.3527846976422453
 40
0.360523309308407
 40
0.368261810554106
 40
0.3760001873977683
 40
0.3837384617379475
 40
0.3914765627697992
 40
0.3992143477986722
 40
0.4069516237037269
 40
0.414688155872084
 40
0.4224236770687116
 40
0.4301578962445901
 40
0.4378905072869569
 40
0.4456211977163425
 40
0.4533496573356666
 40
0.4610755868368789
 40
0.468798706370509
 40
0.4765187640830568
 40
0.4842355446263651
 40
0.4919488776420478
 40
0.4996586462226003
 40
0.5073647983489117
 40
0.5150673487944399
 40
0.5227662787649795
 40
0.5304615039198183
 40
0.538152882615038
 40
0.5458402244415004
 40
0.5535232987202602
 40
0.5612018429561466
 40
0.5688755712517797
 40
0.576544182685504
 40
0.5842073696575976
 40
0.5918648262096925
 40
0.5995162563225774
 40
0.6071613821975274
 40
0.6147999525259037
 40
0.6224317507511252
 40
0.6300566034506169
 40
0.6376744507529978
 40
0.6452853942018731
 40
0.6528894929077564
 40
0.660486738363153
 40
0.6680770622100275
 40
0.6756603439901916
 40
0.6832364188756873
 40
0.6908050853781026
 40
0.6983661130372814
 40
0.7059192500912428
 40
0.7134642311301126
 40
0.7210007847376593
 40
0.7285286411245218
 40
0.7360475397574517
 40
0.7435572369888759
 40
0.7510575136907613
 40
0.7585481918381051
 40
0.7660293069988761
 40
0.7735010298343211
 40
0.7809634659430186
 40
0.788416654710084
 40
0.7958605761781093
 40
0.803295157917275
 40
0.8107202818909139
 40
0.8181357913144583
 40
0.8255414975071785
 40
0.832937186737346
 40
0.8403226270625187
 40
0.847697575167443
 40
0.8550617832027064
 40
0.8624150056276478
 40
0.8697570060612443
 40
0.8770875641446355
 40
0.8844065254573097
 40
0.8917140549470743
 40
0.899010400595534
 40
0.9062957437944034
 40
0.9135702044201859
 40
0.9208338466447095
 40
0.9280866847576055
 40
0.9353286889963879
 40
0.9425597913811096
 40
0.9497798915518083
 40
0.9569888626080143
 40
0.9641865569504918
 40
0.9713728121261628
 40
0.9785474566777386
 40
0.9857103160000577
 40
0.9928612182053744
 40
1.0
 40
1.0
 40
1.0
 40
1.0
 10
240.4731781325867
 20
258.5158904245468
 30
0.0
 10
240.4731291007754
 20
258.5149318537372
 30
0.0
 10
240.4730309880237
 20
258.5130137516494
 30
0.0
 10
240.4728749630103
 20
258.4987573411137
 30
0.0
 10
240.4727127719534
 20
258.476199476446
 30
0.0
 10
240.4725440815959
 20
258.4445397694036
 30
0.0
 10
240.4723693901755
 20
258.4040188993732
 30
0.0
 10
240.4721889729639
 20
258.3545981690736
 30
0.0
 10
240.4720031651814
 20
258.2963138209405
 30
0.0
 10
240.4718122860545
 20
258.229181965926
 30
0.0
 10
240.4716166591607
 20
258.1532240904455
 30
0.0
 10
240.4714166069388
 20
258.068460212858
 30
0.0
 10
240.4712124521332
 20
257.9749107144767
 30
0.0
 10
240.4710045173676
 20
257.8725958616087
 30
0.0
 10
240.4707931252578
 20
257.7615358788829
 30
0.0
 10
240.4705785982433
 20
257.6417511294312
 30
0.0
 10
240.470361259005
 20
257.5132613148255
 30
0.0
 10
240.4701414292399
 20
257.3760887587451
 30
0.0
 10
240.4699194393207
 20
257.2302495649003
 30
0.0
 10
240.4696955877013
 20
257.0758393695081
 30
0.0
 10
240.4694701672008
 20
256.9129729968842
 30
0.0
 10
240.4692434741031
 20
256.7417614764742
 30
0.0
 10
240.4690158038237
 20
256.5623168156498
 30
0.0
 10
240.4687874516742
 20
256.3747504771613
 30
0.0
 10
240.4685587126278
 20
256.1791737872404
 30
0.0
 10
240.4683298813551
 20
255.9756978272639
 30
0.0
 10
240.4681012521874
 20
255.7644334635205
 30
0.0
 10
240.4678731190987
 20
255.5454913412912
 30
0.0
 10
240.4676457756853
 20
255.3189818833126
 30
0.0
 10
240.4674195151388
 20
255.085015306398
 30
0.0
 10
240.4671946302472
 20
254.8437015610486
 30
0.0
 10
240.4669714132887
 20
254.5951505612846
 30
0.0
 10
240.4667501563318
 20
254.3394713302799
 30
0.0
 10
240.4665311500826
 20
254.0767752788615
 30
0.0
 10
240.4663146901651
 20
253.8071665557996
 30
0.0
 10
240.4661010593795
 20
253.5307997752219
 30
0.0
 10
240.4658905255399
 20
253.2478755593538
 30
0.0
 10
240.4656833607241
 20
252.958586349224
 30
0.0
 10
240.4654798355601
 20
252.6631268262189
 30
0.0
 10
240.4652802203198
 20
252.3616906062796
 30
0.0
 10
240.4650847845835
 20
252.0544711060333
 30
0.0
 10
240.4648937973055
 20
251.7416613130914
 30
0.0
 10
240.4647075267721
 20
251.4234538499854
 30
0.0
 10
240.4645262405887
 20
251.1000409595557
 30
0.0
 10
240.4643502056601
 20
250.7716145105184
 30
0.0
 10
240.4641796881643
 20
250.4383660007499
 30
0.0
 10
240.4640149535665
 20
250.100486549475
 30
0.0
 10
240.463856266473
 20
249.7581669362067
 30
0.0
 10
240.4637038910904
 20
249.4115974639693
 30
0.0
 10
240.4635580894211
 20
249.0609684795951
 30
0.0
 10
240.4634191281473
 20
248.706469045322
 30
0.0
 10
240.4632872543107
 20
248.3482969958287
 30
0.0
 10
240.4631625599962
 20
247.9866903115996
 30
0.0
 10
240.4630451499113
 20
247.621883181769
 30
0.0
 10
240.4629351246687
 20
247.2541105721805
 30
0.0
 10
240.4628325851415
 20
246.8836067166696
 30
0.0
 10
240.4627376312684
 20
246.5106054733544
 30
0.0
 10
240.4626503623654
 20
246.1353402326383
 30
0.0
 10
240.4625708770329
 20
245.7580439452197
 30
0.0
 10
240.4624992731731
 20
245.3789491178825
 30
0.0
 10
240.4624356479736
 20
244.9982878178365
 30
0.0
 10
240.4623800979137
 20
244.6162916748556
 30
0.0
 10
240.4623327187153
 20
244.2331918835718
 30
0.0
 10
240.4622936054914
 20
243.8492192073606
 30
0.0
 10
240.4622628521636
 20
243.4646039758442
 30
0.0
 10
240.4622405536014
 20
243.0795761065661
 30
0.0
 10
240.4622267976099
 20
242.6943649868228
 30
0.0
 10
240.4622216947822
 20
242.309199799426
 30
0.0
 10
240.4622252134445
 20
241.9243104740656
 30
0.0
 10
240.4622372569379
 20
241.5399231658796
 30
0.0
 10
240.4622577437766
 20
241.1562629675934
 30
0.0
 10
240.4622865878608
 20
240.7735545351313
 30
0.0
 10
240.4623237037854
 20
240.3920221116514
 30
0.0
 10
240.4623690054259
 20
240.0118895258189
 30
0.0
 10
240.4624224063246
 20
239.6333801953484
 30
0.0
 10
240.4624838195951
 20
239.2567171290855
 30
0.0
 10
240.4625531579543
 20
238.8821229292437
 30
0.0
 10
240.4626303337245
 20
238.5098197941733
 30
0.0
 10
240.4627152588308
 20
238.1400295186579
 30
0.0
 10
240.4628078448437
 20
237.772973503477
 30
0.0
 10
240.4629080028483
 20
237.4088727304473
 30
0.0
 10
240.4630156439606
 20
237.0479478662681
 30
0.0
 10
240.4631306774317
 20
236.6904188845382
 30
0.0
 10
240.4632530180773
 20
236.336505514964
 30
0.0
 10
240.4633825601517
 20
235.9864203920976
 30
0.0
 10
240.4635190438788
 20
235.6403347338052
 30
0.0
 10
240.4636622246757
 20
235.2984177619482
 30
0.0
 10
240.4638118545438
 20
234.9608371881891
 30
0.0
 10
240.4639676865474
 20
234.6277606112555
 30
0.0
 10
240.4641294735873
 20
234.2993552802384
 30
0.0
 10
240.4642969687501
 20
233.9757881598971
 30
0.0
 10
240.464469925236
 20
233.6572259149673
 30
0.0
 10
240.4646480963995
 20
233.3438349163948
 30
0.0
 10
240.4648312357587
 20
233.0357812404306
 30
0.0
 10
240.4650190970189
 20
232.7332306741489
 30
0.0
 10
240.4652114340699
 20
232.4363487022992
 30
0.0
 10
240.4654080010714
 20
232.145300562261
 30
0.0
 10
240.4656085522166
 20
231.8602510457085
 30
0.0
 10
240.4658128426897
 20
231.5813652438933
 30
0.0
 10
240.4660206252603
 20
231.3088056696338
 30
0.0
 10
240.4662316649945
 20
231.0427405371833
 30
0.0
 10
240.4664456810798
 20
230.7832963148652
 30
0.0
 10
240.4666623507119
 20
230.5305559986136
 30
0.0
 10
240.4668813638131
 20
230.2846076099851
 30
0.0
 10
240.4671024082563
 20
230.045536827387
 30
0.0
 10
240.4673251732275
 20
229.8134297340588
 30
0.0
 10
240.4675493483333
 20
229.5883721082278
 30
0.0
 10
240.4677746238656
 20
229.3704496132024
 30
0.0
 10
240.4680006907575
 20
229.159747746622
 30
0.0
 10
240.4682272406212
 20
228.9563518544042
 30
0.0
 10
240.4684539657644
 20
228.7603471261214
 30
0.0
 10
240.4686805592124
 20
228.57181859994
 30
0.0
 10
240.4689067147277
 20
228.3908511478323
 30
0.0
 10
240.4691321268326
 20
228.2175295300237
 30
0.0
 10
240.4693564908243
 20
228.0519381928224
 30
0.0
 10
240.4695795028139
 20
227.8941620218207
 30
0.0
 10
240.4698008601121
 20
227.7442832446574
 30
0.0
 10
240.4700202643788
 20
227.6023900838125
 30
0.0
 10
240.4702374192796
 20
227.4685018061582
 30
0.0
 10
240.4704520344519
 20
227.3426181523615
 30
0.0
 10
240.4706638221043
 20
227.2247418035532
 30
0.0
 10
240.4708724953088
 20
227.1148743544224
 30
0.0
 10
240.4710777680591
 20
227.0130176609954
 30
0.0
 10
240.4712793552708
 20
226.9191734883471
 30
0.0
 10
240.4714769728296
 20
226.8333435739593
 30
0.0
 10
240.4716703375133
 20
226.7555297200225
 30
0.0
 10
240.4718591673702
 20
226.6857333562837
 30
0.0
 10
240.4720431803993
 20
226.6239571869524
 30
0.0
 10
240.4722220995546
 20
226.5701990476402
 30
0.0
 10
240.4723956342026
 20
226.5244747746328
 30
0.0
 10
240.4725635492464
 20
226.48673305482
 30
0.0
 10
240.4727254078693
 20
226.457172432658
 30
0.0
 10
240.4728815293409
 20
226.4350611445251
 30
0.0
 10
240.4729802098348
 20
226.4271005682816
 30
0.0
 10
240.4730295082316
 20
226.4231236562126
 30
0.0
  0
ARC
  5
102
330
1F
100
AcDbEntity
  8
0
  6
Continuous
 62
     8
370
    18
100
AcDbCircle
 10
239.2537308838
 20
227.8464080466
 30
0.0
 40
1.874146577484136
100
AcDbArc
 50
270.000866792
 51
310.5859854175
  0
ARC
  5
103
330
1F
100
AcDbEntity
  8
0
  6
Continuous
 62
     8
370
    18
100
AcDbCircle
 10
239.2538163931
 20
257.0918309793
 30
0.0
 40
1.874777183181052
100
AcDbArc
 50
49.4279677147
 51
90.000095955
  0
SPLINE
  5
104
330
1F
100
AcDbEntity
  8
0
  6
Continuous
 62
     8
370
    18
100
AcDbSpline
210
0.0
220
0.0
230
1.0
 70
     8
 71
     3
 72
   126
 73
   122
 74
     0
 42
0.000000001
 43
0.00000001
 40
0.0
 40
0.0
 40
0.0
 40
0.0
 40
0.0079193898622974
 40
0.015853671608981
 40
0.0238026200756683
 40
0.0317659990320147
 40
0.0397435710451655
 40
0.0477351073235209
 40
0.0557403975456957
 40
0.0637592596790574
 40
0.071791549791428
 40
0.0798371718582552
 40
0.0878960875658982
 40
0.0959683261096787
 40
0.1040539939828497
 40
0.1121532847498686
 40
0.120266488794183
 40
0.1283939260495109
 40
0.1365355058118488
 40
0.1446909333127887
 40
0.1528598876891695
 40
0.1610420338612467
 40
0.1692370340375827
 40
0.1774445592056111
 40
0.1856643006154898
 40
0.1938959812643247
 40
0.2021393673868081
 40
0.2103942799566867
 40
0.2186606062013692
 40
0.2269383111292598
 40
0.2352274490662437
 40
0.2435281751939619
 40
0.2518407097110797
 40
0.2601649804770886
 40
0.2685007127641073
 40
0.2768475880179618
 40
0.2852052575566682
 40
0.2935733553850863
 40
0.3019515110068233
 40
0.3103393622421282
 40
0.3187365680607099
 40
0.3271428214379079
 40
0.335557862241455
 40
0.3439814901542336
 40
0.3524135776359166
 40
0.3608540829231384
 40
0.3693030630639925
 40
0.3777606512105366
 40
0.3862267794790227
 40
0.3947012066852737
 40
0.4031836276811743
 40
0.4116736877534352
 40
0.4201709965017053
 40
0.428675141733494
 40
0.4371857033849574
 40
0.4457022674778134
 40
0.454224440123095
 40
0.4627518615820908
 40
0.4712842203936674
 40
0.4798212675752294
 40
0.4883628309017806
 40
0.4969088292639622
 40
0.5054592726250039
 40
0.5140141324478086
 40
0.5225732720697197
 40
0.5311364709796798
 40
0.5397034390465789
 40
0.5482738307651086
 40
0.556847259548187
 40
0.5654233120723581
 40
0.5740015626850029
 40
0.5825815878838002
 40
0.5911629808796598
 40
0.5997453662542946
 40
0.6083284147226714
 40
0.6169118580087979
 40
0.6254955038471097
 40
0.6340792782137575
 40
0.6426632085013504
 40
0.6512472419801479
 40
0.6598312296667398
 40
0.6684149403252168
 40
0.6769980745483086
 40
0.685580278918156
 40
0.6941611602503612
 40
0.7027402999281592
 40
0.711317268335957
 40
0.7198916394030963
 40
0.728463005269466
 40
0.7370309910845354
 40
0.7455952699504385
 40
0.7541555801439498
 40
0.7627118800446909
 40
0.7712643397723674
 40
0.7798130347601006
 40
0.7883579304353348
 40
0.7968988954123943
 40
0.8054357147998283
 40
0.8139681036169321
 40
0.8224957203184505
 40
0.8310181804303897
 40
0.8395350703031328
 40
0.8480459609905991
 40
0.8565504222659922
 40
0.8650480367857708
 40
0.8735384144137419
 40
0.8820212332664016
 40
0.8904965670216247
 40
0.8989646796583748
 40
0.9074257298114389
 40
0.9158797755575052
 40
0.9243267862725608
 40
0.9327666546239901
 40
0.9411992086909993
 40
0.949624224210812
 40
0.9580414369513767
 40
0.9664505552140799
 40
0.9748512724721192
 40
0.9832432801517782
 40
0.9916262805647534
 40
1.0
 40
1.0
 40
1.0
 40
1.0
 10
206.9149989226971
 20
226.4231236562126
 30
0.0
 10
206.9150536877854
 20
226.4276291574305
 30
0.0
 10
206.9151633209442
 20
226.436648632161
 30
0.0
 10
206.9153377013305
 20
226.4626918159218
 30
0.0
 10
206.9155190664039
 20
226.4978999971333
 30
0.0
 10
206.9157077719285
 20
226.5431738332556
 30
0.0
 10
206.9159032425091
 20
226.5982686154009
 30
0.0
 10
206.9161051508726
 20
226.663247327024
 30
0.0
 10
206.916313101055
 20
226.7380902346003
 30
0.0
 10
206.9165267135595
 20
226.8227997808473
 30
0.0
 10
206.9167456025174
 20
226.9173724055777
 30
0.0
 10
206.9169693818635
 20
227.0218061213874
 30
0.0
 10
206.9171976637186
 20
227.1360984675696
 30
0.0
 10
206.9174300588584
 20
227.2602471104043
 30
0.0
 10
206.9176661766474
 20
227.3942495016342
 30
0.0
 10
206.9179056250249
 20
227.5381036535368
 30
0.0
 10
206.918148010049
 20
227.6918048961449
 30
0.0
 10
206.9183929295281
 20
227.8553524609986
 30
0.0
 10
206.9186399772693
 20
228.028646168992
 30
0.0
 10
206.9188887418122
 20
228.2115694809218
 30
0.0
 10
206.9191388084522
 20
228.4040079498704
 30
0.0
 10
206.9193897613567
 20
228.6058459732265
 30
0.0
 10
206.9196411834933
 20
228.8169679675214
 30
0.0
 10
206.919892656693
 20
229.0372580530242
 30
0.0
 10
206.9201437616763
 20
229.266600138386
 30
0.0
 10
206.9203940780908
 20
229.5048778965448
 30
0.0
 10
206.9206431845396
 20
229.751974774778
 30
0.0
 10
206.9208906586374
 20
230.0077739770741
 30
0.0
 10
206.9211360769635
 20
230.272158522954
 30
0.0
 10
206.9213790154
 20
230.5450110272431
 30
0.0
 10
206.9216190480315
 20
230.8262145209575
 30
0.0
 10
206.9218557509728
 20
231.1156488278613
 30
0.0
 10
206.9220886826896
 20
231.4131970061939
 30
0.0
 10
206.9223174950835
 20
231.7186556152022
 30
0.0
 10
206.9225418601323
 20
232.0317987416653
 30
0.0
 10
206.9227614417976
 20
232.3524028948582
 30
0.0
 10
206.9229759053135
 20
232.6802429065767
 30
0.0
 10
206.9231849151031
 20
233.0150935091834
 30
0.0
 10
206.9233881353753
 20
233.3567289114513
 30
0.0
 10
206.9235852299989
 20
233.7049229093719
 30
0.0
 10
206.9237758625742
 20
234.0594488526674
 30
0.0
 10
206.9239596964382
 20
234.4200796526867
 30
0.0
 10
206.9241363947377
 20
234.7865877692041
 30
0.0
 10
206.9243056202992
 20
235.1587452398879
 30
0.0
 10
206.9244670362419
 20
235.5363235594097
 30
0.0
 10
206.9246203038203
 20
235.9190941172539
 30
0.0
 10
206.9247650904141
 20
236.3068259999206
 30
0.0
 10
206.9249010373557
 20
236.6992870692382
 30
0.0
 10
206.9250279874404
 20
237.0961900258741
 30
0.0
 10
206.9251458277079
 20
237.4972344428319
 30
0.0
 10
206.925254433585
 20
237.9021202488432
 30
0.0
 10
206.9253536841684
 20
238.3105461179862
 30
0.0
 10
206.925443458277
 20
238.7222103028882
 30
0.0
 10
206.9255236355247
 20
239.1368104079548
 30
0.0
 10
206.9255940960446
 20
239.5540434448624
 30
0.0
 10
206.9256547205776
 20
239.9736058125071
 30
0.0
 10
206.9257053904537
 20
240.39519329669
 30
0.0
 10
206.9257459876374
 20
240.8185010664001
 30
0.0
 10
206.9257763946248
 20
241.2432236635577
 30
0.0
 10
206.9257964948676
 20
241.6690550216828
 30
0.0
 10
206.9258061712383
 20
242.0956883743526
 30
0.0
 10
206.925805311809
 20
242.5228163334623
 30
0.0
 10
206.9257937884215
 20
242.9501270312379
 30
0.0
 10
206.9257717071054
 20
243.3773063260057
 30
0.0
 10
206.9257391993006
 20
243.8040416594876
 30
0.0
 10
206.9256963911516
 20
244.2300193532259
 30
0.0
 10
206.9256434116482
 20
244.6549251664617
 30
0.0
 10
206.9255803904279
 20
245.0784441859933
 30
0.0
 10
206.9255074583509
 20
245.5002608497024
 30
0.0
 10
206.9254247473325
 20
245.9200589343232
 30
0.0
 10
206.9253323903726
 20
246.3375215526077
 30
0.0
 10
206.9252305215383
 20
246.7523311489412
 30
0.0
 10
206.925119275936
 20
247.1641694917127
 30
0.0
 10
206.9249987897724
 20
247.5727176798724
 30
0.0
 10
206.9248692000706
 20
247.9776560953475
 30
0.0
 10
206.9247306456759
 20
248.3786645570434
 30
0.0
 10
206.9245832632918
 20
248.7754221395976
 30
0.0
 10
206.9244272016601
 20
249.1676092916024
 30
0.0
 10
206.9242628268354
 20
249.5549642549964
 30
0.0
 10
206.9240904954405
 20
249.9372273285014
 30
0.0
 10
206.923910567611
 20
250.3141390795275
 30
0.0
 10
206.9237234040012
 20
250.685439422222
 30
0.0
 10
206.9235293665953
 20
251.0508677372395
 30
0.0
 10
206.923328818451
 20
251.4101628348718
 30
0.0
 10
206.9231221237287
 20
251.7630629614768
 30
0.0
 10
206.9229096476427
 20
252.1093057898844
 30
0.0
 10
206.9226917564392
 20
252.4486284308181
 30
0.0
 10
206.922468817343
 20
252.7807673762309
 30
0.0
 10
206.9222411986032
 20
253.1054586935097
 30
0.0
 10
206.9220092691735
 20
253.4224372841466
 30
0.0
 10
206.9217733997333
 20
253.7314396564784
 30
0.0
 10
206.9215339573333
 20
254.032195318156
 30
0.0
 10
206.9212913200483
 20
254.3244687480155
 30
0.0
 10
206.9210458926166
 20
254.6081164631451
 30
0.0
 10
206.9207980718813
 20
254.8829862740589
 30
0.0
 10
206.920548256527
 20
255.1489294194534
 30
0.0
 10
206.9202968455602
 20
255.4057958870623
 30
0.0
 10
206.9200442387443
 20
255.653435577834
 30
0.0
 10
206.9197908364389
 20
255.8916979915623
 30
0.0
 10
206.9195370395991
 20
256.1204323108827
 30
0.0
 10
206.9192832497279
 20
256.3394873699816
 30
0.0
 10
206.9190298688566
 20
256.5487116865789
 30
0.0
 10
206.9187772994595
 20
256.7479533561505
 30
0.0
 10
206.9185259446011
 20
256.937060433213
 30
0.0
 10
206.9182762072214
 20
257.1158795035865
 30
0.0
 10
206.9180284923722
 20
257.2842611729751
 30
0.0
 10
206.917783194496
 20
257.4420422979409
 30
0.0
 10
206.9175407441414
 20
257.5891453494157
 30
0.0
 10
206.9173015888153
 20
257.7255502293154
 30
0.0
 10
206.9170661672871
 20
257.8512268734744
 30
0.0
 10
206.9168349199964
 20
257.9661483962587
 30
0.0
 10
206.9166082870623
 20
258.0702870494801
 30
0.0
 10
206.9163867089046
 20
258.1636151435503
 30
0.0
 10
206.9161706255775
 20
258.2461053657894
 30
0.0
 10
206.915960478573
 20
258.3177285979677
 30
0.0
 10
206.9157567040405
 20
258.378462325053
 30
0.0
 10
206.9155597578321
 20
258.4282592321601
 30
0.0
 10
206.9153700219887
 20
258.4671642572387
 30
0.0
 10
206.9151881530144
 20
258.4948784062709
 30
0.0
 10
206.9150137839506
 20
258.5123840728744
 30
0.0
 10
206.9149047734191
 20
258.5147220723022
 30
0.0
 10
206.914850298342
 20
258.5158904245468
 30
0.0
  0
ARC
  5
105
330
1F
100
AcDbEntity
  8
0
  6
Continuous
 62
     8
370
    18
100
AcDbCircle
 10
208.1342120378
 20
257.0918309793
 30
0.0
 40
1.874777183181052
100
AcDbArc
 50
89.999904045
 51
130.5720322853
  0
ARC
  5
106
330
1F
100
AcDbEntity
  8
0
  6
Continuous
 62
     8
370
    18
100
AcDbCircle
 10
208.1342975471
 20
227.8464080466
 30
0.0
 40
1.874146577484139
100
AcDbArc
 50
229.4140145825
 51
269.999133208
  0
SPLINE
  5
107
330
1F
100
AcDbEntity
  8
0
  6
Continuous
 62
     8
370
    18
100
AcDbSpline
210
0.0
220
0.0
230
1.0
 70
     8
 71
     3
 72
    12
 73
     8
 74
     0
 42
0.000000001
 43
0.00000001
 40
0.0
 40
0.0
 40
0.0
 40
0.0
 40
0.5000000000000004
 40
0.5000000000000004
 40
0.7500000000000007
 40
0.7500000000000007
 40
1.0
 40
1.0
 40
1.0
 40
1.0
 10
240.4811305020935
 20
258.5298751510028
 30
0.0
 10
240.4811723276719
 20
258.527437119476
 30
0.0
 10
240.4805413092082
 20
258.5251744906511
 30
0.0
 10
240.4785461216119
 20
258.5216929935004
 30
0.0
 10
240.4777078356755
 20
258.5205324944502
 30
0.0
 10
240.4756932870237
 20
258.5182114963497
 30
0.0
 10
240.4745170298783
 20
258.5172807832136
 30
0.0
 10
240.4731781325867
 20
258.5158904245468
 30
0.0
  0
SPLINE
  5
108
330
1F
100
AcDbEntity
  8
0
  6
Continuous
 62
     8
370
    18
100
AcDbSpline
210
0.0
220
0.0
230
1.0
 70
     8
 71
     3
 72
    21
 73
    17
 74
     0
 42
0.000000001
 43
0.00000001
 40
0.0
 40
0.0
 40
0.0
 40
0.0
 40
0.125
 40
0.25
 40
0.25
 40
0.375
 40
0.375
 40
0.5
 40
0.5
 40
0.625
 40
0.625
 40
0.75
 40
0.75
 40
0.875
 40
0.875
 40
1.0
 40
1.0
 40
1.0
 40
1.0
 10
240.4838262381432
 20
270.3317280823587
 30
0.0
 10
240.4839543933348
 20
269.4521066895288
 30
0.0
 10
240.4841985311722
 20
267.6908475814275
 30
0.0
 10
240.4843611321619
 20
266.0013999974735
 30
0.0
 10
240.4844612932445
 20
264.3869805591703
 30
0.0
 10
240.4844801531549
 20
263.6172860125428
 30
0.0
 10
240.4844370368241
 20
262.207850223881
 30
0.0
 10
240.4843750589713
 20
261.5681100987731
 30
0.0
 10
240.4841605818719
 20
260.4848635559468
 30
0.0
 10
240.4840080792492
 20
260.0413522693765
 30
0.0
 10
240.4836231231626
 20
259.3469221066684
 30
0.0
 10
240.4833897313148
 20
259.0955927171453
 30
0.0
 10
240.4828539811709
 20
258.7418944708974
 30
0.0
 10
240.4825525613033
 20
258.6399323348028
 30
0.0
 10
240.4818872425352
 20
258.5340392155161
 30
0.0
 10
240.4815233460138
 20
258.5301041474157
 30
0.0
 10
240.4811305020935
 20
258.5298751510028
 30
0.0
  0
LWPOLYLINE
  5
109
330
1F
100
AcDbEntity
  8
0
  6
Continuous
 62
     8
370
    18
100
AcDbPolyline
 90
        3
 70
   128
 43
0.0
 10
240.4841509104
 20
277.7224389868
 10
240.484011212
 20
274.1035541552
 10
240.4838268101
 20
270.3317275303
  0
LWPOLYLINE
  5
10A
330
1F
100
AcDbEntity
  8
0
  6
Continuous
 62
     8
370
    18
100
AcDbPolyline
 90
        3
 70
   128
 43
0.0
 10
240.4841434598
 20
277.7224427121
 10
241.8152641892
 20
278.3105952697
 10
243.1216936946
 20
278.8878401773
  0
SPLINE
  5
10B
330
1F
100
AcDbEntity
  8
0
  6
Continuous
 62
     8
370
    18
100
AcDbSpline
210
0.0
220
0.0
230
1.0
 70
     8
 71
     3
 72
   187
 73
   183
 74
     0
 42
0.000000001
 43
0.00000001
 40
0.0
 40
0.0
 40
0.0
 40
0.0
 40
0.0043289499367695
 40
0.0086580349082228
 40
0.0129872011011755
 40
0.0173163947052354
 40
0.0216455619141241
 40
0.0259746489270029
 40
0.0303036019497936
 40
0.034632367196505
 40
0.0389608908905547
 40
0.043289119266093
 40
0.0476169985693271
 40
0.0519444750598438
 40
0.0562714950119348
 40
0.0605980047159177
 40
0.0649239504794625
 40
0.0692492786289133
 40
0.0735739355106129
 40
0.0778978674922261
 40
0.0822210209640638
 40
0.0865433423404059
 40
0.0908647780608269
 40
0.0951852745915168
 40
0.0995047784280242
 40
0.1038232372472191
 40
0.1081406019878701
 40
0.1124568241826776
 40
0.116771855397234
 40
0.1210856472313339
 40
0.1253981513202835
 40
0.1297093193362121
 40
0.1340191029893817
 40
0.138327454029497
 40
0.1426343242470164
 40
0.1469396654744613
 40
0.1512434295877275
 40
0.1555455685073945
 40
0.1598460342000364
 40
0.1641447786795324
 40
0.1684417540083768
 40
0.1727369122989891
 40
0.1770302057150253
 40
0.1813215864726873
 40
0.1856110068420339
 40
0.1898984191482914
 40
0.1941837757731635
 40
0.1984670291783337
 40
0.2027481349278299
 40
0.2070270547592854
 40
0.2113037512028974
 40
0.2155781868510723
 40
0.2198503243597114
 40
0.2241201264494989
 40
0.2283875559071883
 40
0.2326525755868892
 40
0.2369151484113544
 40
0.241175237373267
 40
0.2454328055365256
 40
0.2496878160375339
 40
0.2539402320864845
 40
0.2581900169686486
 40
0.2624371340456604
 40
0.2666815467568054
 40
0.2709232186203072
 40
0.2751621132346128
 40
0.2793981942796812
 40
0.2836314255182693
 40
0.2878617707972189
 40
0.2920891940487433
 40
0.2963136593921301
 40
0.3005351362569927
 40
0.3047536018264537
 40
0.3089690339859033
 40
0.3131814107129209
 40
0.317390710078591
 40
0.3215969102488161
 40
0.3257999894856325
 40
0.3299999261485232
 40
0.3341966986957338
 40
0.3383902856855854
 40
0.3425806657777903
 40
0.3467678177347646
 40
0.3509517204229438
 40
0.3551323528140959
 40
0.359309693986636
 40
0.3634837231269405
 40
0.3676544195306607
 40
0.3718217626040364
 40
0.3759857318652109
 40
0.3801463069455441
 40
0.3843034675909262
 40
0.3884571936630919
 40
0.392605695758104
 40
0.3967381986566214
 40
0.400854494376356
 40
0.4049558352147092
 40
0.4090431420971925
 40
0.4131170787218478
 40
0.4171781275099014
 40
0.4212266670837733
 40
0.4252631199341055
 40
0.4292885093025471
 40
0.4333039298026674
 40
0.4373101783317536
 40
0.4413078182683725
 40
0.4452972492830645
 40
0.4492787781385924
 40
0.45325269033564
 40
0.4572194185731012
 40
0.4611797833182109
 40
0.465134491783208
 40
0.4690840533792794
 40
0.4730288456046507
 40
0.4769691805690496
 40
0.4809053720255319
 40
0.4848378032033364
 40
0.488767021711266
 40
0.4926936037320908
 40
0.4966179404982806
 40
0.5005402831521569
 40
0.5030376646682859
 40
0.5066189112273856
 40
0.5112826620897932
 40
0.5170277582721641
 40
0.5238545368945672
 40
0.531764850587091
 40
0.5407617522006936
 40
0.550852123227142
 40
0.5620462423449603
 40
0.57435406187069
 40
0.5878001620618534
 40
0.6024222725815502
 40
0.6182672566035642
 40
0.6353913491122886
 40
0.6396480476872758
 40
0.643919154344127
 40
0.6482041756567496
 40
0.6525029590455792
 40
0.6568153516195749
 40
0.6611412001659719
 40
0.6654803511400336
 40
0.6698326506548051
 40
0.6741979444708656
 40
0.6785760558843545
 40
0.6829666635461353
 40
0.6873693878523526
 40
0.6917838486742343
 40
0.6962096655039192
 40
0.7006464574445815
 40
0.7050938432005545
 40
0.7095514410674533
 40
0.7140188688666436
 40
0.7184957014782573
 40
0.7229813950604018
 40
0.7274753848959263
 40
0.7319771057849884
 40
0.736485992034709
 40
0.7410014774488254
 40
0.7455229953173452
 40
0.7500499784061982
 40
0.754581857854548
 40
0.7591180231965267
 40
0.7660363288675434
 40
0.7735497561032669
 40
0.7816565479869344
 40
0.7903534711588827
 40
0.799651046015808
 40
0.8095727768052756
 40
0.8201128330330686
 40
0.8312910366480861
 40
0.8431178887803216
 40
0.8555810189136176
 40
0.8686945624205278
 40
0.8824624919961794
 40
0.8968918213485744
 40
0.9119857683930332
 40
0.9277496060779478
 40
0.9441919687862699
 40
0.9616884062573285
 40
0.9803664721120338
 40
1.0
 40
1.0
 40
1.0
 40
1.0
 10
243.1310808823745
 20
226.7174095892514
 30
0.0
 10
243.1310772925255
 20
226.7240700884786
 30
0.0
 10
243.1310701127157
 20
226.7373912946966
 30
0.0
 10
243.1310117550052
 20
226.7573694266893
 30
0.0
 10
243.1309177872255
 20
226.7773450740461
 30
0.0
 10
243.1307842263409
 20
226.7973177078515
 30
0.0
 10
243.1306113666046
 20
226.8172871548367
 30
0.0
 10
243.13039835651
 20
226.8372531464628
 30
0.0
 10
243.1301446519219
 20
226.8572154397534
 30
0.0
 10
243.1298496267228
 20
226.877173784925
 30
0.0
 10
243.1295126771465
 20
226.8971279340682
 30
0.0
 10
243.1291331938325
 20
226.9170776388294
 30
0.0
 10
243.1287105693232
 20
226.9370226510395
 30
0.0
 10
243.1282441960641
 20
226.956962722553
 30
0.0
 10
243.1277334669493
 20
226.9768976052993
 30
0.0
 10
243.1271777751846
 20
226.9968270512762
 30
0.0
 10
243.1265765143336
 20
227.0167508125594
 30
0.0
 10
243.1259290783147
 20
227.0366686413077
 30
0.0
 10
243.1252348614102
 20
227.0565802897696
 30
0.0
 10
243.1244932582782
 20
227.0764855102886
 30
0.0
 10
243.1237036639405
 20
227.0963840553101
 30
0.0
 10
243.122865473862
 20
227.1162756773867
 30
0.0
 10
243.12197808369
 20
227.1361601291848
 30
0.0
 10
243.1210408902622
 20
227.1560371634932
 30
0.0
 10
243.1200532877925
 20
227.1759065349926
 30
0.0
 10
243.1190146816906
 20
227.1957680052256
 30
0.0
 10
243.1179245723877
 20
227.2156213435376
 30
0.0
 10
243.1167824529086
 20
227.2354663252295
 30
0.0
 10
243.1155878186765
 20
227.2553027266148
 30
0.0
 10
243.1143401650025
 20
227.2751303241617
 30
0.0
 10
243.1130389877779
 20
227.2949488944992
 30
0.0
 10
243.1116837832967
 20
227.3147582144237
 30
0.0
 10
243.1102740483109
 20
227.3345580609043
 30
0.0
 10
243.1088092800235
 20
227.3543482110893
 30
0.0
 10
243.1072889760987
 20
227.374128442312
 30
0.0
 10
243.1057126346664
 20
227.3938985320969
 30
0.0
 10
243.1040797543293
 20
227.4136582581654
 30
0.0
 10
243.1023898341687
 20
227.433407398442
 30
0.0
 10
243.1006423737509
 20
227.4531457310606
 30
0.0
 10
243.098836873133
 20
227.4728730343699
 30
0.0
 10
243.0969728328703
 20
227.4925890869398
 30
0.0
 10
243.0950497540185
 20
227.5122936675675
 30
0.0
 10
243.0930671381549
 20
227.5319865552833
 30
0.0
 10
243.091024487328
 20
227.5516675293563
 30
0.0
 10
243.0889213042751
 20
227.5713363693017
 30
0.0
 10
243.0867570916412
 20
227.5909928548839
 30
0.0
 10
243.0845313549158
 20
227.6106367661644
 30
0.0
 10
243.0822435909539
 20
227.6302678881297
 30
0.0
 10
243.0798933293895
 20
227.6498860201366
 30
0.0
 10
243.07748021833
 20
227.6694909772268
 30
0.0
 10
243.0750038891174
 20
227.6890825851405
 30
0.0
 10
243.0724639777983
 20
227.7086606710304
 30
0.0
 10
243.0698601198013
 20
227.7282250623366
 30
0.0
 10
243.0671919514041
 20
227.7477755867964
 30
0.0
 10
243.0644591093462
 20
227.7673120724487
 30
0.0
 10
243.0616612309388
 20
227.7868343476407
 30
0.0
 10
243.0587979540411
 20
227.8063422410336
 30
0.0
 10
243.0558689170724
 20
227.8258355816083
 30
0.0
 10
243.0528737590152
 20
227.8453141986717
 30
0.0
 10
243.0498121194197
 20
227.8647779218622
 30
0.0
 10
243.0466836384088
 20
227.8842265811559
 30
0.0
 10
243.0434879566826
 20
227.9036600068725
 30
0.0
 10
243.0402247155228
 20
227.9230780296811
 30
0.0
 10
243.036893556799
 20
227.9424804806061
 30
0.0
 10
243.0334941229665
 20
227.9618671910334
 30
0.0
 10
243.0300260570969
 20
227.9812379927159
 30
0.0
 10
243.0264890027846
 20
228.0005927177795
 30
0.0
 10
243.02288260452
 20
228.0199311987303
 30
0.0
 10
243.0192065063172
 20
228.0392532684543
 30
0.0
 10
243.0154603568249
 20
228.0585587603998
 30
0.0
 10
243.0116437886053
 20
228.0778475164448
 30
0.0
 10
243.007756493913
 20
228.0971193989113
 30
0.0
 10
243.0037982829428
 20
228.1163742916279
 30
0.0
 10
242.9997689428284
 20
228.1356120913423
 30
0.0
 10
242.9956682667633
 20
228.1548326961814
 30
0.0
 10
242.9914960470103
 20
228.1740360046944
 30
0.0
 10
242.9872520768267
 20
228.1932219158692
 30
0.0
 10
242.9829361499521
 20
228.2123903291297
 30
0.0
 10
242.9785480607498
 20
228.2315411443662
 30
0.0
 10
242.9740876041721
 20
228.2506742618541
 30
0.0
 10
242.9695545757737
 20
228.269789582584
 30
0.0
 10
242.9649487717114
 20
228.2888870070595
 30
0.0
 10
242.960269988749
 20
228.3079664398092
 30
0.0
 10
242.9555180242545
 20
228.3270277725932
 30
0.0
 10
242.950692676225
 20
228.3460709470351
 30
0.0
 10
242.9457937432067
 20
228.3650957211784
 30
0.0
 10
242.9408210246075
 20
228.3841025397075
 30
0.0
 10
242.9357743195444
 20
228.4030892901369
 30
0.0
 10
242.9306534311547
 20
228.4220633943853
 30
0.0
 10
242.9254581505395
 20
228.440996736938
 30
0.0
 10
242.9201883166274
 20
228.4599936707022
 30
0.0
 10
242.914843593048
 20
228.4786647783631
 30
0.0
 10
242.9094250693337
 20
228.4984583349085
 30
0.0
 10
242.9039361907918
 20
228.5139516298315
 30
0.0
 10
242.8983913178313
 20
228.5704060929835
 30
0.0
 10
242.8928150637599
 20
228.663589771982
 30
0.0
 10
242.8872229979353
 20
228.7936315393244
 30
0.0
 10
242.8816307410007
 20
228.959507052187
 30
0.0
 10
242.8760536660322
 20
229.1605026268685
 30
0.0
 10
242.8705071800902
 20
229.3958286459023
 30
0.0
 10
242.8650067021936
 20
229.6647029128828
 30
0.0
 10
242.859567113389
 20
229.9664222307853
 30
0.0
 10
242.8542048173463
 20
230.299874586723
 30
0.0
 10
242.8489361934105
 20
230.6638152207291
 30
0.0
 10
242.8437772451577
 20
231.0570519515528
 30
0.0
 10
242.8387440089533
 20
231.4783836285393
 30
0.0
 10
242.8338524985568
 20
231.9266132716352
 30
0.0
 10
242.8291187343382
 20
232.4005449974054
 30
0.0
 10
242.8245586561391
 20
232.8989866175833
 30
0.0
 10
242.8201882154349
 20
233.4207704604589
 30
0.0
 10
242.8160201367638
 20
233.9643987978153
 30
0.0
 10
242.8120666407715
 20
234.5284012548788
 30
0.0
 10
242.808339930244
 20
235.1113172705769
 30
0.0
 10
242.8048521976197
 20
235.7116862301574
 30
0.0
 10
242.8016156227262
 20
236.3280492810423
 30
0.0
 10
242.798642435855
 20
236.9589446123163
 30
0.0
 10
242.7959446680744
 20
237.6029252973287
 30
0.0
 10
242.7935350335611
 20
238.258486453478
 30
0.0
 10
242.791409486415
 20
238.9239637570001
 30
0.0
 10
242.7895983677689
 20
239.5977311889243
 30
0.0
 10
242.78819916555
 20
240.1958863095233
 30
0.0
 10
242.7872572364277
 20
240.7778923007709
 30
0.0
 10
242.7866686241757
 20
241.4061540140313
 30
0.0
 10
242.7863754752175
 20
242.2278641210363
 30
0.0
 10
242.7867267631783
 20
243.2417658385661
 30
0.0
 10
242.788096413258
 20
244.4418061687619
 30
0.0
 10
242.7909057381614
 20
245.8146963858671
 30
0.0
 10
242.7956103827069
 20
247.3370274278186
 30
0.0
 10
242.8027098213247
 20
248.9706546443203
 30
0.0
 10
242.8125978576966
 20
250.6604300289952
 30
0.0
 10
242.8255120403879
 20
252.332723867856
 30
0.0
 10
242.8415442006011
 20
253.8844114347919
 30
0.0
 10
242.8605373481712
 20
255.2018867500633
 30
0.0
 10
242.8820488717873
 20
256.1424468607176
 30
0.0
 10
242.8988692306608
 20
256.4391639879734
 30
0.0
 10
242.9099954462467
 20
256.4310554815109
 30
0.0
 10
242.915476980769
 20
256.4317818732466
 30
0.0
 10
242.9208982168003
 20
256.4312226953315
 30
0.0
 10
242.9262591353843
 20
256.4310067710924
 30
0.0
 10
242.9315590580661
 20
256.4306955294798
 30
0.0
 10
242.9367975223876
 20
256.4304070490143
 30
0.0
 10
242.9419740075876
 20
256.4301095410218
 30
0.0
 10
242.9470880057277
 20
256.4298115630263
 30
0.0
 10
242.9521390042012
 20
256.4295108117328
 30
0.0
 10
242.957126395894
 20
256.4292079126803
 30
0.0
 10
242.9620498231373
 20
256.4289026950105
 30
0.0
 10
242.9669089034395
 20
256.4285952017786
 30
0.0
 10
242.9717032172326
 20
256.428285421037
 30
0.0
 10
242.9764323481755
 20
256.4279733560041
 30
0.0
 10
242.9810958785604
 20
256.4276590058121
 30
0.0
 10
242.9856933895082
 20
256.4273423707181
 30
0.0
 10
242.9902244648296
 20
256.4270234505823
 30
0.0
 10
242.9946886610734
 20
256.4267022467508
 30
0.0
 10
242.999085530322
 20
256.4263787629748
 30
0.0
 10
243.0034149493542
 20
256.426052994492
 30
0.0
 10
243.0076767143073
 20
256.4257249416354
 30
0.0
 10
243.0118706268317
 20
256.4253946021034
 30
0.0
 10
243.0159964709867
 20
256.4250619843374
 30
0.0
 10
243.0200540862796
 20
256.4247270568503
 30
0.0
 10
243.0240431047921
 20
256.424389937416
 30
0.0
 10
243.0279639310658
 20
256.4240501857367
 30
0.0
 10
243.0318140666217
 20
256.423709449016
 30
0.0
 10
243.0362638815029
 20
256.4233010164626
 30
0.0
 10
243.0413738348711
 20
256.4228576946643
 30
0.0
 10
243.0471638347288
 20
256.4224219179275
 30
0.0
 10
243.0531200228269
 20
256.4220764901428
 30
0.0
 10
243.0591926278191
 20
256.4217279289247
 30
0.0
 10
243.0653404078209
 20
256.4219350727743
 30
0.0
 10
243.0715242366561
 20
256.4669650510188
 30
0.0
 10
243.0776887819556
 20
256.6034797385229
 30
0.0
 10
243.083747545622
 20
256.8951292711459
 30
0.0
 10
243.0895913865309
 20
257.4061984656757
 30
0.0
 10
243.0950870423642
 20
258.1977203425637
 30
0.0
 10
243.1000809617061
 20
259.3371739250175
 30
0.0
 10
243.10442604504
 20
260.8621453541997
 30
0.0
 10
243.1080874684478
 20
262.7408366084844
 30
0.0
 10
243.111101595465
 20
264.9321212333808
 30
0.0
 10
243.113565867073
 20
267.376423977523
 30
0.0
 10
243.1156892778634
 20
270.0254296885827
 30
0.0
 10
243.117791022264
 20
272.8278851189244
 30
0.0
 10
243.1198460148487
 20
275.801009077361
 30
0.0
 10
243.1210826703353
 20
277.8419129298301
 30
0.0
 10
243.1217164187027
 20
278.8878141516183
 30
0.0
  0
SPLINE
  5
10C
330
1F
100
AcDbEntity
  8
0
  6
Continuous
 62
     8
370
    18
100
AcDbSpline
210
0.0
220
0.0
230
1.0
 70
     8
 71
     3
 72
    10
 73
     6
 74
     0
 42
0.000000001
 43
0.00000001
 40
0.0
 40
0.0
 40
0.0
 40
0.0
 40
0.3118518047623483
 40
0.6444593517676193
 40
1.0
 40
1.0
 40
1.0
 40
1.0
 10
240.4730295082316
 20
226.4231236562126
 30
0.0
 10
240.4756538895451
 20
226.2313939416199
 30
0.0
 10
240.4810773216183
 20
225.8351736674576
 30
0.0
 10
240.4842677187796
 20
225.2270400495682
 30
0.0
 10
240.4844601091454
 20
224.8122181788911
 30
0.0
 10
240.4845595101114
 20
224.597895104556
 30
0.0
  0
SPLINE
  5
10D
330
1F
100
AcDbEntity
  8
0
  6
Continuous
 62
     8
370
    18
100
AcDbSpline
210
0.0
220
0.0
230
1.0
 70
     8
 71
     3
 72
    12
 73
     8
 74
     0
 42
0.000000001
 43
0.00000001
 40
0.0
 40
0.0
 40
0.0
 40
0.0
 40
0.25
 40
0.25
 40
0.5
 40
0.5
 40
1.0
 40
1.0
 40
1.0
 40
1.0
 10
206.914850298342
 20
258.5158904245468
 30
0.0
 10
206.9135114010504
 20
258.5172807832136
 30
0.0
 10
206.912335143905
 20
258.5182114963497
 30
0.0
 10
206.9103205952532
 20
258.5205324944502
 30
0.0
 10
206.9094823093169
 20
258.5216929935004
 30
0.0
 10
206.9074871217205
 20
258.5251744906511
 30
0.0
 10
206.9068561032568
 20
258.527437119476
 30
0.0
 10
206.9068979288352
 20
258.5298751510028
 30
0.0
  0
SPLINE
  5
10E
330
1F
100
AcDbEntity
  8
0
  6
Continuous
 62
     8
370
    18
100
AcDbSpline
210
0.0
220
0.0
230
1.0
 70
     8
 71
     3
 72
     9
 73
     5
 74
     0
 42
0.000000001
 43
0.00000001
 40
0.0
 40
0.0
 40
0.0
 40
0.0
 40
0.5245746598026299
 40
1.0
 40
1.0
 40
1.0
 40
1.0
 10
206.9034689207268
 20
224.5978951046286
 30
0.0
 10
206.9035051878651
 20
224.9141492167879
 30
0.0
 10
206.9035743241409
 20
225.5170264359779
 30
0.0
 10
206.9113175817934
 20
226.1311525429034
 30
0.0
 10
206.9149989226971
 20
226.4231236562126
 30
0.0
  0
SPLINE
  5
10F
330
1F
100
AcDbEntity
  8
0
  6
Continuous
 62
     8
370
    18
100
AcDbSpline
210
0.0
220
0.0
230
1.0
 70
     8
 71
     3
 72
   178
 73
   174
 74
     0
 42
0.000000001
 43
0.00000001
 40
0.0
 40
0.0
 40
0.0
 40
0.0
 40
0.006633635606844
 40
0.0132603613380107
 40
0.0198643998762123
 40
0.0264313559923336
 40
0.0329476772587102
 40
0.0394018301232093
 40
0.0457846720258852
 40
0.0520887464606899
 40
0.0583105557336937
 40
0.0644775223605742
 40
0.0706364757224794
 40
0.076787398740809
 40
0.0829319152243924
 40
0.0890677676980109
 40
0.0951934850075165
 40
0.1013117474341647
 40
0.1074212624721377
 40
0.1135199969534469
 40
0.1196097332786291
 40
0.1256894966310962
 40
0.131757185719357
 40
0.1378143686037202
 40
0.1438634559150184
 40
0.1499021567203079
 40
0.1559245042364276
 40
0.1619355060830983
 40
0.1679439859308894
 40
0.1739369110228572
 40
0.1799094709827347
 40
0.1858695420041499
 40
0.1918208044454582
 40
0.1977633499685133
 40
0.2036946730210834
 40
0.2096110385301494
 40
0.2155242499338953
 40
0.2214376603499926
 40
0.2273497911636437
 40
0.2332591647449297
 40
0.2391643045026405
 40
0.2450637349381062
 40
0.250955990471022
 40
0.256839725882307
 40
0.2627136831026385
 40
0.2685766072373063
 40
0.2744272447190815
 40
0.2802643433600461
 40
0.286086652403427
 40
0.2918929745681774
 40
0.2976823774190618
 40
0.3034540132191137
 40
0.3092070358347505
 40
0.3149406007531348
 40
0.3206538651315342
 40
0.3263459887005994
 40
0.3320162781517784
 40
0.3376643499019695
 40
0.3432898615446331
 40
0.3488924726204696
 40
0.3544718446684543
 40
0.3600276412768707
 40
0.3655586923270314
 40
0.371063690511573
 40
0.3765466411490408
 40
0.382010018862772
 40
0.3874552470592859
 40
0.3928830296725686
 40
0.3982938711679226
 40
0.4036893243038762
 40
0.4090709542156529
 40
0.4144399104949643
 40
0.4197972273831783
 40
0.4251441314185135
 40
0.4304823710095144
 40
0.4358137362519733
 40
0.4411392682446708
 40
0.4464594675801218
 40
0.4517746075237131
 40
0.4570850570583693
 40
0.4623918342641847
 40
0.4676962172004243
 40
0.4729990853038002
 40
0.4783011581312039
 40
0.4836032901103592
 40
0.4889067436548709
 40
0.494212840952474
 40
0.4995223187059826
 40
0.4998932966554688
 40
0.5003099185119605
 40
0.5007721917232255
 40
0.5012801246091971
 40
0.501833726407577
 40
0.5024330073284378
 40
0.503077978620757
 40
0.503768652654625
 40
0.5045050430238877
 40
0.505287164675187
 40
0.5061150340707591
 40
0.5069886693939496
 40
0.50790809080823
 40
0.5088733207825322
 40
0.5098843844980039
 40
0.5109413103538027
 40
0.5120441305923359
 40
0.5131928820673799
 40
0.5143876071818345
 40
0.5156283550254326
 40
0.5169151823434156
 40
0.5182481492709319
 40
0.519627317314957
 40
0.5210527511336498
 40
0.5225245185521843
 40
0.5240426906390023
 40
0.5256073419225111
 40
0.527218550792331
 40
0.5288764001352195
 40
0.5305809782622319
 40
0.5323323801904745
 40
0.5341307093499809
 40
0.5359760797937587
 40
0.5378686189968815
 40
0.5398084713385698
 40
0.5417958023694427
 40
0.5438308039743833
 40
0.5459137005495981
 40
0.5480447511370005
 40
0.5502241867600913
 40
0.5524522038543668
 40
0.5547290019311467
 40
0.5570547878934465
 40
0.5594297807940355
 40
0.5618542180149027
 40
0.5643283630603372
 40
0.5668525151678796
 40
0.5694270209525005
 40
0.572052288308776
 40
0.5747288028026633
 40
0.5774571467875692
 40
0.5802379706995737
 40
0.5830717566572485
 40
0.5859589256162772
 40
0.5888999233075505
 40
0.5918952376091372
 40
0.5949454196029474
 40
0.5980511087055168
 40
0.6012130622261898
 40
0.6044321896965278
 40
0.6077095922913206
 40
0.6110455532078294
 40
0.6144333810554462
 40
0.6178718334224104
 40
0.6213609966144868
 40
0.6249009573005447
 40
0.6284918024744645
 40
0.6321336194163035
 40
0.6388897525586958
 40
0.6460855342362491
 40
0.6537226167333
 40
0.6618027138155611
 40
0.6703275936393713
 40
0.6792990712201484
 40
0.6887190004585454
 40
0.6985892657228912
 40
0.7089117714887757
 40
0.7196883499562626
 40
0.7309206823523564
 40
0.7426103750659521
 40
0.7547589520804519
 40
0.8321144053524906
 40
0.8989821618921479
 40
0.955007311340367
 40
1.0
 40
1.0
 40
1.0
 40
1.0
 10
204.2663120122261
 20
278.8878141516183
 30
0.0
 10
204.2665217997059
 20
278.5343702071967
 30
0.0
 10
204.2669411561419
 20
277.8278504805288
 30
0.0
 10
204.2676043129754
 20
276.7694665619291
 30
0.0
 10
204.2682905986453
 20
275.7146373834373
 30
0.0
 10
204.2690003966628
 20
274.6656931330918
 30
0.0
 10
204.2697309013581
 20
273.6247363496419
 30
0.0
 10
204.2704801650823
 20
272.5935945216656
 30
0.0
 10
204.2712458358935
 20
271.5737528526801
 30
0.0
 10
204.2720261461289
 20
270.5663327755084
 30
0.0
 10
204.2728201916393
 20
269.5704087981692
 30
0.0
 10
204.2736314770284
 20
268.5828457465379
 30
0.0
 10
204.2744853552733
 20
267.6052978003574
 30
0.0
 10
204.2754003610975
 20
266.6391625299478
 30
0.0
 10
204.2763940096758
 20
265.6896262020148
 30
0.0
 10
204.2774804623587
 20
264.761343093652
 30
0.0
 10
204.2786731247327
 20
263.8593178880643
 30
0.0
 10
204.2799843155241
 20
262.9895579971033
 30
0.0
 10
204.2814259099523
 20
262.1572989355411
 30
0.0
 10
204.2830094675988
 20
261.3678685008223
 30
0.0
 10
204.284745494865
 20
260.6274922512325
 30
0.0
 10
204.2866415829116
 20
259.9416952350979
 30
0.0
 10
204.2887035990348
 20
259.3156443675421
 30
0.0
 10
204.2909381988614
 20
258.7559326974263
 30
0.0
 10
204.2933422202545
 20
258.2643605817767
 30
0.0
 10
204.2959076900187
 20
257.8390747329061
 30
0.0
 10
204.2986317600804
 20
257.4790722018333
 30
0.0
 10
204.301508498388
 20
257.1812077271933
 30
0.0
 10
204.3045262246425
 20
256.9398716671051
 30
0.0
 10
204.307680887043
 20
256.7530581762137
 30
0.0
 10
204.3109655891746
 20
256.6166149263896
 30
0.0
 10
204.3143728507691
 20
256.5227823474555
 30
0.0
 10
204.3179000646046
 20
256.4642471735266
 30
0.0
 10
204.3215443655734
 20
256.4333345067417
 30
0.0
 10
204.3253030405777
 20
256.4217184784687
 30
0.0
 10
204.3291773756309
 20
256.42204821144
 30
0.0
 10
204.333173590522
 20
256.4220565069597
 30
0.0
 10
204.3372957518663
 20
256.4222056052068
 30
0.0
 10
204.3415452028938
 20
256.4223631383197
 30
0.0
 10
204.3459221887036
 20
256.4225559443256
 30
0.0
 10
204.3504269630935
 20
256.4227681485335
 30
0.0
 10
204.3550597472216
 20
256.4229955500444
 30
0.0
 10
204.3598209179588
 20
256.4232299634919
 30
0.0
 10
204.3647102407995
 20
256.423469149956
 30
0.0
 10
204.3697271442254
 20
256.4237136097879
 30
0.0
 10
204.3748711700591
 20
256.4239632088539
 30
0.0
 10
204.3801418340254
 20
256.4242179829523
 30
0.0
 10
204.3855386606627
 20
256.424477922526
 30
0.0
 10
204.391061174233
 20
256.4247430307288
 30
0.0
 10
204.396709052972
 20
256.4250133132162
 30
0.0
 10
204.4024812511047
 20
256.4252887659126
 30
0.0
 10
204.4083767639221
 20
256.4255693832368
 30
0.0
 10
204.4143946289273
 20
256.4258551798379
 30
0.0
 10
204.4205338812197
 20
256.4261461015442
 30
0.0
 10
204.4267935445733
 20
256.4264423493046
 30
0.0
 10
204.433172739989
 20
256.4267431798335
 30
0.0
 10
204.4396705954669
 20
256.427051371651
 30
0.0
 10
204.4462857160915
 20
256.4273566298922
 30
0.0
 10
204.4530169375236
 20
256.4276971134458
 30
0.0
 10
204.4598630190045
 20
256.4279312738518
 30
0.0
 10
204.4668229773712
 20
256.4285841145096
 30
0.0
 10
204.4738945366215
 20
256.4277086658801
 30
0.0
 10
204.4810784360052
 20
256.4325231959132
 30
0.0
 10
204.4883796644654
 20
256.3615655997531
 30
0.0
 10
204.4957462228483
 20
256.2256225802917
 30
0.0
 10
204.503141021964
 20
256.0242082288341
 30
0.0
 10
204.5105237977971
 20
255.7598189641168
 30
0.0
 10
204.5178552862378
 20
255.434163325878
 30
0.0
 10
204.5250964826741
 20
255.0490299872474
 30
0.0
 10
204.5322094328536
 20
254.6068175339897
 30
0.0
 10
204.5391576238922
 20
254.1100616345818
 30
0.0
 10
204.5459048571177
 20
253.5612232920831
 30
0.0
 10
204.5524149476102
 20
252.962776321961
 30
0.0
 10
204.5586517404701
 20
252.3171590460135
 30
0.0
 10
204.5645786873586
 20
251.6269317950885
 30
0.0
 10
204.5701613760696
 20
250.8958202473141
 30
0.0
 10
204.5753660691244
 20
250.1274189918381
 30
0.0
 10
204.5801588988191
 20
249.325329093497
 30
0.0
 10
204.5845064909824
 20
248.4931549417468
 30
0.0
 10
204.5883736515802
 20
247.6344355693261
 30
0.0
 10
204.5917327745059
 20
246.7529239664941
 30
0.0
 10
204.5945725566291
 20
245.8526592344856
 30
0.0
 10
204.5968792633422
 20
244.9375465164227
 30
0.0
 10
204.5986399382758
 20
244.0115061054261
 30
0.0
 10
204.5998410051657
 20
243.0784579290844
 30
0.0
 10
204.6004703011718
 20
242.1423522764922
 30
0.0
 10
204.6005158288035
 20
241.2073282418297
 30
0.0
 10
204.6001877146594
 20
240.5658114134572
 30
0.0
 10
204.5998622934001
 20
240.2119136272778
 30
0.0
 10
204.5997801139376
 20
240.1394256412781
 30
0.0
 10
204.5996777493534
 20
240.0590709290984
 30
0.0
 10
204.5995527535433
 20
239.9708744159603
 30
0.0
 10
204.5994041204062
 20
239.8748652293777
 30
0.0
 10
204.5992302486534
 20
239.7710768744095
 30
0.0
 10
204.59902957012
 20
239.6595477796597
 30
0.0
 10
204.5988003581303
 20
239.5403217792031
 30
0.0
 10
204.5985407861691
 20
239.4134486640915
 30
0.0
 10
204.5982489114768
 20
239.2789847628263
 30
0.0
 10
204.5979226813778
 20
239.1369935630074
 30
0.0
 10
204.5975599330887
 20
238.9875463704899
 30
0.0
 10
204.597158395634
 20
238.8307230071429
 30
0.0
 10
204.5967156913093
 20
238.6666125467567
 30
0.0
 10
204.5962293374087
 20
238.4953140896483
 30
0.0
 10
204.5956967480667
 20
238.3169375740397
 30
0.0
 10
204.5951152359708
 20
238.1316046317311
 30
0.0
 10
204.5944820151242
 20
237.9394494581034
 30
0.0
 10
204.5937941998932
 20
237.7406198153835
 30
0.0
 10
204.5930488193024
 20
237.5352777203836
 30
0.0
 10
204.5922427731115
 20
237.3236019790924
 30
0.0
 10
204.5913731209733
 20
237.1057827604665
 30
0.0
 10
204.5904370026519
 20
236.8820241912289
 30
0.0
 10
204.5894315191852
 20
236.6525484712527
 30
0.0
 10
204.588353774599
 20
236.4175959897437
 30
0.0
 10
204.5872008754359
 20
236.1774266282216
 30
0.0
 10
204.5859699426678
 20
235.9323208041419
 30
0.0
 10
204.584658120494
 20
235.6825806322105
 30
0.0
 10
204.5832625863838
 20
235.4285310967336
 30
0.0
 10
204.581780561138
 20
235.170521264997
 30
0.0
 10
204.5802093193124
 20
234.9089255336535
 30
0.0
 10
204.5785461999141
 20
234.6441449094549
 30
0.0
 10
204.576788617364
 20
234.3766083282675
 30
0.0
 10
204.5749340728537
 20
234.1067739954994
 30
0.0
 10
204.5729801655696
 20
233.8351308149609
 30
0.0
 10
204.5709246058427
 20
233.5621996474955
 30
0.0
 10
204.5687652222547
 20
233.2885354019917
 30
0.0
 10
204.5664999954091
 20
233.0147263094487
 30
0.0
 10
204.5641270240793
 20
232.7414081486999
 30
0.0
 10
204.5616449977681
 20
232.4692168631426
 30
0.0
 10
204.5590530586271
 20
232.1988037725323
 30
0.0
 10
204.5563505886348
 20
231.9308627587448
 30
0.0
 10
204.5535372708767
 20
231.6661231634455
 30
0.0
 10
204.550613092249
 20
231.4053530747842
 30
0.0
 10
204.5475783667917
 20
231.1493602283869
 30
0.0
 10
204.544433753927
 20
230.8989936236372
 30
0.0
 10
204.5411802785292
 20
230.6551449680909
 30
0.0
 10
204.537819351372
 20
230.418750275882
 30
0.0
 10
204.5343527886249
 20
230.1907912255614
 30
0.0
 10
204.5307828374806
 20
229.9722975618244
 30
0.0
 10
204.5271122030023
 20
229.7643469650931
 30
0.0
 10
204.5233442792054
 20
229.5680853106206
 30
0.0
 10
204.5194824263206
 20
229.3845528527897
 30
0.0
 10
204.5155305368768
 20
229.2148238011372
 30
0.0
 10
204.5114930694791
 20
229.0600178784621
 30
0.0
 10
204.5073750158678
 20
228.9212969945853
 30
0.0
 10
204.5031819279494
 20
228.7998618770966
 30
0.0
 10
204.498919948895
 20
228.6969751780295
 30
0.0
 10
204.4945958015232
 20
228.6138777888363
 30
0.0
 10
204.4902169510677
 20
228.5521162639514
 30
0.0
 10
204.4857915742811
 20
228.5122980292952
 30
0.0
 10
204.4813338307806
 20
228.4988812266395
 30
0.0
 10
204.4768542257514
 20
228.4830422153074
 30
0.0
 10
204.4723571899806
 20
228.4675700915779
 30
0.0
 10
204.4678455992263
 20
228.4517048007895
 30
0.0
 10
204.4633210914264
 20
228.4356547851619
 30
0.0
 10
204.4587865222645
 20
228.4193617875711
 30
0.0
 10
204.452965987032
 20
228.3982125090868
 30
0.0
 10
204.4457962075354
 20
228.3715939581499
 30
0.0
 10
204.4372605216836
 20
228.3388891436362
 30
0.0
 10
204.4284797145937
 20
228.3041440858731
 30
0.0
 10
204.419493982975
 20
228.2673495054215
 30
0.0
 10
204.4103428637023
 20
228.2284976276086
 30
0.0
 10
204.4010682730979
 20
228.1875799536646
 30
0.0
 10
204.3917135402688
 20
228.1445879558295
 30
0.0
 10
204.3823235165596
 20
228.0995129322512
 30
0.0
 10
204.3729447386462
 20
228.0523462080162
 30
0.0
 10
204.363624097639
 20
228.0030794921654
 30
0.0
 10
204.3544079034226
 20
227.9517046703681
 30
0.0
 10
204.3453419201387
 20
227.8982152471268
 30
0.0
 10
204.3207314280817
 20
227.7438038854566
 30
0.0
 10
204.2911785200284
 20
227.5050393994741
 30
0.0
 10
204.2685769262747
 20
227.1988590257611
 30
0.0
 10
204.2584664684952
 20
226.9418040074592
 30
0.0
 10
204.2574155989992
 20
226.7865560297094
 30
0.0
 10
204.2569475485544
 20
226.7174095892513
 30
0.0
  0
LWPOLYLINE
  5
110
330
1F
100
AcDbEntity
  8
0
  6
Continuous
 62
     8
370
    18
100
AcDbPolyline
 90
        3
 70
   128
 43
0.0
 10
206.9038793832
 20
277.7224389868
 10
205.5727083623
 20
278.310598995
 10
204.2665284514
 20
278.8877172428
  0
LWPOLYLINE
  5
111
330
1F
100
AcDbEntity
  8
0
  6
Continuous
 62
     8
370
    18
100
AcDbPolyline
 90
        3
 70
   128
 43
0.0
 10
206.9042016208
 20
270.3317275303
 10
206.9040172189
 20
274.1035541552
 10
206.9038775206
 20
277.7224389868
  0
SPLINE
  5
112
330
1F
100
AcDbEntity
  8
0
  6
Continuous
 62
     8
370
    18
100
AcDbSpline
210
0.0
220
0.0
230
1.0
 70
     8
 71
     3
 72
    21
 73
    17
 74
     0
 42
0.000000001
 43
0.00000001
 40
0.0
 40
0.0
 40
0.0
 40
0.0
 40
0.1249999999999998
 40
0.1249999999999998
 40
0.2499999999999997
 40
0.2499999999999997
 40
0.3749999999999995
 40
0.3749999999999995
 40
0.4999999999999993
 40
0.4999999999999993
 40
0.6249999999999994
 40
0.6249999999999994
 40
0.7499999999999997
 40
0.7499999999999997
 40
0.8749999999999998
 40
1.0
 40
1.0
 40
1.0
 40
1.0
 10
206.9068979288352
 20
258.5298751510028
 30
0.0
 10
206.906505084915
 20
258.5301041474157
 30
0.0
 10
206.9061411883936
 20
258.5340392155156
 30
0.0
 10
206.9054758696255
 20
258.6399323348012
 30
0.0
 10
206.9051744497579
 20
258.7418944708953
 30
0.0
 10
206.9046386996139
 20
259.0955927171421
 30
0.0
 10
206.9044053077661
 20
259.3469221066647
 30
0.0
 10
206.9040203516795
 20
260.0413522693721
 30
0.0
 10
206.9038678490569
 20
260.4848635559424
 30
0.0
 10
206.9036533719575
 20
261.5681100987688
 30
0.0
 10
206.9035913941047
 20
262.2078502238771
 30
0.0
 10
206.9035482777738
 20
263.6172860125401
 30
0.0
 10
206.9035671376843
 20
264.3869805591685
 30
0.0
 10
206.9036672987668
 20
266.0013999974736
 30
0.0
 10
206.9038299012861
 20
267.6908473202781
 30
0.0
 10
206.9040740375939
 20
269.4521066895329
 30
0.0
 10
206.9042021927856
 20
270.3317280823638
 30
0.0
  0
LINE
  5
113
330
1F
100
AcDbEntity
  8
0
  6
Continuous
 62
     8
370
    18
100
AcDbLine
 10
211.9372364521
 20
258.5226280647
 30
0.0
 11
211.9372364521
 21
254.2107339981
 31
0.0
  0
LINE
  5
114
330
1F
100
AcDbEntity
  8
0
  6
Continuous
 62
     8
370
    18
100
AcDbLine
 10
235.4507919788
 20
254.1579810935
 30
0.0
 11
235.4507919788
 21
254.2099107089
 31
0.0
  0
LINE
  5
115
330
1F
100
AcDbEntity
  8
0
  6
Continuous
 62
     8
370
    18
100
AcDbLine
 10
235.4507919788
 20
254.2099107089
 30
0.0
 11
235.4507919788
 21
258.5226280647
 31
0.0
  0
LINE
  5
116
330
1F
100
AcDbEntity
  8
0
  6
Continuous
 62
     8
370
    18
100
AcDbLine
 10
235.9440138951
 20
233.2932522553
 30
0.0
 11
236.1440144867
 21
233.2932522553
 31
0.0
  0
LINE
  5
117
330
1F
100
AcDbEntity
  8
0
  6
Continuous
 62
     8
370
    18
100
AcDbLine
 10
211.4440145358
 20
233.2932522553
 30
0.0
 11
211.2440139443
 21
233.2932522553
 31
0.0
  0
LWPOLYLINE
  5
118
330
1F
100
AcDbEntity
  8
0
  6
Continuous
 62
     8
370
    18
100
AcDbPolyline
 90
      106
 70
   128
 43
0.0
 10
203.6948640287
 20
227.932684313
 10
203.7005376458
 20
228.2201705533
 10
203.7204474598
 20
228.5394381764
 10
203.7268102556
 20
228.6095583843
 10
203.733878994
 20
228.6791086229
 10
203.7416611254
 20
228.7480907547
 10
203.7501622379
 20
228.816502917
 10
203.7593860567
 20
228.88434511
 10
203.769341895
 20
228.9516191962
 10
203.7800334781
 20
229.0183233129
 10
203.7976876289
 20
229.1184684294
 10
203.8168654233
 20
229.2161902445
 10
203.8375389218
 20
229.3114878269
 10
203.8596783221
 20
229.404362108
 10
203.8832538217
 20
229.4948130878
 10
203.9082374811
 20
229.5828398349
 10
203.914164418
 20
229.6026956322
 10
203.9201621354
 20
229.6224173191
 10
203.9262306333
 20
229.6420048954
 10
203.934446761
 20
229.6679915892
 10
203.9385073274
 20
229.6806687521
 10
203.9406493694
 20
229.687320258
 10
203.9423760414
 20
229.69453242
 10
203.9457511544
 20
229.7181358593
 10
203.9491542071
 20
229.7540318253
 10
203.9525814742
 20
229.8022212493
 10
203.9645638704
 20
230.060557093
 10
203.9764270574
 20
230.455629717
 10
203.9881505459
 20
230.9874381902
 10
203.9997063965
 20
231.6559834438
 10
204.0109083444
 20
232.4518619137
 10
204.0212870032
 20
233.3488745647
 10
204.0307902187
 20
234.3470213967
 10
204.0393732876
 20
235.4463024097
 10
204.0468760222
 20
236.6321661542
 10
204.0529594213
 20
237.8666062871
 10
204.0575880945
 20
239.1496225758
 10
204.0607341021
 20
240.4812147873
 10
204.0623248011
 20
241.8383745974
 10
204.0622838229
 20
243.1886857524
 10
204.0606111675
 20
244.5321483104
 10
204.0573180109
 20
245.8687622132
 10
204.052551502
 20
247.1614351528
 10
204.0464103609
 20
248.3905602279
 10
204.0389337033
 20
249.556136507
 10
204.0301625073
 20
250.6581649216
 10
204.0205363572
 20
251.654719192
 10
204.010165149
 20
252.5401331516
 10
203.9990879983
 20
253.3144068005
 10
203.9873551965
 20
253.9775401386
 10
203.9754398555
 20
254.5087209003
 10
203.9635859817
 20
254.897454943
 10
203.9540790409
 20
255.1071804049
 10
203.9446261167
 20
255.2242755922
 10
203.9399452895
 20
255.2477058055
 10
203.9389729887
 20
255.2479246663
 10
203.937134558
 20
255.2481202441
 10
203.9344430357
 20
255.2482916074
 10
203.9309095979
 20
255.2484396877
 10
203.9223172158
 20
255.2486510979
 10
203.9111264437
 20
255.2487842771
 10
203.897545898
 20
255.2488373625
 10
203.8818382114
 20
255.2488131481
 10
203.8643163085
 20
255.2487088399
 10
203.8453489929
 20
255.248527232
 10
203.8322396964
 20
255.2483633193
 10
203.8188156128
 20
255.2481658789
 10
203.8152635485
 20
255.2481081369
 10
203.8117040336
 20
255.2480485322
 10
203.8081370681
 20
255.2479861336
 10
203.8045663774
 20
255.2479218724
 10
203.8009956866
 20
255.2478548171
 10
203.7974268585
 20
255.2477858993
 10
203.7889779001
 20
255.2476434069
 10
203.7817471117
 20
255.2475735577
 10
203.7756264597
 20
255.2475782143
 10
203.7691854328
 20
255.2501635658
 10
203.7633069247
 20
255.2702382239
 10
203.7575737029
 20
255.3339947047
 10
203.7522893786
 20
255.4587816852
 10
203.7459694236
 20
255.7411028104
 10
203.7403870761
 20
256.1611562999
 10
203.7354790062
 20
256.7189421537
 10
203.7308559209
 20
257.4773674863
 10
203.7268046677
 20
258.4078500079
 10
203.7232693672
 20
259.51039065
 10
203.7217606246
 20
260.0927168535
 10
203.7203394264
 20
260.7163528013
 10
203.7190039098
 20
261.3812947678
 10
203.717748487
 20
262.0875446158
 10
203.7165712953
 20
262.8351004826
 10
203.7154667467
 20
263.6239642309
 10
203.7148651123
 20
264.0979608553
 10
203.7142597526
 20
264.6082716095
 10
203.7136525303
 20
265.1548983561
 10
203.7130434453
 20
265.73783737
 10
203.7124343604
 20
266.3570923763
 10
203.7118234128
 20
267.0126615124
 10
203.7112124652
 20
267.7045447784
 10
203.7106033802
 20
268.4327440368
 10
203.7094988316
 20
269.8173617976
 10
203.7082154691
 20
271.5056186574
 10
203.7067793697
 20
273.4975164788
 10
203.7052259237
 20
275.7930552619
 10
203.7035942465
 20
278.3922350066
 10
203.7035942465
 20
278.3922350066
  0
SPLINE
  5
119
330
1F
100
AcDbEntity
  8
0
  6
Continuous
 62
     8
370
    18
100
AcDbSpline
210
0.0
220
0.0
230
1.0
 70
     8
 71
     3
 72
    10
 73
     6
 74
     0
 42
0.000000001
 43
0.00000001
 40
0.0
 40
0.0
 40
0.0
 40
0.0
 40
0.5
 40
0.5
 40
1.0
 40
1.0
 40
1.0
 40
1.0
 10
204.2662700398251
 20
278.8878722152189
 30
0.0
 10
204.0973391946661
 20
278.8304429067107
 30
0.0
 10
203.9505066443318
 20
278.7538588370412
 30
0.0
 10
203.7532813995254
 20
278.5801433887808
 30
0.0
 10
203.7038481190521
 20
278.4838479859218
 30
0.0
 10
203.7035945535514
 20
278.3922721618537
 30
0.0
  0
LWPOLYLINE
  5
11A
330
1F
100
AcDbEntity
  8
0
  6
Continuous
 62
     8
370
    18
100
AcDbPolyline
 90
      105
 70
   128
 43
0.0
 10
243.6844341844
 20
278.3922350066
 10
243.682908678
 20
275.9574858504
 10
243.6814502269
 20
273.7869678097
 10
243.6800904959
 20
271.880679022
 10
243.679712379
 20
271.3693996923
 10
243.6793454379
 20
270.8810607003
 10
243.6789915353
 20
270.4156601834
 10
243.6786506712
 20
269.973200004
 10
243.6783228457
 20
269.5536764371
 10
243.6780080587
 20
269.1570932078
 10
243.6777100354
 20
268.7834484535
 10
243.6774250507
 20
268.4327440368
 10
243.6764490247
 20
267.285285707
 10
243.6754729986
 20
266.2306783753
 10
243.6744988352
 20
265.2689220416
 10
243.6735265344
 20
264.4000185686
 10
243.6725616842
 20
263.6239642309
 10
243.6702818066
 20
262.0878836172
 10
243.6676890045
 20
260.7166918027
 10
243.6647590637
 20
259.51039065
 10
243.6612256259
 20
258.4080735254
 10
243.6571743727
 20
257.477591935
 10
243.6525494248
 20
256.7189421537
 10
243.6462574094
 20
256.0387982088
 10
243.6388701588
 20
255.5771658229
 10
243.6309706807
 20
255.34288511
 10
243.6227377891
 20
255.2602600338
 10
243.6186567336
 20
255.2499009328
 10
243.6141807973
 20
255.2475949781
 10
243.6105803043
 20
255.2475679698
 10
243.6065327764
 20
255.2475716951
 10
243.6048154175
 20
255.2475819396
 10
243.6030235529
 20
255.2475968408
 10
243.6011534572
 20
255.2476163986
 10
243.599206993
 20
255.247640613
 10
243.5971804351
 20
255.247669484
 10
243.5950719207
 20
255.2477039429
 10
243.5928795874
 20
255.2477421271
 10
243.5906015724
 20
255.2477858993
 10
243.5719918847
 20
255.2481211754
 10
243.5536466926
 20
255.2483921903
 10
243.5359310746
 20
255.2485989439
 10
243.5191747189
 20
255.2487423676
 10
243.5036756486
 20
255.24882153
 10
243.4896927714
 20
255.2488364311
 10
243.4774533302
 20
255.2487880024
 10
243.4671491772
 20
255.2486753123
 10
243.4589367747
 20
255.248498361
 10
243.4542280078
 20
255.2483232724
 10
243.450804466
 20
255.2481127935
 10
243.4486959517
 20
255.247865993
 10
243.4481408834
 20
255.2477290886
 10
243.4479881465
 20
255.2476573768
 10
243.4479434431
 20
255.2476201239
 10
243.4479266792
 20
255.2475996348
 10
243.447922954
 20
255.2475903215
 10
243.4479210913
 20
255.2475865962
 10
243.4479192287
 20
255.2475847336
 10
243.4479192287
 20
255.2475838023
 10
243.4479192287
 20
255.2475838023
 10
243.4479192287
 20
255.247582871
 10
243.4479192287
 20
255.247582871
 10
243.4362274051
 20
255.1438204976
 10
243.4244480371
 20
254.8975592511
 10
243.4125923008
 20
254.5087991314
 10
243.4006732345
 20
253.9775401386
 10
243.388944158
 20
253.3146386998
 10
243.3778688699
 20
252.5404423507
 10
243.3674939364
 20
251.6549510913
 10
243.3578659236
 20
250.6581649216
 10
243.3490965903
 20
249.5564713175
 10
243.3416199326
 20
248.3910063314
 10
243.3354787916
 20
247.1617699633
 10
243.33071042
 20
245.8687622132
 10
243.327419126
 20
244.5325250304
 10
243.3257464707
 20
243.1891880845
 10
243.3257054925
 20
241.8387513174
 10
243.3272943288
 20
240.4812147873
 10
243.3304384738
 20
239.1499715889
 10
243.335067147
 20
237.8670719484
 10
243.3411524087
 20
236.6325154001
 10
243.3486551434
 20
235.4463024097
 10
243.3572363496
 20
234.3472840297
 10
243.3667377025
 20
233.349224742
 10
243.3771163613
 20
232.4521245467
 10
243.3883220345
 20
231.6559834438
 10
243.3998760223
 20
230.9875676441
 10
243.4115976483
 20
230.4558020117
 10
243.4234626979
 20
230.0606856155
 10
243.4354469567
 20
229.8022212493
 10
243.4609223545
 20
229.6447979318
 10
243.4843898207
 20
229.5671759205
 10
243.5052570343
 20
229.493035193
 10
243.5251333207
 20
229.4171817633
 10
243.5439963281
 20
229.339617494
 10
243.5557924598
 20
229.2879030141
 10
243.5671434194
 20
229.2354555833
 10
243.5780454814
 20
229.182273339
 10
243.5884893328
 20
229.1283572125
 10
243.5984749734
 20
229.0737072038
 10
243.6079949528
 20
229.0183233129
 10
243.646181041
 20
228.7496572392
 10
243.6729994059
 20
228.4719824823
 10
243.6888207138
 20
228.1852990421
 10
243.6932575345
 20
227.9327299478
  0
SPLINE
  5
11B
330
1F
100
AcDbEntity
  8
0
  6
Continuous
 62
     8
370
    18
100
AcDbSpline
210
0.0
220
0.0
230
1.0
 70
     8
 71
     3
 72
    10
 73
     6
 74
     0
 42
0.000000001
 43
0.00000001
 40
0.0
 40
0.0
 40
0.0
 40
0.0
 40
0.5
 40
0.5
 40
1.0
 40
1.0
 40
1.0
 40
1.0
 10
243.1216794779245
 20
278.8877948946152
 30
0.0
 10
243.2906053003092
 20
278.8303690890014
 30
0.0
 10
243.4374471760982
 20
278.7537955668734
 30
0.0
 10
243.6347009104342
 20
278.5800911558649
 30
0.0
 10
243.6841683473039
 20
278.483797838357
 30
0.0
 10
243.6844337284912
 20
278.3922226335904
 30
0.0
  0
SPLINE
  5
11C
330
1F
100
AcDbEntity
  8
0
  6
Continuous
 62
     8
370
    18
100
AcDbSpline
210
0.0
220
0.0
230
1.0
 70
     8
 71
     3
 72
     8
 73
     4
 74
     0
 42
0.000000001
 43
0.00000001
 40
0.0
 40
0.0
 40
0.0
 40
0.0
 40
1.0
 40
1.0
 40
1.0
 40
1.0
 10
203.703151780281
 20
279.1361895889405
 30
0.0
 10
203.6970600704032
 20
279.1361550304555
 30
0.0
 10
203.6940142154644
 20
279.1361204719704
 30
0.0
 10
203.6940142154644
 20
279.1360859134853
 30
0.0
  0
SPLINE
  5
11D
330
1F
100
AcDbEntity
  8
0
  6
Continuous
 62
     8
370
    18
100
AcDbSpline
210
0.0
220
0.0
230
1.0
 70
     8
 71
     3
 72
     8
 73
     4
 74
     0
 42
0.000000001
 43
0.00000001
 40
0.0
 40
0.0
 40
0.0
 40
0.0
 40
1.0
 40
1.0
 40
1.0
 40
1.0
 10
203.7035945618844
 20
278.3922583236157
 30
0.0
 10
203.7034456387329
 20
278.6402354143658
 30
0.0
 10
203.7032984518002
 20
278.8882125051158
 30
0.0
 10
203.7031530010865
 20
279.1361895958659
 30
0.0
  0
SPLINE
  5
11E
330
1F
100
AcDbEntity
  8
0
  6
Continuous
 62
     8
370
    18
100
AcDbSpline
210
0.0
220
0.0
230
1.0
 70
     8
 71
     3
 72
     8
 73
     4
 74
     0
 42
0.000000001
 43
0.00000001
 40
0.0
 40
0.0
 40
0.0
 40
0.0
 40
1.0
 40
1.0
 40
1.0
 40
1.0
 10
243.6940142154644
 20
279.1360859138626
 30
0.0
 10
243.6940142154644
 20
279.1361204747097
 30
0.0
 10
243.6909679312949
 20
279.1361550355568
 30
0.0
 10
243.6848753629559
 20
279.1361895964038
 30
0.0
  0
SPLINE
  5
11F
330
1F
100
AcDbEntity
  8
0
  6
Continuous
 62
     8
370
    18
100
AcDbSpline
210
0.0
220
0.0
230
1.0
 70
     8
 71
     3
 72
     8
 73
     4
 74
     0
 42
0.000000001
 43
0.00000001
 40
0.0
 40
0.0
 40
0.0
 40
0.0
 40
1.0
 40
1.0
 40
1.0
 40
1.0
 10
243.6848754298423
 20
279.1361895960202
 30
0.0
 10
243.6847299791285
 20
278.8882125051617
 30
0.0
 10
243.6845827921958
 20
278.6402354143032
 30
0.0
 10
243.6844338690442
 20
278.3922583234446
 30
0.0
  0
SPLINE
  5
120
330
1F
100
AcDbEntity
  8
0
  6
Continuous
 62
     8
370
    18
100
AcDbSpline
210
0.0
220
0.0
230
1.0
 70
     8
 71
     3
 72
    16
 73
    12
 74
     0
 42
0.000000001
 43
0.00000001
 40
0.0
 40
0.0
 40
0.0
 40
0.0
 40
0.383263399911473
 40
2.172470167700445
 40
3.961676935489415
 40
5.75088370327839
 40
7.54009047106737
 40
9.32929723885634
 40
11.1185040066453
 40
12.90771077443428
 40
13.7897533492033
 40
13.7897533492033
 40
13.7897533492033
 40
13.7897533492033
 10
215.8940142154684
 20
254.9207046878534
 30
0.0
 10
216.0034709892701
 20
254.981122764816
 30
0.0
 10
216.6269777134644
 20
255.3149531471809
 30
0.0
 10
217.7786735265763
 20
255.808593248982
 30
0.0
 10
219.4907284594759
 20
256.3236987885035
 30
0.0
 10
221.5190221327623
 20
256.6876210013769
 30
0.0
 10
223.7591443489654
 20
256.8183952578962
 30
0.0
 10
226.1207337596365
 20
256.6660042198928
 30
0.0
 10
228.457045205769
 20
256.2005173832495
 30
0.0
 10
230.2457302891247
 20
255.5623334216534
 30
0.0
 10
231.195293796082
 20
255.0862564724345
 30
0.0
 10
231.4937570788026
 20
254.9205052076623
 30
0.0
  0
SPLINE
  5
121
330
1F
100
AcDbEntity
  8
0
  6
Continuous
 62
     8
370
    18
100
AcDbSpline
210
0.0
220
0.0
230
1.0
 70
     8
 71
     3
 72
    22
 73
    18
 74
     0
 42
0.000000001
 43
0.00000001
 40
0.0
 40
0.0
 40
0.0
 40
0.0
 40
0.0625000000000006
 40
0.0625000000000006
 40
0.125000000000001
 40
0.125000000000001
 40
0.250000000000001
 40
0.250000000000001
 40
0.3750000000000009
 40
0.3750000000000009
 40
0.5000000000000008
 40
0.5000000000000008
 40
0.7500000000000007
 40
0.7500000000000007
 40
0.8750000000000003
 40
0.8750000000000003
 40
1.0
 40
1.0
 40
1.0
 40
1.0
 10
215.8940142154686
 20
255.1372555164673
 30
0.0
 10
216.1485582065831
 20
255.2990448128625
 30
0.0
 10
216.413134749934
 20
255.4530697688942
 30
0.0
 10
216.9670254579071
 20
255.7430355824858
 30
0.0
 10
217.2565025135469
 20
255.8791409813347
 30
0.0
 10
218.1547739089187
 20
256.2604498771645
 30
0.0
 10
218.7935188010084
 20
256.4772443494246
 30
0.0
 10
220.1289280496825
 20
256.8274445144623
 30
0.0
 10
220.8245730722347
 20
256.9616436200905
 30
0.0
 10
222.2445366773385
 20
257.1405245287673
 30
0.0
 10
222.9691479590363
 20
257.1855039075601
 30
0.0
 10
225.1426535934879
 20
257.1854863776686
 30
0.0
 10
226.5913014129769
 20
257.0033479176788
 30
0.0
 10
228.5937340421096
 20
256.4773384193537
 30
0.0
 10
229.2334470524273
 20
256.2605376165266
 30
0.0
 10
230.4299757597789
 20
255.7519233345437
 30
0.0
 10
230.9881732049938
 20
255.4602900999826
 30
0.0
 10
231.4940537286406
 20
255.1375070818071
 30
0.0
  0
SPLINE
  5
122
330
1F
100
AcDbEntity
  8
0
  6
Continuous
 62
     8
370
    18
100
AcDbSpline
210
0.0
220
0.0
230
1.0
 70
     8
 71
     3
 72
    22
 73
    18
 74
     0
 42
0.000000001
 43
0.00000001
 40
2.390015433536775
 40
2.390015433536775
 40
2.390015433536775
 40
2.390015433536775
 40
6.9572197444657
 40
6.9572197444657
 40
12.6675169569301
 40
12.6675169569301
 40
22.01976352284105
 40
22.01976352284105
 40
27.45017140013515
 40
27.45017140013515
 40
32.20175573775685
 40
32.20175573775685
 40
36.9537697758095
 40
36.9537697758095
 40
39.6689718827282
 40
39.6689718827282
 40
42.3844932074568
 40
42.3844932074568
 40
42.3844932074568
 40
42.3844932074568
 10
231.4940142154684
 20
255.5281948927737
 30
0.0
 10
231.0266157623901
 20
255.8174467057834
 30
0.0
 10
230.5172227142739
 20
256.0809607137281
 30
0.0
 10
229.2970872386461
 20
256.6057879898613
 30
0.0
 10
228.5658426355414
 20
256.8497344715558
 30
0.0
 10
226.547932083482
 20
257.3525636374475
 30
0.0
 10
225.2017958455699
 20
257.5198961265549
 30
0.0
 10
223.0688362083598
 20
257.5390151889118
 30
0.0
 10
222.2838189312306
 20
257.4941208541607
 30
0.0
 10
220.84334440097
 20
257.3138591924563
 30
0.0
 10
220.1837907999536
 20
257.1901816406967
 30
0.0
 10
218.9122302834331
 20
256.8704099066031
 30
0.0
 10
218.3000389015004
 20
256.6737157637092
 30
0.0
 10
217.3935482217516
 20
256.3110669004785
 30
0.0
 10
217.0745527721074
 20
256.1687687851702
 30
0.0
 10
216.4635019581907
 20
255.8633210146902
 30
0.0
 10
216.1718219882035
 20
255.6998837912206
 30
0.0
 10
215.8940142154684
 20
255.5278450914167
 30
0.0
  0
ARC
  5
123
330
1F
100
AcDbEntity
  8
0
  6
Continuous
 62
     8
370
    18
100
AcDbCircle
 10
223.6940142155
 20
239.3700774355
 30
0.0
 40
19.7186243571453
100
AcDbArc
 50
66.6987768938
 51
113.3012231062
  0
LINE
  5
124
330
1F
100
AcDbEntity
  8
0
  6
Continuous
 62
     8
370
    18
100
AcDbLine
 10
208.1342691943
 20
225.9722614693
 30
0.0
 11
208.130108045
 21
224.1672167587
 31
0.0
  0
LINE
  5
125
330
1F
100
AcDbEntity
  8
0
  6
Continuous
 62
     8
370
    18
100
AcDbLine
 10
239.2579203859
 20
224.1672167587
 30
0.0
 11
239.2537592366
 21
225.9722614693
 31
0.0
  0
ARC
  5
126
330
1F
100
AcDbEntity
  8
0
  6
Continuous
 62
     8
370
    18
100
AcDbCircle
 10
239.2566867571
 20
257.0317903272
 30
0.0
 40
1.934817835255489
100
AcDbArc
 50
50.73954475530001
 51
90.0000110645
  0
ARC
  5
127
330
1F
100
AcDbEntity
  8
0
  6
Continuous
 62
     8
370
    18
100
AcDbCircle
 10
208.1313416738
 20
257.0317903272
 30
0.0
 40
1.934817835255489
100
AcDbArc
 50
89.99998893549999
 51
129.2604552447
  0
SPLINE
  5
128
330
1F
100
AcDbEntity
  8
0
  6
Continuous
 62
     8
370
    18
100
AcDbSpline
210
0.0
220
0.0
230
1.0
 70
     8
 71
     3
 72
    11
 73
     7
 74
     0
 42
0.000000001
 43
0.00000001
 40
0.0
 40
0.0
 40
0.0
 40
0.0
 40
0.2904215553155461
 40
0.5809969215000942
 40
0.8697845454554762
 40
1.0
 40
1.0
 40
1.0
 40
1.0
 10
236.1440144866655
 20
258.50698929601
 30
0.0
 10
236.1218409797936
 20
258.5123450565128
 30
0.0
 10
236.0774822226847
 20
258.5230594139959
 30
0.0
 10
235.7811924213199
 20
258.5587177721997
 30
0.0
 10
235.4615553462063
 20
258.5778606543934
 30
0.0
 10
235.1522624937282
 20
258.5847984311131
 30
0.0
 10
235.0561421751926
 20
258.5869545149117
 30
0.0
  0
SPLINE
  5
129
330
1F
100
AcDbEntity
  8
0
  6
Continuous
 62
     8
370
    18
100
AcDbSpline
210
0.0
220
0.0
230
1.0
 70
     8
 71
     3
 72
    11
 73
     7
 74
     0
 42
0.000000001
 43
0.00000001
 40
0.0
 40
0.0
 40
0.0
 40
0.0
 40
0.1340117832635667
 40
0.4226632284998714
 40
0.7120172920025718
 40
0.9999999999999999
 40
0.9999999999999999
 40
0.9999999999999999
 40
0.9999999999999999
 10
212.3502351731012
 20
258.5873996871023
 30
0.0
 10
212.2502772350329
 20
258.5851698944651
 30
0.0
 10
211.9350173094554
 20
258.5781372938089
 30
0.0
 10
211.6077501074986
 20
258.5585598593187
 30
0.0
 10
211.3109450279923
 20
258.5230542263496
 30
0.0
 10
211.2663417648828
 20
258.5123482137141
 30
0.0
 10
211.2440931066821
 20
258.5070079224615
 30
0.0
  0
LINE
  5
12A
330
1F
100
AcDbEntity
  8
0
  6
Continuous
 62
     8
370
    18
100
AcDbLine
 10
215.7440137505
 20
253.0336223575
 30
0.0
 11
215.8954728782
 21
253.0336223575
 31
0.0
  0
LINE
  5
12B
330
1F
100
AcDbEntity
  8
0
  6
Continuous
 62
     8
370
    18
100
AcDbLine
 10
231.4925536901
 20
253.0336223575
 30
0.0
 11
231.6440146804
 21
253.0336223575
 31
0.0
  0
LINE
  5
12C
330
1F
100
AcDbEntity
  8
0
  6
Continuous
 62
     8
370
    18
100
AcDbLine
 10
215.7440137505
 20
252.7574842828
 30
0.0
 11
215.8965685792
 21
252.7574842828
 31
0.0
  0
LINE
  5
12D
330
1F
100
AcDbEntity
  8
0
  6
Continuous
 62
     8
370
    18
100
AcDbLine
 10
231.4914598517
 20
252.7574842828
 30
0.0
 11
231.6440146804
 21
252.7574842828
 31
0.0
  0
SPLINE
  5
12E
330
1F
100
AcDbEntity
  8
0
  6
Continuous
 62
     8
370
    18
100
AcDbSpline
210
0.0
220
0.0
230
1.0
 70
     8
 71
     3
 72
    16
 73
    12
 74
     0
 42
0.000000001
 43
0.00000001
 40
0.0
 40
0.0
 40
0.0
 40
0.0
 40
0.168997894372719
 40
0.2747053702917936
 40
0.3763924227682814
 40
0.4820488398100395
 40
0.5836363879705382
 40
0.6896955838558865
 40
0.7916217880155071
 40
0.8958093059709848
 40
0.9999999999999999
 40
0.9999999999999999
 40
0.9999999999999999
 40
0.9999999999999999
 10
216.1940143831024
 20
227.7170766177087
 30
0.0
 10
216.4097118055851
 20
227.667427344275
 30
0.0
 10
216.76032706345
 20
227.5867226580187
 30
0.0
 10
217.4316210307684
 20
227.4608852085231
 30
0.0
 10
218.0655973873191
 20
227.3548373745551
 30
0.0
 10
218.7831947174516
 20
227.2508464847334
 30
0.0
 10
219.6035912447278
 20
227.1511715356712
 30
0.0
 10
220.5040689688034
 20
227.063678818801
 30
0.0
 10
221.4960740567102
 20
226.9938240106615
 30
0.0
 10
222.5474239496635
 20
226.9460041941155
 30
0.0
 10
223.2780935721853
 20
226.9390874272189
 30
0.0
 10
223.6434339518318
 20
226.9356289910584
 30
0.0
  0
SPLINE
  5
12F
330
1F
100
AcDbEntity
  8
0
  6
Continuous
 62
     8
370
    18
100
AcDbSpline
210
0.0
220
0.0
230
1.0
 70
     8
 71
     3
 72
     8
 73
     4
 74
     0
 42
0.000000001
 43
0.00000001
 40
2.0
 40
2.0
 40
2.0
 40
2.0
 40
3.0
 40
3.0
 40
3.0
 40
3.0
 10
223.6434339530983
 20
226.9356293858994
 30
0.0
 10
223.6771540656417
 20
226.9355897040187
 30
0.0
 10
223.710874263839
 20
226.9355897039788
 30
0.0
 10
223.7445943763826
 20
226.93562938578
 30
0.0
  0
SPLINE
  5
130
330
1F
100
AcDbEntity
  8
0
  6
Continuous
 62
     8
370
    18
100
AcDbSpline
210
0.0
220
0.0
230
1.0
 70
     8
 71
     3
 72
    16
 73
    12
 74
     0
 42
0.000000001
 43
0.00000001
 40
0.0
 40
0.0
 40
0.0
 40
0.0
 40
0.1041903072832772
 40
0.2083289956354154
 40
0.3104396680447206
 40
0.4163568580821307
 40
0.5179677773033724
 40
0.6235183198944471
 40
0.7251847970169298
 40
0.8308865753225858
 40
1.0
 40
1.0
 40
1.0
 40
1.0
 10
223.7445943772335
 20
226.9356289910584
 30
0.0
 10
224.1099923805863
 20
226.9390852114461
 30
0.0
 10
224.8406073584143
 20
226.9459959399086
 30
0.0
 10
225.8923325657228
 20
226.9938444056595
 30
0.0
 10
226.8843004667484
 20
227.0637107811486
 30
0.0
 10
227.7851440666984
 20
227.151250060871
 30
0.0
 10
228.6049556341974
 20
227.2508646108463
 30
0.0
 10
229.3224682607027
 20
227.3548414185675
 30
0.0
 10
229.9561614330685
 20
227.4608403451662
 30
0.0
 10
230.6277410878625
 20
227.5867269915612
 30
0.0
 10
230.9782938766214
 20
227.6674306535578
 30
0.0
 10
231.1940140478263
 20
227.717093381515
 30
0.0
  0
LINE
  5
131
330
1F
100
AcDbEntity
  8
0
  6
Continuous
 62
     8
370
    18
100
AcDbLine
 10
223.6440141658
 20
227.1241929414
 30
0.0
 11
223.6440141658
 21
233.5924554648
 31
0.0
  0
SPLINE
  5
132
330
1F
100
AcDbEntity
  8
0
  6
Continuous
 62
     8
370
    18
100
AcDbSpline
210
0.0
220
0.0
230
1.0
 70
     8
 71
     3
 72
    20
 73
    16
 74
     0
 42
0.000000001
 43
0.00000001
 40
0.0
 40
0.0
 40
0.0
 40
0.0
 40
0.0767455202165385
 40
0.1547904351051636
 40
0.2352799475821764
 40
0.3192006287412824
 40
0.4073435390860581
 40
0.5002961788414275
 40
0.5984542554581744
 40
0.7020450482073624
 40
0.7651912231425331
 40
0.8303407172045069
 40
0.8974773144804199
 40
0.9665749700784647
 40
1.0
 40
1.0
 40
1.0
 40
1.0
 10
223.6440141657958
 20
227.1241929414182
 30
0.0
 10
223.343062637225
 20
227.127226716052
 30
0.0
 10
222.7360641059545
 20
227.1333456308012
 30
0.0
 10
221.8404178137652
 20
227.1769711059721
 30
0.0
 10
220.9687905246849
 20
227.2438873809389
 30
0.0
 10
220.1324487038241
 20
227.3341532630753
 30
0.0
 10
219.3418301934103
 20
227.4437449469578
 30
0.0
 10
218.6066340386872
 20
227.5690163529494
 30
0.0
 10
217.9359188069112
 20
227.7056056650014
 30
0.0
 10
217.4262393485913
 20
227.8278041711086
 30
0.0
 10
217.0425154466739
 20
227.9316578204705
 30
0.0
 10
216.756720430594
 20
228.0163889965112
 30
0.0
 10
216.502519420333
 20
228.0995901786858
 30
0.0
 10
216.3136502186591
 20
228.1667862595836
 30
0.0
 10
216.2234288632957
 20
228.2039133880063
 30
0.0
 10
216.1940143831024
 20
228.2160177858977
 30
0.0
  0
SPLINE
  5
133
330
1F
100
AcDbEntity
  8
0
  6
Continuous
 62
     8
370
    18
100
AcDbSpline
210
0.0
220
0.0
230
1.0
 70
     8
 71
     3
 72
    19
 73
    15
 74
     0
 42
0.000000001
 43
0.00000001
 40
0.0
 40
0.0
 40
0.0
 40
0.0
 40
0.1404755678689602
 40
0.301233378116283
 40
0.3534819294172034
 40
0.4043631284495839
 40
0.4538916317319484
 40
0.5020906838740965
 40
0.5945996715184123
 40
0.6823220029410451
 40
0.7658423895953063
 40
0.8459480000096015
 40
0.9236206753877317
 40
1.0
 40
1.0
 40
1.0
 40
1.0
 10
231.1940140478263
 20
228.219515833488
 30
0.0
 10
231.0602722592669
 20
228.1668535894017
 30
0.0
 10
230.7734786810366
 20
228.0539255840128
 30
0.0
 10
230.2260307517315
 20
227.8954189054772
 30
0.0
 10
229.7392176486401
 20
227.7744355062278
 30
0.0
 10
229.429978256576
 20
227.7035901159119
 30
0.0
 10
229.1029141112967
 20
227.6345062909583
 30
0.0
 10
228.6503301878543
 20
227.5466907253733
 30
0.0
 10
228.0459750063219
 20
227.4437199704631
 30
0.0
 10
227.2554079283204
 20
227.3341404320552
 30
0.0
 10
226.4190940213087
 20
227.2438782622268
 30
0.0
 10
225.5475100800878
 20
227.1769693335844
 30
0.0
 10
224.6519122127911
 20
227.1333446964786
 30
0.0
 10
224.0449482507651
 20
227.1272264043023
 30
0.0
 10
223.7440141669075
 20
227.1241929414182
 30
0.0
  0
LINE
  5
134
330
1F
100
AcDbEntity
  8
0
  6
Continuous
 62
     8
370
    18
100
AcDbLine
 10
223.7440141669
 20
233.608081195
 30
0.0
 11
223.7440141669
 21
227.1241929414
 31
0.0
  0
SPLINE
  5
135
330
1F
100
AcDbEntity
  8
0
  6
Continuous
 62
     8
370
    18
100
AcDbSpline
210
0.0
220
0.0
230
1.0
 70
     8
 71
     3
 72
    22
 73
    18
 74
     0
 42
0.000000001
 43
0.00000001
 40
0.0
 40
0.0
 40
0.0
 40
0.0
 40
0.1249999999999996
 40
0.1249999999999996
 40
0.2499999999999992
 40
0.2499999999999992
 40
0.3749999999999988
 40
0.3749999999999988
 40
0.4999999999999984
 40
0.4999999999999984
 40
0.6249999999999988
 40
0.6249999999999988
 40
0.7499999999999992
 40
0.7499999999999992
 40
0.8749999999999996
 40
0.8749999999999996
 40
1.0
 40
1.0
 40
1.0
 40
1.0
 10
239.2566863244639
 20
258.9666082518606
 30
0.0
 10
239.2567267610654
 20
258.966608251858
 30
0.0
 10
239.2567671976669
 20
258.9678426899239
 30
0.0
 10
239.2568480708699
 20
259.0598437627056
 30
0.0
 10
239.2568885074714
 20
259.1505244569703
 30
0.0
 10
239.2569693806744
 20
259.4802298962286
 30
0.0
 10
239.2570098172759
 20
259.7191687007713
 30
0.0
 10
239.2570906904789
 20
260.3787008426615
 30
0.0
 10
239.2571311270804
 20
260.7992082395583
 30
0.0
 10
239.2572120002833
 20
261.8322648897573
 30
0.0
 10
239.2572524368848
 20
262.4467488159959
 30
0.0
 10
239.2573333100878
 20
263.83536515438
 30
0.0
 10
239.2573737466893
 20
264.6079252158883
 30
0.0
 10
239.2574546198923
 20
266.2337803378082
 30
0.0
 10
239.2574950564938
 20
267.0855030475827
 30
0.0
 10
239.2575759296968
 20
268.7984344287938
 30
0.0
 10
239.2576163662982
 20
269.6580707495932
 30
0.0
 10
239.2576568028998
 20
270.5142430170438
 30
0.0
  0
ARC
  5
136
330
1F
100
AcDbEntity
  8
0
  6
Continuous
 62
     8
370
    18
100
AcDbCircle
 10
239.3034093107
 20
266.6115391145
 30
0.0
 40
3.902971601498365
100
AcDbArc
 50
72.3957430873
 51
90.6716637575
  0
ARC
  5
137
330
1F
100
AcDbEntity
  8
0
  6
Continuous
 62
     8
370
    18
100
AcDbCircle
 10
208.0846191202
 20
266.6115391145
 30
0.0
 40
3.902971601498365
100
AcDbArc
 50
89.3283362425
 51
107.6042569127
  0
SPLINE
  5
138
330
1F
100
AcDbEntity
  8
0
  6
Continuous
 62
     8
370
    18
100
AcDbSpline
210
0.0
220
0.0
230
1.0
 70
     8
 71
     3
 72
    22
 73
    18
 74
     0
 42
0.000000001
 43
0.00000001
 40
0.0
 40
0.0
 40
0.0
 40
0.0
 40
0.1250000000000004
 40
0.1250000000000004
 40
0.2500000000000008
 40
0.2500000000000008
 40
0.3750000000000012
 40
0.3750000000000012
 40
0.5000000000000016
 40
0.5000000000000016
 40
0.6250000000000011
 40
0.6250000000000011
 40
0.7500000000000008
 40
0.7500000000000008
 40
0.8750000000000003
 40
0.8750000000000003
 40
1.0
 40
1.0
 40
1.0
 40
1.0
 10
208.130371628029
 20
270.5142430170336
 30
0.0
 10
208.1304120646305
 20
269.6580707495676
 30
0.0
 10
208.130452501232
 20
268.7984344287519
 30
0.0
 10
208.130533374435
 20
267.0855030475216
 30
0.0
 10
208.1305738110364
 20
266.2337803377438
 30
0.0
 10
208.1306546842394
 20
264.6079252158272
 30
0.0
 10
208.1306951208409
 20
263.8353651543251
 30
0.0
 10
208.1307759940439
 20
262.4467488159529
 30
0.0
 10
208.1308164306454
 20
261.8322648897197
 30
0.0
 10
208.1308973038484
 20
260.7992082395256
 30
0.0
 10
208.1309377404499
 20
260.3787008426287
 30
0.0
 10
208.1310186136529
 20
259.7191687007368
 30
0.0
 10
208.1310590502543
 20
259.4802298961928
 30
0.0
 10
208.1311399234573
 20
259.1505244569361
 30
0.0
 10
208.1311803600588
 20
259.0598437626744
 30
0.0
 10
208.1312612332618
 20
258.9678426899048
 30
0.0
 10
208.1313016698633
 20
258.9666082518482
 30
0.0
 10
208.1313421064648
 20
258.9666082518606
 30
0.0
  0
LINE
  5
139
330
1F
100
AcDbEntity
  8
0
  6
Continuous
 62
     8
370
    18
100
AcDbLine
 10
208.1303716093
 20
270.5142425405
 30
0.0
 11
239.2576568216
 21
270.5142425405
 31
0.0
  0
ARC
  5
13A
330
1F
100
AcDbEntity
  8
0
  6
Continuous
 62
     8
370
    18
100
AcDbCircle
 10
259.7803241949
 20
227.1407936181
 30
0.0
 40
36.0363138516618
100
AcDbArc
 50
180.0263941742
 51
180.3262023632
  0
ARC
  5
13B
330
1F
100
AcDbEntity
  8
0
  6
Continuous
 62
     8
370
    18
100
AcDbCircle
 10
187.6074516195
 20
227.1407950904
 30
0.0
 40
36.03656637060706
100
AcDbArc
 50
359.6737975818
 51
359.97360367
  0
SPLINE
  5
13C
330
1F
100
AcDbEntity
  8
0
  6
Continuous
 62
     8
370
    18
100
AcDbSpline
210
0.0
220
0.0
230
1.0
 70
     8
 71
     3
 72
     8
 73
     4
 74
     0
 42
0.000000001
 43
0.00000001
 40
2.0
 40
2.0
 40
2.0
 40
2.0
 40
3.0
 40
3.0
 40
3.0
 40
3.0
 10
223.7440141653223
 20
227.1241925893735
 30
0.0
 10
223.7106808602715
 20
227.124153779591
 30
0.0
 10
223.677347470373
 20
227.1241537796299
 30
0.0
 10
223.6440141653223
 20
227.1241925894902
 30
0.0
  0
LINE
  5
13D
330
1F
100
AcDbEntity
  8
0
  6
Continuous
 62
     8
370
    18
100
AcDbLine
 10
208.1302207351
 20
277.9048739033
 30
0.0
 11
208.1303716093
 21
270.5142425405
 31
0.0
  0
SPLINE
  5
13E
330
1F
100
AcDbEntity
  8
0
  6
Continuous
 62
     8
370
    18
100
AcDbSpline
210
0.0
220
0.0
230
1.0
 70
     8
 71
     3
 72
    24
 73
    20
 74
     0
 42
0.000000001
 43
0.00000001
 40
0.0
 40
0.0
 40
0.0
 40
0.0
 40
0.0622581353891697
 40
0.1185127441485441
 40
0.1687754393377195
 40
0.2130625479040399
 40
0.2513980324989379
 40
0.3247706911696867
 40
0.3896617404489507
 40
0.4467443706587363
 40
0.4970065057678187
 40
0.5579537149346245
 40
0.6206128652392453
 40
0.6798663859438878
 40
0.7480590819253166
 40
0.8025510561248596
 40
0.8625904004834186
 40
0.9283603017283542
 40
1.0
 40
1.0
 40
1.0
 40
1.0
 10
216.6558858078165
 20
284.5393420859594
 30
0.0
 10
216.3757472562181
 20
284.5361240434376
 30
0.0
 10
215.8424837994153
 20
284.529998272923
 30
0.0
 10
215.0832692105146
 20
284.5106853144622
 30
0.0
 10
214.4052622031738
 20
284.4841707957671
 30
0.0
 10
213.808408518415
 20
284.450071418835
 30
0.0
 10
213.1091783089147
 20
284.3932791697852
 30
0.0
 10
212.3215397024483
 20
284.2918840513306
 30
0.0
 10
211.4639231710801
 20
284.1112769487184
 30
0.0
 10
210.7317602874662
 20
283.8751728238896
 30
0.0
 10
210.0597307049619
 20
283.5518234210911
 30
0.0
 10
209.4606733411844
 20
283.0830428769486
 30
0.0
 10
208.9903857211555
 20
282.4621445563277
 30
0.0
 10
208.6581753003114
 20
281.7442501132067
 30
0.0
 10
208.4451301420794
 20
281.0260741813617
 30
0.0
 10
208.3010078658522
 20
280.2919310176308
 30
0.0
 10
208.2073381603473
 20
279.5611718253915
 30
0.0
 10
208.1466979249032
 20
278.7574255107977
 30
0.0
 10
208.1358699614622
 20
278.197036879786
 30
0.0
 10
208.1302247078807
 20
277.9048733585926
 30
0.0
  0
SPLINE
  5
13F
330
1F
100
AcDbEntity
  8
0
  6
Continuous
 62
     8
370
    18
100
AcDbSpline
210
0.0
220
0.0
230
1.0
 70
     8
 71
     3
 72
    13
 73
     9
 74
     0
 42
0.000000001
 43
0.00000001
 40
0.0
 40
0.0
 40
0.0
 40
0.0
 40
0.1666696308378565
 40
0.3333357049979048
 40
0.5000000007115263
 40
0.6666642962670277
 40
0.8333303699527201
 40
1.0
 40
1.0
 40
1.0
 40
1.0
 10
230.7321423347749
 20
284.5393420882852
 30
0.0
 10
229.9501319910898
 20
284.5456195851222
 30
0.0
 10
228.3861279915758
 20
284.5581744448362
 30
0.0
 10
226.0400685947464
 20
284.5681919249268
 30
0.0
 10
223.6940142050716
 20
284.5717981710778
 30
0.0
 10
221.3479598176226
 20
284.5681919249259
 30
0.0
 10
219.0019004274703
 20
284.5581744448393
 30
0.0
 10
217.437896433892
 20
284.5456195851061
 30
0.0
 10
216.6558860939166
 20
284.5393420882655
 30
0.0
  0
SPLINE
  5
140
330
1F
100
AcDbEntity
  8
0
  6
Continuous
 62
     8
370
    18
100
AcDbSpline
210
0.0
220
0.0
230
1.0
 70
     8
 71
     3
 72
    26
 73
    22
 74
     0
 42
0.000000001
 43
0.00000001
 40
0.0
 40
0.0
 40
0.0
 40
0.0
 40
0.0370970948846487
 40
0.072685554290724
 40
0.106780441956547
 40
0.1393988909543549
 40
0.1705604697514908
 40
0.2002876239924839
 40
0.2286062103526054
 40
0.255546141600357
 40
0.3238174711131833
 40
0.3835739895261093
 40
0.425243899113139
 40
0.465973446885691
 40
0.5068747712327917
 40
0.5748583083855706
 40
0.6557020523658527
 40
0.751256054634139
 40
0.8177244976380024
 40
0.9006145259640586
 40
1.0
 40
1.0
 40
1.0
 40
1.0
 10
239.257803723048
 20
277.9048733585926
 30
0.0
 10
239.2556507298944
 20
278.056172806109
 30
0.0
 10
239.2514322998196
 20
278.3526187742045
 30
0.0
 10
239.233495287908
 20
278.7878825575148
 30
0.0
 10
239.2070411631796
 20
279.2044794537446
 30
0.0
 10
239.1713266168743
 20
279.602407643682
 30
0.0
 10
239.1265351887493
 20
279.9816733217365
 30
0.0
 10
239.0726311294377
 20
280.3422772141391
 30
0.0
 10
239.0095843029975
 20
280.6842377041341
 30
0.0
 10
238.8994986563731
 20
281.1781451047345
 30
0.0
 10
238.7135650458189
 20
281.7888900116461
 30
0.0
 10
238.4090607022862
 20
282.4272993082549
 30
0.0
 10
238.0568691099676
 20
282.9142541618308
 30
0.0
 10
237.677987131598
 20
283.2849293454436
 30
0.0
 10
237.1419201856361
 20
283.6589100029389
 30
0.0
 10
236.3640851210055
 20
283.9937064619539
 30
0.0
 10
235.3007926220689
 20
284.2595976366841
 30
0.0
 10
234.217566527031
 20
284.4058720575503
 30
0.0
 10
233.1182855444763
 20
284.4808555112415
 30
0.0
 10
231.9996168446327
 20
284.5229824048331
 30
0.0
 10
231.1793771954884
 20
284.5335694912442
 30
0.0
 10
230.7321426231135
 20
284.5393420859594
 30
0.0
  0
LINE
  5
141
330
1F
100
AcDbEntity
  8
0
  6
Continuous
 62
     8
370
    18
100
AcDbLine
 10
239.2576568216
 20
270.5142425405
 30
0.0
 11
239.2578076959
 21
277.9048739033
 31
0.0
  0
SPLINE
  5
142
330
1F
100
AcDbEntity
  8
0
  6
Continuous
 62
     8
370
    18
100
AcDbSpline
210
0.0
220
0.0
230
1.0
 70
     8
 71
     3
 72
    10
 73
     6
 74
     0
 42
0.000000001
 43
0.00000001
 40
0.0
 40
0.0
 40
0.0
 40
0.0
 40
0.5
 40
0.5
 40
1.0
 40
1.0
 40
1.0
 40
1.0
 10
208.1302210047474
 20
277.9048723057339
 30
0.0
 10
207.9135543395123
 20
277.9048497325095
 30
0.0
 10
207.6905706064347
 20
277.8891913500595
 30
0.0
 10
207.2698714116495
 20
277.8266069155373
 30
0.0
 10
207.0728312338408
 20
277.7797813206598
 30
0.0
 10
206.903878297908
 20
277.7224380016292
 30
0.0
  0
SPLINE
  5
143
330
1F
100
AcDbEntity
  8
0
  6
Continuous
 62
     8
370
    18
100
AcDbSpline
210
0.0
220
0.0
230
1.0
 70
     8
 71
     3
 72
    10
 73
     6
 74
     0
 42
0.000000001
 43
0.00000001
 40
0.0
 40
0.0
 40
0.0
 40
0.0
 40
0.5
 40
0.5
 40
1.0
 40
1.0
 40
1.0
 40
1.0
 10
239.2578037452243
 20
277.9048707581037
 30
0.0
 10
239.4744704336766
 20
277.9048491024006
 30
0.0
 10
239.6974544295257
 20
277.8891913657234
 30
0.0
 10
240.1181531868056
 20
277.8266075194668
 30
0.0
 10
240.3151926036924
 20
277.7797818692322
 30
0.0
 10
240.4841438589954
 20
277.7224383654258
 30
0.0
  0
SPLINE
  5
144
330
1F
100
AcDbEntity
  8
0
  6
Continuous
 62
     8
370
    18
100
AcDbSpline
210
0.0
220
0.0
230
1.0
 70
     8
 71
     3
 72
    26
 73
    22
 74
     0
 42
0.000000001
 43
0.00000001
 40
0.0
 40
0.0
 40
0.0
 40
0.0
 40
0.0350489980278212
 40
0.0716791899921895
 40
0.1098420055906412
 40
0.1494994877973002
 40
0.1906359700532112
 40
0.2332740195182964
 40
0.2950459944825103
 40
0.3631809482071925
 40
0.3994585140243053
 40
0.4356125303481352
 40
0.4542338119975818
 40
0.4794769449745795
 40
0.5114155811781868
 40
0.5568202466228125
 40
0.6167464870677939
 40
0.6911259219105962
 40
0.779881702749951
 40
0.882760337497688
 40
0.9999999999999999
 40
0.9999999999999999
 40
0.9999999999999999
 40
0.9999999999999999
 10
206.9038846965891
 20
277.7224410665584
 30
0.0
 10
206.9057178747534
 20
277.886806202331
 30
0.0
 10
206.9094669327384
 20
278.2229516118456
 30
0.0
 10
206.928331135964
 20
278.7388852889978
 30
0.0
 10
206.9620474825416
 20
279.2765923821705
 30
0.0
 10
207.016570298494
 20
279.8349686060508
 30
0.0
 10
207.0978803746923
 20
280.4127081002285
 30
0.0
 10
207.2289000631875
 20
281.089736051107
 30
0.0
 10
207.4445258617323
 20
281.8834197564496
 30
0.0
 10
207.7590927474913
 20
282.6221034003924
 30
0.0
 10
208.1174428923919
 20
283.2056868604575
 30
0.0
 10
208.3999632335763
 20
283.5550373100863
 30
0.0
 10
208.6744963036083
 20
283.840425571
 30
0.0
 10
208.9520988135314
 20
284.0949800582212
 30
0.0
 10
209.3660426301003
 20
284.4010158287963
 30
0.0
 10
209.9725511241664
 20
284.7415067647665
 30
0.0
 10
210.8297166304829
 20
285.0747972521675
 30
0.0
 10
211.9484788004447
 20
285.3371243483913
 30
0.0
 10
213.3105147371303
 20
285.5071912174404
 30
0.0
 10
214.9023091172696
 20
285.5988321991578
 30
0.0
 10
216.0382658908057
 20
285.6098638025177
 30
0.0
 10
216.6433005036044
 20
285.6157394678801
 30
0.0
  0
LWPOLYLINE
  5
145
330
1F
100
AcDbEntity
  8
0
  6
Continuous
 62
     8
370
    18
100
AcDbPolyline
 90
        9
 70
   128
 43
0.0
 10
216.6558856532
 20
284.5393402534
 10
216.6542861067
 20
284.6858223932
 10
216.6526893541
 20
284.8293354767
 10
216.6510972582
 20
284.9696485358
 10
216.6495130785
 20
285.106549229
 10
216.6479386777
 20
285.2398140388
 10
216.6463768497
 20
285.3692343491
 10
216.6448299229
 20
285.4946089941
 10
216.6433006912
 20
285.6157405334
  0
SPLINE
  5
146
330
1F
100
AcDbEntity
  8
0
  6
Continuous
 62
     8
370
    18
100
AcDbSpline
210
0.0
220
0.0
230
1.0
 70
     8
 71
     3
 72
    25
 73
    21
 74
     0
 42
0.000000001
 43
0.00000001
 40
0.0
 40
0.0
 40
0.0
 40
0.0
 40
0.1156815037287143
 40
0.2173097440463851
 40
0.305112691673265
 40
0.3788743061173938
 40
0.4384929221104122
 40
0.4839070963914887
 40
0.5121803668930759
 40
0.5372635512702894
 40
0.5591935282149687
 40
0.5958133789684742
 40
0.6321614955938524
 40
0.6689571617694093
 40
0.7125660247119482
 40
0.7632734119896902
 40
0.8278218311183608
 40
0.8888231202747424
 40
0.9462627426961499
 40
1.0
 40
1.0
 40
1.0
 40
1.0
 10
230.7447279273243
 20
285.6157394678801
 30
0.0
 10
231.3417436292683
 20
285.6099500069084
 30
0.0
 10
232.4632481498645
 20
285.5990744024134
 30
0.0
 10
234.0357945976849
 20
285.5102322583703
 30
0.0
 10
235.3838841686745
 20
285.3456951666474
 30
0.0
 10
236.4949324001465
 20
285.092597263198
 30
0.0
 10
237.3517793448209
 20
284.7702251182796
 30
0.0
 10
237.9456381514545
 20
284.4471106878464
 30
0.0
 10
238.3512456782766
 20
284.1612941836647
 30
0.0
 10
238.6353200787418
 20
283.9163150945789
 30
0.0
 10
238.9278195975124
 20
283.622906834844
 30
0.0
 10
239.225169088157
 20
283.2618846072436
 30
0.0
 10
239.5169046266822
 20
282.8114673065276
 30
0.0
 10
239.7706480968737
 20
282.305921132543
 30
0.0
 10
239.98925728501
 20
281.7164476590458
 30
0.0
 10
240.1847888975676
 20
280.9859111197449
 30
0.0
 10
240.3347395581335
 20
280.1641508854677
 30
0.0
 10
240.427505555504
 20
279.3053608063034
 30
0.0
 10
240.4735732361132
 20
278.4960746589048
 30
0.0
 10
240.4806993384057
 20
277.9745295057895
 30
0.0
 10
240.4841437343396
 20
277.7224410665584
 30
0.0
  0
LWPOLYLINE
  5
147
330
1F
100
AcDbEntity
  8
0
  6
Continuous
 62
     8
370
    18
100
AcDbPolyline
 90
        9
 70
   128
 43
0.0
 10
230.7321423121
 20
284.5393402534
 10
230.7337418586
 20
284.6858223932
 10
230.7353386112
 20
284.8293354767
 10
230.7369307071
 20
284.9696485358
 10
230.7385153525
 20
285.106549229
 10
230.7400892876
 20
285.2398140388
 10
230.7416511156
 20
285.3692343491
 10
230.7431980424
 20
285.4946089941
 10
230.744727274
 20
285.6157405334
  0
SPLINE
  5
148
330
1F
100
AcDbEntity
  8
0
  6
Continuous
 62
     8
370
    18
100
AcDbSpline
210
0.0
220
0.0
230
1.0
 70
     8
 71
     3
 72
     8
 73
     4
 74
     0
 42
0.000000001
 43
0.00000001
 40
0.0
 40
0.0
 40
0.0
 40
0.0
 40
1.0
 40
1.0
 40
1.0
 40
1.0
 10
204.2684083997259
 20
279.6389499363007
 30
0.0
 10
204.2662904123608
 20
279.3887101698824
 30
0.0
 10
204.2659072048598
 20
279.1383052507142
 30
0.0
 10
204.26630698437
 20
278.8878514408132
 30
0.0
  0
SPLINE
  5
149
330
1F
100
AcDbEntity
  8
0
  6
Continuous
 62
     8
370
    18
100
AcDbSpline
210
0.0
220
0.0
230
1.0
 70
     8
 71
     3
 72
    23
 73
    19
 74
     0
 42
0.000000001
 43
0.00000001
 40
0.0
 40
0.0
 40
0.0
 40
0.0
 40
0.0833982058336284
 40
0.15164010868399
 40
0.2049269667281731
 40
0.2430222173712147
 40
0.3397643395733813
 40
0.4242532336682717
 40
0.496481980536262
 40
0.5397941551821542
 40
0.5829912413511738
 40
0.6260832086358971
 40
0.6589248613454962
 40
0.7014873105755662
 40
0.7535734076016404
 40
0.8390467501990582
 40
0.9210266472907762
 40
1.0
 40
1.0
 40
1.0
 40
1.0
 10
216.5873502472345
 20
291.6193680459409
 30
0.0
 10
215.9961390169815
 20
291.6130210181782
 30
0.0
 10
214.9211598335012
 20
291.6014804344196
 30
0.0
 10
213.4710310300504
 20
291.5078007332863
 30
0.0
 10
212.3502103290734
 20
291.3604107682579
 30
0.0
 10
211.0461299055273
 20
291.1074901350463
 30
0.0
 10
209.5651010186498
 20
290.6515857491386
 30
0.0
 10
208.0086944269981
 20
289.8196967163537
 30
0.0
 10
206.9728646904364
 20
288.9375128872251
 30
0.0
 10
206.2965632659695
 20
288.1308015293752
 30
0.0
 10
205.8276524899644
 20
287.4220477527182
 30
0.0
 10
205.4730670258101
 20
286.7356567280967
 30
0.0
 10
205.1750452018676
 20
286.0319334520874
 30
0.0
 10
204.9061282989424
 20
285.2565872038987
 30
0.0
 10
204.6154551149759
 20
284.1382100095048
 30
0.0
 10
204.3942940341146
 20
282.7496589962646
 30
0.0
 10
204.2847166903975
 20
281.1766472193691
 30
0.0
 10
204.2738572822332
 20
280.1450660223717
 30
0.0
 10
204.2685290029208
 20
279.6389101925302
 30
0.0
  0
LINE
  5
14A
330
1F
100
AcDbEntity
  8
0
  6
Continuous
 62
     8
370
    18
100
AcDbLine
 10
216.6433006912
 20
285.6157405334
 30
0.0
 11
216.5873500906
 21
291.6193662243
 31
0.0
  0
SPLINE
  5
14B
330
1F
100
AcDbEntity
  8
0
  6
Continuous
 62
     8
370
    18
100
AcDbSpline
210
0.0
220
0.0
230
1.0
 70
     8
 71
     3
 72
    25
 73
    21
 74
     0
 42
0.000000001
 43
0.00000001
 40
0.0
 40
0.0
 40
0.0
 40
0.0
 40
0.039123642680678
 40
0.0789858668010851
 40
0.1195981674218346
 40
0.1609937068403591
 40
0.2032383808947919
 40
0.2465166728433236
 40
0.3743002551157809
 40
0.5029773281393025
 40
0.5271493594616895
 40
0.5552416741542832
 40
0.5873553306012745
 40
0.6236462929653867
 40
0.6640259908313826
 40
0.7084795758235363
 40
0.7569526652489672
 40
0.8111217725225024
 40
0.892157821221648
 40
1.0
 40
1.0
 40
1.0
 40
1.0
 10
243.1194994265163
 20
279.6389101908596
 30
0.0
 10
243.1176445466332
 20
279.8896787843531
 30
0.0
 10
243.1138997701928
 20
280.3959500149039
 30
0.0
 10
243.0920413655342
 20
281.1612672890047
 30
0.0
 10
243.0495640154315
 20
281.9397098120532
 30
0.0
 10
242.9780506527312
 20
282.7309231625566
 30
0.0
 10
242.8689527761731
 20
283.5351681324169
 30
0.0
 10
242.6138392008608
 20
284.8756344713166
 30
0.0
 10
242.0316528126628
 20
286.7221057883149
 30
0.0
 10
241.0217921986948
 20
288.2899494004038
 30
0.0
 10
240.1664426509958
 20
289.1435775950451
 30
0.0
 10
239.7304390101853
 20
289.5112600904243
 30
0.0
 10
239.1926484352513
 20
289.891595749374
 30
0.0
 10
238.54310867006
 20
290.2668034441816
 30
0.0
 10
237.778248763505
 20
290.6199076682413
 30
0.0
 10
236.899183170888
 20
290.9348192420711
 30
0.0
 10
235.898128625412
 20
291.2014266153687
 30
0.0
 10
234.6203029263773
 20
291.4326915038304
 30
0.0
 10
232.9042064377962
 20
291.5957571838999
 30
0.0
 10
231.5651994813922
 20
291.6107867459983
 30
0.0
 10
230.8006781836943
 20
291.6193680459418
 30
0.0
  0
SPLINE
  5
14C
330
1F
100
AcDbEntity
  8
0
  6
Continuous
 62
     8
370
    18
100
AcDbSpline
210
0.0
220
0.0
230
1.0
 70
     8
 71
     3
 72
     8
 73
     4
 74
     0
 42
0.000000001
 43
0.00000001
 40
0.0
 40
0.0
 40
0.0
 40
0.0
 40
1.0
 40
1.0
 40
1.0
 40
1.0
 10
243.1217214465588
 20
278.8878514408132
 30
0.0
 10
243.1221212260693
 20
279.1383052507663
 30
0.0
 10
243.1217380185682
 20
279.3887101699867
 30
0.0
 10
243.1196200312022
 20
279.638949936457
 30
0.0
  0
LINE
  5
14D
330
1F
100
AcDbEntity
  8
0
  6
Continuous
 62
     8
370
    18
100
AcDbLine
 10
230.8006783403
 20
291.6193662243
 30
0.0
 11
230.7447277397
 21
285.6157405334
 31
0.0
  0
SPLINE
  5
14E
330
1F
100
AcDbEntity
  8
0
  6
Continuous
 62
     8
370
    18
100
AcDbSpline
210
0.0
220
0.0
230
1.0
 70
     8
 71
     3
 72
     8
 73
     4
 74
     0
 42
0.000000001
 43
0.00000001
 40
0.0
 40
0.0
 40
0.0
 40
0.0
 40
1.0
 40
1.0
 40
1.0
 40
1.0
 10
216.6433009593187
 20
285.6157394714067
 30
0.0
 10
221.3435908898043
 20
285.6575070064106
 30
0.0
 10
226.0444375388802
 20
285.6575070064171
 30
0.0
 10
230.744727469366
 20
285.6157394714265
 30
0.0
  0
SPLINE
  5
14F
330
1F
100
AcDbEntity
  8
0
  6
Continuous
 62
     8
370
    18
100
AcDbSpline
210
0.0
220
0.0
230
1.0
 70
     8
 71
     3
 72
    10
 73
     6
 74
     0
 42
0.000000001
 43
0.00000001
 40
0.0
 40
0.0
 40
0.0
 40
0.0
 40
0.5
 40
0.5
 40
1.0
 40
1.0
 40
1.0
 40
1.0
 10
243.1196200196724
 20
279.6389514464508
 30
0.0
 10
243.2891228358084
 20
279.580950224724
 30
0.0
 10
243.4366564220419
 20
279.5033426748072
 30
0.0
 10
243.6348344956108
 20
279.3270369489952
 30
0.0
 10
243.6844959280206
 20
279.2292037501897
 30
0.0
 10
243.6847349088328
 20
279.136212058112
 30
0.0
  0
SPLINE
  5
150
330
1F
100
AcDbEntity
  8
0
  6
Continuous
 62
     8
370
    18
100
AcDbSpline
210
0.0
220
0.0
230
1.0
 70
     8
 71
     3
 72
    10
 73
     6
 74
     0
 42
0.000000001
 43
0.00000001
 40
0.0
 40
0.0
 40
0.0
 40
0.0
 40
0.5
 40
0.5
 40
1.0
 40
1.0
 40
1.0
 40
1.0
 10
204.268529005591
 20
279.6389108169059
 30
0.0
 10
204.098998808496
 20
279.5809084576711
 30
0.0
 10
203.9514062324739
 20
279.5033124312002
 30
0.0
 10
203.7531319639397
 20
279.3269978965347
 30
0.0
 10
203.7034122012859
 20
279.2291521143961
 30
0.0
 10
203.7031531492165
 20
279.1361473962031
 30
0.0
  0
SPLINE
  5
151
330
1F
100
AcDbEntity
  8
0
  6
Continuous
 62
     8
370
    18
100
AcDbSpline
210
0.0
220
0.0
230
1.0
 70
     8
 71
     3
 72
    24
 73
    20
 74
     0
 42
0.000000001
 43
0.00000001
 40
0.0
 40
0.0
 40
0.0
 40
0.0
 40
0.0775755888545106
 40
0.155912653105869
 40
0.2346793510975123
 40
0.2854941473726626
 40
0.3332431677674705
 40
0.377800071129831
 40
0.4191703653454711
 40
0.4574836342926807
 40
0.4929655279607223
 40
0.5571462996555223
 40
0.6224757095249215
 40
0.6902063198092176
 40
0.7605744603525117
 40
0.8087463076991404
 40
0.8649541352323992
 40
0.9288078418366424
 40
1.0
 40
1.0
 40
1.0
 40
1.0
 10
203.7032936629356
 20
279.136167464591
 30
0.0
 10
203.7032178828261
 20
279.6654726295304
 30
0.0
 10
203.7030655787562
 20
280.7292785739893
 30
0.0
 10
203.7799870253559
 20
282.3333265853802
 30
0.0
 10
203.9608351243721
 20
283.7453280059909
 30
0.0
 10
204.2190799792889
 20
284.9332750879046
 30
0.0
 10
204.5027912916945
 20
285.8795181392207
 30
0.0
 10
204.8428826158712
 20
286.7424910772158
 30
0.0
 10
205.2321624425772
 20
287.5177401706306
 30
0.0
 10
205.662495567413
 20
288.2040529014348
 30
0.0
 10
206.2601486450491
 20
288.979418490614
 30
0.0
 10
207.1141196910076
 20
289.8131398671517
 30
0.0
 10
208.3198558036382
 20
290.6184501678282
 30
0.0
 10
209.6987698280496
 20
291.242223563204
 30
0.0
 10
211.0380752473606
 20
291.63646915271
 30
0.0
 10
212.3273703008306
 20
291.8863258425334
 30
0.0
 10
213.5852062396976
 20
292.0386886395075
 30
0.0
 10
215.0240385871644
 20
292.1201457255795
 30
0.0
 10
216.0414543177359
 20
292.1302428024341
 30
0.0
 10
216.5778055916782
 20
292.1355656806552
 30
0.0
  0
SPLINE
  5
152
330
1F
100
AcDbEntity
  8
0
  6
Continuous
 62
     8
370
    18
100
AcDbSpline
210
0.0
220
0.0
230
1.0
 70
     8
 71
     3
 72
    10
 73
     6
 74
     0
 42
0.000000001
 43
0.00000001
 40
0.0
 40
0.0
 40
0.0
 40
0.0
 40
0.5
 40
0.5
 40
1.0
 40
1.0
 40
1.0
 40
1.0
 10
216.5873502517307
 20
291.6193680459809
 30
0.0
 10
216.5853296725877
 20
291.7772920284754
 30
0.0
 10
216.5833599219904
 20
291.911272938493
 30
0.0
 10
216.5800419425571
 20
292.0907171444802
 30
0.0
 10
216.57870493289
 20
292.1355736811503
 30
0.0
 10
216.5778055961867
 20
292.1355656806953
 30
0.0
  0
SPLINE
  5
153
330
1F
100
AcDbEntity
  8
0
  6
Continuous
 62
     8
370
    18
100
AcDbSpline
210
0.0
220
0.0
230
1.0
 70
     8
 71
     3
 72
    10
 73
     6
 74
     0
 42
0.000000001
 43
0.00000001
 40
0.0
 40
0.0
 40
0.0
 40
0.0
 40
0.5
 40
0.5
 40
1.0
 40
1.0
 40
1.0
 40
1.0
 10
230.7964716426566
 20
291.6194054139298
 30
0.0
 10
230.7984909785017
 20
291.7773294081254
 30
0.0
 10
230.8004595152129
 20
291.9113103301609
 30
0.0
 10
230.8037754456044
 20
292.0907545597424
 30
0.0
 10
230.8051116270451
 20
292.1356111079643
 30
0.0
 10
230.8060104038491
 20
292.1356031175271
 30
0.0
  0
SPLINE
  5
154
330
1F
100
AcDbEntity
  8
0
  6
Continuous
 62
     8
370
    18
100
AcDbSpline
210
0.0
220
0.0
230
1.0
 70
     8
 71
     3
 72
     8
 73
     4
 74
     0
 42
0.000000001
 43
0.00000001
 40
0.0
 40
0.0
 40
0.0
 40
0.0
 40
1.0
 40
1.0
 40
1.0
 40
1.0
 10
230.7964716424733
 20
291.6194054139314
 30
0.0
 10
226.0616868739953
 20
291.6614699670886
 30
0.0
 10
221.3263415546839
 20
291.661469967082
 30
0.0
 10
216.5915567862061
 20
291.6194054139115
 30
0.0
  0
ARC
  5
155
330
1F
100
AcDbEntity
  8
0
  6
Continuous
 62
     7
370
    25
100
AcDbCircle
 10
407.9266503796
 20
242.4666082519
 30
0.0
 40
17.83210462674217
100
AcDbArc
 50
96.1868807351
 51
112.1230361419
  0
LINE
  5
156
330
1F
100
AcDbEntity
  8
0
  6
Continuous
 62
     7
370
    25
100
AcDbLine
 10
348.3556233963
 20
292.1672148662
 30
0.0
 11
339.4266504014
 21
292.1672148662
 31
0.0
  0
LINE
  5
157
330
1F
100
AcDbEntity
  8
0
  6
Continuous
 62
     7
370
    25
100
AcDbLine
 10
355.1727519056
 20
285.6470664995
 30
0.0
 11
349.5339951163
 21
291.6509529608
 31
0.0
  0
SPLINE
  5
158
330
1F
100
AcDbEntity
  8
0
  6
Continuous
 62
     7
370
    25
100
AcDbSpline
210
0.0
220
0.0
230
1.0
 70
     8
 71
     3
 72
    11
 73
     7
 74
     0
 42
0.000000001
 43
0.00000001
 40
0.0
 40
0.0
 40
0.0
 40
0.0
 40
0.2473746665040006
 40
0.5000002881254161
 40
0.7526232031349768
 40
1.0
 40
1.0
 40
1.0
 40
1.0
 10
349.5339876657578
 20
291.6509641366511
 30
0.0
 10
349.4538171923647
 20
291.7269544536638
 30
0.0
 10
349.2917744886303
 20
291.8805481135888
 30
0.0
 10
348.9949197599702
 20
292.0419308055952
 30
0.0
 10
348.6740578749887
 20
292.1478338233742
 30
0.0
 10
348.4511663297552
 20
292.1607998662205
 30
0.0
 10
348.3408898731919
 20
292.1672148662119
 30
0.0
  0
LINE
  5
159
330
1F
100
AcDbEntity
  8
0
  6
Continuous
 62
     7
370
    25
100
AcDbLine
 10
355.901623579
 20
284.5706028896
 30
0.0
 11
355.1727593562
 21
285.6470590489
 31
0.0
  0
LINE
  5
15A
330
1F
100
AcDbEntity
  8
0
  6
Continuous
 62
     7
370
    25
100
AcDbLine
 10
339.4266504014
 20
279.1360860723
 30
0.0
 11
339.4266504014
 21
227.8896069186
 31
0.0
  0
SPLINE
  5
15B
330
1F
100
AcDbEntity
  8
0
  6
Continuous
 62
     7
370
    25
100
AcDbSpline
210
0.0
220
0.0
230
1.0
 70
    24
 71
     3
 72
    32
 73
    28
 74
     0
 42
0.000000001
 43
0.00000001
 40
0.0
 40
0.0
 40
0.0
 40
0.0
 40
0.1249999999999994
 40
0.1249999999999994
 40
0.2499999999999988
 40
0.2499999999999988
 40
0.3124999999999986
 40
0.3124999999999986
 40
0.3749999999999983
 40
0.3749999999999983
 40
0.4374999999999981
 40
0.4374999999999981
 40
0.4999999999999979
 40
0.4999999999999979
 40
0.5312499999999983
 40
0.5312499999999983
 40
0.5624999999999987
 40
0.5624999999999987
 40
0.624999999999999
 40
0.624999999999999
 40
0.6874999999999992
 40
0.6874999999999992
 40
0.7499999999999994
 40
0.7499999999999994
 40
0.8749999999999997
 40
0.8749999999999997
 40
1.0
 40
1.0
 40
1.0
 40
1.0
 10
339.4266503795803
 20
279.1360859134853
 30
0.0
 10
339.4266503795803
 20
280.0315841388241
 30
0.0
 10
339.4266503795803
 20
280.9267996041245
 30
0.0
 10
339.4266503795803
 20
282.7073156726709
 30
0.0
 10
339.4266503795803
 20
283.5928634157571
 30
0.0
 10
339.4266503795803
 20
284.9094731397374
 30
0.0
 10
339.4266503795803
 20
285.3465941543935
 30
0.0
 10
339.4266503795803
 20
286.1970270115426
 30
0.0
 10
339.4266503795803
 20
286.6125188354375
 30
0.0
 10
339.4266503795803
 20
287.4198800646125
 30
0.0
 10
339.4266503795803
 20
287.8149737711146
 30
0.0
 10
339.4266503795803
 20
288.5516116927285
 30
0.0
 10
339.4266503795803
 20
288.8948026528806
 30
0.0
 10
339.4266503795803
 20
289.3697961330531
 30
0.0
 10
339.4266503795803
 20
289.5215117459041
 30
0.0
 10
339.4266503795803
 20
289.8116460260129
 30
0.0
 10
339.4266503795803
 20
289.9506779112372
 30
0.0
 10
339.4266503795803
 20
290.3430691004114
 30
0.0
 10
339.4266503795803
 20
290.5710538972574
 30
0.0
 10
339.4266503795803
 20
290.9713131968807
 30
0.0
 10
339.4266503795803
 20
291.1442574284062
 30
0.0
 10
339.4266503795803
 20
291.4392592668675
 30
0.0
 10
339.4266503795803
 20
291.5607567887848
 30
0.0
 10
339.4266503795803
 20
291.8631891971751
 30
0.0
 10
339.4266503795803
 20
291.9818002756368
 30
0.0
 10
339.4266503795803
 20
292.1152641776407
 30
0.0
 10
339.4266503795803
 20
292.1275715264609
 30
0.0
 10
339.4266503795803
 20
292.1355716849986
 30
0.0
  0
SPLINE
  5
15C
330
1F
100
AcDbEntity
  8
0
  6
Continuous
 62
     7
370
    25
100
AcDbSpline
210
0.0
220
0.0
230
1.0
 70
    24
 71
     3
 72
    12
 73
     8
 74
     0
 42
0.000000001
 43
0.00000001
 40
0.0
 40
0.0
 40
0.0
 40
0.0
 40
0.5000000000000001
 40
0.5000000000000001
 40
0.75
 40
0.75
 40
1.0
 40
1.0
 40
1.0
 40
1.0
 10
339.4266503795803
 20
226.7174095764238
 30
0.0
 10
339.4266503795803
 20
226.8586288123757
 30
0.0
 10
339.4266503795803
 20
227.0387818619063
 30
0.0
 10
339.4266503795803
 20
227.3401397789606
 30
0.0
 10
339.4266503795803
 20
227.4476435315306
 30
0.0
 10
339.4266503795803
 20
227.6656923144287
 30
0.0
 10
339.4266503795803
 20
227.7766520503031
 30
0.0
 10
339.4266503795803
 20
227.8896073591636
 30
0.0
  0
LINE
  5
15D
330
1F
100
AcDbEntity
  8
0
  6
Continuous
 62
     7
370
    25
100
AcDbLine
 10
339.4266504014
 20
226.717408936
 30
0.0
 11
339.4266504014
 21
224.5978957074
 31
0.0
  0
SPLINE
  5
15E
330
1F
100
AcDbEntity
  8
0
  6
Continuous
 62
     7
370
    25
100
AcDbSpline
210
0.0
220
0.0
230
1.0
 70
     8
 71
     3
 72
    22
 73
    18
 74
     0
 42
0.000000001
 43
0.00000001
 40
0.0
 40
0.0
 40
0.0
 40
0.0
 40
0.1250000000000004
 40
0.1250000000000004
 40
0.2500000000000008
 40
0.2500000000000008
 40
0.3750000000000012
 40
0.3750000000000012
 40
0.5000000000000016
 40
0.5000000000000016
 40
0.6250000000000011
 40
0.6250000000000011
 40
0.7500000000000008
 40
0.7500000000000008
 40
0.8750000000000003
 40
0.8750000000000003
 40
1.0
 40
1.0
 40
1.0
 40
1.0
 10
362.4562130753345
 20
270.5142430170336
 30
0.0
 10
362.8554527603422
 20
269.6580707495676
 30
0.0
 10
363.2576698116675
 20
268.7984344287519
 30
0.0
 10
364.1579347848407
 20
267.0855030475216
 30
0.0
 10
364.6551546827498
 20
266.2337803377438
 30
0.0
 10
365.7770930785587
 20
264.6079252158272
 30
0.0
 10
366.4009835525196
 20
263.8353651543251
 30
0.0
 10
367.7762191875213
 20
262.4467488159529
 30
0.0
 10
368.5267363246233
 20
261.8322648897197
 30
0.0
 10
370.1483104487819
 20
260.7992082395256
 30
0.0
 10
371.0224042640432
 20
260.3787008426287
 30
0.0
 10
372.8621177583198
 20
259.7191687007368
 30
0.0
 10
373.82596246567
 20
259.4802298961928
 30
0.0
 10
375.7736392779265
 20
259.1505244569361
 30
0.0
 10
376.7556964111677
 20
259.0598437626744
 30
0.0
 10
378.6886078787035
 20
258.9678426899048
 30
0.0
 10
379.6376872413329
 20
258.9666082518482
 30
0.0
 10
380.5823688160614
 20
258.9666082518606
 30
0.0
  0
LINE
  5
15F
330
1F
100
AcDbEntity
  8
0
  6
Continuous
 62
     7
370
    25
100
AcDbLine
 10
408.3585687598
 20
225.9722614693
 30
0.0
 11
339.4266505178
 21
224.1672167587
 31
0.0
  0
SPLINE
  5
160
330
1F
100
AcDbEntity
  8
0
  6
Continuous
 62
     7
370
    25
100
AcDbSpline
210
0.0
220
0.0
230
1.0
 70
    24
 71
     3
 72
     8
 73
     4
 74
     0
 42
0.000000001
 43
0.00000001
 40
0.0
 40
0.0
 40
0.0
 40
0.0
 40
1.0
 40
1.0
 40
1.0
 40
1.0
 10
339.4266503795803
 20
224.1672165482724
 30
0.0
 10
339.4266503795803
 20
224.1672165483361
 30
0.0
 10
339.4266503795803
 20
224.3201269560548
 30
0.0
 10
339.4266503795803
 20
224.5978951048517
 30
0.0
  0
LINE
  5
161
330
1F
100
AcDbEntity
  8
0
  6
Continuous
 62
     7
370
    25
100
AcDbLine
 10
359.0099052211
 20
277.9048739033
 30
0.0
 11
362.4562122544
 21
270.5142425405
 31
0.0
  0
ARC
  5
162
330
1F
100
AcDbEntity
  8
0
  6
Continuous
 62
     7
370
    25
100
AcDbCircle
 10
352.1925668977
 20
282.8029810587
 30
0.0
 40
4.108577049317253
100
AcDbArc
 50
24.999992366
 51
43.2046860783
  0
SPLINE
  5
163
330
1F
100
AcDbEntity
  8
0
  6
Continuous
 62
     7
370
    25
100
AcDbSpline
210
0.0
220
0.0
230
1.0
 70
    24
 71
     3
 72
    24
 73
    20
 74
     0
 42
0.000000001
 43
0.00000001
 40
0.0
 40
0.0
 40
0.0
 40
0.0
 40
0.0622581353891697
 40
0.1185127441485441
 40
0.1687754393377195
 40
0.2130625479040399
 40
0.2513980324989379
 40
0.3247706911696867
 40
0.3896617404489507
 40
0.4467443706587363
 40
0.4970065057678187
 40
0.5579537149346245
 40
0.6206128652392453
 40
0.6798663859438878
 40
0.7480590819253166
 40
0.8025510561248596
 40
0.8625904004834186
 40
0.9283603017283542
 40
1.0
 40
1.0
 40
1.0
 40
1.0
 10
355.9162019731119
 20
284.5393420859594
 30
0.0
 10
355.9177025709841
 20
284.5361240434376
 30
0.0
 10
355.9205590646871
 20
284.529998272923
 30
0.0
 10
355.929564845119
 20
284.5106853144622
 30
0.0
 10
355.9419287682388
 20
284.4841707957671
 30
0.0
 10
355.9578295688405
 20
284.450071418835
 30
0.0
 10
355.9843122294963
 20
284.3932791697852
 30
0.0
 10
356.0315935497312
 20
284.2918840513306
 30
0.0
 10
356.1158120247965
 20
284.1112769487184
 30
0.0
 10
356.2259091863261
 20
283.8751728238896
 30
0.0
 10
356.376689489111
 20
283.5518234210911
 30
0.0
 10
356.5952854468387
 20
283.0830428769486
 30
0.0
 10
356.8848150886798
 20
282.4621445563277
 30
0.0
 10
357.219574765254
 20
281.7442501132067
 30
0.0
 10
357.5544657021759
 20
281.0260741813617
 30
0.0
 10
357.8968022816058
 20
280.2919310176308
 30
0.0
 10
358.2375608892141
 20
279.5611718253915
 30
0.0
 10
358.6123539509231
 20
278.7574255107977
 30
0.0
 10
358.8736674611068
 20
278.197036879786
 30
0.0
 10
359.0099055484728
 20
277.9048733585926
 30
0.0
  0
LINE
  5
164
330
1F
100
AcDbEntity
  8
0
  6
Continuous
 62
     7
370
    25
100
AcDbLine
 10
380.5823684355
 20
258.9666081625
 30
0.0
 11
407.9266511521
 21
258.9666081625
 31
0.0
  0
SPLINE
  5
165
330
1F
100
AcDbEntity
  8
0
  6
Continuous
 62
     7
370
    25
100
AcDbSpline
210
0.0
220
0.0
230
1.0
 70
     8
 71
     3
 72
    22
 73
    18
 74
     0
 42
0.000000001
 43
0.00000001
 40
0.0
 40
0.0
 40
0.0
 40
0.0
 40
0.125
 40
0.125
 40
0.25
 40
0.25
 40
0.3749999999999999
 40
0.3749999999999999
 40
0.4999999999999999
 40
0.4999999999999999
 40
0.6249999999999999
 40
0.6249999999999999
 40
0.7499999999999999
 40
0.7499999999999999
 40
0.875
 40
0.875
 40
1.0
 40
1.0
 40
1.0
 40
1.0
 10
407.9266503795803
 20
258.9666082518606
 30
0.0
 10
410.0684966210121
 20
258.9666082518606
 30
0.0
 10
412.2095277796273
 20
258.54437135803
 30
0.0
 10
416.1724869777261
 20
256.9180332376056
 30
0.0
 10
417.9929069071116
 20
255.7145509164357
 30
0.0
 10
421.0416948339051
 20
252.7054125904061
 30
0.0
 10
422.2689026104707
 20
250.9009017176737
 30
0.0
 10
423.9469749317317
 20
246.959570144162
 30
0.0
 10
424.3972008834751
 20
244.8242493230559
 30
0.0
 10
424.4532726856278
 20
240.5409238345195
 30
0.0
 10
424.0590971978281
 20
238.3945491930623
 30
0.0
 10
422.4847719429048
 20
234.4106414030335
 30
0.0
 10
421.3052212876307
 20
232.5746243365783
 30
0.0
 10
418.3362481627262
 20
229.4867092031368
 30
0.0
 10
416.5479555402952
 20
228.2359862469106
 30
0.0
 10
412.6289269182458
 20
226.5064672538665
 30
0.0
 10
410.4996823108788
 20
226.0283293881092
 30
0.0
 10
408.3585700266602
 20
225.9722623897639
 30
0.0
  0
LINE
  5
166
330
1F
100
AcDbEntity
  8
0
  6
Continuous
 62
     7
370
    25
100
AcDbLine
 10
415.2034246048
 20
227.5788385453
 30
0.0
 11
415.3523021063
 21
227.7693973886
 31
0.0
  0
ARC
  5
167
330
1F
100
AcDbEntity
  8
0
  6
Continuous
 62
     7
370
    25
100
AcDbCircle
 10
407.9892241656
 20
242.8616835881
 30
0.0
 40
16.89999999999967
100
AcDbArc
 50
281.418986872
 51
295.2694376858
  0
LINE
  5
168
330
1F
100
AcDbEntity
  8
0
  6
Continuous
 62
     7
370
    25
100
AcDbLine
 10
409.1001921019
 20
225.9982397812
 30
0.0
 11
407.9558425268
 21
225.9617170351
 31
0.0
  0
SPLINE
  5
169
330
1F
100
AcDbEntity
  8
0
  6
Continuous
 62
     7
370
    25
100
AcDbSpline
210
0.0
220
0.0
230
1.0
 70
     8
 71
     3
 72
    10
 73
     6
 74
     0
 42
0.000000001
 43
0.00000001
 40
0.0
 40
0.0
 40
0.0
 40
0.0
 40
0.4663992608482335
 40
0.9458278159601624
 40
1.0
 40
1.0
 40
1.0
 40
1.0
 10
424.5704509934636
 20
246.4698866973131
 30
0.0
 10
424.3302205662169
 20
246.9545408404866
 30
0.0
 10
423.8430486527865
 20
247.9373883881011
 30
0.0
 10
423.1851269746927
 20
249.0865165767526
 30
0.0
 10
422.7270829429936
 20
249.7133117128888
 30
0.0
 10
422.6805814227315
 20
249.7769451732247
 30
0.0
  0
ARC
  5
16A
330
1F
100
AcDbEntity
  8
0
  6
Continuous
 62
     7
370
    25
100
AcDbCircle
 10
407.9266503796
 20
242.4666082519
 30
0.0
 40
17.11905897215003
100
AcDbArc
 50
276.0868588795
 51
13.5344483245
  0
SPLINE
  5
16B
330
1F
100
AcDbEntity
  8
0
  6
Continuous
 62
     7
370
    25
100
AcDbSpline
210
0.0
220
0.0
230
1.0
 70
     8
 71
     3
 72
    10
 73
     6
 74
     0
 42
0.000000001
 43
0.00000001
 40
0.0
 40
0.0
 40
0.0
 40
0.0
 40
0.3348011091285128
 40
0.6673919571469362
 40
1.0
 40
1.0
 40
1.0
 40
1.0
 10
406.2977381667348
 20
225.918296914032
 30
0.0
 10
406.7100627613814
 20
225.8352951960544
 30
0.0
 10
407.5319899016987
 20
225.6698397136882
 30
0.0
 10
408.6852083524548
 20
225.5244171773679
 30
0.0
 10
409.3896456183078
 20
225.4708697863178
 30
0.0
 10
409.7418733557912
 20
225.444095398715
 30
0.0
  0
SPLINE
  5
16C
330
1F
100
AcDbEntity
  8
0
  6
Continuous
 62
     7
370
    25
100
AcDbSpline
210
0.0
220
0.0
230
1.0
 70
     8
 71
     3
 72
    11
 73
     7
 74
     0
 42
0.000000001
 43
0.00000001
 40
0.0
 40
0.0
 40
0.0
 40
0.0
 40
0.2773268485288365
 40
0.5624423253781828
 40
0.8398575707491163
 40
1.0
 40
1.0
 40
1.0
 40
1.0
 10
408.3649166545125
 20
259.4909912007361
 30
0.0
 10
407.9703046190467
 20
259.6182312975902
 30
0.0
 10
407.1699980060123
 20
259.8762849852717
 30
0.0
 10
406.3983194090594
 20
260.0798530179767
 30
0.0
 10
405.9787650732319
 20
260.1839747535809
 30
0.0
 10
405.9994470736251
 20
260.1787798887972
 30
0.0
 10
406.0070165118428
 20
260.1768786119728
 30
0.0
  0
ARC
  5
16D
330
1F
100
AcDbEntity
  8
0
  6
Continuous
 62
     7
370
    25
100
AcDbCircle
 10
407.9266503796
 20
242.4666082519
 30
0.0
 40
17.03002123776115
100
AcDbArc
 50
76.9359561205
 51
88.5254523397
  0
SPLINE
  5
16E
330
1F
100
AcDbEntity
  8
0
  6
Continuous
 62
     7
370
    25
100
AcDbSpline
210
0.0
220
0.0
230
1.0
 70
     8
 71
     3
 72
    10
 73
     6
 74
     0
 42
0.000000001
 43
0.00000001
 40
0.0
 40
0.0
 40
0.0
 40
0.0
 40
0.3385912992987101
 40
0.6675966035832178
 40
0.9999999999999999
 40
0.9999999999999999
 40
0.9999999999999999
 40
0.9999999999999999
 10
414.2006211599561
 20
257.7265074508696
 30
0.0
 10
413.90410058191
 20
257.906514321457
 30
0.0
 10
413.3194543396523
 20
258.2614318154231
 30
0.0
 10
412.5110401462854
 20
258.6911156234914
 30
0.0
 10
412.0219063991224
 20
258.9338631765216
 30
0.0
 10
411.7760830244275
 20
259.0558605300694
 30
0.0
  0
LINE
  5
16F
330
1F
100
AcDbEntity
  8
0
  6
Continuous
 62
     7
370
    25
100
AcDbLine
 10
339.4266504014
 20
292.1672148662
 30
0.0
 11
339.4266504014
 21
292.1355722504
 31
0.0
  0
SPLINE
  5
170
330
1F
100
AcDbEntity
  8
0
  6
Continuous
 62
     8
370
    18
100
AcDbSpline
210
0.0
220
0.0
230
1.0
 70
     8
 71
     3
 72
     8
 73
     4
 74
     0
 42
0.000000001
 43
0.00000001
 40
0.0
 40
0.0
 40
0.0
 40
0.0
 40
1.0
 40
1.0
 40
1.0
 40
1.0
 10
354.3300875403895
 20
279.1361895889405
 30
0.0
 10
349.4932644650594
 20
279.1361550304555
 30
0.0
 10
344.5254520781231
 20
279.1361204719704
 30
0.0
 10
339.4266503795803
 20
279.1360859134853
 30
0.0
  0
SPLINE
  5
171
330
1F
100
AcDbEntity
  8
0
  6
Continuous
 62
     8
370
    18
100
AcDbSpline
210
0.0
220
0.0
230
1.0
 70
     8
 71
     3
 72
     8
 73
     4
 74
     0
 42
0.000000001
 43
0.00000001
 40
0.0
 40
0.0
 40
0.0
 40
0.0
 40
1.0
 40
1.0
 40
1.0
 40
1.0
 10
354.6772724184181
 20
278.3922583236157
 30
0.0
 10
354.5619418886804
 20
278.6402354143658
 30
0.0
 10
354.4465366915251
 20
278.8882125051158
 30
0.0
 10
354.3310568269524
 20
279.1361895958659
 30
0.0
  0
SPLINE
  5
172
330
1F
100
AcDbEntity
  8
0
  6
Continuous
 62
     8
370
    18
100
AcDbSpline
210
0.0
220
0.0
230
1.0
 70
     8
 71
     3
 72
    67
 73
    63
 74
     0
 42
0.000000001
 43
0.00000001
 40
0.0
 40
0.0
 40
0.0
 40
0.0
 40
0.0650375160876151
 40
0.1282210683978444
 40
0.1894596736270064
 40
0.2486613109087173
 40
0.3131815554267267
 40
0.3730023261210784
 40
0.3808177658596197
 40
0.3885458455774521
 40
0.3943678262187297
 40
0.3963169804612058
 40
0.4001952799953564
 40
0.404080678610911
 40
0.4197394289967963
 40
0.4353457656445345
 40
0.4510417847038752
 40
0.4666302078159865
 40
0.4822861703365058
 40
0.4978462564045059
 40
0.5134334841448921
 40
0.5290524817844713
 40
0.544628955400978
 40
0.560315430131603
 40
0.5758650464157881
 40
0.5915845426962032
 40
0.5968651999489338
 40
0.6020847463531814
 40
0.6072701508906277
 40
0.6124489661750074
 40
0.6176489006139223
 40
0.6228973797627789
 40
0.6244677977511215
 40
0.6289336327310806
 40
0.6363365928151591
 40
0.6467453780304925
 40
0.6602556824756369
 40
0.6769901957317858
 40
0.697098604413281
 40
0.7207575938435232
 40
0.7481708497853177
 40
0.7654394535402239
 40
0.7794884841238604
 40
0.7883490594012756
 40
0.7951446073928828
 40
0.8033687696055932
 40
0.8108151782455536
 40
0.8270550120607428
 40
0.842326205507205
 40
0.8581055084498149
 40
0.8738143580252303
 40
0.8891097138562063
 40
0.9053107104646525
 40
0.9194582538272094
 40
0.9368109701242341
 40
0.9428980843863052
 40
0.9499632247343495
 40
0.9580074271090834
 40
0.967031850703973
 40
0.9770377838143335
 40
0.988026647776312
 40
1.0
 40
1.0
 40
1.0
 40
1.0
 10
339.4266503795803
 20
227.8896073591636
 30
0.0
 10
343.1958702999094
 20
227.9882177222741
 30
0.0
 10
350.6268645057761
 20
228.182627454898
 30
0.0
 10
361.6069266178796
 20
228.4690548345888
 30
0.0
 10
372.2487537657643
 20
228.7465426223199
 30
0.0
 10
382.968004354582
 20
229.0262323095903
 30
0.0
 10
393.6050002814987
 20
229.3046440738147
 30
0.0
 10
401.2639224466211
 20
229.5039856641625
 30
0.0
 10
405.6314946636203
 20
229.6182485344751
 30
0.0
 10
406.8697041551053
 20
229.6496720475898
 30
0.0
 10
407.7678883895489
 20
229.6747965962384
 30
0.0
 10
408.4430647541762
 20
229.6895585838771
 30
0.0
 10
409.0055781465733
 20
229.7213179502923
 30
0.0
 10
410.3551921943563
 20
229.8724637264845
 30
0.0
 10
412.3523606907209
 20
230.3600908840163
 30
0.0
 10
414.8086798157076
 20
231.5792963850301
 30
0.0
 10
416.9618651503168
 20
233.2728611733222
 30
0.0
 10
418.6940657791501
 20
235.3981473096796
 30
0.0
 10
419.9522798526526
 20
237.8254813080557
 30
0.0
 10
420.6520189782097
 20
240.4682478950868
 30
0.0
 10
420.796737532917
 20
243.1961605552964
 30
0.0
 10
420.3447339261883
 20
245.8912496385906
 30
0.0
 10
419.3500865390897
 20
248.4425576998279
 30
0.0
 10
417.8246244129242
 20
250.7125540718934
 30
0.0
 10
415.8600002955918
 20
252.6257342010626
 30
0.0
 10
414.037954226422
 20
253.7430370583822
 30
0.0
 10
412.6463827270932
 20
254.356029766084
 30
0.0
 10
411.789814540692
 20
254.6638555175897
 30
0.0
 10
410.9192030724478
 20
254.907789560573
 30
0.0
 10
410.0343377150698
 20
255.0887993082881
 30
0.0
 10
409.1351829567193
 20
255.2035408768213
 30
0.0
 10
408.4390018161773
 20
255.2499854912699
 30
0.0
 10
407.7847489224081
 20
255.2471788947679
 30
0.0
 10
407.0056715537182
 20
255.2491625399975
 30
0.0
 10
405.7141708674339
 20
255.2484185537445
 30
0.0
 10
403.8983566167747
 20
255.2489614108403
 30
0.0
 10
401.54155208584
 20
255.2488015627338
 30
0.0
 10
398.6224271830428
 20
255.248767232417
 30
0.0
 10
395.1149390480034
 20
255.2485112333276
 30
0.0
 10
390.9883550471812
 20
255.2482961943271
 30
0.0
 10
387.0263911135238
 20
255.2475345983368
 30
0.0
 10
383.6215381713918
 20
255.248151957702
 30
0.0
 10
381.2922599795448
 20
255.2460358466789
 30
0.0
 10
379.5701208302086
 20
255.2508326091258
 30
0.0
 10
378.1858211254207
 20
255.2746288709347
 30
0.0
 10
376.8844287862324
 20
255.334785084971
 30
0.0
 10
375.0407236242419
 20
255.490918216759
 30
0.0
 10
372.8068709731215
 20
255.8627375175728
 30
0.0
 10
370.1757899939394
 20
256.6640128858882
 30
0.0
 10
367.7248767365768
 20
257.8518663248878
 30
0.0
 10
365.5093723466863
 20
259.4393775394425
 30
0.0
 10
363.5649967490352
 20
261.379149946271
 30
0.0
 10
361.9640528223939
 20
263.4966299206303
 30
0.0
 10
360.5657193136164
 20
265.8864463587702
 30
0.0
 10
359.5987474190252
 20
267.840368856958
 30
0.0
 10
358.8492618478164
 20
269.4421501051576
 30
0.0
 10
358.3280047401557
 20
270.5549807570781
 30
0.0
 10
357.7367473352003
 20
271.8230496150999
 30
0.0
 10
357.0740507508742
 20
273.245925479507
 30
0.0
 10
356.3396890665338
 20
274.8237447113599
 30
0.0
 10
355.5330623970489
 20
276.5565027890087
 30
0.0
 10
354.9706412799503
 20
277.7630802266619
 30
0.0
 10
354.6773740239236
 20
278.3922345090432
 30
0.0
  0
SPLINE
  5
173
330
1F
100
AcDbEntity
  8
0
  6
Continuous
 62
     8
370
    18
100
AcDbSpline
210
0.0
220
0.0
230
1.0
 70
     8
 71
     3
 72
     9
 73
     5
 74
     0
 42
0.000000001
 43
0.00000001
 40
0.0
 40
0.0
 40
0.0
 40
0.0
 40
0.5121635696876621
 40
1.0
 40
1.0
 40
1.0
 40
1.0
 10
339.4266503693443
 20
292.1355716829887
 30
0.0
 10
340.9510153878504
 20
292.1355739688087
 30
0.0
 10
343.9273399621183
 20
292.1355784318752
 30
0.0
 10
346.9036639911609
 20
292.1355950235066
 30
0.0
 10
348.3556232809418
 20
292.1356031175089
 30
0.0
  0
SPLINE
  5
174
330
1F
100
AcDbEntity
  8
0
  6
Continuous
 62
     8
370
    18
100
AcDbSpline
210
0.0
220
0.0
230
1.0
 70
     8
 71
     3
 72
    24
 73
    20
 74
     0
 42
0.000000001
 43
0.00000001
 40
0.0
 40
0.0
 40
0.0
 40
0.0
 40
0.0775755888545106
 40
0.155912653105869
 40
0.2346793510975123
 40
0.2854941473726626
 40
0.3332431677674705
 40
0.377800071129831
 40
0.4191703653454711
 40
0.4574836342926807
 40
0.4929655279607223
 40
0.5571462996555223
 40
0.6224757095249215
 40
0.6902063198092176
 40
0.7605744603525117
 40
0.8087463076991404
 40
0.8649541352323992
 40
0.9288078418366424
 40
1.0
 40
1.0
 40
1.0
 40
1.0
 10
354.3311628563438
 20
279.136167464591
 30
0.0
 10
354.0833016724831
 20
279.6654726295304
 30
0.0
 10
353.5851463204155
 20
280.7292785739893
 30
0.0
 10
352.8432990325699
 20
282.3333265853802
 30
0.0
 10
352.1848680594397
 20
283.7453280059909
 30
0.0
 10
351.6285175025695
 20
284.9332750879046
 30
0.0
 10
351.1938580313257
 20
285.8795181392207
 30
0.0
 10
350.7988081577943
 20
286.7424910772158
 30
0.0
 10
350.4442274488293
 20
287.5177401706306
 30
0.0
 10
350.12991198043
 20
288.2040529014348
 30
0.0
 10
349.7766287368286
 20
288.979418490614
 30
0.0
 10
349.402554655853
 20
289.8131398671517
 30
0.0
 10
349.0421736742185
 20
290.6184501678282
 30
0.0
 10
348.7627289760337
 20
291.242223563204
 30
0.0
 10
348.5815011873811
 20
291.63646915271
 30
0.0
 10
348.4739817325803
 20
291.8863258425334
 30
0.0
 10
348.4104692550865
 20
292.0386886395075
 30
0.0
 10
348.3681245595778
 20
292.1201457255795
 30
0.0
 10
348.3599500606866
 20
292.1302428024341
 30
0.0
 10
348.3556407083125
 20
292.1355656806552
 30
0.0
  0
SPLINE
  5
175
330
1F
100
AcDbEntity
  8
0
  6
Continuous
 62
     8
370
    18
100
AcDbSpline
210
0.0
220
0.0
230
1.0
 70
     8
 71
     3
 72
    10
 73
     6
 74
     0
 42
0.000000001
 43
0.00000001
 40
0.0
 40
0.0
 40
0.0
 40
0.0
 40
0.5
 40
0.5
 40
1.0
 40
1.0
 40
1.0
 40
1.0
 10
355.7392655492185
 20
278.8878722152189
 30
0.0
 10
355.6163367497317
 20
278.8304429067107
 30
0.0
 10
355.4523054372099
 20
278.7538588370412
 30
0.0
 10
355.0800582324899
 20
278.5801433887808
 30
0.0
 10
354.8736337026706
 20
278.4838479859218
 30
0.0
 10
354.6772659653034
 20
278.3922721618537
 30
0.0
  0
SPLINE
  5
176
330
1F
100
AcDbEntity
  8
0
  6
Continuous
 62
     8
370
    18
100
AcDbSpline
210
0.0
220
0.0
230
1.0
 70
     8
 71
     3
 72
   178
 73
   174
 74
     0
 42
0.000000001
 43
0.00000001
 40
0.0
 40
0.0
 40
0.0
 40
0.0
 40
0.006633635606844
 40
0.0132603613380107
 40
0.0198643998762123
 40
0.0264313559923336
 40
0.0329476772587102
 40
0.0394018301232093
 40
0.0457846720258852
 40
0.0520887464606899
 40
0.0583105557336937
 40
0.0644775223605742
 40
0.0706364757224794
 40
0.076787398740809
 40
0.0829319152243924
 40
0.0890677676980109
 40
0.0951934850075165
 40
0.1013117474341647
 40
0.1074212624721377
 40
0.1135199969534469
 40
0.1196097332786291
 40
0.1256894966310962
 40
0.131757185719357
 40
0.1378143686037202
 40
0.1438634559150184
 40
0.1499021567203079
 40
0.1559245042364276
 40
0.1619355060830983
 40
0.1679439859308894
 40
0.1739369110228572
 40
0.1799094709827347
 40
0.1858695420041499
 40
0.1918208044454582
 40
0.1977633499685133
 40
0.2036946730210834
 40
0.2096110385301494
 40
0.2155242499338953
 40
0.2214376603499926
 40
0.2273497911636437
 40
0.2332591647449297
 40
0.2391643045026405
 40
0.2450637349381062
 40
0.250955990471022
 40
0.256839725882307
 40
0.2627136831026385
 40
0.2685766072373063
 40
0.2744272447190815
 40
0.2802643433600461
 40
0.286086652403427
 40
0.2918929745681774
 40
0.2976823774190618
 40
0.3034540132191137
 40
0.3092070358347505
 40
0.3149406007531348
 40
0.3206538651315342
 40
0.3263459887005994
 40
0.3320162781517784
 40
0.3376643499019695
 40
0.3432898615446331
 40
0.3488924726204696
 40
0.3544718446684543
 40
0.3600276412768707
 40
0.3655586923270314
 40
0.371063690511573
 40
0.3765466411490408
 40
0.382010018862772
 40
0.3874552470592859
 40
0.3928830296725686
 40
0.3982938711679226
 40
0.4036893243038762
 40
0.4090709542156529
 40
0.4144399104949643
 40
0.4197972273831783
 40
0.4251441314185135
 40
0.4304823710095144
 40
0.4358137362519733
 40
0.4411392682446708
 40
0.4464594675801218
 40
0.4517746075237131
 40
0.4570850570583693
 40
0.4623918342641847
 40
0.4676962172004243
 40
0.4729990853038002
 40
0.4783011581312039
 40
0.4836032901103592
 40
0.4889067436548709
 40
0.494212840952474
 40
0.4995223187059826
 40
0.4998932966554688
 40
0.5003099185119605
 40
0.5007721917232255
 40
0.5012801246091971
 40
0.501833726407577
 40
0.5024330073284378
 40
0.503077978620757
 40
0.503768652654625
 40
0.5045050430238877
 40
0.505287164675187
 40
0.5061150340707591
 40
0.5069886693939496
 40
0.50790809080823
 40
0.5088733207825322
 40
0.5098843844980039
 40
0.5109413103538027
 40
0.5120441305923359
 40
0.5131928820673799
 40
0.5143876071818345
 40
0.5156283550254326
 40
0.5169151823434156
 40
0.5182481492709319
 40
0.519627317314957
 40
0.5210527511336498
 40
0.5225245185521843
 40
0.5240426906390023
 40
0.5256073419225111
 40
0.527218550792331
 40
0.5288764001352195
 40
0.5305809782622319
 40
0.5323323801904745
 40
0.5341307093499809
 40
0.5359760797937587
 40
0.5378686189968815
 40
0.5398084713385698
 40
0.5417958023694427
 40
0.5438308039743833
 40
0.5459137005495981
 40
0.5480447511370005
 40
0.5502241867600913
 40
0.5524522038543668
 40
0.5547290019311467
 40
0.5570547878934465
 40
0.5594297807940355
 40
0.5618542180149027
 40
0.5643283630603372
 40
0.5668525151678796
 40
0.5694270209525005
 40
0.572052288308776
 40
0.5747288028026633
 40
0.5774571467875692
 40
0.5802379706995737
 40
0.5830717566572485
 40
0.5859589256162772
 40
0.5888999233075505
 40
0.5918952376091372
 40
0.5949454196029474
 40
0.5980511087055168
 40
0.6012130622261898
 40
0.6044321896965278
 40
0.6077095922913206
 40
0.6110455532078294
 40
0.6144333810554462
 40
0.6178718334224104
 40
0.6213609966144868
 40
0.6249009573005447
 40
0.6284918024744645
 40
0.6321336194163035
 40
0.6388897525586958
 40
0.6460855342362491
 40
0.6537226167333
 40
0.6618027138155611
 40
0.6703275936393713
 40
0.6792990712201484
 40
0.6887190004585454
 40
0.6985892657228912
 40
0.7089117714887757
 40
0.7196883499562626
 40
0.7309206823523564
 40
0.7426103750659521
 40
0.7547589520804519
 40
0.8321144053524906
 40
0.8989821618921479
 40
0.955007311340367
 40
1.0
 40
1.0
 40
1.0
 40
1.0
 10
355.7393297841152
 20
278.8878141516183
 30
0.0
 10
355.9041530675113
 20
278.5343702071967
 30
0.0
 10
356.2336279473939
 20
277.8278504805288
 30
0.0
 10
356.7271966912124
 20
276.7694665619291
 30
0.0
 10
357.2191129668666
 20
275.7146373834373
 30
0.0
 10
357.7082914300987
 20
274.6656931330918
 30
0.0
 10
358.193748825268
 20
273.6247363496419
 30
0.0
 10
358.6746429481073
 20
272.5935945216656
 30
0.0
 10
359.1502447581123
 20
271.5737528526801
 30
0.0
 10
359.6201658520372
 20
270.5663327755084
 30
0.0
 10
360.0847039519718
 20
269.5704087981692
 30
0.0
 10
360.5470083055724
 20
268.5828457465379
 30
0.0
 10
361.020748045643
 20
267.6052978003574
 30
0.0
 10
361.5146029025491
 20
266.6391625299478
 30
0.0
 10
362.0370383433939
 20
265.6896262020148
 30
0.0
 10
362.5936461739479
 20
264.761343093652
 30
0.0
 10
363.1892704349097
 20
263.8593178880643
 30
0.0
 10
363.8286578658709
 20
262.9895579971033
 30
0.0
 10
364.5137707057121
 20
262.1572989355411
 30
0.0
 10
365.2454948963814
 20
261.3678685008223
 30
0.0
 10
366.024533740865
 20
260.6274922512325
 30
0.0
 10
366.8497224653208
 20
259.9416952350979
 30
0.0
 10
367.718871585455
 20
259.3156443675421
 30
0.0
 10
368.6301038663724
 20
258.7559326974263
 30
0.0
 10
369.5777998456214
 20
258.2643605817767
 30
0.0
 10
370.5547012409779
 20
257.8390747329061
 30
0.0
 10
371.5550483320382
 20
257.4790722018333
 30
0.0
 10
372.5736360068544
 20
257.1812077271933
 30
0.0
 10
373.6052105467704
 20
256.9398716671051
 30
0.0
 10
374.6456953565416
 20
256.7530581762137
 30
0.0
 10
375.690996667133
 20
256.6166149263896
 30
0.0
 10
376.738413926234
 20
256.5227823474555
 30
0.0
 10
377.7865476178524
 20
256.4642471735266
 30
0.0
 10
378.8340960146496
 20
256.4333345067417
 30
0.0
 10
379.8799369051326
 20
256.4217184784687
 30
0.0
 10
380.9240843782754
 20
256.42204821144
 30
0.0
 10
381.9671721297022
 20
256.4220565069597
 30
0.0
 10
383.0100120846877
 20
256.4222056052068
 30
0.0
 10
384.0526254560853
 20
256.4223631383197
 30
0.0
 10
385.0947521838062
 20
256.4225559443256
 30
0.0
 10
386.1361316785171
 20
256.4227681485335
 30
0.0
 10
387.1765042500433
 20
256.4229955500444
 30
0.0
 10
388.2156178796791
 20
256.4232299634919
 30
0.0
 10
389.2532333462344
 20
256.423469149956
 30
0.0
 10
390.2891238116198
 20
256.4237136097879
 30
0.0
 10
391.3230678262426
 20
256.4239632088539
 30
0.0
 10
392.3548442857517
 20
256.4242179829523
 30
0.0
 10
393.3842323287294
 20
256.424477922526
 30
0.0
 10
394.4110144024244
 20
256.4247430307288
 30
0.0
 10
395.4349917510631
 20
256.4250133132162
 30
0.0
 10
396.4559893162024
 20
256.4252887659126
 30
0.0
 10
397.4738526826916
 20
256.4255693832368
 30
0.0
 10
398.4884326054517
 20
256.4258551798379
 30
0.0
 10
399.4995801215076
 20
256.4261461015442
 30
0.0
 10
400.5071466329223
 20
256.4264423493046
 30
0.0
 10
401.5109923546706
 20
256.4267431798335
 30
0.0
 10
402.511004782254
 20
256.427051371651
 30
0.0
 10
403.5070996424572
 20
256.4273566298922
 30
0.0
 10
404.4992172693586
 20
256.4276971134458
 30
0.0
 10
405.4872863149207
 20
256.4279312738518
 30
0.0
 10
406.4712889534932
 20
256.4285841145096
 30
0.0
 10
407.4509614012536
 20
256.4277086658801
 30
0.0
 10
408.4267140184638
 20
256.4325231959132
 30
0.0
 10
409.3962635896877
 20
256.3615655997531
 30
0.0
 10
410.3544880516449
 20
256.2256225802917
 30
0.0
 10
411.2976276877857
 20
256.0242082288341
 30
0.0
 10
412.2216573140926
 20
255.7598189641168
 30
0.0
 10
413.1226427177791
 20
255.434163325878
 30
0.0
 10
413.9966479428611
 20
255.0490299872474
 30
0.0
 10
414.8401314789782
 20
254.6068175339897
 30
0.0
 10
415.6497947304958
 20
254.1100616345818
 30
0.0
 10
416.4223526165109
 20
253.5612232920831
 30
0.0
 10
417.1545250918224
 20
252.962776321961
 30
0.0
 10
417.8430128770277
 20
252.3171590460135
 30
0.0
 10
418.4845277826495
 20
251.6269317950885
 30
0.0
 10
419.0770042666389
 20
250.8958202473141
 30
0.0
 10
419.6183972383113
 20
250.1274189918381
 30
0.0
 10
420.1066606935676
 20
249.325329093497
 30
0.0
 10
420.5397687722432
 20
248.4931549417468
 30
0.0
 10
420.9155852568579
 20
247.6344355693261
 30
0.0
 10
421.2324104042685
 20
246.7529239664941
 30
0.0
 10
421.4895287689811
 20
245.8526592344856
 30
0.0
 10
421.6860947937316
 20
244.9375465164227
 30
0.0
 10
421.8212841727084
 20
244.0115061054261
 30
0.0
 10
421.8943052719015
 20
243.0784579290844
 30
0.0
 10
421.9041708834887
 20
242.1423522764922
 30
0.0
 10
421.8509505866042
 20
241.2073282418297
 30
0.0
 10
421.7712240613351
 20
240.5658114134572
 30
0.0
 10
421.714337977114
 20
240.2119136272778
 30
0.0
 10
421.7023072086085
 20
240.1394256412781
 30
0.0
 10
421.6885083362322
 20
240.0590709290984
 30
0.0
 10
421.6728023367797
 20
239.9708744159603
 30
0.0
 10
421.6550382020797
 20
239.8748652293777
 30
0.0
 10
421.635051163507
 20
239.7710768744095
 30
0.0
 10
421.6126633261916
 20
239.6595477796597
 30
0.0
 10
421.5876835686229
 20
239.5403217792031
 30
0.0
 10
421.5599076736897
 20
239.4134486640915
 30
0.0
 10
421.5291183974389
 20
239.2789847628263
 30
0.0
 10
421.4950855638144
 20
239.1369935630074
 30
0.0
 10
421.457566158964
 20
238.9875463704899
 30
0.0
 10
421.4163044328025
 20
238.8307230071429
 30
0.0
 10
421.371032005776
 20
238.6666125467567
 30
0.0
 10
421.3214679802745
 20
238.4953140896483
 30
0.0
 10
421.2673190611659
 20
238.3169375740397
 30
0.0
 10
421.2082796666257
 20
238.1316046317311
 30
0.0
 10
421.1440321041362
 20
237.9394494581034
 30
0.0
 10
421.074246514064
 20
237.7406198153835
 30
0.0
 10
420.9985817673434
 20
237.5352777203836
 30
0.0
 10
420.9166827798741
 20
237.3236019790924
 30
0.0
 10
420.8281986669779
 20
237.1057827604665
 30
0.0
 10
420.7327776771531
 20
236.8820241912289
 30
0.0
 10
420.6300597736683
 20
236.6525484712527
 30
0.0
 10
420.5196792294213
 20
236.4175959897437
 30
0.0
 10
420.4012646003579
 20
236.1774266282216
 30
0.0
 10
420.2744394723862
 20
235.9323208041419
 30
0.0
 10
420.1388230129436
 20
235.6825806322105
 30
0.0
 10
419.9940305994423
 20
235.4285310967336
 30
0.0
 10
419.8396744480185
 20
235.170521264997
 30
0.0
 10
419.6753642636363
 20
234.9089255336535
 30
0.0
 10
419.5007079065811
 20
234.6441449094549
 30
0.0
 10
419.3153120723482
 20
234.3766083282675
 30
0.0
 10
419.1187830020269
 20
234.1067739954994
 30
0.0
 10
418.9107271546654
 20
233.8351308149609
 30
0.0
 10
418.6907521070261
 20
233.5621996474955
 30
0.0
 10
418.4584666529278
 20
233.2885354019917
 30
0.0
 10
418.2134842806881
 20
233.0147263094487
 30
0.0
 10
417.9554173750327
 20
232.7414081486999
 30
0.0
 10
417.6839365720355
 20
232.4692168631426
 30
0.0
 10
417.3987524610318
 20
232.1988037725323
 30
0.0
 10
417.0995874554262
 20
231.9308627587448
 30
0.0
 10
416.7861829853271
 20
231.6661231634455
 30
0.0
 10
416.4582988613652
 20
231.4053530747842
 30
0.0
 10
416.1157152665234
 20
231.1493602283869
 30
0.0
 10
415.7582340630983
 20
230.8989936236372
 30
0.0
 10
415.3856803285165
 20
230.6551449680909
 30
0.0
 10
414.9979038459667
 20
230.418750275882
 30
0.0
 10
414.5947807106352
 20
230.1907912255614
 30
0.0
 10
414.1762146847843
 20
229.9722975618244
 30
0.0
 10
413.7421423403188
 20
229.7643469650931
 30
0.0
 10
413.2925485362988
 20
229.5680853106206
 30
0.0
 10
412.8275523191056
 20
229.3845528527897
 30
0.0
 10
412.3473376422935
 20
229.2148238011372
 30
0.0
 10
411.8521423704591
 20
229.0600178784621
 30
0.0
 10
411.3422580861446
 20
228.9212969945853
 30
0.0
 10
410.8180319711802
 20
228.7998618770966
 30
0.0
 10
410.2798699687865
 20
228.6969751780295
 30
0.0
 10
409.728236880367
 20
228.6138777888363
 30
0.0
 10
409.1636680116335
 20
228.5521162639514
 30
0.0
 10
408.5867987810594
 20
228.5122980292952
 30
0.0
 10
407.9989285029557
 20
228.4988812266395
 30
0.0
 10
407.4017453802225
 20
228.4830422153074
 30
0.0
 10
406.795516720397
 20
228.4675700915779
 30
0.0
 10
406.1803585268218
 20
228.4517048007895
 30
0.0
 10
405.5562409429753
 20
228.4356547851619
 30
0.0
 10
404.9231526233482
 20
228.4193617875711
 30
0.0
 10
404.1010545614166
 20
228.3982125090868
 30
0.0
 10
403.0670999137445
 20
228.3715939581499
 30
0.0
 10
401.7983493400199
 20
228.3388891436362
 30
0.0
 10
400.4517905958925
 20
228.3041440858731
 30
0.0
 10
399.0271217655926
 20
228.2673495054215
 30
0.0
 10
397.5240313582023
 20
228.2284976276086
 30
0.0
 10
395.94219965794
 20
228.1875799536646
 30
0.0
 10
394.2813001262288
 20
228.1445879558295
 30
0.0
 10
392.5410009778099
 20
228.0995129322512
 30
0.0
 10
390.7209717143016
 20
228.0523462080162
 30
0.0
 10
388.8208937927818
 20
228.0030794921654
 30
0.0
 10
386.8404662226098
 20
227.9517046703681
 30
0.0
 10
384.7794061105001
 20
227.8982152471268
 30
0.0
 10
378.8323593531653
 20
227.7438038854566
 30
0.0
 10
369.6425255999317
 20
227.5050393994741
 30
0.0
 10
357.8740791987653
 20
227.1988590257611
 30
0.0
 10
348.0075646511386
 20
226.9418040074592
 30
0.0
 10
342.0708323627741
 20
226.7865560297094
 30
0.0
 10
339.4266503795803
 20
226.7174095892513
 30
0.0
  0
SPLINE
  5
177
330
1F
100
AcDbEntity
  8
0
  6
Continuous
 62
     8
370
    18
100
AcDbSpline
210
0.0
220
0.0
230
1.0
 70
     8
 71
     3
 72
    10
 73
     6
 74
     0
 42
0.000000001
 43
0.00000001
 40
0.0
 40
0.0
 40
0.0
 40
0.0
 40
0.5
 40
0.5
 40
1.0
 40
1.0
 40
1.0
 40
1.0
 10
349.5487244863521
 20
291.6193680459809
 30
0.0
 10
349.4003992442067
 20
291.7772920284754
 30
0.0
 10
349.2130091420262
 20
291.911272938493
 30
0.0
 10
348.7982610749445
 20
292.0907171444802
 30
0.0
 10
348.5723055083282
 20
292.1355736811503
 30
0.0
 10
348.3556407082938
 20
292.1355656806953
 30
0.0
  0
SPLINE
  5
178
330
1F
100
AcDbEntity
  8
0
  6
Continuous
 62
     8
370
    18
100
AcDbSpline
210
0.0
220
0.0
230
1.0
 70
     8
 71
     3
 72
    23
 73
    19
 74
     0
 42
0.000000001
 43
0.00000001
 40
0.0
 40
0.0
 40
0.0
 40
0.0
 40
0.0833982058336284
 40
0.15164010868399
 40
0.2049269667281731
 40
0.2430222173712147
 40
0.3397643395733813
 40
0.4242532336682717
 40
0.496481980536262
 40
0.5397941551821542
 40
0.5829912413511738
 40
0.6260832086358971
 40
0.6589248613454962
 40
0.7014873105755662
 40
0.7535734076016404
 40
0.8390467501990582
 40
0.9210266472907762
 40
1.0
 40
1.0
 40
1.0
 40
1.0
 10
349.5487244863706
 20
291.6193680459409
 30
0.0
 10
349.5517233021952
 20
291.6130210181782
 30
0.0
 10
349.5571759465658
 20
291.6014804344196
 30
0.0
 10
349.6016039821369
 20
291.5078007332863
 30
0.0
 10
349.6714846528253
 20
291.3604107682579
 30
0.0
 10
349.7922065211108
 20
291.1074901350463
 30
0.0
 10
350.0132614034976
 20
290.6515857491386
 30
0.0
 10
350.4198836764001
 20
289.8196967163537
 30
0.0
 10
350.8577380353282
 20
288.9375128872251
 30
0.0
 10
351.2615119447871
 20
288.1308015293752
 30
0.0
 10
351.6150746800102
 20
287.4220477527182
 30
0.0
 10
351.9590217521269
 20
286.7356567280967
 30
0.0
 10
352.3084361948236
 20
286.0319334520874
 30
0.0
 10
352.6886165477878
 20
285.2565872038987
 30
0.0
 10
353.234346218908
 20
284.1382100095048
 30
0.0
 10
353.90718286008
 20
282.7496589962646
 30
0.0
 10
354.6616793815037
 20
281.1766472193691
 30
0.0
 10
355.1491979895096
 20
280.1450660223717
 30
0.0
 10
355.3884039641014
 20
279.6389101925302
 30
0.0
  0
SPLINE
  5
179
330
1F
100
AcDbEntity
  8
0
  6
Continuous
 62
     8
370
    18
100
AcDbSpline
210
0.0
220
0.0
230
1.0
 70
     8
 71
     3
 72
    10
 73
     6
 74
     0
 42
0.000000001
 43
0.00000001
 40
0.0
 40
0.0
 40
0.0
 40
0.0
 40
0.5
 40
0.5
 40
1.0
 40
1.0
 40
1.0
 40
1.0
 10
355.388403670167
 20
279.6389108169059
 30
0.0
 10
355.2665653410191
 20
279.5809084576711
 30
0.0
 10
355.1034692732147
 20
279.5033124312002
 30
0.0
 10
354.7327079491357
 20
279.3269978965347
 30
0.0
 10
354.5268779210097
 20
279.2291521143961
 30
0.0
 10
354.3311724370323
 20
279.1361473962031
 30
0.0
  0
SPLINE
  5
17A
330
1F
100
AcDbEntity
  8
0
  6
Continuous
 62
     8
370
    18
100
AcDbSpline
210
0.0
220
0.0
230
1.0
 70
     8
 71
     3
 72
     8
 73
     4
 74
     0
 42
0.000000001
 43
0.00000001
 40
0.0
 40
0.0
 40
0.0
 40
0.0
 40
1.0
 40
1.0
 40
1.0
 40
1.0
 10
355.3882788350448
 20
279.6389499363007
 30
0.0
 10
355.5052017776686
 20
279.3887101698824
 30
0.0
 10
355.6222017322844
 20
279.1383052507142
 30
0.0
 10
355.7392244850233
 20
278.8878514408132
 30
0.0
  0
SPLINE
  5
17B
330
1F
100
AcDbEntity
  8
0
  6
Continuous
 62
     8
370
    18
100
AcDbSpline
210
0.0
220
0.0
230
1.0
 70
     8
 71
     3
 72
    12
 73
     8
 74
     0
 42
0.000000001
 43
0.00000001
 40
0.0
 40
0.0
 40
0.0
 40
0.0
 40
0.25
 40
0.25
 40
0.5
 40
0.5
 40
1.0
 40
1.0
 40
1.0
 40
1.0
 10
407.9281679483842
 20
258.5158904245468
 30
0.0
 10
405.5476684857067
 20
258.5172807832136
 30
0.0
 10
403.2090377852383
 20
258.5182114963497
 30
0.0
 10
398.5860927398685
 20
258.5205324944502
 30
0.0
 10
396.3017718932981
 20
258.5216929935004
 30
0.0
 10
389.5007194013133
 20
258.5251744906511
 30
0.0
 10
385.0345521249845
 20
258.527437119476
 30
0.0
 10
380.5831778179763
 20
258.5298751510028
 30
0.0
  0
SPLINE
  5
17C
330
1F
100
AcDbEntity
  8
0
  6
Continuous
 62
     8
370
    18
100
AcDbSpline
210
0.0
220
0.0
230
1.0
 70
     8
 71
     3
 72
   126
 73
   122
 74
     0
 42
0.000000001
 43
0.00000001
 40
0.0
 40
0.0
 40
0.0
 40
0.0
 40
0.0079193898622974
 40
0.015853671608981
 40
0.0238026200756683
 40
0.0317659990320147
 40
0.0397435710451655
 40
0.0477351073235209
 40
0.0557403975456957
 40
0.0637592596790574
 40
0.071791549791428
 40
0.0798371718582552
 40
0.0878960875658982
 40
0.0959683261096787
 40
0.1040539939828497
 40
0.1121532847498686
 40
0.120266488794183
 40
0.1283939260495109
 40
0.1365355058118488
 40
0.1446909333127887
 40
0.1528598876891695
 40
0.1610420338612467
 40
0.1692370340375827
 40
0.1774445592056111
 40
0.1856643006154898
 40
0.1938959812643247
 40
0.2021393673868081
 40
0.2103942799566867
 40
0.2186606062013692
 40
0.2269383111292598
 40
0.2352274490662437
 40
0.2435281751939619
 40
0.2518407097110797
 40
0.2601649804770886
 40
0.2685007127641073
 40
0.2768475880179618
 40
0.2852052575566682
 40
0.2935733553850863
 40
0.3019515110068233
 40
0.3103393622421282
 40
0.3187365680607099
 40
0.3271428214379079
 40
0.335557862241455
 40
0.3439814901542336
 40
0.3524135776359166
 40
0.3608540829231384
 40
0.3693030630639925
 40
0.3777606512105366
 40
0.3862267794790227
 40
0.3947012066852737
 40
0.4031836276811743
 40
0.4116736877534352
 40
0.4201709965017053
 40
0.428675141733494
 40
0.4371857033849574
 40
0.4457022674778134
 40
0.454224440123095
 40
0.4627518615820908
 40
0.4712842203936674
 40
0.4798212675752294
 40
0.4883628309017806
 40
0.4969088292639622
 40
0.5054592726250039
 40
0.5140141324478086
 40
0.5225732720697197
 40
0.5311364709796798
 40
0.5397034390465789
 40
0.5482738307651086
 40
0.556847259548187
 40
0.5654233120723581
 40
0.5740015626850029
 40
0.5825815878838002
 40
0.5911629808796598
 40
0.5997453662542946
 40
0.6083284147226714
 40
0.6169118580087979
 40
0.6254955038471097
 40
0.6340792782137575
 40
0.6426632085013504
 40
0.6512472419801479
 40
0.6598312296667398
 40
0.6684149403252168
 40
0.6769980745483086
 40
0.685580278918156
 40
0.6941611602503612
 40
0.7027402999281592
 40
0.711317268335957
 40
0.7198916394030963
 40
0.728463005269466
 40
0.7370309910845354
 40
0.7455952699504385
 40
0.7541555801439498
 40
0.7627118800446909
 40
0.7712643397723674
 40
0.7798130347601006
 40
0.7883579304353348
 40
0.7968988954123943
 40
0.8054357147998283
 40
0.8139681036169321
 40
0.8224957203184505
 40
0.8310181804303897
 40
0.8395350703031328
 40
0.8480459609905991
 40
0.8565504222659922
 40
0.8650480367857708
 40
0.8735384144137419
 40
0.8820212332664016
 40
0.8904965670216247
 40
0.8989646796583748
 40
0.9074257298114389
 40
0.9158797755575052
 40
0.9243267862725608
 40
0.9327666546239901
 40
0.9411992086909993
 40
0.949624224210812
 40
0.9580414369513767
 40
0.9664505552140799
 40
0.9748512724721192
 40
0.9832432801517782
 40
0.9916262805647534
 40
1.0
 40
1.0
 40
1.0
 40
1.0
 10
408.3483549351873
 20
226.4231236562126
 30
0.0
 10
408.4802122381696
 20
226.4276291574305
 30
0.0
 10
408.7441747929972
 20
226.436648632161
 30
0.0
 10
409.139903682958
 20
226.4626918159218
 30
0.0
 10
409.535627491591
 20
226.4978999971333
 30
0.0
 10
409.9310651902456
 20
226.5431738332556
 30
0.0
 10
410.3259661578572
 20
226.5982686154009
 30
0.0
 10
410.7200709553193
 20
226.663247327024
 30
0.0
 10
411.1131218616075
 20
226.7380902346003
 30
0.0
 10
411.50486003974
 20
226.8227997808473
 30
0.0
 10
411.8950262953882
 20
226.9173724055777
 30
0.0
 10
412.2833608679831
 20
227.0218061213874
 30
0.0
 10
412.6696034899944
 20
227.1360984675696
 30
0.0
 10
413.0534933427314
 20
227.2602471104043
 30
0.0
 10
413.43476915695
 20
227.3942495016342
 30
0.0
 10
413.8131688361111
 20
227.5381036535368
 30
0.0
 10
414.1884296608401
 20
227.6918048961449
 30
0.0
 10
414.5602751052353
 20
227.8553524609986
 30
0.0
 10
414.9284569039976
 20
228.028646168992
 30
0.0
 10
415.2927244490062
 20
228.2115694809218
 30
0.0
 10
415.6528223901773
 20
228.4040079498704
 30
0.0
 10
416.0084953255861
 20
228.6058459732265
 30
0.0
 10
416.3594872257194
 20
228.8169679675214
 30
0.0
 10
416.7055415852327
 20
229.0372580530242
 30
0.0
 10
417.0464013774279
 20
229.266600138386
 30
0.0
 10
417.3818090630986
 20
229.5048778965448
 30
0.0
 10
417.7115065792281
 20
229.751974774778
 30
0.0
 10
418.0352353533171
 20
230.0077739770741
 30
0.0
 10
418.3527362346085
 20
230.272158522954
 30
0.0
 10
418.6637497320031
 20
230.5450110272431
 30
0.0
 10
418.9680151054162
 20
230.8262145209575
 30
0.0
 10
419.2652731788424
 20
231.1156488278613
 30
0.0
 10
419.5552489254206
 20
231.4131970061939
 30
0.0
 10
419.8377387266607
 20
231.7186556152022
 30
0.0
 10
420.112553191614
 20
232.0317987416653
 30
0.0
 10
420.3794958470749
 20
232.3524028948582
 30
0.0
 10
420.63837113541
 20
232.6802429065767
 30
0.0
 10
420.8889827317519
 20
233.0150935091834
 30
0.0
 10
421.1311339946489
 20
233.3567289114513
 30
0.0
 10
421.3646278406721
 20
233.7049229093719
 30
0.0
 10
421.5892667755818
 20
234.0594488526674
 30
0.0
 10
421.8048528759058
 20
234.4200796526867
 30
0.0
 10
422.0111878115682
 20
234.7865877692041
 30
0.0
 10
422.2080727532274
 20
235.1587452398879
 30
0.0
 10
422.3953086997033
 20
235.5363235594097
 30
0.0
 10
422.5726952375686
 20
235.9190941172539
 30
0.0
 10
422.7400349235306
 20
236.3068259999206
 30
0.0
 10
422.8971140666392
 20
236.6992870692382
 30
0.0
 10
423.0438306382165
 20
237.0961900258741
 30
0.0
 10
423.180106372266
 20
237.4972344428319
 30
0.0
 10
423.3058556077296
 20
237.9021202488432
 30
0.0
 10
423.4209942406362
 20
238.3105461179862
 30
0.0
 10
423.5254374828934
 20
238.7222103028882
 30
0.0
 10
423.6191004627453
 20
239.1368104079548
 30
0.0
 10
423.7018980614426
 20
239.5540434448624
 30
0.0
 10
423.7737449562421
 20
239.9736058125071
 30
0.0
 10
423.834555602364
 20
240.39519329669
 30
0.0
 10
423.884244252037
 20
240.8185010664001
 30
0.0
 10
423.922724885684
 20
241.2432236635577
 30
0.0
 10
423.9499114571832
 20
241.6690550216828
 30
0.0
 10
423.9657169693742
 20
242.0956883743526
 30
0.0
 10
423.9700569150183
 20
242.5228163334623
 30
0.0
 10
423.9628364868578
 20
242.9501270312379
 30
0.0
 10
423.9441005049213
 20
243.3773063260057
 30
0.0
 10
423.9139083850791
 20
243.8040416594876
 30
0.0
 10
423.8723157652451
 20
244.2300193532259
 30
0.0
 10
423.8193793857218
 20
244.6549251664617
 30
0.0
 10
423.7551557810806
 20
245.0784441859933
 30
0.0
 10
423.6797016321005
 20
245.5002608497024
 30
0.0
 10
423.5930736727717
 20
245.9200589343232
 30
0.0
 10
423.4953287154869
 20
246.3375215526077
 30
0.0
 10
423.3865236482072
 20
246.7523311489412
 30
0.0
 10
423.2667154249727
 20
247.1641694917127
 30
0.0
 10
423.1359611106299
 20
247.5727176798724
 30
0.0
 10
422.9943177149499
 20
247.9776560953475
 30
0.0
 10
422.8418428147975
 20
248.3786645570434
 30
0.0
 10
422.678592062432
 20
248.7754221395976
 30
0.0
 10
422.504627841242
 20
249.1676092916024
 30
0.0
 10
422.3201410815207
 20
249.5549642549964
 30
0.0
 10
422.1253158465411
 20
249.9372273285014
 30
0.0
 10
421.9203378567036
 20
250.3141390795275
 30
0.0
 10
421.7053927772373
 20
250.685439422222
 30
0.0
 10
421.4806667357208
 20
251.0508677372395
 30
0.0
 10
421.2463461872999
 20
251.4101628348718
 30
0.0
 10
421.002617955784
 20
251.7630629614768
 30
0.0
 10
420.7496692229727
 20
252.1093057898844
 30
0.0
 10
420.4876875486468
 20
252.4486284308181
 30
0.0
 10
420.2168608192147
 20
252.7807673762309
 30
0.0
 10
419.9373774505959
 20
253.1054586935097
 30
0.0
 10
419.6494256457701
 20
253.4224372841466
 30
0.0
 10
419.3531961529708
 20
253.7314396564784
 30
0.0
 10
419.0488702171791
 20
254.032195318156
 30
0.0
 10
418.7366591587531
 20
254.3244687480155
 30
0.0
 10
418.4168508396556
 20
254.6081164631451
 30
0.0
 10
418.0897160029189
 20
254.8829862740589
 30
0.0
 10
417.755529146644
 20
255.1489294194534
 30
0.0
 10
417.4145643760835
 20
255.4057958870623
 30
0.0
 10
417.0670966125094
 20
255.653435577834
 30
0.0
 10
416.7134012748564
 20
255.8916979915623
 30
0.0
 10
416.3537543710603
 20
256.1204323108827
 30
0.0
 10
415.9884324761964
 20
256.3394873699816
 30
0.0
 10
415.6177127533335
 20
256.5487116865789
 30
0.0
 10
415.2418729161795
 20
256.7479533561505
 30
0.0
 10
414.8611913813039
 20
256.937060433213
 30
0.0
 10
414.4759467208167
 20
257.1158795035865
 30
0.0
 10
414.0864193147306
 20
257.2842611729751
 30
0.0
 10
413.6928784277807
 20
257.4420422979409
 30
0.0
 10
413.2956188696339
 20
257.5891453494157
 30
0.0
 10
412.8949437248603
 20
257.7255502293154
 30
0.0
 10
412.4911469728575
 20
257.8512268734744
 30
0.0
 10
412.0845243711839
 20
257.9661483962587
 30
0.0
 10
411.675371955023
 20
258.0702870494801
 30
0.0
 10
411.263986472755
 20
258.1636151435503
 30
0.0
 10
410.8506652748579
 20
258.2461053657894
 30
0.0
 10
410.4357063468794
 20
258.3177285979677
 30
0.0
 10
410.01940831155
 20
258.378462325053
 30
0.0
 10
409.6020704099988
 20
258.4282592321601
 30
0.0
 10
409.1839925968962
 20
258.4671642572387
 30
0.0
 10
408.7654752012782
 20
258.4948784062709
 30
0.0
 10
408.3468202084402
 20
258.5123840728744
 30
0.0
 10
408.0676671639411
 20
258.5147220723022
 30
0.0
 10
407.9281679483843
 20
258.5158904245468
 30
0.0
  0
SPLINE
  5
17D
330
1F
100
AcDbEntity
  8
0
  6
Continuous
 62
     8
370
    18
100
AcDbSpline
210
0.0
220
0.0
230
1.0
 70
     8
 71
     3
 72
     9
 73
     5
 74
     0
 42
0.000000001
 43
0.00000001
 40
0.0
 40
0.0
 40
0.0
 40
0.0
 40
0.5245746598026299
 40
1.0
 40
1.0
 40
1.0
 40
1.0
 10
339.4266503795803
 20
224.5978951046286
 30
0.0
 10
351.4782541737003
 20
224.9141492167879
 30
0.0
 10
374.4523028985366
 20
225.5170264359779
 30
0.0
 10
397.4260523070403
 20
226.1311525429034
 30
0.0
 10
408.3483549351873
 20
226.4231236562126
 30
0.0
  0
LWPOLYLINE
  5
17E
330
1F
100
AcDbEntity
  8
0
  6
Continuous
 62
     8
370
    18
100
AcDbPolyline
 90
        3
 70
   128
 43
0.0
 10
358.6190086475
 20
277.7224389868
 10
357.1656443795
 20
278.310598995
 10
355.739567863
 20
278.8877172428
  0
LWPOLYLINE
  5
17F
330
1F
100
AcDbEntity
  8
0
  6
Continuous
 62
     8
370
    18
100
AcDbPolyline
 90
        3
 70
   128
 43
0.0
 10
362.0648090413
 20
270.3317275303
 10
360.3062093875
 20
274.1035541552
 10
358.6190086475
 20
277.7224389868
  0
SPLINE
  5
180
330
1F
100
AcDbEntity
  8
0
  6
Continuous
 62
     8
370
    18
100
AcDbSpline
210
0.0
220
0.0
230
1.0
 70
     8
 71
     3
 72
    21
 73
    17
 74
     0
 42
0.000000001
 43
0.00000001
 40
0.0
 40
0.0
 40
0.0
 40
0.0
 40
0.1249999999999998
 40
0.1249999999999998
 40
0.2499999999999997
 40
0.2499999999999997
 40
0.3749999999999995
 40
0.3749999999999995
 40
0.4999999999999993
 40
0.4999999999999993
 40
0.6249999999999994
 40
0.6249999999999994
 40
0.7499999999999997
 40
0.7499999999999997
 40
0.8749999999999998
 40
1.0
 40
1.0
 40
1.0
 40
1.0
 10
380.5831778180042
 20
258.5298751510028
 30
0.0
 10
379.5645498126487
 20
258.5301041474157
 30
0.0
 10
378.5493497098001
 20
258.5340392155156
 30
0.0
 10
376.5308316565905
 20
258.6399323348012
 30
0.0
 10
375.5275101795033
 20
258.7418944708953
 30
0.0
 10
373.5517438997869
 20
259.0955927171421
 30
0.0
 10
372.5797097975732
 20
259.3469221066647
 30
0.0
 10
370.7111330395599
 20
260.0413522693721
 30
0.0
 10
369.8141759405944
 20
260.4848635559424
 30
0.0
 10
368.1562737010963
 20
261.5681100987688
 30
0.0
 10
367.3953323409357
 20
262.2078502238771
 30
0.0
 10
366.0187514244687
 20
263.6172860125401
 30
0.0
 10
365.4031137686722
 20
264.3869805591685
 30
0.0
 10
364.2924098737643
 20
266.0013999974736
 30
0.0
 10
363.3022753856654
 20
267.6908473202781
 30
0.0
 10
362.4748696420398
 20
269.4521066895329
 30
0.0
 10
362.0648094285738
 20
270.3317280823638
 30
0.0
  0
LINE
  5
181
330
1F
100
AcDbEntity
  8
0
  6
Continuous
 62
     8
370
    18
100
AcDbLine
 10
355.1873606315
 20
285.6157405334
 30
0.0
 11
349.5487249142
 21
291.6193662243
 31
0.0
  0
SPLINE
  5
182
330
1F
100
AcDbEntity
  8
0
  6
Continuous
 62
     8
370
    18
100
AcDbSpline
210
0.0
220
0.0
230
1.0
 70
     8
 71
     3
 72
    26
 73
    22
 74
     0
 42
0.000000001
 43
0.00000001
 40
0.0
 40
0.0
 40
0.0
 40
0.0
 40
0.0350489980278212
 40
0.0716791899921895
 40
0.1098420055906412
 40
0.1494994877973002
 40
0.1906359700532112
 40
0.2332740195182964
 40
0.2950459944825103
 40
0.3631809482071925
 40
0.3994585140243053
 40
0.4356125303481352
 40
0.4542338119975818
 40
0.4794769449745795
 40
0.5114155811781868
 40
0.5568202466228125
 40
0.6167464870677939
 40
0.6911259219105962
 40
0.779881702749951
 40
0.882760337497688
 40
0.9999999999999999
 40
0.9999999999999999
 40
0.9999999999999999
 40
0.9999999999999999
 10
358.6189980971133
 20
277.7224410665584
 30
0.0
 10
358.5435307699724
 20
277.886806202331
 30
0.0
 10
358.3891914968199
 20
278.2229516118456
 30
0.0
 10
358.1550531692644
 20
278.7388852889978
 30
0.0
 10
357.9128961252607
 20
279.2765923821705
 30
0.0
 10
357.6634352556608
 20
279.8349686060508
 30
0.0
 10
357.407334238772
 20
280.4127081002285
 30
0.0
 10
357.1089902452917
 20
281.089736051107
 30
0.0
 10
356.7644152137259
 20
281.8834197564496
 30
0.0
 10
356.4514967816149
 20
282.6221034003924
 30
0.0
 10
356.2078038909137
 20
283.2056868604575
 30
0.0
 10
356.0658023229054
 20
283.5550373100863
 30
0.0
 10
355.9484467676214
 20
283.840425571
 30
0.0
 10
355.8410365967292
 20
284.0949800582212
 30
0.0
 10
355.7125770811894
 20
284.4010158287963
 30
0.0
 10
355.5668236134604
 20
284.7415067647665
 30
0.0
 10
355.4215285370328
 20
285.0747972521675
 30
0.0
 10
355.3073983213769
 20
285.3371243483913
 30
0.0
 10
355.2338371953697
 20
285.5071912174404
 30
0.0
 10
355.1946643783534
 20
285.5988321991578
 30
0.0
 10
355.1898985898987
 20
285.6098638025177
 30
0.0
 10
355.1873602301305
 20
285.6157394678801
 30
0.0
  0
LWPOLYLINE
  5
183
330
1F
100
AcDbEntity
  8
0
  6
Continuous
 62
     8
370
    18
100
AcDbPolyline
 90
        9
 70
   128
 43
0.0
 10
362.4562122544
 20
270.5142425405
 10
362.4498624971
 20
270.5112809347
 10
362.4308542034
 20
270.5024184691
 10
362.3993252089
 20
270.487716611
 10
362.3555027565
 20
270.467281531
 10
362.2996979079
 20
270.4412585156
 10
362.2323129943
 20
270.409835692
 10
362.1538285783
 20
270.3732384401
 10
362.0648090413
 20
270.3317275303
  0
ARC
  5
184
330
1F
100
AcDbEntity
  8
0
  6
Continuous
 62
     8
370
    18
100
AcDbCircle
 10
294.8656284315
 20
258.5895802305
 30
0.0
 40
85.71756918503257
100
AcDbArc
 50
359.9600919312
 51
0.2520157667
  0
ARC
  5
185
330
1F
100
AcDbEntity
  8
0
  6
Continuous
 62
     8
370
    18
100
AcDbCircle
 10
362.2838717192
 20
225.1539397662
 30
0.0
 40
46.08196347590673
100
AcDbArc
 50
1.0175096918
 51
1.5782335121
  0
SPLINE
  5
186
330
1F
100
AcDbEntity
  8
0
  6
Continuous
 62
     8
370
    18
100
AcDbSpline
210
0.0
220
0.0
230
1.0
 70
     8
 71
     3
 72
    10
 73
     6
 74
     0
 42
0.000000001
 43
0.00000001
 40
0.0
 40
0.0
 40
0.0
 40
0.0
 40
0.5
 40
0.5
 40
1.0
 40
1.0
 40
1.0
 40
1.0
 10
359.0099060394289
 20
277.9048723057339
 30
0.0
 10
359.0099165654964
 20
277.9048497325095
 30
0.0
 10
358.9763977087483
 20
277.8891913500595
 30
0.0
 10
358.8422993882526
 20
277.8266069155373
 30
0.0
 10
358.7419351719734
 20
277.7797813206598
 30
0.0
 10
358.6190079835785
 20
277.7224380016292
 30
0.0
  0
ARC
  5
187
330
1F
100
AcDbEntity
  8
0
  6
Continuous
 62
     8
370
    18
100
AcDbCircle
 10
359.1982972046
 20
258.5769241627
 30
0.0
 40
48.72991208738497
100
AcDbArc
 50
359.9282381102
 51
0.4581885243000001
  0
SPLINE
  5
188
330
1F
100
AcDbEntity
  8
0
  6
Continuous
 62
     7
370
    25
100
AcDbSpline
210
0.0
220
0.0
230
1.0
 70
     8
 71
     3
 72
     9
 73
     5
 74
     0
 42
0.000000001
 43
0.00000001
 40
0.0
 40
0.0
 40
0.0
 40
0.0
 40
0.5121649019610243
 40
0.9999999999999999
 40
0.9999999999999999
 40
0.9999999999999999
 40
0.9999999999999999
 10
204.5626350134561
 20
80.25597247603224
 30
0.0
 10
204.9641820772385
 20
79.89857160688969
 30
0.0
 10
205.74820117391
 20
79.20074778535472
 30
0.0
 10
206.531965953323
 20
78.50254329917121
 30
0.0
 10
206.9143139213274
 20
78.16193464520262
 30
0.0
  0
SPLINE
  5
189
330
1F
100
AcDbEntity
  8
0
  6
Continuous
 62
     7
370
    25
100
AcDbSpline
210
0.0
220
0.0
230
1.0
 70
     8
 71
     3
 72
     9
 73
     5
 74
     0
 42
0.000000001
 43
0.00000001
 40
0.0
 40
0.0
 40
0.0
 40
0.0
 40
0.4878350980313642
 40
1.0
 40
1.0
 40
1.0
 40
1.0
 10
240.4737145096014
 20
78.1619346452026
 30
0.0
 10
240.8560624776086
 20
78.50254329917372
 30
0.0
 10
241.6398272570396
 20
79.2007477853733
 30
0.0
 10
242.4238463536934
 20
79.89857160689247
 30
0.0
 10
242.8253934174726
 20
80.25597247603224
 30
0.0
  0
SPLINE
  5
18A
330
1F
100
AcDbEntity
  8
0
  6
Continuous
 62
     7
370
    25
100
AcDbSpline
210
0.0
220
0.0
230
1.0
 70
     8
 71
     3
 72
    16
 73
    12
 74
     0
 42
0.000000001
 43
0.00000001
 40
0.0
 40
0.0
 40
0.0
 40
0.0
 40
0.2859247647793129
 40
0.5244531710940624
 40
0.7134586672213762
 40
0.8232989395720108
 40
0.9058523557373943
 40
0.9623915311845711
 40
0.9826545344144758
 40
0.9915193191914085
 40
1.0
 40
1.0
 40
1.0
 40
1.0
 10
204.0493458896825
 20
82.58706542971419
 30
0.0
 10
204.0535607737706
 20
82.31778919879788
 30
0.0
 10
204.0612918610989
 20
81.82387334889484
 30
0.0
 10
204.0959050719428
 20
81.30660114520586
 30
0.0
 10
204.1526165567797
 20
80.96131312561928
 30
0.0
 10
204.2314887602293
 20
80.7224052448594
 30
0.0
 10
204.3198731517683
 20
80.55028304670853
 30
0.0
 10
204.4179564551447
 20
80.41146835465969
 30
0.0
 10
204.5119981956995
 20
80.30888852128919
 30
0.0
 10
204.5629978740962
 20
80.25875845793452
 30
0.0
 10
204.5887911812917
 20
80.23537517014748
 30
0.0
 10
204.6014022469471
 20
80.22394243004607
 30
0.0
  0
SPLINE
  5
18B
330
1F
100
AcDbEntity
  8
0
  6
Continuous
 62
     7
370
    25
100
AcDbSpline
210
0.0
220
0.0
230
1.0
 70
     8
 71
     3
 72
    16
 73
    12
 74
     0
 42
0.000000001
 43
0.00000001
 40
0.0
 40
0.0
 40
0.0
 40
0.0
 40
0.0084515447961413
 40
0.0172891303429428
 40
0.0375062526400755
 40
0.0939934680479642
 40
0.1765297908636252
 40
0.2863751589414685
 40
0.4754190939072529
 40
0.7140161715301113
 40
1.0
 40
1.0
 40
1.0
 40
1.0
 10
242.7866261839817
 20
80.22394243004607
 30
0.0
 10
242.7992374197439
 20
80.23537590177541
 30
0.0
 10
242.8250359339964
 20
80.25876509129864
 30
0.0
 10
242.8760506234498
 20
80.30891446921565
 30
0.0
 10
242.9701347452696
 20
80.4115409853269
 30
0.0
 10
243.068153772789
 20
80.55032956382368
 30
0.0
 10
243.1565374274166
 20
80.72258092748775
 30
0.0
 10
243.2354033622155
 20
80.9619255565203
 30
0.0
 10
243.2921311618803
 20
81.30840540133433
 30
0.0
 10
243.3267765822023
 20
81.82812173210081
 30
0.0
 10
243.3345433539687
 20
82.32496507083
 30
0.0
 10
243.3387775361488
 20
82.59582731249617
 30
0.0
  0
LINE
  5
18C
330
1F
100
AcDbEntity
  8
0
  6
Continuous
 62
     7
370
    25
100
AcDbLine
 10
208.1342421859
 20
77.6932633233
 30
0.0
 11
210.7843950778
 21
77.6932633233
 31
0.0
  0
LINE
  5
18D
330
1F
100
AcDbEntity
  8
0
  6
Continuous
 62
     7
370
    25
100
AcDbLine
 10
236.6036333531
 20
77.6932633233
 30
0.0
 11
239.253786245
 21
77.6932633233
 31
0.0
  0
SPLINE
  5
18E
330
1F
100
AcDbEntity
  8
0
  6
Continuous
 62
     7
370
    25
100
AcDbSpline
210
0.0
220
0.0
230
1.0
 70
     8
 71
     3
 72
     9
 73
     5
 74
     0
 42
0.000000001
 43
0.00000001
 40
0.0
 40
0.0
 40
0.0
 40
0.0
 40
0.4999998209134239
 40
1.0
 40
1.0
 40
1.0
 40
1.0
 10
239.2521033450911
 20
77.69328567507551
 30
0.0
 10
239.475862705218
 20
77.7145210986918
 30
0.0
 10
239.923381585761
 20
77.75699196113632
 30
0.0
 10
240.2857836671042
 20
78.02296517461282
 30
0.0
 10
240.4669847726772
 20
78.15595182898329
 30
0.0
  0
SPLINE
  5
18F
330
1F
100
AcDbEntity
  8
0
  6
Continuous
 62
     7
370
    25
100
AcDbSpline
210
0.0
220
0.0
230
1.0
 70
     8
 71
     3
 72
     9
 73
     5
 74
     0
 42
0.000000001
 43
0.00000001
 40
0.0
 40
0.0
 40
0.0
 40
0.0
 40
0.5000001790864458
 40
1.0
 40
1.0
 40
1.0
 40
1.0
 10
206.9210436582515
 20
78.15595182898329
 30
0.0
 10
207.1022447638246
 20
78.0229651746128
 30
0.0
 10
207.4646468451679
 20
77.75699196113625
 30
0.0
 10
207.9121657257108
 20
77.7145210986918
 30
0.0
 10
208.1359250858376
 20
77.69328567507551
 30
0.0
  0
ARC
  5
190
330
1F
100
AcDbEntity
  8
0
  6
Continuous
 62
     7
370
    25
100
AcDbCircle
 10
210.7843948077
 20
78.1528796889
 30
0.0
 40
0.4596194077712568
100
AcDbArc
 50
270.0
 51
0.0
  0
ARC
  5
191
330
1F
100
AcDbEntity
  8
0
  6
Continuous
 62
     7
370
    25
100
AcDbCircle
 10
236.6036336232
 20
78.1528796889
 30
0.0
 40
0.4596194077716262
100
AcDbArc
 50
180.0
 51
270.0
  0
ARC
  5
192
330
1F
100
AcDbEntity
  8
0
  6
Continuous
 62
     7
370
    25
100
AcDbCircle
 10
212.1440142155
 20
78.8060020608
 30
0.0
 40
0.6999999999999318
100
AcDbArc
 50
180.0
 51
252.8186900679
  0
ARC
  5
193
330
1F
100
AcDbEntity
  8
0
  6
Continuous
 62
     7
370
    25
100
AcDbCircle
 10
235.2440142155
 20
78.8060020608
 30
0.0
 40
0.6999999999999886
100
AcDbArc
 50
287.1813099321
 51
0.0
  0
SPLINE
  5
194
330
1F
100
AcDbEntity
  8
0
  6
Continuous
 62
     7
370
    25
100
AcDbSpline
210
0.0
220
0.0
230
1.0
 70
     8
 71
     3
 72
    23
 73
    19
 74
     0
 42
0.000000001
 43
0.00000001
 40
0.0
 40
0.0
 40
0.0
 40
0.0
 40
0.0635835102153922
 40
0.1240127548816845
 40
0.1738712365244708
 40
0.2131387660316764
 40
0.2458072953220038
 40
0.2788932481448585
 40
0.3809678229801728
 40
0.4839819821759893
 40
0.5869962890761341
 40
0.6844464224170462
 40
0.7140770631707377
 40
0.7496372242560002
 40
0.796763190032557
 40
0.8554427712484209
 40
0.9256692738732619
 40
1.0
 40
1.0
 40
1.0
 40
1.0
 10
215.9014165788839
 20
87.92315635206984
 30
0.0
 10
216.1637292262323
 20
88.12529192362015
 30
0.0
 10
216.6753416541683
 20
88.51953547831889
 30
0.0
 10
217.4845526930959
 20
88.99107812674681
 30
0.0
 10
218.2169654949348
 20
89.35300009743119
 30
0.0
 10
218.8402197321332
 20
89.61223405426968
 30
0.0
 10
219.3930139069292
 20
89.81144355753727
 30
0.0
 10
220.2964888133714
 20
90.09308931986867
 30
0.0
 10
221.6323527052006
 20
90.38532574224325
 30
0.0
 10
223.4159285641373
 20
90.53558415918842
 30
0.0
 10
225.1799894121874
 20
90.45662599802608
 30
0.0
 10
226.4880913888478
 20
90.23100804358147
 30
0.0
 10
227.3834096517791
 20
90.00032631692368
 30
0.0
 10
227.9901316822563
 20
89.81574379761052
 30
0.0
 10
228.7329502160929
 20
89.54479112845668
 30
0.0
 10
229.6166825228878
 20
89.14613918289625
 30
0.0
 10
230.5800685989217
 20
88.6123112150487
 30
0.0
 10
231.1801222089836
 20
88.15521374094608
 30
0.0
 10
231.488667280967
 20
87.92017611983105
 30
0.0
  0
LINE
  5
195
330
1F
100
AcDbEntity
  8
0
  6
Continuous
 62
     7
370
    25
100
AcDbLine
 10
235.9440138951
 20
79.2932606054
 30
0.0
 11
236.1440144867
 21
79.2932606054
 31
0.0
  0
LINE
  5
196
330
1F
100
AcDbEntity
  8
0
  6
Continuous
 62
     7
370
    25
100
AcDbLine
 10
211.2440139443
 20
79.2932606054
 30
0.0
 11
211.4440145358
 21
79.2932606054
 31
0.0
  0
ARC
  5
197
330
1F
100
AcDbEntity
  8
0
  6
Continuous
 62
     7
370
    25
100
AcDbCircle
 10
223.6940142155
 20
116.1611556544
 30
0.0
 40
39.80000000000084
100
AcDbArc
 50
252.8186900679
 51
259.1381126398
  0
ARC
  5
198
330
1F
100
AcDbEntity
  8
0
  6
Continuous
 62
     7
370
    25
100
AcDbCircle
 10
223.6940142155
 20
116.1611556544
 30
0.0
 40
39.80000000000086
100
AcDbArc
 50
280.8618873603
 51
287.1813099321
  0
LINE
  5
199
330
1F
100
AcDbEntity
  8
0
  6
Continuous
 62
     7
370
    25
100
AcDbLine
 10
230.8095454626
 20
162.6932602593
 30
0.0
 11
216.5784829684
 21
162.6932602593
 31
0.0
  0
SPLINE
  5
19A
330
1F
100
AcDbEntity
  8
0
  6
Continuous
 62
     7
370
    25
100
AcDbSpline
210
0.0
220
0.0
230
1.0
 70
     8
 71
     3
 72
     8
 73
     4
 74
     0
 42
0.000000001
 43
0.00000001
 40
0.0
 40
0.0
 40
0.0
 40
0.0
 40
1.0
 40
1.0
 40
1.0
 40
1.0
 10
203.703151780281
 20
147.7898231203066
 30
0.0
 10
203.6970600704032
 20
152.6266461956366
 30
0.0
 10
203.6940142154644
 20
157.594458582573
 30
0.0
 10
203.6940142154644
 20
162.6932602811158
 30
0.0
  0
SPLINE
  5
19B
330
1F
100
AcDbEntity
  8
0
  6
Continuous
 62
     7
370
    25
100
AcDbSpline
210
0.0
220
0.0
230
1.0
 70
    24
 71
     3
 72
    32
 73
    28
 74
     0
 42
0.000000001
 43
0.00000001
 40
0.0
 40
0.0
 40
0.0
 40
0.0
 40
0.1249999999999994
 40
0.1249999999999994
 40
0.2499999999999988
 40
0.2499999999999988
 40
0.3124999999999986
 40
0.3124999999999986
 40
0.3749999999999983
 40
0.3749999999999983
 40
0.4374999999999981
 40
0.4374999999999981
 40
0.4999999999999979
 40
0.4999999999999979
 40
0.5312499999999983
 40
0.5312499999999983
 40
0.5624999999999987
 40
0.5624999999999987
 40
0.624999999999999
 40
0.624999999999999
 40
0.6874999999999992
 40
0.6874999999999992
 40
0.7499999999999994
 40
0.7499999999999994
 40
0.8749999999999997
 40
0.8749999999999997
 40
1.0
 40
1.0
 40
1.0
 40
1.0
 10
203.6941105067635
 20
162.6932602811158
 30
0.0
 10
203.6941105066876
 20
162.6932602811158
 30
0.0
 10
203.6972074163798
 20
162.6932602811158
 30
0.0
 10
203.8119930768439
 20
162.6932602811158
 30
0.0
 10
203.9209750456035
 20
162.6932602811158
 30
0.0
 10
204.2127216712467
 20
162.6932602811158
 30
0.0
 10
204.3317707679776
 20
162.6932602811158
 30
0.0
 10
204.6172027437873
 20
162.6932602811158
 30
0.0
 10
204.7839204175741
 20
162.6932602811158
 30
0.0
 10
205.1756592016418
 20
162.6932602811158
 30
0.0
 10
205.4032892097038
 20
162.6932602811158
 30
0.0
 10
205.9139110288473
 20
162.6932602811158
 30
0.0
 10
206.1971660364642
 20
162.6932602811158
 30
0.0
 10
206.6663011087111
 20
162.6932602811158
 30
0.0
 10
206.8300364183293
 20
162.6932602811158
 30
0.0
 10
207.1722941730986
 20
162.6932602811158
 30
0.0
 10
207.351707449181
 20
162.6932602811158
 30
0.0
 10
207.9048927132489
 20
162.6932602811158
 30
0.0
 10
208.2915823698713
 20
162.6932602811158
 30
0.0
 10
209.0946315797873
 20
162.6932602811158
 30
0.0
 10
209.5131062421456
 20
162.6932602811158
 30
0.0
 10
210.3653128422842
 20
162.6932602811158
 30
0.0
 10
210.7963484015219
 20
162.6932602811158
 30
0.0
 10
212.1012264941949
 20
162.6932602811158
 30
0.0
 10
212.9868904511839
 20
162.6932602811158
 30
0.0
 10
214.7778989706595
 20
162.6932602811158
 30
0.0
 10
215.6790599117344
 20
162.6932602811158
 30
0.0
 10
216.5784830998768
 20
162.6932602811158
 30
0.0
  0
SPLINE
  5
19C
330
1F
100
AcDbEntity
  8
0
  6
Continuous
 62
     7
370
    25
100
AcDbSpline
210
0.0
220
0.0
230
1.0
 70
     8
 71
     3
 72
     8
 73
     4
 74
     0
 42
0.000000001
 43
0.00000001
 40
0.0
 40
0.0
 40
0.0
 40
0.0
 40
1.0
 40
1.0
 40
1.0
 40
1.0
 10
243.6940142154644
 20
162.6932602811158
 30
0.0
 10
243.6940142154644
 20
157.5940993263559
 30
0.0
 10
243.6909679312949
 20
152.6259461425917
 30
0.0
 10
243.6848753629559
 20
147.788800729823
 30
0.0
  0
SPLINE
  5
19D
330
1F
100
AcDbEntity
  8
0
  6
Continuous
 62
     7
370
    25
100
AcDbSpline
210
0.0
220
0.0
230
1.0
 70
    24
 71
     3
 72
    32
 73
    28
 74
     0
 42
0.000000001
 43
0.00000001
 40
0.0
 40
0.0
 40
0.0
 40
0.0
 40
0.1249999999999985
 40
0.1249999999999985
 40
0.2499999999999971
 40
0.2499999999999971
 40
0.3124999999999964
 40
0.3124999999999964
 40
0.3749999999999958
 40
0.3749999999999958
 40
0.4374999999999954
 40
0.4374999999999954
 40
0.499999999999995
 40
0.499999999999995
 40
0.531249999999995
 40
0.531249999999995
 40
0.5624999999999949
 40
0.5624999999999949
 40
0.6249999999999957
 40
0.6249999999999957
 40
0.6874999999999963
 40
0.6874999999999963
 40
0.749999999999997
 40
0.749999999999997
 40
0.8749999999999984
 40
0.8749999999999984
 40
1.0
 40
1.0
 40
1.0
 40
1.0
 10
230.8095453309292
 20
162.6932602811158
 30
0.0
 10
231.705082359874
 20
162.6932602811158
 30
0.0
 10
232.6001923243728
 20
162.6932602811158
 30
0.0
 10
234.3796582270806
 20
162.6932602811158
 30
0.0
 10
235.264263132143
 20
162.6932602811158
 30
0.0
 10
236.5783160728577
 20
162.6932602811158
 30
0.0
 10
237.0144092582874
 20
162.6932602811158
 30
0.0
 10
237.862368066023
 20
162.6932602811158
 30
0.0
 10
238.2764034365547
 20
162.6932602811158
 30
0.0
 10
239.0803007781175
 20
162.6932602811158
 30
0.0
 10
239.473362671448
 20
162.6932602811158
 30
0.0
 10
240.205388381545
 20
162.6932602811158
 30
0.0
 10
240.5460169270643
 20
162.6932602811158
 30
0.0
 10
241.0167925769093
 20
162.6932602811158
 30
0.0
 10
241.1670380777696
 20
162.6932602811158
 30
0.0
 10
241.4541040273248
 20
162.6932602811158
 30
0.0
 10
241.5915327569208
 20
162.6932602811158
 30
0.0
 10
241.9789328056745
 20
162.6932602811158
 30
0.0
 10
242.203483597872
 20
162.6932602811158
 30
0.0
 10
242.5967450992069
 20
162.6932602811158
 30
0.0
 10
242.7661134747669
 20
162.6932602811158
 30
0.0
 10
243.0538588834037
 20
162.6932602811158
 30
0.0
 10
243.1717260712219
 20
162.6932602811158
 30
0.0
 10
243.4630772157052
 20
162.6932602811158
 30
0.0
 10
243.5739993774635
 20
162.6932602811158
 30
0.0
 10
243.6907926339965
 20
162.6932602811158
 30
0.0
 10
243.6939179241358
 20
162.6932602811158
 30
0.0
 10
243.693917924049
 20
162.6932602811158
 30
0.0
  0
SPLINE
  5
19E
330
1F
100
AcDbEntity
  8
0
  6
Continuous
 62
     7
370
    25
100
AcDbSpline
210
0.0
220
0.0
230
1.0
 70
     8
 71
     3
 72
     8
 73
     4
 74
     0
 42
0.000000001
 43
0.00000001
 40
0.0
 40
0.0
 40
0.0
 40
0.0
 40
1.0
 40
1.0
 40
1.0
 40
1.0
 10
243.6848754298423
 20
147.7888538338159
 30
0.0
 10
243.6847299791285
 20
147.6733739691925
 30
0.0
 10
243.6845827921958
 20
147.5579687719866
 30
0.0
 10
243.6844338690442
 20
147.4426382421982
 30
0.0
  0
SPLINE
  5
19F
330
1F
100
AcDbEntity
  8
0
  6
Continuous
 62
     7
370
    25
100
AcDbSpline
210
0.0
220
0.0
230
1.0
 70
     8
 71
     3
 72
     8
 73
     4
 74
     0
 42
0.000000001
 43
0.00000001
 40
0.0
 40
0.0
 40
0.0
 40
0.0
 40
1.0
 40
1.0
 40
1.0
 40
1.0
 10
203.7035945618844
 20
147.442638242278
 30
0.0
 10
203.7034456387329
 20
147.5579687720157
 30
0.0
 10
203.7032984518002
 20
147.673373969171
 30
0.0
 10
203.7031530010865
 20
147.7888538337437
 30
0.0
  0
SPLINE
  5
1A0
330
1F
100
AcDbEntity
  8
0
  6
Continuous
 62
     7
370
    25
100
AcDbSpline
210
0.0
220
0.0
230
1.0
 70
     8
 71
     3
 72
    77
 73
    73
 74
     0
 42
0.000000001
 43
0.00000001
 40
0.0
 40
0.0
 40
0.0
 40
0.0
 40
0.0046144861821092
 40
0.0195224818608361
 40
0.0345611490400208
 40
0.0496392180496537
 40
0.0645603348661535
 40
0.0794965690204215
 40
0.0946206132577774
 40
0.1096738282230199
 40
0.1245989672463797
 40
0.1395758027167679
 40
0.15478967054368
 40
0.1698077903640678
 40
0.1847169823976365
 40
0.1997071180679506
 40
0.2149707911335707
 40
0.2301428117166851
 40
0.2451085986580538
 40
0.2571499615834368
 40
0.2692669059900528
 40
0.275353005746316
 40
0.2766275978596203
 40
0.279043481688676
 40
0.2826053495141271
 40
0.2873199513557397
 40
0.298988994385698
 40
0.3146394343042898
 40
0.3343710345487174
 40
0.3583082540429016
 40
0.3866005779542878
 40
0.419422065698716
 40
0.4436609503005529
 40
0.4700220706808071
 40
0.4772852117362739
 40
0.4846998375261486
 40
0.4922672242130414
 40
0.4999886889092027
 40
0.5078655487384561
 40
0.5158992444263567
 40
0.5356061256526848
 40
0.5533291517516901
 40
0.5690189317008303
 40
0.5862998790716012
 40
0.6028540235558001
 40
0.6198154222919139
 40
0.6362926873389695
 40
0.6573337551791578
 40
0.6774873411114695
 40
0.6968767406372502
 40
0.717159587131339
 40
0.7372683100668646
 40
0.7574316842629677
 40
0.7670808685016993
 40
0.7768798681982726
 40
0.7868510846976275
 40
0.7970160134381193
 40
0.8073950575707286
 40
0.8180075755505176
 40
0.8242395663678552
 40
0.8308475296606707
 40
0.8378350921015382
 40
0.8452052368432608
 40
0.8529606348066546
 40
0.8611034804218134
 40
0.8696357439880221
 40
0.8785591191054527
 40
0.8954633812079545
 40
0.9160532621701057
 40
0.9403346271167252
 40
0.9683142750782874
 40
0.9999999999999999
 40
0.9999999999999999
 40
0.9999999999999999
 40
0.9999999999999999
 10
204.0510818749616
 20
82.42980602505492
 30
0.0
 10
204.0517229331952
 20
82.37134044911342
 30
0.0
 10
204.0544350548147
 20
82.12399045157159
 30
0.0
 10
204.0577905816799
 20
81.82334794945466
 30
0.0
 10
204.0610105286852
 20
81.5355957852549
 30
0.0
 10
204.0625904583881
 20
81.395355764396
 30
0.0
 10
204.0625589742343
 20
81.3981336646805
 30
0.0
 10
204.0608676038551
 20
81.54841365561818
 30
0.0
 10
204.057569515457
 20
81.84287341353485
 30
0.0
 10
204.052806506043
 20
82.27180064796057
 30
0.0
 10
204.046622865785
 20
82.83468462869622
 30
0.0
 10
204.039087115161
 20
83.53097319943873
 30
0.0
 10
204.0303614181954
 20
84.35078025229842
 30
0.0
 10
204.0206987492653
 20
85.27732816138983
 30
0.0
 10
204.0102550701405
 20
86.30154928628878
 30
0.0
 10
203.9990937104685
 20
87.42275838511776
 30
0.0
 10
203.9874190106487
 20
88.62767234162922
 30
0.0
 10
203.9755117887399
 20
89.89217918738315
 30
0.0
 10
203.9643511178276
 20
91.11328003939936
 30
0.0
 10
203.9540397302988
 20
92.27277408703077
 30
0.0
 10
203.9461663500739
 20
93.18115249754682
 30
0.0
 10
203.9411676671189
 20
93.7682661106178
 30
0.0
 10
203.9386827913268
 20
94.06318739292591
 30
0.0
 10
203.9368414594262
 20
94.28194727048248
 30
0.0
 10
203.9341501541373
 20
94.60447984928183
 30
0.0
 10
203.9291653698006
 20
95.206127748796
 30
0.0
 10
203.9213051770653
 20
96.17242581347841
 30
0.0
 10
203.9100918452967
 20
97.59170828827219
 30
0.0
 10
203.8964857129635
 20
99.3810614316591
 30
0.0
 10
203.8807510052676
 20
101.5517599387221
 30
0.0
 10
203.8632002441221
 20
104.1173206407079
 30
0.0
 10
203.8467696378183
 20
106.6919888803879
 30
0.0
 10
203.8317338474423
 20
109.2084085339724
 30
0.0
 10
203.8219193162625
 20
110.9538610718583
 30
0.0
 10
203.8152277672513
 20
112.1918081756918
 30
0.0
 10
203.8116691938978
 20
112.8628385167602
 30
0.0
 10
203.808101662652
 20
113.5476946372819
 30
0.0
 10
203.8045307328853
 20
114.2464945209959
 30
0.0
 10
203.800960203709
 20
114.959361109043
 30
0.0
 10
203.795686470643
 20
116.0337717008385
 30
0.0
 10
203.7891890634407
 20
117.4051961081428
 30
0.0
 10
203.7819679386975
 20
119.0075699444774
 30
0.0
 10
203.7753762795917
 20
120.5367677784211
 30
0.0
 10
203.769223705126
 20
122.0307000922403
 30
0.0
 10
203.7632125433437
 20
123.5630062618774
 30
0.0
 10
203.7575788887612
 20
125.0702121097062
 30
0.0
 10
203.7517522362972
 20
126.7088489258552
 30
0.0
 10
203.7459750057806
 20
128.4317424823901
 30
0.0
 10
203.740375749644
 20
130.2131416159575
 30
0.0
 10
203.7353239023155
 20
131.9279132052419
 30
0.0
 10
203.7307783655395
 20
133.5742407001416
 30
0.0
 10
203.7267137935013
 20
135.1475781367739
 30
0.0
 10
203.7237965523093
 20
136.3497446410113
 30
0.0
 10
203.7217351540601
 20
137.2400225417837
 30
0.0
 10
203.7203127690031
 20
137.8710091742154
 30
0.0
 10
203.7189784318126
 20
138.4813914273042
 30
0.0
 10
203.7177223337764
 20
139.0711362343431
 30
0.0
 10
203.7165472522679
 20
139.639893661394
 30
0.0
 10
203.7156013358571
 20
140.10848957099
 30
0.0
 10
203.7148482463006
 20
140.4917356982117
 30
0.0
 10
203.714242977524
 20
140.8031610074858
 30
0.0
 10
203.7136368258076
 20
141.1208588416185
 30
0.0
 10
203.7130276939473
 20
141.4447209012091
 30
0.0
 10
203.7124200362245
 20
141.77483452073
 30
0.0
 10
203.7118091897281
 20
142.1111091199832
 30
0.0
 10
203.711198020966
 20
142.453952492579
 30
0.0
 10
203.7104197412718
 20
142.9005111563298
 30
0.0
 10
203.7094114872608
 20
143.4937537162082
 30
0.0
 10
203.7081287060512
 20
144.2825805122255
 30
0.0
 10
203.706693887103
 20
145.2100208143158
 30
0.0
 10
203.7051346163404
 20
146.278477040116
 30
0.0
 10
203.704128533841
 20
147.0387749930299
 30
0.0
 10
203.7035942465017
 20
147.4425366831092
 30
0.0
  0
LWPOLYLINE
  5
1A1
330
1F
100
AcDbEntity
  8
0
  6
Continuous
 62
     7
370
    25
100
AcDbPolyline
 90
       81
 70
   128
 43
0.0
 10
243.6844341844
 20
147.4425366831
 10
243.682908678
 20
146.3080647153
 10
243.6814502269
 20
145.2976449144
 10
243.6800904959
 20
144.4099026484
 10
243.679712379
 20
144.1715529871
 10
243.6793454379
 20
143.9437198204
 10
243.6789915353
 20
143.7263752085
 10
243.6786506712
 20
143.5194930744
 10
243.6783228457
 20
143.3230492038
 10
243.6780080587
 20
143.1370212448
 10
243.6777100354
 20
142.9613868457
 10
243.6774250507
 20
142.7961217922
 10
243.6764490247
 20
142.2407517892
 10
243.6754729986
 20
141.7013521058
 10
243.6744988352
 20
141.1778314722
 10
243.6735265344
 20
140.6700986189
 10
243.6725616842
 20
140.1780641389
 10
243.6702818066
 20
139.0619001103
 10
243.6676890045
 20
137.8624665302
 10
243.6647590637
 20
136.5810374481
 10
243.6612256259
 20
135.1274515254
 10
243.6571743727
 20
133.563548581
 10
243.6525494248
 20
131.8916587842
 10
243.6462574094
 20
129.7776049686
 10
243.6388701588
 20
127.4875758899
 10
243.6309706807
 20
125.2258590174
 10
243.6227377891
 20
123.0371876371
 10
243.6186567336
 20
122.0063066793
 10
243.6141807973
 20
120.9131872964
 10
243.6105803043
 20
120.0597381902
 10
243.6065327764
 20
119.1259941769
 10
243.6048154175
 20
118.7374389482
 10
243.6030235529
 20
118.3367318225
 10
243.6011534572
 20
117.9239473057
 10
243.599206993
 20
117.4991673541
 10
243.5971804351
 20
117.0624627483
 10
243.5950719207
 20
116.6139191699
 10
243.5928795874
 20
116.1536185754
 10
243.5906015724
 20
115.6816466463
 10
243.5719918847
 20
112.0431891394
 10
243.5536466926
 20
108.7773128164
 10
243.5359310746
 20
105.8683267546
 10
243.5191747189
 20
103.3020226968
 10
243.5036756486
 20
101.0656899524
 10
243.4896927714
 20
99.1480967713
 10
243.4774533302
 20
97.5394866181
 10
243.4671491772
 20
96.2316117001
 10
243.4589367747
 20
95.2176845384
 10
243.4542280078
 20
94.64691046
 10
243.450804466
 20
94.2368007016
 10
243.4486959517
 20
93.986133368
 10
243.4481408834
 20
93.9203372908
 10
243.4479881465
 20
93.9023068857
 10
243.4479434431
 20
93.8970020724
 10
243.4479266792
 20
93.8951096249
 10
243.447922954
 20
93.8945284796
 10
243.4479210913
 20
93.8943124128
 10
243.4479192287
 20
93.8942304564
 10
243.4479192287
 20
93.8941932035
 10
243.4479192287
 20
93.8941783023
 10
243.4479192287
 20
93.8941783023
 10
243.4479192287
 20
93.8941708517
 10
243.4362274051
 20
92.5330913377
 10
243.4244480371
 20
91.2040940237
 10
243.4125923008
 20
89.9066573692
 10
243.4006732345
 20
88.6402598334
 10
243.388944158
 20
87.4288922859
 10
243.3778688699
 20
86.3151422453
 10
243.3674939364
 20
85.2970129562
 10
243.3578659236
 20
84.3726417733
 10
243.3490965903
 20
83.5475570274
 10
243.3416199326
 20
82.8559717846
 10
243.3354787916
 20
82.2959563446
 10
243.33071042
 20
81.8659460855
 10
243.327419126
 20
81.5714544368
 10
243.3257464707
 20
81.4226141882
 10
243.3257054925
 20
81.4189559531
 10
243.3272943288
 20
81.5604573798
 10
243.3304384738
 20
81.8414783788
 10
243.335067147
 20
82.2585618806
 10
243.3369931221
 20
82.4340305043
  0
SPLINE
  5
1A2
330
1F
100
AcDbEntity
  8
0
  6
Continuous
 62
     7
370
    25
100
AcDbSpline
210
0.0
220
0.0
230
1.0
 70
     8
 71
     3
 72
    18
 73
    14
 74
     0
 42
0.000000001
 43
0.00000001
 40
0.0
 40
0.0
 40
0.0
 40
0.0
 40
0.2500000000000009
 40
0.2500000000000009
 40
0.3750000000000012
 40
0.3750000000000012
 40
0.5000000000000016
 40
0.5000000000000016
 40
0.7500000000000026
 40
0.7500000000000026
 40
0.8750000000000013
 40
0.8750000000000013
 40
1.0
 40
1.0
 40
1.0
 40
1.0
 10
231.6440182763553
 20
90.34384516307072
 30
0.0
 10
232.2443982957416
 20
89.847799291722
 30
0.0
 10
232.7786374717039
 20
89.31204460324341
 30
0.0
 10
233.4840091980013
 20
88.45794051066744
 30
0.0
 10
233.7030020549041
 20
88.16474385182472
 30
0.0
 10
234.1076121668165
 20
87.56196024295869
 30
0.0
 10
234.2913167652678
 20
87.25490164643887
 30
0.0
 10
234.780054625603
 20
86.3322731530361
 30
0.0
 10
235.0270035121078
 20
85.70997194434668
 30
0.0
 10
235.2777967143431
 20
84.77191017214942
 30
0.0
 10
235.3409819808532
 20
84.45860326964181
 30
0.0
 10
235.424431875214
 20
83.84393769414378
 30
0.0
 10
235.4451887946611
 20
83.54095932127225
 30
0.0
 10
235.4451429937539
 20
83.24261113302698
 30
0.0
  0
LWPOLYLINE
  5
1A3
330
1F
100
AcDbEntity
  8
0
  6
Continuous
 62
     7
370
    25
100
AcDbPolyline
 90
        9
 70
   128
 43
0.0
 10
231.6440146804
 20
93.7550312591
 10
231.6440146804
 20
93.3247676802
 10
231.6440146804
 20
92.8950703454
 10
231.6440146804
 20
92.4661925745
 10
231.6440146804
 20
92.0384249401
 10
231.6440146804
 20
91.6120356632
 10
231.6440146804
 20
91.1872929645
 10
231.6440146804
 20
90.7644725156
 10
231.6440156117
 20
90.3438425374
  0
SPLINE
  5
1A4
330
1F
100
AcDbEntity
  8
0
  6
Continuous
 62
     7
370
    25
100
AcDbSpline
210
0.0
220
0.0
230
1.0
 70
     8
 71
     3
 72
    24
 73
    20
 74
     0
 42
0.000000001
 43
0.00000001
 40
0.0
 40
0.0
 40
0.0
 40
0.0
 40
0.2500000000000002
 40
0.2500000000000002
 40
0.3125000000000001
 40
0.3125000000000001
 40
0.375
 40
0.375
 40
0.5000000000000002
 40
0.5000000000000002
 40
0.6250000000000004
 40
0.6250000000000004
 40
0.7500000000000008
 40
0.7500000000000008
 40
0.8125000000000006
 40
0.8125000000000006
 40
0.8750000000000003
 40
0.8750000000000003
 40
1.0
 40
1.0
 40
1.0
 40
1.0
 10
215.74402137344
 20
93.75499362672447
 30
0.0
 10
216.9158468068036
 20
94.51851252412797
 30
0.0
 10
218.1740363348675
 20
95.11661926830942
 30
0.0
 10
219.8588736885494
 20
95.63575737064436
 30
0.0
 10
220.2027535473446
 20
95.72813539660622
 30
0.0
 10
220.8909956320033
 20
95.88587600387082
 30
0.0
 10
221.2364354191085
 20
95.95165999064211
 30
0.0
 10
222.2766629401943
 20
96.11001732020561
 30
0.0
 10
222.9753410921356
 20
96.16374583838926
 30
0.0
 10
224.3832655209576
 20
96.16522810115055
 30
0.0
 10
225.0974122314406
 20
96.11156240566773
 30
0.0
 10
226.4897568983702
 20
95.9007499363825
 30
0.0
 10
227.1727183460558
 20
95.74433479571468
 30
0.0
 10
228.1779199646315
 20
95.4364500496344
 30
0.0
 10
228.5097684754524
 20
95.32157158335653
 30
0.0
 10
229.1669774625101
 20
95.06737014485955
 30
0.0
 10
229.4925745417318
 20
94.9278327414254
 30
0.0
 10
230.4470377899838
 20
94.47855987518564
 30
0.0
 10
231.0580070941498
 20
94.13680992757614
 30
0.0
 10
231.6440071411456
 20
93.75499357222171
 30
0.0
  0
LINE
  5
1A5
330
1F
100
AcDbEntity
  8
0
  6
Continuous
 62
     7
370
    25
100
AcDbLine
 10
215.7440137505
 20
90.3437903834
 30
0.0
 11
215.7440137505
 21
93.7550312591
 31
0.0
  0
SPLINE
  5
1A6
330
1F
100
AcDbEntity
  8
0
  6
Continuous
 62
     7
370
    25
100
AcDbSpline
210
0.0
220
0.0
230
1.0
 70
     8
 71
     3
 72
    16
 73
    12
 74
     0
 42
0.000000001
 43
0.00000001
 40
0.0
 40
0.0
 40
0.0
 40
0.0
 40
0.2500000000000025
 40
0.2500000000000025
 40
0.3750000000000019
 40
0.3750000000000019
 40
0.5000000000000013
 40
0.5000000000000013
 40
0.7500000000000007
 40
0.7500000000000007
 40
1.0
 40
1.0
 40
1.0
 40
1.0
 10
211.9428852876104
 20
83.24349352643853
 30
0.0
 10
211.9428759387417
 20
83.83983390878419
 30
0.0
 10
212.0253431163727
 20
84.44960296333075
 30
0.0
 10
212.272200699921
 20
85.38004730651207
 30
0.0
 10
212.3751634204545
 20
85.69282331544076
 30
0.0
 10
212.624288725028
 20
86.3227825813842
 30
0.0
 10
212.7684979392085
 20
86.63487123671364
 30
0.0
 10
213.2563717534676
 20
87.55716538685745
 30
0.0
 10
213.6553989029988
 20
88.15541625546342
 30
0.0
 10
214.6047049660941
 20
89.3078231296615
 30
0.0
 10
215.1438022050766
 20
89.84793900668494
 30
0.0
 10
215.7439870043562
 20
90.3438260358494
 30
0.0
  0
SPLINE
  5
1A7
330
1F
100
AcDbEntity
  8
0
  6
Continuous
 62
     7
370
    25
100
AcDbSpline
210
0.0
220
0.0
230
1.0
 70
     8
 71
     3
 72
    24
 73
    20
 74
     0
 42
0.000000001
 43
0.00000001
 40
0.0
 40
0.0
 40
0.0
 40
0.0
 40
0.0624999999999998
 40
0.0624999999999998
 40
0.1249999999999997
 40
0.1249999999999997
 40
0.2499999999999997
 40
0.2499999999999997
 40
0.3749999999999997
 40
0.3749999999999997
 40
0.4999999999999998
 40
0.4999999999999998
 40
0.6249999999999998
 40
0.6249999999999998
 40
0.7499999999999998
 40
0.7499999999999998
 40
0.8749999999999999
 40
0.8749999999999999
 40
1.0
 40
1.0
 40
1.0
 40
1.0
 10
233.9904698047829
 20
102.0559130375525
 30
0.0
 10
233.6138125596773
 20
102.2673140141692
 30
0.0
 10
233.2263403476389
 20
102.4656687797719
 30
0.0
 10
232.4407537161829
 20
102.8332207527223
 30
0.0
 10
232.0436100695082
 20
103.0021138369312
 30
0.0
 10
230.8402738385058
 20
103.4680639394663
 30
0.0
 10
230.0222631308606
 20
103.7246900166855
 30
0.0
 10
228.3577642358734
 20
104.1405179631031
 30
0.0
 10
227.511242636035
 20
104.2996055249247
 30
0.0
 10
225.7901971201909
 20
104.5219820208665
 30
0.0
 10
224.9258581233186
 20
104.5838969710742
 30
0.0
 10
223.191692284605
 20
104.6111355873402
 30
0.0
 10
222.3262171953007
 20
104.5760933762698
 30
0.0
 10
220.6159358246899
 20
104.411039017624
 30
0.0
 10
219.7684172241354
 20
104.281118425775
 30
0.0
 10
218.0892596545739
 20
103.9225391732573
 30
0.0
 10
217.2562467950954
 20
103.6935489971845
 30
0.0
 10
215.6137312927152
 20
103.1261175058145
 30
0.0
 10
214.8178970961
 20
102.7926437373884
 30
0.0
 10
214.0502666877528
 20
102.4039705776306
 30
0.0
  0
LINE
  5
1A8
330
1F
100
AcDbEntity
  8
0
  6
Continuous
 62
     7
370
    25
100
AcDbLine
 10
231.1940140478
 20
77.5495267225
 30
0.0
 11
231.1940140478
 21
88.1329423499
 31
0.0
  0
SPLINE
  5
1A9
330
1F
100
AcDbEntity
  8
0
  6
Continuous
 62
     7
370
    25
100
AcDbSpline
210
0.0
220
0.0
230
1.0
 70
     8
 71
     3
 72
     8
 73
     4
 74
     0
 42
0.000000001
 43
0.00000001
 40
0.998728259988568
 40
0.998728259988568
 40
0.998728259988568
 40
0.998728259988568
 40
1.0
 40
1.0
 40
1.0
 40
1.0
 10
235.445144546419
 20
83.24261116598677
 30
0.0
 10
235.4451406995188
 20
83.22411490096052
 30
0.0
 10
235.4450571526039
 20
83.20561815068187
 30
0.0
 10
235.4448934729973
 20
83.18712124917086
 30
0.0
  0
SPLINE
  5
1AA
330
1F
100
AcDbEntity
  8
0
  6
Continuous
 62
     7
370
    25
100
AcDbSpline
210
0.0
220
0.0
230
1.0
 70
     8
 71
     3
 72
    16
 73
    12
 74
     0
 42
0.000000001
 43
0.00000001
 40
0.0
 40
0.0
 40
0.0
 40
0.0
 40
0.2499999999999999
 40
0.2499999999999999
 40
0.3749999999999998
 40
0.3749999999999998
 40
0.4999999999999997
 40
0.4999999999999997
 40
0.7499999999999999
 40
0.7499999999999999
 40
1.0
 40
1.0
 40
1.0
 40
1.0
 10
235.4448934729973
 20
83.18712124917086
 30
0.0
 10
235.4390488502297
 20
82.52663938500653
 30
0.0
 10
235.3321555236694
 20
81.91155842165769
 30
0.0
 10
235.0355173578932
 20
81.05157642213386
 30
0.0
 10
234.9134574062735
 20
80.775023035756
 30
0.0
 10
234.6240442013623
 20
80.24417264807946
 30
0.0
 10
234.4589990281136
 20
79.99391061564107
 30
0.0
 10
233.9065216741213
 20
79.28435743157077
 30
0.0
 10
233.4612991179622
 20
78.8651547917852
 30
0.0
 10
232.4235185517488
 20
78.12615808667161
 30
0.0
 10
231.8420830562701
 20
77.81367702601047
 30
0.0
 10
231.1945307210308
 20
77.5484327980694
 30
0.0
  0
LINE
  5
1AB
330
1F
100
AcDbEntity
  8
0
  6
Continuous
 62
     7
370
    25
100
AcDbLine
 10
215.7440137505
 20
92.9506665778
 30
0.0
 11
215.8953182787
 21
92.7580541683
 31
0.0
  0
SPLINE
  5
1AC
330
1F
100
AcDbEntity
  8
0
  6
Continuous
 62
     7
370
    25
100
AcDbSpline
210
0.0
220
0.0
230
1.0
 70
    24
 71
     3
 72
     9
 73
     5
 74
     0
 42
0.000000001
 43
0.00000001
 40
0.0
 40
0.0
 40
0.0
 40
0.0
 40
0.728595242452684
 40
1.0
 40
1.0
 40
1.0
 40
1.0
 10
216.1940143831024
 20
88.13825461390303
 30
0.0
 10
216.1940143831024
 20
85.5624414369318
 30
0.0
 10
216.1940143831024
 20
82.02712714047794
 30
0.0
 10
216.1940143831024
 20
78.5029620559086
 30
0.0
 10
216.1940143831024
 20
77.54648688557432
 30
0.0
  0
SPLINE
  5
1AD
330
1F
100
AcDbEntity
  8
0
  6
Continuous
 62
     7
370
    25
100
AcDbSpline
210
0.0
220
0.0
230
1.0
 70
     8
 71
     3
 72
    18
 73
    14
 74
     0
 42
0.000000001
 43
0.00000001
 40
0.0
 40
0.0
 40
0.0
 40
0.0
 40
0.2500000000000011
 40
0.2500000000000011
 40
0.3750000000000016
 40
0.3750000000000016
 40
0.500000000000002
 40
0.500000000000002
 40
0.7500000000000022
 40
0.7500000000000022
 40
0.8750000000000011
 40
0.8750000000000011
 40
1.0
 40
1.0
 40
1.0
 40
1.0
 10
216.1909896396853
 20
77.54946041923931
 30
0.0
 10
215.5383691963571
 20
77.81697647649155
 30
0.0
 10
214.9569292811228
 20
78.13090182181686
 30
0.0
 10
214.1824736763335
 20
78.6833728625468
 30
0.0
 10
213.9408285971762
 20
78.88119342462137
 30
0.0
 10
213.4915629153327
 20
79.30730010016345
 30
0.0
 10
213.2843742795436
 20
79.53569977343321
 30
0.0
 10
212.7301688571359
 20
80.25319322045438
 30
0.0
 10
212.4437884768429
 20
80.77933410529624
 30
0.0
 10
212.1475624319235
 20
81.64976687818218
 30
0.0
 10
212.0710685032147
 20
81.95533074949172
 30
0.0
 10
211.9689210794559
 20
82.58528336215078
 30
0.0
 10
211.9428905953911
 20
82.90964182635253
 30
0.0
 10
211.9428853625328
 20
83.24349357374386
 30
0.0
  0
SPLINE
  5
1AE
330
1F
100
AcDbEntity
  8
0
  6
Continuous
 62
     7
370
    25
100
AcDbSpline
210
0.0
220
0.0
230
1.0
 70
     8
 71
     3
 72
    10
 73
     6
 74
     0
 42
0.000000001
 43
0.00000001
 40
0.0
 40
0.0
 40
0.0
 40
0.0
 40
0.5
 40
0.5
 40
1.0
 40
1.0
 40
1.0
 40
1.0
 10
231.4928236909197
 20
90.827584838041
 30
0.0
 10
231.4928249224346
 20
90.79059125871304
 30
0.0
 10
231.4928271730538
 20
90.72988415981808
 30
0.0
 10
231.4928317553335
 20
90.61163996638867
 30
0.0
 10
231.4928340230823
 20
90.55544877060755
 30
0.0
 10
231.492835962775
 20
90.50916778108213
 30
0.0
  0
SPLINE
  5
1AF
330
1F
100
AcDbEntity
  8
0
  6
Continuous
 62
     7
370
    25
100
AcDbSpline
210
0.0
220
0.0
230
1.0
 70
     8
 71
     3
 72
    13
 73
     9
 74
     0
 42
0.000000001
 43
0.00000001
 40
0.0
 40
0.0
 40
0.0
 40
0.0
 40
0.1263238996482573
 40
0.2495430235301655
 40
0.373521121344819
 40
0.5020535155685376
 40
0.756704715892103
 40
1.0
 40
1.0
 40
1.0
 40
1.0
 10
215.8952613035052
 20
90.50916777693398
 30
0.0
 10
215.8952616307806
 20
90.52078551978123
 30
0.0
 10
215.8952622772876
 20
90.54373546579123
 30
0.0
 10
215.8952633817708
 20
90.5832669240965
 30
0.0
 10
215.8952645583857
 20
90.62560420637915
 30
0.0
 10
215.8952661789819
 20
90.68420656558546
 30
0.0
 10
215.8952682688123
 20
90.7602299001376
 30
0.0
 10
215.8952694751277
 20
90.80502913615744
 30
0.0
 10
215.8952700645301
 20
90.82691791978388
 30
0.0
  0
LINE
  5
1B0
330
1F
100
AcDbEntity
  8
0
  6
Continuous
 62
     7
370
    25
100
AcDbLine
 10
231.4928358808
 20
90.5091709209
 30
0.0
 11
231.492938792
 21
88.0548975182
 31
0.0
  0
LINE
  5
1B1
330
1F
100
AcDbEntity
  8
0
  6
Continuous
 62
     7
370
    25
100
AcDbLine
 10
215.8951920845
 20
88.0544579339
 30
0.0
 11
215.895261468
 21
90.5091709209
 31
0.0
  0
LINE
  5
1B2
330
1F
100
AcDbEntity
  8
0
  6
Continuous
 62
     7
370
    25
100
AcDbLine
 10
211.2440139443
 20
95.0140303684
 30
0.0
 11
211.2440139443
 21
94.5876112891
 31
0.0
  0
LINE
  5
1B3
330
1F
100
AcDbEntity
  8
0
  6
Continuous
 62
     7
370
    25
100
AcDbLine
 10
211.2440139443
 20
94.5876112891
 30
0.0
 11
211.2440139443
 21
94.1932595086
 31
0.0
  0
LINE
  5
1B4
330
1F
100
AcDbEntity
  8
0
  6
Continuous
 62
     7
370
    25
100
AcDbLine
 10
236.1440144867
 20
94.5876112891
 30
0.0
 11
236.1440144867
 21
94.1932595086
 31
0.0
  0
LINE
  5
1B5
330
1F
100
AcDbEntity
  8
0
  6
Continuous
 62
     7
370
    25
100
AcDbLine
 10
236.1440144867
 20
94.5876112891
 30
0.0
 11
236.1440144867
 21
95.0623175812
 31
0.0
  0
LINE
  5
1B6
330
1F
100
AcDbEntity
  8
0
  6
Continuous
 62
     7
370
    25
100
AcDbLine
 10
215.8952698499
 20
90.8269158316
 30
0.0
 11
215.8953504093
 21
93.8376954508
 31
0.0
  0
LINE
  5
1B7
330
1F
100
AcDbEntity
  8
0
  6
Continuous
 62
     7
370
    25
100
AcDbLine
 10
231.4927231908
 20
93.8441849065
 30
0.0
 11
231.4928237736
 21
90.8275863838
 31
0.0
  0
SPLINE
  5
1B8
330
1F
100
AcDbEntity
  8
0
  6
Continuous
 62
     7
370
    25
100
AcDbSpline
210
0.0
220
0.0
230
1.0
 70
     8
 71
     3
 72
    36
 73
    32
 74
     0
 42
0.000000001
 43
0.00000001
 40
0.0
 40
0.0
 40
0.0
 40
0.0
 40
0.1250000000000004
 40
0.1250000000000004
 40
0.1875000000000006
 40
0.1875000000000006
 40
0.2500000000000007
 40
0.2500000000000007
 40
0.3750000000000007
 40
0.3750000000000007
 40
0.4375000000000009
 40
0.4375000000000009
 40
0.5000000000000009
 40
0.5000000000000009
 40
0.531250000000001
 40
0.531250000000001
 40
0.5625000000000011
 40
0.5625000000000011
 40
0.6250000000000011
 40
0.6250000000000011
 40
0.6875000000000012
 40
0.6875000000000012
 40
0.7187500000000011
 40
0.7187500000000011
 40
0.7500000000000009
 40
0.7500000000000009
 40
0.8125000000000006
 40
0.8125000000000006
 40
0.8750000000000002
 40
0.8750000000000002
 40
1.0
 40
1.0
 40
1.0
 40
1.0
 10
233.6208123405098
 20
102.6737243900576
 30
0.0
 10
233.1100862135321
 20
103.5500657481941
 30
0.0
 10
232.5160160231556
 20
104.3611984550537
 30
0.0
 10
231.472009558737
 20
105.4582671632209
 30
0.0
 10
231.0965146131524
 20
105.8055473121368
 30
0.0
 10
230.3061555571212
 20
106.4429573859553
 30
0.0
 10
229.8886668946527
 20
106.7356348902928
 30
0.0
 10
228.5839014895503
 20
107.5232148409992
 30
0.0
 10
227.6610660979299
 20
107.9205313905196
 30
0.0
 10
226.1986295240467
 20
108.3280448536512
 30
0.0
 10
225.6974956949475
 20
108.4313275232781
 30
0.0
 10
224.6989965078252
 20
108.5676117384488
 30
0.0
 10
224.1978505283998
 20
108.6018959001479
 30
0.0
 10
223.4432498327178
 20
108.6018719904741
 30
0.0
 10
223.1912275440513
 20
108.5931383851156
 30
0.0
 10
222.6862044188121
 20
108.5582002457862
 30
0.0
 10
222.43223071356
 20
108.5318412795175
 30
0.0
 10
221.6777996307094
 20
108.4274324063655
 30
0.0
 10
221.1844348173521
 20
108.3245424677432
 30
0.0
 10
220.2161816207322
 20
108.0546313551382
 30
0.0
 10
219.7413015646967
 20
107.8875812775548
 30
0.0
 10
219.0433929062513
 20
107.5869844566193
 30
0.0
 10
218.812330286957
 20
107.4779385392682
 30
0.0
 10
218.361212888088
 20
107.2455437066203
 30
0.0
 10
218.1407756016051
 20
107.1221306773403
 30
0.0
 10
217.4943516945637
 20
106.7309157956528
 30
0.0
 10
217.0832077407859
 20
106.442201952797
 30
0.0
 10
216.2994640604959
 20
105.8104688970114
 30
0.0
 10
215.9249107832026
 20
105.4653136488319
 30
0.0
 10
214.8737401892634
 20
104.3634870386313
 30
0.0
 10
214.2776144686301
 20
103.5503352240864
 30
0.0
 10
213.7664797043323
 20
102.6733510758969
 30
0.0
  0
SPLINE
  5
1B9
330
1F
100
AcDbEntity
  8
0
  6
Continuous
 62
     7
370
    25
100
AcDbSpline
210
0.0
220
0.0
230
1.0
 70
     8
 71
     3
 72
    14
 73
    10
 74
     0
 42
0.000000001
 43
0.00000001
 40
0.0
 40
0.0
 40
0.0
 40
0.0
 40
0.2500000000000001
 40
0.2500000000000001
 40
0.5000000000000002
 40
0.5000000000000002
 40
0.7500000000000001
 40
0.7500000000000001
 40
1.0
 40
1.0
 40
1.0
 40
1.0
 10
236.144014215464
 20
95.06231833524997
 30
0.0
 10
236.1440139968996
 20
95.75933262239042
 30
0.0
 10
236.0870041473486
 20
96.44394207000717
 30
0.0
 10
235.8703731260291
 20
97.79043737083671
 30
0.0
 10
235.7097293109303
 20
98.45303022973441
 30
0.0
 10
235.2795816815288
 20
99.75164277898313
 30
0.0
 10
235.0135845961125
 20
100.3761482099027
 30
0.0
 10
234.3844890352638
 20
101.5722988743759
 30
0.0
 10
234.0235799621926
 20
102.1400283653826
 30
0.0
 10
233.6208123405111
 20
102.6737243900586
 30
0.0
  0
SPLINE
  5
1BA
330
1F
100
AcDbEntity
  8
0
  6
Continuous
 62
     7
370
    25
100
AcDbSpline
210
0.0
220
0.0
230
1.0
 70
     8
 71
     3
 72
    20
 73
    16
 74
     0
 42
0.000000001
 43
0.00000001
 40
0.0
 40
0.0
 40
0.0
 40
0.0
 40
0.125
 40
0.125
 40
0.25
 40
0.25
 40
0.375
 40
0.375
 40
0.5
 40
0.5
 40
0.75
 40
0.75
 40
0.875
 40
0.875
 40
1.0
 40
1.0
 40
1.0
 40
1.0
 10
213.7664797043347
 20
102.6733510758951
 30
0.0
 10
213.56595687444
 20
102.4076298573637
 30
0.0
 10
213.3743967914048
 20
102.1313121658935
 30
0.0
 10
213.0147132046857
 20
101.564441747412
 30
0.0
 10
212.846341035912
 20
101.2737075506938
 30
0.0
 10
212.5326682546486
 20
100.6772465608181
 30
0.0
 10
212.3869327571388
 20
100.3704537970825
 30
0.0
 10
212.1214767020826
 20
99.74670616145626
 30
0.0
 10
212.0019412998944
 20
99.43043540647938
 30
0.0
 10
211.6821039455639
 20
98.46846443441964
 30
0.0
 10
211.5203467191888
 20
97.80967438490208
 30
0.0
 10
211.3560885631376
 20
96.79412981093475
 30
0.0
 10
211.3143194705773
 20
96.44992422878147
 30
0.0
 10
211.2583289816592
 20
95.7579219447848
 30
0.0
 10
211.2440142154647
 20
95.41068993456562
 30
0.0
 10
211.2440142154644
 20
95.0622027373015
 30
0.0
  0
LINE
  5
1BB
330
1F
100
AcDbEntity
  8
0
  6
Continuous
 62
     7
370
    25
100
AcDbLine
 10
211.2440139443
 20
94.1932595086
 30
0.0
 11
211.2440139443
 21
78.1528821898
 31
0.0
  0
LINE
  5
1BC
330
1F
100
AcDbEntity
  8
0
  6
Continuous
 62
     7
370
    25
100
AcDbLine
 10
236.1440144867
 20
78.1528821898
 30
0.0
 11
236.1440144867
 21
94.1932595086
 31
0.0
  0
SPLINE
  5
1BD
330
1F
100
AcDbEntity
  8
0
  6
Continuous
 62
     7
370
    25
100
AcDbSpline
210
0.0
220
0.0
230
1.0
 70
     8
 71
     3
 72
    14
 73
    10
 74
     0
 42
0.000000001
 43
0.00000001
 40
0.0
 40
0.0
 40
0.0
 40
0.0
 40
0.0859264657449675
 40
0.1674802529700664
 40
0.2513206367218211
 40
0.3712867399186268
 40
0.5021189411818943
 40
0.7313127180774439
 40
0.9999999999999999
 40
0.9999999999999999
 40
0.9999999999999999
 40
0.9999999999999999
 10
215.8951921037475
 20
88.06444218931627
 30
0.0
 10
215.8951917162262
 20
88.05031226160735
 30
0.0
 10
215.895190960904
 20
88.02277145858913
 30
0.0
 10
215.8951899708081
 20
87.98626037467567
 30
0.0
 10
215.8951890968746
 20
87.95360239446298
 30
0.0
 10
215.8951884844319
 20
87.92996302654281
 30
0.0
 10
215.8951883981539
 20
87.92460719720775
 30
0.0
 10
215.8951894113524
 20
87.95847080331421
 30
0.0
 10
215.8951911736136
 20
88.02081342696718
 30
0.0
 10
215.8951921246382
 20
88.05445734613336
 30
0.0
  0
LINE
  5
1BE
330
1F
100
AcDbEntity
  8
0
  6
Continuous
 62
     7
370
    25
100
AcDbLine
 10
215.8952372536
 20
89.7007456732
 30
0.0
 11
215.8951920845
 21
88.0644417119
 31
0.0
  0
LINE
  5
1BF
330
1F
100
AcDbEntity
  8
0
  6
Continuous
 62
     7
370
    25
100
AcDbLine
 10
215.895346684
 20
93.8376880002
 30
0.0
 11
215.8952372536
 21
89.700730772
 31
0.0
  0
LINE
  5
1C0
330
1F
100
AcDbEntity
  8
0
  6
Continuous
 62
     7
370
    25
100
AcDbLine
 10
211.4440145358
 20
97.1114805651
 30
0.0
 11
211.4440145358
 21
78.8060000849
 31
0.0
  0
LINE
  5
1C1
330
1F
100
AcDbEntity
  8
0
  6
Continuous
 62
     7
370
    25
100
AcDbLine
 10
235.9440138951
 20
78.8060000849
 30
0.0
 11
235.9440138951
 21
97.259054215
 31
0.0
  0
SPLINE
  5
1C2
330
1F
100
AcDbEntity
  8
0
  6
Continuous
 62
     7
370
    25
100
AcDbSpline
210
0.0
220
0.0
230
1.0
 70
     8
 71
     3
 72
    14
 73
    10
 74
     0
 42
0.000000001
 43
0.00000001
 40
0.0
 40
0.0
 40
0.0
 40
0.0
 40
0.0004253954600769
 40
0.0004253954600769
 40
0.0004253954600769
 40
0.0008507909225051
 40
0.0008507909225051
 40
0.0008507909225051
 40
0.0016506256811204
 40
0.0016506256811204
 40
0.0016506256811204
 40
0.0016506256811204
 10
231.4929400944372
 20
88.06442171194088
 30
0.0
 10
231.4929347515834
 20
88.20498129091267
 30
0.0
 10
231.4929294087276
 20
88.34554089646997
 30
0.0
 10
231.4929240658431
 20
88.48610091156496
 30
0.0
 10
231.4929187229586
 20
88.62666092705402
 30
0.0
 10
231.4929133800246
 20
88.767221651429
 30
0.0
 10
231.4929080368934
 20
88.90778518286
 30
0.0
 10
231.4928979906606
 20
89.1720747766963
 30
0.0
 10
231.492887943681
 20
89.43637501415954
 30
0.0
 10
231.4928778959996
 20
89.70068522603884
 30
0.0
  0
SPLINE
  5
1C3
330
1F
100
AcDbEntity
  8
0
  6
Continuous
 62
     7
370
    25
100
AcDbSpline
210
0.0
220
0.0
230
1.0
 70
     8
 71
     3
 72
    14
 73
    10
 74
     0
 42
0.000000001
 43
0.00000001
 40
0.0
 40
0.0
 40
0.0
 40
0.0
 40
0.25
 40
0.25
 40
0.5
 40
0.5
 40
0.75
 40
0.75
 40
1.0
 40
1.0
 40
1.0
 40
1.0
 10
231.4929388242178
 20
88.05489800924444
 30
0.0
 10
231.4929402113917
 20
88.02181468089078
 30
0.0
 10
231.492941429539
 20
87.99358478176063
 30
0.0
 10
231.4929434813598
 20
87.94816461716673
 30
0.0
 10
231.4929442854312
 20
87.93166926363048
 30
0.0
 10
231.4929450157163
 20
87.92183674810092
 30
0.0
 10
231.4929448824918
 20
87.9301826196854
 30
0.0
 10
231.4929432009485
 20
87.98107027257386
 30
0.0
 10
231.4929416996228
 20
88.02217489284216
 30
0.0
 10
231.4929400943096
 20
88.06442490890193
 30
0.0
  0
LINE
  5
1C4
330
1F
100
AcDbEntity
  8
0
  6
Continuous
 62
     7
370
    25
100
AcDbLine
 10
231.4928777903
 20
89.7015875888
 30
0.0
 11
231.4927418172
 21
93.8441700053
 31
0.0
  0
LINE
  5
1C5
330
1F
100
AcDbEntity
  8
0
  6
Continuous
 62
     7
370
    25
100
AcDbLine
 10
213.5794356853
 20
102.4121886802
 30
0.0
 11
214.0502667442
 21
102.4039706898
 31
0.0
  0
LINE
  5
1C6
330
1F
100
AcDbEntity
  8
0
  6
Continuous
 62
     7
370
    25
100
AcDbLine
 10
216.1940143831
 20
77.0742020321
 30
0.0
 11
216.1940143831
 21
77.5496086788
 31
0.0
  0
LINE
  5
1C7
330
1F
100
AcDbEntity
  8
0
  6
Continuous
 62
     7
370
    25
100
AcDbLine
 10
231.1940140478
 20
77.5483122778
 30
0.0
 11
231.1940140478
 21
77.0742020321
 31
0.0
  0
SPLINE
  5
1C8
330
1F
100
AcDbEntity
  8
0
  6
Continuous
 62
     8
370
    18
100
AcDbSpline
210
0.0
220
0.0
230
1.0
 70
     8
 71
     3
 72
     9
 73
     5
 74
     0
 42
0.000000001
 43
0.00000001
 40
0.0
 40
0.0
 40
0.0
 40
0.0
 40
0.4878364881478593
 40
1.0
 40
1.0
 40
1.0
 40
1.0
 10
230.8060104036662
 20
153.7642873995441
 30
0.0
 10
230.8069206977833
 20
155.2162468582442
 30
0.0
 10
230.8087866798066
 20
158.19257088069
 30
0.0
 10
230.8092883789283
 20
161.1688954483614
 30
0.0
 10
230.8095453309124
 20
162.6932602913518
 30
0.0
  0
SPLINE
  5
1C9
330
1F
100
AcDbEntity
  8
0
  6
Continuous
 62
     8
370
    18
100
AcDbSpline
210
0.0
220
0.0
230
1.0
 70
     8
 71
     3
 72
    12
 73
     8
 74
     0
 42
0.000000001
 43
0.00000001
 40
0.0
 40
0.0
 40
0.0
 40
0.0
 40
0.1666822053750177
 40
0.3333488125275562
 40
0.5000001392492995
 40
0.749982684370753
 40
1.0
 40
1.0
 40
1.0
 40
1.0
 10
216.5820180250108
 20
153.7642873986507
 30
0.0
 10
217.372295223178
 20
153.7672452652115
 30
0.0
 10
218.9527756648902
 20
153.773160721534
 30
0.0
 10
221.3234584851855
 20
153.7779029926617
 30
0.0
 10
224.0891192500173
 20
153.7797984940113
 30
0.0
 10
227.2499949105483
 20
153.7768929851752
 30
0.0
 10
229.6206169541228
 20
153.7684894556285
 30
0.0
 10
230.8060104036652
 20
153.7642873986601
 30
0.0
  0
SPLINE
  5
1CA
330
1F
100
AcDbEntity
  8
0
  6
Continuous
 62
     8
370
    18
100
AcDbSpline
210
0.0
220
0.0
230
1.0
 70
     8
 71
     3
 72
     9
 73
     5
 74
     0
 42
0.000000001
 43
0.00000001
 40
0.0
 40
0.0
 40
0.0
 40
0.0
 40
0.5121635696876621
 40
1.0
 40
1.0
 40
1.0
 40
1.0
 10
216.5784830998931
 20
162.6932602913518
 30
0.0
 10
216.5787400515618
 20
161.1688952728457
 30
0.0
 10
216.5792417500111
 20
158.1925706985778
 30
0.0
 10
216.5811077313488
 20
155.2162466695352
 30
0.0
 10
216.5820180250236
 20
153.7642873797543
 30
0.0
  0
SPLINE
  5
1CB
330
1F
100
AcDbEntity
  8
0
  6
Continuous
 62
     8
370
    18
100
AcDbSpline
210
0.0
220
0.0
230
1.0
 70
     8
 71
     3
 72
    10
 73
     6
 74
     0
 42
0.000000001
 43
0.00000001
 40
0.0
 40
0.0
 40
0.0
 40
0.0
 40
0.5
 40
0.5
 40
1.0
 40
1.0
 40
1.0
 40
1.0
 10
230.7964716426566
 20
152.5712036032637
 30
0.0
 10
230.7984909785017
 20
152.7195288498824
 30
0.0
 10
230.8004595152129
 20
152.9069189554369
 30
0.0
 10
230.8037754456044
 20
153.3216670277335
 30
0.0
 10
230.8051116270451
 20
153.5476225963013
 30
0.0
 10
230.8060104038491
 20
153.7642873986594
 30
0.0
  0
SPLINE
  5
1CC
330
1F
100
AcDbEntity
  8
0
  6
Continuous
 62
     8
370
    18
100
AcDbSpline
210
0.0
220
0.0
230
1.0
 70
     8
 71
     3
 72
     8
 73
     4
 74
     0
 42
0.000000001
 43
0.00000001
 40
0.0
 40
0.0
 40
0.0
 40
0.0
 40
1.0
 40
1.0
 40
1.0
 40
1.0
 10
230.7964716424733
 20
152.5712036032645
 30
0.0
 10
226.0616868739953
 20
152.5908186214742
 30
0.0
 10
221.3263415546839
 20
152.590818621471
 30
0.0
 10
216.5915567862061
 20
152.5712036032552
 30
0.0
  0
SPLINE
  5
1CD
330
1F
100
AcDbEntity
  8
0
  6
Continuous
 62
     8
370
    18
100
AcDbSpline
210
0.0
220
0.0
230
1.0
 70
     8
 71
     3
 72
    10
 73
     6
 74
     0
 42
0.000000001
 43
0.00000001
 40
0.0
 40
0.0
 40
0.0
 40
0.0
 40
0.5
 40
0.5
 40
1.0
 40
1.0
 40
1.0
 40
1.0
 10
216.5873502517307
 20
152.5711861743441
 30
0.0
 10
216.5853296725877
 20
152.7195114164894
 30
0.0
 10
216.5833599219904
 20
152.9069015186699
 30
0.0
 10
216.5800419425571
 20
153.3216495857516
 30
0.0
 10
216.57870493289
 20
153.5476051523679
 30
0.0
 10
216.5778055961867
 20
153.7642699524023
 30
0.0
  0
SPLINE
  5
1CE
330
1F
100
AcDbEntity
  8
0
  6
Continuous
 62
     8
370
    18
100
AcDbSpline
210
0.0
220
0.0
230
1.0
 70
     8
 71
     3
 72
    24
 73
    20
 74
     0
 42
0.000000001
 43
0.00000001
 40
0.0
 40
0.0
 40
0.0
 40
0.0
 40
0.0775755888545106
 40
0.155912653105869
 40
0.2346793510975123
 40
0.2854941473726626
 40
0.3332431677674705
 40
0.377800071129831
 40
0.4191703653454711
 40
0.4574836342926807
 40
0.4929655279607223
 40
0.5571462996555223
 40
0.6224757095249215
 40
0.6902063198092176
 40
0.7605744603525117
 40
0.8087463076991404
 40
0.8649541352323992
 40
0.9288078418366424
 40
1.0
 40
1.0
 40
1.0
 40
1.0
 10
203.7032936629356
 20
147.7887478043523
 30
0.0
 10
203.7032178828261
 20
148.0366089882129
 30
0.0
 10
203.7030655787562
 20
148.5347643402806
 30
0.0
 10
203.7799870253559
 20
149.2766116281262
 30
0.0
 10
203.9608351243721
 20
149.9350426012564
 30
0.0
 10
204.2190799792889
 20
150.4913931581266
 30
0.0
 10
204.5027912916945
 20
150.9260526293704
 30
0.0
 10
204.8428826158712
 20
151.3211025029018
 30
0.0
 10
205.2321624425772
 20
151.6756832118668
 30
0.0
 10
205.662495567413
 20
151.9899986802661
 30
0.0
 10
206.2601486450491
 20
152.3432819238675
 30
0.0
 10
207.1141196910076
 20
152.7173560048431
 30
0.0
 10
208.3198558036382
 20
153.0777369864776
 30
0.0
 10
209.6987698280496
 20
153.3571816846624
 30
0.0
 10
211.0380752473606
 20
153.538409473315
 30
0.0
 10
212.3273703008306
 20
153.6459289281158
 30
0.0
 10
213.5852062396976
 20
153.7094414056096
 30
0.0
 10
215.0240385871644
 20
153.7517861011183
 30
0.0
 10
216.0414543177359
 20
153.7599606000095
 30
0.0
 10
216.5778055916782
 20
153.7642699523836
 30
0.0
  0
SPLINE
  5
1CF
330
1F
100
AcDbEntity
  8
0
  6
Continuous
 62
     8
370
    18
100
AcDbSpline
210
0.0
220
0.0
230
1.0
 70
     8
 71
     3
 72
    23
 73
    19
 74
     0
 42
0.000000001
 43
0.00000001
 40
0.0
 40
0.0
 40
0.0
 40
0.0
 40
0.0833982058336284
 40
0.15164010868399
 40
0.2049269667281731
 40
0.2430222173712147
 40
0.3397643395733813
 40
0.4242532336682717
 40
0.496481980536262
 40
0.5397941551821542
 40
0.5829912413511738
 40
0.6260832086358971
 40
0.6589248613454962
 40
0.7014873105755662
 40
0.7535734076016404
 40
0.8390467501990582
 40
0.9210266472907762
 40
1.0
 40
1.0
 40
1.0
 40
1.0
 10
216.5873502472345
 20
152.5711861743254
 30
0.0
 10
215.9961390169815
 20
152.5681873585009
 30
0.0
 10
214.9211598335012
 20
152.5627347141304
 30
0.0
 10
213.4710310300504
 20
152.5183066785592
 30
0.0
 10
212.3502103290734
 20
152.4484260078708
 30
0.0
 10
211.0461299055273
 20
152.3277041395853
 30
0.0
 10
209.5651010186498
 20
152.1066492571985
 30
0.0
 10
208.0086944269981
 20
151.700026984296
 30
0.0
 10
206.9728646904364
 20
151.2621726253679
 30
0.0
 10
206.2965632659695
 20
150.8583987159091
 30
0.0
 10
205.8276524899644
 20
150.5048359806859
 30
0.0
 10
205.4730670258101
 20
150.1608889085692
 30
0.0
 10
205.1750452018676
 20
149.8114744658725
 30
0.0
 10
204.9061282989424
 20
149.4312941129083
 30
0.0
 10
204.6154551149759
 20
148.8855644417881
 30
0.0
 10
204.3942940341146
 20
148.2127278006162
 30
0.0
 10
204.2847166903975
 20
147.4582312791924
 30
0.0
 10
204.2738572822332
 20
146.9707126711865
 30
0.0
 10
204.2685290029208
 20
146.7315066965947
 30
0.0
  0
SPLINE
  5
1D0
330
1F
100
AcDbEntity
  8
0
  6
Continuous
 62
     8
370
    18
100
AcDbSpline
210
0.0
220
0.0
230
1.0
 70
     8
 71
     3
 72
    10
 73
     6
 74
     0
 42
0.000000001
 43
0.00000001
 40
0.0
 40
0.0
 40
0.0
 40
0.0
 40
0.5
 40
0.5
 40
1.0
 40
1.0
 40
1.0
 40
1.0
 10
204.268529005591
 20
146.7315069905292
 30
0.0
 10
204.098998808496
 20
146.853345319677
 30
0.0
 10
203.9514062324739
 20
147.0164413874813
 30
0.0
 10
203.7531319639397
 20
147.3872027115604
 30
0.0
 10
203.7034122012859
 20
147.5930327396864
 30
0.0
 10
203.7031531492165
 20
147.7887382236638
 30
0.0
  0
SPLINE
  5
1D1
330
1F
100
AcDbEntity
  8
0
  6
Continuous
 62
     8
370
    18
100
AcDbSpline
210
0.0
220
0.0
230
1.0
 70
     8
 71
     3
 72
    24
 73
    20
 74
     0
 42
0.000000001
 43
0.00000001
 40
0.0
 40
0.0
 40
0.0
 40
0.0
 40
0.0469288838296193
 40
0.0887151159747529
 40
0.1253317901715239
 40
0.1566686865734841
 40
0.1988642940261934
 40
0.2395029809516256
 40
0.309868089530176
 40
0.3776062709083514
 40
0.4429528583335834
 40
0.5071599328256919
 40
0.5779776248378461
 40
0.6637440027283458
 40
0.7652604518101846
 40
0.8242532947170378
 40
0.8831778009813461
 40
0.9417578129744351
 40
1.0
 40
1.0
 40
1.0
 40
1.0
 10
230.810222838405
 20
153.7642699523876
 30
0.0
 10
231.1636943438995
 20
153.7621557335319
 30
0.0
 10
231.8319025569388
 20
153.7581589802389
 30
0.0
 10
232.7755013430998
 20
153.7428562007028
 30
0.0
 10
233.6004174261981
 20
153.7211053135759
 30
0.0
 10
234.4257250736146
 20
153.6867515345812
 30
0.0
 10
235.2761570913518
 20
153.6317806879302
 30
0.0
 10
236.403870223448
 20
153.5296414538655
 30
0.0
 10
237.6890618872527
 20
153.3576715071709
 30
0.0
 10
239.0678249411782
 20
153.0777788338262
 30
0.0
 10
240.2737165232519
 20
152.7171408398763
 30
0.0
 10
241.3106375818835
 20
152.2643352756222
 30
0.0
 10
242.20084098494
 20
151.6700787775835
 30
0.0
 10
242.9331395454843
 20
150.9144588215007
 30
0.0
 10
243.3498479254148
 20
150.1569348884268
 30
0.0
 10
243.5605106721185
 20
149.4683589277316
 30
0.0
 10
243.6521996315504
 20
148.9131870194858
 30
0.0
 10
243.6852127886574
 20
148.3535407736566
 30
0.0
 10
243.6848937996111
 20
147.9766488290217
 30
0.0
 10
243.6847347663123
 20
147.7887478023997
 30
0.0
  0
SPLINE
  5
1D2
330
1F
100
AcDbEntity
  8
0
  6
Continuous
 62
     8
370
    18
100
AcDbSpline
210
0.0
220
0.0
230
1.0
 70
     8
 71
     3
 72
    10
 73
     6
 74
     0
 42
0.000000001
 43
0.00000001
 40
0.0
 40
0.0
 40
0.0
 40
0.0
 40
0.5
 40
0.5
 40
1.0
 40
1.0
 40
1.0
 40
1.0
 10
243.1196200196724
 20
146.7316325435425
 30
0.0
 10
243.2891228358084
 20
146.8534784066731
 30
0.0
 10
243.4366564220419
 20
147.0166089854836
 30
0.0
 10
243.6348344956108
 20
147.3873697714229
 30
0.0
 10
243.6844959280206
 20
147.5931809947061
 30
0.0
 10
243.6847349088328
 20
147.788864511373
 30
0.0
  0
SPLINE
  5
1D3
330
1F
100
AcDbEntity
  8
0
  6
Continuous
 62
     8
370
    18
100
AcDbSpline
210
0.0
220
0.0
230
1.0
 70
     8
 71
     3
 72
    25
 73
    21
 74
     0
 42
0.000000001
 43
0.00000001
 40
0.0
 40
0.0
 40
0.0
 40
0.0
 40
0.039123642680678
 40
0.0789858668010851
 40
0.1195981674218346
 40
0.1609937068403591
 40
0.2032383808947919
 40
0.2465166728433236
 40
0.3743002551157809
 40
0.5029773281393025
 40
0.5271493594616895
 40
0.5552416741542832
 40
0.5873553306012745
 40
0.6236462929653867
 40
0.6640259908313826
 40
0.7084795758235363
 40
0.7569526652489672
 40
0.8111217725225024
 40
0.892157821221648
 40
1.0
 40
1.0
 40
1.0
 40
1.0
 10
243.1194994265163
 20
146.7315066944873
 30
0.0
 10
243.1176445466332
 20
146.8497975995705
 30
0.0
 10
243.1138997701928
 20
147.0886125215075
 30
0.0
 10
243.0920413655342
 20
147.4524035285332
 30
0.0
 10
243.0495640154315
 20
147.8244023891159
 30
0.0
 10
242.9780506527312
 20
148.2046626396586
 30
0.0
 10
242.8689527761731
 20
148.5932405109297
 30
0.0
 10
242.6138392008608
 20
149.2444013351376
 30
0.0
 10
242.0316528126628
 20
150.1484200070312
 30
0.0
 10
241.0217921986948
 20
150.9350599692462
 30
0.0
 10
240.1664426509958
 20
151.3668619361388
 30
0.0
 10
239.7304390101853
 20
151.5493189950328
 30
0.0
 10
239.1926484352513
 20
151.7366474144008
 30
0.0
 10
238.54310867006
 20
151.9199900559262
 30
0.0
 10
237.778248763505
 20
152.0916661701487
 30
0.0
 10
236.899183170888
 20
152.2440255085497
 30
0.0
 10
235.898128625412
 20
152.3726817382579
 30
0.0
 10
234.6203029263773
 20
152.4827669099323
 30
0.0
 10
232.9042064377962
 20
152.5599877131328
 30
0.0
 10
231.5651994813922
 20
152.5671161257937
 30
0.0
 10
230.8006781836943
 20
152.5711861743263
 30
0.0
  0
LINE
  5
1D4
330
1F
100
AcDbEntity
  8
0
  6
Continuous
 62
     8
370
    18
100
AcDbLine
 10
230.8006783403
 20
152.5711857465
 30
0.0
 11
230.7447277397
 21
146.9325500292
 31
0.0
  0
SPLINE
  5
1D5
330
1F
100
AcDbEntity
  8
0
  6
Continuous
 62
     8
370
    18
100
AcDbSpline
210
0.0
220
0.0
230
1.0
 70
     8
 71
     3
 72
     8
 73
     4
 74
     0
 42
0.000000001
 43
0.00000001
 40
0.0
 40
0.0
 40
0.0
 40
0.0
 40
1.0
 40
1.0
 40
1.0
 40
1.0
 10
216.6433009593187
 20
146.9325504327674
 30
0.0
 10
221.3435908898043
 20
146.9520269494627
 30
0.0
 10
226.0444375388802
 20
146.9520269494658
 30
0.0
 10
230.744727469366
 20
146.9325504327767
 30
0.0
  0
LINE
  5
1D6
330
1F
100
AcDbEntity
  8
0
  6
Continuous
 62
     8
370
    18
100
AcDbLine
 10
216.6433006912
 20
146.9325500292
 30
0.0
 11
216.5873500906
 21
152.5711857465
 31
0.0
  0
SPLINE
  5
1D7
330
1F
100
AcDbEntity
  8
0
  6
Continuous
 62
     8
370
    18
100
AcDbSpline
210
0.0
220
0.0
230
1.0
 70
     8
 71
     3
 72
     8
 73
     4
 74
     0
 42
0.000000001
 43
0.00000001
 40
0.0
 40
0.0
 40
0.0
 40
0.0
 40
1.0
 40
1.0
 40
1.0
 40
1.0
 10
243.1217214465588
 20
146.3806861756728
 30
0.0
 10
243.1221212260693
 20
146.4977089284363
 30
0.0
 10
243.1217380185682
 20
146.6147088830767
 30
0.0
 10
243.1196200312022
 20
146.7316318257249
 30
0.0
  0
LWPOLYLINE
  5
1D8
330
1F
100
AcDbEntity
  8
0
  6
Continuous
 62
     8
370
    18
100
AcDbPolyline
 90
        3
 70
   128
 43
0.0
 10
240.4841434598
 20
143.5009131891
 10
241.8152641892
 20
144.9542644185
 10
243.1216936946
 20
146.380655722
  0
SPLINE
  5
1D9
330
1F
100
AcDbEntity
  8
0
  6
Continuous
 62
     8
370
    18
100
AcDbSpline
210
0.0
220
0.0
230
1.0
 70
     8
 71
     3
 72
    25
 73
    21
 74
     0
 42
0.000000001
 43
0.00000001
 40
0.0
 40
0.0
 40
0.0
 40
0.0
 40
0.1156815037287143
 40
0.2173097440463851
 40
0.305112691673265
 40
0.3788743061173938
 40
0.4384929221104122
 40
0.4839070963914887
 40
0.5121803668930759
 40
0.5372635512702894
 40
0.5591935282149687
 40
0.5958133789684742
 40
0.6321614955938524
 40
0.6689571617694093
 40
0.7125660247119482
 40
0.7632734119896902
 40
0.8278218311183608
 40
0.8888231202747424
 40
0.9462627426961499
 40
1.0
 40
1.0
 40
1.0
 40
1.0
 10
230.7447279273243
 20
146.9325504305656
 30
0.0
 10
231.3417436292683
 20
146.930044753275
 30
0.0
 10
232.4632481498645
 20
146.9253377943132
 30
0.0
 10
234.0357945976849
 20
146.8873284515443
 30
0.0
 10
235.3838841686745
 20
146.8161286561999
 30
0.0
 10
236.4949324001465
 20
146.7059657549227
 30
0.0
 10
237.3517793448209
 20
146.5654143565106
 30
0.0
 10
237.9456381514545
 20
146.4268145016891
 30
0.0
 10
238.3512456782766
 20
146.3066342991347
 30
0.0
 10
238.6353200787418
 20
146.203448093642
 30
0.0
 10
238.9278195975124
 20
146.0814761443747
 30
0.0
 10
239.225169088157
 20
145.9323907064127
 30
0.0
 10
239.5169046266822
 20
145.7477553541907
 30
0.0
 10
239.7706480968737
 20
145.5370995843221
 30
0.0
 10
239.98925728501
 20
145.2839378364377
 30
0.0
 10
240.1847888975676
 20
144.9653207327952
 30
0.0
 10
240.3347395581335
 20
144.6030150406131
 30
0.0
 10
240.427505555504
 20
144.2202236371824
 30
0.0
 10
240.4735732361132
 20
143.8555624649049
 30
0.0
 10
240.4806993384057
 20
143.6164752032901
 30
0.0
 10
240.4841437343396
 20
143.5009125635828
 30
0.0
  0
SPLINE
  5
1DA
330
1F
100
AcDbEntity
  8
0
  6
Continuous
 62
     8
370
    18
100
AcDbSpline
210
0.0
220
0.0
230
1.0
 70
     8
 71
     3
 72
     8
 73
     4
 74
     0
 42
0.000000001
 43
0.00000001
 40
0.0
 40
0.0
 40
0.0
 40
0.0
 40
1.0
 40
1.0
 40
1.0
 40
1.0
 10
204.2684083997259
 20
146.7316318256513
 30
0.0
 10
204.2662904123608
 20
146.6147088830276
 30
0.0
 10
204.2659072048598
 20
146.4977089284118
 30
0.0
 10
204.26630698437
 20
146.3806861756728
 30
0.0
  0
SPLINE
  5
1DB
330
1F
100
AcDbEntity
  8
0
  6
Continuous
 62
     8
370
    18
100
AcDbSpline
210
0.0
220
0.0
230
1.0
 70
     8
 71
     3
 72
    26
 73
    22
 74
     0
 42
0.000000001
 43
0.00000001
 40
0.0
 40
0.0
 40
0.0
 40
0.0
 40
0.0350489980278212
 40
0.0716791899921895
 40
0.1098420055906412
 40
0.1494994877973002
 40
0.1906359700532112
 40
0.2332740195182964
 40
0.2950459944825103
 40
0.3631809482071925
 40
0.3994585140243053
 40
0.4356125303481352
 40
0.4542338119975818
 40
0.4794769449745795
 40
0.5114155811781868
 40
0.5568202466228125
 40
0.6167464870677939
 40
0.6911259219105962
 40
0.779881702749951
 40
0.882760337497688
 40
0.9999999999999999
 40
0.9999999999999999
 40
0.9999999999999999
 40
0.9999999999999999
 10
206.9038846965891
 20
143.5009125635828
 30
0.0
 10
206.9057178747534
 20
143.5763798907237
 30
0.0
 10
206.9094669327384
 20
143.7307191638762
 30
0.0
 10
206.928331135964
 20
143.9648574914317
 30
0.0
 10
206.9620474825416
 20
144.2070145354354
 30
0.0
 10
207.016570298494
 20
144.4564754050353
 30
0.0
 10
207.0978803746923
 20
144.7125764219241
 30
0.0
 10
207.2289000631875
 20
145.0109204154044
 30
0.0
 10
207.4445258617323
 20
145.3554954469702
 30
0.0
 10
207.7590927474913
 20
145.6684138790812
 30
0.0
 10
208.1174428923919
 20
145.9121067697824
 30
0.0
 10
208.3999632335763
 20
146.0541083377907
 30
0.0
 10
208.6744963036083
 20
146.1714638930747
 30
0.0
 10
208.9520988135314
 20
146.2788740639669
 30
0.0
 10
209.3660426301003
 20
146.4073335795067
 30
0.0
 10
209.9725511241664
 20
146.5530870472357
 30
0.0
 10
210.8297166304829
 20
146.6983821236632
 30
0.0
 10
211.9484788004447
 20
146.8125123393192
 30
0.0
 10
213.3105147371303
 20
146.8860734653263
 30
0.0
 10
214.9023091172696
 20
146.9252462823428
 30
0.0
 10
216.0382658908057
 20
146.9300120707974
 30
0.0
 10
216.6433005036044
 20
146.9325504305656
 30
0.0
  0
LWPOLYLINE
  5
1DC
330
1F
100
AcDbEntity
  8
0
  6
Continuous
 62
     8
370
    18
100
AcDbPolyline
 90
        3
 70
   128
 43
0.0
 10
206.9038793832
 20
143.5009020132
 10
205.5727083623
 20
144.9542662812
 10
204.2665284514
 20
146.3803427977
  0
ARC
  5
1DD
330
1F
100
AcDbEntity
  8
0
  6
Continuous
 62
     8
370
    18
100
AcDbCircle
 10
150.7571295461
 20
147.9491717084
 30
0.0
 40
79.99405796637562
100
AcDbArc
 50
358.7497117321001
 51
359.2718246688
  0
SPLINE
  5
1DE
330
1F
100
AcDbEntity
  8
0
  6
Continuous
 62
     8
370
    18
100
AcDbSpline
210
0.0
220
0.0
230
1.0
 70
     8
 71
     3
 72
    13
 73
     9
 74
     0
 42
0.000000001
 43
0.00000001
 40
0.0
 40
0.0
 40
0.0
 40
0.0
 40
0.1666696308378565
 40
0.3333357049979048
 40
0.5000000007115263
 40
0.6666642962670277
 40
0.8333303699527201
 40
1.0
 40
1.0
 40
1.0
 40
1.0
 10
230.7321423347749
 20
146.2037086886688
 30
0.0
 10
229.9501319910898
 20
146.2066359335179
 30
0.0
 10
228.3861279915758
 20
146.2124903607497
 30
0.0
 10
226.0400685947464
 20
146.2171615884313
 30
0.0
 10
223.6940142050716
 20
146.2188432086287
 30
0.0
 10
221.3479598176226
 20
146.2171615884309
 30
0.0
 10
219.0019004274703
 20
146.212490360751
 30
0.0
 10
217.437896433892
 20
146.2066359335104
 30
0.0
 10
216.6558860939166
 20
146.2037086886596
 30
0.0
  0
ARC
  5
1DF
330
1F
100
AcDbEntity
  8
0
  6
Continuous
 62
     8
370
    18
100
AcDbCircle
 10
296.6460173056
 20
147.9494327673
 30
0.0
 40
80.0091789495727
100
AcDbArc
 50
180.7282246688
 51
181.2502389304
  0
SPLINE
  5
1E0
330
1F
100
AcDbEntity
  8
0
  6
Continuous
 62
     8
370
    18
100
AcDbSpline
210
0.0
220
0.0
230
1.0
 70
     8
 71
     3
 72
    24
 73
    20
 74
     0
 42
0.000000001
 43
0.00000001
 40
0.0
 40
0.0
 40
0.0
 40
0.0
 40
0.0622581353891697
 40
0.1185127441485441
 40
0.1687754393377195
 40
0.2130625479040399
 40
0.2513980324989379
 40
0.3247706911696867
 40
0.3896617404489507
 40
0.4467443706587363
 40
0.4970065057678187
 40
0.5579537149346245
 40
0.6206128652392453
 40
0.6798663859438878
 40
0.7480590819253166
 40
0.8025510561248596
 40
0.8625904004834186
 40
0.9283603017283542
 40
1.0
 40
1.0
 40
1.0
 40
1.0
 10
216.6558858078165
 20
146.2037086875842
 30
0.0
 10
216.3757472562181
 20
146.202208089712
 30
0.0
 10
215.8424837994153
 20
146.199351596009
 30
0.0
 10
215.0832692105146
 20
146.1903458155771
 30
0.0
 10
214.4052622031738
 20
146.1779818924573
 30
0.0
 10
213.808408518415
 20
146.1620810918556
 30
0.0
 10
213.1091783089147
 20
146.1355984311998
 30
0.0
 10
212.3215397024483
 20
146.0883171109649
 30
0.0
 10
211.4639231710801
 20
146.0040986358996
 30
0.0
 10
210.7317602874662
 20
145.89400147437
 30
0.0
 10
210.0597307049619
 20
145.7432211715851
 30
0.0
 10
209.4606733411844
 20
145.5246252138574
 30
0.0
 10
208.9903857211555
 20
145.2350955720163
 30
0.0
 10
208.6581753003114
 20
144.9003358954421
 30
0.0
 10
208.4451301420794
 20
144.5654449585202
 30
0.0
 10
208.3010078658522
 20
144.2231083790903
 30
0.0
 10
208.2073381603473
 20
143.882349771482
 30
0.0
 10
208.1466979249032
 20
143.507556709773
 30
0.0
 10
208.1358699614622
 20
143.2462431995893
 30
0.0
 10
208.1302247078807
 20
143.1100051122232
 30
0.0
  0
SPLINE
  5
1E1
330
1F
100
AcDbEntity
  8
0
  6
Continuous
 62
     8
370
    18
100
AcDbSpline
210
0.0
220
0.0
230
1.0
 70
     8
 71
     3
 72
    10
 73
     6
 74
     0
 42
0.000000001
 43
0.00000001
 40
0.0
 40
0.0
 40
0.0
 40
0.0
 40
0.5
 40
0.5
 40
1.0
 40
1.0
 40
1.0
 40
1.0
 10
208.1302210047474
 20
143.1100046212672
 30
0.0
 10
207.9135543395123
 20
143.1099940951998
 30
0.0
 10
207.6905706064347
 20
143.1435129519477
 30
0.0
 10
207.2698714116495
 20
143.2776112724435
 30
0.0
 10
207.0728312338408
 20
143.3779754887227
 30
0.0
 10
206.903878297908
 20
143.5009026771176
 30
0.0
  0
SPLINE
  5
1E2
330
1F
100
AcDbEntity
  8
0
  6
Continuous
 62
     8
370
    18
100
AcDbSpline
210
0.0
220
0.0
230
1.0
 70
     8
 71
     3
 72
    10
 73
     6
 74
     0
 42
0.000000001
 43
0.00000001
 40
0.0
 40
0.0
 40
0.0
 40
0.0
 40
0.5
 40
0.5
 40
1.0
 40
1.0
 40
1.0
 40
1.0
 10
239.2578037452243
 20
143.1100038995954
 30
0.0
 10
239.4744704336766
 20
143.1099938013752
 30
0.0
 10
239.6974544295257
 20
143.1435137384431
 30
0.0
 10
240.1181531868056
 20
143.2776154485027
 30
0.0
 10
240.3151926036924
 20
143.3779819619658
 30
0.0
 10
240.4841438589954
 20
143.5009114147395
 30
0.0
  0
SPLINE
  5
1E3
330
1F
100
AcDbEntity
  8
0
  6
Continuous
 62
     8
370
    18
100
AcDbSpline
210
0.0
220
0.0
230
1.0
 70
     8
 71
     3
 72
    26
 73
    22
 74
     0
 42
0.000000001
 43
0.00000001
 40
0.0
 40
0.0
 40
0.0
 40
0.0
 40
0.0370970948846487
 40
0.072685554290724
 40
0.106780441956547
 40
0.1393988909543549
 40
0.1705604697514908
 40
0.2002876239924839
 40
0.2286062103526054
 40
0.255546141600357
 40
0.3238174711131833
 40
0.3835739895261093
 40
0.425243899113139
 40
0.465973446885691
 40
0.5068747712327917
 40
0.5748583083855706
 40
0.6557020523658527
 40
0.751256054634139
 40
0.8177244976380024
 40
0.9006145259640586
 40
1.0
 40
1.0
 40
1.0
 40
1.0
 10
239.257803723048
 20
143.1100051122232
 30
0.0
 10
239.2556507298944
 20
143.1805572032748
 30
0.0
 10
239.2514322998196
 20
143.3187922284269
 30
0.0
 10
239.233495287908
 20
143.521759063902
 30
0.0
 10
239.2070411631796
 20
143.7160213869775
 30
0.0
 10
239.1713266168743
 20
143.9015783493412
 30
0.0
 10
239.1265351887493
 20
144.0784328394933
 30
0.0
 10
239.0726311294377
 20
144.2465851960811
 30
0.0
 10
239.0095843029975
 20
144.4060439913522
 30
0.0
 10
238.8994986563731
 20
144.6363567946716
 30
0.0
 10
238.7135650458189
 20
144.9211518219437
 30
0.0
 10
238.4090607022862
 20
145.2188469659897
 30
0.0
 10
238.0568691099676
 20
145.4459177433879
 30
0.0
 10
237.677987131598
 20
145.6187664201945
 30
0.0
 10
237.1419201856361
 20
145.7931564647864
 30
0.0
 10
236.3640851210055
 20
145.9492746175483
 30
0.0
 10
235.3007926220689
 20
146.0732617085608
 30
0.0
 10
234.217566527031
 20
146.1414705912029
 30
0.0
 10
233.1182855444763
 20
146.176435949894
 30
0.0
 10
231.9996168446327
 20
146.1960800429901
 30
0.0
 10
231.1793771954884
 20
146.2010168824611
 30
0.0
 10
230.7321426231135
 20
146.2037086875843
 30
0.0
  0
LINE
  5
1E4
330
1F
100
AcDbEntity
  8
0
  6
Continuous
 62
     8
370
    18
100
AcDbLine
 10
208.1302207351
 20
143.1100054395
 30
0.0
 11
208.1303716093
 21
139.6636984062
 31
0.0
  0
LINE
  5
1E5
330
1F
100
AcDbEntity
  8
0
  6
Continuous
 62
     8
370
    18
100
AcDbLine
 10
239.2576568216
 20
139.6636984062
 30
0.0
 11
239.2578076959
 21
143.1100054395
 31
0.0
  0
LINE
  5
1E6
330
1F
100
AcDbEntity
  8
0
  6
Continuous
 62
     8
370
    18
100
AcDbLine
 10
208.1303716093
 20
139.6636984062
 30
0.0
 11
239.2576568216
 21
139.6636984062
 31
0.0
  0
SPLINE
  5
1E7
330
1F
100
AcDbEntity
  8
0
  6
Continuous
 62
     8
370
    18
100
AcDbSpline
210
0.0
220
0.0
230
1.0
 70
     8
 71
     3
 72
    10
 73
     6
 74
     0
 42
0.000000001
 43
0.00000001
 40
0.0
 40
0.0
 40
0.0
 40
0.0
 40
0.5
 40
0.5
 40
1.0
 40
1.0
 40
1.0
 40
1.0
 10
243.1216794779245
 20
146.3806226506364
 30
0.0
 10
243.2906053003092
 20
146.5035403062317
 30
0.0
 10
243.4374471760982
 20
146.6675441367273
 30
0.0
 10
243.6347009104342
 20
147.039756628744
 30
0.0
 10
243.6841683473039
 20
147.2461705400406
 30
0.0
 10
243.6844337284912
 20
147.4425311302943
 30
0.0
  0
SPLINE
  5
1E8
330
1F
100
AcDbEntity
  8
0
  6
Continuous
 62
     8
370
    18
100
AcDbSpline
210
0.0
220
0.0
230
1.0
 70
     8
 71
     3
 72
    10
 73
     6
 74
     0
 42
0.000000001
 43
0.00000001
 40
0.0
 40
0.0
 40
0.0
 40
0.0
 40
0.5
 40
0.5
 40
1.0
 40
1.0
 40
1.0
 40
1.0
 10
204.2662700398251
 20
146.3806451114776
 30
0.0
 10
204.0973391946661
 20
146.5035739109645
 30
0.0
 10
203.9505066443318
 20
146.6676052234863
 30
0.0
 10
203.7532813995254
 20
147.0398524282062
 30
0.0
 10
203.7038481190521
 20
147.2462769580255
 30
0.0
 10
203.7035945535514
 20
147.4426446953927
 30
0.0
  0
SPLINE
  5
1E9
330
1F
100
AcDbEntity
  8
0
  6
Continuous
 62
     8
370
    18
100
AcDbSpline
210
0.0
220
0.0
230
1.0
 70
     8
 71
     3
 72
    12
 73
     8
 74
     0
 42
0.000000001
 43
0.00000001
 40
0.0
 40
0.0
 40
0.0
 40
0.0
 40
0.25
 40
0.25
 40
0.5
 40
0.5
 40
1.0
 40
1.0
 40
1.0
 40
1.0
 10
206.914850298342
 20
94.19174271231188
 30
0.0
 10
206.9135114010504
 20
96.57224217498944
 30
0.0
 10
206.912335143905
 20
98.91087287545777
 30
0.0
 10
206.9103205952532
 20
103.5338179208276
 30
0.0
 10
206.9094823093169
 20
105.818138767398
 30
0.0
 10
206.9074871217205
 20
112.6191912593828
 30
0.0
 10
206.9068561032568
 20
117.0853585357116
 30
0.0
 10
206.9068979288352
 20
121.5367328427197
 30
0.0
  0
SPLINE
  5
1EA
330
1F
100
AcDbEntity
  8
0
  6
Continuous
 62
     8
370
    18
100
AcDbSpline
210
0.0
220
0.0
230
1.0
 70
     8
 71
     3
 72
    20
 73
    16
 74
     0
 42
0.000000001
 43
0.00000001
 40
0.0
 40
0.0
 40
0.0
 40
0.0
 40
0.0094153211463055
 40
0.0918657015301756
 40
0.1744336316992773
 40
0.2568567318489743
 40
0.3392686363189276
 40
0.4218391780717585
 40
0.5043671844738656
 40
0.587233370820548
 40
0.6696864004044965
 40
0.7520369826642349
 40
0.8347526541217795
 40
0.9173564201714777
 40
1.0
 40
1.0
 40
1.0
 40
1.0
 10
206.9211703181217
 20
78.16963109495924
 30
0.0
 10
206.9211254436651
 20
78.16506737863627
 30
0.0
 10
206.9206876016229
 20
78.12053899823599
 30
0.0
 10
206.9212957504456
 20
78.29402920782177
 30
0.0
 10
206.9207474041237
 20
78.70245829441328
 30
0.0
 10
206.9203131499512
 20
79.39592915714967
 30
0.0
 10
206.91985875605
 20
80.33476233021169
 30
0.0
 10
206.9196391604744
 20
81.50634276682882
 30
0.0
 10
206.9184131719612
 20
82.89204568203164
 30
0.0
 10
206.9194000106068
 20
84.47026954300978
 30
0.0
 10
206.9193370740475
 20
86.20945043974646
 30
0.0
 10
206.9168068078755
 20
88.08250004634617
 30
0.0
 10
206.916146125371
 20
90.05932307603938
 30
0.0
 10
206.9155237571939
 20
92.10810872195972
 30
0.0
 10
206.9150748638695
 20
93.4970844167501
 30
0.0
 10
206.9148503631303
 20
94.19173959019467
 30
0.0
  0
SPLINE
  5
1EB
330
1F
100
AcDbEntity
  8
0
  6
Continuous
 62
     8
370
    18
100
AcDbSpline
210
0.0
220
0.0
230
1.0
 70
     8
 71
     3
 72
    41
 73
    37
 74
     0
 42
0.000000001
 43
0.00000001
 40
0.0
 40
0.0
 40
0.0
 40
0.0
 40
0.0639845134672431
 40
0.1279093744016293
 40
0.1591826548971596
 40
0.1897150732474732
 40
0.2198773907771729
 40
0.249677997847278
 40
0.2792530751625824
 40
0.3088979462092962
 40
0.3388201340238239
 40
0.3691346497170172
 40
0.3997655310256934
 40
0.4310611697429861
 40
0.462769220249131
 40
0.494478053235323
 40
0.6542955338067235
 40
0.6752242262418615
 40
0.6961528711609494
 40
0.7170816449629899
 40
0.7379831626528964
 40
0.7602445187603214
 40
0.7830937451920111
 40
0.8004091359002641
 40
0.8177035413438403
 40
0.835055027278937
 40
0.8523856126535249
 40
0.8696313334183707
 40
0.886996939476145
 40
0.90434893317588
 40
0.9215860138108758
 40
0.9389314426414562
 40
0.9562899851701658
 40
0.9735868971704957
 40
0.9909049864333609
 40
1.0
 40
1.0
 40
1.0
 40
1.0
 10
204.2663123846004
 20
146.3805812162427
 30
0.0
 10
204.2673450905721
 20
145.6044811364809
 30
0.0
 10
204.2694095397275
 20
144.0530045322832
 30
0.0
 10
204.2722817547365
 20
142.1495973264573
 30
0.0
 10
204.2755592751533
 20
140.576907340665
 30
0.0
 10
204.2772664996055
 20
139.2493290353506
 30
0.0
 10
204.2797515402881
 20
137.6865577968416
 30
0.0
 10
204.2840743283342
 20
135.8710039119834
 30
0.0
 10
204.2893397678573
 20
133.7859459941547
 30
0.0
 10
204.2956857954916
 20
131.4798140109241
 30
0.0
 10
204.302661711073
 20
129.0063723196368
 30
0.0
 10
204.3112451661912
 20
126.4332390159323
 30
0.0
 10
204.3203564879792
 20
123.7935606213132
 30
0.0
 10
204.3296232496281
 20
121.11257799366
 30
0.0
 10
204.3405531386007
 20
118.4008601690075
 30
0.0
 10
204.3680808831514
 20
112.009358536638
 30
0.0
 10
204.40073695128
 20
105.9265664511986
 30
0.0
 10
204.4384456931274
 20
100.152386537299
 30
0.0
 10
204.4506952531466
 20
98.35482424464736
 30
0.0
 10
204.463422267163
 20
96.5577602815872
 30
0.0
 10
204.4770861499535
 20
94.72362167954044
 30
0.0
 10
204.4912607682805
 20
92.83024364019376
 30
0.0
 10
204.5047344247011
 20
91.06173061888755
 30
0.0
 10
204.5172505585228
 20
89.48294659195348
 30
0.0
 10
204.5286712459776
 20
88.10759328727171
 30
0.0
 10
204.5400380158165
 20
86.80134533687352
 30
0.0
 10
204.5509285922275
 20
85.57825556414544
 30
0.0
 10
204.5611792736391
 20
84.45242458253534
 30
0.0
 10
204.5706034377613
 20
83.43808974993189
 30
0.0
 10
204.5789081388161
 20
82.54647973529076
 30
0.0
 10
204.5859713179076
 20
81.78701485623928
 30
0.0
 10
204.5918679564126
 20
81.16935454977087
 30
0.0
 10
204.5965813218757
 20
80.69501862028677
 30
0.0
 10
204.5997024220944
 20
80.38485712781798
 30
0.0
 10
204.6012748104165
 20
80.23031822241154
 30
0.0
 10
204.6012310505735
 20
80.240112700057
 30
0.0
 10
204.6012159824321
 20
80.2434853029518
 30
0.0
  0
LWPOLYLINE
  5
1EC
330
1F
100
AcDbEntity
  8
0
  6
Continuous
 62
     8
370
    18
100
AcDbPolyline
 90
        3
 70
   128
 43
0.0
 10
206.9042016208
 20
140.0551016194
 10
206.9040172189
 20
141.8137012732
 10
206.9038775206
 20
143.5009020132
  0
SPLINE
  5
1ED
330
1F
100
AcDbEntity
  8
0
  6
Continuous
 62
     8
370
    18
100
AcDbSpline
210
0.0
220
0.0
230
1.0
 70
     8
 71
     3
 72
    21
 73
    17
 74
     0
 42
0.000000001
 43
0.00000001
 40
0.0
 40
0.0
 40
0.0
 40
0.0
 40
0.1249999999999998
 40
0.1249999999999998
 40
0.2499999999999997
 40
0.2499999999999997
 40
0.3749999999999995
 40
0.3749999999999995
 40
0.4999999999999993
 40
0.4999999999999993
 40
0.6249999999999994
 40
0.6249999999999994
 40
0.7499999999999997
 40
0.7499999999999997
 40
0.8749999999999998
 40
1.0
 40
1.0
 40
1.0
 40
1.0
 10
206.9068979288352
 20
121.5367328426919
 30
0.0
 10
206.906505084915
 20
122.5553608480474
 30
0.0
 10
206.9061411883936
 20
123.570560950896
 30
0.0
 10
206.9054758696255
 20
125.5890790041056
 30
0.0
 10
206.9051744497579
 20
126.5924004811928
 30
0.0
 10
206.9046386996139
 20
128.5681667609092
 30
0.0
 10
206.9044053077661
 20
129.5402008631229
 30
0.0
 10
206.9040203516795
 20
131.4087776211362
 30
0.0
 10
206.9038678490569
 20
132.3057347201017
 30
0.0
 10
206.9036533719575
 20
133.9636369595998
 30
0.0
 10
206.9035913941047
 20
134.7245783197604
 30
0.0
 10
206.9035482777738
 20
136.1011592362273
 30
0.0
 10
206.9035671376843
 20
136.7167968920239
 30
0.0
 10
206.9036672987668
 20
137.8275007869318
 30
0.0
 10
206.9038299012861
 20
138.8176352750306
 30
0.0
 10
206.9040740375939
 20
139.6450410186563
 30
0.0
 10
206.9042021927856
 20
140.0551012321222
 30
0.0
  0
SPLINE
  5
1EE
330
1F
100
AcDbEntity
  8
0
  6
Continuous
 62
     8
370
    18
100
AcDbSpline
210
0.0
220
0.0
230
1.0
 70
     8
 71
     3
 72
    12
 73
     8
 74
     0
 42
0.000000001
 43
0.00000001
 40
0.0
 40
0.0
 40
0.0
 40
0.0
 40
0.5000000000000004
 40
0.5000000000000004
 40
0.7500000000000007
 40
0.7500000000000007
 40
1.0
 40
1.0
 40
1.0
 40
1.0
 10
240.4811305020935
 20
121.5367328427174
 30
0.0
 10
240.4811723276719
 20
117.0853585357096
 30
0.0
 10
240.4805413092082
 20
112.6191912593812
 30
0.0
 10
240.4785461216119
 20
105.818138767397
 30
0.0
 10
240.4777078356755
 20
103.5338179208268
 30
0.0
 10
240.4756932870237
 20
98.9108728754574
 30
0.0
 10
240.4745170298783
 20
96.57224217498928
 30
0.0
 10
240.4731781325867
 20
94.1917427123119
 30
0.0
  0
SPLINE
  5
1EF
330
1F
100
AcDbEntity
  8
0
  6
Continuous
 62
     8
370
    18
100
AcDbSpline
210
0.0
220
0.0
230
1.0
 70
     8
 71
     3
 72
    21
 73
    17
 74
     0
 42
0.000000001
 43
0.00000001
 40
0.0
 40
0.0
 40
0.0
 40
0.0
 40
0.125
 40
0.25
 40
0.25
 40
0.375
 40
0.375
 40
0.5
 40
0.5
 40
0.625
 40
0.625
 40
0.75
 40
0.75
 40
0.875
 40
0.875
 40
1.0
 40
1.0
 40
1.0
 40
1.0
 10
240.4838262381432
 20
140.0551012321199
 30
0.0
 10
240.4839543933348
 20
139.6450410186544
 30
0.0
 10
240.4841985311722
 20
138.8176345930934
 30
0.0
 10
240.4843611321619
 20
137.8275007869318
 30
0.0
 10
240.4844612932445
 20
136.7167968920252
 30
0.0
 10
240.4844801531549
 20
136.1011592362294
 30
0.0
 10
240.4844370368241
 20
134.7245783197646
 30
0.0
 10
240.4843750589713
 20
133.9636369596052
 30
0.0
 10
240.4841605818719
 20
132.3057347201097
 30
0.0
 10
240.4840080792492
 20
131.4087776211456
 30
0.0
 10
240.4836231231626
 20
129.5402008631351
 30
0.0
 10
240.4833897313148
 20
128.5681667609228
 30
0.0
 10
240.4828539811709
 20
126.592400481209
 30
0.0
 10
240.4825525613033
 20
125.589079004123
 30
0.0
 10
240.4818872425352
 20
123.5705609509159
 30
0.0
 10
240.4815233460138
 20
122.5553608480685
 30
0.0
 10
240.4811305020935
 20
121.5367328427143
 30
0.0
  0
LWPOLYLINE
  5
1F0
330
1F
100
AcDbEntity
  8
0
  6
Continuous
 62
     8
370
    18
100
AcDbPolyline
 90
        3
 70
   128
 43
0.0
 10
240.4841509104
 20
143.5009020132
 10
240.484011212
 20
141.8137012732
 10
240.4838268101
 20
140.0551016194
  0
SPLINE
  5
1F1
330
1F
100
AcDbEntity
  8
0
  6
Continuous
 62
     8
370
    18
100
AcDbSpline
210
0.0
220
0.0
230
1.0
 70
     8
 71
     3
 72
    42
 73
    38
 74
     0
 42
0.000000001
 43
0.00000001
 40
0.0
 40
0.0
 40
0.0
 40
0.0
 40
0.0090948955923411
 40
0.0264127582527515
 40
0.0437094446006045
 40
0.061067760672816
 40
0.0784129632179773
 40
0.0956498189810455
 40
0.1130015863097175
 40
0.1303669658188442
 40
0.1476124615990449
 40
0.1649428208818588
 40
0.1822940804525166
 40
0.1995882602763159
 40
0.2169034250910219
 40
0.234220907196978
 40
0.251525620647624
 40
0.2941318096001708
 40
0.3364115030871072
 40
0.3786909986162614
 40
0.4209704027739449
 40
0.4632496462951171
 40
0.50552839763854
 40
0.5372368169568642
 40
0.5689444538053494
 40
0.6002396842452342
 40
0.630870165948811
 40
0.661184286164155
 40
0.6911060836190742
 40
0.7207505679240054
 40
0.750325259408044
 40
0.7801254777046616
 40
0.8102874017420626
 40
0.8408194217718071
 40
0.872092294281611
 40
0.9360163212634853
 40
1.0
 40
1.0
 40
1.0
 40
1.0
 10
242.7868124484966
 20
80.2434853029518
 30
0.0
 10
242.7867973803464
 20
80.24011269918522
 30
0.0
 10
242.7867536204807
 20
80.23031821973629
 30
0.0
 10
242.7883260088942
 20
80.38485713325834
 30
0.0
 10
242.7914471090398
 20
80.69501862034491
 30
0.0
 10
242.7961604745497
 20
81.16935454810661
 30
0.0
 10
242.8020571129005
 20
81.78701486281321
 30
0.0
 10
242.8091202925595
 20
82.5464797107557
 30
0.0
 10
242.8174249914869
 20
83.43808984225575
 30
0.0
 10
242.8268491635475
 20
84.45242423874684
 30
0.0
 10
242.8370998154785
 20
85.57825683992112
 30
0.0
 10
242.8479905023198
 20
86.80134054598578
 30
0.0
 10
242.8593568595523
 20
88.10761116358455
 30
0.0
 10
242.8707790829234
 20
89.48288009021056
 30
0.0
 10
242.8820845669128
 20
90.90999133962053
 30
0.0
 10
242.8933302316722
 20
92.3741056373446
 30
0.0
 10
242.9098397009996
 20
94.58368310132502
 30
0.0
 10
242.9317647221397
 20
97.5104000555094
 30
0.0
 10
242.956397931068
 20
101.151011343489
 30
0.0
 10
242.9790843440028
 20
104.7826513982902
 30
0.0
 10
242.9998127085486
 20
108.4141904386998
 30
0.0
 10
243.0187119464025
 20
112.0457458668437
 30
0.0
 10
243.034446817671
 20
115.3746352433126
 30
0.0
 10
243.0474740562562
 20
118.4008602204392
 30
0.0
 10
243.0584055079541
 20
121.1125779800683
 30
0.0
 10
243.0676718579321
 20
123.7935606248507
 30
0.0
 10
243.0767832870615
 20
126.4332390150035
 30
0.0
 10
243.0853667139843
 20
129.0063723198811
 30
0.0
 10
243.0923426369857
 20
131.4798140108596
 30
0.0
 10
243.0986886626593
 20
133.7859459941718
 30
0.0
 10
243.1039541027057
 20
135.8710039119788
 30
0.0
 10
243.1082768906103
 20
137.6865577968428
 30
0.0
 10
243.1107619313315
 20
139.2493290353503
 30
0.0
 10
243.1124691557732
 20
140.5769073406651
 30
0.0
 10
243.1157466761936
 20
142.1495973264572
 30
0.0
 10
243.1186188912008
 20
144.0530045322832
 30
0.0
 10
243.1206833403564
 20
145.6044811364809
 30
0.0
 10
243.1217160463283
 20
146.3805812162427
 30
0.0
  0
SPLINE
  5
1F2
330
1F
100
AcDbEntity
  8
0
  6
Continuous
 62
     8
370
    18
100
AcDbSpline
210
0.0
220
0.0
230
1.0
 70
     8
 71
     3
 72
    20
 73
    16
 74
     0
 42
0.000000001
 43
0.00000001
 40
0.0
 40
0.0
 40
0.0
 40
0.0
 40
0.0826435798106498
 40
0.1652473458424841
 40
0.2479630172821406
 40
0.3303135995240699
 40
0.412766629090187
 40
0.4956328154189487
 40
0.5781608218032084
 40
0.6607313635381826
 40
0.7431432679903134
 40
0.8255663681221855
 40
0.9081342982734312
 40
0.9905846786394704
 40
0.9999999999999999
 40
0.9999999999999999
 40
0.9999999999999999
 40
0.9999999999999999
 10
240.4731780677984
 20
94.19173959019469
 30
0.0
 10
240.4729535670593
 20
93.49708441675013
 30
0.0
 10
240.4725046737349
 20
92.10810872195972
 30
0.0
 10
240.4718823055578
 20
90.05932307603935
 30
0.0
 10
240.4712216230532
 20
88.08250004634614
 30
0.0
 10
240.4686913568812
 20
86.20945043974652
 30
0.0
 10
240.4686284203219
 20
84.47026954300958
 30
0.0
 10
240.4696152589675
 20
82.89204568203222
 30
0.0
 10
240.4683892704543
 20
81.50634276682666
 30
0.0
 10
240.4681696748787
 20
80.33476233021972
 30
0.0
 10
240.4677152809778
 20
79.39592915711987
 30
0.0
 10
240.467281026804
 20
78.70245829452466
 30
0.0
 10
240.4667326804871
 20
78.29402920740547
 30
0.0
 10
240.4673408292975
 20
78.12053899899132
 30
0.0
 10
240.4669029872637
 20
78.16506737862116
 30
0.0
 10
240.466858112807
 20
78.16963109495923
 30
0.0
  0
ARC
  5
1F3
330
1F
100
AcDbEntity
  8
0
  6
Continuous
 62
     8
370
    18
100
AcDbCircle
 10
208.120419852
 20
141.7488680841
 30
0.0
 40
2.085193425824672
100
AcDbArc
 50
234.3195569018
 51
270.2734498626
  0
ARC
  5
1F4
330
1F
100
AcDbEntity
  8
0
  6
Continuous
 62
     8
370
    18
100
AcDbCircle
 10
239.2676085789
 20
141.7488680841
 30
0.0
 40
2.085193425824672
100
AcDbArc
 50
269.7265501374
 51
305.6804430982
  0
SPLINE
  5
1F5
330
1F
100
AcDbEntity
  8
0
  6
Continuous
 62
     8
370
    18
100
AcDbSpline
210
0.0
220
0.0
230
1.0
 70
     8
 71
     3
 72
    22
 73
    18
 74
     0
 42
0.000000001
 43
0.00000001
 40
0.0
 40
0.0
 40
0.0
 40
0.0
 40
0.1250000000000004
 40
0.1250000000000004
 40
0.2500000000000008
 40
0.2500000000000008
 40
0.3750000000000012
 40
0.3750000000000012
 40
0.5000000000000016
 40
0.5000000000000016
 40
0.6250000000000011
 40
0.6250000000000011
 40
0.7500000000000008
 40
0.7500000000000008
 40
0.8750000000000003
 40
0.8750000000000003
 40
1.0
 40
1.0
 40
1.0
 40
1.0
 10
208.130371628029
 20
139.6636975853616
 30
0.0
 10
208.1304120646305
 20
139.2644579003538
 30
0.0
 10
208.130452501232
 20
138.8622408490286
 30
0.0
 10
208.130533374435
 20
137.9619758758554
 30
0.0
 10
208.1305738110364
 20
137.4647559779463
 30
0.0
 10
208.1306546842394
 20
136.3428175821374
 30
0.0
 10
208.1306951208409
 20
135.7189271081765
 30
0.0
 10
208.1307759940439
 20
134.3436914731748
 30
0.0
 10
208.1308164306454
 20
133.5931743360728
 30
0.0
 10
208.1308973038484
 20
131.9716002119142
 30
0.0
 10
208.1309377404499
 20
131.0975063966529
 30
0.0
 10
208.1310186136529
 20
129.2577929023763
 30
0.0
 10
208.1310590502543
 20
128.2939481950261
 30
0.0
 10
208.1311399234573
 20
126.3462713827696
 30
0.0
 10
208.1311803600588
 20
125.3642142495284
 30
0.0
 10
208.1312612332618
 20
123.4313027819927
 30
0.0
 10
208.1313016698633
 20
122.4822234193633
 30
0.0
 10
208.1313421064648
 20
121.5375418446346
 30
0.0
  0
SPLINE
  5
1F6
330
1F
100
AcDbEntity
  8
0
  6
Continuous
 62
     8
370
    18
100
AcDbSpline
210
0.0
220
0.0
230
1.0
 70
     8
 71
     3
 72
    22
 73
    18
 74
     0
 42
0.000000001
 43
0.00000001
 40
0.0
 40
0.0
 40
0.0
 40
0.0
 40
0.1249999999999996
 40
0.1249999999999996
 40
0.2499999999999992
 40
0.2499999999999992
 40
0.3749999999999988
 40
0.3749999999999988
 40
0.4999999999999984
 40
0.4999999999999984
 40
0.6249999999999988
 40
0.6249999999999988
 40
0.7499999999999992
 40
0.7499999999999992
 40
0.8749999999999996
 40
0.8749999999999996
 40
1.0
 40
1.0
 40
1.0
 40
1.0
 10
239.2566863244639
 20
121.5375418446346
 30
0.0
 10
239.2567267610654
 20
122.4822234193632
 30
0.0
 10
239.2567671976669
 20
123.4313027819917
 30
0.0
 10
239.2568480708699
 20
125.3642142495139
 30
0.0
 10
239.2568885074714
 20
126.346271382743
 30
0.0
 10
239.2569693806744
 20
128.2939481949718
 30
0.0
 10
239.2570098172759
 20
129.2577929023067
 30
0.0
 10
239.2570906904789
 20
131.0975063965622
 30
0.0
 10
239.2571311270804
 20
131.9716002118181
 30
0.0
 10
239.2572120002833
 20
133.5931743359816
 30
0.0
 10
239.2572524368848
 20
134.3436914730938
 30
0.0
 10
239.2573333100878
 20
135.7189271081229
 30
0.0
 10
239.2573737466893
 20
136.3428175821005
 30
0.0
 10
239.2574546198923
 20
137.4647559779355
 30
0.0
 10
239.2574950564938
 20
137.9619758758537
 30
0.0
 10
239.2575759296968
 20
138.8622408490339
 30
0.0
 10
239.2576163662982
 20
139.2644579003566
 30
0.0
 10
239.2576568028998
 20
139.6636975853664
 30
0.0
  0
LINE
  5
1F7
330
1F
100
AcDbEntity
  8
0
  6
Continuous
 62
     8
370
    18
100
AcDbLine
 10
239.2563464507
 20
121.5375422251
 30
0.0
 11
208.1313420474
 21
121.5375422251
 31
0.0
  0
LWPOLYLINE
  5
1F8
330
1F
100
AcDbEntity
  8
0
  6
Continuous
 62
     8
370
    18
100
AcDbPolyline
 90
        9
 70
   128
 43
0.0
 10
239.2566863835
 20
121.5375422251
 10
239.4222066194
 20
121.5374341917
 10
239.5865142733
 20
121.537322433
 10
239.7484023511
 20
121.5372181249
 10
239.9066862106
 20
121.5371138168
 10
240.0602035612
 20
121.5370095086
 10
240.2078293651
 20
121.5369126511
 10
240.3484832883
 20
121.5368195188
 10
240.4811296999
 20
121.5367338372
  0
LWPOLYLINE
  5
1F9
330
1F
100
AcDbEntity
  8
0
  6
Continuous
 62
     8
370
    18
100
AcDbPolyline
 90
        9
 70
   128
 43
0.0
 10
208.1313420474
 20
121.5375422251
 10
207.9658218116
 20
121.5374341917
 10
207.8015141576
 20
121.537322433
 10
207.6396260798
 20
121.5372181249
 10
207.4813422203
 20
121.5371138168
 10
207.3278248697
 20
121.5370095086
 10
207.1801990658
 20
121.5369126511
 10
207.0395451426
 20
121.5368195188
 10
206.906898731
 20
121.5367338372
  0
LINE
  5
1FA
330
1F
100
AcDbEntity
  8
0
  6
Continuous
 62
     8
370
    18
100
AcDbLine
 10
235.4507919788
 20
83.243804307
 30
0.0
 11
235.4507919788
 21
99.2073661399
 31
0.0
  0
LINE
  5
1FB
330
1F
100
AcDbEntity
  8
0
  6
Continuous
 62
     8
370
    18
100
AcDbLine
 10
211.9372364521
 20
99.1293660116
 30
0.0
 11
211.9372364521
 21
83.2446834755
 31
0.0
  0
ARC
  5
1FC
330
1F
100
AcDbEntity
  8
0
  6
Continuous
 62
     8
370
    18
100
AcDbCircle
 10
223.694038938
 20
76.408196282
 30
0.0
 40
16.39328691328462
100
AcDbArc
 50
61.5930834608
 51
118.4118425323
  0
ARC
  5
1FD
330
1F
100
AcDbEntity
  8
0
  6
Continuous
 62
     8
370
    18
100
AcDbCircle
 10
223.6940142155
 20
76.3968711683
 30
0.0
 40
16.12442250143914
100
AcDbArc
 50
61.0701615346
 51
118.9298384654
  0
SPLINE
  5
1FE
330
1F
100
AcDbEntity
  8
0
  6
Continuous
 62
     8
370
    18
100
AcDbSpline
210
0.0
220
0.0
230
1.0
 70
     8
 71
     3
 72
    22
 73
    18
 74
     0
 42
0.000000001
 43
0.00000001
 40
2.390015433536775
 40
2.390015433536775
 40
2.390015433536775
 40
2.390015433536775
 40
6.9572197444657
 40
6.9572197444657
 40
12.6675169569301
 40
12.6675169569301
 40
22.01976352284105
 40
22.01976352284105
 40
27.45017140013515
 40
27.45017140013515
 40
32.20175573775685
 40
32.20175573775685
 40
36.9537697758095
 40
36.9537697758095
 40
39.6689718827282
 40
39.6689718827282
 40
42.3844932074568
 40
42.3844932074568
 40
42.3844932074568
 40
42.3844932074568
 10
231.4940142154684
 20
88.0548971391953
 30
0.0
 10
231.0266157623901
 20
88.41853650592327
 30
0.0
 10
230.5172227142739
 20
88.7498190170885
 30
0.0
 10
229.2970872386461
 20
89.40961733036022
 30
0.0
 10
228.5658426355414
 20
89.71630008956528
 30
0.0
 10
226.547932083482
 20
90.34844298801286
 30
0.0
 10
225.2017958455699
 20
90.55880875802772
 30
0.0
 10
223.0688362083598
 20
90.58284471360409
 30
0.0
 10
222.2838189312306
 20
90.52640479957662
 30
0.0
 10
220.84334440097
 20
90.29978483192471
 30
0.0
 10
220.1837907999536
 20
90.1443008398543
 30
0.0
 10
218.9122302834331
 20
89.74229267377456
 30
0.0
 10
218.3000389015004
 20
89.4950142459686
 30
0.0
 10
217.3935482217516
 20
89.03910214088039
 30
0.0
 10
217.0745527721074
 20
88.86020889212652
 30
0.0
 10
216.4635019581907
 20
88.47620841631247
 30
0.0
 10
216.1718219882035
 20
88.27073966635415
 30
0.0
 10
215.8940142154684
 20
88.05445737861862
 30
0.0
  0
LINE
  5
1FF
330
1F
100
AcDbEntity
  8
0
  6
Continuous
 62
     8
370
    18
100
AcDbLine
 10
210.7843950778
 20
94.1932595086
 30
0.0
 11
210.7843950778
 21
95.0140303684
 31
0.0
  0
LINE
  5
200
330
1F
100
AcDbEntity
  8
0
  6
Continuous
 62
     8
370
    18
100
AcDbLine
 10
210.7843950778
 20
94.1932595086
 30
0.0
 11
208.1338752449
 21
94.1932595086
 31
0.0
  0
LINE
  5
201
330
1F
100
AcDbEntity
  8
0
  6
Continuous
 62
     8
370
    18
100
AcDbLine
 10
208.1313420474
 20
121.5375422251
 30
0.0
 11
208.1342151776
 21
94.1932595086
 31
0.0
  0
LINE
  5
202
330
1F
100
AcDbEntity
  8
0
  6
Continuous
 62
     8
370
    18
100
AcDbLine
 10
239.2538132533
 20
94.1932595086
 30
0.0
 11
239.2566863835
 21
121.5375422251
 31
0.0
  0
LINE
  5
203
330
1F
100
AcDbEntity
  8
0
  6
Continuous
 62
     8
370
    18
100
AcDbLine
 10
239.2538132533
 20
94.1932595086
 30
0.0
 11
236.6036333531
 21
94.1932595086
 31
0.0
  0
LINE
  5
204
330
1F
100
AcDbEntity
  8
0
  6
Continuous
 62
     8
370
    18
100
AcDbLine
 10
236.6036333531
 20
95.0623175812
 30
0.0
 11
236.6036333531
 21
94.1932595086
 31
0.0
  0
SPLINE
  5
205
330
1F
100
AcDbEntity
  8
0
  6
Continuous
 62
     8
370
    18
100
AcDbSpline
210
0.0
220
0.0
230
1.0
 70
     8
 71
     3
 72
    41
 73
    37
 74
     0
 42
0.000000001
 43
0.00000001
 40
0.0
 40
0.0
 40
0.0
 40
0.0
 40
0.0107555303041971
 40
0.0214315092389098
 40
0.0320335669016782
 40
0.0425674519179119
 40
0.0530390251887302
 40
0.0634542528087743
 40
0.0738191981713344
 40
0.0841400132913095
 40
0.0944229293900085
 40
0.1046742467992674
 40
0.1149003242553695
 40
0.1251075676653864
 40
0.1681161557877527
 40
0.2094670155674817
 40
0.2498825217088369
 40
0.3122968026517191
 40
0.374687849847528
 40
0.4370413626599254
 40
0.4996350625410895
 40
0.5621549619988939
 40
0.6245040916496253
 40
0.6664034652632246
 40
0.7078424960009968
 40
0.7497843569122193
 40
0.7904762816332067
 40
0.8321223698181978
 40
0.8754643532164743
 40
0.8930195272841311
 40
0.9106010069441273
 40
0.9282405412995903
 40
0.9459695675637101
 40
0.9638190501058931
 40
0.981819331673888
 40
1.0
 40
1.0
 40
1.0
 40
1.0
 10
210.7843948076932
 20
95.01402821070143
 30
0.0
 10
210.7854260170858
 20
95.1714127676979
 30
0.0
 10
210.787480808714
 20
95.48501781476988
 30
0.0
 10
210.8040471230199
 20
95.95352062977791
 30
0.0
 10
210.8305113386125
 20
96.41829150368591
 30
0.0
 10
210.8678211967754
 20
96.87933016865279
 30
0.0
 10
210.915725735486
 20
97.33663624287288
 30
0.0
 10
210.9742918363212
 20
97.79020932712002
 30
0.0
 10
211.0435023581528
 20
98.24004898745713
 30
0.0
 10
211.1233609494298
 20
98.68615474598678
 30
0.0
 10
211.2138711873956
 20
99.12852615650827
 30
0.0
 10
211.3150161449775
 20
99.56716253916514
 30
0.0
 10
211.4268603470709
 20
100.002063993063
 30
0.0
 10
211.6801942239482
 20
100.8951583077551
 30
0.0
 10
212.1505571504819
 20
102.2005514094053
 30
0.0
 10
212.9875038225015
 20
103.8294338456742
 30
0.0
 10
214.2022579830839
 20
105.561441056841
 30
0.0
 10
215.9359690546521
 20
107.2784436058231
 30
0.0
 10
218.294766203903
 20
108.7140812737495
 30
0.0
 10
220.9069704695545
 20
109.6154523241895
 30
0.0
 10
223.6557902864312
 20
109.9116585908466
 30
0.0
 10
226.4058472253157
 20
109.6321984713421
 30
0.0
 10
228.7370435847477
 20
108.842714609796
 30
0.0
 10
230.6094225047401
 20
107.8090949124168
 30
0.0
 10
232.0655492688776
 20
106.6830888944974
 30
0.0
 10
233.3205047428138
 20
105.3618296847405
 30
0.0
 10
234.375135598706
 20
103.8731348707921
 30
0.0
 10
235.223122741467
 20
102.2350305232887
 30
0.0
 10
235.7354938824578
 20
100.8203977281697
 30
0.0
 10
236.0405743390492
 20
99.71311538380982
 30
0.0
 10
236.2144199143447
 20
98.9604217890054
 30
0.0
 10
236.3564616343052
 20
98.1985334771506
 30
0.0
 10
236.4670950260181
 20
97.42746718919012
 30
0.0
 10
236.545530192284
 20
96.64722767946104
 30
0.0
 10
236.5945731221585
 20
95.85782122186247
 30
0.0
 10
236.6006034344673
 20
95.32836460937112
 30
0.0
 10
236.6036336232354
 20
95.06231645162661
 30
0.0
  0
SPLINE
  5
206
330
1F
100
AcDbEntity
  8
0
  6
Continuous
 62
     8
370
    18
100
AcDbSpline
210
0.0
220
0.0
230
1.0
 70
     8
 71
     3
 72
    20
 73
    16
 74
     0
 42
0.000000001
 43
0.00000001
 40
0.0
 40
0.0
 40
0.0
 40
0.0
 40
0.0826395598865914
 40
0.1652790327651089
 40
0.2479188186010686
 40
0.3305582460963431
 40
0.4131979709371055
 40
0.4958375651412832
 40
0.5784771017390818
 40
0.6611166149104608
 40
0.7437562454891218
 40
0.8263957935733293
 40
0.9090354096840598
 40
0.9916749961150565
 40
0.9999999999999999
 40
0.9999999999999999
 40
0.9999999999999999
 40
0.9999999999999999
 10
208.1342151775906
 20
94.19325950863644
 30
0.0
 10
208.1342161839901
 20
93.47931202881847
 30
0.0
 10
208.134218196788
 20
92.05141782087087
 30
0.0
 10
208.1342198646039
 20
89.945615291141
 30
0.0
 10
208.1342213500286
 20
87.91128600302123
 30
0.0
 10
208.1342249163541
 20
85.98266036202074
 30
0.0
 10
208.1342259294668
 20
84.19219965290074
 30
0.0
 10
208.1342294865399
 20
82.56998643261353
 30
0.0
 10
208.1342310089431
 20
81.14350213065345
 30
0.0
 10
208.1342325381333
 20
79.93605597246383
 30
0.0
 10
208.1342360748478
 20
78.97056274451447
 30
0.0
 10
208.1342371625956
 20
78.25352266804117
 30
0.0
 10
208.1342404507677
 20
77.83345881648212
 30
0.0
 10
208.1342422177448
 20
77.65686398173283
 30
0.0
 10
208.1342421886116
 20
77.70173348375828
 30
0.0
 10
208.1342421859453
 20
77.70583990338133
 30
0.0
  0
LINE
  5
207
330
1F
100
AcDbEntity
  8
0
  6
Continuous
 62
     8
370
    18
100
AcDbLine
 10
210.7843950778
 20
77.6932633233
 30
0.0
 11
210.7843950778
 21
94.1932595086
 31
0.0
  0
LINE
  5
208
330
1F
100
AcDbEntity
  8
0
  6
Continuous
 62
     8
370
    18
100
AcDbLine
 10
211.2440139443
 20
95.0140303684
 30
0.0
 11
210.7843950778
 21
95.0140303684
 31
0.0
  0
LINE
  5
209
330
1F
100
AcDbEntity
  8
0
  6
Continuous
 62
     8
370
    18
100
AcDbLine
 10
211.2440139443
 20
94.1932595086
 30
0.0
 11
210.7843950778
 21
94.1932595086
 31
0.0
  0
LINE
  5
20A
330
1F
100
AcDbEntity
  8
0
  6
Continuous
 62
     8
370
    18
100
AcDbLine
 10
236.1440144867
 20
94.1932595086
 30
0.0
 11
236.6036333531
 21
94.1932595086
 31
0.0
  0
LINE
  5
20B
330
1F
100
AcDbEntity
  8
0
  6
Continuous
 62
     8
370
    18
100
AcDbLine
 10
236.1440144867
 20
95.0623175812
 30
0.0
 11
236.6036333531
 21
95.0623175812
 31
0.0
  0
SPLINE
  5
20C
330
1F
100
AcDbEntity
  8
0
  6
Continuous
 62
     8
370
    18
100
AcDbSpline
210
0.0
220
0.0
230
1.0
 70
     8
 71
     3
 72
    20
 73
    16
 74
     0
 42
0.000000001
 43
0.00000001
 40
0.0
 40
0.0
 40
0.0
 40
0.0
 40
0.0083250038849434
 40
0.0909645903159402
 40
0.1736042064266707
 40
0.2562437545108782
 40
0.3388833850895391
 40
0.4215228982609181
 40
0.5041624348587167
 40
0.5868020290628945
 40
0.669441753903657
 40
0.7520811813989315
 40
0.8347209672348912
 40
0.9173604401134087
 40
1.0
 40
1.0
 40
1.0
 40
1.0
 10
239.2537862449834
 20
77.70583990338133
 30
0.0
 10
239.2537862423172
 20
77.70173348375828
 30
0.0
 10
239.253786213184
 20
77.65686398173283
 30
0.0
 10
239.2537879801611
 20
77.83345881648209
 30
0.0
 10
239.2537912683331
 20
78.2535226680412
 30
0.0
 10
239.2537923560809
 20
78.9705627445145
 30
0.0
 10
239.2537958927954
 20
79.93605597246386
 30
0.0
 10
239.2537974219856
 20
81.14350213065346
 30
0.0
 10
239.2537989443889
 20
82.5699864326135
 30
0.0
 10
239.2538025014619
 20
84.19219965290075
 30
0.0
 10
239.2538035145747
 20
85.98266036202077
 30
0.0
 10
239.2538070809001
 20
87.91128600302122
 30
0.0
 10
239.2538085663248
 20
89.945615291141
 30
0.0
 10
239.2538102341408
 20
92.0514178208709
 30
0.0
 10
239.2538122469387
 20
93.47931202881848
 30
0.0
 10
239.2538132533381
 20
94.19325950863646
 30
0.0
  0
LINE
  5
20D
330
1F
100
AcDbEntity
  8
0
  6
Continuous
 62
     8
370
    18
100
AcDbLine
 10
236.6036333531
 20
94.1932595086
 30
0.0
 11
236.6036333531
 21
77.6932633233
 31
0.0
  0
SPLINE
  5
20E
330
1F
100
AcDbEntity
  8
0
  6
Continuous
 62
     8
370
    18
100
AcDbSpline
210
0.0
220
0.0
230
1.0
 70
     8
 71
     3
 72
    34
 73
    30
 74
     0
 42
0.000000001
 43
0.00000001
 40
0.0
 40
0.0
 40
0.0
 40
0.0
 40
0.0062710712117296
 40
0.0167421872933894
 40
0.0315141933421462
 40
0.0483303987268128
 40
0.0631598785191035
 40
0.0929033555528652
 40
0.1259731608295152
 40
0.1805598331843789
 40
0.2516191594539384
 40
0.3010488095878318
 40
0.358940907040756
 40
0.4253227788973872
 40
0.5002132703521628
 40
0.5750499951171807
 40
0.641381148503373
 40
0.6992084008621434
 40
0.7485449345302736
 40
0.7973870587009193
 40
0.8390215010531015
 40
0.8734106109898127
 40
0.9067071350915407
 40
0.9367533459474395
 40
0.9515967357565115
 40
0.9684398027720138
 40
0.983311092540221
 40
0.9937943299996043
 40
1.0
 40
1.0
 40
1.0
 40
1.0
 10
236.1440142154645
 20
95.06231638102169
 30
0.0
 10
236.1434646952077
 20
95.1504577464073
 30
0.0
 10
236.1419976139468
 20
95.38577308532754
 30
0.0
 10
236.1253153482336
 20
95.82847818099846
 30
0.0
 10
236.0839141314372
 20
96.41825980819338
 30
0.0
 10
236.014280213515
 20
97.06700341001346
 30
0.0
 10
235.8942405831345
 20
97.92139339754021
 30
0.0
 10
235.692573819805
 20
98.99456043770081
 30
0.0
 10
235.2753858142181
 20
100.592451809503
 30
0.0
 10
234.4698352723029
 20
102.6812619295607
 30
0.0
 10
233.1482089209359
 20
104.7869285129971
 30
0.0
 10
231.3857844901119
 20
106.5875477728135
 30
0.0
 10
229.3569728246076
 20
107.9787301502161
 30
0.0
 10
226.7295806388236
 20
109.0169041083455
 30
0.0
 10
223.6829752331568
 20
109.4155816528248
 30
0.0
 10
220.6380011823678
 20
109.011041434048
 30
0.0
 10
218.014481761349
 20
107.9695669447663
 30
0.0
 10
215.9904014380512
 20
106.5770401325728
 30
0.0
 10
214.4507629301391
 20
104.9999086350154
 30
0.0
 10
213.3368828218031
 20
103.3697017481604
 30
0.0
 10
212.5662109966296
 20
101.7878738388626
 30
0.0
 10
212.0471563885925
 20
100.3393828015675
 30
0.0
 10
211.6981030865749
 20
99.00946759032114
 30
0.0
 10
211.4941638806872
 20
97.92896905135198
 30
0.0
 10
211.3733320909782
 20
97.06980536605
 30
0.0
 10
211.3036324876844
 20
96.4190823534519
 30
0.0
 10
211.2624093300861
 20
95.8273355227505
 30
0.0
 10
211.2459717825724
 20
95.38397602886799
 30
0.0
 10
211.244544822133
 20
95.14941021345457
 30
0.0
 10
211.2440142154644
 20
95.06218832386487
 30
0.0
  0
LWPOLYLINE
  5
20F
330
1F
100
AcDbEntity
  8
0
  6
Continuous
 62
     8
370
    18
100
AcDbPolyline
 90
        9
 70
   128
 43
0.0
 10
239.2538132533
 20
94.1932595086
 10
239.4195411742
 20
94.1930508924
 10
239.5839736253
 20
94.1928497267
 10
239.7458188623
 20
94.192648561
 10
239.9038121492
 20
94.1924548459
 10
240.0567166895
 20
94.1922611308
 10
240.2033348024
 20
94.1920748663
 10
240.3425190985
 20
94.191903503
 10
240.4731780678
 20
94.1917395902
  0
LWPOLYLINE
  5
210
330
1F
100
AcDbEntity
  8
0
  6
Continuous
 62
     8
370
    18
100
AcDbPolyline
 90
        9
 70
   128
 43
0.0
 10
208.1342151776
 20
94.1932595086
 10
207.9684872568
 20
94.1930508924
 10
207.8040548056
 20
94.1928497267
 10
207.6422095686
 20
94.192648561
 10
207.4842162818
 20
94.1924548459
 10
207.3313117415
 20
94.1922611308
 10
207.1846936285
 20
94.1920748663
 10
207.0455093324
 20
94.191903503
 10
206.9148503631
 20
94.1917395902
  0
LINE
  5
211
330
1F
100
AcDbEntity
  8
0
  6
Continuous
 62
     8
370
    18
100
AcDbLine
 10
211.9372364521
 20
83.2446834755
 30
0.0
 11
211.9372364521
 21
78.1372434211
 31
0.0
  0
LINE
  5
212
330
1F
100
AcDbEntity
  8
0
  6
Continuous
 62
     8
370
    18
100
AcDbLine
 10
235.4507919788
 20
78.1372434211
 30
0.0
 11
235.4507919788
 21
83.1883719874
 31
0.0
  0
LINE
  5
213
330
1F
100
AcDbEntity
  8
0
  6
Continuous
 62
     8
370
    18
100
AcDbLine
 10
235.4507919788
 20
83.1883719874
 30
0.0
 11
235.4507919788
 21
83.243804307
 31
0.0
  0
ENDSEC
  0
SECTION
  2
OBJECTS
  0
DICTIONARY
  5
C
330
0
100
AcDbDictionary
281
     1
  3
ACAD_GROUP
350
D
  3
ACAD_IMAGE_VARS
350
237
  3
ACAD_LAYOUT
350
1A
  3
ACAD_MLINESTYLE
350
17
  3
ACAD_PLOTSETTINGS
350
19
  3
ACAD_PLOTSTYLENAME
350
E
  3
ACAD_SCALELIST
350
47
  3
APPDATA
350
235
  3
DWGPROPS
350
238
  0
DICTIONARY
  5
D
102
{ACAD_REACTORS
330
C
102
}
330
C
100
AcDbDictionary
281
     1
  0
RASTERVARIABLES
  5
237
102
{ACAD_REACTORS
330
C
102
}
330
C
100
AcDbRasterVariables
 90
        0
 70
     1
 71
     1
 72
     1
  0
DICTIONARY
  5
1A
102
{ACAD_REACTORS
330
C
102
}
330
C
100
AcDbDictionary
281
     1
  3
Layout1
350
1E
  3
Layout2
350
26
  3
Model
350
22
  0
DICTIONARY
  5
17
102
{ACAD_REACTORS
330
C
102
}
330
C
100
AcDbDictionary
281
     1
  3
Standard
350
18
  0
DICTIONARY
  5
19
102
{ACAD_REACTORS
330
C
102
}
330
C
100
AcDbDictionary
281
     1
  0
ACDBDICTIONARYWDFLT
  5
E
102
{ACAD_REACTORS
330
C
102
}
330
C
100
AcDbDictionary
281
     1
  3
Normal
350
F
100
AcDbDictionaryWithDefault
340
F
  0
DICTIONARY
  5
47
102
{ACAD_REACTORS
330
C
102
}
330
C
100
AcDbDictionary
281
     1
  3
A0
350
48
  3
A1
350
49
  3
A2
350
4A
  3
A3
350
4B
  3
A4
350
4C
  3
A5
350
4D
  3
A6
350
4E
  3
A7
350
4F
  3
A8
350
50
  3
A9
350
51
  3
B0
350
52
  3
B1
350
53
  3
B2
350
54
  3
B3
350
55
  3
B4
350
56
  3
B5
350
57
  3
B6
350
58
  3
B7
350
59
  3
B8
350
5A
  3
B9
350
5B
  3
C0
350
5C
  3
C1
350
5D
  3
C2
350
5E
  3
C3
350
5F
  3
C4
350
60
  3
C5
350
61
  3
C6
350
62
  3
C7
350
63
  3
C8
350
64
  3
C9
350
65
  3
D0
350
66
  3
D1
350
67
  3
D2
350
68
  0
DICTIONARY
  5
235
102
{ACAD_REACTORS
330
C
102
}
330
C
100
AcDbDictionary
281
     1
  0
XRECORD
  5
238
102
{ACAD_REACTORS
330
C
102
}
330
C
100
AcDbXrecord
280
     1
  1
DWGPROPS COOKIE
  2

  3

  4

  6

  7

  8
mkramer
  9

300
=
301
=
302
=
303
=
304
=
305
=
306
=
307
=
308
=
309
=
 40
0.0
 41
2458355.31998066
 42
2458404.352676146
  1

 90
        0
  0
LAYOUT
  5
1E
102
{ACAD_REACTORS
330
1A
102
}
330
1A
100
AcDbPlotSettings
  1

  2
none_device
  4

  6

 40
0.0
 41
0.0
 42
0.0
 43
0.0
 44
0.0
 45
0.0
 46
0.0
 47
0.0
 48
0.0
 49
0.0
140
0.0
141
0.0
142
1.0
143
1.0
 70
   688
 72
     1
 73
     0
 74
     5
  7

 75
    16
147
1.0
148
0.0
149
0.0
100
AcDbLayout
  1
Layout1
 70
     1
 71
     1
 10
0.0
 20
0.0
 11
420.0
 21
297.0
 12
0.0
 22
0.0
 32
0.0
 14
1.000000000000000E+20
 24
1.000000000000000E+20
 34
1.000000000000000E+20
 15
-1.000000000000000E+20
 25
-1.000000000000000E+20
 35
-1.000000000000000E+20
146
0.0
 13
0.0
 23
0.0
 33
0.0
 16
1.0
 26
0.0
 36
0.0
 17
0.0
 27
1.0
 37
0.0
 76
     0
330
1B
  0
LAYOUT
  5
26
102
{ACAD_REACTORS
330
1A
102
}
330
1A
100
AcDbPlotSettings
  1

  2
none_device
  4

  6

 40
0.0
 41
0.0
 42
0.0
 43
0.0
 44
0.0
 45
0.0
 46
0.0
 47
0.0
 48
0.0
 49
0.0
140
0.0
141
0.0
142
1.0
143
1.0
 70
   688
 72
     1
 73
     0
 74
     5
  7

 75
    16
147
1.0
148
0.0
149
0.0
100
AcDbLayout
  1
Layout2
 70
     1
 71
     2
 10
0.0
 20
0.0
 11
0.0
 21
0.0
 12
0.0
 22
0.0
 32
0.0
 14
0.0
 24
0.0
 34
0.0
 15
0.0
 25
0.0
 35
0.0
146
0.0
 13
0.0
 23
0.0
 33
0.0
 16
1.0
 26
0.0
 36
0.0
 17
0.0
 27
1.0
 37
0.0
 76
     0
330
23
  0
LAYOUT
  5
22
102
{ACAD_REACTORS
330
1A
102
}
330
1A
100
AcDbPlotSettings
  1

  2
none_device
  4
Letter_(8.50_x_11.00_Inches)
  6

 40
6.35
 41
6.35
 42
6.35000508
 43
6.35000508
 44
215.9
 45
279.4
 46
0.0
 47
0.0
 48
0.0
 49
0.0
140
0.0
141
0.0
142
1.0
143
1.0
 70
  1712
 72
     1
 73
     0
 74
     0
  7

 75
     0
147
1.0
148
0.0
149
0.0
100
AcDbLayout
  1
Model
 70
     1
 71
     0
 10
0.0
 20
0.0
 11
841.0
 21
594.0
 12
0.0
 22
0.0
 32
0.0
 14
35.3395332945999
 24
37.46023423129998
 34
0.0
 15
769.5250664616667
 25
292.1672148662119
 35
0.0
146
0.0
 13
0.0
 23
0.0
 33
0.0
 16
1.0
 26
0.0
 36
0.0
 17
0.0
 27
1.0
 37
0.0
 76
     0
330
1F
331
29
  0
MLINESTYLE
  5
18
102
{ACAD_REACTORS
330
17
102
}
330
17
100
AcDbMlineStyle
  2
Standard
 70
     0
  3

 62
   256
 51
90.0
 52
90.0
 71
     2
 49
0.5
 62
   256
  6
BYLAYER
 49
-0.5
 62
   256
  6
BYLAYER
  0
ACDBPLACEHOLDER
  5
F
102
{ACAD_REACTORS
330
E
102
}
330
E
  0
SCALE
  5
48
102
{ACAD_REACTORS
330
47
102
}
330
47
100
AcDbScale
 70
     0
300
1:1
140
1.0
141
1.0
290
     1
  0
SCALE
  5
49
102
{ACAD_REACTORS
330
47
102
}
330
47
100
AcDbScale
 70
     0
300
1:2
140
1.0
141
2.0
290
     0
  0
SCALE
  5
4A
102
{ACAD_REACTORS
330
47
102
}
330
47
100
AcDbScale
 70
     0
300
1:4
140
1.0
141
4.0
290
     0
  0
SCALE
  5
4B
102
{ACAD_REACTORS
330
47
102
}
330
47
100
AcDbScale
 70
     0
300
1:5
140
1.0
141
5.0
290
     0
  0
SCALE
  5
4C
102
{ACAD_REACTORS
330
47
102
}
330
47
100
AcDbScale
 70
     0
300
1:8
140
1.0
141
8.0
290
     0
  0
SCALE
  5
4D
102
{ACAD_REACTORS
330
47
102
}
330
47
100
AcDbScale
 70
     0
300
1:10
140
1.0
141
10.0
290
     0
  0
SCALE
  5
4E
102
{ACAD_REACTORS
330
47
102
}
330
47
100
AcDbScale
 70
     0
300
1:16
140
1.0
141
16.0
290
     0
  0
SCALE
  5
4F
102
{ACAD_REACTORS
330
47
102
}
330
47
100
AcDbScale
 70
     0
300
1:20
140
1.0
141
20.0
290
     0
  0
SCALE
  5
50
102
{ACAD_REACTORS
330
47
102
}
330
47
100
AcDbScale
 70
     0
300
1:30
140
1.0
141
30.0
290
     0
  0
SCALE
  5
51
102
{ACAD_REACTORS
330
47
102
}
330
47
100
AcDbScale
 70
     0
300
1:40
140
1.0
141
40.0
290
     0
  0
SCALE
  5
52
102
{ACAD_REACTORS
330
47
102
}
330
47
100
AcDbScale
 70
     0
300
1:50
140
1.0
141
50.0
290
     0
  0
SCALE
  5
53
102
{ACAD_REACTORS
330
47
102
}
330
47
100
AcDbScale
 70
     0
300
1:100
140
1.0
141
100.0
290
     0
  0
SCALE
  5
54
102
{ACAD_REACTORS
330
47
102
}
330
47
100
AcDbScale
 70
     0
300
2:1
140
2.0
141
1.0
290
     0
  0
SCALE
  5
55
102
{ACAD_REACTORS
330
47
102
}
330
47
100
AcDbScale
 70
     0
300
4:1
140
4.0
141
1.0
290
     0
  0
SCALE
  5
56
102
{ACAD_REACTORS
330
47
102
}
330
47
100
AcDbScale
 70
     0
300
8:1
140
8.0
141
1.0
290
     0
  0
SCALE
  5
57
102
{ACAD_REACTORS
330
47
102
}
330
47
100
AcDbScale
 70
     0
300
10:1
140
10.0
141
1.0
290
     0
  0
SCALE
  5
58
102
{ACAD_REACTORS
330
47
102
}
330
47
100
AcDbScale
 70
     0
300
100:1
140
100.0
141
1.0
290
     0
  0
SCALE
  5
59
102
{ACAD_REACTORS
330
47
102
}
330
47
100
AcDbScale
 70
     0
300
1/128" = 1'-0"
140
0.0078125
141
12.0
290
     0
  0
SCALE
  5
5A
102
{ACAD_REACTORS
330
47
102
}
330
47
100
AcDbScale
 70
     0
300
1/64" = 1'-0"
140
0.015625
141
12.0
290
     0
  0
SCALE
  5
5B
102
{ACAD_REACTORS
330
47
102
}
330
47
100
AcDbScale
 70
     0
300
1/32" = 1'-0"
140
0.03125
141
12.0
290
     0
  0
SCALE
  5
5C
102
{ACAD_REACTORS
330
47
102
}
330
47
100
AcDbScale
 70
     0
300
1/16" = 1'-0"
140
0.0625
141
12.0
290
     0
  0
SCALE
  5
5D
102
{ACAD_REACTORS
330
47
102
}
330
47
100
AcDbScale
 70
     0
300
3/32" = 1'-0"
140
0.09375
141
12.0
290
     0
  0
SCALE
  5
5E
102
{ACAD_REACTORS
330
47
102
}
330
47
100
AcDbScale
 70
     0
300
1/8" = 1'-0"
140
0.125
141
12.0
290
     0
  0
SCALE
  5
5F
102
{ACAD_REACTORS
330
47
102
}
330
47
100
AcDbScale
 70
     0
300
3/16" = 1'-0"
140
0.1875
141
12.0
290
     0
  0
SCALE
  5
60
102
{ACAD_REACTORS
330
47
102
}
330
47
100
AcDbScale
 70
     0
300
1/4" = 1'-0"
140
0.25
141
12.0
290
     0
  0
SCALE
  5
61
102
{ACAD_REACTORS
330
47
102
}
330
47
100
AcDbScale
 70
     0
300
3/8" = 1'-0"
140
0.375
141
12.0
290
     0
  0
SCALE
  5
62
102
{ACAD_REACTORS
330
47
102
}
330
47
100
AcDbScale
 70
     0
300
1/2" = 1'-0"
140
0.5
141
12.0
290
     0
  0
SCALE
  5
63
102
{ACAD_REACTORS
330
47
102
}
330
47
100
AcDbScale
 70
     0
300
3/4" = 1'-0"
140
0.75
141
12.0
290
     0
  0
SCALE
  5
64
102
{ACAD_REACTORS
330
47
102
}
330
47
100
AcDbScale
 70
     0
300
1" = 1'-0"
140
1.0
141
12.0
290
     0
  0
SCALE
  5
65
102
{ACAD_REACTORS
330
47
102
}
330
47
100
AcDbScale
 70
     0
300
1-1/2" = 1'-0"
140
1.5
141
12.0
290
     0
  0
SCALE
  5
66
102
{ACAD_REACTORS
330
47
102
}
330
47
100
AcDbScale
 70
     0
300
3" = 1'-0"
140
3.0
141
12.0
290
     0
  0
SCALE
  5
67
102
{ACAD_REACTORS
330
47
102
}
330
47
100
AcDbScale
 70
     0
300
6" = 1'-0"
140
6.0
141
12.0
290
     0
  0
SCALE
  5
68
102
{ACAD_REACTORS
330
47
102
}
330
47
100
AcDbScale
 70
     0
300
1'-0" = 1'-0"
140
12.0
141
12.0
290
     0
  0
ENDSEC
  0
EOF
