  0
SECTION
  2
HEADER
  9
$ACADVER
  1
AC1032
  9
$ACADMAINTVER
 90
        4
  9
$DWGCODEPAGE
  3
ANSI_1252
  9
$LASTSAVEDBY
  1
MKramer
  9
$REQUIREDVERSIONS
160
                 0
  9
$INSBASE
 10
0.0
 20
0.0
 30
0.0
  9
$EXTMIN
 10
35.33953329457836
 20
37.46023423127906
 30
0.0
  9
$EXTMAX
 10
517.6919298245609
 20
550.8200468708319
 30
0.0
  9
$LIMMIN
 10
0.0
 20
0.0
  9
$LIMMAX
 10
594.0
 20
841.0
  9
$ORTHOMODE
 70
     0
  9
$REGENMODE
 70
     1
  9
$FILLMODE
 70
     1
  9
$QTEXTMODE
 70
     0
  9
$MIRRTEXT
 70
     1
  9
$LTSCALE
 40
1.0
  9
$ATTMODE
 70
     1
  9
$TEXTSIZE
 40
10.0
  9
$TRACEWID
 40
1.0
  9
$TEXTSTYLE
  7
Standard
  9
$CLAYER
  8
0
  9
$CELTYPE
  6
ByLayer
  9
$CECOLOR
 62
   256
  9
$CELTSCALE
 40
1.0
  9
$DISPSILH
 70
     0
  9
$DIMSCALE
 40
1.0
  9
$DIMASZ
 40
2.5
  9
$DIMEXO
 40
0.0
  9
$DIMDLI
 40
3.75
  9
$DIMRND
 40
0.0
  9
$DIMDLE
 40
0.0
  9
$DIMEXE
 40
1.0
  9
$DIMTP
 40
0.0
  9
$DIMTM
 40
0.0
  9
$DIMTXT
 40
3.5
  9
$DIMCEN
 40
2.5
  9
$DIMTSZ
 40
0.0
  9
$DIMTOL
 70
     0
  9
$DIMLIM
 70
     0
  9
$DIMTIH
 70
     1
  9
$DIMTOH
 70
     1
  9
$DIMSE1
 70
     0
  9
$DIMSE2
 70
     0
  9
$DIMTAD
 70
     1
  9
$DIMZIN
 70
     0
  9
$DIMBLK
  1

  9
$DIMASO
 70
     1
  9
$DIMSHO
 70
     1
  9
$DIMPOST
  1

  9
$DIMAPOST
  1

  9
$DIMALT
 70
     0
  9
$DIMALTD
 70
     3
  9
$DIMALTF
 40
0.0393700787401575
  9
$DIMLFAC
 40
1.0
  9
$DIMTOFL
 70
     1
  9
$DIMTVP
 40
0.0
  9
$DIMTIX
 70
     0
  9
$DIMSOXD
 70
     0
  9
$DIMSAH
 70
     0
  9
$DIMBLK1
  1

  9
$DIMBLK2
  1

  9
$DIMSTYLE
  2
ISO-25
  9
$DIMCLRD
 70
     0
  9
$DIMCLRE
 70
     0
  9
$DIMCLRT
 70
     0
  9
$DIMTFAC
 40
1.0
  9
$DIMGAP
 40
1.5
  9
$DIMJUST
 70
     0
  9
$DIMSD1
 70
     0
  9
$DIMSD2
 70
     0
  9
$DIMTOLJ
 70
     0
  9
$DIMTZIN
 70
     0
  9
$DIMALTZ
 70
     0
  9
$DIMALTTZ
 70
     0
  9
$DIMUPT
 70
     0
  9
$DIMDEC
 70
     2
  9
$DIMTDEC
 70
     2
  9
$DIMALTU
 70
     2
  9
$DIMALTTD
 70
     3
  9
$DIMTXSTY
  7
Standard
  9
$DIMAUNIT
 70
     0
  9
$DIMADEC
 70
     2
  9
$DIMALTRND
 40
0.0
  9
$DIMAZIN
 70
     0
  9
$DIMDSEP
 70
    44
  9
$DIMATFIT
 70
     3
  9
$DIMFRAC
 70
     0
  9
$DIMLDRBLK
  1

  9
$DIMLUNIT
 70
     2
  9
$DIMLWD
 70
    -2
  9
$DIMLWE
 70
    -2
  9
$DIMTMOVE
 70
     0
  9
$DIMFXL
 40
1.0
  9
$DIMFXLON
 70
     0
  9
$DIMJOGANG
 40
0.7853981633974483
  9
$DIMTFILL
 70
     0
  9
$DIMTFILLCLR
 70
     0
  9
$DIMARCSYM
 70
     0
  9
$DIMLTYPE
  6

  9
$DIMLTEX1
  6

  9
$DIMLTEX2
  6

  9
$DIMTXTDIRECTION
 70
     0
  9
$LUNITS
 70
     2
  9
$LUPREC
 70
     2
  9
$SKETCHINC
 40
1.0
  9
$FILLETRAD
 40
10.0
  9
$AUNITS
 70
     0
  9
$AUPREC
 70
     2
  9
$MENU
  1
.
  9
$ELEVATION
 40
0.0
  9
$PELEVATION
 40
0.0
  9
$THICKNESS
 40
0.0
  9
$LIMCHECK
 70
     0
  9
$CHAMFERA
 40
0.0
  9
$CHAMFERB
 40
0.0
  9
$CHAMFERC
 40
0.0
  9
$CHAMFERD
 40
0.0
  9
$SKPOLY
 70
     0
  9
$TDCREATE
 40
2458736.49442794
  9
$TDUCREATE
 40
2458736.452761273
  9
$TDUPDATE
 40
2459958.430898067
  9
$TDUUPDATE
 40
2459958.389231401
  9
$TDINDWG
 40
0.0002786227
  9
$TDUSRTIMER
 40
0.0002791551
  9
$USRTIMER
 70
     1
  9
$ANGBASE
 50
0.0
  9
$ANGDIR
 70
     0
  9
$PDMODE
 70
     0
  9
$PDSIZE
 40
-1.0
  9
$PLINEWID
 40
0.0
  9
$SPLFRAME
 70
     0
  9
$SPLINETYPE
 70
     6
  9
$SPLINESEGS
 70
     8
  9
$HANDSEED
  5
1DC
  9
$SURFTAB1
 70
     6
  9
$SURFTAB2
 70
     6
  9
$SURFTYPE
 70
     6
  9
$SURFU
 70
     6
  9
$SURFV
 70
     6
  9
$UCSBASE
  2

  9
$UCSNAME
  2

  9
$UCSORG
 10
0.0
 20
0.0
 30
0.0
  9
$UCSXDIR
 10
1.0
 20
0.0
 30
0.0
  9
$UCSYDIR
 10
0.0
 20
1.0
 30
0.0
  9
$UCSORTHOREF
  2

  9
$UCSORTHOVIEW
 70
     0
  9
$UCSORGTOP
 10
0.0
 20
0.0
 30
0.0
  9
$UCSORGBOTTOM
 10
0.0
 20
0.0
 30
0.0
  9
$UCSORGLEFT
 10
0.0
 20
0.0
 30
0.0
  9
$UCSORGRIGHT
 10
0.0
 20
0.0
 30
0.0
  9
$UCSORGFRONT
 10
0.0
 20
0.0
 30
0.0
  9
$UCSORGBACK
 10
0.0
 20
0.0
 30
0.0
  9
$PUCSBASE
  2

  9
$PUCSNAME
  2

  9
$PUCSORG
 10
0.0
 20
0.0
 30
0.0
  9
$PUCSXDIR
 10
1.0
 20
0.0
 30
0.0
  9
$PUCSYDIR
 10
0.0
 20
1.0
 30
0.0
  9
$PUCSORTHOREF
  2

  9
$PUCSORTHOVIEW
 70
     0
  9
$PUCSORGTOP
 10
0.0
 20
0.0
 30
0.0
  9
$PUCSORGBOTTOM
 10
0.0
 20
0.0
 30
0.0
  9
$PUCSORGLEFT
 10
0.0
 20
0.0
 30
0.0
  9
$PUCSORGRIGHT
 10
0.0
 20
0.0
 30
0.0
  9
$PUCSORGFRONT
 10
0.0
 20
0.0
 30
0.0
  9
$PUCSORGBACK
 10
0.0
 20
0.0
 30
0.0
  9
$USERI1
 70
     0
  9
$USERI2
 70
     0
  9
$USERI3
 70
     0
  9
$USERI4
 70
     0
  9
$USERI5
 70
     0
  9
$USERR1
 40
0.0
  9
$USERR2
 40
0.0
  9
$USERR3
 40
0.0
  9
$USERR4
 40
0.0
  9
$USERR5
 40
0.0
  9
$WORLDVIEW
 70
     1
  9
$SHADEDGE
 70
     3
  9
$SHADEDIF
 70
    70
  9
$TILEMODE
 70
     1
  9
$MAXACTVP
 70
    64
  9
$PINSBASE
 10
0.0
 20
0.0
 30
0.0
  9
$PLIMCHECK
 70
     0
  9
$PEXTMIN
 10
1.000000000000000E+20
 20
1.000000000000000E+20
 30
1.000000000000000E+20
  9
$PEXTMAX
 10
-1.000000000000000E+20
 20
-1.000000000000000E+20
 30
-1.000000000000000E+20
  9
$PLIMMIN
 10
0.0
 20
0.0
  9
$PLIMMAX
 10
0.0
 20
0.0
  9
$UNITMODE
 70
     0
  9
$VISRETAIN
 70
     1
  9
$PLINEGEN
 70
     0
  9
$PSLTSCALE
 70
     1
  9
$TREEDEPTH
 70
  3020
  9
$CMLSTYLE
  2
Standard
  9
$CMLJUST
 70
     0
  9
$CMLSCALE
 40
20.0
  9
$PROXYGRAPHICS
 70
     1
  9
$MEASUREMENT
 70
     1
  9
$CELWEIGHT
370
    -1
  9
$ENDCAPS
280
     0
  9
$JOINSTYLE
280
     0
  9
$LWDISPLAY
290
     1
  9
$INSUNITS
 70
     4
  9
$HYPERLINKBASE
  1

  9
$STYLESHEET
  1

  9
$XEDIT
290
     1
  9
$CEPSNTYPE
380
     0
  9
$PSTYLEMODE
290
     1
  9
$FINGERPRINTGUID
  2
{4E715D6C-279A-4C8A-935F-EF34C680A324}
  9
$VERSIONGUID
  2
{FAEB1C32-E019-11D5-929B-00C0DF256EC4}
  9
$EXTNAMES
290
     1
  9
$PSVPSCALE
 40
0.0
  9
$OLESTARTUP
290
     0
  9
$SORTENTS
280
   127
  9
$INDEXCTL
280
     0
  9
$HIDETEXT
280
     1
  9
$XCLIPFRAME
280
     2
  9
$HALOGAP
280
     0
  9
$OBSCOLOR
 70
   257
  9
$OBSLTYPE
280
     0
  9
$INTERSECTIONDISPLAY
280
     0
  9
$INTERSECTIONCOLOR
 70
   257
  9
$DIMASSOC
280
     2
  9
$PROJECTNAME
  1

  9
$CAMERADISPLAY
290
     0
  9
$LENSLENGTH
 40
50.0
  9
$CAMERAHEIGHT
 40
0.0
  9
$STEPSPERSEC
 40
2.0
  9
$STEPSIZE
 40
6.0
  9
$3DDWFPREC
 40
2.0
  9
$PSOLWIDTH
 40
0.25
  9
$PSOLHEIGHT
 40
4.0
  9
$LOFTANG1
 40
1.570796326794897
  9
$LOFTANG2
 40
1.570796326794897
  9
$LOFTMAG1
 40
0.0
  9
$LOFTMAG2
 40
0.0
  9
$LOFTPARAM
 70
     7
  9
$LOFTNORMALS
280
     1
  9
$LATITUDE
 40
37.795
  9
$LONGITUDE
 40
-122.394
  9
$NORTHDIRECTION
 40
0.0
  9
$TIMEZONE
 70
 -8000
  9
$LIGHTGLYPHDISPLAY
280
     1
  9
$TILEMODELIGHTSYNCH
280
     1
  9
$SOLIDHIST
280
     0
  9
$SHOWHIST
280
     1
  9
$DWFFRAME
280
     2
  9
$DGNFRAME
280
     2
  9
$REALWORLDSCALE
290
     1
  9
$INTERFERECOLOR
 62
   256
  9
$CSHADOW
280
     0
  9
$SHADOWPLANELOCATION
 40
0.0
  0
ENDSEC
  0
SECTION
  2
CLASSES
  0
CLASS
  1
ACDBDICTIONARYWDFLT
  2
AcDbDictionaryWithDefault
  3
ObjectDBX Classes
 90
        0
 91
        3
280
     0
281
     0
  0
CLASS
  1
VISUALSTYLE
  2
AcDbVisualStyle
  3
ObjectDBX Classes
 90
     4095
 91
        3
280
     0
281
     0
  0
CLASS
  1
MATERIAL
  2
AcDbMaterial
  3
ObjectDBX Classes
 90
     1153
 91
        3
280
     0
281
     0
  0
CLASS
  1
SCALE
  2
AcDbScale
  3
ObjectDBX Classes
 90
     1153
 91
        3
280
     0
281
     0
  0
CLASS
  1
TABLESTYLE
  2
AcDbTableStyle
  3
ObjectDBX Classes
 90
     4095
 91
        3
280
     0
281
     0
  0
CLASS
  1
MLEADERSTYLE
  2
AcDbMLeaderStyle
  3
ACDB_MLEADERSTYLE_CLASS
 90
     4095
 91
        3
280
     0
281
     0
  0
CLASS
  1
SUN
  2
AcDbSun
  3
SCENEOE
 90
     1153
 91
        3
280
     0
281
     0
  0
CLASS
  1
ACDBPLACEHOLDER
  2
AcDbPlaceHolder
  3
ObjectDBX Classes
 90
        0
 91
        1
280
     0
281
     0
  0
CLASS
  1
LAYOUT
  2
AcDbLayout
  3
ObjectDBX Classes
 90
        0
 91
        1
280
     0
281
     0
  0
CLASS
  1
DICTIONARYVAR
  2
AcDbDictionaryVar
  3
ObjectDBX Classes
 90
        0
 91
        3
280
     0
281
     0
  0
CLASS
  1
CELLSTYLEMAP
  2
AcDbCellStyleMap
  3
ObjectDBX Classes
 90
     1152
 91
        3
280
     0
281
     0
  0
ENDSEC
  0
SECTION
  2
TABLES
  0
TABLE
  2
VPORT
  5
8
330
0
100
AcDbSymbolTable
 70
     1
  0
VPORT
  5
29
330
8
100
AcDbSymbolTableRecord
100
AcDbViewportTableRecord
  2
*Active
 70
     0
 10
0.0
 20
0.0
 11
1.0
 21
1.0
 12
297.0
 22
420.5
 13
0.0
 23
0.0
 14
10.0
 24
10.0
 15
10.0
 25
10.0
 16
0.0
 26
0.0
 36
1.0
 17
0.0
 27
0.0
 37
0.0
 40
841.0
 41
0.7063020214030915
 42
50.0
 43
0.0
 44
0.0
 50
0.0
 51
0.0
 71
     0
 72
  2000
 73
     1
 74
     3
 75
     0
 76
     0
 77
     0
 78
     0
281
     0
 65
     1
110
0.0
120
0.0
130
0.0
111
1.0
121
0.0
131
0.0
112
0.0
122
1.0
132
0.0
 79
     0
146
0.0
348
1B3
 60
     3
 61
     5
292
     1
282
     1
141
0.0
142
0.0
 63
   256
  0
ENDTAB
  0
TABLE
  2
LTYPE
  5
5
330
0
100
AcDbSymbolTable
 70
     6
  0
LTYPE
  5
14
330
5
100
AcDbSymbolTableRecord
100
AcDbLinetypeTableRecord
  2
ByBlock
 70
     0
  3

 72
    65
 73
     0
 40
0.0
  0
LTYPE
  5
15
330
5
100
AcDbSymbolTableRecord
100
AcDbLinetypeTableRecord
  2
ByLayer
 70
     0
  3

 72
    65
 73
     0
 40
0.0
  0
LTYPE
  5
16
330
5
100
AcDbSymbolTableRecord
100
AcDbLinetypeTableRecord
  2
Continuous
 70
     0
  3
Solid line
 72
    65
 73
     0
 40
0.0
  0
LTYPE
  5
6E
330
5
100
AcDbSymbolTableRecord
100
AcDbLinetypeTableRecord
  2
HIDDEN
 70
     0
  3
Hidden __ __ __ __ __ __ __ __ __ __ __ __ __ __
 72
    65
 73
     2
 40
1.905
 49
1.27
 74
     0
 49
-0.635
 74
     0
  0
LTYPE
  5
6F
330
5
100
AcDbSymbolTableRecord
100
AcDbLinetypeTableRecord
  2
PHANTOM
 70
     0
  3
Phantom ______  __  __  ______  __  __  ______
 72
    65
 73
     6
 40
12.7
 49
6.35
 74
     0
 49
-1.27
 74
     0
 49
1.27
 74
     0
 49
-1.27
 74
     0
 49
1.27
 74
     0
 49
-1.27
 74
     0
  0
LTYPE
  5
70
330
5
100
AcDbSymbolTableRecord
100
AcDbLinetypeTableRecord
  2
CENTER
 70
     0
  3
Center ____ _ ____ _ ____ _ ____ _ ____ _ ____
 72
    65
 73
     4
 40
10.16
 49
6.35
 74
     0
 49
-1.27
 74
     0
 49
1.27
 74
     0
 49
-1.27
 74
     0
  0
LTYPE
  5
71
330
5
100
AcDbSymbolTableRecord
100
AcDbLinetypeTableRecord
  2
CENTERX2
 70
     0
  3
Center (2x) ________  __  ________  __  _____
 72
    65
 73
     4
 40
20.32
 49
12.7
 74
     0
 49
-2.54
 74
     0
 49
2.54
 74
     0
 49
-2.54
 74
     0
  0
LTYPE
  5
72
330
5
100
AcDbSymbolTableRecord
100
AcDbLinetypeTableRecord
  2
DOT2
 70
     0
  3
Dot (.5x) ........................................
 72
    65
 73
     2
 40
0.635
 49
0.0
 74
     0
 49
-0.635
 74
     0
  0
ENDTAB
  0
TABLE
  2
LAYER
  5
2
330
0
100
AcDbSymbolTable
 70
     1
  0
LAYER
  5
10
330
2
100
AcDbSymbolTableRecord
100
AcDbLayerTableRecord
  2
0
 70
     0
 62
     7
  6
Continuous
370
    -3
390
F
347
1CA
348
0
  0
ENDTAB
  0
TABLE
  2
STYLE
  5
3
330
0
100
AcDbSymbolTable
 70
     3
  0
STYLE
  5
11
330
3
100
AcDbSymbolTableRecord
100
AcDbTextStyleTableRecord
  2
Standard
 70
     0
 40
0.0
 41
1.0
 50
0.0
 71
     0
 42
10.0
  3
txt
  4

  0
STYLE
  5
76
330
3
100
AcDbSymbolTableRecord
100
AcDbTextStyleTableRecord
  2
SLDTEXTSTYLE0
 70
     0
 40
0.0
 41
0.96
 50
0.0
 71
     0
 42
10.0
  3
ISOCP3
  4

  0
STYLE
  5
8D
330
3
100
AcDbSymbolTableRecord
100
AcDbTextStyleTableRecord
  2
SLDTEXTSTYLE1
 70
     0
 40
0.0
 41
0.605
 50
0.0
 71
     0
 42
10.0
  3
TXT
  4

  0
ENDTAB
  0
TABLE
  2
VIEW
  5
6
330
0
100
AcDbSymbolTable
 70
     0
  0
ENDTAB
  0
TABLE
  2
UCS
  5
7
330
0
100
AcDbSymbolTable
 70
     0
  0
ENDTAB
  0
TABLE
  2
APPID
  5
9
330
0
100
AcDbSymbolTable
 70
     1
  0
APPID
  5
12
330
9
100
AcDbSymbolTableRecord
100
AcDbRegAppTableRecord
  2
ACAD
 70
     0
  0
ENDTAB
  0
TABLE
  2
DIMSTYLE
  5
A
330
0
100
AcDbSymbolTable
 70
     2
100
AcDbDimStyleTable
  0
DIMSTYLE
105
27
330
A
100
AcDbSymbolTableRecord
100
AcDbDimStyleTableRecord
  2
ISO-25
 70
     0
 41
2.5
 42
0.625
 43
3.75
 44
1.25
 73
     0
 74
     0
 77
     1
 78
     8
140
2.5
141
2.5
143
0.03937007874016
147
0.625
171
     3
172
     1
178
     0
271
     2
272
     2
274
     3
278
    44
283
     0
284
     8
340
11
  0
DIMSTYLE
105
77
102
{ACAD_REACTORS
330
75
330
82
102
}
330
A
100
AcDbSymbolTableRecord
100
AcDbDimStyleTableRecord
  2
SLDDIMSTYLE0
 70
     0
 41
2.5
 44
0.0
 45
0.000000001
 73
     0
 74
     0
 77
     1
 78
    12
 79
     3
140
6.0
147
1.5
173
     1
178
     0
271
     2
272
     2
276
     2
284
    12
340
76
  0
ENDTAB
  0
TABLE
  2
BLOCK_RECORD
  5
1
330
0
100
AcDbSymbolTable
 70
     3
  0
BLOCK_RECORD
  5
1F
102
{ACAD_XDICTIONARY
360
1D0
102
}
330
1
100
AcDbSymbolTableRecord
100
AcDbBlockTableRecord
  2
*Model_Space
340
22
 70
     0
280
     1
281
     0
  0
BLOCK_RECORD
  5
1B
330
1
100
AcDbSymbolTableRecord
100
AcDbBlockTableRecord
  2
*Paper_Space
340
1E
 70
     0
280
     1
281
     0
  0
BLOCK_RECORD
  5
23
330
1
100
AcDbSymbolTableRecord
100
AcDbBlockTableRecord
  2
*Paper_Space0
340
26
 70
     0
280
     1
281
     0
  0
BLOCK_RECORD
  5
78
330
1
100
AcDbSymbolTableRecord
100
AcDbBlockTableRecord
  2
_D
340
0
 70
     0
280
     1
281
     0
  0
BLOCK_RECORD
  5
83
330
1
100
AcDbSymbolTableRecord
100
AcDbBlockTableRecord
  2
_D_1
340
0
 70
     0
280
     1
281
     0
  0
ENDTAB
  0
ENDSEC
  0
SECTION
  2
BLOCKS
  0
BLOCK
  5
20
330
1F
100
AcDbEntity
  8
0
100
AcDbBlockBegin
  2
*Model_Space
 70
     0
 10
0.0
 20
0.0
 30
0.0
  3
*Model_Space
  1

  0
ENDBLK
  5
21
330
1F
100
AcDbEntity
  8
0
100
AcDbBlockEnd
  0
BLOCK
  5
1C
330
1B
100
AcDbEntity
 67
     1
  8
0
100
AcDbBlockBegin
  2
*Paper_Space
 70
     0
 10
0.0
 20
0.0
 30
0.0
  3
*Paper_Space
  1

  0
ENDBLK
  5
1D
330
1B
100
AcDbEntity
 67
     1
  8
0
100
AcDbBlockEnd
  0
BLOCK
  5
24
330
23
100
AcDbEntity
  8
0
100
AcDbBlockBegin
  2
*Paper_Space0
 70
     0
 10
0.0
 20
0.0
 30
0.0
  3
*Paper_Space0
  1

  0
ENDBLK
  5
25
330
23
100
AcDbEntity
  8
0
100
AcDbBlockEnd
  0
BLOCK
  5
79
330
78
100
AcDbEntity
  8
0
100
AcDbBlockBegin
  2
_D
 70
     0
 10
0.0
 20
0.0
 30
0.0
  3
_D
  1

  0
SOLID
  5
7B
330
78
100
AcDbEntity
  8
0
  6
Continuous
 62
     7
370
    18
100
AcDbTrace
 10
42.76143950037952
 20
152.0299240878882
 30
0.0
 11
42.46143950037953
 21
149.5299240878882
 31
0.0
 12
43.06143950037952
 22
149.5299240878882
 32
0.0
 13
43.06143950037952
 23
149.5299240878882
 33
0.0
  0
SOLID
  5
7C
330
78
100
AcDbEntity
  8
0
  6
Continuous
 62
     7
370
    18
100
AcDbTrace
 10
42.76143950037954
 20
52.0299240878882
 30
0.0
 11
43.06143950037954
 21
54.5299240878882
 31
0.0
 12
42.46143950037954
 22
54.5299240878882
 32
0.0
 13
42.46143950037954
 23
54.5299240878882
 33
0.0
  0
LINE
  5
7D
330
78
100
AcDbEntity
  8
0
  6
Continuous
 62
     7
370
    18
100
AcDbLine
 10
56.68500799020809
 20
152.0299240878882
 30
0.0
 11
41.76143950037952
 21
152.0299240878882
 31
0.0
  0
LINE
  5
7E
330
78
100
AcDbEntity
  8
0
  6
Continuous
 62
     7
370
    18
100
AcDbLine
 10
56.68500799020809
 20
52.0299240878882
 30
0.0
 11
41.76143950037953
 21
52.0299240878882
 31
0.0
  0
LINE
  5
7F
330
78
100
AcDbEntity
  8
0
  6
Continuous
 62
     7
370
    18
100
AcDbLine
 10
42.76143950037952
 20
152.0299240878882
 30
0.0
 11
42.76143950037954
 21
52.0299240878882
 31
0.0
  0
MTEXT
  5
80
330
78
100
AcDbEntity
  8
0
  6
Continuous
 62
     7
370
    18
100
AcDbMText
 10
35.02703329457844
 20
94.36805414627591
 30
0.0
 40
6.0
 41
0.0
 46
0.0
 71
     1
 72
     1
  1
100
  7
SLDTEXTSTYLE0
 11
-7.044195017643634E-15
 21
1.0
 31
0.0
 73
     1
 44
1.0
  0
MTEXT
  5
81
330
78
100
AcDbEntity
  8
0
  6
Continuous
 62
     7
370
    18
100
AcDbMText
 10
35.02703329457835
 20
105.7430548466305
 30
0.0
 40
6.0
 41
0.0
 46
0.0
 71
     1
 72
     1
  1
mm
  7
SLDTEXTSTYLE0
 11
-7.044195017643634E-15
 21
1.0
 31
0.0
 73
     1
 44
1.0
  0
ENDBLK
  5
7A
330
78
100
AcDbEntity
  8
0
100
AcDbBlockEnd
  0
BLOCK
  5
84
330
83
100
AcDbEntity
  8
0
100
AcDbBlockBegin
  2
_D_1
 70
     0
 10
0.0
 20
0.0
 30
0.0
  3
_D_1
  1

  0
SOLID
  5
86
330
83
100
AcDbEntity
  8
0
  6
Continuous
 62
     7
370
    18
100
AcDbTrace
 10
56.68500799020809
 20
38.46023423127909
 30
0.0
 11
59.18500799020809
 21
38.16023423127909
 31
0.0
 12
59.18500799020809
 22
38.76023423127909
 32
0.0
 13
59.18500799020809
 23
38.76023423127909
 33
0.0
  0
SOLID
  5
87
330
83
100
AcDbEntity
  8
0
  6
Continuous
 62
     7
370
    18
100
AcDbTrace
 10
156.6850079902081
 20
38.46023423127909
 30
0.0
 11
154.1850079902081
 21
38.76023423127909
 31
0.0
 12
154.1850079902081
 22
38.16023423127909
 32
0.0
 13
154.1850079902081
 23
38.16023423127909
 33
0.0
  0
LINE
  5
88
330
83
100
AcDbEntity
  8
0
  6
Continuous
 62
     7
370
    18
100
AcDbLine
 10
56.68500799020809
 20
52.0299240878882
 30
0.0
 11
56.68500799020809
 21
37.46023423127909
 31
0.0
  0
LINE
  5
89
330
83
100
AcDbEntity
  8
0
  6
Continuous
 62
     7
370
    18
100
AcDbLine
 10
156.6850079902081
 20
52.0299240878882
 30
0.0
 11
156.6850079902081
 21
37.46023423127909
 31
0.0
  0
LINE
  5
8A
330
83
100
AcDbEntity
  8
0
  6
Continuous
 62
     7
370
    18
100
AcDbLine
 10
56.68500799020809
 20
38.46023423127909
 30
0.0
 11
156.6850079902081
 21
38.46023423127909
 31
0.0
  0
MTEXT
  5
8B
330
83
100
AcDbEntity
  8
0
  6
Continuous
 62
     7
370
    18
100
AcDbMText
 10
93.96264848609465
 20
46.19464043708029
 30
0.0
 40
6.0
 41
0.0
 46
0.0
 71
     1
 72
     1
  1
100
  7
SLDTEXTSTYLE0
 73
     1
 44
1.0
  0
MTEXT
  5
8C
330
83
100
AcDbEntity
  8
0
  6
Continuous
 62
     7
370
    18
100
AcDbMText
 10
105.3376491864492
 20
46.19464043708029
 30
0.0
 40
6.0
 41
0.0
 46
0.0
 71
     1
 72
     1
  1
mm
  7
SLDTEXTSTYLE0
 73
     1
 44
1.0
  0
ENDBLK
  5
85
330
83
100
AcDbEntity
  8
0
100
AcDbBlockEnd
  0
ENDSEC
  0
SECTION
  2
ENTITIES
  0
LINE
  5
73
330
1F
100
AcDbEntity
  8
0
  6
Continuous
 62
     7
370
    18
100
AcDbLine
 10
56.68500799020809
 20
152.0299240878882
 30
0.0
 11
56.68500799020809
 21
52.0299240878882
 31
0.0
  0
LINE
  5
74
330
1F
100
AcDbEntity
  8
0
  6
Continuous
 62
     7
370
    18
100
AcDbLine
 10
56.68500799020809
 20
52.0299240878882
 30
0.0
 11
156.6850079902081
 21
52.0299240878882
 31
0.0
  0
DIMENSION
  5
75
330
1F
100
AcDbEntity
  8
0
  6
Continuous
 62
     7
370
    18
100
AcDbDimension
280
     0
  2
_D
 10
42.76143950037947
 20
52.0299240878882
 30
0.0
 11
42.76143950037947
 21
105.4472211621264
 31
0.0
 70
   160
  1
<>mm
 71
     2
 42
-1.0
 73
     0
 74
     0
 75
     0
  3
SLDDIMSTYLE0
100
AcDbAlignedDimension
 13
56.68500799020809
 23
152.0299240878882
 33
0.0
 14
56.68500799020809
 24
52.0299240878882
 34
0.0
 50
90.0000000000002
100
AcDbRotatedDimension
  0
DIMENSION
  5
82
330
1F
100
AcDbEntity
  8
0
  6
Continuous
 62
     7
370
    18
100
AcDbDimension
280
     0
  2
_D_1
 10
156.6850079902081
 20
38.46023423127903
 30
0.0
 11
105.0418155019452
 21
38.46023423127903
 31
0.0
 70
   160
  1
<>mm
 71
     2
 42
-1.0
 73
     0
 74
     0
 75
     0
  3
SLDDIMSTYLE0
100
AcDbAlignedDimension
 13
56.68500799020809
 23
52.0299240878882
 33
0.0
 14
156.6850079902081
 24
52.0299240878882
 34
0.0
100
AcDbRotatedDimension
  0
MTEXT
  5
8E
330
1F
100
AcDbEntity
  8
0
  6
Continuous
 62
     7
370
     0
100
AcDbMText
 10
412.8252631578944
 20
48.43424494991444
 30
0.0
 40
10.0
 41
0.0
 46
0.0
 71
     1
 72
     1
  1
KLUDI GmbH & Co KG
  7
SLDTEXTSTYLE1
 73
     1
 44
1.0
  0
MTEXT
  5
8F
330
1F
100
AcDbEntity
  8
0
  6
Continuous
 62
     7
370
     0
100
AcDbMText
 10
210.0873490388933
 20
48.43424494991442
 30
0.0
 40
10.0
 41
0.0
 46
10.0
 71
     1
 72
     1
  1
{38 288 .. 76}
  7
SLDTEXTSTYLE1
 73
     1
 44
1.0
  0
SPLINE
  5
90
330
1F
100
AcDbEntity
  8
0
  6
Continuous
 62
     7
370
    25
100
AcDbSpline
210
0.0
220
0.0
230
1.0
 70
     8
 71
     3
 72
    20
 73
    16
 74
     0
 42
0.000000001
 43
0.00000001
 40
0.0
 40
0.0
 40
0.0
 40
0.0
 40
0.0450422989483274
 40
0.1297089253484741
 40
0.2145927002201192
 40
0.2997952194384429
 40
0.3854459688938607
 40
0.4716343705287435
 40
0.5583616097763582
 40
0.6454633802873344
 40
0.7323244820884444
 40
0.8181220046759129
 40
0.902095132900662
 40
0.9840216401122055
 40
1.0
 40
1.0
 40
1.0
 40
1.0
 10
178.6443001057511
 20
458.6125554729742
 30
0.0
 10
178.9577781921333
 20
458.6167239200099
 30
0.0
 10
179.8605053320507
 20
458.6287278540447
 30
0.0
 10
181.3446983721905
 20
458.7613928977938
 30
0.0
 10
183.0594193307061
 20
459.056053218404
 30
0.0
 10
184.7047058112824
 20
459.4948031188426
 30
0.0
 10
186.2541258695421
 20
460.0710061324876
 30
0.0
 10
187.6823055160329
 20
460.7803100946156
 30
0.0
 10
188.9637239331298
 20
461.6162212902798
 30
0.0
 10
190.0721668285673
 20
462.5694946697011
 30
0.0
 10
190.9783698099583
 20
463.6255418063013
 30
0.0
 10
191.6655022829912
 20
464.7624205890127
 30
0.0
 10
192.0889511877971
 20
465.9507609274532
 30
0.0
 10
192.2774029153435
 20
466.8433794357359
 30
0.0
 10
192.2510664747957
 20
467.3255426790417
 30
0.0
 10
192.2467682908779
 20
467.4042331267638
 30
0.0
  0
SPLINE
  5
91
330
1F
100
AcDbEntity
  8
0
  6
Continuous
 62
     7
370
    25
100
AcDbSpline
210
0.0
220
0.0
230
1.0
 70
     8
 71
     3
 72
    20
 73
    16
 74
     0
 42
0.000000001
 43
0.00000001
 40
0.0
 40
0.0
 40
0.0
 40
0.0
 40
0.0634370330556723
 40
0.1420690198357368
 40
0.2210203195906041
 40
0.3012181669387234
 40
0.3830623905095814
 40
0.4663564237077633
 40
0.5505288500158981
 40
0.6349380836431873
 40
0.7191417019470365
 40
0.8030291023525423
 40
0.8866241723200601
 40
0.970024119318749
 40
1.0
 40
1.0
 40
1.0
 40
1.0
 10
165.0418319206244
 20
467.6366837908072
 30
0.0
 10
165.0427656094543
 20
467.318576236133
 30
0.0
 10
165.044856631851
 20
466.6061654199581
 30
0.0
 10
165.3249066187606
 20
465.5177333745679
 30
0.0
 10
165.8186794260303
 20
464.3993030165142
 30
0.0
 10
166.5315045515359
 20
463.339523362091
 30
0.0
 10
167.4480976464194
 20
462.3500514726096
 30
0.0
 10
168.5607265203379
 20
461.4461637895106
 30
0.0
 10
169.8506935098025
 20
460.645092608424
 30
0.0
 10
171.2929157184549
 20
459.962457560479
 30
0.0
 10
172.858413520379
 20
459.4101358100618
 30
0.0
 10
174.5180608327891
 20
458.9952938481401
 30
0.0
 10
176.2433151622481
 20
458.7247318892693
 30
0.0
 10
177.6310709756808
 20
458.6218749614004
 30
0.0
 10
178.432426554658
 20
458.614504245516
 30
0.0
 10
178.6443001057511
 20
458.6125554729742
 30
0.0
  0
LINE
  5
92
330
1F
100
AcDbEntity
  8
0
  6
Continuous
 62
     7
370
    25
100
AcDbLine
 10
192.2665588955885
 20
467.5204621840758
 30
0.0
 11
192.2665588955885
 21
472.211809663896
 31
0.0
  0
LINE
  5
93
330
1F
100
AcDbEntity
  8
0
  6
Continuous
 62
     7
370
    25
100
AcDbLine
 10
165.0220413159138
 20
472.211809663896
 30
0.0
 11
165.0220413159138
 21
467.5204621840758
 31
0.0
  0
LINE
  5
94
330
1F
100
AcDbEntity
  8
0
  6
Continuous
 62
     7
370
    25
100
AcDbLine
 10
187.8943002249604
 20
466.2670584608359
 30
0.0
 11
187.8943002249604
 21
466.4665477563185
 31
0.0
  0
LINE
  5
95
330
1F
100
AcDbEntity
  8
0
  6
Continuous
 62
     7
370
    25
100
AcDbLine
 10
169.3942999865419
 20
466.4665477563185
 30
0.0
 11
169.3942999865419
 21
466.2670584608359
 31
0.0
  0
LINE
  5
96
330
1F
100
AcDbEntity
  8
0
  6
Continuous
 62
     7
370
    25
100
AcDbLine
 10
185.9943001929229
 20
465.6680839349074
 30
0.0
 11
185.9943001929229
 21
466.8831469703955
 31
0.0
  0
LINE
  5
97
330
1F
100
AcDbEntity
  8
0
  6
Continuous
 62
     7
370
    25
100
AcDbLine
 10
171.2943000185793
 20
466.8831469703955
 30
0.0
 11
171.2943000185793
 21
465.6680839349074
 31
0.0
  0
SPLINE
  5
98
330
1F
100
AcDbEntity
  8
0
  6
Continuous
 62
     7
370
    25
100
AcDbSpline
210
0.0
220
0.0
230
1.0
 70
     8
 71
     3
 72
    16
 73
    12
 74
     0
 42
0.000000001
 43
0.00000001
 40
0.0
 40
0.0
 40
0.0
 40
0.0
 40
0.126096490950783
 40
0.2378473056896384
 40
0.3382619468353848
 40
0.4298957813483143
 40
0.5419353009764856
 40
0.6456598146236944
 40
0.7432559019113578
 40
0.8798846900766626
 40
1.0
 40
1.0
 40
1.0
 40
1.0
 10
192.2670348014241
 20
472.211809663896
 30
0.0
 10
192.2670280313475
 20
473.1601197030384
 30
0.0
 10
192.2670152614087
 20
474.9488529664923
 30
0.0
 10
192.2670527444249
 20
477.3072720006132
 30
0.0
 10
192.2671507484757
 20
479.2534942461321
 30
0.0
 10
192.2671380584412
 20
480.9885669625156
 30
0.0
 10
192.2664739615167
 20
482.469073784952
 30
0.0
 10
192.263968482814
 20
483.6421372072992
 30
0.0
 10
192.2563548528142
 20
484.5560119246688
 30
0.0
 10
192.2424017277017
 20
485.1459886703164
 30
0.0
 10
192.2101880205833
 20
485.2190198032549
 30
0.0
 10
192.1951171408897
 20
485.2531867314619
 30
0.0
  0
SPLINE
  5
99
330
1F
100
AcDbEntity
  8
0
  6
Continuous
 62
     7
370
    25
100
AcDbSpline
210
0.0
220
0.0
230
1.0
 70
     8
 71
     3
 72
    15
 73
    11
 74
     0
 42
0.000000001
 43
0.00000001
 40
0.0
 40
0.0
 40
0.0
 40
0.0
 40
0.1206863875456303
 40
0.2354049808217356
 40
0.3573496101369266
 40
0.4885483088863959
 40
0.5957641112440705
 40
0.7138685623019168
 40
0.8469389479125399
 40
1.0
 40
1.0
 40
1.0
 40
1.0
 10
165.2149647872454
 20
484.3017028857512
 30
0.0
 10
165.1860590673695
 20
484.2860707466108
 30
0.0
 10
165.1296769801152
 20
484.2555794584932
 30
0.0
 10
165.0880593665017
 20
483.7209472670365
 30
0.0
 10
165.0570775688035
 20
482.8311772906993
 30
0.0
 10
165.0402407118975
 20
481.5159095653245
 30
0.0
 10
165.0302918097403
 20
479.8363526055956
 30
0.0
 10
165.0248431503946
 20
477.8331193030004
 30
0.0
 10
165.0219599616396
 20
475.2826667053871
 30
0.0
 10
165.0217029135157
 20
473.2820206090111
 30
0.0
 10
165.0215654100782
 20
472.211809663896
 30
0.0
  0
LINE
  5
9A
330
1F
100
AcDbEntity
  8
0
  6
Continuous
 62
     7
370
    25
100
AcDbLine
 10
202.6443003143674
 20
366.0080121577275
 30
0.0
 11
202.6443003143674
 21
520.3200521160406
 31
0.0
  0
LINE
  5
9B
330
1F
100
AcDbEntity
  8
0
  6
Continuous
 62
     7
370
    25
100
AcDbLine
 10
154.6442998971349
 20
520.3200521160406
 30
0.0
 11
154.6442998971349
 21
366.0080121577275
 31
0.0
  0
LINE
  5
9C
330
1F
100
AcDbEntity
  8
0
  6
Continuous
 62
     7
370
    25
100
AcDbLine
 10
202.6443003143674
 20
524.104798047666
 30
0.0
 11
202.6443003143674
 21
549.3200512815756
 31
0.0
  0
LINE
  5
9D
330
1F
100
AcDbEntity
  8
0
  6
Continuous
 62
     7
370
    25
100
AcDbLine
 10
154.6442998971349
 20
549.3200512815756
 30
0.0
 11
154.6442998971349
 21
524.1063179661078
 31
0.0
  0
ARC
  5
9E
330
1F
100
AcDbEntity
  8
0
  6
Continuous
 62
     7
370
    25
100
AcDbCircle
 10
202.1443001057511
 20
520.3200447577597
 30
0.0
 40
0.5
100
AcDbArc
 50
0.0
 51
90.0
  0
ARC
  5
9F
330
1F
100
AcDbEntity
  8
0
  6
Continuous
 62
     7
370
    25
100
AcDbCircle
 10
155.1443001057511
 20
520.3200447577597
 30
0.0
 40
0.5
100
AcDbArc
 50
90.0
 51
180.0
  0
ARC
  5
A0
330
1F
100
AcDbEntity
  8
0
  6
Continuous
 62
     7
370
    25
100
AcDbCircle
 10
154.9443001057511
 20
366.0080122368352
 30
0.0
 40
0.3000000000000114
100
AcDbArc
 50
180.0
 51
270.0000000000008
  0
ARC
  5
A1
330
1F
100
AcDbEntity
  8
0
  6
Continuous
 62
     7
370
    25
100
AcDbCircle
 10
202.3443001057511
 20
366.0080122368352
 30
0.0
 40
0.3000000000000114
100
AcDbArc
 50
270.0000000000008
 51
0.0
  0
ARC
  5
A2
330
1F
100
AcDbEntity
  8
0
  6
Continuous
 62
     7
370
    25
100
AcDbCircle
 10
156.1443001057511
 20
549.3200447577597
 30
0.0
 40
1.5
100
AcDbArc
 50
90.0000000000011
 51
180.0
  0
ARC
  5
A3
330
1F
100
AcDbEntity
  8
0
  6
Continuous
 62
     7
370
    25
100
AcDbCircle
 10
201.1443001057511
 20
549.3200447577597
 30
0.0
 40
1.5
100
AcDbArc
 50
0.0
 51
90.0
  0
ARC
  5
A4
330
1F
100
AcDbEntity
  8
0
  6
Continuous
 62
     7
370
    25
100
AcDbCircle
 10
202.2412659027939
 20
521.0200447577596
 30
0.0
 40
0.1999999999999978
100
AcDbArc
 50
270.0000000000008
 51
26.64216739274221
  0
ARC
  5
A5
330
1F
100
AcDbEntity
  8
0
  6
Continuous
 62
     7
370
    25
100
AcDbCircle
 10
155.0473343087084
 20
521.0200447577596
 30
0.0
 40
0.2000000000000232
100
AcDbArc
 50
153.3578326072615
 51
270.0000000000008
  0
ARC
  5
A6
330
1F
100
AcDbEntity
  8
0
  6
Continuous
 62
     7
370
    25
100
AcDbCircle
 10
178.6443001057511
 20
509.1818352152151
 30
0.0
 40
26.60000000000004
100
AcDbArc
 50
146.6118111875458
 51
153.3578326072984
  0
ARC
  5
A7
330
1F
100
AcDbEntity
  8
0
  6
Continuous
 62
     7
370
    25
100
AcDbCircle
 10
178.6443001057511
 20
509.1818352152151
 30
0.0
 40
26.60000000000006
100
AcDbArc
 50
26.64216739270158
 51
33.38818881245412
  0
ELLIPSE
  5
A8
330
1F
100
AcDbEntity
  8
0
  6
Continuous
 62
     7
370
    25
100
AcDbEllipse
 10
178.6443001057511
 20
467.5204586255836
 30
0.0
 11
13.62225840003612
 21
0.0
 31
0.0
210
0.0
220
0.0
230
1.0
 40
0.6243407052442103
 41
6.271318336472022
 42
6.283185307179586
  0
ELLIPSE
  5
A9
330
1F
100
AcDbEntity
  8
0
  6
Continuous
 62
     7
370
    25
100
AcDbEllipse
 10
178.6443001057511
 20
467.5204586255836
 30
0.0
 11
13.62225840003612
 21
0.0
 31
0.0
210
0.0
220
0.0
230
1.0
 40
0.6243407052442103
 41
3.129725682882206
 42
3.141592653589786
  0
LWPOLYLINE
  5
AA
330
1F
100
AcDbEntity
  8
0
  6
Continuous
 62
     7
370
    25
100
AcDbPolyline
 90
       38
 70
   128
 43
0.0
 10
178.6443001057511
 20
471.1902978111548
 10
177.0599173780089
 20
471.1091460872931
 10
175.521114508391
 20
470.8680154968542
 10
174.0721600528365
 20
470.473842530374
 10
172.7547376814788
 20
469.9379744221014
 10
171.6067471008307
 20
469.275818972711
 10
170.6612144063717
 20
468.5064347673697
 10
169.9453402708775
 20
467.6519500304503
 10
169.479719961763
 20
466.7369442273421
 10
169.2777477602964
 20
465.787740259294
 10
169.3452332566982
 20
464.8316519547743
 10
169.6802365060454
 20
463.8961719561858
 10
170.273120182336
 20
463.0082266618056
 10
171.1068271126157
 20
462.19335666192
 10
172.1573734122819
 20
461.4749940325064
 10
173.3945362668043
 20
460.8738215853018
 10
174.7827258824861
 20
460.4071172167105
 10
176.2820057503438
 20
460.0883217741293
 10
177.8492445757171
 20
459.9265920211119
 10
179.4393556357851
 20
459.9265920211119
 10
181.0065944611585
 20
460.0883217741293
 10
182.5058743290162
 20
460.4071172167105
 10
183.894063944698
 20
460.8738215853018
 10
185.1312267992204
 20
461.4749940325064
 10
186.1817730988866
 20
462.19335666192
 10
187.0154800291663
 20
463.0082266618056
 10
187.6083637054568
 20
463.8961719561858
 10
187.943366954804
 20
464.8316519547743
 10
188.0108524512058
 20
465.787740259294
 10
187.8088802497393
 20
466.7369442273421
 10
187.3432599406248
 20
467.6519500304503
 10
186.6273858051306
 20
468.5064347673697
 10
185.6818531106716
 20
469.275818972711
 10
184.5338625300234
 20
469.9379744221014
 10
183.2164401586658
 20
470.473842530374
 10
181.7674857031113
 20
470.8680154968542
 10
180.2286828334933
 20
471.1091460872931
 10
178.6443001057511
 20
471.1902978111548
  0
ELLIPSE
  5
AB
330
1F
100
AcDbEntity
  8
0
  6
Continuous
 62
     7
370
    25
100
AcDbEllipse
 10
178.6443001057511
 20
466.8831445611406
 30
0.0
 11
9.375
 21
0.0
 31
0.0
210
0.0
220
0.0
230
1.0
 40
0.6805603963188271
 41
6.119704000808456
 42
6.171923662756856
  0
ELLIPSE
  5
AC
330
1F
100
AcDbEntity
  8
0
  6
Continuous
 62
     7
370
    25
100
AcDbEllipse
 10
178.6443001057511
 20
466.8831445611406
 30
0.0
 11
9.375
 21
0.0
 31
0.0
210
0.0
220
0.0
230
1.0
 40
0.6805603963188271
 41
4.935743633841846
 42
5.392237536386538
  0
ELLIPSE
  5
AD
330
1F
100
AcDbEntity
  8
0
  6
Continuous
 62
     7
370
    25
100
AcDbEllipse
 10
178.6443001057511
 20
466.8831445611406
 30
0.0
 11
9.375
 21
0.0
 31
0.0
210
0.0
220
0.0
230
1.0
 40
0.6805603963188271
 41
4.225138450508368
 42
4.712388980384693
  0
ELLIPSE
  5
AE
330
1F
100
AcDbEntity
  8
0
  6
Continuous
 62
     7
370
    25
100
AcDbEllipse
 10
178.6443001057511
 20
466.8831445611406
 30
0.0
 11
9.375
 21
0.0
 31
0.0
210
0.0
220
0.0
230
1.0
 40
0.6805603963188271
 41
3.895528665435835
 42
3.940236810773154
  0
ELLIPSE
  5
AF
330
1F
100
AcDbEntity
  8
0
  6
Continuous
 62
     7
370
    25
100
AcDbEllipse
 10
178.6443001057511
 20
466.8831445611406
 30
0.0
 11
9.375
 21
0.0
 31
0.0
210
0.0
220
0.0
230
1.0
 40
0.6805603963188271
 41
3.252854298012574
 42
3.305073959960963
  0
ARC
  5
B0
330
1F
100
AcDbEntity
  8
0
  6
Continuous
 62
     7
370
    25
100
AcDbCircle
 10
179.8374732132793
 20
471.454507360419
 30
0.0
 40
10.57960233334311
100
AcDbArc
 50
290.7107312246841
 51
296.0753888647209
  0
ARC
  5
B1
330
1F
100
AcDbEntity
  8
0
  6
Continuous
 62
     7
370
    25
100
AcDbCircle
 10
181.4555122971371
 20
467.8164680389415
 30
0.0
 40
7.307702325976675
100
AcDbArc
 50
300.6875060712126
 51
313.5070245863463
  0
LINE
  5
B2
330
1F
100
AcDbEntity
  8
0
  6
Continuous
 62
     7
370
    25
100
AcDbLine
 10
186.4864524852043
 20
463.3149000097555
 30
0.0
 11
186.4864524852043
 21
462.5162648249907
 31
0.0
  0
ARC
  5
B3
330
1F
100
AcDbEntity
  8
0
  6
Continuous
 62
     7
370
    25
100
AcDbCircle
 10
183.4575046204411
 20
466.6369821330276
 30
0.0
 40
4.495637307570277
100
AcDbArc
 50
312.3573665055327
 51
344.9339877368145
  0
LINE
  5
B4
330
1F
100
AcDbEntity
  8
0
  6
Continuous
 62
     7
370
    25
100
AcDbLine
 10
187.8943002249604
 20
466.2670584608359
 30
0.0
 11
187.8943002249604
 21
465.468423276071
 31
0.0
  0
ARC
  5
B5
330
1F
100
AcDbEntity
  8
0
  6
Continuous
 62
     7
370
    25
100
AcDbCircle
 10
184.4097267831123
 20
465.4572540604811
 30
0.0
 40
3.484591342325513
100
AcDbArc
 50
0.1836513802389693
 51
21.21359908099218
  0
LINE
  5
B6
330
1F
100
AcDbEntity
  8
0
  6
Continuous
 62
     7
370
    25
100
AcDbLine
 10
187.6581950511342
 20
467.0990945984167
 30
0.0
 11
187.6581950511342
 21
466.7181389619154
 31
0.0
  0
LINE
  5
B7
330
1F
100
AcDbEntity
  8
0
  6
Continuous
 62
     7
370
    25
100
AcDbLine
 10
185.1850376862591
 20
469.5902856279654
 30
0.0
 11
185.1850376862591
 21
469.4047363687796
 31
0.0
  0
ARC
  5
B8
330
1F
100
AcDbEntity
  8
0
  6
Continuous
 62
     7
370
    25
100
AcDbCircle
 10
180.0573571276218
 20
460.7971842945877
 30
0.0
 40
10.01913472418411
100
AcDbArc
 50
59.21694808839547
 51
69.60016454928356
  0
LINE
  5
B9
330
1F
100
AcDbEntity
  8
0
  6
Continuous
 62
     7
370
    25
100
AcDbLine
 10
183.5497204612499
 20
470.3563096214575
 30
0.0
 11
183.5497204612499
 21
470.1879488517088
 31
0.0
  0
LINE
  5
BA
330
1F
100
AcDbEntity
  8
0
  6
Continuous
 62
     7
370
    25
100
AcDbLine
 10
178.6443001057511
 20
471.1902978111548
 30
0.0
 11
178.6443001057511
 21
471.0352139760298
 31
0.0
  0
ARC
  5
BB
330
1F
100
AcDbEntity
  8
0
  6
Continuous
 62
     7
370
    25
100
AcDbCircle
 10
178.6376425957372
 20
455.8880803273669
 30
0.0
 40
15.1471351117264
100
AcDbArc
 50
89.97481720237325
 51
97.85430745891425
  0
LINE
  5
BC
330
1F
100
AcDbEntity
  8
0
  6
Continuous
 62
     7
370
    25
100
AcDbLine
 10
176.567717122615
 20
471.0501523901266
 30
0.0
 11
176.567717122615
 21
470.8931165028853
 31
0.0
  0
LINE
  5
BD
330
1F
100
AcDbEntity
  8
0
  6
Continuous
 62
     7
370
    25
100
AcDbLine
 10
172.1035625252431
 20
469.5902856279654
 30
0.0
 11
172.1035625252431
 21
469.4047363687796
 31
0.0
  0
ARC
  5
BE
330
1F
100
AcDbEntity
  8
0
  6
Continuous
 62
     7
370
    25
100
AcDbCircle
 10
175.8330568432872
 20
463.1204597253553
 30
0.0
 40
7.307616629203502
100
AcDbArc
 50
120.6876215396078
 51
133.5073264771087
  0
LINE
  5
BF
330
1F
100
AcDbEntity
  8
0
  6
Continuous
 62
     7
370
    25
100
AcDbLine
 10
170.802147726298
 20
468.6399566222472
 30
0.0
 11
170.802147726298
 21
468.4205742765707
 31
0.0
  0
LINE
  5
C0
330
1F
100
AcDbEntity
  8
0
  6
Continuous
 62
     7
370
    25
100
AcDbLine
 10
169.4020057495242
 20
466.4942266632361
 30
0.0
 11
169.3942999865419
 21
466.2670584608359
 31
0.0
  0
LINE
  5
C1
330
1F
100
AcDbEntity
  8
0
  6
Continuous
 62
     7
370
    25
100
AcDbLine
 10
169.3942999865419
 20
466.2670584608359
 30
0.0
 11
169.3942999865419
 21
465.468423276071
 31
0.0
  0
ARC
  5
C2
330
1F
100
AcDbEntity
  8
0
  6
Continuous
 62
     7
370
    25
100
AcDbCircle
 10
172.8789260877329
 20
465.4795949232322
 30
0.0
 40
3.484644009192637
100
AcDbArc
 50
180.1836885855087
 51
201.2134372544824
  0
ARC
  5
C3
330
1F
100
AcDbEntity
  8
0
  6
Continuous
 62
     7
370
    25
100
AcDbCircle
 10
175.2245665402459
 20
467.7996075720641
 30
0.0
 40
6.296754709158645
100
AcDbArc
 50
214.0799438265442
 51
240.2871949933678
  0
LINE
  5
C4
330
1F
100
AcDbEntity
  8
0
  6
Continuous
 62
     7
370
    25
100
AcDbLine
 10
172.1035625252431
 20
462.3307453681273
 30
0.0
 11
172.1035625252431
 21
461.5321101833624
 31
0.0
  0
ARC
  5
C5
330
1F
100
AcDbEntity
  8
0
  6
Continuous
 62
     7
370
    25
100
AcDbCircle
 10
177.2309431594647
 20
470.1390360270307
 30
0.0
 40
10.01844322470287
100
AcDbArc
 50
239.2165887658266
 51
249.6005238718541
  0
LINE
  5
C6
330
1F
100
AcDbEntity
  8
0
  6
Continuous
 62
     7
370
    25
100
AcDbLine
 10
178.6443001057511
 20
471.0352139760298
 30
0.0
 11
178.6443001057511
 21
470.4333933283133
 31
0.0
  0
ARC
  5
C7
330
1F
100
AcDbEntity
  8
0
  6
Continuous
 62
     7
370
    25
100
AcDbCircle
 10
178.6382368678266
 20
456.9247062881273
 30
0.0
 40
13.5086884008975
100
AcDbArc
 50
89.9742833689981
 51
97.85430791066518
  0
LINE
  5
C8
330
1F
100
AcDbEntity
  8
0
  6
Continuous
 62
     7
370
    25
100
AcDbLine
 10
176.7922125456413
 20
470.3066664029402
 30
0.0
 11
176.567717122615
 21
470.8931165028853
 31
0.0
  0
LINE
  5
C9
330
1F
100
AcDbEntity
  8
0
  6
Continuous
 62
     7
370
    25
100
AcDbLine
 10
182.9663730624622
 20
470.425339250688
 30
0.0
 11
183.0676730189031
 21
470.5228002954764
 31
0.0
  0
ARC
  5
CA
330
1F
100
AcDbEntity
  8
0
  6
Continuous
 62
     7
370
    25
100
AcDbCircle
 10
178.7295790382523
 20
458.7805849572842
 30
0.0
 40
12.39155866537085
100
AcDbArc
 50
70.00673430678289
 51
90.39431371113481
  0
LINE
  5
CB
330
1F
100
AcDbEntity
  8
0
  6
Continuous
 62
     7
370
    25
100
AcDbLine
 10
172.639296523065
 20
469.8809551287932
 30
0.0
 11
172.8813798564976
 21
469.7352664758009
 31
0.0
  0
ARC
  5
CC
330
1F
100
AcDbEntity
  8
0
  6
Continuous
 62
     7
370
    25
100
AcDbCircle
 10
178.0593264093485
 20
460.7286673095347
 30
0.0
 40
10.38893445190446
100
AcDbArc
 50
98.2548697340733
 51
119.8948476577097
  0
ARC
  5
CD
330
1F
100
AcDbEntity
  8
0
  6
Continuous
 62
     7
370
    25
100
AcDbCircle
 10
179.9048522880506
 20
461.3026712827218
 30
0.0
 40
8.9354335921404
100
AcDbArc
 50
59.21676719852648
 51
69.60061414508115
  0
LINE
  5
CE
330
1F
100
AcDbEntity
  8
0
  6
Continuous
 62
     7
370
    25
100
AcDbLine
 10
183.0194048981672
 20
469.6777256418509
 30
0.0
 11
183.5497204612499
 21
470.1879488517088
 31
0.0
  0
LINE
  5
CF
330
1F
100
AcDbEntity
  8
0
  6
Continuous
 62
     7
370
    25
100
AcDbLine
 10
185.1850376862591
 20
469.4047363687796
 30
0.0
 11
184.4779310214823
 21
468.9791890074057
 31
0.0
  0
LINE
  5
D0
330
1F
100
AcDbEntity
  8
0
  6
Continuous
 62
     7
370
    25
100
AcDbLine
 10
183.0194048981672
 20
470.27670761836
 30
0.0
 11
183.0194048981672
 21
469.6777256418509
 31
0.0
  0
LINE
  5
D1
330
1F
100
AcDbEntity
  8
0
  6
Continuous
 62
     7
370
    25
100
AcDbLine
 10
182.9663730624622
 20
470.2256860424322
 30
0.0
 11
183.0194048981672
 21
470.27670761836
 31
0.0
  0
LINE
  5
D2
330
1F
100
AcDbEntity
  8
0
  6
Continuous
 62
     7
370
    25
100
AcDbLine
 10
182.9663730624622
 20
470.425339250688
 30
0.0
 11
182.9663730624622
 21
470.2256860424322
 31
0.0
  0
LINE
  5
D3
330
1F
100
AcDbEntity
  8
0
  6
Continuous
 62
     7
370
    25
100
AcDbLine
 10
174.3222271490401
 20
462.0903300334257
 30
0.0
 11
174.3222271490401
 21
461.9091170121474
 31
0.0
  0
ARC
  5
D4
330
1F
100
AcDbEntity
  8
0
  6
Continuous
 62
     7
370
    25
100
AcDbCircle
 10
177.3987190853929
 20
470.1819774441365
 30
0.0
 40
8.826382178538159
100
AcDbArc
 50
239.2162225671826
 51
249.6009569345736
  0
LINE
  5
D5
330
1F
100
AcDbEntity
  8
0
  6
Continuous
 62
     7
370
    25
100
AcDbLine
 10
172.8813798564976
 20
462.5991897870344
 30
0.0
 11
172.8813798564976
 21
462.7988429952902
 31
0.0
  0
ARC
  5
D6
330
1F
100
AcDbEntity
  8
0
  6
Continuous
 62
     7
370
    25
100
AcDbCircle
 10
175.2611376142579
 20
467.1760613993148
 30
0.0
 40
4.982297456209563
100
AcDbArc
 50
203.7940506104324
 51
241.4684474052424
  0
LINE
  5
D7
330
1F
100
AcDbEntity
  8
0
  6
Continuous
 62
     7
370
    25
100
AcDbLine
 10
170.7023276414281
 20
465.1659520555777
 30
0.0
 11
170.7023276414281
 21
464.9662913967413
 31
0.0
  0
ARC
  5
D8
330
1F
100
AcDbEntity
  8
0
  6
Continuous
 62
     7
370
    25
100
AcDbCircle
 10
173.5645283481554
 20
466.0772397335612
 30
0.0
 40
3.070244142193487
100
AcDbArc
 50
180.1836668617827
 51
201.2134639280382
  0
LINE
  5
D9
330
1F
100
AcDbEntity
  8
0
  6
Continuous
 62
     7
370
    25
100
AcDbLine
 10
170.4942999805814
 20
466.0673978019995
 30
0.0
 11
170.4942999805814
 21
466.2670584608359
 31
0.0
  0
ARC
  5
DA
330
1F
100
AcDbEntity
  8
0
  6
Continuous
 62
     7
370
    25
100
AcDbCircle
 10
173.8523385462283
 20
466.2032796944465
 30
0.0
 40
3.358644181721815
100
AcDbArc
 50
142.0402387135103
 51
178.911919931228
  0
LINE
  5
DB
330
1F
100
AcDbEntity
  8
0
  6
Continuous
 62
     7
370
    25
100
AcDbLine
 10
172.8813798564976
 20
469.5356132675452
 30
0.0
 11
172.8813798564976
 21
469.7352664758009
 31
0.0
  0
ARC
  5
DC
330
1F
100
AcDbEntity
  8
0
  6
Continuous
 62
     7
370
    25
100
AcDbCircle
 10
182.2751271108283
 20
465.5166502918847
 30
0.0
 40
4.691913660717191
100
AcDbArc
 50
23.24206596014271
 51
54.00825770661282
  0
LINE
  5
DD
330
1F
100
AcDbEntity
  8
0
  6
Continuous
 62
     7
370
    25
100
AcDbLine
 10
186.5862725700742
 20
467.3681574155135
 30
0.0
 11
186.5862725700742
 21
467.1685042072577
 31
0.0
  0
LWPOLYLINE
  5
DE
330
1F
100
AcDbEntity
  8
0
  6
Continuous
 62
     7
370
    25
100
AcDbPolyline
 90
        3
 70
   128
 43
0.0
 10
186.7943002309209
 20
466.0673978019995
 10
186.7910359452969
 20
466.2062021185202
 10
186.7877679343825
 20
466.2637355018896
  0
ARC
  5
DF
330
1F
100
AcDbEntity
  8
0
  6
Continuous
 62
     7
370
    25
100
AcDbCircle
 10
183.5584758382305
 20
466.0073152480768
 30
0.0
 40
3.242824825408699
100
AcDbArc
 50
15.47624359191217
 51
20.98229578400012
  0
ARC
  5
E0
330
1F
100
AcDbEntity
  8
0
  6
Continuous
 62
     7
370
    25
100
AcDbCircle
 10
183.1299027083026
 20
466.4238039841664
 30
0.0
 40
3.671684714371587
100
AcDbArc
 50
311.313532178072
 51
355.9929282283974
  0
LINE
  5
E1
330
1F
100
AcDbEntity
  8
0
  6
Continuous
 62
     7
370
    25
100
AcDbLine
 10
185.5538721594518
 20
463.6659713674826
 30
0.0
 11
185.5538721594518
 21
463.4663107086462
 31
0.0
  0
ARC
  5
E2
330
1F
100
AcDbEntity
  8
0
  6
Continuous
 62
     7
370
    25
100
AcDbCircle
 10
181.1213024221527
 20
468.1360856616205
 30
0.0
 40
6.438514781177888
100
AcDbArc
 50
300.6873726465225
 51
313.5072217239749
  0
LINE
  5
E3
330
1F
100
AcDbEntity
  8
0
  6
Continuous
 62
     7
370
    25
100
AcDbLine
 10
184.4072203550047
 20
462.5991897870344
 30
0.0
 11
184.4072203550047
 21
462.7988429952902
 31
0.0
  0
ARC
  5
E4
330
1F
100
AcDbEntity
  8
0
  6
Continuous
 62
     7
370
    25
100
AcDbCircle
 10
179.988995647481
 20
470.1929476957395
 30
0.0
 40
8.613564528543295
100
AcDbArc
 50
292.2129326617241
 51
300.8597284955717
  0
ELLIPSE
  5
E5
330
1F
100
AcDbEntity
  8
0
  6
Continuous
 62
     7
370
    25
100
AcDbEllipse
 10
178.6443001057511
 20
466.8831445611406
 30
0.0
 11
8.150000000000006
 21
0.0
 31
0.0
210
0.0
220
0.0
230
1.0
 40
0.6805603963188219
 41
3.200574915264523
 42
3.860439366306751
  0
ELLIPSE
  5
E6
330
1F
100
AcDbEntity
  8
0
  6
Continuous
 62
     7
370
    25
100
AcDbEllipse
 10
178.6443001057511
 20
466.8831445611406
 30
0.0
 11
8.150000000000006
 21
0.0
 31
0.0
210
0.0
220
0.0
230
1.0
 40
0.6805603963188219
 41
5.56433859446266
 42
6.189636205526408
  0
LWPOLYLINE
  5
E7
330
1F
100
AcDbEntity
  8
0
  6
Continuous
 62
     7
370
    25
100
AcDbPolyline
 90
       16
 70
   128
 43
0.0
 10
171.9383784967965
 20
465.5627774287505
 10
172.1158937017923
 20
464.7396670867247
 10
172.5693663049048
 20
463.9557915021223
 10
173.2796278249031
 20
463.2443057585997
 10
174.2166556816107
 20
462.6352654982848
 10
175.3408416572517
 20
462.1544273783011
 10
176.6046654831177
 20
461.8221165825171
 10
177.9547055067985
 20
461.6523700047774
 10
179.3338947047038
 20
461.6523700047774
 10
180.6839347283846
 20
461.8221165825171
 10
181.9477585542506
 20
462.1544273783011
 10
183.0719445298916
 20
462.6352654982848
 10
184.0089723865992
 20
463.2443057585997
 10
184.7192339065975
 20
463.9557915021223
 10
185.1727065097099
 20
464.7396670867247
 10
185.3502217147058
 20
465.5627774287505
  0
LWPOLYLINE
  5
E8
330
1F
100
AcDbEntity
  8
0
  6
Continuous
 62
     7
370
    25
100
AcDbPolyline
 90
       17
 70
   128
 43
0.0
 10
185.3502217147058
 20
465.5627774287505
 10
185.2517641547626
 20
466.3651006509108
 10
184.8909092533892
 20
467.1397449661536
 10
184.2819882023638
 20
467.8559469271941
 10
183.449182326675
 20
468.4852602173132
 10
182.4255635894394
 20
469.0027030397696
 10
181.2517828240549
 20
469.3877192426962
 10
179.9744530746272
 20
469.6250202347082
 10
178.6443001057511
 20
469.7051810313505
 10
177.3141471368751
 20
469.6250202347082
 10
176.0368173874473
 20
469.3877192426962
 10
174.8630366220629
 20
469.0027030397696
 10
173.8394178848272
 20
468.4852602173132
 10
173.0066120091385
 20
467.8559469271941
 10
172.3976909581131
 20
467.1397449661536
 10
172.0368360567397
 20
466.3651006509108
 10
171.9383784967965
 20
465.5627774287505
  0
LWPOLYLINE
  5
E9
330
1F
100
AcDbEntity
  8
0
  6
Continuous
 62
     7
370
    25
100
AcDbPolyline
 90
       34
 70
   128
 43
0.0
 10
178.6443001057511
 20
461.2447412897391
 10
177.2533034838295
 20
461.3246785689635
 10
175.9125810514694
 20
461.5615921307844
 10
174.6705902207202
 20
461.9469287086768
 10
173.5722195755249
 20
462.4667557169241
 10
172.6571667406267
 20
463.1022902418417
 10
171.9585048432952
 20
463.8305621434492
 10
171.5014852981573
 20
464.6252410699171
 10
171.3026251110738
 20
465.4576124836249
 10
171.3691126953369
 20
466.2975909401221
 10
171.6985443073815
 20
467.1148153234763
 10
172.2790134537524
 20
467.8797515322012
 10
173.0895406964725
 20
468.5647504617018
 10
174.1008317496186
 20
469.145061283235
 10
175.2763352289355
 20
469.5997031618399
 10
176.5735658283836
 20
469.9122475673003
 10
177.9456382084197
 20
470.0713919688505
 10
179.3429620030826
 20
470.0713919688505
 10
180.7150343831187
 20
469.9122475673003
 10
182.0122649825668
 20
469.5997031618399
 10
183.1877684618836
 20
469.145061283235
 10
184.1990595150298
 20
468.5647504617018
 10
185.0095867577499
 20
467.8797515322012
 10
185.5900559041208
 20
467.1148153234763
 10
185.9194875161654
 20
466.2975909401221
 10
185.9859751004284
 20
465.4576124836249
 10
185.787114913345
 20
464.6252410699171
 10
185.3300953682071
 20
463.8305621434492
 10
184.6314334708756
 20
463.1022902418417
 10
183.7163806359774
 20
462.4667557169241
 10
182.6180099907821
 20
461.9469287086768
 10
181.3760191600329
 20
461.5615921307844
 10
180.0352967276728
 20
461.3246785689635
 10
178.6443001057511
 20
461.2447412897391
  0
ELLIPSE
  5
EA
330
1F
100
AcDbEntity
  8
0
  6
Continuous
 62
     7
370
    25
100
AcDbEllipse
 10
178.6443001057511
 20
466.8831445611406
 30
0.0
 11
7.349999999999993
 21
0.0
 31
0.0
210
0.0
220
0.0
230
1.0
 40
0.680560396318821
 41
0.0
 42
0.4902519450448645
  0
ELLIPSE
  5
EB
330
1F
100
AcDbEntity
  8
0
  6
Continuous
 62
     7
370
    25
100
AcDbEllipse
 10
178.6443001057511
 20
466.8831445611406
 30
0.0
 11
7.349999999999993
 21
0.0
 31
0.0
210
0.0
220
0.0
230
1.0
 40
0.680560396318821
 41
2.886424755447286
 42
3.141592653589825
  0
LWPOLYLINE
  5
EC
330
1F
100
AcDbEntity
  8
0
  6
Continuous
 62
     7
370
    25
100
AcDbPolyline
 90
       16
 70
   128
 43
0.0
 10
171.9383784967965
 20
465.5627774287505
 10
172.1158937017923
 20
466.1837088156981
 10
172.5693663049048
 20
466.7750315953535
 10
173.2796278249031
 20
467.3117565203947
 10
174.2166556816107
 20
467.771196572904
 10
175.3408416572517
 20
468.1339280892653
 10
176.6046654831177
 20
468.38461777461
 10
177.9547055067985
 20
468.5126634527487
 10
179.3338947047038
 20
468.5126634527487
 10
180.6839347283846
 20
468.38461777461
 10
181.9477585542506
 20
468.1339280892653
 10
183.0719445298916
 20
467.771196572904
 10
184.0089723865992
 20
467.3117565203947
 10
184.7192339065975
 20
466.7750315953535
 10
185.1727065097099
 20
466.1837088156981
 10
185.3502217147058
 20
465.5627774287505
  0
LWPOLYLINE
  5
ED
330
1F
100
AcDbEntity
  8
0
  6
Continuous
 62
     7
370
    25
100
AcDbPolyline
 90
       15
 70
   128
 43
0.0
 10
185.235062747032
 20
464.9159701753897
 10
184.8909092533892
 20
464.3731581260008
 10
184.2819882023638
 20
463.8328792740149
 10
183.449182326675
 20
463.3581431795401
 10
182.4255635894394
 20
462.9677998114867
 10
181.2517828240549
 20
462.6773612786574
 10
179.9744530746272
 20
462.4983461786551
 10
178.6443001057511
 20
462.4378772665304
 10
177.3141471368751
 20
462.4983461786551
 10
176.0368173874473
 20
462.6773612786574
 10
174.8630366220629
 20
462.9677998114867
 10
173.8394178848272
 20
463.3581431795401
 10
173.0066120091385
 20
463.8328792740149
 10
172.3976909581131
 20
464.3731581260008
 10
172.0535374644703
 20
464.9159701753897
  0
ARC
  5
EE
330
1F
100
AcDbEntity
  8
0
  6
Continuous
 62
     7
370
    25
100
AcDbCircle
 10
176.137256167226
 20
463.3738927238688
 30
0.0
 40
6.518092308578435
100
AcDbArc
 50
120.6879489699425
 51
133.506654991512
  0
LINE
  5
EF
330
1F
100
AcDbEntity
  8
0
  6
Continuous
 62
     7
370
    25
100
AcDbLine
 10
171.6499483610993
 20
468.1014286567015
 30
0.0
 11
170.802147726298
 21
468.4205742765707
 31
0.0
  0
LINE
  5
F0
330
1F
100
AcDbEntity
  8
0
  6
Continuous
 62
     7
370
    25
100
AcDbLine
 10
172.1035625252431
 20
469.4047363687796
 30
0.0
 11
172.81066919002
 21
468.9791890074057
 31
0.0
  0
LINE
  5
F1
330
1F
100
AcDbEntity
  8
0
  6
Continuous
 62
     7
370
    25
100
AcDbLine
 10
172.81066919002
 20
468.9791890074057
 30
0.0
 11
172.81066919002
 21
469.5781635333342
 31
0.0
  0
LINE
  5
F2
330
1F
100
AcDbEntity
  8
0
  6
Continuous
 62
     7
370
    25
100
AcDbLine
 10
172.81066919002
 20
469.5781635333342
 30
0.0
 11
172.8813798564976
 21
469.5356132675452
 31
0.0
  0
LINE
  5
F3
330
1F
100
AcDbEntity
  8
0
  6
Continuous
 62
     7
370
    25
100
AcDbLine
 10
175.9251154891705
 20
461.5585820962233
 30
0.0
 11
174.269195313335
 21
461.5585820962233
 31
0.0
  0
LINE
  5
F4
330
1F
100
AcDbEntity
  8
0
  6
Continuous
 62
     7
370
    25
100
AcDbLine
 10
183.5789500202542
 20
461.5585820962233
 30
0.0
 11
181.3634847223317
 21
461.5585820962233
 31
0.0
  0
LINE
  5
F5
330
1F
100
AcDbEntity
  8
0
  6
Continuous
 62
     7
370
    25
100
AcDbLine
 10
180.7208830888873
 20
460.7486443806929
 30
0.0
 11
180.5042168290844
 21
461.3887088586134
 31
0.0
  0
LINE
  5
F6
330
1F
100
AcDbEntity
  8
0
  6
Continuous
 62
     7
370
    25
100
AcDbLine
 10
186.5862725700742
 20
467.3681574155135
 30
0.0
 11
187.448051425398
 21
467.4876423765463
 31
0.0
  0
LINE
  5
F7
330
1F
100
AcDbEntity
  8
0
  6
Continuous
 62
     7
370
    25
100
AcDbLine
 10
169.3942999865419
 20
466.2670584608359
 30
0.0
 11
170.4942999805814
 21
466.2670584608359
 31
0.0
  0
LINE
  5
F8
330
1F
100
AcDbEntity
  8
0
  6
Continuous
 62
     7
370
    25
100
AcDbLine
 10
186.6837196450239
 20
466.5830375839514
 30
0.0
 11
187.6581950511342
 21
466.7181389619154
 31
0.0
  0
LINE
  5
F9
330
1F
100
AcDbEntity
  8
0
  6
Continuous
 62
     7
370
    25
100
AcDbLine
 10
186.6837196450239
 20
467.1820121098799
 30
0.0
 11
186.6837196450239
 21
466.5830375839514
 31
0.0
  0
LINE
  5
FA
330
1F
100
AcDbEntity
  8
0
  6
Continuous
 62
     7
370
    25
100
AcDbLine
 10
186.5862725700742
 20
467.1685042072577
 30
0.0
 11
186.6837196450239
 21
467.1820121098799
 31
0.0
  0
ARC
  5
FB
330
1F
100
AcDbEntity
  8
0
  6
Continuous
 62
     7
370
    25
100
AcDbCircle
 10
183.7864306881077
 20
465.4584630217028
 30
0.0
 40
3.107885333458336
100
AcDbArc
 50
0.1836237357089495
 51
21.21358257228314
  0
LINE
  5
FC
330
1F
100
AcDbEntity
  8
0
  6
Continuous
 62
     7
370
    25
100
AcDbLine
 10
187.8943002249604
 20
465.468423276071
 30
0.0
 11
186.8943000610477
 21
465.468423276071
 31
0.0
  0
LINE
  5
FD
330
1F
100
AcDbEntity
  8
0
  6
Continuous
 62
     7
370
    25
100
AcDbLine
 10
186.8340444217926
 20
466.0673978019995
 30
0.0
 11
186.7943002309209
 21
466.0673978019995
 31
0.0
  0
ARC
  5
FE
330
1F
100
AcDbEntity
  8
0
  6
Continuous
 62
     7
370
    25
100
AcDbCircle
 10
173.5021517744567
 20
466.0773547031192
 30
0.0
 40
3.107867573866738
100
AcDbArc
 50
180.1835629651417
 51
201.213643342852
  0
LINE
  5
FF
330
1F
100
AcDbEntity
  8
0
  6
Continuous
 62
     7
370
    25
100
AcDbLine
 10
170.6048805664784
 20
464.9527834941191
 30
0.0
 11
170.6048805664784
 21
464.3538089681906
 31
0.0
  0
ARC
  5
100
330
1F
100
AcDbEntity
  8
0
  6
Continuous
 62
     7
370
    25
100
AcDbCircle
 10
173.502125126275
 20
465.4783751426374
 30
0.0
 40
3.107840909696187
100
AcDbArc
 50
180.1834717231589
 51
201.2137345848347
  0
LINE
  5
101
330
1F
100
AcDbEntity
  8
0
  6
Continuous
 62
     7
370
    25
100
AcDbLine
 10
170.3943001504546
 20
465.468423276071
 30
0.0
 11
170.3943001504546
 21
466.0673978019995
 31
0.0
  0
LINE
  5
102
330
1F
100
AcDbEntity
  8
0
  6
Continuous
 62
     7
370
    25
100
AcDbLine
 10
170.6048805664784
 20
464.3538089681906
 30
0.0
 11
169.6304051603681
 21
464.218700139646
 31
0.0
  0
LINE
  5
103
330
1F
100
AcDbEntity
  8
0
  6
Continuous
 62
     7
370
    25
100
AcDbLine
 10
169.3942999865419
 20
465.468423276071
 30
0.0
 11
170.3943001504546
 21
465.468423276071
 31
0.0
  0
LINE
  5
104
330
1F
100
AcDbEntity
  8
0
  6
Continuous
 62
     7
370
    25
100
AcDbLine
 10
170.3943001504546
 20
466.0673978019995
 30
0.0
 11
170.4942999805814
 21
466.0673978019995
 31
0.0
  0
LINE
  5
105
330
1F
100
AcDbEntity
  8
0
  6
Continuous
 62
     7
370
    25
100
AcDbLine
 10
170.7023276414281
 20
464.9662913967413
 30
0.0
 11
170.6048805664784
 21
464.9527834941191
 31
0.0
  0
LINE
  5
106
330
1F
100
AcDbEntity
  8
0
  6
Continuous
 62
     7
370
    25
100
AcDbLine
 10
185.5538721594518
 20
463.6659713674826
 30
0.0
 11
186.4864524852043
 21
463.3149000097555
 31
0.0
  0
LINE
  5
107
330
1F
100
AcDbEntity
  8
0
  6
Continuous
 62
     7
370
    25
100
AcDbLine
 10
172.1035625252431
 20
462.3307453681273
 30
0.0
 11
172.8813798564976
 21
462.7988429952902
 31
0.0
  0
LINE
  5
108
330
1F
100
AcDbEntity
  8
0
  6
Continuous
 62
     7
370
    25
100
AcDbLine
 10
185.6386518504029
 20
462.8354178954405
 30
0.0
 11
186.4864524852043
 21
462.5162648249907
 31
0.0
  0
LINE
  5
109
330
1F
100
AcDbEntity
  8
0
  6
Continuous
 62
     7
370
    25
100
AcDbLine
 10
185.6386518504029
 20
463.434392421369
 30
0.0
 11
185.6386518504029
 21
462.8354178954405
 31
0.0
  0
LINE
  5
10A
330
1F
100
AcDbEntity
  8
0
  6
Continuous
 62
     7
370
    25
100
AcDbLine
 10
185.5538721594518
 20
463.4663107086462
 30
0.0
 11
185.6386518504029
 21
463.434392421369
 31
0.0
  0
ARC
  5
10B
330
1F
100
AcDbEntity
  8
0
  6
Continuous
 62
     7
370
    25
100
AcDbCircle
 10
181.1513440442763
 20
468.1619283542018
 30
0.0
 40
6.518092308578516
100
AcDbArc
 50
300.6879489699435
 51
313.5066549915128
  0
ARC
  5
10C
330
1F
100
AcDbEntity
  8
0
  6
Continuous
 62
     7
370
    25
100
AcDbCircle
 10
181.151616435625
 20
467.5625936270955
 30
0.0
 40
6.517643532091887
100
AcDbArc
 50
300.6875057995782
 51
313.5070981618786
  0
LINE
  5
10D
330
1F
100
AcDbEntity
  8
0
  6
Continuous
 62
     7
370
    25
100
AcDbLine
 10
184.4779310214823
 20
461.9576575447363
 30
0.0
 11
184.4779310214823
 21
462.5566320706648
 31
0.0
  0
LINE
  5
10E
330
1F
100
AcDbEntity
  8
0
  6
Continuous
 62
     7
370
    25
100
AcDbLine
 10
185.1850376862591
 20
461.5321101833624
 30
0.0
 11
184.4779310214823
 21
461.9576575447363
 31
0.0
  0
LINE
  5
10F
330
1F
100
AcDbEntity
  8
0
  6
Continuous
 62
     7
370
    25
100
AcDbLine
 10
184.4779310214823
 20
462.5566320706648
 30
0.0
 11
184.4072203550047
 21
462.5991897870344
 31
0.0
  0
LINE
  5
110
330
1F
100
AcDbEntity
  8
0
  6
Continuous
 62
     7
370
    25
100
AcDbLine
 10
172.81066919002
 20
461.9576575447363
 30
0.0
 11
172.81066919002
 21
462.5566320706648
 31
0.0
  0
LINE
  5
111
330
1F
100
AcDbEntity
  8
0
  6
Continuous
 62
     7
370
    25
100
AcDbLine
 10
172.1035625252431
 20
461.5321101833624
 30
0.0
 11
172.81066919002
 21
461.9576575447363
 31
0.0
  0
LINE
  5
112
330
1F
100
AcDbEntity
  8
0
  6
Continuous
 62
     7
370
    25
100
AcDbLine
 10
172.81066919002
 20
462.5566320706648
 30
0.0
 11
172.8813798564976
 21
462.5991897870344
 31
0.0
  0
ARC
  5
113
330
1F
100
AcDbEntity
  8
0
  6
Continuous
 62
     7
370
    25
100
AcDbCircle
 10
177.3837479234516
 20
470.2331497953487
 30
0.0
 40
8.9354335921404
100
AcDbArc
 50
239.2167671985273
 51
249.6006141450819
  0
LINE
  5
114
330
1F
100
AcDbEntity
  8
0
  6
Continuous
 62
     7
370
    25
100
AcDbLine
 10
174.269195313335
 20
461.8580954362196
 30
0.0
 11
174.269195313335
 21
461.2591134597105
 31
0.0
  0
ARC
  5
115
330
1F
100
AcDbEntity
  8
0
  6
Continuous
 62
     7
370
    25
100
AcDbCircle
 10
177.3836917821901
 20
469.6339687219097
 30
0.0
 40
8.935227412735271
100
AcDbArc
 50
239.2163986312294
 51
249.6005065637164
  0
LINE
  5
116
330
1F
100
AcDbEntity
  8
0
  6
Continuous
 62
     7
370
    25
100
AcDbLine
 10
174.269195313335
 20
461.2591134597105
 30
0.0
 11
173.7388797502524
 21
460.7488977004332
 31
0.0
  0
LINE
  5
117
330
1F
100
AcDbEntity
  8
0
  6
Continuous
 62
     7
370
    25
100
AcDbLine
 10
174.3222271490401
 20
461.9091170121474
 30
0.0
 11
174.269195313335
 21
461.8580954362196
 31
0.0
  0
ARC
  5
118
330
1F
100
AcDbEntity
  8
0
  6
Continuous
 62
     7
370
    25
100
AcDbCircle
 10
178.6503633436757
 20
474.6111147899432
 30
0.0
 40
13.5086884008975
100
AcDbArc
 50
269.9742833689986
 51
277.8543079106659
  0
LINE
  5
119
330
1F
100
AcDbEntity
  8
0
  6
Continuous
 62
     7
370
    25
100
AcDbLine
 10
180.4963876658609
 20
461.2291546751303
 30
0.0
 11
180.4963876658609
 21
460.6301801492018
 31
0.0
  0
ARC
  5
11A
330
1F
100
AcDbEntity
  8
0
  6
Continuous
 62
     7
370
    25
100
AcDbCircle
 10
178.6502495225745
 20
474.013009476141
 30
0.0
 40
13.5095650129114
100
AcDbArc
 50
269.9747677674874
 51
277.8542823429819
  0
LINE
  5
11B
330
1F
100
AcDbEntity
  8
0
  6
Continuous
 62
     7
370
    25
100
AcDbLine
 10
178.6443001057511
 20
460.5034457732481
 30
0.0
 11
178.6443001057511
 21
461.1024277497572
 31
0.0
  0
LINE
  5
11C
330
1F
100
AcDbEntity
  8
0
  6
Continuous
 62
     7
370
    25
100
AcDbLine
 10
180.4963876658609
 20
460.6301801492018
 30
0.0
 11
180.7208830888873
 21
460.0437225986761
 31
0.0
  0
ARC
  5
11D
330
1F
100
AcDbEntity
  8
0
  6
Continuous
 62
     7
370
    25
100
AcDbCircle
 10
178.6509522200619
 20
475.0496318793945
 30
0.0
 40
15.14800076389177
100
AcDbArc
 50
269.9748390501805
 51
277.8538763836751
  0
LINE
  5
11E
330
1F
100
AcDbEntity
  8
0
  6
Continuous
 62
     7
370
    25
100
AcDbLine
 10
178.6443001057511
 20
459.9016325761122
 30
0.0
 11
178.6443001057511
 21
460.5034457732481
 31
0.0
  0
LINE
  5
11F
330
1F
100
AcDbEntity
  8
0
  6
Continuous
 62
     7
370
    25
100
AcDbLine
 10
180.4739381351998
 20
461.2877981950087
 30
0.0
 11
180.4963876658609
 21
461.2291546751303
 31
0.0
  0
LINE
  5
120
330
1F
100
AcDbEntity
  8
0
  6
Continuous
 62
     7
370
    25
100
AcDbLine
 10
180.4739381351998
 20
461.3839777399344
 30
0.0
 11
180.4739381351998
 21
461.2877981950087
 31
0.0
  0
LINE
  5
121
330
1F
100
AcDbEntity
  8
0
  6
Continuous
 62
     7
370
    25
100
AcDbLine
 10
180.7208830888873
 20
460.7486443806929
 30
0.0
 11
180.7208830888873
 21
460.0437225986761
 31
0.0
  0
ARC
  5
122
330
1F
100
AcDbEntity
  8
0
  6
Continuous
 62
     7
370
    25
100
AcDbCircle
 10
178.6503129170879
 20
474.5070810664245
 30
0.0
 40
13.34447633182516
100
AcDbArc
 50
269.9741834212384
 51
277.8544866097962
  0
LINE
  5
123
330
1F
100
AcDbEntity
  8
0
  6
Continuous
 62
     7
370
    25
100
AcDbLine
 10
178.6443001057511
 20
461.1626060892386
 30
0.0
 11
178.6443001057511
 21
461.2447412897391
 31
0.0
  0
LINE
  5
124
330
1F
100
AcDbEntity
  8
0
  6
Continuous
 62
     7
370
    25
100
AcDbLine
 10
178.6443001057511
 20
461.1024277497572
 30
0.0
 11
178.6443001057511
 21
461.1626060892386
 31
0.0
  0
CIRCLE
  5
125
330
1F
100
AcDbEntity
  8
0
  6
Continuous
 62
     7
370
    25
100
AcDbCircle
 10
178.6443001057511
 20
530.8200447577597
 30
0.0
 40
3.569682227408628
  0
CIRCLE
  5
126
330
1F
100
AcDbEntity
  8
0
  6
Continuous
 62
     7
370
    25
100
AcDbCircle
 10
178.6443001057511
 20
530.8200447577597
 30
0.0
 40
4.000000000000028
  0
SPLINE
  5
127
330
1F
100
AcDbEntity
  8
0
  6
Continuous
 62
     7
370
    25
100
AcDbSpline
210
0.0
220
0.0
230
1.0
 70
    24
 71
     3
 72
    10
 73
     6
 74
     0
 42
0.000000001
 43
0.00000001
 40
0.0
 40
0.0
 40
0.0
 40
0.0
 40
0.5
 40
0.5
 40
1.0
 40
1.0
 40
1.0
 40
1.0
 10
176.4973835659564
 20
550.8200447577595
 30
0.0
 10
177.2130241468531
 20
550.8200447577595
 30
0.0
 10
177.9286646720902
 20
550.8200447577597
 30
0.0
 10
179.3599451051658
 20
550.8200447577597
 30
0.0
 10
180.0755850119672
 20
550.8200447577597
 30
0.0
 10
180.7912248641119
 20
550.8200447577595
 30
0.0
  0
SPLINE
  5
128
330
1F
100
AcDbEntity
  8
0
  6
Continuous
 62
     7
370
    25
100
AcDbSpline
210
0.0
220
0.0
230
1.0
 70
     8
 71
     3
 72
    10
 73
     6
 74
     0
 42
0.000000001
 43
0.00000001
 40
0.0
 40
0.0
 40
0.0
 40
0.0
 40
0.0465793851422849
 40
0.5191552321054189
 40
1.0
 40
1.0
 40
1.0
 40
1.0
 10
154.6504484887725
 20
524.1063179661078
 30
0.0
 10
154.6486049932343
 20
524.0929103509336
 30
0.0
 10
154.6280581278964
 20
523.9434744245798
 30
0.0
 10
154.7637097593862
 20
523.8314467463812
 30
0.0
 10
155.1043815912581
 20
523.823871986113
 30
0.0
 10
155.2761948134309
 20
523.8200517584128
 30
0.0
  0
SPLINE
  5
129
330
1F
100
AcDbEntity
  8
0
  6
Continuous
 62
     7
370
    25
100
AcDbSpline
210
0.0
220
0.0
230
1.0
 70
     8
 71
     3
 72
    11
 73
     7
 74
     0
 42
0.000000001
 43
0.00000001
 40
0.0
 40
0.0
 40
0.0
 40
0.0
 40
0.2572761167628645
 40
0.5155567502552552
 40
0.7728922668250806
 40
0.9999999999999999
 40
0.9999999999999999
 40
0.9999999999999999
 40
0.9999999999999999
 10
202.0124053980714
 20
523.8200517584128
 30
0.0
 10
202.1127468333743
 20
523.820019779809
 30
0.0
 10
202.3138214801453
 20
523.8199556977432
 30
0.0
 10
202.507702273108
 20
523.8564985697633
 30
0.0
 10
202.6262774993417
 20
523.939014825424
 30
0.0
 10
202.6354625384151
 20
524.0518845492583
 30
0.0
 10
202.6397684987193
 20
524.104798047666
 30
0.0
  0
LINE
  5
12A
330
1F
100
AcDbEntity
  8
0
  6
Continuous
 62
     7
370
    25
100
AcDbLine
 10
155.2761948134309
 20
523.8200517584128
 30
0.0
 11
202.0124053980714
 21
523.8200517584128
 31
0.0
  0
LINE
  5
12B
330
1F
100
AcDbEntity
  8
0
  6
Continuous
 62
     7
370
    25
100
AcDbLine
 10
178.6443001057511
 20
365.708012201686
 30
0.0
 11
154.9442993875152
 21
365.708012201686
 31
0.0
  0
LINE
  5
12C
330
1F
100
AcDbEntity
  8
0
  6
Continuous
 62
     7
370
    25
100
AcDbLine
 10
202.3443008239871
 20
365.708012201686
 30
0.0
 11
178.6443001057511
 21
365.708012201686
 31
0.0
  0
LINE
  5
12D
330
1F
100
AcDbEntity
  8
0
  6
Continuous
 62
     7
370
    25
100
AcDbLine
 10
180.7912337991899
 20
550.8200468708319
 30
0.0
 11
201.1443009998208
 21
550.8200468708319
 31
0.0
  0
LINE
  5
12E
330
1F
100
AcDbEntity
  8
0
  6
Continuous
 62
     7
370
    25
100
AcDbLine
 10
156.1442992116815
 20
550.8200468708319
 30
0.0
 11
176.4973766568607
 21
550.8200468708319
 31
0.0
  0
LINE
  5
12F
330
1F
100
AcDbEntity
  8
0
  6
Continuous
 62
     7
370
    25
100
AcDbLine
 10
202.2412667449123
 20
520.820045678739
 30
0.0
 11
155.04733346659
 21
520.820045678739
 31
0.0
  0
ELLIPSE
  5
130
330
1F
100
AcDbEntity
  8
0
  6
Continuous
 62
     8
370
    18
100
AcDbEllipse
 10
178.6443001057511
 20
467.5204586255836
 30
0.0
 11
13.62225840003612
 21
0.0
 31
0.0
210
0.0
220
0.0
230
1.0
 40
0.6243407052442103
 41
0.0
 42
1.570796326794897
  0
LINE
  5
131
330
1F
100
AcDbEntity
  8
0
  6
Continuous
 62
     8
370
    18
100
AcDbLine
 10
178.6443001057511
 20
458.9146020103735
 30
0.0
 11
178.6443001057511
 21
458.6125554729742
 31
0.0
  0
ELLIPSE
  5
132
330
1F
100
AcDbEntity
  8
0
  6
Continuous
 62
     8
370
    18
100
AcDbEllipse
 10
178.6443001057511
 20
467.5204586255836
 30
0.0
 11
13.62225840003612
 21
0.0
 31
0.0
210
0.0
220
0.0
230
1.0
 40
0.6243407052442103
 41
1.570796326794878
 42
3.129725682882206
  0
CIRCLE
  5
133
330
1F
100
AcDbEntity
  8
0
  6
Continuous
 62
     8
370
    18
100
AcDbCircle
 10
178.6443001057511
 20
542.8200447577597
 30
0.0
 40
2.828082609483857
  0
CIRCLE
  5
134
330
1F
100
AcDbEntity
  8
0
  6
Continuous
 62
     8
370
    18
100
AcDbCircle
 10
178.6443001057511
 20
542.8200447577597
 30
0.0
 40
4.328080324853801
  0
ARC
  5
135
330
1F
100
AcDbEntity
  8
0
  6
Continuous
 62
     8
370
    18
100
AcDbCircle
 10
178.6294173263889
 20
487.9853656883135
 30
0.0
 40
13.89544619363166
100
AcDbArc
 50
89.93863308914058
 51
195.5325278386382
  0
SPLINE
  5
136
330
1F
100
AcDbEntity
  8
0
  6
Continuous
 62
     8
370
    18
100
AcDbSpline
210
0.0
220
0.0
230
1.0
 70
     8
 71
     3
 72
    31
 73
    27
 74
     0
 42
0.000000001
 43
0.00000001
 40
0.0
 40
0.0
 40
0.0
 40
0.0
 40
0.0146058334363521
 40
0.114943607388382
 40
0.2153503676045726
 40
0.250996504620744
 40
0.2878238216944198
 40
0.3258986853575894
 40
0.3418745044034401
 40
0.3587958789427299
 40
0.3766654153823137
 40
0.3954851744211402
 40
0.4152575290010435
 40
0.4359832431477458
 40
0.437061713278742
 40
0.4451192384426772
 40
0.467113539909867
 40
0.4889195541913264
 40
0.5164380386923166
 40
0.5496678095128831
 40
0.6165692212538879
 40
0.6768142122867588
 40
0.7304418025175912
 40
0.7775070741711856
 40
0.8917116714659863
 40
1.0
 40
1.0
 40
1.0
 40
1.0
 10
192.2282778124815
 20
485.1052778054518
 30
0.0
 10
192.2632419116556
 20
485.2211273459652
 30
0.0
 10
192.5383990744198
 20
486.1328291094371
 30
0.0
 10
192.6125575971761
 20
488.0058897655193
 30
0.0
 10
192.4535768751437
 20
490.0073789045197
 30
0.0
 10
192.1383671246047
 20
491.4209648753907
 30
0.0
 10
191.8829775053854
 20
492.3016815046172
 30
0.0
 10
191.6272215035065
 20
493.0029540976042
 30
0.0
 10
191.4037403008687
 20
493.5359247886141
 30
0.0
 10
191.2336046849583
 20
493.9109097712559
 30
0.0
 10
191.0427162332093
 20
494.2997709836574
 30
0.0
 10
190.8294245966839
 20
494.7012926136113
 30
0.0
 10
190.5922226624778
 20
495.1139243537825
 30
0.0
 10
190.4162597804865
 20
495.3965743493279
 30
0.0
 10
190.2866072368056
 20
495.5964141065413
 30
0.0
 10
190.1500808951402
 20
495.8032265335436
 30
0.0
 10
189.9137313525192
 20
496.1419480012196
 30
0.0
 10
189.5715444770648
 20
496.5950401119421
 30
0.0
 10
189.1534633307126
 20
497.1024245647085
 30
0.0
 10
188.4674291337624
 20
497.8517605813403
 30
0.0
 10
187.5231449007346
 20
498.7204677652574
 30
0.0
 10
186.3487665353623
 20
499.5834187811049
 30
0.0
 10
185.2225411191261
 20
500.2508555951516
 30
0.0
 10
183.6305198210102
 20
501.009056822875
 30
0.0
 10
181.4608195752191
 20
501.7182035707161
 30
0.0
 10
179.5663480803853
 20
501.8275732074578
 30
0.0
 10
178.6443001057511
 20
501.8808039118094
 30
0.0
  0
SPLINE
  5
137
330
1F
100
AcDbEntity
  8
0
  6
Continuous
 62
     8
370
    18
100
AcDbSpline
210
0.0
220
0.0
230
1.0
 70
     8
 71
     3
 72
    24
 73
    20
 74
     0
 42
0.000000001
 43
0.00000001
 40
0.0
 40
0.0
 40
0.0
 40
0.0
 40
0.0773271276645767
 40
0.1564070104069693
 40
0.238146558614673
 40
0.2798364152905065
 40
0.3224520178294378
 40
0.3684196927893143
 40
0.4136455213760923
 40
0.4584975335767036
 40
0.5033530880152054
 40
0.606116442049184
 40
0.7069048205032212
 40
0.8076098960823825
 40
0.841408886620415
 40
0.875641055476722
 40
0.9105086013067509
 40
0.9705935376208826
 40
1.0
 40
1.0
 40
1.0
 40
1.0
 10
178.6443001057511
 20
506.8391951013845
 30
0.0
 10
179.7035872621378
 20
506.7773223618663
 30
0.0
 10
181.8461721776361
 20
506.6521744285857
 30
0.0
 10
184.9178893621
 20
505.6388959652858
 30
0.0
 10
187.2555350047442
 20
504.3529437792727
 30
0.0
 10
188.9534558156004
 20
503.0410455848713
 30
0.0
 10
190.1681774218999
 20
501.8934773095249
 30
0.0
 10
191.2904995712265
 20
500.6033918687141
 30
0.0
 10
192.2927131317321
 20
499.1793760936679
 30
0.0
 10
193.1462519403936
 20
497.6636054703181
 30
0.0
 10
194.1653789224401
 20
495.3743268982778
 30
0.0
 10
195.0705379280459
 20
492.1701789314398
 30
0.0
 10
195.4257888908544
 20
488.0036241592881
 30
0.0
 10
195.1558341500356
 20
484.7763576385277
 30
0.0
 10
194.6883927493499
 20
482.5579514631023
 30
0.0
 10
194.3217853179761
 20
481.2376750874191
 30
0.0
 10
193.7507095426973
 20
479.6374313559173
 30
0.0
 10
193.1032866631579
 20
478.1449975736238
 30
0.0
 10
192.4738786615552
 20
477.185901635984
 30
0.0
 10
192.2670580844885
 20
476.8707471181197
 30
0.0
  0
SPLINE
  5
138
330
1F
100
AcDbEntity
  8
0
  6
Continuous
 62
     8
370
    18
100
AcDbSpline
210
0.0
220
0.0
230
1.0
 70
     8
 71
     3
 72
    23
 73
    19
 74
     0
 42
0.000000001
 43
0.00000001
 40
0.0
 40
0.0
 40
0.0
 40
0.0
 40
0.0009915501506004
 40
0.0458851194901188
 40
0.0907801148263689
 40
0.1932135212877739
 40
0.2936952171068168
 40
0.3943854542555337
 40
0.4281824184649864
 40
0.4624147475880934
 40
0.4972849792297386
 40
0.5570582415708945
 40
0.6170579884318368
 40
0.6781718750520546
 40
0.7620738944197797
 40
0.8435408602394969
 40
0.9226453673788927
 40
1.0
 40
1.0
 40
1.0
 40
1.0
 10
165.0242159541255
 20
476.7972918440146
 30
0.0
 10
165.0169098809514
 20
476.8076803160261
 30
0.0
 10
164.6788129723938
 20
477.2884187630691
 30
0.0
 10
164.1381882619372
 20
478.3357572095234
 30
0.0
 10
163.1058897825292
 20
480.6150026415599
 30
0.0
 10
162.2155267114116
 20
483.8251933405458
 30
0.0
 10
161.8621118800561
 20
487.9873768354074
 30
0.0
 10
162.1366189713006
 20
491.2147471426372
 30
0.0
 10
162.6070991311387
 20
493.4353927169739
 30
0.0
 10
162.9773175508712
 20
494.7558962983887
 30
0.0
 10
163.5447738809459
 20
496.3574134061852
 30
0.0
 10
164.3901613747797
 20
498.1875451887051
 30
0.0
 10
165.6310342666245
 20
500.1568718014209
 30
0.0
 10
167.3198336511611
 20
502.1652581467273
 30
0.0
 10
169.5395935201981
 20
504.0803159912102
 30
0.0
 10
172.3636988712171
 20
505.6357815146579
 30
0.0
 10
175.4366655955167
 20
506.6515712496417
 30
0.0
 10
177.5830906372302
 20
506.7771218797147
 30
0.0
 10
178.6443001057511
 20
506.8391951013845
 30
0.0
  0
SPLINE
  5
139
330
1F
100
AcDbEntity
  8
0
  6
Continuous
 62
     8
370
    18
100
AcDbSpline
210
0.0
220
0.0
230
1.0
 70
     8
 71
     3
 72
    16
 73
    12
 74
     0
 42
0.000000001
 43
0.00000001
 40
0.0
 40
0.0
 40
0.0
 40
0.0
 40
0.2499999999999998
 40
0.2499999999999998
 40
0.4999999999999998
 40
0.4999999999999998
 40
0.7499999999999997
 40
0.7499999999999997
 40
0.8749999999999999
 40
0.8749999999999999
 40
1.0
 40
1.0
 40
1.0
 40
1.0
 10
180.9323747023074
 20
549.3204073402981
 30
0.0
 10
180.5554765772148
 20
549.3709077105109
 30
0.0
 10
180.1739425768149
 20
549.4118830858785
 30
0.0
 10
179.4129171572961
 20
549.4675046880716
 30
0.0
 10
179.0314368951043
 20
549.4824266848448
 30
0.0
 10
178.2661450232893
 20
549.4826489123802
 30
0.0
 10
177.8813704628167
 20
549.4679102335472
 30
0.0
 10
177.3074441412354
 20
549.4260919744225
 30
0.0
 10
177.1166023782358
 20
549.4089089770533
 30
0.0
 10
176.7357093433466
 20
549.368760166775
 30
0.0
 10
176.5443590615287
 20
549.3456210492383
 30
0.0
 10
176.3559139733678
 20
549.3203526637146
 30
0.0
  0
SPLINE
  5
13A
330
1F
100
AcDbEntity
  8
0
  6
Continuous
 62
     8
370
    18
100
AcDbSpline
210
0.0
220
0.0
230
1.0
 70
     8
 71
     3
 72
    47
 73
    43
 74
     0
 42
0.000000001
 43
0.00000001
 40
0.0
 40
0.0
 40
0.0
 40
0.0
 40
0.0039700704854761
 40
0.007959725298296
 40
0.0426571651295164
 40
0.0776946988046185
 40
0.1128141254573253
 40
0.1480912809529853
 40
0.1838279286960412
 40
0.2196133344379555
 40
0.2550269256577488
 40
0.2909602608925869
 40
0.3264844935631345
 40
0.3613266161778605
 40
0.3962443256588273
 40
0.4308301387524191
 40
0.4656625633434522
 40
0.5002981821745135
 40
0.5349216884633483
 40
0.5697709274705892
 40
0.6043501737550557
 40
0.639285126820605
 40
0.6740964105088231
 40
0.7096212646042636
 40
0.7455517883643898
 40
0.7809924410352292
 40
0.794970760543147
 40
0.8088258535133624
 40
0.8226344250745887
 40
0.8364739535194815
 40
0.8504214006773785
 40
0.8642725198623477
 40
0.8779499691093525
 40
0.8915483313274705
 40
0.9051435675534537
 40
0.9188116901150198
 40
0.9325460856727184
 40
0.9461104911605649
 40
0.9595536248019306
 40
0.9729552017344859
 40
0.9863956761831513
 40
1.0
 40
1.0
 40
1.0
 40
1.0
 10
180.9334418417187
 20
549.3204044983967
 30
0.0
 10
180.9798384340665
 20
549.3019231660446
 30
0.0
 10
181.0728604927974
 20
549.2648693330694
 30
0.0
 10
181.565171135761
 20
549.0521972259114
 30
0.0
 10
182.3756587579647
 20
548.5911934684389
 30
0.0
 10
183.363643299442
 20
547.7149278933604
 30
0.0
 10
184.1721996727291
 20
546.6615629425212
 30
0.0
 10
184.7650145369957
 20
545.4595992194694
 30
0.0
 10
185.1334888389819
 20
544.1575133501308
 30
0.0
 10
185.2518144707616
 20
542.8041389487377
 30
0.0
 10
185.1239026007599
 20
541.4490880651373
 30
0.0
 10
184.7436248716035
 20
540.1499541732026
 30
0.0
 10
184.1485116235621
 20
538.9471338080866
 30
0.0
 10
183.3382157263654
 20
537.8971460329014
 30
0.0
 10
182.3491354470046
 20
537.0311206289748
 30
0.0
 10
181.2014394934027
 20
536.3833637483535
 30
0.0
 10
179.9457250719379
 20
535.975676834875
 30
0.0
 10
178.6277585394925
 20
535.8444253452806
 30
0.0
 10
177.310351886694
 20
535.9825929707002
 30
0.0
 10
176.0569076465038
 20
536.3967517995916
 30
0.0
 10
174.9123633462734
 20
537.0504779723769
 30
0.0
 10
173.9278349853747
 20
537.9212372127506
 30
0.0
 10
173.1227658474106
 20
538.9750449215751
 30
0.0
 10
172.5333424841819
 20
540.1804053089512
 30
0.0
 10
172.1588382373606
 20
541.4813322012245
 30
0.0
 10
172.0614087078394
 20
542.5621997183908
 30
0.0
 10
172.0908150403632
 20
543.3612565886884
 30
0.0
 10
172.1471828872364
 20
543.884459626633
 30
0.0
 10
172.2409842258177
 20
544.4000202691385
 30
0.0
 10
172.3721891790486
 20
544.9079712717984
 30
0.0
 10
172.5399092916364
 20
545.4048826924286
 30
0.0
 10
172.7412146891176
 20
545.8861909936887
 30
0.0
 10
172.974675191775
 20
546.3471007341684
 30
0.0
 10
173.2398957011627
 20
546.7860352988366
 30
0.0
 10
173.537148345527
 20
547.2032071172426
 30
0.0
 10
173.8660397629322
 20
547.5977170686832
 30
0.0
 10
174.2228977924089
 20
547.9664963252442
 30
0.0
 10
174.6047465829747
 20
548.3053151648435
 30
0.0
 10
175.0088160231807
 20
548.6110731710147
 30
0.0
 10
175.4351766428341
 20
548.8826586288035
 30
0.0
 10
175.8829714709119
 20
549.1235600874488
 30
0.0
 10
176.1970370315283
 20
549.254486709031
 30
0.0
 10
176.3550211859819
 20
549.3203466255578
 30
0.0
  0
LINE
  5
13B
330
1F
100
AcDbEntity
  8
0
  6
Continuous
 62
     8
370
    18
100
AcDbLine
 10
176.3550777852094
 20
549.3200512815756
 30
0.0
 11
154.6442998971349
 21
549.3200512815756
 31
0.0
  0
LINE
  5
13C
330
1F
100
AcDbEntity
  8
0
  6
Continuous
 62
     8
370
    18
100
AcDbLine
 10
202.6443003143674
 20
549.3200512815756
 30
0.0
 11
180.9333731818503
 21
549.3200512815756
 31
0.0
  0
LINE
  5
13D
330
1F
100
AcDbEntity
  8
0
  6
Continuous
 62
     7
370
    25
100
AcDbLine
 10
376.090902315315
 20
534.7649844576163
 30
0.0
 11
376.090902315315
 21
535.8909161974234
 31
0.0
  0
LINE
  5
13E
330
1F
100
AcDbEntity
  8
0
  6
Continuous
 62
     7
370
    25
100
AcDbLine
 10
376.090902315315
 20
523.8200517584128
 30
0.0
 11
376.090902315315
 21
526.8344225574774
 31
0.0
  0
LINE
  5
13F
330
1F
100
AcDbEntity
  8
0
  6
Continuous
 62
     7
370
    25
100
AcDbLine
 10
328.0909018980825
 20
549.3200512815756
 30
0.0
 11
328.0909018980825
 21
530.4758342195792
 31
0.0
  0
ARC
  5
140
330
1F
100
AcDbEntity
  8
0
  6
Continuous
 62
     7
370
    25
100
AcDbCircle
 10
329.5909021066987
 20
549.3200447577597
 30
0.0
 40
1.5
100
AcDbArc
 50
90.0
 51
180.0
  0
ARC
  5
141
330
1F
100
AcDbEntity
  8
0
  6
Continuous
 62
     7
370
    25
100
AcDbCircle
 10
328.3909021066987
 20
366.0080122368352
 30
0.0
 40
0.3000000000000114
100
AcDbArc
 50
180.0
 51
270.0000000000008
  0
ARC
  5
142
330
1F
100
AcDbEntity
  8
0
  6
Continuous
 62
     7
370
    25
100
AcDbCircle
 10
375.7909021066988
 20
366.0080122368352
 30
0.0
 40
0.3000000000000114
100
AcDbArc
 50
270.0000000000008
 51
0.0
  0
LINE
  5
143
330
1F
100
AcDbEntity
  8
0
  6
Continuous
 62
     7
370
    25
100
AcDbLine
 10
376.090902315315
 20
506.8391951013845
 30
0.0
 11
376.090902315315
 21
520.3200521160406
 31
0.0
  0
LINE
  5
144
330
1F
100
AcDbEntity
  8
0
  6
Continuous
 62
     7
370
    25
100
AcDbLine
 10
376.090902315315
 20
366.0080121577275
 30
0.0
 11
376.090902315315
 21
469.1244827796263
 31
0.0
  0
LINE
  5
145
330
1F
100
AcDbEntity
  8
0
  6
Continuous
 62
     7
370
    25
100
AcDbLine
 10
328.0909018980825
 20
520.3200521160406
 30
0.0
 11
328.0909018980825
 21
366.0080121577275
 31
0.0
  0
ARC
  5
146
330
1F
100
AcDbEntity
  8
0
  6
Continuous
 62
     7
370
    25
100
AcDbCircle
 10
375.5909021066988
 20
520.3200447577597
 30
0.0
 40
0.5
100
AcDbArc
 50
0.0
 51
90.0
  0
ARC
  5
147
330
1F
100
AcDbEntity
  8
0
  6
Continuous
 62
     7
370
    25
100
AcDbCircle
 10
328.5909021066987
 20
520.3200447577597
 30
0.0
 40
0.5
100
AcDbArc
 50
90.0
 51
180.0
  0
ARC
  5
148
330
1F
100
AcDbEntity
  8
0
  6
Continuous
 62
     7
370
    25
100
AcDbCircle
 10
375.6878679037415
 20
521.0200447577596
 30
0.0
 40
0.1999999999999471
100
AcDbArc
 50
270.0000000000008
 51
26.64216739274951
  0
ARC
  5
149
330
1F
100
AcDbEntity
  8
0
  6
Continuous
 62
     7
370
    25
100
AcDbCircle
 10
328.493936309656
 20
521.0200447577596
 30
0.0
 40
0.2000000000000487
100
AcDbArc
 50
153.3578326072651
 51
270.0000000000008
  0
ARC
  5
14A
330
1F
100
AcDbEntity
  8
0
  6
Continuous
 62
     7
370
    25
100
AcDbCircle
 10
352.0909021066988
 20
509.1818352152151
 30
0.0
 40
26.60000000000004
100
AcDbArc
 50
132.4746682197913
 51
153.3578326072984
  0
ARC
  5
14B
330
1F
100
AcDbEntity
  8
0
  6
Continuous
 62
     7
370
    25
100
AcDbCircle
 10
352.0909021066988
 20
509.1818352152151
 30
0.0
 40
26.59999999999999
100
AcDbArc
 50
26.64216739270164
 51
33.38818881245423
  0
SPLINE
  5
14C
330
1F
100
AcDbEntity
  8
0
  6
Continuous
 62
     7
370
    25
100
AcDbSpline
210
0.0
220
0.0
230
1.0
 70
     8
 71
     3
 72
    23
 73
    19
 74
     0
 42
0.000000001
 43
0.00000001
 40
0.0
 40
0.0
 40
0.0
 40
0.0
 40
0.0850576675645133
 40
0.1524428571582223
 40
0.2047715864135853
 40
0.2514931228586225
 40
0.3006417428220013
 40
0.4021714175406079
 40
0.5044654787296997
 40
0.5805242337659053
 40
0.6561907641613994
 40
0.7258475628735285
 40
0.7582652393021497
 40
0.7893279092503808
 40
0.8236606143889748
 40
0.8689376414072882
 40
0.9268535165178536
 40
1.0
 40
1.0
 40
1.0
 40
1.0
 10
432.3443541693056
 20
474.2619710255904
 30
0.0
 10
433.637129351362
 20
474.263767251221
 30
0.0
 10
435.9540791109644
 20
474.2669864997035
 30
0.0
 10
439.0662332158063
 20
474.2321154358564
 30
0.0
 10
441.5952423980037
 20
474.1751431454699
 30
0.0
 10
443.8463526031534
 20
474.0957545739573
 30
0.0
 10
446.842818567729
 20
473.9439992429768
 30
0.0
 10
450.6766575731571
 20
473.6340254450661
 30
0.0
 10
454.8906460504366
 20
473.0171619869969
 30
0.0
 10
458.6524294012652
 20
472.1286993465425
 30
0.0
 10
461.8454601386201
 20
471.0491863477457
 30
0.0
 10
464.3065182144325
 20
469.9235546512145
 30
0.0
 10
466.0820518537869
 20
468.9518441904772
 30
0.0
 10
467.3550450003466
 20
468.1832094502635
 30
0.0
 10
468.7586054985845
 20
467.2552699210347
 30
0.0
 10
470.4478410952066
 20
466.0230263856783
 30
0.0
 10
472.5361210966349
 20
464.3405567873894
 30
0.0
 10
474.0084989067914
 20
462.9982638807987
 30
0.0
 10
474.8302394913995
 20
462.249124257688
 30
0.0
  0
SPLINE
  5
14D
330
1F
100
AcDbEntity
  8
0
  6
Continuous
 62
     7
370
    25
100
AcDbSpline
210
0.0
220
0.0
230
1.0
 70
     8
 71
     3
 72
    30
 73
    26
 74
     0
 42
0.000000001
 43
0.00000001
 40
0.0
 40
0.0
 40
0.0
 40
0.0
 40
0.047164523178014
 40
0.0858008599227795
 40
0.1168351765154282
 40
0.1466032794214136
 40
0.1657898603994442
 40
0.1811349025435738
 40
0.1987126489931274
 40
0.2184632613948768
 40
0.2403409330373735
 40
0.2643251862507512
 40
0.3430590789896908
 40
0.4209086159286628
 40
0.5004734814280638
 40
0.5902393969315907
 40
0.6784429778756244
 40
0.7629765664510516
 40
0.7895223869684891
 40
0.8148340004276278
 40
0.8387768062260879
 40
0.8650683687323688
 40
0.9000450279334942
 40
0.9446432293632817
 40
1.0
 40
1.0
 40
1.0
 40
1.0
 10
493.4109518694246
 20
482.1745025206847
 30
0.0
 10
492.6458192246694
 20
482.8805129790684
 30
0.0
 10
491.2539035547664
 20
484.1648746212961
 30
0.0
 10
489.3117619493507
 20
485.8620063361504
 30
0.0
 10
487.6291574097495
 20
487.2716024779847
 30
0.0
 10
486.2502672516254
 20
488.3745888807707
 30
0.0
 10
485.1239828900416
 20
489.2383034376542
 30
0.0
 10
484.2003566909015
 20
489.9238398487725
 30
0.0
 10
483.2558470834487
 20
490.601921332844
 30
0.0
 10
482.1797887557915
 20
491.3436526903803
 30
0.0
 10
480.9688512972477
 20
492.1383656443015
 30
0.0
 10
478.6302089547554
 20
493.5858139494495
 30
0.0
 10
475.107905443316
 20
495.4677341766613
 30
0.0
 10
470.2682863861424
 20
497.4282664770999
 30
0.0
 10
465.0251946700903
 20
498.9656388012585
 30
0.0
 10
459.4439046652169
 20
500.0772947228499
 30
0.0
 10
453.6941712452272
 20
500.8173009936559
 30
0.0
 10
449.3085821678324
 20
501.1719369944957
 30
0.0
 10
446.3032682915312
 20
501.3492288135138
 30
0.0
 10
444.632185898314
 20
501.4323607432834
 30
0.0
 10
442.9661191522927
 20
501.502039012093
 30
0.0
 10
441.0863757293988
 20
501.5669304145299
 30
0.0
 10
438.7503955990857
 20
501.6284732539895
 30
0.0
 10
435.7724851591109
 20
501.6814070597998
 30
0.0
 10
433.5662209619402
 20
501.6944619391269
 30
0.0
 10
432.3443541693056
 20
501.7016919542593
 30
0.0
  0
ARC
  5
14E
330
1F
100
AcDbEntity
  8
0
  6
Continuous
 62
     7
370
    25
100
AcDbCircle
 10
487.7328509584688
 20
467.2653514814273
 30
0.0
 40
7.000000000000069
100
AcDbArc
 50
10.39845040097883
 51
18.25065915298216
  0
SPLINE
  5
14F
330
1F
100
AcDbEntity
  8
0
  6
Continuous
 62
     7
370
    25
100
AcDbSpline
210
0.0
220
0.0
230
1.0
 70
     8
 71
     3
 72
    13
 73
     9
 74
     0
 42
0.000000001
 43
0.00000001
 40
0.0
 40
0.0
 40
0.0
 40
0.0
 40
0.2394823331271997
 40
0.3683761462814298
 40
0.4999985742941367
 40
0.6316232724075266
 40
0.760518669510871
 40
1.0
 40
1.0
 40
1.0
 40
1.0
 10
376.090902315315
 20
535.8892174650473
 30
0.0
 10
376.1239215624035
 20
536.20050460815
 30
0.0
 10
376.1747123778959
 20
536.679332238839
 30
0.0
 10
376.4829459664552
 20
537.2555311986437
 30
0.0
 10
376.8019575947046
 20
537.6521146628145
 30
0.0
 10
377.1979864744382
 20
537.971818077244
 30
0.0
 10
377.7736507468463
 20
538.2810561897932
 30
0.0
 10
378.2523887943191
 20
538.3326871545501
 30
0.0
 10
378.5636159049833
 20
538.3662523914619
 30
0.0
  0
SPLINE
  5
150
330
1F
100
AcDbEntity
  8
0
  6
Continuous
 62
     7
370
    25
100
AcDbSpline
210
0.0
220
0.0
230
1.0
 70
     8
 71
     3
 72
    13
 73
     9
 74
     0
 42
0.000000001
 43
0.00000001
 40
0.0
 40
0.0
 40
0.0
 40
0.0
 40
0.2602922580821875
 40
0.4003889414352692
 40
0.543449467277789
 40
0.6865134146702103
 40
0.8266083759887576
 40
1.0
 40
1.0
 40
1.0
 40
1.0
 10
378.5636140423381
 20
547.2738387275976
 30
0.0
 10
378.2523629587062
 20
547.3073959761332
 30
0.0
 10
377.7735877050196
 20
547.3590146885666
 30
0.0
 10
377.1981125929914
 20
547.6683120687118
 30
0.0
 10
376.8014762915515
 20
547.987815940259
 30
0.0
 10
376.4846956493469
 20
548.3850969534589
 30
0.0
 10
376.2170026002995
 20
548.8664629872717
 30
0.0
 10
376.1731206304831
 20
549.240096528823
 30
0.0
 10
376.1488492059076
 20
549.4467558552069
 30
0.0
  0
LINE
  5
151
330
1F
100
AcDbEntity
  8
0
  6
Continuous
 62
     7
370
    25
100
AcDbLine
 10
378.5633104311788
 20
538.3662523914618
 30
0.0
 11
450.5935231613481
 21
538.4919585872931
 31
0.0
  0
LINE
  5
152
330
1F
100
AcDbEntity
  8
0
  6
Continuous
 62
     7
370
    25
100
AcDbLine
 10
450.5935231613481
 20
547.1481325317664
 30
0.0
 11
378.5633569973076
 21
547.2738387275976
 31
0.0
  0
ARC
  5
153
330
1F
100
AcDbEntity
  8
0
  6
Continuous
 62
     7
370
    25
100
AcDbCircle
 10
450.5909021066987
 20
545.6481273672435
 30
0.0
 40
1.500000000000057
100
AcDbArc
 50
0.0
 51
89.8999999999983
  0
ARC
  5
154
330
1F
100
AcDbEntity
  8
0
  6
Continuous
 62
     7
370
    25
100
AcDbCircle
 10
450.5909021066987
 20
539.9919621482758
 30
0.0
 40
1.500000000000069
100
AcDbArc
 50
270.1000000000025
 51
0.0
  0
LINE
  5
155
330
1F
100
AcDbEntity
  8
0
  6
Continuous
 62
     7
370
    25
100
AcDbLine
 10
376.0886075364912
 20
526.8200429369253
 30
0.0
 11
376.4409026520813
 21
526.8200429369253
 31
0.0
  0
LINE
  5
156
330
1F
100
AcDbEntity
  8
0
  6
Continuous
 62
     7
370
    25
100
AcDbLine
 10
376.4409026520813
 20
534.8200442482275
 30
0.0
 11
376.0817995684707
 21
534.8200442482275
 31
0.0
  0
LINE
  5
157
330
1F
100
AcDbEntity
  8
0
  6
Continuous
 62
     7
370
    25
100
AcDbLine
 10
376.4409026520813
 20
526.8200429369253
 30
0.0
 11
377.0414492505157
 21
527.0386280704779
 31
0.0
  0
LINE
  5
158
330
1F
100
AcDbEntity
  8
0
  6
Continuous
 62
     7
370
    25
100
AcDbLine
 10
377.0414492505157
 20
534.601459114675
 30
0.0
 11
376.4409026520813
 21
534.8200442482275
 31
0.0
  0
ARC
  5
159
330
1F
100
AcDbEntity
  8
0
  6
Continuous
 62
     7
370
    25
100
AcDbCircle
 10
376.9730454479548
 20
534.4135248666843
 30
0.0
 40
0.2000000000000455
100
AcDbArc
 50
0.0000000000000443
 51
69.99999999999322
  0
ARC
  5
15A
330
1F
100
AcDbEntity
  8
0
  6
Continuous
 62
     7
370
    25
100
AcDbCircle
 10
376.9730454479548
 20
527.2265646488349
 30
0.0
 40
0.2000000000000455
100
AcDbArc
 50
290.0000000000076
 51
0.0000000000000443
  0
LINE
  5
15B
330
1F
100
AcDbEntity
  8
0
  6
Continuous
 62
     7
370
    25
100
AcDbLine
 10
377.1730451303089
 20
527.2265615154547
 30
0.0
 11
377.1730451303089
 21
534.4135256696982
 31
0.0
  0
ARC
  5
15C
330
1F
100
AcDbEntity
  8
0
  6
Continuous
 62
     7
370
    25
100
AcDbCircle
 10
374.6138310519632
 20
549.3200729852517
 30
0.0
 40
1.499966103984489
100
AcDbArc
 50
4.323465048297016
 51
91.18361222284825
  0
SPLINE
  5
15D
330
1F
100
AcDbEntity
  8
0
  6
Continuous
 62
     7
370
    25
100
AcDbSpline
210
0.0
220
0.0
230
1.0
 70
     8
 71
     3
 72
    14
 73
    10
 74
     0
 42
0.000000001
 43
0.00000001
 40
0.0
 40
0.0
 40
0.0
 40
0.0
 40
0.25
 40
0.25
 40
0.5
 40
0.5
 40
0.75
 40
0.75
 40
1.0
 40
1.0
 40
1.0
 40
1.0
 10
346.8188959711471
 20
525.2821014555822
 30
0.0
 10
347.6835986513253
 20
525.0422981790585
 30
0.0
 10
348.5562544298635
 20
524.8025036138566
 30
0.0
 10
350.334718431447
 20
524.3892648894066
 30
0.0
 10
351.2336085515659
 20
524.2166801266724
 30
0.0
 10
353.0530385483068
 20
523.9701375177639
 30
0.0
 10
353.9631070461439
 20
523.897602009453
 30
0.0
 10
355.7701460116107
 20
523.8222083586911
 30
0.0
 10
356.6691307466682
 20
523.8200447577597
 30
0.0
 10
357.561885301995
 20
523.8200447577597
 30
0.0
  0
LWPOLYLINE
  5
15E
330
1F
100
AcDbEntity
  8
0
  6
Continuous
 62
     7
370
    25
100
AcDbPolyline
 90
       14
 70
   128
 43
0.0
 10
346.8188959563637
 20
525.2820940901083
 10
344.4214160012567
 20
525.9469839025778
 10
342.1064861508572
 20
526.5889706302924
 10
339.8990253376329
 20
527.2011550356192
 10
337.8227916004622
 20
527.7769359041495
 10
335.9001329558456
 20
528.3101441551489
 10
334.1517443227136
 20
528.7950130392355
 10
332.5964449363315
 20
529.2263420511526
 10
331.2509762513006
 20
529.5994671274466
 10
330.1298184710109
 20
529.9103947569174
 10
329.2450378107393
 20
530.1557572771353
 10
328.606161700424
 20
530.3329469848914
 10
328.2200651633108
 20
530.4400118280691
 10
328.0909018980825
 20
530.4758342195792
  0
LINE
  5
15F
330
1F
100
AcDbEntity
  8
0
  6
Continuous
 62
     7
370
    25
100
AcDbLine
 10
357.5618853251004
 20
523.8200517584128
 30
0.0
 11
376.090902315315
 21
523.8200517584128
 31
0.0
  0
SPLINE
  5
160
330
1F
100
AcDbEntity
  8
0
  6
Continuous
 62
     7
370
    25
100
AcDbSpline
210
0.0
220
0.0
230
1.0
 70
     8
 71
     3
 72
    11
 73
     7
 74
     0
 42
0.000000001
 43
0.00000001
 40
0.0
 40
0.0
 40
0.0
 40
0.0
 40
0.2800170363048095
 40
0.559980983414935
 40
0.8406126978352706
 40
1.0
 40
1.0
 40
1.0
 40
1.0
 10
375.7979249971473
 20
532.2423519779487
 30
0.0
 10
375.8290624937229
 20
532.6486842056614
 30
0.0
 10
375.8913315834309
 20
533.4612716234503
 30
0.0
 10
376.0101181917115
 20
534.3188235732432
 30
0.0
 10
376.0859638776523
 20
534.7916571061156
 30
0.0
 10
376.0829027920893
 20
534.7720769445536
 30
0.0
 10
376.0817939805353
 20
534.7649844576164
 30
0.0
  0
SPLINE
  5
161
330
1F
100
AcDbEntity
  8
0
  6
Continuous
 62
     7
370
    25
100
AcDbSpline
210
0.0
220
0.0
230
1.0
 70
     8
 71
     3
 72
    14
 73
    10
 74
     0
 42
0.000000001
 43
0.00000001
 40
0.0
 40
0.0
 40
0.0
 40
0.0
 40
0.0118900542338548
 40
0.1839938005627975
 40
0.3562047581088191
 40
0.530481312406989
 40
0.7056487633334974
 40
0.8790731611514654
 40
1.0
 40
1.0
 40
1.0
 40
1.0
 10
376.0885591077173
 20
526.8344225574774
 30
0.0
 10
376.08933297956
 20
526.8296714844319
 30
0.0
 10
376.1013083346498
 20
526.7561505425416
 30
0.0
 10
376.055059493257
 20
527.0318736149104
 30
0.0
 10
375.9593124183
 20
527.6694424557603
 30
0.0
 10
375.8392627488349
 20
528.7102100767025
 30
0.0
 10
375.7579717665381
 20
529.977980282843
 30
0.0
 10
375.7473131359516
 20
531.2170868411944
 30
0.0
 10
375.7831870835817
 20
531.9438000454501
 30
0.0
 10
375.7979249971473
 20
532.2423519779486
 30
0.0
  0
LINE
  5
162
330
1F
100
AcDbEntity
  8
0
  6
Continuous
 62
     7
370
    25
100
AcDbLine
 10
329.5909012126291
 20
550.8200468708319
 30
0.0
 11
374.4882395880783
 21
550.8200468708319
 31
0.0
  0
LINE
  5
163
330
1F
100
AcDbEntity
  8
0
  6
Continuous
 62
     7
370
    25
100
AcDbLine
 10
375.7909028249347
 20
365.708012201686
 30
0.0
 11
328.3909013884628
 21
365.708012201686
 31
0.0
  0
LINE
  5
164
330
1F
100
AcDbEntity
  8
0
  6
Continuous
 62
     7
370
    25
100
AcDbLine
 10
375.6878687458599
 20
520.820045678739
 30
0.0
 11
328.4939354675377
 21
520.820045678739
 31
0.0
  0
ARC
  5
165
330
1F
100
AcDbEntity
  8
0
  6
Continuous
 62
     7
370
    25
100
AcDbCircle
 10
381.0493111790954
 20
506.8391901686692
 30
0.0
 40
4.958409072396674
100
AcDbArc
 50
180.0
 51
269.7999999999998
  0
ARC
  5
166
330
1F
100
AcDbEntity
  8
0
  6
Continuous
 62
     7
370
    25
100
AcDbCircle
 10
381.0493111790954
 20
469.1244802617611
 30
0.0
 40
4.958409072396591
100
AcDbArc
 50
90.20000000000101
 51
180.0
  0
LINE
  5
167
330
1F
100
AcDbEntity
  8
0
  6
Continuous
 62
     7
370
    25
100
AcDbLine
 10
432.3443541693056
 20
474.2619710255904
 30
0.0
 11
381.0320025699699
 21
474.0828590680403
 31
0.0
  0
LINE
  5
168
330
1F
100
AcDbEntity
  8
0
  6
Continuous
 62
     7
370
    25
100
AcDbLine
 10
381.0320025699699
 20
501.8808039118093
 30
0.0
 11
432.3443541693056
 21
501.7016919542593
 31
0.0
  0
LINE
  5
169
330
1F
100
AcDbEntity
  8
0
  6
Continuous
 62
     7
370
    25
100
AcDbLine
 10
493.4109518694246
 20
482.1745025206847
 30
0.0
 11
500.0050733255708
 21
476.0253893424315
 31
0.0
  0
LINE
  5
16A
330
1F
100
AcDbEntity
  8
0
  6
Continuous
 62
     7
370
    25
100
AcDbLine
 10
478.2978365587556
 20
459.0155275751395
 30
0.0
 11
474.8302394913995
 21
462.249124257688
 31
0.0
  0
ARC
  5
16B
330
1F
100
AcDbEntity
  8
0
  6
Continuous
 62
     7
370
    25
100
AcDbCircle
 10
498.9820708185041
 20
474.9283584896522
 30
0.0
 40
1.500000000000078
100
AcDbArc
 50
307.0000000000011
 51
47.00000000000911
  0
LWPOLYLINE
  5
16C
330
1F
100
AcDbEntity
  8
0
  6
Continuous
 62
     7
370
    25
100
AcDbPolyline
 90
       22
 70
   128
 43
0.0
 10
499.8847911524141
 20
473.7304019023222
 10
499.7749993967378
 20
473.6476632047934
 10
499.4480530189836
 20
473.4012948561949
 10
498.9112535881364
 20
472.9967953850073
 10
498.1766114401186
 20
472.4432023454947
 10
497.2605327534044
 20
471.7528837014479
 10
496.1834619211519
 20
470.941254704122
 10
494.9694792198503
 20
470.0264575172705
 10
493.6457047628725
 20
469.0289141823096
 10
492.2417024540269
 20
467.9709168363852
 10
490.7888243364656
 20
466.8760987211508
 10
489.3195400404298
 20
465.7689126421255
 10
487.8666619228685
 20
464.6740945268912
 10
486.4626447128618
 20
463.6160971809668
 10
485.1388702558839
 20
462.6185538460059
 10
483.9248875545824
 20
461.7037566591544
 10
482.8478316234911
 20
460.8921276618285
 10
481.9317380356157
 20
460.2018090177817
 10
481.1970958875978
 20
459.648215978269
 10
480.6603113579118
 20
459.2437165070814
 10
480.3333649801576
 20
458.997348158483
 10
480.2235583233202
 20
458.9146020103735
  0
ARC
  5
16D
330
1F
100
AcDbEntity
  8
0
  6
Continuous
 62
     7
370
    25
100
AcDbCircle
 10
479.3208405111147
 20
460.112558761515
 30
0.0
 40
1.500000000000184
100
AcDbArc
 50
226.9999999999929
 51
306.9999999999985
  0
LINE
  5
16E
330
1F
100
AcDbEntity
  8
0
  6
Continuous
 62
     7
370
    25
100
AcDbLine
 10
495.2897796797121
 20
470.2678116251273
 30
0.0
 11
495.3499505686128
 21
470.1879488517088
 31
0.0
  0
LINE
  5
16F
330
1F
100
AcDbEntity
  8
0
  6
Continuous
 62
     7
370
    25
100
AcDbLine
 10
496.4141318964327
 20
471.1150767494482
 30
0.0
 11
496.4743176864946
 21
471.0352139760298
 31
0.0
  0
LWPOLYLINE
  5
170
330
1F
100
AcDbEntity
  8
0
  6
Continuous
 62
     7
370
    25
100
AcDbPolyline
 90
        9
 70
   128
 43
0.0
 10
496.4743176864946
 20
471.0352139760298
 10
496.471352355417
 20
471.0329788018507
 10
496.4624861645067
 20
471.0262956310553
 10
496.4477042126024
 20
471.0151570130629
 10
496.4270214008653
 20
470.9995703984541
 10
496.4004675316179
 20
470.9795581389708
 10
496.3680426048601
 20
470.9551351357741
 10
496.3298062252367
 20
470.9263162900252
 10
496.2857583927477
 20
470.8931165028853
  0
LINE
  5
171
330
1F
100
AcDbEntity
  8
0
  6
Continuous
 62
     7
370
    25
100
AcDbLine
 10
496.2255726026857
 20
470.9729792763037
 30
0.0
 11
496.2857583927477
 21
470.8931165028853
 31
0.0
  0
LINE
  5
172
330
1F
100
AcDbEntity
  8
0
  6
Continuous
 62
     7
370
    25
100
AcDbLine
 10
494.2504236864412
 20
469.484599142198
 30
0.0
 11
494.310594575342
 21
469.4047363687796
 31
0.0
  0
LWPOLYLINE
  5
173
330
1F
100
AcDbEntity
  8
0
  6
Continuous
 62
     7
370
    25
100
AcDbPolyline
 90
        9
 70
   128
 43
0.0
 10
494.310594575342
 20
469.4047363687796
 10
494.1606888937318
 20
469.2917632151884
 10
494.0067002939546
 20
469.1757278729719
 10
493.8487777876222
 20
469.0567271996779
 10
493.6870405840242
 20
468.9348506022734
 10
493.5216078924501
 20
468.8101949383063
 10
493.3526436256731
 20
468.6828645159048
 10
493.1802520918214
 20
468.5529561926169
 10
493.0045823025072
 20
468.4205742765707
  0
LINE
  5
174
330
1F
100
AcDbEntity
  8
0
  6
Continuous
 62
     7
370
    25
100
AcDbLine
 10
492.9443965124452
 20
468.5004445005698
 30
0.0
 11
493.0045823025072
 21
468.4205742765707
 31
0.0
  0
LINE
  5
175
330
1F
100
AcDbEntity
  8
0
  6
Continuous
 62
     7
370
    25
100
AcDbLine
 10
489.0267471241319
 20
465.5482860494894
 30
0.0
 11
489.0869329141939
 21
465.468423276071
 31
0.0
  0
LWPOLYLINE
  5
176
330
1F
100
AcDbEntity
  8
0
  6
Continuous
 62
     7
370
    25
100
AcDbPolyline
 90
        9
 70
   128
 43
0.0
 10
489.0869329141939
 20
465.468423276071
 10
488.8778696226442
 20
465.3108881999296
 10
488.6689851450288
 20
465.1534723330778
 10
488.4604284929597
 20
464.9963172365469
 10
488.2523784803712
 20
464.8395346690459
 10
488.0449841188753
 20
464.6832587410254
 10
487.8384391235674
 20
464.5276161123556
 10
487.6328925060594
 20
464.3727185417456
 10
487.4285081791246
 20
464.218700139646
  0
LINE
  5
177
330
1F
100
AcDbEntity
  8
0
  6
Continuous
 62
     7
370
    25
100
AcDbLine
 10
487.3683223890627
 20
464.2985629130644
 30
0.0
 11
487.4285081791246
 21
464.218700139646
 31
0.0
  0
LINE
  5
178
330
1F
100
AcDbEntity
  8
0
  6
Continuous
 62
     7
370
    25
100
AcDbLine
 10
483.8030854629839
 20
461.6119729567808
 30
0.0
 11
483.8632712530458
 21
461.5321101833624
 31
0.0
  0
LWPOLYLINE
  5
179
330
1F
100
AcDbEntity
  8
0
  6
Continuous
 62
     7
370
    25
100
AcDbPolyline
 90
        9
 70
   128
 43
0.0
 10
483.8632712530458
 20
461.5321101833624
 10
483.71753789657
 20
461.4222886253638
 10
483.576096074518
 20
461.3157080699248
 10
483.4390798973405
 20
461.2124579240126
 10
483.306593673166
 20
461.1126201440138
 10
483.1787268089616
 20
461.0162617851538
 10
483.0555836128557
 20
460.9234797049803
 10
482.9372832941377
 20
460.8343335081381
 10
482.8239152597749
 20
460.7488977004332
  0
LINE
  5
17A
330
1F
100
AcDbEntity
  8
0
  6
Continuous
 62
     7
370
    25
100
AcDbLine
 10
482.763729469713
 20
460.8287604738516
 30
0.0
 11
482.8239152597749
 21
460.7488977004332
 31
0.0
  0
LINE
  5
17B
330
1F
100
AcDbEntity
  8
0
  6
Continuous
 62
     7
370
    25
100
AcDbLine
 10
492.5208608078325
 20
468.1812914301199
 30
0.0
 11
492.5810465978944
 21
468.1014286567015
 31
0.0
  0
LINE
  5
17C
330
1F
100
AcDbEntity
  8
0
  6
Continuous
 62
     7
370
    25
100
AcDbLine
 10
492.5810465978944
 20
468.1014286567015
 30
0.0
 11
493.0045823025072
 21
468.4205742765707
 31
0.0
  0
LWPOLYLINE
  5
17D
330
1F
100
AcDbEntity
  8
0
  6
Continuous
 62
     7
370
    25
100
AcDbPolyline
 90
        9
 70
   128
 43
0.0
 10
489.5664075779283
 20
465.9549387384695
 10
490.0153795646989
 20
466.1837088156981
 10
491.1759267019594
 20
466.7750315953535
 10
492.2293046879137
 20
467.3117565203947
 10
493.1310037540758
 20
467.771196572904
 10
493.8429067301118
 20
468.1339280892653
 10
494.3349132704103
 20
468.38461777461
 10
494.5862213539446
 20
468.5126634527487
 10
494.6178863214815
 20
468.5288014103216
  0
LINE
  5
17E
330
1F
100
AcDbEntity
  8
0
  6
Continuous
 62
     7
370
    25
100
AcDbLine
 10
484.4279954599702
 20
461.9576575447363
 30
0.0
 11
484.3678096699083
 21
462.0375203181547
 31
0.0
  0
LINE
  5
17F
330
1F
100
AcDbEntity
  8
0
  6
Continuous
 62
     7
370
    25
100
AcDbLine
 10
483.8632712530458
 20
461.5321101833624
 30
0.0
 11
484.4279954599702
 21
461.9576575447363
 31
0.0
  0
LINE
  5
180
330
1F
100
AcDbEntity
  8
0
  6
Continuous
 62
     7
370
    25
100
AcDbLine
 10
452.0909035968149
 20
545.6481220413489
 30
0.0
 11
452.0909035968149
 21
539.9919690777106
 31
0.0
  0
LINE
  5
181
330
1F
100
AcDbEntity
  8
0
  6
Continuous
 62
     7
370
    25
100
AcDbLine
 10
376.4409026520813
 20
532.2423519779486
 30
0.0
 11
376.4409026520813
 21
534.8200442482275
 31
0.0
  0
LINE
  5
182
330
1F
100
AcDbEntity
  8
0
  6
Continuous
 62
     7
370
    25
100
AcDbLine
 10
376.4409026520813
 20
526.8200429369253
 30
0.0
 11
376.4409026520813
 21
532.2423519779486
 31
0.0
  0
LINE
  5
183
330
1F
100
AcDbEntity
  8
0
  6
Continuous
 62
     7
370
    25
100
AcDbLine
 10
495.4473147558534
 20
470.3865291763586
 30
0.0
 11
495.5075005459154
 21
470.3066664029402
 31
0.0
  0
LINE
  5
184
330
1F
100
AcDbEntity
  8
0
  6
Continuous
 62
     7
370
    25
100
AcDbLine
 10
495.5075005459154
 20
470.3066664029402
 30
0.0
 11
496.2857583927477
 21
470.8931165028853
 31
0.0
  0
LINE
  5
185
330
1F
100
AcDbEntity
  8
0
  6
Continuous
 62
     7
370
    25
100
AcDbLine
 10
482.4981907772386
 20
460.5034457732481
 30
0.0
 11
482.4380049871767
 21
460.5833085466666
 31
0.0
  0
LINE
  5
186
330
1F
100
AcDbEntity
  8
0
  6
Continuous
 62
     7
370
    25
100
AcDbLine
 10
481.6393772529924
 20
459.9814953495306
 30
0.0
 11
481.6995630430544
 21
459.9016325761122
 31
0.0
  0
LINE
  5
187
330
1F
100
AcDbEntity
  8
0
  6
Continuous
 62
     7
370
    25
100
AcDbLine
 10
481.6995630430544
 20
459.9016325761122
 30
0.0
 11
482.4981907772386
 21
460.5034457732481
 31
0.0
  0
LINE
  5
188
330
1F
100
AcDbEntity
  8
0
  6
Continuous
 62
     7
370
    25
100
AcDbLine
 10
482.6061943935716
 20
460.7100429226202
 30
0.0
 11
482.6663652824724
 21
460.6301801492018
 31
0.0
  0
LWPOLYLINE
  5
189
330
1F
100
AcDbEntity
  8
0
  6
Continuous
 62
     7
370
    25
100
AcDbPolyline
 90
        9
 70
   128
 43
0.0
 10
482.4981907772386
 20
460.5034457732481
 10
482.5008282827699
 20
460.5054350782675
 10
482.5087407993639
 20
460.5114029933256
 10
482.5219283270204
 20
460.5213346172613
 10
482.5403759645784
 20
460.5352299500746
 10
482.5640539097154
 20
460.5530815411848
 10
482.5929621624315
 20
460.5748670388502
 10
482.6270858215654
 20
460.6005715419096
 10
482.6663652824724
 20
460.6301801492018
  0
LINE
  5
18A
330
1F
100
AcDbEntity
  8
0
  6
Continuous
 62
     7
370
    25
100
AcDbLine
 10
494.6728716062868
 20
469.6777256418509
 30
0.0
 11
495.3499505686128
 21
470.1879488517088
 31
0.0
  0
LINE
  5
18B
330
1F
100
AcDbEntity
  8
0
  6
Continuous
 62
     7
370
    25
100
AcDbLine
 10
494.6126858162248
 20
469.7575884152693
 30
0.0
 11
494.6728716062868
 21
469.6777256418509
 31
0.0
  0
LWPOLYLINE
  5
18C
330
1F
100
AcDbEntity
  8
0
  6
Continuous
 62
     7
370
    25
100
AcDbPolyline
 90
        4
 70
   128
 43
0.0
 10
494.3807194399202
 20
469.457575886373
 10
494.4662372040117
 20
469.5220234085364
 10
494.5717523264253
 20
469.6015285540861
 10
494.6728716062868
 20
469.6777256418509
  0
LINE
  5
18D
330
1F
100
AcDbEntity
  8
0
  6
Continuous
 62
     7
370
    25
100
AcDbLine
 10
485.5326334404314
 20
462.9152806688589
 30
0.0
 11
485.5928192304933
 21
462.8354178954405
 31
0.0
  0
LWPOLYLINE
  5
18E
330
1F
100
AcDbEntity
  8
0
  6
Continuous
 62
     7
370
    25
100
AcDbPolyline
 90
        9
 70
   128
 43
0.0
 10
484.4279954599702
 20
461.9576575447363
 10
484.5617035793626
 20
462.0584117461485
 10
484.6990326809251
 20
462.1619003106398
 10
484.8398933576906
 20
462.2680412818236
 10
484.984136598047
 20
462.3767452527327
 10
485.1316729950273
 20
462.4879228164
 10
485.2823833393419
 20
462.6014920164389
 10
485.4361484217012
 20
462.7173485447211
 10
485.5928192304933
 20
462.8354178954405
  0
LINE
  5
18F
330
1F
100
AcDbEntity
  8
0
  6
Continuous
 62
     8
370
    18
100
AcDbLine
 10
375.981475638088
 20
549.3200512815756
 30
0.0
 11
328.0909018980825
 21
549.3200512815756
 31
0.0
  0
SPLINE
  5
190
330
1F
100
AcDbEntity
  8
0
  6
Continuous
 62
     8
370
    18
100
AcDbSpline
210
0.0
220
0.0
230
1.0
 70
     8
 71
     3
 72
    23
 73
    19
 74
     0
 42
0.000000001
 43
0.00000001
 40
0.0
 40
0.0
 40
0.0
 40
0.0
 40
0.0008788690774479
 40
0.0701455659158794
 40
0.13986370376631
 40
0.2090415905854861
 40
0.2789316762535177
 40
0.3485740614678408
 40
0.4196432671229509
 40
0.4915248290636544
 40
0.562426513321986
 40
0.6340048360663526
 40
0.7055599620175934
 40
0.776152529205063
 40
0.8464368473823713
 40
0.9163273346080133
 40
0.9855524145263777
 40
1.0
 40
1.0
 40
1.0
 40
1.0
 10
376.0904571431244
 20
535.8909161974235
 30
0.0
 10
376.0906054013792
 20
535.8903483943773
 30
0.0
 10
376.1024384029669
 20
535.8450300790288
 30
0.0
 10
376.0601047643535
 20
536.0033396578842
 30
0.0
 10
375.9627284936433
 20
536.3912311115321
 30
0.0
 10
375.8068117354263
 20
537.0519629206161
 30
0.0
 10
375.628915798499
 20
537.9208390478872
 30
0.0
 10
375.4507241267175
 20
538.9751739316015
 30
0.0
 10
375.3016355494053
 20
540.1803118576868
 30
0.0
 10
375.1984218544807
 20
541.4815670391254
 30
0.0
 10
375.1633126073619
 20
542.8374379119939
 30
0.0
 10
375.1990977786863
 20
544.1908855681949
 30
0.0
 10
375.3023261407465
 20
545.4915432633036
 30
0.0
 10
375.4536600491131
 20
546.69105861772
 30
0.0
 10
375.6330292100988
 20
547.7398184012518
 30
0.0
 10
375.8111993274972
 20
548.6079764518857
 30
0.0
 10
375.9247566543364
 20
549.088322531905
 30
0.0
 10
375.9731193618255
 20
549.2861848320837
 30
0.0
 10
375.9814700501526
 20
549.3203493047995
 30
0.0
  0
SPLINE
  5
191
330
1F
100
AcDbEntity
  8
0
  6
Continuous
 62
     8
370
    18
100
AcDbSpline
210
0.0
220
0.0
230
1.0
 70
     8
 71
     3
 72
    14
 73
    10
 74
     0
 42
0.000000001
 43
0.00000001
 40
0.0
 40
0.0
 40
0.0
 40
0.0
 40
0.25
 40
0.25
 40
0.5
 40
0.5
 40
0.75
 40
0.75
 40
1.0
 40
1.0
 40
1.0
 40
1.0
 10
374.4881723723743
 20
550.8200447573148
 30
0.0
 10
374.6836061292756
 20
550.8200399761463
 30
0.0
 10
374.8789620893125
 20
550.7810056128634
 30
0.0
 10
375.2400814154798
 20
550.6307595726075
 30
0.0
 10
375.40570277824
 20
550.519606977059
 30
0.0
 10
375.6821124283577
 20
550.2419915429824
 30
0.0
 10
375.7927920228288
 20
550.0756378714926
 30
0.0
 10
375.9424231163862
 20
549.7129054415093
 30
0.0
 10
375.9813157758645
 20
549.5166693207087
 30
0.0
 10
375.9813552990145
 20
549.3203481072215
 30
0.0
  0
SPLINE
  5
192
330
1F
100
AcDbEntity
  8
0
  6
Continuous
 62
     8
370
    18
100
AcDbSpline
210
0.0
220
0.0
230
1.0
 70
     8
 71
     3
 72
    51
 73
    47
 74
     0
 42
0.000000001
 43
0.00000001
 40
0.0
 40
0.0
 40
0.0
 40
0.0
 40
0.0064481236269583
 40
0.0128865905689032
 40
0.0193189808653557
 40
0.0257488847059177
 40
0.0321798964444856
 40
0.0386156085786837
 40
0.0450596057448088
 40
0.0515154587783024
 40
0.0579867188884792
 40
0.0644769119940559
 40
0.0709895332629909
 40
0.0775280418963459
 40
0.0840958561914871
 40
0.0906963489150479
 40
0.0973328430108461
 40
0.1040086076625544
 40
0.1107268547254605
 40
0.1396099723023932
 40
0.1687003391313578
 40
0.1982280827363043
 40
0.2284133339390112
 40
0.292915289956678
 40
0.3563561245998269
 40
0.4050711963747763
 40
0.4525789242280397
 40
0.5000728860776713
 40
0.5476629704320302
 40
0.5952793311671546
 40
0.6441236652252801
 40
0.7075121910286731
 40
0.7719665068052061
 40
0.8019981161467983
 40
0.8313824877144703
 40
0.8603366484024949
 40
0.8890873639680457
 40
0.9017628260649256
 40
0.9142965034830547
 40
0.9267106640532249
 40
0.939028223814602
 40
0.9512726411974683
 40
0.9634677967257487
 40
0.9756378609161735
 40
0.987807153794184
 40
1.0
 40
1.0
 40
1.0
 40
1.0
 10
376.0909021066988
 20
469.1244802617611
 30
0.0
 10
376.0903404407148
 20
469.1253304191344
 30
0.0
 10
376.0892179498955
 20
469.1270294606885
 30
0.0
 10
376.0801545820452
 20
469.1407272948048
 30
0.0
 10
376.0657332230443
 20
469.1625922456856
 30
0.0
 10
376.0454630838068
 20
469.1934211853959
 30
0.0
 10
376.0195265853332
 20
469.2330008149341
 30
0.0
 10
375.9879275372908
 20
469.2813882067015
 30
0.0
 10
375.95071916441
 20
469.3385679558583
 30
0.0
 10
375.9079429650284
 20
469.4045440520877
 30
0.0
 10
375.8596450697764
 20
469.4793152436344
 30
0.0
 10
375.8058718086442
 20
469.5628816501052
 30
0.0
 10
375.7466708711289
 20
469.6552429984757
 30
0.0
 10
375.6820909196204
 20
469.7563990663701
 30
0.0
 10
375.6121817831866
 20
469.8663496965482
 30
0.0
 10
375.5369938768233
 20
469.9850943091503
 30
0.0
 10
375.4565801543373
 20
470.1126338723978
 30
0.0
 10
375.370988630392
 20
470.2489634695574
 30
0.0
 10
375.1807672862117
 20
470.553358841277
 30
0.0
 10
374.851794342492
 20
471.0844223928045
 30
0.0
 10
374.3410289130029
 20
471.9376527510133
 30
0.0
 10
373.7733769885397
 20
472.9312226320715
 30
0.0
 10
372.9353665358992
 20
474.4815449041591
 30
0.0
 10
371.8206837285919
 20
476.7422320088479
 30
0.0
 10
370.7030326171284
 20
479.6539708479526
 30
0.0
 10
369.9152011062221
 20
482.51283234087
 30
0.0
 10
369.4616389004546
 20
485.2258417568935
 30
0.0
 10
369.3114923024975
 20
487.9876933703977
 30
0.0
 10
369.4628197028167
 20
490.7516045546977
 30
0.0
 10
369.9192946835074
 20
493.4702856852736
 30
0.0
 10
370.7101444914042
 20
496.3309713933589
 30
0.0
 10
371.8293695389513
 20
499.240797818493
 30
0.0
 10
372.9423778323671
 20
501.4955950153666
 30
0.0
 10
373.7777088284028
 20
503.0401072052899
 30
0.0
 10
374.3423770124735
 20
504.0281708989467
 30
0.0
 10
374.8507119425387
 20
504.8773294951232
 30
0.0
 10
375.2088181314934
 20
505.4556322189725
 30
0.0
 10
375.4467291953339
 20
505.8356814002458
 30
0.0
 10
375.5960215928837
 20
506.0721006616848
 30
0.0
 10
375.7264401904899
 20
506.277016456444
 30
0.0
 10
375.8376599563825
 20
506.4504202290612
 30
0.0
 10
375.9293061902914
 20
506.5922557990971
 30
0.0
 10
376.0011966608978
 20
506.7027234375709
 30
0.0
 10
376.052517457781
 20
506.781055759767
 30
0.0
 10
376.0848771069921
 20
506.8301021201669
 30
0.0
 10
376.0888924794419
 20
506.8361588672797
 30
0.0
 10
376.0909021066988
 20
506.8391901686692
 30
0.0
  0
SPLINE
  5
193
330
1F
100
AcDbEntity
  8
0
  6
Continuous
 62
     8
370
    18
100
AcDbSpline
210
0.0
220
0.0
230
1.0
 70
     8
 71
     3
 72
    57
 73
    53
 74
     0
 42
0.000000001
 43
0.00000001
 40
0.0
 40
0.0
 40
0.0
 40
0.0
 40
0.0075186495534094
 40
0.015076745576452
 40
0.0226763062499608
 40
0.0303193172236296
 40
0.0380077307991063
 40
0.0457434652208903
 40
0.0535284040725592
 40
0.0613643957752976
 40
0.0692532531852292
 40
0.0771967532856426
 40
0.0851966369698697
 40
0.0932546089103026
 40
0.1013723375088278
 40
0.1095514549238135
 40
0.1177935571686882
 40
0.1261002042771167
 40
0.1526112456586389
 40
0.1828202569904733
 40
0.216758049729232
 40
0.2544465427353648
 40
0.2888966954532301
 40
0.3102315225675942
 40
0.3184406509998428
 40
0.3325131135894172
 40
0.3457983800842299
 40
0.3582980377466173
 40
0.3700140280642775
 40
0.3809487447626248
 40
0.4432371593327916
 40
0.4999566592683609
 40
0.5565355923503702
 40
0.6186456810145267
 40
0.6475226344558017
 40
0.6812830216711546
 40
0.6990760953282239
 40
0.7451446784323776
 40
0.7708372003165219
 40
0.7948427491933251
 40
0.8171670475925967
 40
0.8378171028148198
 40
0.8568016645317036
 40
0.8741318952751437
 40
0.8906455590854792
 40
0.9069091591811195
 40
0.9229355630182706
 40
0.9387382122144777
 40
0.9543311218089009
 40
0.9697288743563159
 40
0.9849466082826125
 40
1.0
 40
1.0
 40
1.0
 40
1.0
 10
381.0320031014494
 20
501.8808113045975
 30
0.0
 10
381.031455286564
 20
501.8800143318303
 30
0.0
 10
381.0303567826913
 20
501.8784162049914
 30
0.0
 10
381.021593099139
 20
501.8654438226159
 30
0.0
 10
381.0076295760678
 20
501.8445942641687
 30
0.0
 10
380.9879476617526
 20
501.8149935244183
 30
0.0
 10
380.9626875530155
 20
501.7767403147146
 30
0.0
 10
380.9318114501411
 20
501.7296770686338
 30
0.0
 10
380.8953296639121
 20
501.6737223662577
 30
0.0
 10
380.8532395023545
 20
501.6087813950021
 30
0.0
 10
380.8055417669867
 20
501.5347704849054
 30
0.0
 10
380.752236397756
 20
501.4516107897886
 30
0.0
 10
380.6933232460282
 20
501.3592303416291
 30
0.0
 10
380.6288033925838
 20
501.2575637395815
 30
0.0
 10
380.5586730270795
 20
501.1465528556105
 30
0.0
 10
380.4829468555422
 20
501.0261458425431
 30
0.0
 10
380.4015696595386
 20
500.8963019663158
 30
0.0
 10
380.251561354694
 20
500.6555694484251
 30
0.0
 10
379.9950891747158
 20
500.2468372079119
 30
0.0
 10
379.5910819110978
 20
499.5810963372293
 30
0.0
 10
379.0981783033148
 20
498.7193720896099
 30
0.0
 10
378.5482810127307
 20
497.7019743352612
 30
0.0
 10
378.0519950848972
 20
496.7079561779023
 30
0.0
 10
377.7153745233803
 20
495.9794529889595
 30
0.0
 10
377.4847076944344
 20
495.4677857771023
 30
0.0
 10
377.3056441758621
 20
495.0384082411885
 30
0.0
 10
377.1089993975621
 20
494.5439922158554
 30
0.0
 10
376.930892418173
 20
494.0667321735227
 30
0.0
 10
376.7706814206991
 20
493.6091227096508
 30
0.0
 10
376.4025198934753
 20
492.4810249509051
 30
0.0
 10
375.9572337844008
 20
490.6342630519511
 30
0.0
 10
375.7253607217309
 20
487.9864603145953
 30
0.0
 10
375.9555247701648
 20
485.3408405570229
 30
0.0
 10
376.4597093436372
 20
483.2436506684126
 30
0.0
 10
377.0269974857297
 20
481.6120465432878
 30
0.0
 10
377.4256234768234
 20
480.6191834053375
 30
0.0
 10
377.9427972718748
 20
479.484720041551
 30
0.0
 10
378.4170662494939
 20
478.5143826757779
 30
0.0
 10
378.917210830267
 20
477.5791172407168
 30
0.0
 10
379.2770308453862
 20
476.9295868812538
 30
0.0
 10
379.5970055200607
 20
476.376600736739
 30
0.0
 10
379.8764063266495
 20
475.9113018538462
 30
0.0
 10
380.1156242125604
 20
475.5247992614584
 30
0.0
 10
380.3171580250776
 20
475.2029131444417
 30
0.0
 10
380.4865641189439
 20
474.9314206022058
 30
0.0
 10
380.6322014726612
 20
474.700606398478
 30
0.0
 10
380.7553620486749
 20
474.5070175346377
 30
0.0
 10
380.8561558032392
 20
474.3502487199578
 30
0.0
 10
380.9346966886816
 20
474.2294732121331
 30
0.0
 10
380.9904191024153
 20
474.1448449701881
 30
0.0
 10
381.0254218403942
 20
474.0924885762715
 30
0.0
 10
381.0298173020979
 20
474.086057304168
 30
0.0
 10
381.0320031014494
 20
474.0828591258328
 30
0.0
  0
LWPOLYLINE
  5
194
330
1F
100
AcDbEntity
  8
0
  6
Continuous
 62
     8
370
    18
100
AcDbPolyline
 90
        5
 70
   128
 43
0.0
 10
376.0652667301262
 20
549.4308265138907
 10
376.091513262924
 20
549.4654270101828
 10
375.9814868139589
 20
549.3203642059607
 10
375.9814812260234
 20
549.3203493047995
 10
375.9814812260234
 20
549.3203493047995
  0
SPLINE
  5
195
330
1F
100
AcDbEntity
  8
0
  6
Continuous
 62
     8
370
    18
100
AcDbSpline
210
0.0
220
0.0
230
1.0
 70
     8
 71
     3
 72
    20
 73
    16
 74
     0
 42
0.000000001
 43
0.00000001
 40
0.0
 40
0.0
 40
0.0
 40
0.0
 40
0.0634611325104543
 40
0.1315871942285188
 40
0.2590660627533533
 40
0.3312232171614582
 40
0.3953673313895225
 40
0.4994237161914596
 40
0.6035621284299051
 40
0.6675245775377252
 40
0.739352387419562
 40
0.8667096152696161
 40
0.9349276691165541
 40
0.9991460460497427
 40
1.0
 40
1.0
 40
1.0
 40
1.0
 10
378.5633532720173
 20
547.2728403497977
 30
0.0
 10
378.5586367805203
 20
547.2558719876686
 30
0.0
 10
378.5488570955677
 20
547.2206879454856
 30
0.0
 10
378.453536069135
 20
546.8410281315153
 30
0.0
 10
378.2826708708121
 20
546.1104915081743
 30
0.0
 10
378.1266709662249
 20
545.1248551928827
 30
0.0
 10
378.0149040429739
 20
544.1048670151348
 30
0.0
 10
377.9365938660257
 20
542.8276707071409
 30
0.0
 10
378.0134365357657
 20
541.5507391165705
 30
0.0
 10
378.1245460453604
 20
540.5303040777583
 30
0.0
 10
378.2791294724583
 20
539.5466050663455
 30
0.0
 10
378.4543911398451
 20
538.7967343299676
 30
0.0
 10
378.5417116347094
 20
538.4460792126818
 30
0.0
 10
378.5713573492898
 20
538.336780323558
 30
0.0
 10
378.5634054716352
 20
538.3670472864671
 30
0.0
 10
378.5633011179531
 20
538.3674444843573
 30
0.0
  0
LINE
  5
196
330
1F
100
AcDbEntity
  8
0
  6
Continuous
 62
     8
370
    18
100
AcDbLine
 10
450.5935231613481
 20
542.8200455595297
 30
0.0
 11
450.5935231613481
 21
547.1481325317664
 31
0.0
  0
LINE
  5
197
330
1F
100
AcDbEntity
  8
0
  6
Continuous
 62
     8
370
    18
100
AcDbLine
 10
450.5935231613481
 20
538.4919585872931
 30
0.0
 11
450.5935231613481
 21
542.8200455595297
 31
0.0
  0
SPLINE
  5
198
330
1F
100
AcDbEntity
  8
0
  6
Continuous
 62
     7
370
    25
100
AcDbSpline
210
0.0
220
0.0
230
1.0
 70
     8
 71
     3
 72
    15
 73
    11
 74
     0
 42
0.000000001
 43
0.00000001
 40
0.0
 40
0.0
 40
0.0
 40
0.0
 40
0.0854968294457007
 40
0.1737352403381267
 40
0.2676066174669237
 40
0.3717339388071332
 40
0.4920532733018035
 40
0.6344161307260981
 40
0.803023132874615
 40
0.9999999999999999
 40
0.9999999999999999
 40
0.9999999999999999
 40
0.9999999999999999
 10
183.0991391490704
 20
230.6532181482874
 30
0.0
 10
183.1097886520478
 20
230.8371766049579
 30
0.0
 10
183.1314291499618
 20
231.2109924164807
 30
0.0
 10
183.2935917446406
 20
231.7432137614575
 30
0.0
 10
183.5190213987991
 20
232.2183451662227
 30
0.0
 10
183.7624506263089
 20
232.6056500779069
 30
0.0
 10
183.9475299784405
 20
232.884230124364
 30
0.0
 10
183.9913885888901
 20
233.0428295802698
 30
0.0
 10
183.8276454296445
 20
233.0826699117879
 30
0.0
 10
183.4898050268202
 20
233.0198571327876
 30
0.0
 10
183.3077763605422
 20
232.9860135596358
 30
0.0
  0
SPLINE
  5
199
330
1F
100
AcDbEntity
  8
0
  6
Continuous
 62
     7
370
    25
100
AcDbSpline
210
0.0
220
0.0
230
1.0
 70
     8
 71
     3
 72
    15
 73
    11
 74
     0
 42
0.000000001
 43
0.00000001
 40
0.0
 40
0.0
 40
0.0
 40
0.0
 40
0.1485099352220998
 40
0.2851187728174735
 40
0.4109977045083003
 40
0.5288714050119129
 40
0.643120372249796
 40
0.7584585513397691
 40
0.8776320171637481
 40
1.0
 40
1.0
 40
1.0
 40
1.0
 10
173.9579813021725
 20
232.9905491005742
 30
0.0
 10
173.785765594937
 20
233.0256298417795
 30
0.0
 10
173.4551349806723
 20
233.0929800690021
 30
0.0
 10
173.2149442549571
 20
233.1270093567252
 30
0.0
 10
173.1748356830353
 20
233.0705757272868
 30
0.0
 10
173.3161652016644
 20
232.889499376638
 30
0.0
 10
173.5813506576288
 20
232.5540124162465
 30
0.0
 10
173.8811134593518
 20
232.0515137460302
 30
0.0
 10
174.1331017428034
 20
231.4027079406365
 30
0.0
 10
174.1705100180687
 20
230.9052411686004
 30
0.0
 10
174.1894615280932
 20
230.6532181482874
 30
0.0
  0
LINE
  5
19A
330
1F
100
AcDbEntity
  8
0
  6
Continuous
 62
     7
370
    25
100
AcDbLine
 10
174.1894610624319
 20
230.6532200109326
 30
0.0
 11
174.3162196527725
 21
158.0259494166934
 31
0.0
  0
LINE
  5
19B
330
1F
100
AcDbEntity
  8
0
  6
Continuous
 62
     7
370
    25
100
AcDbLine
 10
182.9723805587298
 20
158.0259494166934
 30
0.0
 11
183.0993142377144
 21
230.7535364907347
 31
0.0
  0
ARC
  5
19C
330
1F
100
AcDbEntity
  8
0
  6
Continuous
 62
     7
370
    25
100
AcDbCircle
 10
181.472382715235
 20
158.0285704713427
 30
0.0
 40
1.500000000000012
100
AcDbArc
 50
270.0000000000008
 51
359.9000000000024
  0
ARC
  5
19D
330
1F
100
AcDbEntity
  8
0
  6
Continuous
 62
     7
370
    25
100
AcDbCircle
 10
175.8162174962673
 20
158.0285704713427
 30
0.0
 40
1.500000000000012
100
AcDbArc
 50
180.0999999999993
 51
270.0000000000008
  0
SPLINE
  5
19E
330
1F
100
AcDbEntity
  8
0
  6
Continuous
 62
     7
370
    25
100
AcDbSpline
210
0.0
220
0.0
230
1.0
 70
     8
 71
     3
 72
    11
 73
     7
 74
     0
 42
0.000000001
 43
0.00000001
 40
0.0
 40
0.0
 40
0.0
 40
0.0
 40
0.2474847865464594
 40
0.4999999976330706
 40
0.7525153033861732
 40
1.0
 40
1.0
 40
1.0
 40
1.0
 10
161.9794113959676
 20
239.2577428054177
 30
0.0
 10
162.3829359042136
 20
238.8214048481919
 30
0.0
 10
163.1981870393778
 20
237.9398598424379
 30
0.0
 10
164.0546335999757
 20
236.3379796646803
 30
0.0
 10
164.6187136161755
 20
234.6113258066694
 30
0.0
 10
164.6911880811199
 20
233.4127833445118
 30
0.0
 10
164.7270607228881
 20
232.8195415120684
 30
0.0
  0
SPLINE
  5
19F
330
1F
100
AcDbEntity
  8
0
  6
Continuous
 62
     7
370
    25
100
AcDbSpline
210
0.0
220
0.0
230
1.0
 70
     8
 71
     3
 72
    11
 73
     7
 74
     0
 42
0.000000001
 43
0.00000001
 40
0.0
 40
0.0
 40
0.0
 40
0.0
 40
0.2474845598040389
 40
0.4999997025274144
 40
0.7525150114005416
 40
1.0
 40
1.0
 40
1.0
 40
1.0
 10
192.5615394886142
 20
232.8195415120684
 30
0.0
 10
192.5974117638554
 20
233.4127834683252
 30
0.0
 10
192.6698854848982
 20
234.6113261244411
 30
0.0
 10
193.233965559283
 20
236.3379785716272
 30
0.0
 10
194.0904091600985
 20
237.939856928342
 30
0.0
 10
194.9056566907332
 20
238.8213988363345
 30
0.0
 10
195.309179502309
 20
239.2577353548371
 30
0.0
  0
LINE
  5
1A0
330
1F
100
AcDbEntity
  8
0
  6
Continuous
 62
     7
370
    25
100
AcDbLine
 10
164.7267105456
 20
232.9197611343228
 30
0.0
 11
164.9245756145125
 21
176.2359954100214
 31
0.0
  0
LINE
  5
1A1
330
1F
100
AcDbEntity
  8
0
  6
Continuous
 62
     7
370
    25
100
AcDbLine
 10
192.3640245969897
 20
176.2359954100214
 30
0.0
 11
192.5618887345797
 21
232.9195413421952
 31
0.0
  0
SPLINE
  5
1A2
330
1F
100
AcDbEntity
  8
0
  6
Continuous
 62
     7
370
    25
100
AcDbSpline
210
0.0
220
0.0
230
1.0
 70
     8
 71
     3
 72
    18
 73
    14
 74
     0
 42
0.000000001
 43
0.00000001
 40
0.0
 40
0.0
 40
0.0
 40
0.0
 40
0.1200779997594675
 40
0.2275882967911179
 40
0.3240900059132716
 40
0.4112229178985936
 40
0.4907351056659552
 40
0.5645023517275385
 40
0.6687360034015438
 40
0.7715928411928819
 40
0.8428361160942125
 40
0.9184015651394369
 40
1.0
 40
1.0
 40
1.0
 40
1.0
 10
164.9239590789682
 20
176.2751184087359
 30
0.0
 10
164.9316470611515
 20
174.0377890839754
 30
0.0
 10
164.946218379581
 20
169.7972956430202
 30
0.0
 10
164.9652115402076
 20
163.761107908977
 30
0.0
 10
164.9807988456947
 20
158.3469634336357
 30
0.0
 10
164.9932353559601
 20
153.4730737524239
 30
0.0
 10
165.0028844184901
 20
149.0578543890702
 30
0.0
 10
165.0111904511043
 20
144.4035724113882
 30
0.0
 10
165.0173590037159
 20
139.4860043125521
 30
0.0
 10
165.0202907699074
 20
134.9261957352454
 30
0.0
 10
165.0213367556229
 20
131.1069280174389
 30
0.0
 10
165.0215858528317
 20
127.7847269762887
 30
0.0
 10
165.0215723965101
 20
125.6218331476327
 30
0.0
 10
165.0215654100782
 20
124.4988731723391
 30
0.0
  0
SPLINE
  5
1A3
330
1F
100
AcDbEntity
  8
0
  6
Continuous
 62
     7
370
    25
100
AcDbSpline
210
0.0
220
0.0
230
1.0
 70
     8
 71
     3
 72
    18
 73
    14
 74
     0
 42
0.000000001
 43
0.00000001
 40
0.0
 40
0.0
 40
0.0
 40
0.0
 40
0.0815984343483184
 40
0.157163882919171
 40
0.2284071573732629
 40
0.331263994518904
 40
0.4354976455385692
 40
0.5092648911370692
 40
0.5887770784052829
 40
0.6759100053060504
 40
0.7724117046375968
 40
0.8799220009943375
 40
1.0
 40
1.0
 40
1.0
 40
1.0
 10
192.2670348014241
 20
124.4988731723391
 30
0.0
 10
192.2670278149922
 20
125.621833147668
 30
0.0
 10
192.2670143586708
 20
127.7847269763919
 30
0.0
 10
192.2672634558784
 20
131.1069280170704
 30
0.0
 10
192.268309441599
 20
134.9261957367842
 30
0.0
 10
192.271241207763
 20
139.4860043038321
 30
0.0
 10
192.2774097604748
 20
144.4035724399774
 30
0.0
 10
192.2857157928109
 20
149.057854314176
 30
0.0
 10
192.2953648570224
 20
153.4730743564346
 30
0.0
 10
192.3078013631901
 20
158.3469624569798
 30
0.0
 10
192.3233886726933
 20
163.7611084020922
 30
0.0
 10
192.3423818316658
 20
169.7972955474071
 30
0.0
 10
192.3569531502625
 20
174.0377890509523
 30
0.0
 10
192.3646411325341
 20
176.2751184087359
 30
0.0
  0
LINE
  5
1A4
330
1F
100
AcDbEntity
  8
0
  6
Continuous
 62
     7
370
    25
100
AcDbLine
 10
165.0220413159138
 20
124.4988731723391
 30
0.0
 11
165.0220413159138
 21
119.4680176358782
 31
0.0
  0
LINE
  5
1A5
330
1F
100
AcDbEntity
  8
0
  6
Continuous
 62
     7
370
    25
100
AcDbLine
 10
192.2665588955885
 20
119.4680176358782
 30
0.0
 11
192.2665588955885
 21
124.4988731723391
 31
0.0
  0
SPLINE
  5
1A6
330
1F
100
AcDbEntity
  8
0
  6
Continuous
 62
     7
370
    25
100
AcDbSpline
210
0.0
220
0.0
230
1.0
 70
     8
 71
     3
 72
    20
 73
    16
 74
     0
 42
0.000000001
 43
0.00000001
 40
0.0
 40
0.0
 40
0.0
 40
0.0
 40
0.0448214171559949
 40
0.1275815889254915
 40
0.2104920914577646
 40
0.2935585450739422
 40
0.3768072874706605
 40
0.4602313035856491
 40
0.5437793851712834
 40
0.6273320163361319
 40
0.7107309120903395
 40
0.7938328609649326
 40
0.8765395820843565
 40
0.9588378591590103
 40
1.0
 40
1.0
 40
1.0
 40
1.0
 10
178.6443001057511
 20
108.1373981814944
 30
0.0
 10
178.964981866024
 20
108.1430484102316
 30
0.0
 10
179.8777840733401
 20
108.1591314617242
 30
0.0
 10
181.37423578442
 20
108.3351519471113
 30
0.0
 10
183.0952880399975
 20
108.7222271204081
 30
0.0
 10
184.7435231065192
 20
109.2959533567832
 30
0.0
 10
186.2905407200733
 20
110.0445942260527
 30
0.0
 10
187.709433902802
 20
110.9579252480846
 30
0.0
 10
188.9743890219808
 20
112.0213121275756
 30
0.0
 10
190.0619322559991
 20
113.2168636634066
 30
0.0
 10
190.9501512597398
 20
114.5230629034777
 30
0.0
 10
191.6266476876167
 20
115.9155338796678
 30
0.0
 10
192.0640593751125
 20
117.3677143657384
 30
0.0
 10
192.2728438035786
 20
118.6076585176983
 30
0.0
 10
192.2455451249944
 20
119.3538290305758
 30
0.0
 10
192.2364436488157
 20
119.6026049237811
 30
0.0
  0
SPLINE
  5
1A7
330
1F
100
AcDbEntity
  8
0
  6
Continuous
 62
     7
370
    25
100
AcDbSpline
210
0.0
220
0.0
230
1.0
 70
     8
 71
     3
 72
    20
 73
    16
 74
     0
 42
0.000000001
 43
0.00000001
 40
0.0
 40
0.0
 40
0.0
 40
0.0
 40
0.0332931398464927
 40
0.1170374881437245
 40
0.2007453093158295
 40
0.2845913894400195
 40
0.3686892590609547
 40
0.453066169855554
 40
0.5376755582452184
 40
0.622430447500469
 40
0.7072223841407569
 40
0.7919819057885084
 40
0.8766923521271801
 40
0.9613730144284505
 40
1.0
 40
1.0
 40
1.0
 40
1.0
 10
165.054246450544
 20
119.183196840819
 30
0.0
 10
165.0531579644538
 20
118.9865723374665
 30
0.0
 10
165.0493315401976
 20
118.295365737969
 30
0.0
 10
165.2856819449588
 20
117.1207657658573
 30
0.0
 10
165.753537775055
 20
115.6927289377452
 30
0.0
 10
166.4536167384085
 20
114.3313346993636
 30
0.0
 10
167.3560893794062
 20
113.0577164881068
 30
0.0
 10
168.4515568313352
 20
111.892675546429
 30
0.0
 10
169.7208020418644
 20
110.8558891270211
 30
0.0
 10
171.1426256107651
 20
109.9651800865071
 30
0.0
 10
172.6922686503925
 20
109.2362734209419
 30
0.0
 10
174.3428045672657
 20
108.6805617675451
 30
0.0
 10
176.0657961630947
 20
108.31020727982
 30
0.0
 10
177.512612450817
 20
108.1543630782805
 30
0.0
 10
178.374353635445
 20
108.1414448934882
 30
0.0
 10
178.6443001057513
 20
108.1373981814944
 30
0.0
  0
ARC
  5
1A8
330
1F
100
AcDbEntity
  8
0
  6
Continuous
 62
     7
370
    25
100
AcDbCircle
 10
178.6443001057511
 20
256.5285704713427
 30
0.0
 40
24.0
100
AcDbArc
 50
275.4730792506111
 51
264.5265628846585
  0
SPLINE
  5
1A9
330
1F
100
AcDbEntity
  8
0
  6
Continuous
 62
     7
370
    25
100
AcDbSpline
210
0.0
220
0.0
230
1.0
 70
     8
 71
     3
 72
    16
 73
    12
 74
     0
 42
0.000000001
 43
0.00000001
 40
0.0
 40
0.0
 40
0.0
 40
0.0
 40
0.2499999999999998
 40
0.2499999999999998
 40
0.4999999999999998
 40
0.4999999999999998
 40
0.7499999999999997
 40
0.7499999999999997
 40
0.8749999999999999
 40
0.8749999999999999
 40
1.0
 40
1.0
 40
1.0
 40
1.0
 10
180.9323747023074
 20
232.6379842615319
 30
0.0
 10
180.5554765772148
 20
232.6020900351318
 30
0.0
 10
180.1739425768149
 20
232.5704110530065
 30
0.0
 10
179.4129171572961
 20
232.5265294989237
 30
0.0
 10
179.0314368951043
 20
232.5140748578421
 30
0.0
 10
178.2661450232893
 20
232.513913071586
 30
0.0
 10
177.8813704628167
 20
232.5262275408963
 30
0.0
 10
177.3074441412354
 20
232.5592018037077
 30
0.0
 10
177.1166023782358
 20
232.5725635640843
 30
0.0
 10
176.7357093433466
 20
232.6029135665823
 30
0.0
 10
176.5443590615287
 20
232.6200285016083
 30
0.0
 10
176.3559139733678
 20
232.6379917233621
 30
0.0
  0
LINE
  5
1AA
330
1F
100
AcDbEntity
  8
0
  6
Continuous
 62
     7
370
    25
100
AcDbLine
 10
181.472382641167
 20
156.5285689812266
 30
0.0
 11
175.8162175703353
 21
156.5285689812266
 31
0.0
  0
ARC
  5
1AB
330
1F
100
AcDbEntity
  8
0
  6
Continuous
 62
     8
370
    18
100
AcDbCircle
 10
178.6443001057511
 20
256.5285704713427
 30
0.0
 40
22.49999999999999
100
AcDbArc
 50
275.4754523714205
 51
264.5245739889593
  0
SPLINE
  5
1AC
330
1F
100
AcDbEntity
  8
0
  6
Continuous
 62
     8
370
    18
100
AcDbSpline
210
0.0
220
0.0
230
1.0
 70
     8
 71
     3
 72
    10
 73
     6
 74
     0
 42
0.000000001
 43
0.00000001
 40
0.0
 40
0.0
 40
0.0
 40
0.0
 40
0.5
 40
0.5
 40
1.0
 40
1.0
 40
1.0
 40
1.0
 10
176.4973835659564
 20
234.1313058748898
 30
0.0
 10
177.2130241468531
 20
234.0630388590091
 30
0.0
 10
177.9286646720902
 20
234.0051958177763
 30
0.0
 10
179.3599451051658
 20
234.0051365856779
 30
0.0
 10
180.0755850119672
 20
234.0631146110816
 30
0.0
 10
180.7912248641119
 20
234.1313288021871
 30
0.0
  0
LINE
  5
1AD
330
1F
100
AcDbEntity
  8
0
  6
Continuous
 62
     8
370
    18
100
AcDbLine
 10
174.3162196527725
 20
158.0259494166934
 30
0.0
 11
182.9723805587298
 21
158.0259494166934
 31
0.0
  0
ENDSEC
  0
SECTION
  2
OBJECTS
  0
DICTIONARY
  5
C
330
0
100
AcDbDictionary
281
     1
  3
ACAD_DETAILVIEWSTYLE
350
1D7
  3
ACAD_GROUP
350
D
  3
ACAD_LAYOUT
350
1A
  3
ACAD_MATERIAL
350
1C7
  3
ACAD_MLEADERSTYLE
350
1CD
  3
ACAD_MLINESTYLE
350
17
  3
ACAD_PLOTSETTINGS
350
19
  3
ACAD_PLOTSTYLENAME
350
E
  3
ACAD_SCALELIST
350
47
  3
ACAD_SECTIONVIEWSTYLE
350
1D8
  3
ACAD_TABLESTYLE
350
1CB
  3
ACAD_VISUALSTYLE
350
1AE
  3
ACDB_RECOMPOSE_DATA
350
1DB
  3
AcDbVariableDictionary
350
1D2
  3
APPDATA
350
1CF
  0
DICTIONARY
  5
1D0
330
1F
100
AcDbDictionary
280
     1
281
     1
  3
DIM_BOUNDING_BOXES_V1
360
1D1
  0
DICTIONARY
  5
1D7
102
{ACAD_REACTORS
330
C
102
}
330
C
100
AcDbDictionary
281
     1
  0
DICTIONARY
  5
D
102
{ACAD_REACTORS
330
C
102
}
330
C
100
AcDbDictionary
281
     1
  0
DICTIONARY
  5
1A
102
{ACAD_REACTORS
330
C
102
}
330
C
100
AcDbDictionary
281
     1
  3
Layout1
350
1E
  3
Layout2
350
26
  3
Model
350
22
  0
DICTIONARY
  5
1C7
102
{ACAD_REACTORS
330
C
102
}
330
C
100
AcDbDictionary
281
     1
  3
ByBlock
350
1C9
  3
ByLayer
350
1C8
  3
Global
350
1CA
  0
DICTIONARY
  5
1CD
102
{ACAD_REACTORS
330
C
102
}
330
C
100
AcDbDictionary
281
     1
  3
Standard
350
1CE
  0
DICTIONARY
  5
17
102
{ACAD_REACTORS
330
C
102
}
330
C
100
AcDbDictionary
281
     1
  3
Standard
350
18
  0
DICTIONARY
  5
19
102
{ACAD_REACTORS
330
C
102
}
330
C
100
AcDbDictionary
281
     1
  0
ACDBDICTIONARYWDFLT
  5
E
102
{ACAD_REACTORS
330
C
102
}
330
C
100
AcDbDictionary
281
     1
  3
Normal
350
F
100
AcDbDictionaryWithDefault
340
F
  0
DICTIONARY
  5
47
102
{ACAD_REACTORS
330
C
102
}
330
C
100
AcDbDictionary
281
     1
  3
A0
350
48
  3
A1
350
49
  3
A2
350
4A
  3
A3
350
4B
  3
A4
350
4C
  3
A5
350
4D
  3
A6
350
4E
  3
A7
350
4F
  3
A8
350
50
  3
A9
350
51
  3
B0
350
52
  3
B1
350
53
  3
B2
350
54
  3
B3
350
55
  3
B4
350
56
  3
B5
350
57
  3
B6
350
58
  3
B7
350
59
  3
B8
350
5A
  3
B9
350
5B
  3
C0
350
5C
  3
C1
350
5D
  3
C2
350
5E
  3
C3
350
5F
  3
C4
350
60
  3
C5
350
61
  3
C6
350
62
  3
C7
350
63
  3
C8
350
64
  3
C9
350
65
  3
D0
350
66
  3
D1
350
67
  3
D2
350
68
  0
DICTIONARY
  5
1D8
102
{ACAD_REACTORS
330
C
102
}
330
C
100
AcDbDictionary
281
     1
  0
DICTIONARY
  5
1CB
102
{ACAD_REACTORS
330
C
102
}
330
C
100
AcDbDictionary
281
     1
  3
Standard
350
1CC
  0
DICTIONARY
  5
1AE
102
{ACAD_REACTORS
330
C
102
}
330
C
100
AcDbDictionary
281
     1
  3
2dWireframe
350
1B3
  3
Basic
350
1B6
  3
Brighten
350
1BA
  3
ColorChange
350
1BE
  3
Conceptual
350
1B8
  3
Dim
350
1B9
  3
EdgeColorOff
350
1C1
  3
Facepattern
350
1BD
  3
Flat
350
1AF
  3
FlatWithEdges
350
1B0
  3
Gouraud
350
1B1
  3
GouraudWithEdges
350
1B2
  3
Hidden
350
1B5
  3
JitterOff
350
1BF
  3
Linepattern
350
1BC
  3
OverhangOff
350
1C0
  3
Realistic
350
1B7
  3
Shaded
350
1C6
  3
Shaded with edges
350
1C5
  3
Shades of Gray
350
1C2
  3
Sketchy
350
1C3
  3
Thicken
350
1BB
  3
Wireframe
350
1B4
  3
X-Ray
350
1C4
  0
XRECORD
  5
1DB
102
{ACAD_REACTORS
330
C
102
}
330
C
100
AcDbXrecord
280
     1
 90
        1
330
1CC
  0
DICTIONARY
  5
1D2
102
{ACAD_REACTORS
330
C
102
}
330
C
100
AcDbDictionary
281
     1
  3
CANNOSCALE
350
1D3
  3
CMLEADERSTYLE
350
1D5
  3
CTABLESTYLE
350
1D4
  3
MSLTSCALE
350
1D6
  0
DICTIONARY
  5
1CF
102
{ACAD_REACTORS
330
C
102
}
330
C
100
AcDbDictionary
281
     1
  0
DICTIONARY
  5
1D1
102
{ACAD_REACTORS
330
1D0
102
}
330
1D0
100
AcDbDictionary
281
     1
  0
LAYOUT
  5
1E
102
{ACAD_REACTORS
330
1A
102
}
330
1A
100
AcDbPlotSettings
  1

  2
none_device
  4

  6

 40
0.0
 41
0.0
 42
0.0
 43
0.0
 44
0.0
 45
0.0
 46
0.0
 47
0.0
 48
0.0
 49
0.0
140
0.0
141
0.0
142
1.0
143
1.0
 70
   688
 72
     1
 73
     0
 74
     5
  7

 75
    16
 76
     0
 77
     2
 78
   300
147
1.0
148
0.0
149
0.0
100
AcDbLayout
  1
Layout1
 70
     1
 71
     1
 10
0.0
 20
0.0
 11
420.0
 21
297.0
 12
0.0
 22
0.0
 32
0.0
 14
1.000000000000000E+20
 24
1.000000000000000E+20
 34
1.000000000000000E+20
 15
-1.000000000000000E+20
 25
-1.000000000000000E+20
 35
-1.000000000000000E+20
146
0.0
 13
0.0
 23
0.0
 33
0.0
 16
1.0
 26
0.0
 36
0.0
 17
0.0
 27
1.0
 37
0.0
 76
     0
330
1B
  0
LAYOUT
  5
26
102
{ACAD_REACTORS
330
1A
102
}
330
1A
100
AcDbPlotSettings
  1

  2
none_device
  4

  6

 40
0.0
 41
0.0
 42
0.0
 43
0.0
 44
0.0
 45
0.0
 46
0.0
 47
0.0
 48
0.0
 49
0.0
140
0.0
141
0.0
142
1.0
143
1.0
 70
   688
 72
     1
 73
     0
 74
     5
  7

 75
    16
 76
     0
 77
     2
 78
   300
147
1.0
148
0.0
149
0.0
100
AcDbLayout
  1
Layout2
 70
     1
 71
     2
 10
0.0
 20
0.0
 11
0.0
 21
0.0
 12
0.0
 22
0.0
 32
0.0
 14
0.0
 24
0.0
 34
0.0
 15
0.0
 25
0.0
 35
0.0
146
0.0
 13
0.0
 23
0.0
 33
0.0
 16
1.0
 26
0.0
 36
0.0
 17
0.0
 27
1.0
 37
0.0
 76
     0
330
23
  0
LAYOUT
  5
22
102
{ACAD_REACTORS
330
1A
102
}
330
1A
100
AcDbPlotSettings
  1

  2
none_device
  4
Letter_(8.50_x_11.00_Inches)
  6

 40
6.35
 41
6.35
 42
6.35000508
 43
6.35000508
 44
215.9
 45
279.4
 46
0.0
 47
0.0
 48
0.0
 49
0.0
140
0.0
141
0.0
142
1.0
143
1.0
 70
  1712
 72
     1
 73
     0
 74
     0
  7

 75
     0
 76
     0
 77
     2
 78
   300
147
1.0
148
0.0
149
0.0
100
AcDbLayout
  1
Model
 70
     1
 71
     0
 10
0.0
 20
0.0
 11
594.0
 21
841.0
 12
0.0
 22
0.0
 32
0.0
 14
35.33953329457836
 24
37.46023423127906
 34
0.0
 15
517.6919298245609
 25
550.8200468708319
 35
0.0
146
0.0
 13
0.0
 23
0.0
 33
0.0
 16
1.0
 26
0.0
 36
0.0
 17
0.0
 27
1.0
 37
0.0
 76
     0
330
1F
331
29
  0
MATERIAL
  5
1C9
102
{ACAD_REACTORS
330
1C7
102
}
330
1C7
100
AcDbMaterial
  1
ByBlock
 72
     1
 94
      127
  0
MATERIAL
  5
1C8
102
{ACAD_REACTORS
330
1C7
102
}
330
1C7
100
AcDbMaterial
  1
ByLayer
 72
     1
 94
      127
  0
MATERIAL
  5
1CA
102
{ACAD_REACTORS
330
1C7
102
}
330
1C7
100
AcDbMaterial
  1
Global
 72
     1
 94
      127
  0
MLEADERSTYLE
  5
1CE
102
{ACAD_REACTORS
330
1CD
102
}
330
1CD
100
AcDbMLeaderStyle
179
     2
170
     2
171
     1
172
     0
 90
        2
 40
0.0
 41
0.0
173
     1
 91
-1056964608
340
14
 92
       -2
290
     1
 42
2.0
291
     1
 43
8.0
  3
Standard
341
0
 44
4.0
300

342
11
174
     1
178
     1
175
     1
176
     0
 93
-1056964608
 45
4.0
292
     0
297
     0
 46
4.0
343
0
 94
-1056964608
 47
1.0
 49
1.0
140
1.0
293
     1
141
0.0
294
     1
177
     0
142
1.0
295
     0
296
     0
143
3.75
271
     0
272
     9
273
     9
298
     0
  0
MLINESTYLE
  5
18
102
{ACAD_REACTORS
330
17
102
}
330
17
100
AcDbMlineStyle
  2
Standard
 70
     0
  3

 62
   256
 51
90.0
 52
90.0
 71
     2
 49
0.5
 62
   256
  6
BYLAYER
 49
-0.5
 62
   256
  6
BYLAYER
  0
ACDBPLACEHOLDER
  5
F
102
{ACAD_REACTORS
330
E
102
}
330
E
  0
SCALE
  5
48
102
{ACAD_REACTORS
330
47
102
}
330
47
100
AcDbScale
 70
     0
300
1:1
140
1.0
141
1.0
290
     1
  0
SCALE
  5
49
102
{ACAD_REACTORS
330
47
102
}
330
47
100
AcDbScale
 70
     0
300
1:2
140
1.0
141
2.0
290
     0
  0
SCALE
  5
4A
102
{ACAD_REACTORS
330
47
102
}
330
47
100
AcDbScale
 70
     0
300
1:4
140
1.0
141
4.0
290
     0
  0
SCALE
  5
4B
102
{ACAD_REACTORS
330
47
102
}
330
47
100
AcDbScale
 70
     0
300
1:5
140
1.0
141
5.0
290
     0
  0
SCALE
  5
4C
102
{ACAD_REACTORS
330
47
102
}
330
47
100
AcDbScale
 70
     0
300
1:8
140
1.0
141
8.0
290
     0
  0
SCALE
  5
4D
102
{ACAD_REACTORS
330
47
102
}
330
47
100
AcDbScale
 70
     0
300
1:10
140
1.0
141
10.0
290
     0
  0
SCALE
  5
4E
102
{ACAD_REACTORS
330
47
102
}
330
47
100
AcDbScale
 70
     0
300
1:16
140
1.0
141
16.0
290
     0
  0
SCALE
  5
4F
102
{ACAD_REACTORS
330
47
102
}
330
47
100
AcDbScale
 70
     0
300
1:20
140
1.0
141
20.0
290
     0
  0
SCALE
  5
50
102
{ACAD_REACTORS
330
47
102
}
330
47
100
AcDbScale
 70
     0
300
1:30
140
1.0
141
30.0
290
     0
  0
SCALE
  5
51
102
{ACAD_REACTORS
330
47
102
}
330
47
100
AcDbScale
 70
     0
300
1:40
140
1.0
141
40.0
290
     0
  0
SCALE
  5
52
102
{ACAD_REACTORS
330
47
102
}
330
47
100
AcDbScale
 70
     0
300
1:50
140
1.0
141
50.0
290
     0
  0
SCALE
  5
53
102
{ACAD_REACTORS
330
47
102
}
330
47
100
AcDbScale
 70
     0
300
1:100
140
1.0
141
100.0
290
     0
  0
SCALE
  5
54
102
{ACAD_REACTORS
330
47
102
}
330
47
100
AcDbScale
 70
     0
300
2:1
140
2.0
141
1.0
290
     0
  0
SCALE
  5
55
102
{ACAD_REACTORS
330
47
102
}
330
47
100
AcDbScale
 70
     0
300
4:1
140
4.0
141
1.0
290
     0
  0
SCALE
  5
56
102
{ACAD_REACTORS
330
47
102
}
330
47
100
AcDbScale
 70
     0
300
8:1
140
8.0
141
1.0
290
     0
  0
SCALE
  5
57
102
{ACAD_REACTORS
330
47
102
}
330
47
100
AcDbScale
 70
     0
300
10:1
140
10.0
141
1.0
290
     0
  0
SCALE
  5
58
102
{ACAD_REACTORS
330
47
102
}
330
47
100
AcDbScale
 70
     0
300
100:1
140
100.0
141
1.0
290
     0
  0
SCALE
  5
59
102
{ACAD_REACTORS
330
47
102
}
330
47
100
AcDbScale
 70
     0
300
1/128" = 1'-0"
140
0.0078125
141
12.0
290
     0
  0
SCALE
  5
5A
102
{ACAD_REACTORS
330
47
102
}
330
47
100
AcDbScale
 70
     0
300
1/64" = 1'-0"
140
0.015625
141
12.0
290
     0
  0
SCALE
  5
5B
102
{ACAD_REACTORS
330
47
102
}
330
47
100
AcDbScale
 70
     0
300
1/32" = 1'-0"
140
0.03125
141
12.0
290
     0
  0
SCALE
  5
5C
102
{ACAD_REACTORS
330
47
102
}
330
47
100
AcDbScale
 70
     0
300
1/16" = 1'-0"
140
0.0625
141
12.0
290
     0
  0
SCALE
  5
5D
102
{ACAD_REACTORS
330
47
102
}
330
47
100
AcDbScale
 70
     0
300
3/32" = 1'-0"
140
0.09375
141
12.0
290
     0
  0
SCALE
  5
5E
102
{ACAD_REACTORS
330
47
102
}
330
47
100
AcDbScale
 70
     0
300
1/8" = 1'-0"
140
0.125
141
12.0
290
     0
  0
SCALE
  5
5F
102
{ACAD_REACTORS
330
47
102
}
330
47
100
AcDbScale
 70
     0
300
3/16" = 1'-0"
140
0.1875
141
12.0
290
     0
  0
SCALE
  5
60
102
{ACAD_REACTORS
330
47
102
}
330
47
100
AcDbScale
 70
     0
300
1/4" = 1'-0"
140
0.25
141
12.0
290
     0
  0
SCALE
  5
61
102
{ACAD_REACTORS
330
47
102
}
330
47
100
AcDbScale
 70
     0
300
3/8" = 1'-0"
140
0.375
141
12.0
290
     0
  0
SCALE
  5
62
102
{ACAD_REACTORS
330
47
102
}
330
47
100
AcDbScale
 70
     0
300
1/2" = 1'-0"
140
0.5
141
12.0
290
     0
  0
SCALE
  5
63
102
{ACAD_REACTORS
330
47
102
}
330
47
100
AcDbScale
 70
     0
300
3/4" = 1'-0"
140
0.75
141
12.0
290
     0
  0
SCALE
  5
64
102
{ACAD_REACTORS
330
47
102
}
330
47
100
AcDbScale
 70
     0
300
1" = 1'-0"
140
1.0
141
12.0
290
     0
  0
SCALE
  5
65
102
{ACAD_REACTORS
330
47
102
}
330
47
100
AcDbScale
 70
     0
300
1-1/2" = 1'-0"
140
1.5
141
12.0
290
     0
  0
SCALE
  5
66
102
{ACAD_REACTORS
330
47
102
}
330
47
100
AcDbScale
 70
     0
300
3" = 1'-0"
140
3.0
141
12.0
290
     0
  0
SCALE
  5
67
102
{ACAD_REACTORS
330
47
102
}
330
47
100
AcDbScale
 70
     0
300
6" = 1'-0"
140
6.0
141
12.0
290
     0
  0
SCALE
  5
68
102
{ACAD_REACTORS
330
47
102
}
330
47
100
AcDbScale
 70
     0
300
1'-0" = 1'-0"
140
12.0
141
12.0
290
     0
  0
TABLESTYLE
  5
1CC
102
{ACAD_REACTORS
330
1CB
102
}
102
{ACAD_XDICTIONARY
360
1D9
102
}
330
1CB
100
AcDbTableStyle
  3
Standard
 70
     0
 71
     0
 40
0.06
 41
0.06
280
     0
281
     0
  7
Standard
140
4.5
170
     2
 62
     0
 63
   257
283
     0
 90
        4
 91
        0
  1

274
    -2
284
     1
 64
     0
275
    -2
285
     1
 65
     0
276
    -2
286
     1
 66
     0
277
    -2
287
     1
 67
     0
278
    -2
288
     1
 68
     0
279
    -2
289
     1
 69
     0
  7
Standard
140
6.0
170
     5
 62
     0
 63
   257
283
     0
 90
        4
 91
        0
  1

274
    -2
284
     1
 64
     0
275
    -2
285
     1
 65
     0
276
    -2
286
     1
 66
     0
277
    -2
287
     1
 67
     0
278
    -2
288
     1
 68
     0
279
    -2
289
     1
 69
     0
  7
Standard
140
4.5
170
     5
 62
     0
 63
   257
283
     0
 90
        4
 91
        0
  1

274
    -2
284
     1
 64
     0
275
    -2
285
     1
 65
     0
276
    -2
286
     1
 66
     0
277
    -2
287
     1
 67
     0
278
    -2
288
     1
 68
     0
279
    -2
289
     1
 69
     0
  0
VISUALSTYLE
  5
1B3
102
{ACAD_REACTORS
330
1AE
102
}
330
1AE
100
AcDbVisualStyle
  2
2dWireframe
 70
     4
177
     3
291
     0
 70
    58
 90
        0
176
     1
 90
        2
176
     1
 90
        0
176
     1
 90
        0
176
     1
 40
0.6
176
     1
 40
30.0
176
     1
 62
     7
420
 16777215
176
     1
 90
        1
176
     1
 90
        4
176
     1
 62
     7
176
     1
 62
   257
176
     1
 90
        1
176
     1
 90
        1
176
     1
 40
1.0
176
     1
 90
        0
176
     1
 62
   257
176
     1
 40
1.0
176
     1
 90
        1
176
     1
 90
        6
176
     1
 90
        2
176
     1
 62
     7
176
     1
 90
        5
176
     1
 90
        0
176
     1
 90
        0
176
     1
290
     0
176
     1
 90
        1
176
     1
 40
0.0
176
     1
 90
        0
176
     1
290
     1
176
     1
290
     1
176
     1
290
     0
176
     1
290
     0
176
     1
290
     0
176
     1
290
     0
176
     1
290
     0
176
     1
290
     0
176
     1
290
     0
176
     1
 90
       50
176
     1
 40
0.0
176
     1
 40
1.0
176
     1
 90
        0
176
     1
 62
    18
420
        0
176
     1
 90
       50
176
     1
 90
        3
176
     1
 62
     5
420
      255
176
     1
290
     0
176
     1
 90
       50
176
     1
 90
       50
176
     1
 90
       50
176
     1
290
     0
176
     1
 90
       50
176
     1
 62
   256
176
     0
 40
1.0
176
     0
 90
        2
176
     1
  1
strokes_ogs.tif
176
     1
290
     0
176
     1
 40
1.0
176
     1
 40
1.0
176
     1
  0
VISUALSTYLE
  5
1B6
102
{ACAD_REACTORS
330
1AE
102
}
330
1AE
100
AcDbVisualStyle
  2
Basic
 70
     7
177
     3
291
     1
 70
    58
 90
        1
176
     1
 90
        0
176
     1
 90
        1
176
     1
 90
        0
176
     1
 40
0.6
176
     1
 40
30.0
176
     1
 62
     7
420
 16777215
176
     1
 90
        0
176
     1
 90
        4
176
     1
 62
     7
176
     1
 62
   257
176
     1
 90
        1
176
     1
 90
        1
176
     1
 40
1.0
176
     1
 90
        8
176
     1
 62
     7
176
     1
 40
1.0
176
     1
 90
        1
176
     1
 90
        6
176
     1
 90
        2
176
     1
 62
     7
176
     1
 90
        5
176
     1
 90
        0
176
     1
 90
        0
176
     1
290
     0
176
     1
 90
        1
176
     1
 40
0.0
176
     1
 90
        0
176
     1
290
     0
176
     1
290
     1
176
     1
290
     1
176
     1
290
     0
176
     1
290
     0
176
     1
290
     0
176
     1
290
     0
176
     1
290
     0
176
     1
290
     0
176
     1
 90
       50
176
     1
 40
0.0
176
     1
 40
1.0
176
     1
 90
        0
176
     1
 62
    18
420
        0
176
     1
 90
       50
176
     1
 90
        3
176
     1
 62
     5
420
      255
176
     1
290
     0
176
     1
 90
       50
176
     1
 90
       50
176
     1
 90
       50
176
     1
290
     0
176
     1
 90
       50
176
     1
 62
   256
176
     0
 40
1.0
176
     0
 90
        2
176
     1
  1
strokes_ogs.tif
176
     1
290
     0
176
     1
 40
1.0
176
     1
 40
1.0
176
     1
  0
VISUALSTYLE
  5
1BA
102
{ACAD_REACTORS
330
1AE
102
}
330
1AE
100
AcDbVisualStyle
  2
Brighten
 70
    12
177
     3
291
     1
 70
    58
 90
        2
176
     1
 90
        2
176
     1
 90
        0
176
     1
 90
        0
176
     1
 40
0.6
176
     1
 40
30.0
176
     1
 62
     7
420
 16777215
176
     1
 90
        1
176
     1
 90
        4
176
     1
 62
     7
176
     1
 62
   257
176
     1
 90
        1
176
     1
 90
        1
176
     1
 40
1.0
176
     1
 90
        8
176
     1
 62
     7
176
     1
 40
1.0
176
     1
 90
        1
176
     1
 90
        6
176
     1
 90
        2
176
     1
 62
     7
176
     1
 90
        5
176
     1
 90
        0
176
     1
 90
        0
176
     1
290
     0
176
     1
 90
        1
176
     1
 40
50.0
176
     1
 90
        0
176
     1
290
     0
176
     1
290
     1
176
     1
290
     1
176
     1
290
     0
176
     1
290
     0
176
     1
290
     0
176
     1
290
     0
176
     1
290
     0
176
     1
290
     0
176
     1
 90
       50
176
     1
 40
0.0
176
     1
 40
1.0
176
     1
 90
        0
176
     1
 62
    18
420
        0
176
     1
 90
       50
176
     1
 90
        3
176
     1
 62
     5
420
      255
176
     1
290
     0
176
     1
 90
       50
176
     1
 90
       50
176
     1
 90
       50
176
     1
290
     0
176
     1
 90
       50
176
     1
 62
   256
176
     0
 40
1.0
176
     0
 90
        2
176
     1
  1
strokes_ogs.tif
176
     1
290
     0
176
     1
 40
1.0
176
     1
 40
1.0
176
     1
  0
VISUALSTYLE
  5
1BE
102
{ACAD_REACTORS
330
1AE
102
}
330
1AE
100
AcDbVisualStyle
  2
ColorChange
 70
    16
177
     3
291
     1
 70
    58
 90
        2
176
     1
 90
        2
176
     1
 90
        3
176
     1
 90
        0
176
     1
 40
0.6
176
     1
 40
30.0
176
     1
 62
     8
420
  8421504
176
     1
 90
        1
176
     1
 90
        4
176
     1
 62
     7
176
     1
 62
   257
176
     1
 90
        1
176
     1
 90
        1
176
     1
 40
1.0
176
     1
 90
        8
176
     1
 62
     8
420
  8421504
176
     1
 40
1.0
176
     1
 90
        1
176
     1
 90
        6
176
     1
 90
        2
176
     1
 62
     7
176
     1
 90
        5
176
     1
 90
        0
176
     1
 90
        0
176
     1
290
     0
176
     1
 90
        1
176
     1
 40
0.0
176
     1
 90
        0
176
     1
290
     0
176
     1
290
     1
176
     1
290
     1
176
     1
290
     0
176
     1
290
     0
176
     1
290
     0
176
     1
290
     0
176
     1
290
     0
176
     1
290
     0
176
     1
 90
       50
176
     1
 40
0.0
176
     1
 40
1.0
176
     1
 90
        0
176
     1
 62
    18
420
        0
176
     1
 90
       50
176
     1
 90
        3
176
     1
 62
     5
420
      255
176
     1
290
     0
176
     1
 90
       50
176
     1
 90
       50
176
     1
 90
       50
176
     1
290
     0
176
     1
 90
       50
176
     1
 62
   256
176
     0
 40
1.0
176
     0
 90
        2
176
     1
  1
strokes_ogs.tif
176
     1
290
     0
176
     1
 40
1.0
176
     1
 40
1.0
176
     1
  0
VISUALSTYLE
  5
1B8
102
{ACAD_REACTORS
330
1AE
102
}
330
1AE
100
AcDbVisualStyle
  2
Conceptual
 70
     9
177
     3
291
     0
 70
    58
 90
        3
176
     1
 90
        2
176
     1
 90
        0
176
     1
 90
        0
176
     1
 40
0.6
176
     1
 40
30.0
176
     1
 62
     7
420
 16777215
176
     1
 90
        2
176
     1
 90
        2
176
     1
 62
     7
176
     1
 62
   257
176
     1
 90
        1
176
     1
 90
        1
176
     1
 40
179.0
176
     1
 90
        8
176
     1
 62
     7
176
     1
 40
1.0
176
     1
 90
        1
176
     1
 90
        6
176
     1
 90
        2
176
     1
 62
     7
176
     1
 90
        3
176
     1
 90
        0
176
     1
 90
        0
176
     1
290
     0
176
     1
 90
        1
176
     1
 40
0.0
176
     1
 90
        0
176
     1
290
     0
176
     1
290
     1
176
     1
290
     1
176
     1
290
     0
176
     1
290
     0
176
     1
290
     0
176
     1
290
     0
176
     1
290
     0
176
     1
290
     0
176
     1
 90
       50
176
     1
 40
0.0
176
     1
 40
1.0
176
     1
 90
        0
176
     1
 62
    18
420
        0
176
     1
 90
       50
176
     1
 90
        3
176
     1
 62
     5
420
      255
176
     1
290
     0
176
     1
 90
       50
176
     1
 90
       50
176
     1
 90
       50
176
     1
290
     0
176
     1
 90
       50
176
     1
 62
   256
176
     0
 40
1.0
176
     0
 90
        2
176
     1
  1
strokes_ogs.tif
176
     1
290
     0
176
     1
 40
1.0
176
     1
 40
1.0
176
     1
  0
VISUALSTYLE
  5
1B9
102
{ACAD_REACTORS
330
1AE
102
}
330
1AE
100
AcDbVisualStyle
  2
Dim
 70
    11
177
     3
291
     1
 70
    58
 90
        2
176
     1
 90
        2
176
     1
 90
        0
176
     1
 90
        0
176
     1
 40
0.6
176
     1
 40
30.0
176
     1
 62
     7
420
 16777215
176
     1
 90
        1
176
     1
 90
        4
176
     1
 62
     7
176
     1
 62
   257
176
     1
 90
        1
176
     1
 90
        1
176
     1
 40
1.0
176
     1
 90
        8
176
     1
 62
     7
176
     1
 40
1.0
176
     1
 90
        1
176
     1
 90
        6
176
     1
 90
        2
176
     1
 62
     7
176
     1
 90
        5
176
     1
 90
        0
176
     1
 90
        0
176
     1
290
     0
176
     1
 90
        1
176
     1
 40
-50.0
176
     1
 90
        0
176
     1
290
     0
176
     1
290
     1
176
     1
290
     1
176
     1
290
     0
176
     1
290
     0
176
     1
290
     0
176
     1
290
     0
176
     1
290
     0
176
     1
290
     0
176
     1
 90
       50
176
     1
 40
0.0
176
     1
 40
1.0
176
     1
 90
        0
176
     1
 62
    18
420
        0
176
     1
 90
       50
176
     1
 90
        3
176
     1
 62
     5
420
      255
176
     1
290
     0
176
     1
 90
       50
176
     1
 90
       50
176
     1
 90
       50
176
     1
290
     0
176
     1
 90
       50
176
     1
 62
   256
176
     0
 40
1.0
176
     0
 90
        2
176
     1
  1
strokes_ogs.tif
176
     1
290
     0
176
     1
 40
1.0
176
     1
 40
1.0
176
     1
  0
VISUALSTYLE
  5
1C1
102
{ACAD_REACTORS
330
1AE
102
}
330
1AE
100
AcDbVisualStyle
  2
EdgeColorOff
 70
    22
177
     3
291
     1
 70
    58
 90
        2
176
     0
 90
        2
176
     0
 90
        0
176
     0
 90
        0
176
     0
 40
0.6
176
     0
 40
30.0
176
     0
 62
     7
420
 16777215
176
     0
 90
        1
176
     0
 90
        4
176
     0
 62
     7
176
     0
 62
   257
176
     0
 90
        1
176
     0
 90
        1
176
     0
 40
1.0
176
     0
 90
        8
176
     2
 62
     7
176
     0
 40
1.0
176
     0
 90
        1
176
     0
 90
        6
176
     0
 90
        2
176
     0
 62
     7
176
     0
 90
        5
176
     0
 90
        0
176
     0
 90
        0
176
     0
290
     0
176
     0
 90
        1
176
     0
 40
0.0
176
     0
 90
        0
176
     0
290
     0
176
     0
290
     1
176
     0
290
     1
176
     0
290
     0
176
     0
290
     0
176
     0
290
     0
176
     0
290
     0
176
     0
290
     0
176
     0
290
     0
176
     0
 90
       50
176
     0
 40
0.0
176
     0
 40
1.0
176
     0
 90
        0
176
     0
 62
    18
420
        0
176
     0
 90
       50
176
     0
 90
        3
176
     0
 62
     5
420
      255
176
     0
290
     0
176
     0
 90
       50
176
     0
 90
       50
176
     0
 90
       50
176
     0
290
     0
176
     0
 90
       50
176
     0
 62
   256
176
     0
 40
1.0
176
     0
 90
        2
176
     0
  1
strokes_ogs.tif
176
     0
290
     0
176
     0
 40
1.0
176
     0
 40
1.0
176
     0
  0
VISUALSTYLE
  5
1BD
102
{ACAD_REACTORS
330
1AE
102
}
330
1AE
100
AcDbVisualStyle
  2
Facepattern
 70
    15
177
     3
291
     1
 70
    58
 90
        2
176
     1
 90
        2
176
     1
 90
        0
176
     1
 90
        0
176
     1
 40
0.6
176
     1
 40
30.0
176
     1
 62
     7
420
 16777215
176
     1
 90
        1
176
     1
 90
        4
176
     1
 62
     7
176
     1
 62
   257
176
     1
 90
        1
176
     1
 90
        1
176
     1
 40
1.0
176
     1
 90
        8
176
     1
 62
     7
176
     1
 40
1.0
176
     1
 90
        1
176
     1
 90
        6
176
     1
 90
        2
176
     1
 62
     7
176
     1
 90
        5
176
     1
 90
        0
176
     1
 90
        0
176
     1
290
     0
176
     1
 90
        1
176
     1
 40
0.0
176
     1
 90
        0
176
     1
290
     0
176
     1
290
     1
176
     1
290
     1
176
     1
290
     0
176
     1
290
     0
176
     1
290
     0
176
     1
290
     0
176
     1
290
     0
176
     1
290
     0
176
     1
 90
       50
176
     1
 40
0.0
176
     1
 40
1.0
176
     1
 90
        0
176
     1
 62
    18
420
        0
176
     1
 90
       50
176
     1
 90
        3
176
     1
 62
     5
420
      255
176
     1
290
     0
176
     1
 90
       50
176
     1
 90
       50
176
     1
 90
       50
176
     1
290
     0
176
     1
 90
       50
176
     1
 62
   256
176
     0
 40
1.0
176
     0
 90
        2
176
     1
  1
strokes_ogs.tif
176
     1
290
     0
176
     1
 40
1.0
176
     1
 40
1.0
176
     1
  0
VISUALSTYLE
  5
1AF
102
{ACAD_REACTORS
330
1AE
102
}
330
1AE
100
AcDbVisualStyle
  2
Flat
 70
     0
177
     3
291
     1
 70
    58
 90
        2
176
     1
 90
        1
176
     1
 90
        1
176
     1
 90
        2
176
     1
 40
0.6
176
     1
 40
30.0
176
     1
 62
     7
420
 16777215
176
     1
 90
        0
176
     1
 90
        0
176
     1
 62
     7
176
     1
 62
   257
176
     1
 90
        1
176
     1
 90
        1
176
     1
 40
1.0
176
     1
 90
        8
176
     1
 62
     7
176
     1
 40
1.0
176
     1
 90
        1
176
     1
 90
        6
176
     1
 90
        2
176
     1
 62
     7
176
     1
 90
        5
176
     1
 90
        0
176
     1
 90
        0
176
     1
290
     0
176
     1
 90
       13
176
     1
 40
0.0
176
     1
 90
        0
176
     1
290
     0
176
     1
290
     1
176
     1
290
     1
176
     1
290
     0
176
     1
290
     0
176
     1
290
     0
176
     1
290
     0
176
     1
290
     0
176
     1
290
     0
176
     1
 90
       50
176
     1
 40
0.0
176
     1
 40
1.0
176
     1
 90
        0
176
     1
 62
    18
420
        0
176
     1
 90
       50
176
     1
 90
        3
176
     1
 62
     5
420
      255
176
     1
290
     0
176
     1
 90
       50
176
     1
 90
       50
176
     1
 90
       50
176
     1
290
     0
176
     1
 90
       50
176
     1
 62
   256
176
     0
 40
1.0
176
     0
 90
        2
176
     1
  1
strokes_ogs.tif
176
     1
290
     0
176
     1
 40
1.0
176
     1
 40
1.0
176
     1
  0
VISUALSTYLE
  5
1B0
102
{ACAD_REACTORS
330
1AE
102
}
330
1AE
100
AcDbVisualStyle
  2
FlatWithEdges
 70
     1
177
     3
291
     1
 70
    58
 90
        2
176
     1
 90
        1
176
     1
 90
        1
176
     1
 90
        2
176
     1
 40
0.6
176
     1
 40
30.0
176
     1
 62
     7
420
 16777215
176
     1
 90
        1
176
     1
 90
        0
176
     1
 62
     7
176
     1
 62
   257
176
     1
 90
        1
176
     1
 90
        1
176
     1
 40
1.0
176
     1
 90
        0
176
     1
 62
   257
176
     1
 40
1.0
176
     1
 90
        1
176
     1
 90
        6
176
     1
 90
        2
176
     1
 62
     7
176
     1
 90
        5
176
     1
 90
        0
176
     1
 90
        0
176
     1
290
     0
176
     1
 90
       13
176
     1
 40
0.0
176
     1
 90
        0
176
     1
290
     0
176
     1
290
     1
176
     1
290
     1
176
     1
290
     0
176
     1
290
     0
176
     1
290
     0
176
     1
290
     0
176
     1
290
     0
176
     1
290
     0
176
     1
 90
       50
176
     1
 40
0.0
176
     1
 40
1.0
176
     1
 90
        0
176
     1
 62
    18
420
        0
176
     1
 90
       50
176
     1
 90
        3
176
     1
 62
     5
420
      255
176
     1
290
     0
176
     1
 90
       50
176
     1
 90
       50
176
     1
 90
       50
176
     1
290
     0
176
     1
 90
       50
176
     1
 62
   256
176
     0
 40
1.0
176
     0
 90
        2
176
     1
  1
strokes_ogs.tif
176
     1
290
     0
176
     1
 40
1.0
176
     1
 40
1.0
176
     1
  0
VISUALSTYLE
  5
1B1
102
{ACAD_REACTORS
330
1AE
102
}
330
1AE
100
AcDbVisualStyle
  2
Gouraud
 70
     2
177
     3
291
     1
 70
    58
 90
        2
176
     1
 90
        2
176
     1
 90
        1
176
     1
 90
        2
176
     1
 40
0.6
176
     1
 40
30.0
176
     1
 62
     7
420
 16777215
176
     1
 90
        0
176
     1
 90
        0
176
     1
 62
     7
176
     1
 62
   257
176
     1
 90
        1
176
     1
 90
        1
176
     1
 40
1.0
176
     1
 90
        0
176
     1
 62
     7
176
     1
 40
1.0
176
     1
 90
        1
176
     1
 90
        6
176
     1
 90
        2
176
     1
 62
     7
176
     1
 90
        5
176
     1
 90
        0
176
     1
 90
        0
176
     1
290
     0
176
     1
 90
       13
176
     1
 40
0.0
176
     1
 90
        0
176
     1
290
     0
176
     1
290
     1
176
     1
290
     1
176
     1
290
     0
176
     1
290
     0
176
     1
290
     0
176
     1
290
     0
176
     1
290
     0
176
     1
290
     0
176
     1
 90
       50
176
     1
 40
0.0
176
     1
 40
1.0
176
     1
 90
        0
176
     1
 62
    18
420
        0
176
     1
 90
       50
176
     1
 90
        3
176
     1
 62
     5
420
      255
176
     1
290
     0
176
     1
 90
       50
176
     1
 90
       50
176
     1
 90
       50
176
     1
290
     0
176
     1
 90
       50
176
     1
 62
   256
176
     0
 40
1.0
176
     0
 90
        2
176
     1
  1
strokes_ogs.tif
176
     1
290
     0
176
     1
 40
1.0
176
     1
 40
1.0
176
     1
  0
VISUALSTYLE
  5
1B2
102
{ACAD_REACTORS
330
1AE
102
}
330
1AE
100
AcDbVisualStyle
  2
GouraudWithEdges
 70
     3
177
     3
291
     1
 70
    58
 90
        2
176
     1
 90
        2
176
     1
 90
        1
176
     1
 90
        2
176
     1
 40
0.6
176
     1
 40
30.0
176
     1
 62
     7
420
 16777215
176
     1
 90
        1
176
     1
 90
        0
176
     1
 62
     7
176
     1
 62
   257
176
     1
 90
        1
176
     1
 90
        1
176
     1
 40
1.0
176
     1
 90
        0
176
     1
 62
   257
176
     1
 40
1.0
176
     1
 90
        1
176
     1
 90
        6
176
     1
 90
        2
176
     1
 62
     7
176
     1
 90
        5
176
     1
 90
        0
176
     1
 90
        0
176
     1
290
     0
176
     1
 90
       13
176
     1
 40
0.0
176
     1
 90
        0
176
     1
290
     0
176
     1
290
     1
176
     1
290
     1
176
     1
290
     0
176
     1
290
     0
176
     1
290
     0
176
     1
290
     0
176
     1
290
     0
176
     1
290
     0
176
     1
 90
       50
176
     1
 40
0.0
176
     1
 40
1.0
176
     1
 90
        0
176
     1
 62
    18
420
        0
176
     1
 90
       50
176
     1
 90
        3
176
     1
 62
     5
420
      255
176
     1
290
     0
176
     1
 90
       50
176
     1
 90
       50
176
     1
 90
       50
176
     1
290
     0
176
     1
 90
       50
176
     1
 62
   256
176
     0
 40
1.0
176
     0
 90
        2
176
     1
  1
strokes_ogs.tif
176
     1
290
     0
176
     1
 40
1.0
176
     1
 40
1.0
176
     1
  0
VISUALSTYLE
  5
1B5
102
{ACAD_REACTORS
330
1AE
102
}
330
1AE
100
AcDbVisualStyle
  2
Hidden
 70
     6
177
     3
291
     0
 70
    58
 90
        1
176
     1
 90
        2
176
     1
 90
        2
176
     1
 90
        0
176
     1
 40
0.6
176
     1
 40
30.0
176
     1
 62
     7
420
 16777215
176
     1
 90
        2
176
     1
 90
        2
176
     1
 62
     7
176
     1
 62
   257
176
     1
 90
        2
176
     1
 90
        1
176
     1
 40
40.0
176
     1
 90
        0
176
     1
 62
   257
176
     1
 40
1.0
176
     1
 90
        1
176
     1
 90
        6
176
     1
 90
        2
176
     1
 62
     7
176
     1
 90
        3
176
     1
 90
        0
176
     1
 90
        0
176
     1
290
     0
176
     1
 90
        1
176
     1
 40
0.0
176
     1
 90
        0
176
     1
290
     0
176
     1
290
     1
176
     1
290
     1
176
     1
290
     0
176
     1
290
     0
176
     1
290
     0
176
     1
290
     0
176
     1
290
     0
176
     1
290
     0
176
     1
 90
       50
176
     1
 40
0.0
176
     1
 40
1.0
176
     1
 90
        0
176
     1
 62
    18
420
        0
176
     1
 90
       50
176
     1
 90
        3
176
     1
 62
     5
420
      255
176
     1
290
     0
176
     1
 90
       50
176
     1
 90
       50
176
     1
 90
       50
176
     1
290
     0
176
     1
 90
       50
176
     1
 62
   256
176
     0
 40
1.0
176
     0
 90
        2
176
     1
  1
strokes_ogs.tif
176
     1
290
     0
176
     1
 40
1.0
176
     1
 40
1.0
176
     1
  0
VISUALSTYLE
  5
1BF
102
{ACAD_REACTORS
330
1AE
102
}
330
1AE
100
AcDbVisualStyle
  2
JitterOff
 70
    20
177
     3
291
     1
 70
    58
 90
        2
176
     0
 90
        2
176
     0
 90
        0
176
     0
 90
        0
176
     0
 40
0.6
176
     0
 40
30.0
176
     0
 62
     7
420
 16777215
176
     0
 90
        1
176
     0
 90
        4
176
     0
 62
     7
176
     0
 62
   257
176
     0
 90
        1
176
     0
 90
        1
176
     0
 40
1.0
176
     0
 90
       10
176
     2
 62
     7
176
     0
 40
1.0
176
     0
 90
        1
176
     0
 90
        6
176
     0
 90
        2
176
     0
 62
     7
176
     0
 90
        5
176
     0
 90
        0
176
     0
 90
        0
176
     0
290
     0
176
     0
 90
        1
176
     0
 40
0.0
176
     0
 90
        0
176
     0
290
     0
176
     0
290
     1
176
     0
290
     1
176
     0
290
     0
176
     0
290
     0
176
     0
290
     0
176
     0
290
     0
176
     0
290
     0
176
     0
290
     0
176
     0
 90
       50
176
     0
 40
0.0
176
     0
 40
1.0
176
     0
 90
        0
176
     0
 62
    18
420
        0
176
     0
 90
       50
176
     0
 90
        3
176
     0
 62
     5
420
      255
176
     0
290
     0
176
     0
 90
       50
176
     0
 90
       50
176
     0
 90
       50
176
     0
290
     0
176
     0
 90
       50
176
     0
 62
   256
176
     0
 40
1.0
176
     0
 90
        2
176
     0
  1
strokes_ogs.tif
176
     0
290
     0
176
     0
 40
1.0
176
     0
 40
1.0
176
     0
  0
VISUALSTYLE
  5
1BC
102
{ACAD_REACTORS
330
1AE
102
}
330
1AE
100
AcDbVisualStyle
  2
Linepattern
 70
    14
177
     3
291
     1
 70
    58
 90
        2
176
     1
 90
        2
176
     1
 90
        0
176
     1
 90
        0
176
     1
 40
0.6
176
     1
 40
30.0
176
     1
 62
     7
420
 16777215
176
     1
 90
        1
176
     1
 90
        4
176
     1
 62
     7
176
     1
 62
   257
176
     1
 90
        7
176
     1
 90
        7
176
     1
 40
1.0
176
     1
 90
        8
176
     1
 62
     7
176
     1
 40
1.0
176
     1
 90
        1
176
     1
 90
        6
176
     1
 90
        2
176
     1
 62
     7
176
     1
 90
        5
176
     1
 90
        0
176
     1
 90
        0
176
     1
290
     0
176
     1
 90
        1
176
     1
 40
0.0
176
     1
 90
        0
176
     1
290
     0
176
     1
290
     1
176
     1
290
     1
176
     1
290
     0
176
     1
290
     0
176
     1
290
     0
176
     1
290
     0
176
     1
290
     0
176
     1
290
     0
176
     1
 90
       50
176
     1
 40
0.0
176
     1
 40
1.0
176
     1
 90
        0
176
     1
 62
    18
420
        0
176
     1
 90
       50
176
     1
 90
        3
176
     1
 62
     5
420
      255
176
     1
290
     0
176
     1
 90
       50
176
     1
 90
       50
176
     1
 90
       50
176
     1
290
     0
176
     1
 90
       50
176
     1
 62
   256
176
     0
 40
1.0
176
     0
 90
        2
176
     1
  1
strokes_ogs.tif
176
     1
290
     0
176
     1
 40
1.0
176
     1
 40
1.0
176
     1
  0
VISUALSTYLE
  5
1C0
102
{ACAD_REACTORS
330
1AE
102
}
330
1AE
100
AcDbVisualStyle
  2
OverhangOff
 70
    21
177
     3
291
     1
 70
    58
 90
        2
176
     0
 90
        2
176
     0
 90
        0
176
     0
 90
        0
176
     0
 40
0.6
176
     0
 40
30.0
176
     0
 62
     7
420
 16777215
176
     0
 90
        1
176
     0
 90
        4
176
     0
 62
     7
176
     0
 62
   257
176
     0
 90
        1
176
     0
 90
        1
176
     0
 40
1.0
176
     0
 90
        9
176
     2
 62
     7
176
     0
 40
1.0
176
     0
 90
        1
176
     0
 90
        6
176
     0
 90
        2
176
     0
 62
     7
176
     0
 90
        5
176
     0
 90
        0
176
     0
 90
        0
176
     0
290
     0
176
     0
 90
        1
176
     0
 40
0.0
176
     0
 90
        0
176
     0
290
     0
176
     0
290
     1
176
     0
290
     1
176
     0
290
     0
176
     0
290
     0
176
     0
290
     0
176
     0
290
     0
176
     0
290
     0
176
     0
290
     0
176
     0
 90
       50
176
     0
 40
0.0
176
     0
 40
1.0
176
     0
 90
        0
176
     0
 62
    18
420
        0
176
     0
 90
       50
176
     0
 90
        3
176
     0
 62
     5
420
      255
176
     0
290
     0
176
     0
 90
       50
176
     0
 90
       50
176
     0
 90
       50
176
     0
290
     0
176
     0
 90
       50
176
     0
 62
   256
176
     0
 40
1.0
176
     0
 90
        2
176
     0
  1
strokes_ogs.tif
176
     0
290
     0
176
     0
 40
1.0
176
     0
 40
1.0
176
     0
  0
VISUALSTYLE
  5
1B7
102
{ACAD_REACTORS
330
1AE
102
}
330
1AE
100
AcDbVisualStyle
  2
Realistic
 70
     8
177
     3
291
     0
 70
    58
 90
        2
176
     1
 90
        3
176
     1
 90
        0
176
     1
 90
        2
176
     1
 40
0.6
176
     1
 40
30.0
176
     1
 62
     7
420
 16777215
176
     1
 90
        0
176
     1
 90
        0
176
     1
 62
     7
176
     1
 62
   257
176
     1
 90
        1
176
     1
 90
        1
176
     1
 40
1.0
176
     1
 90
        8
176
     1
 62
   257
176
     1
 40
1.0
176
     1
 90
        1
176
     1
 90
        6
176
     1
 90
        2
176
     1
 62
     7
176
     1
 90
        3
176
     1
 90
        0
176
     1
 90
        0
176
     1
290
     0
176
     1
 90
       13
176
     1
 40
0.0
176
     1
 90
        0
176
     1
290
     0
176
     1
290
     1
176
     1
290
     1
176
     1
290
     0
176
     1
290
     0
176
     1
290
     0
176
     1
290
     0
176
     1
290
     0
176
     1
290
     0
176
     1
 90
       50
176
     1
 40
0.0
176
     1
 40
1.0
176
     1
 90
        0
176
     1
 62
    18
420
        0
176
     1
 90
       50
176
     1
 90
        3
176
     1
 62
     5
420
      255
176
     1
290
     0
176
     1
 90
       50
176
     1
 90
       50
176
     1
 90
       50
176
     1
290
     0
176
     1
 90
       50
176
     1
 62
   256
176
     0
 40
1.0
176
     0
 90
        2
176
     1
  1
strokes_ogs.tif
176
     1
290
     0
176
     1
 40
1.0
176
     1
 40
1.0
176
     1
  0
VISUALSTYLE
  5
1C6
102
{ACAD_REACTORS
330
1AE
102
}
330
1AE
100
AcDbVisualStyle
  2
Shaded
 70
    27
177
     3
291
     0
 70
    58
 90
        2
176
     1
 90
        2
176
     1
 90
        1
176
     1
 90
        2
176
     1
 40
0.6
176
     1
 40
30.0
176
     1
 62
     7
420
 16777215
176
     1
 90
        0
176
     1
 90
        4
176
     1
 62
     7
176
     1
 62
   257
176
     1
 90
        1
176
     1
 90
        1
176
     1
 40
1.0
176
     1
 90
        8
176
     1
 62
   257
176
     1
 40
1.0
176
     1
 90
        1
176
     1
 90
        6
176
     1
 90
        2
176
     1
 62
     8
420
  7895160
176
     1
 90
        3
176
     1
 90
        0
176
     1
 90
        0
176
     1
290
     0
176
     1
 90
        5
176
     1
 40
0.0
176
     1
 90
        0
176
     1
290
     0
176
     1
290
     1
176
     1
290
     1
176
     1
290
     0
176
     1
290
     0
176
     1
290
     0
176
     1
290
     0
176
     1
290
     0
176
     1
290
     0
176
     1
 90
       50
176
     1
 40
0.0
176
     1
 40
1.0
176
     1
 90
        0
176
     1
 62
    18
420
        0
176
     1
 90
       50
176
     1
 90
        3
176
     1
 62
     5
420
      255
176
     1
290
     0
176
     1
 90
       50
176
     1
 90
       50
176
     1
 90
       50
176
     1
290
     0
176
     1
 90
       50
176
     1
 62
   256
176
     0
 40
1.0
176
     0
 90
        2
176
     1
  1
strokes_ogs.tif
176
     1
290
     0
176
     1
 40
1.0
176
     1
 40
1.0
176
     1
  0
VISUALSTYLE
  5
1C5
102
{ACAD_REACTORS
330
1AE
102
}
330
1AE
100
AcDbVisualStyle
  2
Shaded with edges
 70
    26
177
     3
291
     0
 70
    58
 90
        2
176
     1
 90
        2
176
     1
 90
        1
176
     1
 90
        2
176
     1
 40
0.6
176
     1
 40
30.0
176
     1
 62
     7
420
 16777215
176
     1
 90
        1
176
     1
 90
       10
176
     1
 62
     7
176
     1
 62
   257
176
     1
 90
        2
176
     1
 90
        1
176
     1
 40
1.0
176
     1
 90
        8
176
     1
 62
   257
176
     1
 40
1.0
176
     1
 90
        1
176
     1
 90
        6
176
     1
 90
        2
176
     1
 62
     7
176
     1
 90
        3
176
     1
 90
        0
176
     1
 90
        0
176
     1
290
     0
176
     1
 90
        5
176
     1
 40
0.0
176
     1
 90
        0
176
     1
290
     0
176
     1
290
     1
176
     1
290
     1
176
     1
290
     0
176
     1
290
     0
176
     1
290
     0
176
     1
290
     0
176
     1
290
     0
176
     1
290
     0
176
     1
 90
       50
176
     1
 40
0.0
176
     1
 40
1.0
176
     1
 90
        0
176
     1
 62
    18
420
        0
176
     1
 90
       50
176
     1
 90
        3
176
     1
 62
     5
420
      255
176
     1
290
     0
176
     1
 90
       50
176
     1
 90
       50
176
     1
 90
       50
176
     1
290
     0
176
     1
 90
       50
176
     1
 62
   256
176
     0
 40
1.0
176
     0
 90
        2
176
     1
  1
strokes_ogs.tif
176
     1
290
     0
176
     1
 40
1.0
176
     1
 40
1.0
176
     1
  0
VISUALSTYLE
  5
1C2
102
{ACAD_REACTORS
330
1AE
102
}
330
1AE
100
AcDbVisualStyle
  2
Shades of Gray
 70
    23
177
     3
291
     0
 70
    58
 90
        2
176
     1
 90
        2
176
     1
 90
        3
176
     1
 90
        0
176
     1
 40
0.6
176
     1
 40
30.0
176
     1
 62
     7
420
 16777215
176
     1
 90
        2
176
     1
 90
        2
176
     1
 62
     7
176
     1
 62
     7
176
     1
 90
        1
176
     1
 90
        1
176
     1
 40
40.0
176
     1
 90
        8
176
     1
 62
     7
176
     1
 40
1.0
176
     1
 90
        1
176
     1
 90
        6
176
     1
 90
        2
176
     1
 62
     7
176
     1
 90
        3
176
     1
 90
        0
176
     1
 90
        0
176
     1
290
     0
176
     1
 90
        1
176
     1
 40
0.0
176
     1
 90
        0
176
     1
290
     0
176
     1
290
     1
176
     1
290
     1
176
     1
290
     0
176
     1
290
     0
176
     1
290
     0
176
     1
290
     0
176
     1
290
     0
176
     1
290
     0
176
     1
 90
       50
176
     1
 40
0.0
176
     1
 40
1.0
176
     1
 90
        0
176
     1
 62
    18
420
        0
176
     1
 90
       50
176
     1
 90
        3
176
     1
 62
     5
420
      255
176
     1
290
     0
176
     1
 90
       50
176
     1
 90
       50
176
     1
 90
       50
176
     1
290
     0
176
     1
 90
       50
176
     1
 62
   256
176
     0
 40
1.0
176
     0
 90
        2
176
     1
  1
strokes_ogs.tif
176
     1
290
     0
176
     1
 40
1.0
176
     1
 40
1.0
176
     1
  0
VISUALSTYLE
  5
1C3
102
{ACAD_REACTORS
330
1AE
102
}
330
1AE
100
AcDbVisualStyle
  2
Sketchy
 70
    24
177
     3
291
     0
 70
    58
 90
        1
176
     1
 90
        2
176
     1
 90
        2
176
     1
 90
        0
176
     1
 40
0.6
176
     1
 40
30.0
176
     1
 62
     7
420
 16777215
176
     1
 90
        2
176
     1
 90
        2
176
     1
 62
     7
176
     1
 62
     7
176
     1
 90
        1
176
     1
 90
        1
176
     1
 40
40.0
176
     1
 90
       11
176
     1
 62
     7
176
     1
 40
1.0
176
     1
 90
        1
176
     1
 90
        6
176
     1
 90
        2
176
     1
 62
     7
176
     1
 90
        6
176
     1
 90
        0
176
     1
 90
        0
176
     1
290
     0
176
     1
 90
        1
176
     1
 40
0.0
176
     1
 90
        0
176
     1
290
     0
176
     1
290
     1
176
     1
290
     1
176
     1
290
     0
176
     1
290
     0
176
     1
290
     0
176
     1
290
     0
176
     1
290
     0
176
     1
290
     0
176
     1
 90
       50
176
     1
 40
0.0
176
     1
 40
1.0
176
     1
 90
        0
176
     1
 62
    18
420
        0
176
     1
 90
       50
176
     1
 90
        3
176
     1
 62
     5
420
      255
176
     1
290
     0
176
     1
 90
       50
176
     1
 90
       50
176
     1
 90
       50
176
     1
290
     0
176
     1
 90
       50
176
     1
 62
   256
176
     0
 40
1.0
176
     0
 90
        2
176
     1
  1
strokes_ogs.tif
176
     1
290
     0
176
     1
 40
1.0
176
     1
 40
1.0
176
     1
  0
VISUALSTYLE
  5
1BB
102
{ACAD_REACTORS
330
1AE
102
}
330
1AE
100
AcDbVisualStyle
  2
Thicken
 70
    13
177
     3
291
     1
 70
    58
 90
        2
176
     1
 90
        2
176
     1
 90
        0
176
     1
 90
        0
176
     1
 40
0.6
176
     1
 40
30.0
176
     1
 62
     7
420
 16777215
176
     1
 90
        1
176
     1
 90
        4
176
     1
 62
     7
176
     1
 62
   257
176
     1
 90
        1
176
     1
 90
        1
176
     1
 40
1.0
176
     1
 90
       12
176
     1
 62
     7
176
     1
 40
1.0
176
     1
 90
        1
176
     1
 90
        6
176
     1
 90
        2
176
     1
 62
     7
176
     1
 90
        5
176
     1
 90
        0
176
     1
 90
        0
176
     1
290
     0
176
     1
 90
        1
176
     1
 40
0.0
176
     1
 90
        0
176
     1
290
     0
176
     1
290
     1
176
     1
290
     1
176
     1
290
     0
176
     1
290
     0
176
     1
290
     0
176
     1
290
     0
176
     1
290
     0
176
     1
290
     0
176
     1
 90
       50
176
     1
 40
0.0
176
     1
 40
1.0
176
     1
 90
        0
176
     1
 62
    18
420
        0
176
     1
 90
       50
176
     1
 90
        3
176
     1
 62
     5
420
      255
176
     1
290
     0
176
     1
 90
       50
176
     1
 90
       50
176
     1
 90
       50
176
     1
290
     0
176
     1
 90
       50
176
     1
 62
   256
176
     0
 40
1.0
176
     0
 90
        2
176
     1
  1
strokes_ogs.tif
176
     1
290
     0
176
     1
 40
1.0
176
     1
 40
1.0
176
     1
  0
VISUALSTYLE
  5
1B4
102
{ACAD_REACTORS
330
1AE
102
}
330
1AE
100
AcDbVisualStyle
  2
Wireframe
 70
     5
177
     3
291
     0
 70
    58
 90
        0
176
     1
 90
        2
176
     1
 90
        0
176
     1
 90
        0
176
     1
 40
0.6
176
     1
 40
30.0
176
     1
 62
     7
420
 16777215
176
     1
 90
        1
176
     1
 90
        4
176
     1
 62
     7
176
     1
 62
   257
176
     1
 90
        1
176
     1
 90
        1
176
     1
 40
1.0
176
     1
 90
        0
176
     1
 62
   257
176
     1
 40
1.0
176
     1
 90
        1
176
     1
 90
        6
176
     1
 90
        2
176
     1
 62
     7
176
     1
 90
        3
176
     1
 90
        0
176
     1
 90
        0
176
     1
290
     0
176
     1
 90
        1
176
     1
 40
0.0
176
     1
 90
        0
176
     1
290
     0
176
     1
290
     1
176
     1
290
     1
176
     1
290
     0
176
     1
290
     0
176
     1
290
     0
176
     1
290
     0
176
     1
290
     0
176
     1
290
     0
176
     1
 90
       50
176
     1
 40
0.0
176
     1
 40
1.0
176
     1
 90
        0
176
     1
 62
    18
420
        0
176
     1
 90
       50
176
     1
 90
        3
176
     1
 62
     5
420
      255
176
     1
290
     0
176
     1
 90
       50
176
     1
 90
       50
176
     1
 90
       50
176
     1
290
     0
176
     1
 90
       50
176
     1
 62
   256
176
     0
 40
1.0
176
     0
 90
        2
176
     1
  1
strokes_ogs.tif
176
     1
290
     0
176
     1
 40
1.0
176
     1
 40
1.0
176
     1
  0
VISUALSTYLE
  5
1C4
102
{ACAD_REACTORS
330
1AE
102
}
330
1AE
100
AcDbVisualStyle
  2
X-Ray
 70
    25
177
     3
291
     0
 70
    58
 90
        2
176
     1
 90
        2
176
     1
 90
        1
176
     1
 90
        1
176
     1
 40
0.5
176
     1
 40
30.0
176
     1
 62
     7
420
 16777215
176
     1
 90
        1
176
     1
 90
        0
176
     1
 62
     7
176
     1
 62
   257
176
     1
 90
        1
176
     1
 90
        1
176
     1
 40
1.0
176
     1
 90
        8
176
     1
 62
     7
176
     1
 40
1.0
176
     1
 90
        1
176
     1
 90
        6
176
     1
 90
        2
176
     1
 62
     7
176
     1
 90
        3
176
     1
 90
        0
176
     1
 90
        0
176
     1
290
     0
176
     1
 90
       13
176
     1
 40
0.0
176
     1
 90
        0
176
     1
290
     0
176
     1
290
     1
176
     1
290
     1
176
     1
290
     0
176
     1
290
     0
176
     1
290
     0
176
     1
290
     0
176
     1
290
     0
176
     1
290
     0
176
     1
 90
       50
176
     1
 40
0.0
176
     1
 40
1.0
176
     1
 90
        0
176
     1
 62
    18
420
        0
176
     1
 90
       50
176
     1
 90
        3
176
     1
 62
     5
420
      255
176
     1
290
     0
176
     1
 90
       50
176
     1
 90
       50
176
     1
 90
       50
176
     1
290
     0
176
     1
 90
       50
176
     1
 62
   256
176
     0
 40
1.0
176
     0
 90
        2
176
     1
  1
strokes_ogs.tif
176
     1
290
     0
176
     1
 40
1.0
176
     1
 40
1.0
176
     1
  0
DICTIONARYVAR
  5
1D3
102
{ACAD_REACTORS
330
1D2
102
}
330
1D2
100
DictionaryVariables
280
     0
  1
1:1
  0
DICTIONARYVAR
  5
1D5
102
{ACAD_REACTORS
330
1D2
102
}
330
1D2
100
DictionaryVariables
280
     0
  1
Standard
  0
DICTIONARYVAR
  5
1D4
102
{ACAD_REACTORS
330
1D2
102
}
330
1D2
100
DictionaryVariables
280
     0
  1
Standard
  0
DICTIONARYVAR
  5
1D6
102
{ACAD_REACTORS
330
1D2
102
}
330
1D2
100
DictionaryVariables
280
     0
  1
0
  0
DICTIONARY
  5
1D9
330
1CC
100
AcDbDictionary
280
     1
281
     1
  3
ACAD_ROUNDTRIP_2008_TABLESTYLE_CELLSTYLEMAP
360
1DA
  0
CELLSTYLEMAP
  5
1DA
102
{ACAD_REACTORS
330
1D9
102
}
330
1D9
100
AcDbCellStyleMap
 90
        3
300
CELLSTYLE
  1
TABLEFORMAT_BEGIN
 90
        5
170
     1
 91
        0
 92
    32768
 62
   257
 93
        1
300
CONTENTFORMAT
  1
CONTENTFORMAT_BEGIN
 90
        0
 91
        0
 92
        4
 93
        0
300

 40
0.0
140
1.0
 94
        5
 62
     0
340
11
144
6.0
309
CONTENTFORMAT_END
171
     1
301
MARGIN
  1
CELLMARGIN_BEGIN
 40
1.5
 40
1.5
 40
1.5
 40
1.5
 40
1.5
 40
1.5
309
CELLMARGIN_END
 94
        6
 95
        1
302
GRIDFORMAT
  1
GRIDFORMAT_BEGIN
 90
        0
 91
        1
 62
     0
 92
       -2
340
14
 93
        0
 40
0.045
309
GRIDFORMAT_END
 95
        2
302
GRIDFORMAT
  1
GRIDFORMAT_BEGIN
 90
        0
 91
        1
 62
     0
 92
       -2
340
14
 93
        0
 40
0.045
309
GRIDFORMAT_END
 95
        4
302
GRIDFORMAT
  1
GRIDFORMAT_BEGIN
 90
        0
 91
        1
 62
     0
 92
       -2
340
14
 93
        0
 40
0.045
309
GRIDFORMAT_END
 95
        8
302
GRIDFORMAT
  1
GRIDFORMAT_BEGIN
 90
        0
 91
        1
 62
     0
 92
       -2
340
14
 93
        0
 40
0.045
309
GRIDFORMAT_END
 95
       16
302
GRIDFORMAT
  1
GRIDFORMAT_BEGIN
 90
        0
 91
        1
 62
     0
 92
       -2
340
14
 93
        0
 40
0.045
309
GRIDFORMAT_END
 95
       32
302
GRIDFORMAT
  1
GRIDFORMAT_BEGIN
 90
        0
 91
        1
 62
     0
 92
       -2
340
14
 93
        0
 40
0.045
309
GRIDFORMAT_END
309
TABLEFORMAT_END
  1
CELLSTYLE_BEGIN
 90
        1
 91
        1
300
_TITLE
309
CELLSTYLE_END
300
CELLSTYLE
  1
TABLEFORMAT_BEGIN
 90
        5
170
     1
 91
        0
 92
        0
 62
   257
 93
        1
300
CONTENTFORMAT
  1
CONTENTFORMAT_BEGIN
 90
        0
 91
        0
 92
        4
 93
        0
300

 40
0.0
140
1.0
 94
        5
 62
     0
340
11
144
4.5
309
CONTENTFORMAT_END
171
     1
301
MARGIN
  1
CELLMARGIN_BEGIN
 40
1.5
 40
1.5
 40
1.5
 40
1.5
 40
1.5
 40
1.5
309
CELLMARGIN_END
 94
        6
 95
        1
302
GRIDFORMAT
  1
GRIDFORMAT_BEGIN
 90
        0
 91
        1
 62
     0
 92
       -2
340
14
 93
        0
 40
0.045
309
GRIDFORMAT_END
 95
        2
302
GRIDFORMAT
  1
GRIDFORMAT_BEGIN
 90
        0
 91
        1
 62
     0
 92
       -2
340
14
 93
        0
 40
0.045
309
GRIDFORMAT_END
 95
        4
302
GRIDFORMAT
  1
GRIDFORMAT_BEGIN
 90
        0
 91
        1
 62
     0
 92
       -2
340
14
 93
        0
 40
0.045
309
GRIDFORMAT_END
 95
        8
302
GRIDFORMAT
  1
GRIDFORMAT_BEGIN
 90
        0
 91
        1
 62
     0
 92
       -2
340
14
 93
        0
 40
0.045
309
GRIDFORMAT_END
 95
       16
302
GRIDFORMAT
  1
GRIDFORMAT_BEGIN
 90
        0
 91
        1
 62
     0
 92
       -2
340
14
 93
        0
 40
0.045
309
GRIDFORMAT_END
 95
       32
302
GRIDFORMAT
  1
GRIDFORMAT_BEGIN
 90
        0
 91
        1
 62
     0
 92
       -2
340
14
 93
        0
 40
0.045
309
GRIDFORMAT_END
309
TABLEFORMAT_END
  1
CELLSTYLE_BEGIN
 90
        2
 91
        1
300
_HEADER
309
CELLSTYLE_END
300
CELLSTYLE
  1
TABLEFORMAT_BEGIN
 90
        5
170
     1
 91
        0
 92
        0
 62
   257
 93
        1
300
CONTENTFORMAT
  1
CONTENTFORMAT_BEGIN
 90
        0
 91
        0
 92
        4
 93
        0
300

 40
0.0
140
1.0
 94
        2
 62
     0
340
11
144
4.5
309
CONTENTFORMAT_END
171
     1
301
MARGIN
  1
CELLMARGIN_BEGIN
 40
1.5
 40
1.5
 40
1.5
 40
1.5
 40
1.5
 40
1.5
309
CELLMARGIN_END
 94
        6
 95
        1
302
GRIDFORMAT
  1
GRIDFORMAT_BEGIN
 90
        0
 91
        1
 62
     0
 92
       -2
340
14
 93
        0
 40
0.045
309
GRIDFORMAT_END
 95
        2
302
GRIDFORMAT
  1
GRIDFORMAT_BEGIN
 90
        0
 91
        1
 62
     0
 92
       -2
340
14
 93
        0
 40
0.045
309
GRIDFORMAT_END
 95
        4
302
GRIDFORMAT
  1
GRIDFORMAT_BEGIN
 90
        0
 91
        1
 62
     0
 92
       -2
340
14
 93
        0
 40
0.045
309
GRIDFORMAT_END
 95
        8
302
GRIDFORMAT
  1
GRIDFORMAT_BEGIN
 90
        0
 91
        1
 62
     0
 92
       -2
340
14
 93
        0
 40
0.045
309
GRIDFORMAT_END
 95
       16
302
GRIDFORMAT
  1
GRIDFORMAT_BEGIN
 90
        0
 91
        1
 62
     0
 92
       -2
340
14
 93
        0
 40
0.045
309
GRIDFORMAT_END
 95
       32
302
GRIDFORMAT
  1
GRIDFORMAT_BEGIN
 90
        0
 91
        1
 62
     0
 92
       -2
340
14
 93
        0
 40
0.045
309
GRIDFORMAT_END
309
TABLEFORMAT_END
  1
CELLSTYLE_BEGIN
 90
        3
 91
        2
300
_DATA
309
CELLSTYLE_END
  0
ENDSEC
  0
EOF
