  0
SECTION
  2
HEADER
  9
$ACADVER
  1
AC1024
  9
$ACADMAINTVER
 70
     6
  9
$DWGCODEPAGE
  3
ANSI_1252
  9
$INSBASE
 10
0.0
 20
0.0
 30
0.0
  9
$EXTMIN
 10
0.0
 20
0.0
 30
0.0
  9
$EXTMAX
 10
594.0
 20
841.0
 30
0.0
  9
$LIMMIN
 10
0.0
 20
0.0
  9
$LIMMAX
 10
594.0
 20
841.0
  9
$ORTHOMODE
 70
     0
  9
$REGENMODE
 70
     1
  9
$FILLMODE
 70
     1
  9
$QTEXTMODE
 70
     0
  9
$MIRRTEXT
 70
     1
  9
$LTSCALE
 40
1.0
  9
$ATTMODE
 70
     1
  9
$TEXTSIZE
 40
5.0
  9
$TRACEWID
 40
1.0
  9
$TEXTSTYLE
  7
Standard
  9
$CLAYER
  8
0
  9
$CELTYPE
  6
ByLayer
  9
$CECOLOR
 62
   256
  9
$CELTSCALE
 40
1.0
  9
$DISPSILH
 70
     0
  9
$DIMSCALE
 40
1.0
  9
$DIMASZ
 40
2.5
  9
$DIMEXO
 40
0.0
  9
$DIMDLI
 40
3.75
  9
$DIMRND
 40
0.0
  9
$DIMDLE
 40
0.0
  9
$DIMEXE
 40
1.0
  9
$DIMTP
 40
0.0
  9
$DIMTM
 40
0.0
  9
$DIMTXT
 40
3.5
  9
$DIMCEN
 40
2.5
  9
$DIMTSZ
 40
0.0
  9
$DIMTOL
 70
     0
  9
$DIMLIM
 70
     0
  9
$DIMTIH
 70
     1
  9
$DIMTOH
 70
     1
  9
$DIMSE1
 70
     0
  9
$DIMSE2
 70
     0
  9
$DIMTAD
 70
     1
  9
$DIMZIN
 70
     0
  9
$DIMBLK
  1

  9
$DIMASO
 70
     1
  9
$DIMSHO
 70
     1
  9
$DIMPOST
  1

  9
$DIMAPOST
  1

  9
$DIMALT
 70
     0
  9
$DIMALTD
 70
     3
  9
$DIMALTF
 40
0.0393700787
  9
$DIMLFAC
 40
1.0
  9
$DIMTOFL
 70
     1
  9
$DIMTVP
 40
0.0
  9
$DIMTIX
 70
     0
  9
$DIMSOXD
 70
     0
  9
$DIMSAH
 70
     0
  9
$DIMBLK1
  1

  9
$DIMBLK2
  1

  9
$DIMSTYLE
  2
ISO-25
  9
$DIMCLRD
 70
     0
  9
$DIMCLRE
 70
     0
  9
$DIMCLRT
 70
     0
  9
$DIMTFAC
 40
1.0
  9
$DIMGAP
 40
1.5
  9
$DIMJUST
 70
     0
  9
$DIMSD1
 70
     0
  9
$DIMSD2
 70
     0
  9
$DIMTOLJ
 70
     0
  9
$DIMTZIN
 70
     0
  9
$DIMALTZ
 70
     0
  9
$DIMALTTZ
 70
     0
  9
$DIMUPT
 70
     0
  9
$DIMDEC
 70
     2
  9
$DIMTDEC
 70
     2
  9
$DIMALTU
 70
     2
  9
$DIMALTTD
 70
     3
  9
$DIMTXSTY
  7
Standard
  9
$DIMAUNIT
 70
     0
  9
$DIMADEC
 70
     2
  9
$DIMALTRND
 40
0.0
  9
$DIMAZIN
 70
     0
  9
$DIMDSEP
 70
    44
  9
$DIMATFIT
 70
     3
  9
$DIMFRAC
 70
     0
  9
$DIMLDRBLK
  1

  9
$DIMLUNIT
 70
     2
  9
$DIMLWD
 70
    -2
  9
$DIMLWE
 70
    -2
  9
$DIMTMOVE
 70
     0
  9
$DIMFXL
 40
1.0
  9
$DIMFXLON
 70
     0
  9
$DIMJOGANG
 40
0.7853981634
  9
$DIMTFILL
 70
     0
  9
$DIMTFILLCLR
 70
     0
  9
$DIMARCSYM
 70
     0
  9
$DIMLTYPE
  6

  9
$DIMLTEX1
  6

  9
$DIMLTEX2
  6

  9
$DIMTXTDIRECTION
 70
     0
  9
$LUNITS
 70
     2
  9
$LUPREC
 70
     2
  9
$SKETCHINC
 40
1.0
  9
$FILLETRAD
 40
10.0
  9
$AUNITS
 70
     0
  9
$AUPREC
 70
     2
  9
$MENU
  1
.
  9
$ELEVATION
 40
0.0
  9
$PELEVATION
 40
0.0
  9
$THICKNESS
 40
0.0
  9
$LIMCHECK
 70
     0
  9
$CHAMFERA
 40
10.0
  9
$CHAMFERB
 40
10.0
  9
$CHAMFERC
 40
20.0
  9
$CHAMFERD
 40
0.0
  9
$SKPOLY
 70
     0
  9
$TDCREATE
 40
2456227.271475521
  9
$TDUCREATE
 40
2456227.188142187
  9
$TDUPDATE
 40
2456227.27147985
  9
$TDUUPDATE
 40
2456227.188146516
  9
$TDINDWG
 40
0.0000000116
  9
$TDUSRTIMER
 40
0.0000000116
  9
$USRTIMER
 70
     1
  9
$ANGBASE
 50
0.0
  9
$ANGDIR
 70
     0
  9
$PDMODE
 70
     0
  9
$PDSIZE
 40
-1.0
  9
$PLINEWID
 40
0.0
  9
$SPLFRAME
 70
     0
  9
$SPLINETYPE
 70
     6
  9
$SPLINESEGS
 70
     8
  9
$HANDSEED
  5
BE
  9
$SURFTAB1
 70
     6
  9
$SURFTAB2
 70
     6
  9
$SURFTYPE
 70
     6
  9
$SURFU
 70
     6
  9
$SURFV
 70
     6
  9
$UCSBASE
  2

  9
$UCSNAME
  2

  9
$UCSORG
 10
0.0
 20
0.0
 30
0.0
  9
$UCSXDIR
 10
1.0
 20
0.0
 30
0.0
  9
$UCSYDIR
 10
0.0
 20
1.0
 30
0.0
  9
$UCSORTHOREF
  2

  9
$UCSORTHOVIEW
 70
     0
  9
$UCSORGTOP
 10
0.0
 20
0.0
 30
0.0
  9
$UCSORGBOTTOM
 10
0.0
 20
0.0
 30
0.0
  9
$UCSORGLEFT
 10
0.0
 20
0.0
 30
0.0
  9
$UCSORGRIGHT
 10
0.0
 20
0.0
 30
0.0
  9
$UCSORGFRONT
 10
0.0
 20
0.0
 30
0.0
  9
$UCSORGBACK
 10
0.0
 20
0.0
 30
0.0
  9
$PUCSBASE
  2

  9
$PUCSNAME
  2

  9
$PUCSORG
 10
0.0
 20
0.0
 30
0.0
  9
$PUCSXDIR
 10
1.0
 20
0.0
 30
0.0
  9
$PUCSYDIR
 10
0.0
 20
1.0
 30
0.0
  9
$PUCSORTHOREF
  2

  9
$PUCSORTHOVIEW
 70
     0
  9
$PUCSORGTOP
 10
0.0
 20
0.0
 30
0.0
  9
$PUCSORGBOTTOM
 10
0.0
 20
0.0
 30
0.0
  9
$PUCSORGLEFT
 10
0.0
 20
0.0
 30
0.0
  9
$PUCSORGRIGHT
 10
0.0
 20
0.0
 30
0.0
  9
$PUCSORGFRONT
 10
0.0
 20
0.0
 30
0.0
  9
$PUCSORGBACK
 10
0.0
 20
0.0
 30
0.0
  9
$USERI1
 70
     0
  9
$USERI2
 70
     0
  9
$USERI3
 70
     0
  9
$USERI4
 70
     0
  9
$USERI5
 70
     0
  9
$USERR1
 40
0.0
  9
$USERR2
 40
0.0
  9
$USERR3
 40
0.0
  9
$USERR4
 40
0.0
  9
$USERR5
 40
0.0
  9
$WORLDVIEW
 70
     1
  9
$SHADEDGE
 70
     3
  9
$SHADEDIF
 70
    70
  9
$TILEMODE
 70
     1
  9
$MAXACTVP
 70
    64
  9
$PINSBASE
 10
0.0
 20
0.0
 30
0.0
  9
$PLIMCHECK
 70
     0
  9
$PEXTMIN
 10
1.0000000000E+20
 20
1.0000000000E+20
 30
1.0000000000E+20
  9
$PEXTMAX
 10
-1.0000000000E+20
 20
-1.0000000000E+20
 30
-1.0000000000E+20
  9
$PLIMMIN
 10
0.0
 20
0.0
  9
$PLIMMAX
 10
420.0
 20
297.0
  9
$UNITMODE
 70
     0
  9
$VISRETAIN
 70
     1
  9
$PLINEGEN
 70
     0
  9
$PSLTSCALE
 70
     1
  9
$TREEDEPTH
 70
  3020
  9
$CMLSTYLE
  2
Standard
  9
$CMLJUST
 70
     0
  9
$CMLSCALE
 40
20.0
  9
$PROXYGRAPHICS
 70
     1
  9
$MEASUREMENT
 70
     1
  9
$CELWEIGHT
370
    -1
  9
$ENDCAPS
280
     0
  9
$JOINSTYLE
280
     0
  9
$LWDISPLAY
290
     1
  9
$INSUNITS
 70
     4
  9
$HYPERLINKBASE
  1

  9
$STYLESHEET
  1

  9
$XEDIT
290
     1
  9
$CEPSNTYPE
380
     0
  9
$PSTYLEMODE
290
     1
  9
$FINGERPRINTGUID
  2
{D827841A-D928-4E94-802D-8BD3ACBA79C2}
  9
$VERSIONGUID
  2
{FAEB1C32-E019-11D5-929B-00C0DF256EC4}
  9
$EXTNAMES
290
     1
  9
$PSVPSCALE
 40
0.0
  9
$OLESTARTUP
290
     0
  9
$SORTENTS
280
   127
  9
$INDEXCTL
280
     0
  9
$HIDETEXT
280
     1
  9
$XCLIPFRAME
280
     2
  9
$HALOGAP
280
     0
  9
$OBSCOLOR
 70
   257
  9
$OBSLTYPE
280
     0
  9
$INTERSECTIONDISPLAY
280
     0
  9
$INTERSECTIONCOLOR
 70
   257
  9
$DIMASSOC
280
     2
  9
$PROJECTNAME
  1

  9
$CAMERADISPLAY
290
     0
  9
$LENSLENGTH
 40
50.0
  9
$CAMERAHEIGHT
 40
0.0
  9
$STEPSPERSEC
 40
2.0
  9
$STEPSIZE
 40
6.0
  9
$3DDWFPREC
 40
2.0
  9
$PSOLWIDTH
 40
5.0
  9
$PSOLHEIGHT
 40
80.0
  9
$LOFTANG1
 40
1.5707963268
  9
$LOFTANG2
 40
1.5707963268
  9
$LOFTMAG1
 40
0.0
  9
$LOFTMAG2
 40
0.0
  9
$LOFTPARAM
 70
     7
  9
$LOFTNORMALS
280
     1
  9
$LATITUDE
 40
37.795
  9
$LONGITUDE
 40
-122.394
  9
$NORTHDIRECTION
 40
0.0
  9
$TIMEZONE
 70
 -8000
  9
$LIGHTGLYPHDISPLAY
280
     1
  9
$TILEMODELIGHTSYNCH
280
     1
  9
$SOLIDHIST
280
     1
  9
$SHOWHIST
280
     1
  9
$DWFFRAME
280
     2
  9
$DGNFRAME
280
     2
  9
$REALWORLDSCALE
290
     1
  9
$INTERFERECOLOR
 62
   256
  9
$CSHADOW
280
     0
  9
$SHADOWPLANELOCATION
 40
0.0
  0
ENDSEC
  0
SECTION
  2
CLASSES
  0
CLASS
  1
ACDBDICTIONARYWDFLT
  2
AcDbDictionaryWithDefault
  3
ObjectDBX Classes
 90
        0
 91
        4
280
     0
281
     0
  0
CLASS
  1
VISUALSTYLE
  2
AcDbVisualStyle
  3
ObjectDBX Classes
 90
     4095
 91
        4
280
     0
281
     0
  0
CLASS
  1
MATERIAL
  2
AcDbMaterial
  3
ObjectDBX Classes
 90
     1153
 91
        4
280
     0
281
     0
  0
ENDSEC
  0
SECTION
  2
TABLES
  0
TABLE
  2
VPORT
  5
8
330
0
100
AcDbSymbolTable
 70
     1
  0
VPORT
  5
29
330
8
100
AcDbSymbolTableRecord
100
AcDbViewportTableRecord
  2
*Active
 70
     0
 10
0.0
 20
0.0
 11
1.0
 21
1.0
 12
297.0
 22
420.5
 13
0.0
 23
0.0
 14
10.0
 24
10.0
 15
10.0
 25
10.0
 16
0.0
 26
0.0
 36
1.0
 17
0.0
 27
0.0
 37
0.0
 40
841.0
 41
0.7063020214
 42
50.0
 43
0.0
 44
0.0
 50
0.0
 51
0.0
 71
     0
 72
  2000
 73
     1
 74
     3
 75
     0
 76
     0
 77
     0
 78
     0
281
     0
 65
     1
110
0.0
120
0.0
130
0.0
111
1.0
121
0.0
131
0.0
112
0.0
122
1.0
132
0.0
 79
     0
146
0.0
 60
     3
 61
     5
292
     1
282
     1
141
0.0
142
0.0
 63
   250
  0
ENDTAB
  0
TABLE
  2
LTYPE
  5
5
330
0
100
AcDbSymbolTable
 70
     6
  0
LTYPE
  5
14
330
5
100
AcDbSymbolTableRecord
100
AcDbLinetypeTableRecord
  2
ByBlock
 70
     0
  3

 72
    65
 73
     0
 40
0.0
  0
LTYPE
  5
15
330
5
100
AcDbSymbolTableRecord
100
AcDbLinetypeTableRecord
  2
ByLayer
 70
     0
  3

 72
    65
 73
     0
 40
0.0
  0
LTYPE
  5
16
330
5
100
AcDbSymbolTableRecord
100
AcDbLinetypeTableRecord
  2
Continuous
 70
     0
  3
Solid line
 72
    65
 73
     0
 40
0.0
  0
LTYPE
  5
3F
330
5
100
AcDbSymbolTableRecord
100
AcDbLinetypeTableRecord
  2
HIDDEN
 70
     0
  3
Hidden __ __ __ __ __ __ __ __ __ __ __ __ __ __
 72
    65
 73
     2
 40
1.905
 49
1.27
 74
     0
 49
-0.635
 74
     0
  0
LTYPE
  5
40
330
5
100
AcDbSymbolTableRecord
100
AcDbLinetypeTableRecord
  2
PHANTOM
 70
     0
  3
Phantom ______  __  __  ______  __  __  ______
 72
    65
 73
     6
 40
12.7
 49
6.35
 74
     0
 49
-1.27
 74
     0
 49
1.27
 74
     0
 49
-1.27
 74
     0
 49
1.27
 74
     0
 49
-1.27
 74
     0
  0
LTYPE
  5
41
330
5
100
AcDbSymbolTableRecord
100
AcDbLinetypeTableRecord
  2
CENTER
 70
     0
  3
Center ____ _ ____ _ ____ _ ____ _ ____ _ ____
 72
    65
 73
     4
 40
10.16
 49
6.35
 74
     0
 49
-1.27
 74
     0
 49
1.27
 74
     0
 49
-1.27
 74
     0
  0
LTYPE
  5
42
330
5
100
AcDbSymbolTableRecord
100
AcDbLinetypeTableRecord
  2
CENTERX2
 70
     0
  3
Center (2x) ________  __  ________  __  _____
 72
    65
 73
     4
 40
20.32
 49
12.7
 74
     0
 49
-2.54
 74
     0
 49
2.54
 74
     0
 49
-2.54
 74
     0
  0
LTYPE
  5
43
330
5
100
AcDbSymbolTableRecord
100
AcDbLinetypeTableRecord
  2
DOT2
 70
     0
  3
Dot (.5x) ........................................
 72
    65
 73
     2
 40
0.635
 49
0.0
 74
     0
 49
-0.635
 74
     0
  0
ENDTAB
  0
TABLE
  2
LAYER
  5
2
330
0
100
AcDbSymbolTable
 70
     1
  0
LAYER
  5
10
330
2
100
AcDbSymbolTableRecord
100
AcDbLayerTableRecord
  2
0
 70
     0
 62
     7
  6
Continuous
370
    -3
390
F
347
3E
  0
ENDTAB
  0
TABLE
  2
STYLE
  5
3
330
0
100
AcDbSymbolTable
 70
     2
  0
STYLE
  5
11
330
3
100
AcDbSymbolTableRecord
100
AcDbTextStyleTableRecord
  2
Standard
 70
     0
 40
0.0
 41
1.0
 50
0.0
 71
     0
 42
5.0
  3
txt
  4

  0
STYLE
  5
47
330
3
100
AcDbSymbolTableRecord
100
AcDbTextStyleTableRecord
  2
SLDTEXTSTYLE0
 70
     0
 40
0.0
 41
0.96
 50
0.0
 71
     0
 42
0.2
  3
ISOCP3
  4

  0
ENDTAB
  0
TABLE
  2
VIEW
  5
6
330
0
100
AcDbSymbolTable
 70
     0
  0
ENDTAB
  0
TABLE
  2
UCS
  5
7
330
0
100
AcDbSymbolTable
 70
     0
  0
ENDTAB
  0
TABLE
  2
APPID
  5
9
330
0
100
AcDbSymbolTable
 70
     1
  0
APPID
  5
12
330
9
100
AcDbSymbolTableRecord
100
AcDbRegAppTableRecord
  2
ACAD
 70
     0
  0
ENDTAB
  0
TABLE
  2
DIMSTYLE
  5
A
330
0
100
AcDbSymbolTable
 70
     2
100
AcDbDimStyleTable
  0
DIMSTYLE
105
27
330
A
100
AcDbSymbolTableRecord
100
AcDbDimStyleTableRecord
  2
ISO-25
 70
     0
 41
2.5
 42
0.625
 43
3.75
 44
1.25
 73
     0
 74
     0
 77
     1
 78
     8
140
2.5
141
2.5
143
0.0393700787
147
0.625
171
     3
172
     1
178
     0
271
     2
272
     2
274
     3
278
    44
283
     0
284
     8
340
11
  0
DIMSTYLE
105
48
102
{ACAD_REACTORS
330
46
330
53
102
}
330
A
100
AcDbSymbolTableRecord
100
AcDbDimStyleTableRecord
  2
SLDDIMSTYLE0
 70
     0
 41
2.5
 44
0.0
 45
0.000000001
 73
     0
 74
     0
 77
     1
 78
    12
 79
     3
140
6.0
147
1.5
173
     1
178
     0
271
     2
272
     2
276
     2
284
    12
340
47
  0
ENDTAB
  0
TABLE
  2
BLOCK_RECORD
  5
1
330
0
100
AcDbSymbolTable
 70
     3
  0
BLOCK_RECORD
  5
1F
330
1
100
AcDbSymbolTableRecord
100
AcDbBlockTableRecord
  2
*Model_Space
340
22
 70
     0
280
     1
281
     0
  0
BLOCK_RECORD
  5
1B
330
1
100
AcDbSymbolTableRecord
100
AcDbBlockTableRecord
  2
*Paper_Space
340
1E
 70
     0
280
     1
281
     0
  0
BLOCK_RECORD
  5
23
330
1
100
AcDbSymbolTableRecord
100
AcDbBlockTableRecord
  2
*Paper_Space0
340
26
 70
     0
280
     1
281
     0
  0
BLOCK_RECORD
  5
49
330
1
100
AcDbSymbolTableRecord
100
AcDbBlockTableRecord
  2
_D
340
0
 70
     0
280
     1
281
     0
  0
BLOCK_RECORD
  5
54
330
1
100
AcDbSymbolTableRecord
100
AcDbBlockTableRecord
  2
_D_1
340
0
 70
     0
280
     1
281
     0
  0
ENDTAB
  0
ENDSEC
  0
SECTION
  2
BLOCKS
  0
BLOCK
  5
20
330
1F
100
AcDbEntity
  8
0
100
AcDbBlockBegin
  2
*Model_Space
 70
     0
 10
0.0
 20
0.0
 30
0.0
  3
*Model_Space
  1

  0
ENDBLK
  5
21
330
1F
100
AcDbEntity
  8
0
100
AcDbBlockEnd
  0
BLOCK
  5
1C
330
1B
100
AcDbEntity
 67
     1
  8
0
100
AcDbBlockBegin
  2
*Paper_Space
 70
     0
 10
0.0
 20
0.0
 30
0.0
  3
*Paper_Space
  1

  0
ENDBLK
  5
1D
330
1B
100
AcDbEntity
 67
     1
  8
0
100
AcDbBlockEnd
  0
BLOCK
  5
24
330
23
100
AcDbEntity
  8
0
100
AcDbBlockBegin
  2
*Paper_Space0
 70
     0
 10
0.0
 20
0.0
 30
0.0
  3
*Paper_Space0
  1

  0
ENDBLK
  5
25
330
23
100
AcDbEntity
  8
0
100
AcDbBlockEnd
  0
BLOCK
  5
4A
330
49
100
AcDbEntity
  8
0
100
AcDbBlockBegin
  2
_D
 70
     0
 10
0.0
 20
0.0
 30
0.0
  3
_D
  1

  0
SOLID
  5
4C
330
49
100
AcDbEntity
  8
0
  6
Continuous
 62
     7
370
     0
100
AcDbTrace
 10
42.7614395004
 20
152.0299240879
 30
0.0
 11
42.4614395004
 21
149.5299240879
 31
0.0
 12
43.0614395004
 22
149.5299240879
 32
0.0
 13
43.0614395004
 23
149.5299240879
 33
0.0
  0
SOLID
  5
4D
330
49
100
AcDbEntity
  8
0
  6
Continuous
 62
     7
370
     0
100
AcDbTrace
 10
42.7614395004
 20
52.0299240879
 30
0.0
 11
43.0614395004
 21
54.5299240879
 31
0.0
 12
42.4614395004
 22
54.5299240879
 32
0.0
 13
42.4614395004
 23
54.5299240879
 33
0.0
  0
LINE
  5
4E
330
49
100
AcDbEntity
  8
0
  6
Continuous
 62
     7
370
     0
100
AcDbLine
 10
56.6850079902
 20
152.0299240879
 30
0.0
 11
41.7614395004
 21
152.0299240879
 31
0.0
  0
LINE
  5
4F
330
49
100
AcDbEntity
  8
0
  6
Continuous
 62
     7
370
     0
100
AcDbLine
 10
56.6850079902
 20
52.0299240879
 30
0.0
 11
41.7614395004
 21
52.0299240879
 31
0.0
  0
LINE
  5
50
330
49
100
AcDbEntity
  8
0
  6
Continuous
 62
     7
370
     0
100
AcDbLine
 10
42.7614395004
 20
152.0299240879
 30
0.0
 11
42.7614395004
 21
52.0299240879
 31
0.0
  0
MTEXT
  5
51
330
49
100
AcDbEntity
  8
0
  6
Continuous
 62
     7
370
     0
100
AcDbMText
 10
35.0270332946
 20
91.6722208134
 30
0.1
 40
6.0
 41
0.0
 46
0.0
 71
     1
 72
     1
  1
100
  7
SLDTEXTSTYLE0
 11
-7.044195017643634E-15
 21
1.0
 31
0.0
 73
     1
 44
1.0
  0
MTEXT
  5
52
330
49
100
AcDbEntity
  8
0
  6
Continuous
 62
     7
370
     0
100
AcDbMText
 10
35.0270332946
 20
108.4388881795
 30
0.1
 40
6.0
 41
0.0
 46
0.0
 71
     1
 72
     1
  1
mm
  7
SLDTEXTSTYLE0
 11
-7.044195017643634E-15
 21
1.0
 31
0.0
 73
     1
 44
1.0
  0
ENDBLK
  5
4B
330
49
100
AcDbEntity
  8
0
100
AcDbBlockEnd
  0
BLOCK
  5
55
330
54
100
AcDbEntity
  8
0
100
AcDbBlockBegin
  2
_D_1
 70
     0
 10
0.0
 20
0.0
 30
0.0
  3
_D_1
  1

  0
SOLID
  5
57
330
54
100
AcDbEntity
  8
0
  6
Continuous
 62
     7
370
     0
100
AcDbTrace
 10
56.6850079902
 20
38.4602342313
 30
0.0
 11
59.1850079902
 21
38.1602342313
 31
0.0
 12
59.1850079902
 22
38.7602342313
 32
0.0
 13
59.1850079902
 23
38.7602342313
 33
0.0
  0
SOLID
  5
58
330
54
100
AcDbEntity
  8
0
  6
Continuous
 62
     7
370
     0
100
AcDbTrace
 10
156.6850079902
 20
38.4602342313
 30
0.0
 11
154.1850079902
 21
38.7602342313
 31
0.0
 12
154.1850079902
 22
38.1602342313
 32
0.0
 13
154.1850079902
 23
38.1602342313
 33
0.0
  0
LINE
  5
59
330
54
100
AcDbEntity
  8
0
  6
Continuous
 62
     7
370
     0
100
AcDbLine
 10
56.6850079902
 20
52.0299240879
 30
0.0
 11
56.6850079902
 21
37.4602342313
 31
0.0
  0
LINE
  5
5A
330
54
100
AcDbEntity
  8
0
  6
Continuous
 62
     7
370
     0
100
AcDbLine
 10
156.6850079902
 20
52.0299240879
 30
0.0
 11
156.6850079902
 21
37.4602342313
 31
0.0
  0
LINE
  5
5B
330
54
100
AcDbEntity
  8
0
  6
Continuous
 62
     7
370
     0
100
AcDbLine
 10
56.6850079902
 20
38.4602342313
 30
0.0
 11
156.6850079902
 21
38.4602342313
 31
0.0
  0
MTEXT
  5
5C
330
54
100
AcDbEntity
  8
0
  6
Continuous
 62
     7
370
     0
100
AcDbMText
 10
91.2668151533
 20
46.1946404371
 30
0.1
 40
6.0
 41
0.0
 46
0.0
 71
     1
 72
     1
  1
100
  7
SLDTEXTSTYLE0
 73
     1
 44
1.0
  0
MTEXT
  5
5D
330
54
100
AcDbEntity
  8
0
  6
Continuous
 62
     7
370
     0
100
AcDbMText
 10
108.0334825193
 20
46.1946404371
 30
0.1
 40
6.0
 41
0.0
 46
0.0
 71
     1
 72
     1
  1
mm
  7
SLDTEXTSTYLE0
 73
     1
 44
1.0
  0
ENDBLK
  5
56
330
54
100
AcDbEntity
  8
0
100
AcDbBlockEnd
  0
ENDSEC
  0
SECTION
  2
ENTITIES
  0
LINE
  5
44
330
1F
100
AcDbEntity
  8
0
  6
Continuous
 62
     7
370
     0
100
AcDbLine
 10
56.6850079902
 20
152.0299240879
 30
0.0
 11
56.6850079902
 21
52.0299240879
 31
0.0
  0
LINE
  5
45
330
1F
100
AcDbEntity
  8
0
  6
Continuous
 62
     7
370
     0
100
AcDbLine
 10
56.6850079902
 20
52.0299240879
 30
0.0
 11
156.6850079902
 21
52.0299240879
 31
0.0
  0
DIMENSION
  5
46
330
1F
100
AcDbEntity
  8
0
  6
Continuous
 62
     7
370
     0
100
AcDbDimension
280
     0
  2
_D
 10
42.7614395004
 20
52.0299240879
 30
0.0
 11
42.7614395004
 21
105.4472211621
 31
0.0
 70
   160
  1
<>mm
 71
     2
 42
-1.0
 73
     0
 74
     0
 75
     0
  3
SLDDIMSTYLE0
100
AcDbAlignedDimension
 13
56.6850079902
 23
152.0299240879
 33
0.0
 14
56.6850079902
 24
52.0299240879
 34
0.0
 50
90.0
100
AcDbRotatedDimension
  0
DIMENSION
  5
53
330
1F
100
AcDbEntity
  8
0
  6
Continuous
 62
     7
370
     0
100
AcDbDimension
280
     0
  2
_D_1
 10
156.6850079902
 20
38.4602342313
 30
0.0
 11
105.0418155019
 21
38.4602342313
 31
0.0
 70
   160
  1
<>mm
 71
     2
 42
-1.0
 73
     0
 74
     0
 75
     0
  3
SLDDIMSTYLE0
100
AcDbAlignedDimension
 13
56.6850079902
 23
52.0299240879
 33
0.0
 14
156.6850079902
 24
52.0299240879
 34
0.0
100
AcDbRotatedDimension
  0
MTEXT
  5
5E
330
1F
100
AcDbEntity
  8
0
  6
Continuous
 62
     7
370
     0
100
AcDbMText
 10
316.8413083766
 20
46.8341686967
 30
0.0
 40
5.0
 41
0.0
 46
0.0
 71
     1
 72
     1
  1
32 655 05 75
  7
SLDTEXTSTYLE0
 73
     1
 44
1.0
  0
MTEXT
  5
5F
330
1F
100
AcDbEntity
  8
0
  6
Continuous
 62
     7
370
     0
100
AcDbMText
 10
412.8252631579
 20
48.4055728053
 30
0.0
 40
5.0
 41
0.0
 46
0.0
 71
     1
 72
     1
  1
KLUDI GmbH & Co KG
  7
SLDTEXTSTYLE0
 73
     1
 44
1.0
  0
SPLINE
  5
60
330
1F
100
AcDbEntity
  8
0
  6
Continuous
 62
     7
370
    15
100
AcDbSpline
210
0.0
220
0.0
230
1.0
 70
     8
 71
     3
 72
    28
 73
    24
 74
     0
 42
0.00000001
 43
0.00000001
 12
1.0
 22
0.0
 32
0.0
 13
1.0
 23
0.0
 33
0.0
 40
0.0
 40
0.0
 40
0.0
 40
0.0
 40
0.0093788004441518
 40
0.0805649895882454
 40
0.1649396070360636
 40
0.2776552852203508
 40
0.4763173061581958
 40
0.5488337442730824
 40
0.5950984875303067
 40
0.6277067735512609
 40
0.6572291404816808
 40
0.684516444737545
 40
0.7109213752737201
 40
0.7387306430055178
 40
0.7673486223088263
 40
0.7964679692218465
 40
0.8259958456942655
 40
0.8558231105367959
 40
0.8857921306393328
 40
0.9156720911566955
 40
0.9453094591507176
 40
0.9741615820766654
 40
1.0
 40
1.0
 40
1.0
 40
1.0
 10
201.8219939309183
 20
340.4264625293115
 30
0.0
 10
201.8403299037779
 20
340.2146125995378
 30
0.0
 10
201.997838049017
 20
338.3947969964524
 30
0.0
 10
202.1210364372795
 20
334.6549580114092
 30
0.0
 10
202.243822116295
 20
328.5746994178771
 30
0.0
 10
202.2812929042265
 20
319.6014766543695
 30
0.0
 10
202.5974043444331
 20
310.9017244115935
 30
0.0
 10
202.6429332226211
 20
303.7053076685096
 30
0.0
 10
202.6353033296868
 20
300.2717340852522
 30
0.0
 10
202.8191223411344
 20
297.8184413488876
 30
0.0
 10
203.1441087512235
 20
295.8143628394313
 30
0.0
 10
203.6376964025042
 20
293.9894741213979
 30
0.0
 10
204.3238819434983
 20
292.2692733134119
 30
0.0
 10
205.2233698348612
 20
290.6158768731497
 30
0.0
 10
206.3382794486343
 20
289.0238246254308
 30
0.0
 10
207.6535205899748
 20
287.5400505136095
 30
0.0
 10
209.1483064531427
 20
286.196057763701
 30
0.0
 10
210.8013727212141
 20
285.0185425765933
 30
0.0
 10
212.5850121154781
 20
284.0336378701421
 30
0.0
 10
214.466641287054
 20
283.2617286585754
 30
0.0
 10
216.4018204327077
 20
282.7281563531563
 30
0.0
 10
218.2955853802085
 20
282.4248268404939
 30
0.0
 10
219.536111294885
 20
282.3927661305081
 30
0.0
 10
220.1221948576069
 20
282.3776191231707
 30
0.0
  0
SPLINE
  5
61
330
1F
100
AcDbEntity
  8
0
  6
Continuous
 62
     7
370
    15
100
AcDbSpline
210
0.0
220
0.0
230
1.0
 70
     8
 71
     3
 72
    28
 73
    24
 74
     0
 42
0.00000001
 43
0.00000001
 12
1.0
 22
0.0
 32
0.0
 13
1.0
 23
0.0
 33
0.0
 40
0.0
 40
0.0
 40
0.0
 40
0.0
 40
0.0152198908778948
 40
0.0436062357303856
 40
0.0741676391791183
 40
0.1034222164371473
 40
0.132875350177737
 40
0.1626991772522459
 40
0.1927486777665588
 40
0.2228181909420762
 40
0.2527201889647975
 40
0.2823433032576997
 40
0.311473037898065
 40
0.3386859574540586
 40
0.3668811812590226
 40
0.3976442697433896
 40
0.4328230414267977
 40
0.47672222000979
 40
0.5582594884799326
 40
0.6399272089722929
 40
0.8694996039535233
 40
0.9559820806688253
 40
1.0
 40
1.0
 40
1.0
 40
1.0
 10
220.1229549315946
 20
282.3929300662974
 30
0.0
 10
220.467053125882
 20
282.39091862221
 30
0.0
 10
221.452922676122
 20
282.3851556699172
 30
0.0
 10
223.1216798895892
 20
282.5934814400958
 30
0.0
 10
225.0690035477186
 20
283.0340301438249
 30
0.0
 10
226.9703182705466
 20
283.723166076126
 30
0.0
 10
228.7662496074206
 20
284.6135921494014
 30
0.0
 10
230.4649723804875
 20
285.7120304004648
 30
0.0
 10
232.0387713935715
 20
287.0050187440012
 30
0.0
 10
233.4550343544063
 20
288.4715911913357
 30
0.0
 10
234.6844522316589
 20
290.0859880529968
 30
0.0
 10
235.7038903333057
 20
291.8161093846373
 30
0.0
 10
236.4783521975754
 20
293.6034672998633
 30
0.0
 10
237.0157354980586
 20
295.4408133132176
 30
0.0
 10
237.3669487935815
 20
297.3590402825071
 30
0.0
 10
237.5636223364069
 20
299.4793203681425
 30
0.0
 10
237.6263843288138
 20
301.9617312298959
 30
0.0
 10
237.5685011896162
 20
305.5910509175072
 30
0.0
 10
237.6978460009161
 20
310.2701933553566
 30
0.0
 10
237.9122663111233
 20
319.1428941665981
 30
0.0
 10
237.9892987533418
 20
328.1290358318665
 30
0.0
 10
238.147829520769
 20
336.2664615428785
 30
0.0
 10
238.3499479063021
 20
339.2087032032487
 30
0.0
 10
238.4181226479831
 20
340.2011243757704
 30
0.0
  0
SPLINE
  5
62
330
1F
100
AcDbEntity
  8
0
  6
Continuous
 62
     7
370
    15
100
AcDbSpline
210
0.0
220
0.0
230
1.0
 70
     8
 71
     3
 72
    70
 73
    66
 74
     0
 42
0.00000001
 43
0.00000001
 12
1.0
 22
0.0
 32
0.0
 13
1.0
 23
0.0
 33
0.0
 40
0.0
 40
0.0
 40
0.0
 40
0.0
 40
0.0156249999999997
 40
0.0156249999999997
 40
0.0312499999999994
 40
0.0312499999999994
 40
0.0624999999999989
 40
0.0624999999999989
 40
0.0781249999999986
 40
0.0781249999999986
 40
0.0937499999999983
 40
0.0937499999999983
 40
0.1249999999999978
 40
0.1249999999999978
 40
0.1406249999999976
 40
0.1406249999999976
 40
0.1562499999999974
 40
0.1562499999999974
 40
0.1874999999999971
 40
0.1874999999999971
 40
0.203124999999997
 40
0.203124999999997
 40
0.2187499999999969
 40
0.2187499999999969
 40
0.2499999999999967
 40
0.2499999999999967
 40
0.2656249999999966
 40
0.2656249999999966
 40
0.2812499999999965
 40
0.2812499999999965
 40
0.2968749999999964
 40
0.2968749999999964
 40
0.3124999999999963
 40
0.3124999999999963
 40
0.3749999999999966
 40
0.3749999999999966
 40
0.4374999999999969
 40
0.4374999999999969
 40
0.4999999999999972
 40
0.4999999999999972
 40
0.5624999999999976
 40
0.5624999999999976
 40
0.6249999999999979
 40
0.6249999999999979
 40
0.6874999999999982
 40
0.6874999999999982
 40
0.7499999999999984
 40
0.7499999999999984
 40
0.7812499999999986
 40
0.7812499999999986
 40
0.8124999999999988
 40
0.8124999999999988
 40
0.843749999999999
 40
0.843749999999999
 40
0.8749999999999992
 40
0.8749999999999992
 40
0.8906249999999993
 40
0.8906249999999993
 40
0.9062499999999993
 40
0.9062499999999993
 40
0.9374999999999996
 40
0.9374999999999996
 40
0.9687499999999998
 40
0.9687499999999998
 40
1.0
 40
1.0
 40
1.0
 40
1.0
 10
220.1226036373587
 20
282.7825885641051
 30
0.0
 10
219.6417770551464
 20
282.7827208924493
 30
0.0
 10
219.1621720675597
 20
282.800884429808
 30
0.0
 10
218.2056194350486
 20
282.87639699363
 30
0.0
 10
217.727169980852
 20
282.9339941490088
 30
0.0
 10
216.3083437548824
 20
283.1644964492206
 30
0.0
 10
215.3856498217702
 20
283.3927038716233
 30
0.0
 10
214.0354652842847
 20
283.8439262054674
 30
0.0
 10
213.5911260872097
 20
284.0127399755575
 30
0.0
 10
212.7143413807927
 20
284.3886475581911
 30
0.0
 10
212.280029566717
 20
284.5966221839687
 30
0.0
 10
211.0096694536063
 20
285.2706880459507
 30
0.0
 10
210.2092844079891
 20
285.7839442070336
 30
0.0
 10
209.0758282449038
 20
286.6458800099418
 30
0.0
 10
208.7092674878275
 20
286.948632417954
 30
0.0
 10
207.9990764437339
 20
287.5855788725796
 30
0.0
 10
207.6539935364314
 20
287.9213553590257
 30
0.0
 10
206.6665364780806
 20
288.965296568489
 30
0.0
 10
206.0734379388511
 20
289.7067402709902
 30
0.0
 10
205.2818976820196
 20
290.8873767115968
 30
0.0
 10
205.034400533684
 20
291.2923322462942
 30
0.0
 10
204.5733403651078
 20
292.1259726120174
 30
0.0
 10
204.3587964918419
 20
292.5569324454108
 30
0.0
 10
203.7775258780354
 20
293.8706884100536
 30
0.0
 10
203.4732950732199
 20
294.7673215422539
 30
0.0
 10
203.1569253118886
 20
296.1482783984927
 30
0.0
 10
203.076250459026
 20
296.6149418694674
 30
0.0
 10
202.9588682501404
 20
297.5589986846172
 30
0.0
 10
202.9210568339307
 20
298.0367006987817
 30
0.0
 10
202.8659377385362
 20
298.9947844218412
 30
0.0
 10
202.8479466660564
 20
299.4741909407587
 30
0.0
 10
202.8168915125328
 20
300.4332209604284
 30
0.0
 10
202.804200655278
 20
300.9128546282422
 30
0.0
 10
202.7444669624203
 20
303.3111949286872
 30
0.0
 10
202.7055228737849
 20
305.2302262575041
 30
0.0
 10
202.6197747899059
 20
309.067977084649
 30
0.0
 10
202.57450994192
 20
310.9868010009747
 30
0.0
 10
202.4823058924855
 20
314.8243956231065
 30
0.0
 10
202.4358515848789
 20
316.7431832586504
 30
0.0
 10
202.3541134301526
 20
320.5810667065347
 30
0.0
 10
202.3174232963125
 20
322.5001249903952
 30
0.0
 10
202.2496892770523
 20
326.3384082679429
 30
0.0
 10
202.2161153813457
 20
328.2575529235351
 30
0.0
 10
202.1262571270278
 20
332.0951836925599
 30
0.0
 10
202.0710037098961
 20
334.0137006209991
 30
0.0
 10
201.9197618380607
 20
337.8495578069849
 30
0.0
 10
201.8237322751851
 20
339.7676786991657
 30
0.0
 10
201.6199075291541
 20
342.6406535674169
 30
0.0
 10
201.5420514592696
 20
343.5965617710804
 30
0.0
 10
201.3549355279919
 20
345.5028270415566
 30
0.0
 10
201.2459560352187
 20
346.4532338677569
 30
0.0
 10
200.9730033037612
 20
348.3443121559029
 30
0.0
 10
200.8083038982351
 20
349.2848447084299
 30
0.0
 10
200.3828006071038
 20
351.1489232314814
 30
0.0
 10
200.121664884703
 20
352.0724150330478
 30
0.0
 10
199.6503342134803
 20
353.4436440087223
 30
0.0
 10
199.4798905651195
 20
353.8990935164314
 30
0.0
 10
199.1200329064231
 20
354.8018241494306
 30
0.0
 10
198.930600201234
 20
355.249369487468
 30
0.0
 10
198.351413540178
 20
356.587636042579
 30
0.0
 10
197.9564912408364
 20
357.47630550177
 30
0.0
 10
197.1946118486918
 20
359.26489133883
 30
0.0
 10
196.8269617183595
 20
360.1645301963415
 30
0.0
 10
196.1303023985294
 20
361.9793827846731
 30
0.0
 10
195.7998797487996
 20
362.8940297651762
 30
0.0
 10
195.4881461038251
 20
363.8162125558509
 30
0.0
  0
SPLINE
  5
63
330
1F
100
AcDbEntity
  8
0
  6
Continuous
 62
     7
370
    15
100
AcDbSpline
210
0.0
220
0.0
230
1.0
 70
     8
 71
     3
 72
    16
 73
    12
 74
     0
 42
0.00000001
 43
0.00000001
 12
1.0
 22
0.0
 32
0.0
 13
1.0
 23
0.0
 33
0.0
 40
0.0
 40
0.0
 40
0.0
 40
0.0
 40
0.1322473847326637
 40
0.2647846965350145
 40
0.3426494894479183
 40
0.420566951478092
 40
0.5805934968462164
 40
0.6065566406546976
 40
0.7599450252035636
 40
0.9393274743432803
 40
1.0
 40
1.0
 40
1.0
 40
1.0
 10
244.7570617186847
 20
363.8162108269432
 30
0.0
 10
244.1496039911359
 20
362.1311234248091
 30
0.0
 10
242.9333568012802
 20
358.7572543890545
 30
0.0
 10
240.9171214679009
 20
354.5691252072192
 30
0.0
 10
239.7429211013488
 20
350.8358158380096
 30
0.0
 10
238.9428938679609
 20
346.630895024774
 30
0.0
 10
238.6076313348399
 20
343.0661665604673
 30
0.0
 10
238.3988841244533
 20
338.4766443766816
 30
0.0
 10
238.1104797585251
 20
333.6276420110935
 30
0.0
 10
238.0385381146709
 20
328.3005256862711
 30
0.0
 10
237.9685027761833
 20
325.0513771816435
 30
0.0
 10
237.9508017438474
 20
324.2301734295586
 30
0.0
  0
SPLINE
  5
64
330
1F
100
AcDbEntity
  8
0
  6
Continuous
 62
     7
370
    15
100
AcDbSpline
210
0.0
220
0.0
230
1.0
 70
     8
 71
     3
 72
    78
 73
    74
 74
     0
 42
0.00000001
 43
0.00000001
 12
1.0
 22
0.0
 32
0.0
 13
1.0
 23
0.0
 33
0.0
 40
0.0
 40
0.0
 40
0.0
 40
0.0
 40
0.0625000000000005
 40
0.0625000000000005
 40
0.0781250000000006
 40
0.0781250000000006
 40
0.0937500000000007
 40
0.0937500000000007
 40
0.1250000000000009
 40
0.1250000000000009
 40
0.1562500000000011
 40
0.1562500000000011
 40
0.1718750000000011
 40
0.1718750000000011
 40
0.1875000000000011
 40
0.1875000000000011
 40
0.250000000000001
 40
0.250000000000001
 40
0.2812500000000011
 40
0.2812500000000011
 40
0.3125000000000012
 40
0.3125000000000012
 40
0.3437500000000012
 40
0.3437500000000012
 40
0.3593750000000012
 40
0.3593750000000012
 40
0.3750000000000011
 40
0.3750000000000011
 40
0.4375000000000011
 40
0.4375000000000011
 40
0.4531250000000011
 40
0.4531250000000011
 40
0.4687500000000012
 40
0.4687500000000012
 40
0.5000000000000011
 40
0.5000000000000011
 40
0.5312500000000011
 40
0.5312500000000011
 40
0.5468750000000011
 40
0.5468750000000011
 40
0.5625000000000011
 40
0.5625000000000011
 40
0.5937500000000013
 40
0.5937500000000013
 40
0.6093750000000013
 40
0.6093750000000013
 40
0.6250000000000013
 40
0.6250000000000013
 40
0.6875000000000012
 40
0.6875000000000012
 40
0.7031250000000011
 40
0.7031250000000011
 40
0.718750000000001
 40
0.718750000000001
 40
0.7500000000000011
 40
0.7500000000000011
 40
0.7812500000000013
 40
0.7812500000000013
 40
0.7968750000000013
 40
0.7968750000000013
 40
0.8125000000000013
 40
0.8125000000000013
 40
0.8750000000000009
 40
0.8750000000000009
 40
0.9062500000000007
 40
0.9062500000000007
 40
0.9375000000000006
 40
0.9375000000000006
 40
0.9687500000000003
 40
0.9687500000000003
 40
0.9843750000000002
 40
0.9843750000000002
 40
1.0
 40
1.0
 40
1.0
 40
1.0
 10
195.4883167543586
 20
363.8162699988113
 30
0.0
 10
194.825074154021
 20
365.7810336677616
 30
0.0
 10
194.4068902949431
 20
367.7845618978965
 30
0.0
 10
194.1796729338986
 20
370.3357177572063
 30
0.0
 10
194.1492029635917
 20
370.8483175090573
 30
0.0
 10
194.1187365012839
 20
371.8783374529863
 30
0.0
 10
194.1188210332338
 20
372.3975058078661
 30
0.0
 10
194.1654696266264
 20
373.94750419896
 30
0.0
 10
194.2576939118634
 20
374.9696829523974
 30
0.0
 10
194.5604796612557
 20
376.9924474977497
 30
0.0
 10
194.7710507096625
 20
377.9930315408283
 30
0.0
 10
195.1765326512599
 20
379.4775536821788
 30
0.0
 10
195.3266691081874
 20
379.9696617629373
 30
0.0
 10
195.6575211339827
 20
380.9482981599761
 30
0.0
 10
195.8385468372322
 20
381.4352789021053
 30
0.0
 10
196.8082925746277
 20
383.8237291169759
 30
0.0
 10
197.7961573272589
 20
385.6136709195291
 30
0.0
 10
199.5929101276691
 20
388.1191487183046
 30
0.0
 10
200.2493595603541
 20
388.9282410535071
 30
0.0
 10
201.6386525760326
 20
390.446016385856
 30
0.0
 10
202.3734791727918
 20
391.1586811257153
 30
0.0
 10
203.9219400883879
 20
392.4933506883319
 30
0.0
 10
204.7355735719124
 20
393.1153564720273
 30
0.0
 10
206.0164742889939
 20
393.9788232748912
 30
0.0
 10
206.4549037584694
 20
394.2558110930169
 30
0.0
 10
207.3457111158883
 20
394.7819467812245
 30
0.0
 10
207.7968791956988
 20
395.0305068874054
 30
0.0
 10
210.0808997772664
 20
396.2023840569085
 30
0.0
 10
211.9971196423151
 20
396.9158836844286
 30
0.0
 10
214.5054391656838
 20
397.5232494316718
 30
0.0
 10
215.013979496833
 20
397.6304270958581
 30
0.0
 10
216.0295023643697
 20
397.8130116407473
 30
0.0
 10
216.5378960118933
 20
397.8888307344189
 30
0.0
 10
218.0649375419111
 20
398.0707508819091
 30
0.0
 10
219.0854396704223
 20
398.131470006162
 30
0.0
 10
221.131360067628
 20
398.132587690149
 30
0.0
 10
222.1567778321982
 20
398.0729985881231
 30
0.0
 10
223.6987244054452
 20
397.8901237646265
 30
0.0
 10
224.2111104731313
 20
397.8137192910869
 30
0.0
 10
225.2243000570452
 20
397.6317897172767
 30
0.0
 10
225.7264012945547
 20
397.5261180816802
 30
0.0
 10
227.2194370325614
 20
397.165678733058
 30
0.0
 10
228.1971489908271
 20
396.8676352724725
 30
0.0
 10
229.6372552102875
 20
396.3339641471668
 30
0.0
 10
230.1128689695138
 20
396.141602266715
 30
0.0
 10
231.0551135420008
 20
395.7274784331825
 30
0.0
 10
231.5227923995452
 20
395.5051733570263
 30
0.0
 10
233.8262278677007
 20
394.3243464844965
 30
0.0
 10
235.5226340635862
 20
393.180609318181
 30
0.0
 10
237.4656006911947
 20
391.5094209108016
 30
0.0
 10
237.8451987629176
 20
391.1629465920272
 30
0.0
 10
238.5860601349411
 20
390.4450563627389
 30
0.0
 10
238.9483280871328
 20
390.0724513538116
 30
0.0
 10
239.9943262625219
 20
388.9302685292045
 30
0.0
 10
240.6405494937779
 20
388.1338834571669
 30
0.0
 10
241.8337491367932
 20
386.4732840690845
 30
0.0
 10
242.3807196304484
 20
385.6090657083708
 30
0.0
 10
243.1257875634112
 20
384.2612151258835
 30
0.0
 10
243.3615467358354
 20
383.8033224381145
 30
0.0
 10
243.8073038580519
 20
382.8699308131806
 30
0.0
 10
244.0167482127517
 20
382.3953208464588
 30
0.0
 10
244.9859597164945
 20
380.0096702162265
 30
0.0
 10
245.5263609600643
 20
378.0381003850295
 30
0.0
 10
245.9858961460517
 20
374.9865433566656
 30
0.0
 10
246.0794104731351
 20
373.9488050964335
 30
0.0
 10
246.1418243233848
 20
371.8940456679234
 30
0.0
 10
246.1121275896744
 20
370.8712553518425
 30
0.0
 10
245.9329219741415
 20
368.8347031699274
 30
0.0
 10
245.7834168973183
 20
367.8209410173675
 30
0.0
 10
245.4669826151644
 20
366.3072437657439
 30
0.0
 10
245.3457906314513
 20
365.8027950845341
 30
0.0
 10
245.0736317589879
 20
364.8030077614518
 30
0.0
 10
244.922701159905
 20
364.3074608299038
 30
0.0
 10
244.7568902381964
 20
363.8162691630118
 30
0.0
  0
CIRCLE
  5
65
330
1F
100
AcDbEntity
  8
0
  6
Continuous
 62
     7
370
    15
100
AcDbCircle
 10
220.1225905555
 20
357.3320327279
 30
0.0
 40
85.25000000000006
  0
SPLINE
  5
66
330
1F
100
AcDbEntity
  8
0
  6
Continuous
 62
     8
370
     0
100
AcDbSpline
210
0.0
220
0.0
230
1.0
 70
     8
 71
     3
 72
     9
 73
     5
 74
     0
 42
0.00000001
 43
0.00000001
 12
1.0
 22
0.0
 32
0.0
 13
1.0
 23
0.0
 33
0.0
 40
0.0
 40
0.0
 40
0.0
 40
0.0
 40
0.7498785742862896
 40
1.0
 40
1.0
 40
1.0
 40
1.0
 10
195.4981143462482
 20
363.7883307543495
 30
0.0
 10
195.5214985288437
 20
363.7006450124011
 30
0.0
 10
195.5526824876837
 20
363.5837117581981
 30
0.0
 10
195.8040316488113
 20
362.9513850187893
 30
0.0
 10
195.8668994593444
 20
362.7932265532115
 30
0.0
  0
SPLINE
  5
67
330
1F
100
AcDbEntity
  8
0
  6
Continuous
 62
     8
370
     0
100
AcDbSpline
210
0.0
220
0.0
230
1.0
 70
     8
 71
     3
 72
    11
 73
     7
 74
     0
 42
0.00000001
 43
0.00000001
 12
1.0
 22
0.0
 32
0.0
 13
1.0
 23
0.0
 33
0.0
 40
0.0
 40
0.0
 40
0.0
 40
0.0
 40
0.3022341847777698
 40
0.6334390680581445
 40
0.9555968576110239
 40
1.0
 40
1.0
 40
1.0
 40
1.0
 10
244.7489498990598
 20
363.7930525598028
 30
0.0
 10
244.7339071263
 20
363.7480066127603
 30
0.0
 10
244.7023796537706
 20
363.6535968333524
 30
0.0
 10
244.561011591423
 20
363.258059797006
 30
0.0
 10
244.4306163506294
 20
362.8908610166388
 30
0.0
 10
244.3098812786073
 20
362.5966829250546
 30
0.0
 10
244.2952561068359
 20
362.5610478353599
 30
0.0
  0
SPLINE
  5
68
330
1F
100
AcDbEntity
  8
0
  6
Continuous
 62
     8
370
     0
100
AcDbSpline
210
0.0
220
0.0
230
1.0
 70
     8
 71
     3
 72
    10
 73
     6
 74
     0
 42
0.00000001
 43
0.00000001
 12
1.0
 22
0.0
 32
0.0
 13
1.0
 23
0.0
 33
0.0
 40
0.0
 40
0.0
 40
0.0
 40
0.0
 40
0.5
 40
0.5
 40
1.0
 40
1.0
 40
1.0
 40
1.0
 10
243.6769777428269
 20
364.1804948614918
 30
0.0
 10
243.9861486290071
 20
364.0761247326745
 30
0.0
 10
244.2641254117067
 20
363.9822855999278
 30
0.0
 10
244.6499800367661
 20
363.8520302115012
 30
0.0
 10
244.7567906725398
 20
363.8159742195046
 30
0.0
 10
244.7567910833407
 20
363.815975436397
 30
0.0
  0
SPLINE
  5
69
330
1F
100
AcDbEntity
  8
0
  6
Continuous
 62
     8
370
     0
100
AcDbSpline
210
0.0
220
0.0
230
1.0
 70
     8
 71
     3
 72
    78
 73
    74
 74
     0
 42
0.00000001
 43
0.00000001
 12
1.0
 22
0.0
 32
0.0
 13
1.0
 23
0.0
 33
0.0
 40
0.0
 40
0.0
 40
0.0
 40
0.0
 40
0.0156249999999999
 40
0.0156249999999999
 40
0.0312499999999998
 40
0.0312499999999998
 40
0.0624999999999996
 40
0.0624999999999996
 40
0.0937499999999994
 40
0.0937499999999994
 40
0.1249999999999992
 40
0.1249999999999992
 40
0.1874999999999987
 40
0.1874999999999987
 40
0.2031249999999986
 40
0.2031249999999986
 40
0.2187499999999985
 40
0.2187499999999985
 40
0.2499999999999984
 40
0.2499999999999984
 40
0.2812499999999984
 40
0.2812499999999984
 40
0.2968749999999984
 40
0.2968749999999984
 40
0.3124999999999983
 40
0.3124999999999983
 40
0.3749999999999984
 40
0.3749999999999984
 40
0.3906249999999983
 40
0.3906249999999983
 40
0.4062499999999983
 40
0.4062499999999983
 40
0.4374999999999983
 40
0.4374999999999983
 40
0.4531249999999983
 40
0.4531249999999983
 40
0.4687499999999982
 40
0.4687499999999982
 40
0.4999999999999982
 40
0.4999999999999982
 40
0.5312499999999981
 40
0.5312499999999981
 40
0.5468749999999982
 40
0.5468749999999982
 40
0.5624999999999982
 40
0.5624999999999982
 40
0.624999999999998
 40
0.624999999999998
 40
0.6406249999999981
 40
0.6406249999999981
 40
0.656249999999998
 40
0.656249999999998
 40
0.687499999999998
 40
0.687499999999998
 40
0.7187499999999981
 40
0.7187499999999981
 40
0.7499999999999981
 40
0.7499999999999981
 40
0.8124999999999982
 40
0.8124999999999982
 40
0.8281249999999983
 40
0.8281249999999983
 40
0.8437499999999984
 40
0.8437499999999984
 40
0.8749999999999987
 40
0.8749999999999987
 40
0.906249999999999
 40
0.906249999999999
 40
0.9218749999999991
 40
0.9218749999999991
 40
0.9374999999999992
 40
0.9374999999999992
 40
1.0
 40
1.0
 40
1.0
 40
1.0
 10
243.6770620291838
 20
364.1804664080431
 30
0.0
 10
243.8356103440682
 20
364.650125875976
 30
0.0
 10
243.9799306581544
 20
365.1239496258209
 30
0.0
 10
244.2401711098044
 20
366.079909339888
 30
0.0
 10
244.3560568369651
 20
366.5622455913241
 30
0.0
 10
244.6586387685534
 20
368.0095903474204
 30
0.0
 10
244.8016026332526
 20
368.9789142483578
 30
0.0
 10
244.9729779499583
 20
370.9261935935626
 30
0.0
 10
245.0013857603265
 20
371.9041493121784
 30
0.0
 10
244.9417345750279
 20
373.8688365632563
 30
0.0
 10
244.8523334359662
 20
374.8610862720186
 30
0.0
 10
244.4129826816806
 20
377.7788880663892
 30
0.0
 10
243.8962971181629
 20
379.6640397040292
 30
0.0
 10
242.9696081010205
 20
381.9451224923368
 30
0.0
 10
242.7693526838493
 20
382.3989287565929
 30
0.0
 10
242.3431484393569
 20
383.2914128965484
 30
0.0
 10
242.117730303374
 20
383.7292376899159
 30
0.0
 10
241.4053420562152
 20
385.0180167187285
 30
0.0
 10
240.8823611460148
 20
385.8443596948241
 30
0.0
 10
239.741492320533
 20
387.4321823752155
 30
0.0
 10
239.1236100597339
 20
388.1936659438522
 30
0.0
 10
238.1234848516009
 20
389.2857939079353
 30
0.0
 10
237.7771029811886
 20
389.6420715600735
 30
0.0
 10
237.068727842243
 20
390.3285059929572
 30
0.0
 10
236.7057747315228
 20
390.6597990602784
 30
0.0
 10
234.8480045507834
 20
392.2577633118302
 30
0.0
 10
233.2259818291376
 20
393.3513910500108
 30
0.0
 10
231.023547214392
 20
394.4804929411662
 30
0.0
 10
230.5763704915875
 20
394.6930629624615
 30
0.0
 10
229.6754353702186
 20
395.0890512539166
 30
0.0
 10
229.2206732293615
 20
395.2729897345392
 30
0.0
 10
227.8437034046974
 20
395.7832938655982
 30
0.0
 10
226.9088557698625
 20
396.0682904142299
 30
0.0
 10
225.4812770471267
 20
396.4129574883494
 30
0.0
 10
225.0011887343507
 20
396.5140063446934
 30
0.0
 10
224.032419086854
 20
396.6879801062007
 30
0.0
 10
223.5424987309877
 20
396.7610449695454
 30
0.0
 10
222.0681433405645
 20
396.9359345186164
 30
0.0
 10
221.0876747833116
 20
396.9929320311842
 30
0.0
 10
219.1314373876841
 20
396.9919048392787
 30
0.0
 10
218.155669031603
 20
396.9338683312446
 30
0.0
 10
216.6955654478577
 20
396.7599551932819
 30
0.0
 10
216.2094572608435
 20
396.6874706518316
 30
0.0
 10
215.2384498763454
 20
396.5129122272649
 30
0.0
 10
214.7521998707743
 20
396.4104439701879
 30
0.0
 10
212.3538138616074
 20
395.829755551627
 30
0.0
 10
210.5215769057867
 20
395.1475743412446
 30
0.0
 10
208.3376567464238
 20
394.0271228828562
 30
0.0
 10
207.906261625603
 20
393.7894698955425
 30
0.0
 10
207.0544946285568
 20
393.2864208593098
 30
0.0
 10
206.6352748662465
 20
393.021583862768
 30
0.0
 10
205.4104996095224
 20
392.1959960773332
 30
0.0
 10
204.6325166558929
 20
391.6012751478544
 30
0.0
 10
203.1519019301692
 20
390.3251499250796
 30
0.0
 10
202.4492709617606
 20
389.6437447079767
 30
0.0
 10
201.1208455221456
 20
388.1925422305034
 30
0.0
 10
200.4931512252576
 20
387.4189337449184
 30
0.0
 10
198.7750931687355
 20
385.023326645464
 30
0.0
 10
197.8304881425113
 20
383.3118755193553
 30
0.0
 10
196.9031928962758
 20
381.0281608941235
 30
0.0
 10
196.7300901885702
 20
380.5625339714886
 30
0.0
 10
196.4137140849323
 20
379.6268025620406
 30
0.0
 10
196.2701454682051
 20
379.1562692261022
 30
0.0
 10
195.8823977190908
 20
377.7368305648837
 30
0.0
 10
195.681030402489
 20
376.78011327833
 30
0.0
 10
195.3914629986308
 20
374.8460287463586
 30
0.0
 10
195.303253755779
 20
373.8686631713606
 30
0.0
 10
195.2586069152719
 20
372.386617897969
 30
0.0
 10
195.2585114033799
 20
371.8902048217865
 30
0.0
 10
195.2876134693093
 20
370.9053315795632
 30
0.0
 10
195.316733421537
 20
370.4151994842811
 30
0.0
 10
195.5339189017986
 20
367.9758625045233
 30
0.0
 10
195.9337144165974
 20
366.0601492417508
 30
0.0
 10
196.5678215009868
 20
364.1814997753386
 30
0.0
  0
SPLINE
  5
6A
330
1F
100
AcDbEntity
  8
0
  6
Continuous
 62
     8
370
     0
100
AcDbSpline
210
0.0
220
0.0
230
1.0
 70
     8
 71
     3
 72
    10
 73
     6
 74
     0
 42
0.00000001
 43
0.00000001
 12
1.0
 22
0.0
 32
0.0
 13
1.0
 23
0.0
 33
0.0
 40
0.0
 40
0.0
 40
0.0
 40
0.0
 40
0.5
 40
0.5
 40
1.0
 40
1.0
 40
1.0
 40
1.0
 10
196.5678694704291
 20
364.181515383699
 30
0.0
 10
196.2586766434507
 20
364.0769982090055
 30
0.0
 10
195.9806743015228
 20
363.983024898859
 30
0.0
 10
195.5948068996107
 20
363.8525909429422
 30
0.0
 10
195.4880098248106
 20
363.8164913059841
 30
0.0
 10
195.4880471494589
 20
363.8165052887455
 30
0.0
  0
SPLINE
  5
6B
330
1F
100
AcDbEntity
  8
0
  6
Continuous
 62
     8
370
     0
100
AcDbSpline
210
0.0
220
0.0
230
1.0
 70
     8
 71
     3
 72
    57
 73
    53
 74
     0
 42
0.00000001
 43
0.00000001
 12
1.0
 22
0.0
 32
0.0
 13
1.0
 23
0.0
 33
0.0
 40
0.0
 40
0.0
 40
0.0
 40
0.0
 40
0.0092832394887432
 40
0.0186287259948426
 40
0.0280397547105594
 40
0.0375176707859779
 40
0.0470618237144033
 40
0.0566694463055495
 40
0.0663362718660616
 40
0.076057967731322
 40
0.0858306113606678
 40
0.0956404751471774
 40
0.1054647880830239
 40
0.1153132997566118
 40
0.1251890026592808
 40
0.1528542858563359
 40
0.1790496138765987
 40
0.2040151054676077
 40
0.2277573123384528
 40
0.2502318483836352
 40
0.2842640808482095
 40
0.3371953356296917
 40
0.4090592140500142
 40
0.4999091228445851
 40
0.5550476447810956
 40
0.6245235864907763
 40
0.6655012103467279
 40
0.6867205230134357
 40
0.7014315562890162
 40
0.7166850064650018
 40
0.732524728180943
 40
0.7491042472945699
 40
0.7669608855525075
 40
0.7804156898833938
 40
0.7961996793201748
 40
0.8119497671772161
 40
0.8424904396797245
 40
0.8745987573479335
 40
0.8834303850138606
 40
0.8922733608780535
 40
0.9011492542005022
 40
0.9100804840112754
 40
0.9190628284785416
 40
0.9280072928454558
 40
0.936923402522873
 40
0.94583289118205
 40
0.9547581440312499
 40
0.9637237258551282
 40
0.9727572333410286
 40
0.9818418301725295
 40
0.9909194887343523
 40
1.0
 40
1.0
 40
1.0
 40
1.0
 10
196.5678079486738
 20
364.1814945873562
 30
0.0
 10
196.6591032870295
 20
363.9150699406841
 30
0.0
 10
196.8423061274709
 20
363.3804341869536
 30
0.0
 10
197.1301159221229
 20
362.5799174200798
 30
0.0
 10
197.4286205424299
 20
361.7770384743225
 30
0.0
 10
197.7390374739888
 20
360.9722185650602
 30
0.0
 10
198.0612277310731
 20
360.1656162893542
 30
0.0
 10
198.3948173292329
 20
359.3574603350509
 30
0.0
 10
198.7384683922129
 20
358.5476838212879
 30
0.0
 10
199.0899165964865
 20
357.7358097887099
 30
0.0
 10
199.4459823288188
 20
356.921217261432
 30
0.0
 10
199.8032744743386
 20
356.103760527609
 30
0.0
 10
200.1533703944917
 20
355.2806654772393
 30
0.0
 10
200.48762633543
 20
354.4487811778966
 30
0.0
 10
200.9874190700985
 20
353.1006496965733
 30
0.0
 10
201.5487409859718
 20
351.2470289014811
 30
0.0
 10
202.0360365256559
 20
348.903490141172
 30
0.0
 10
202.3600274769142
 20
346.6535156787784
 30
0.0
 10
202.5903403634136
 20
344.5060786348329
 30
0.0
 10
202.7930140479622
 20
342.0798351717604
 30
0.0
 10
202.999652734117
 20
338.7659465560156
 30
0.0
 10
203.195155746934
 20
333.9511514444069
 30
0.0
 10
203.345764651605
 20
327.4106077376749
 30
0.0
 10
203.447624288727
 20
320.8023107309571
 30
0.0
 10
203.5958848195851
 20
314.2673364420739
 30
0.0
 10
203.7167458491665
 20
309.2451598464584
 30
0.0
 10
203.8045213602635
 20
305.251514614205
 30
0.0
 10
203.8558516479336
 20
302.9188841076883
 30
0.0
 10
203.8913753812679
 20
301.3665240925702
 30
0.0
 10
203.9282616428152
 20
299.9773644354192
 30
0.0
 10
203.9772233179825
 20
298.5321575453993
 30
0.0
 10
204.0821543942814
 20
297.0087356920096
 30
0.0
 10
204.361096634827
 20
295.5784465683882
 30
0.0
 10
204.774631565767
 20
294.2094530557823
 30
0.0
 10
205.2844967520025
 20
292.9410439139619
 30
0.0
 10
206.1456728063005
 20
291.2638150907518
 30
0.0
 10
207.5098283758232
 20
289.3002092092727
 30
0.0
 10
209.0503611105287
 20
287.7555206763986
 30
0.0
 10
210.2316743446219
 20
286.8140154235105
 30
0.0
 10
210.8859034467627
 20
286.3435188685663
 30
0.0
 10
211.5651136323955
 20
285.9043662984402
 30
0.0
 10
212.2689914322918
 20
285.4973941377855
 30
0.0
 10
212.9941940023358
 20
285.1251782255238
 30
0.0
 10
213.7367709475925
 20
284.7900773654263
 30
0.0
 10
214.4930936715068
 20
284.4932901008914
 30
0.0
 10
215.2626422695444
 20
284.2345545087736
 30
0.0
 10
216.0454323466049
 20
284.01357880632
 30
0.0
 10
216.8418290570755
 20
283.8306352260939
 30
0.0
 10
217.6511917183383
 20
283.6868542789948
 30
0.0
 10
218.4703480006593
 20
283.5858162296834
 30
0.0
 10
219.2951160853254
 20
283.5251611018629
 30
0.0
 10
219.8460524792908
 20
283.518580775267
 30
0.0
 10
220.1215639531668
 20
283.5152900950744
 30
0.0
  0
LWPOLYLINE
  5
6C
330
1F
100
AcDbEntity
  8
0
  6
Continuous
 62
     8
370
     0
100
AcDbPolyline
 90
        7
 70
   128
 43
0.0
 10
220.1229616343
 20
282.3754584548
 10
220.1229612434
 20
282.3759129402
 10
220.1229098282
 20
282.4355771896
 10
220.1227751454
 20
282.5918307659
 10
220.1225656879
 20
282.8348240015
 10
220.1222946637
 20
283.1492236015
 10
220.1219791635
 20
283.5152110216
  0
SPLINE
  5
6D
330
1F
100
AcDbEntity
  8
0
  6
Continuous
 62
     8
370
     0
100
AcDbSpline
210
0.0
220
0.0
230
1.0
 70
     8
 71
     3
 72
    68
 73
    64
 74
     0
 42
0.00000001
 43
0.00000001
 12
1.0
 22
0.0
 32
0.0
 13
1.0
 23
0.0
 33
0.0
 40
0.0
 40
0.0
 40
0.0
 40
0.0
 40
0.0049152098052219
 40
0.0098260805781283
 40
0.0147343768707535
 40
0.0196417992223135
 40
0.02455006292629
 40
0.0294524649179065
 40
0.0343281099187927
 40
0.0391800398262108
 40
0.0440128899572158
 40
0.0488309546236117
 40
0.0536382477516339
 40
0.0584385424433937
 40
0.063235402931897
 40
0.0680322381721044
 40
0.0728324079321915
 40
0.0776393736570855
 40
0.0824561937462414
 40
0.087285634179889
 40
0.0921028215689913
 40
0.0968968011138538
 40
0.1016712969622523
 40
0.1064298781160954
 40
0.1111759904712074
 40
0.1159129911197921
 40
0.1206441827545431
 40
0.1253728471304134
 40
0.1406358186425352
 40
0.1562074383115197
 40
0.1718789982607286
 40
0.1877424412696208
 40
0.2288670750828633
 40
0.2503469134421926
 40
0.2592677602041021
 40
0.2682262628077959
 40
0.2771684278392082
 40
0.2861274317291515
 40
0.3126013211805226
 40
0.3438541729532509
 40
0.3750972587363026
 40
0.4373453749074105
 40
0.5006959792490423
 40
0.5564965642709953
 40
0.6065427639476045
 40
0.6508433914421048
 40
0.6894103452622389
 40
0.722248563051137
 40
0.7493628234155815
 40
0.7799059046770365
 40
0.8076593548646179
 40
0.8326354946855394
 40
0.8549617580215036
 40
0.8747948925838984
 40
0.8843014773923834
 40
0.8948958832785114
 40
0.9065982863035036
 40
0.9194341045504655
 40
0.9333731166031317
 40
0.9484073999033044
 40
0.9645270502637434
 40
0.981722240694211
 40
1.0
 40
1.0
 40
1.0
 40
1.0
 10
220.1215640921496
 20
283.5152902961204
 30
0.0
 10
220.2706831719469
 20
283.5161771333175
 30
0.0
 10
220.5687896927037
 20
283.5179500248323
 30
0.0
 10
221.0155426871656
 20
283.5349329176855
 30
0.0
 10
221.4614612718394
 20
283.5631388401473
 30
0.0
 10
221.9063415857574
 20
283.6039505949547
 30
0.0
 10
222.3497102773626
 20
283.6572868927473
 30
0.0
 10
222.7904304141036
 20
283.7230668731465
 30
0.0
 10
223.2274551239909
 20
283.8008314993601
 30
0.0
 10
223.6601240318325
 20
283.8900769796666
 30
0.0
 10
224.0885354780958
 20
283.9905210052142
 30
0.0
 10
224.5128108937386
 20
284.1019888681637
 30
0.0
 10
224.933034041312
 20
284.2243874910836
 30
0.0
 10
225.3492522665183
 20
284.3576868012165
 30
0.0
 10
225.7614806370437
 20
284.5018989829769
 30
0.0
 10
226.1697109293083
 20
284.6570584603465
 30
0.0
 10
226.5739234082684
 20
284.8232115215862
 30
0.0
 10
226.9740829851542
 20
285.0004053961356
 30
0.0
 10
227.3701148611396
 20
285.188720397353
 30
0.0
 10
227.7611905316405
 20
285.3878076335137
 30
0.0
 10
228.1461474062284
 20
285.5970346711398
 30
0.0
 10
228.5239083548621
 20
285.8156801914985
 30
0.0
 10
228.8941792610642
 20
286.0434064671734
 30
0.0
 10
229.2570405274107
 20
286.2801142552921
 30
0.0
 10
229.6125538821111
 20
286.5257256060428
 30
0.0
 10
229.960761355845
 20
286.780179819864
 30
0.0
 10
230.301701831214
 20
287.0434376260776
 30
0.0
 10
230.8830509464313
 20
287.5174041585962
 30
0.0
 10
231.6811159680313
 20
288.2456012444786
 30
0.0
 10
232.6389651527433
 20
289.2837805775517
 30
0.0
 10
233.5131636610457
 20
290.4169728743993
 30
0.0
 10
234.6984882290167
 20
292.2774822285311
 30
0.0
 10
235.6454136870059
 20
294.4922645035239
 30
0.0
 10
236.0999056454108
 20
296.6211938087761
 30
0.0
 10
236.219701595932
 20
297.8098293922427
 30
0.0
 10
236.2693656126787
 20
298.6221064784937
 30
0.0
 10
236.2992949098688
 20
299.4364372491876
 30
0.0
 10
236.3413710640653
 20
300.7819934885786
 30
0.0
 10
236.3864568129835
 20
302.8045833095777
 30
0.0
 10
236.4465284800405
 20
305.5030029132011
 30
0.0
 10
236.5296878159568
 20
309.2864863377025
 30
0.0
 10
236.6434970763021
 20
314.0432708590155
 30
0.0
 10
236.7694464678947
 20
319.5450026532329
 30
0.0
 10
236.860870607177
 20
324.6771800587754
 30
0.0
 10
236.9393099119298
 20
329.231573421692
 30
0.0
 10
237.038851179209
 20
333.2626393606685
 30
0.0
 10
237.1612002197145
 20
336.7707789862476
 30
0.0
 10
237.3054965707734
 20
339.7562241422753
 30
0.0
 10
237.4829176636975
 20
342.4959859745344
 30
0.0
 10
237.7046090515639
 20
345.0779379380689
 30
0.0
 10
238.003549790051
 20
347.5870826258005
 30
0.0
 10
238.3836040769219
 20
349.8335301265494
 30
0.0
 10
238.8611605760365
 20
351.8152984724879
 30
0.0
 10
239.3362603623727
 20
353.3102634210598
 30
0.0
 10
239.7573040680515
 20
354.4463680227206
 30
0.0
 10
240.1173382976004
 20
355.3416305219464
 30
0.0
 10
240.5371396471179
 20
356.3213463506909
 30
0.0
 10
241.0060611997007
 20
357.3903072800913
 30
0.0
 10
241.5115473043671
 20
358.5536091771079
 30
0.0
 10
242.0437048093322
 20
359.813915650165
 30
0.0
 10
242.5894499949045
 20
361.1754653963818
 30
0.0
 10
243.1434096685124
 20
362.6395374883303
 30
0.0
 10
243.4956043192667
 20
363.6564754193544
 30
0.0
 10
243.6770758096033
 20
364.1804619180916
 30
0.0
  0
CIRCLE
  5
6E
330
1F
100
AcDbEntity
  8
0
  6
Continuous
 62
     8
370
     0
100
AcDbCircle
 10
220.1225905555
 20
357.3320327279
 30
0.0
 40
83.84299899996654
  0
CIRCLE
  5
6F
330
1F
100
AcDbEntity
  8
0
  6
Continuous
 62
     8
370
     0
100
AcDbCircle
 10
220.1225905555
 20
357.3320327279
 30
0.0
 40
85.00775885773243
  0
LINE
  5
70
330
1F
100
AcDbEntity
  8
0
  6
Continuous
 62
     7
370
    15
100
AcDbLine
 10
396.7064874811
 20
272.0820343253
 30
0.0
 11
405.9573034389
 21
272.3242750523
 31
0.0
  0
LINE
  5
71
330
1F
100
AcDbEntity
  8
0
  6
Continuous
 62
     7
370
    15
100
AcDbLine
 10
405.9573034389
 20
442.3397889492
 30
0.0
 11
396.7064874811
 21
442.5820296761
 31
0.0
  0
ARC
  5
72
330
1F
100
AcDbEntity
  8
0
  6
Continuous
 62
     7
370
    15
100
AcDbCircle
 10
405.920655755
 20
440.9402713307
 30
0.0
 40
1.400000000000076
100
AcDbArc
 50
9.653305255
 51
88.5
  0
ARC
  5
73
330
1F
100
AcDbEntity
  8
0
  6
Continuous
 62
     7
370
    15
100
AcDbCircle
 10
405.920655755
 20
273.7237941251
 30
0.0
 40
1.400000000000026
100
AcDbArc
 50
271.5
 51
350.346694745
  0
ARC
  5
74
330
1F
100
AcDbEntity
  8
0
  6
Continuous
 62
     7
370
    15
100
AcDbCircle
 10
-85.6193959577
 20
357.3320327279
 30
0.0
 40
500.0
100
AcDbArc
 50
350.346694745
 51
358.9549779413
  0
ARC
  5
75
330
1F
100
AcDbEntity
  8
0
  6
Continuous
 62
     7
370
    15
100
AcDbCircle
 10
-85.6193959577
 20
357.3320327279
 30
0.0
 40
499.9999999999999
100
AcDbArc
 50
4.4486915725
 51
9.653305255
  0
LINE
  5
76
330
1F
100
AcDbEntity
  8
0
  6
Continuous
 62
     7
370
    15
100
AcDbLine
 10
462.8106834931
 20
343.9103218858
 30
0.0
 11
462.968419735
 21
343.8426873778
 31
0.0
  0
LINE
  5
77
330
1F
100
AcDbEntity
  8
0
  6
Continuous
 62
     7
370
    15
100
AcDbLine
 10
466.0940575047
 20
341.2773705219
 30
0.0
 11
466.3614960952
 21
340.9112122041
 31
0.0
  0
LINE
  5
78
330
1F
100
AcDbEntity
  8
0
  6
Continuous
 62
     7
370
    15
100
AcDbLine
 10
447.5473197741
 20
346.1320326329
 30
0.0
 11
448.401431982
 21
346.1320326329
 31
0.0
  0
LINE
  5
79
330
1F
100
AcDbEntity
  8
0
  6
Continuous
 62
     7
370
    15
100
AcDbLine
 10
478.3621090097
 20
398.132033473
 30
0.0
 11
456.751066689
 21
398.132033473
 31
0.0
  0
ARC
  5
7A
330
1F
100
AcDbEntity
  8
0
  6
Continuous
 62
     7
370
    15
100
AcDbCircle
 10
478.3621095132
 20
396.5401959828
 30
0.0
 40
1.591836736608716
100
AcDbArc
 50
16.3313652882
 51
90.4169666514
  0
SPLINE
  5
7B
330
1F
100
AcDbEntity
  8
0
  6
Continuous
 62
     7
370
    15
100
AcDbSpline
210
0.0
220
0.0
230
1.0
 70
     8
 71
     3
 72
    12
 73
     8
 74
     0
 42
0.00000001
 43
0.00000001
 12
1.0
 22
0.0
 32
0.0
 13
1.0
 23
0.0
 33
0.0
 40
0.0
 40
0.0
 40
0.0
 40
0.0
 40
0.036068479647771
 40
0.4897082256797259
 40
0.6727441352223417
 40
0.902839388903171
 40
1.0
 40
1.0
 40
1.0
 40
1.0
 10
462.8111081762278
 20
343.9101416748861
 30
0.0
 10
462.8637518209067
 20
343.8879363183421
 30
0.0
 10
463.5785040389296
 20
343.586450204707
 30
0.0
 10
464.4035554204488
 20
342.9600066621325
 30
0.0
 10
465.4338301169373
 20
342.0370861973356
 30
0.0
 10
465.9803638751208
 20
341.4475341375468
 30
0.0
 10
466.2728426766128
 20
341.0359069907445
 30
0.0
 10
466.3596781535113
 20
340.9136969727376
 30
0.0
  0
SPLINE
  5
7C
330
1F
100
AcDbEntity
  8
0
  6
Continuous
 62
     7
370
    15
100
AcDbSpline
210
0.0
220
0.0
230
1.0
 70
     8
 71
     3
 72
    36
 73
    32
 74
     0
 42
0.00000001
 43
0.00000001
 12
1.0
 22
0.0
 32
0.0
 13
1.0
 23
0.0
 33
0.0
 40
0.0
 40
0.0
 40
0.0
 40
0.0
 40
0.0443264484585097
 40
0.0915505505585586
 40
0.1360259012288541
 40
0.1780902012175426
 40
0.2178373637466794
 40
0.2552752683520455
 40
0.3094392581689041
 40
0.357899766985117
 40
0.4006569903899329
 40
0.442321760417552
 40
0.4766216933563112
 40
0.5035568999699858
 40
0.5189252400050695
 40
0.5301508786644218
 40
0.5372336549235514
 40
0.5420588426827376
 40
0.5516872438349757
 40
0.5652200536429338
 40
0.5828836542605038
 40
0.6061448268111971
 40
0.6352732528490543
 40
0.6702735123389689
 40
0.70494010119873
 40
0.7438940141392556
 40
0.7871259976166293
 40
0.8346955363115035
 40
0.8867997371975849
 40
0.9438107029733838
 40
0.9999999999999999
 40
0.9999999999999999
 40
0.9999999999999999
 40
0.9999999999999999
 10
479.8589157505
 20
283.5230564829806
 30
0.0
 10
480.3111732457651
 20
285.1478032178848
 30
0.0
 10
481.2452526526569
 20
288.5035076172103
 30
0.0
 10
481.9946675148105
 20
293.6332818115487
 30
0.0
 10
482.3382018944033
 20
298.7090338958694
 30
0.0
 10
482.4063562011398
 20
303.5108734766168
 30
0.0
 10
482.3927212886701
 20
308.0441747503768
 30
0.0
 10
482.3693748069893
 20
313.0376467428248
 30
0.0
 10
482.3642488066783
 20
318.3623791225467
 30
0.0
 10
482.3774908613343
 20
323.8893277834084
 30
0.0
 10
482.3953953660001
 20
328.9410709424713
 30
0.0
 10
482.4139534868247
 20
333.4544683921819
 30
0.0
 10
482.4334644998166
 20
337.3663522831442
 30
0.0
 10
482.4535590820132
 20
340.2785099201561
 30
0.0
 10
482.4726151187598
 20
342.3134338263459
 30
0.0
 10
482.4872953434291
 20
343.5936349099731
 30
0.0
 10
482.4989440852626
 20
344.4730248729921
 30
0.0
 10
482.5108480786118
 20
345.2916822962235
 30
0.0
 10
482.5281302646302
 20
346.3554978230281
 30
0.0
 10
482.5581810117084
 20
347.9072415852586
 30
0.0
 10
482.6082785770469
 20
349.976953032736
 30
0.0
 10
482.6917493024354
 20
352.6388793977287
 30
0.0
 10
482.8273251250856
 20
355.9584559357049
 30
0.0
 10
483.014003503376
 20
359.7097217791705
 30
0.0
 10
483.2231443733908
 20
363.8338279205534
 30
0.0
 10
483.3975652044234
 20
368.2730449605531
 30
0.0
 10
483.4499006734919
 20
373.2066666849172
 30
0.0
 10
483.2534528912715
 20
378.6392291115529
 30
0.0
 10
482.6502611714786
 20
384.5685943133856
 30
0.0
 10
481.5913267658574
 20
390.7735000310116
 30
0.0
 10
480.4373690332821
 20
394.9218434833083
 30
0.0
 10
479.8645781917537
 20
396.9809597489336
 30
0.0
  0
ARC
  5
7D
330
1F
100
AcDbEntity
  8
0
  6
Continuous
 62
     7
370
    15
100
AcDbCircle
 10
442.5064874811
 20
372.1320327279
 30
0.0
 40
23.99999999999999
100
AcDbArc
 50
270.0
 51
282.124387013
  0
ARC
  5
7E
330
1F
100
AcDbEntity
  8
0
  6
Continuous
 62
     7
370
    15
100
AcDbCircle
 10
442.5064874811
 20
372.1320327279
 30
0.0
 40
24.00000000000003
100
AcDbArc
 50
60.1905035624
 51
90.0
  0
LINE
  5
7F
330
1F
100
AcDbEntity
  8
0
  6
Continuous
 62
     7
370
    15
100
AcDbLine
 10
442.5064879103
 20
396.1320331451
 30
0.0
 11
412.8733980103
 21
396.1320331451
 31
0.0
  0
LINE
  5
80
330
1F
100
AcDbEntity
  8
0
  6
Continuous
 62
     7
370
    15
100
AcDbLine
 10
414.293568079
 20
348.1320327279
 30
0.0
 11
442.5064879103
 21
348.1320327279
 31
0.0
  0
LINE
  5
81
330
1F
100
AcDbEntity
  8
0
  6
Continuous
 62
     7
370
    15
100
AcDbLine
 10
453.5473207576
 20
346.0277163555
 30
0.0
 11
453.5473207576
 21
345.8820328248
 31
0.0
  0
LINE
  5
82
330
1F
100
AcDbEntity
  8
0
  6
Continuous
 62
     7
370
    15
100
AcDbLine
 10
453.5473207576
 20
345.8820328248
 30
0.0
 11
453.7659021659
 21
345.281485295
 31
0.0
  0
ARC
  5
83
330
1F
100
AcDbEntity
  8
0
  6
Continuous
 62
     7
370
    15
100
AcDbCircle
 10
453.9538406851
 20
345.3498893867
 30
0.0
 40
0.1999999999999886
100
AcDbArc
 50
200.0
 51
270.0
  0
LINE
  5
84
330
1F
100
AcDbEntity
  8
0
  6
Continuous
 62
     7
370
    15
100
AcDbLine
 10
453.9538393362
 20
345.1498894152
 30
0.0
 11
460.1429360552
 21
345.1498894152
 31
0.0
  0
LINE
  5
85
330
1F
100
AcDbEntity
  8
0
  6
Continuous
 62
     7
370
    15
100
AcDbLine
 10
396.7064874811
 20
442.5820296761
 30
0.0
 11
396.7064874811
 21
272.0820343253
 31
0.0
  0
SPLINE
  5
86
330
1F
100
AcDbEntity
  8
0
  6
Continuous
 62
     7
370
    15
100
AcDbSpline
210
0.0
220
0.0
230
1.0
 70
     8
 71
     3
 72
    27
 73
    23
 74
     0
 42
0.00000001
 43
0.00000001
 12
1.0
 22
0.0
 32
0.0
 13
1.0
 23
0.0
 33
0.0
 40
0.0
 40
0.0
 40
0.0
 40
0.0
 40
0.0028226765058276
 40
0.0557163877150713
 40
0.1101440493028789
 40
0.1630380084138641
 40
0.2174651281849551
 40
0.270373467890844
 40
0.3248149579438644
 40
0.3777455404964283
 40
0.43220990978397
 40
0.4851607770274212
 40
0.5396466284373445
 40
0.592606912181105
 40
0.647103347182732
 40
0.700058126171569
 40
0.754549607763093
 40
0.8074863785660362
 40
0.8619595987242745
 40
0.9148737398695592
 40
0.9693234046658412
 40
1.0
 40
1.0
 40
1.0
 40
1.0
 10
412.8734017355407
 20
396.1148036775091
 30
0.0
 10
412.8732327908406
 20
396.1205096447616
 30
0.0
 10
412.8698980167747
 20
396.2331388755894
 30
0.0
 10
412.882106209479
 20
395.8215197141179
 30
0.0
 10
412.911175546012
 20
394.8424918524146
 30
0.0
 10
412.9620575345162
 20
393.1285246467944
 30
0.0
 10
413.0294534241833
 20
390.8579418956555
 30
0.0
 10
413.1134565923075
 20
388.0274675402324
 30
0.0
 10
413.2099740391302
 20
384.7746820293657
 30
0.0
 10
413.3180611855804
 20
381.1312935505023
 30
0.0
 10
413.4327116731491
 20
377.2657975232381
 30
0.0
 10
413.5527304839003
 20
373.2182782024407
 30
0.0
 10
413.6725737298508
 20
369.1758179805024
 30
0.0
 10
413.7909827251007
 20
365.1805836254803
 30
0.0
 10
413.9024853554678
 20
361.417685601722
 30
0.0
 10
414.0059135454431
 20
357.9263831433719
 30
0.0
 10
414.0965015893158
 20
354.8680347149146
 30
0.0
 10
414.1732380494377
 20
352.2768203981447
 30
0.0
 10
414.2328779129672
 20
350.2625695842681
 30
0.0
 10
414.273677534904
 20
348.884589763724
 30
0.0
 10
414.2946696861078
 20
348.1755518663554
 30
0.0
 10
414.2938598987015
 20
348.2028914725888
 30
0.0
 10
414.2935680789912
 20
348.2127437324641
 30
0.0
  0
SPLINE
  5
87
330
1F
100
AcDbEntity
  8
0
  6
Continuous
 62
     7
370
    15
100
AcDbSpline
210
0.0
220
0.0
230
1.0
 70
     8
 71
     3
 72
    36
 73
    32
 74
     0
 42
0.00000001
 43
0.00000001
 12
1.0
 22
0.0
 32
0.0
 13
1.0
 23
0.0
 33
0.0
 40
0.0
 40
0.0
 40
0.0
 40
0.0
 40
0.0035234692570086
 40
0.0070755897197393
 40
0.0106582993067447
 40
0.0305523444808072
 40
0.0517289540759781
 40
0.0744111684832201
 40
0.1094004385335553
 40
0.1484596182265032
 40
0.1887697832943602
 40
0.2334513010130789
 40
0.2783419270504026
 40
0.3279432631433725
 40
0.4295524945447001
 40
0.5354767711937842
 40
0.5622813398829406
 40
0.5890758458950771
 40
0.6418526938517233
 40
0.6921818247885583
 40
0.7384782858542228
 40
0.7803436301011469
 40
0.8171503319278522
 40
0.8505603523965611
 40
0.8805371254594738
 40
0.9082655445825304
 40
0.9345868906498751
 40
0.9604709182245363
 40
0.9873197486781498
 40
0.9935889670941207
 40
1.0
 40
1.0
 40
1.0
 40
1.0
 10
477.2987732150929
 20
282.7825885623196
 30
0.0
 10
477.2414065247752
 20
282.8347953375623
 30
0.0
 10
477.1262066650179
 20
282.9396334091512
 30
0.0
 10
476.9574672088636
 20
283.1027018272555
 30
0.0
 10
476.5385984793538
 20
283.5252895649226
 30
0.0
 10
475.8990357893981
 20
284.2751778253656
 30
0.0
 10
475.10939146429
 20
285.4381318316615
 30
0.0
 10
474.2748271949091
 20
286.9626218488527
 30
0.0
 10
473.4455700162451
 20
288.9284821834753
 30
0.0
 10
472.6879466290043
 20
291.3320988813326
 30
0.0
 10
472.0569446748656
 20
293.9907669445074
 30
0.0
 10
471.5563577035093
 20
296.8070009334487
 30
0.0
 10
471.1533443650697
 20
299.8447361633205
 30
0.0
 10
470.7349418429504
 20
304.1419282503296
 30
0.0
 10
470.4138419815345
 20
309.794954644362
 30
0.0
 10
470.264603502798
 20
314.9514129529873
 30
0.0
 10
470.183945281867
 20
318.4620933877584
 30
0.0
 10
470.132092743788
 20
320.8031824269976
 30
0.0
 10
470.0609839521111
 20
323.6618440474899
 30
0.0
 10
469.9280192341918
 20
326.948221089214
 30
0.0
 10
469.7084816620132
 20
329.9897959123339
 30
0.0
 10
469.3688780118808
 20
332.7213355477434
 30
0.0
 10
468.9001018081246
 20
335.1460581726718
 30
0.0
 10
468.290585987687
 20
337.269647600513
 30
0.0
 10
467.5190892447801
 20
339.1268251339051
 30
0.0
 10
466.5737601765225
 20
340.7250953570318
 30
0.0
 10
465.4368644300976
 20
342.0793929363669
 30
0.0
 10
464.0971338098615
 20
343.2034118568591
 30
0.0
 10
462.97050048807
 20
343.8615874796048
 30
0.0
 10
462.1840276746745
 20
344.2340739604198
 30
0.0
 10
461.9271806953823
 20
344.3434479977032
 30
0.0
 10
461.7973209320211
 20
344.3987466297472
 30
0.0
  0
SPLINE
  5
88
330
1F
100
AcDbEntity
  8
0
  6
Continuous
 62
     7
370
    15
100
AcDbSpline
210
0.0
220
0.0
230
1.0
 70
     8
 71
     3
 72
    13
 73
     9
 74
     0
 42
0.00000001
 43
0.00000001
 12
1.0
 22
0.0
 32
0.0
 13
1.0
 23
0.0
 33
0.0
 40
0.0
 40
0.0
 40
0.0
 40
0.0
 40
0.1505658972834936
 40
0.3075552340966716
 40
0.4709887130908946
 40
0.6408727190762522
 40
0.8172064666971439
 40
0.9999999999999999
 40
0.9999999999999999
 40
0.9999999999999999
 40
0.9999999999999999
 10
453.2973208253101
 20
346.0071512015406
 30
0.0
 10
453.0518569733464
 20
346.0206509528924
 30
0.0
 10
452.5504572950991
 20
346.0482263817388
 30
0.0
 10
451.7820548978755
 20
346.0789907806556
 30
0.0
 10
450.9818802579557
 20
346.1032960772023
 30
0.0
 10
450.1499211894855
 20
346.1201298674083
 30
0.0
 10
449.2862409312453
 20
346.1304343497202
 30
0.0
 10
448.6998841871042
 20
346.1313714828911
 30
0.0
 10
448.4014322823594
 20
346.1318484777967
 30
0.0
  0
LINE
  5
89
330
1F
100
AcDbEntity
  8
0
  6
Continuous
 62
     7
370
    15
100
AcDbLine
 10
447.5473197741
 20
346.1320326329
 30
0.0
 11
447.5473197741
 21
369.0102694687
 31
0.0
  0
SPLINE
  5
8A
330
1F
100
AcDbEntity
  8
0
  6
Continuous
 62
     7
370
    15
100
AcDbSpline
210
0.0
220
0.0
230
1.0
 70
     8
 71
     3
 72
    20
 73
    16
 74
     0
 42
0.00000001
 43
0.00000001
 12
1.0
 22
0.0
 32
0.0
 13
1.0
 23
0.0
 33
0.0
 40
0.0
 40
0.0
 40
0.0
 40
0.0
 40
0.2499999999999981
 40
0.2499999999999981
 40
0.3749999999999979
 40
0.3749999999999979
 40
0.4374999999999978
 40
0.4374999999999978
 40
0.4999999999999978
 40
0.4999999999999978
 40
0.7499999999999989
 40
0.7499999999999989
 40
0.8749999999999993
 40
0.8749999999999993
 40
1.0
 40
1.0
 40
1.0
 40
1.0
 10
451.0302525423453
 20
385.3352106640919
 30
0.0
 10
450.5038825902687
 20
384.157779978818
 30
0.0
 10
450.022130678001
 20
382.9278191290694
 30
0.0
 10
449.3799475205012
 20
380.9982270412492
 30
0.0
 10
449.1793081403777
 20
380.340861980044
 30
0.0
 10
448.9004649586438
 20
379.3321978104759
 30
0.0
 10
448.811206138893
 20
378.9922020424207
 30
0.0
 10
448.640440811693
 20
378.3043669191384
 30
0.0
 10
448.5587847917175
 20
377.9557607682597
 30
0.0
 10
448.1746938630804
 20
376.2103036892901
 30
0.0
 10
447.9416650377568
 20
374.7956713692196
 30
0.0
 10
447.7063521082073
 20
372.6457779723123
 30
0.0
 10
447.6469917446757
 20
371.9244733012032
 30
0.0
 10
447.5674313563946
 20
370.4722149773806
 30
0.0
 10
447.5473207940714
 20
369.739008708034
 30
0.0
 10
447.5473207940714
 20
369.0102688173724
 30
0.0
  0
LWPOLYLINE
  5
8B
330
1F
100
AcDbEntity
  8
0
  6
Continuous
 62
     7
370
    15
100
AcDbPolyline
 90
       12
 70
   128
 43
0.0
 10
451.0302538617
 20
385.3352105376
 10
451.9898215873
 20
387.4816594777
 10
452.8823638899
 20
389.4781766591
 10
453.6991635902
 20
391.3052639124
 10
454.4322411163
 20
392.9450770971
 10
455.0744364603
 20
394.3815937397
 10
455.6194762332
 20
395.6007881221
 10
456.0620369954
 20
396.590746766
 10
456.3977936847
 20
397.3418025431
 10
456.6234754963
 20
397.8466203567
 10
456.7368658824
 20
398.1002679226
 10
456.751066689
 20
398.132033473
  0
ARC
  5
8C
330
1F
100
AcDbEntity
  8
0
  6
Continuous
 62
     7
370
    15
100
AcDbCircle
 10
478.3619840581
 20
283.9672942505
 30
0.0
 40
1.591839795445437
100
AcDbArc
 50
228.0936153522
 51
343.5008896552
  0
SPLINE
  5
8D
330
1F
100
AcDbEntity
  8
0
  6
Continuous
 62
     7
370
    15
100
AcDbSpline
210
0.0
220
0.0
230
1.0
 70
     8
 71
     3
 72
    38
 73
    34
 74
     0
 42
0.00000001
 43
0.00000001
 12
1.0
 22
0.0
 32
0.0
 13
1.0
 23
0.0
 33
0.0
 40
0.0
 40
0.0
 40
0.0
 40
0.0
 40
0.0625
 40
0.0625
 40
0.125
 40
0.125
 40
0.1875
 40
0.1875
 40
0.25
 40
0.25
 40
0.3125
 40
0.3125
 40
0.375
 40
0.375
 40
0.4375
 40
0.4375
 40
0.5
 40
0.5
 40
0.5625
 40
0.5625
 40
0.625
 40
0.625
 40
0.6875
 40
0.6875
 40
0.75
 40
0.75
 40
0.8125
 40
0.8125
 40
0.875
 40
0.875
 40
0.9375
 40
0.9375
 40
1.0
 40
1.0
 40
1.0
 40
1.0
 10
461.7973207876085
 20
344.3987466897381
 30
0.0
 10
461.7973362526874
 20
344.398928394616
 30
0.0
 10
461.7689052351797
 20
344.4144079651356
 30
0.0
 10
461.6578147358331
 20
344.4734509158222
 30
0.0
 10
461.5760968736209
 20
344.5164922069837
 30
0.0
 10
461.3616342423607
 20
344.6252518878568
 30
0.0
 10
461.2299378742545
 20
344.6903530024052
 30
0.0
 10
460.9267871462715
 20
344.8325615217351
 30
0.0
 10
460.7526039948995
 20
344.9109002939697
 30
0.0
 10
460.3704011910506
 20
345.0715194830644
 30
0.0
 10
460.1635174024369
 20
345.1534042790357
 30
0.0
 10
459.7175835083102
 20
345.3157816430372
 30
0.0
 10
459.4765449511423
 20
345.3967752241617
 30
0.0
 10
458.9790217446512
 20
345.5475751103863
 30
0.0
 10
458.720755099988
 20
345.6181436286307
 30
0.0
 10
458.1838940874781
 20
345.7472528892856
 30
0.0
 10
457.9053490568044
 20
345.8055064510576
 30
0.0
 10
457.3530267706109
 20
345.9037942189568
 30
0.0
 10
457.0760684390179
 20
345.9446564877811
 30
0.0
 10
456.5207501693254
 20
346.0105313436534
 30
0.0
 10
456.2490236347363
 20
346.0346829195777
 30
0.0
 10
455.727481529868
 20
346.0681625425307
 30
0.0
 10
455.4734920926909
 20
346.0776947233799
 30
0.0
 10
454.9986236650159
 20
346.0856388787057
 30
0.0
 10
454.7791614795795
 20
346.084198663827
 30
0.0
 10
454.3757939258128
 20
346.0752470950048
 30
0.0
 10
454.19163954744
 20
346.0676488713846
 30
0.0
 10
453.8753618088847
 20
346.0511741747592
 30
0.0
 10
453.7408176038096
 20
346.0422497345093
 30
0.0
 10
453.5203360889989
 20
346.0262932178282
 30
0.0
 10
453.437227505349
 20
346.0194798009367
 30
0.0
 10
453.3259503659417
 20
346.010090408739
 30
0.0
 10
453.2973135407362
 20
346.0074687313436
 30
0.0
 10
453.2973207954677
 20
346.0071512032918
 30
0.0
  0
LINE
  5
8E
330
1F
100
AcDbEntity
  8
0
  6
Continuous
 62
     7
370
    15
100
AcDbLine
 10
453.5473207576
 20
345.8820328248
 30
0.0
 11
457.5473214133
 21
345.8820328248
 31
0.0
  0
LINE
  5
8F
330
1F
100
AcDbEntity
  8
0
  6
Continuous
 62
     8
370
     0
100
AcDbLine
 10
405.9573034389
 20
442.3397889492
 30
0.0
 11
405.9573034389
 21
272.3242750523
 31
0.0
  0
LINE
  5
90
330
1F
100
AcDbEntity
  8
0
  6
Continuous
 62
     8
370
     0
100
AcDbLine
 10
407.300832179
 20
441.1750322339
 30
0.0
 11
407.300832179
 21
273.4890317676
 31
0.0
  0
SPLINE
  5
91
330
1F
100
AcDbEntity
  8
0
  6
Continuous
 62
     8
370
     0
100
AcDbSpline
210
0.0
220
0.0
230
1.0
 70
     8
 71
     3
 72
    19
 73
    15
 74
     0
 42
0.00000001
 43
0.00000001
 12
1.0
 22
0.0
 32
0.0
 13
1.0
 23
0.0
 33
0.0
 40
0.0
 40
0.0
 40
0.0
 40
0.0
 40
0.0876792772274505
 40
0.1779010759622754
 40
0.2655833270708693
 40
0.3558083619130252
 40
0.4434906050731889
 40
0.5337157161602828
 40
0.6213979376479263
 40
0.7116230067203048
 40
0.7993052788868611
 40
0.8895303168054983
 40
0.9772125845689934
 40
1.0
 40
1.0
 40
1.0
 40
1.0
 10
478.3621462626422
 20
363.816270431588
 30
0.0
 10
478.3621465040422
 20
365.2036919500881
 30
0.0
 10
478.3621469938421
 20
368.0187674018861
 30
0.0
 10
478.3621432741908
 20
372.4014654412649
 30
0.0
 10
478.3621135786869
 20
376.7994786824571
 30
0.0
 10
478.3621001437349
 20
381.0303957783084
 30
0.0
 10
478.3620956281131
 20
385.0449569057947
 30
0.0
 10
478.3620815532948
 20
388.6584085466264
 30
0.0
 10
478.3620980463095
 20
391.8345577629046
 30
0.0
 10
478.3620911435083
 20
394.421015890373
 30
0.0
 10
478.36210193684
 20
396.4114076439362
 30
0.0
 10
478.362110935708
 20
397.637937555984
 30
0.0
 10
478.3621089104496
 20
398.1864789281128
 30
0.0
 10
478.3621089927604
 20
398.0818486356015
 30
0.0
 10
478.3621090097392
 20
398.0602657553652
 30
0.0
  0
SPLINE
  5
92
330
1F
100
AcDbEntity
  8
0
  6
Continuous
 62
     8
370
     0
100
AcDbSpline
210
0.0
220
0.0
230
1.0
 70
     8
 71
     3
 72
    38
 73
    34
 74
     0
 42
0.00000001
 43
0.00000001
 12
1.0
 22
0.0
 32
0.0
 13
1.0
 23
0.0
 33
0.0
 40
0.0
 40
0.0
 40
0.0
 40
0.0
 40
0.012377903095914
 40
0.024653521310309
 40
0.036829544342076
 40
0.0489079010276147
 40
0.0608902973868631
 40
0.0727784790332027
 40
0.0845741524273254
 40
0.0962789133442596
 40
0.1285274382833937
 40
0.1602215836661498
 40
0.1926099288089599
 40
0.2246620460158239
 40
0.2896753743689779
 40
0.3538014501638244
 40
0.4185110198933503
 40
0.4831115926078289
 40
0.5474310970060868
 40
0.6121078041816108
 40
0.6765878933978287
 40
0.7087630477411849
 40
0.741100761418652
 40
0.7735272379229636
 40
0.8058795683426153
 40
0.8403769438699019
 40
0.8704819566519735
 40
0.9036234192189203
 40
0.9352735133406533
 40
0.9512397312405165
 40
0.9673292706500386
 40
0.9835736899737884
 40
1.0
 40
1.0
 40
1.0
 40
1.0
 10
478.3620391747838
 20
363.8165080686404
 30
0.0
 10
478.1584602576846
 20
363.8088113494086
 30
0.0
 10
477.7529846991716
 20
363.7934815128338
 30
0.0
 10
477.1477805048055
 20
363.7599713938648
 30
0.0
 10
476.5480600650159
 20
363.718840580523
 30
0.0
 10
475.9538812300966
 20
363.669394287108
 30
0.0
 10
475.3652832893929
 20
363.6118821219817
 30
0.0
 10
474.7823219997343
 20
363.5463047799014
 30
0.0
 10
474.2050498726496
 20
363.4727286675072
 30
0.0
 10
473.2977379857724
 20
363.3433391781444
 30
0.0
 10
472.0723817652698
 20
363.1328861905208
 30
0.0
 10
470.5268967001946
 20
362.7988272757315
 30
0.0
 10
469.0035294764865
 20
362.3980683978435
 30
0.0
 10
466.9835992593597
 20
361.7692580181592
 30
0.0
 10
464.5389400896508
 20
360.8151176164509
 30
0.0
 10
461.7564741812521
 20
359.4138897162216
 30
0.0
 10
459.1867411602219
 20
357.7922449951426
 30
0.0
 10
456.8519680223051
 20
356.0180955209847
 30
0.0
 10
454.7965780210591
 20
354.1634831426493
 30
0.0
 10
453.0310209289342
 20
352.3276528020692
 30
0.0
 10
451.8058624609274
 20
350.8869514117595
 30
0.0
 10
450.9738792071344
 20
349.8326849949204
 30
0.0
 10
450.4202670141726
 20
349.0979856017481
 30
0.0
 10
449.9352046534877
 20
348.4289042451449
 30
0.0
 10
449.5101468259398
 20
347.8210313216111
 30
0.0
 10
449.16398443433
 20
347.3100352879692
 30
0.0
 10
448.881969497534
 20
346.8820517098536
 30
0.0
 10
448.6688227140585
 20
346.5533984005451
 30
0.0
 10
448.5406420129507
 20
346.3516898491324
 30
0.0
 10
448.469011903889
 20
346.2389750344466
 30
0.0
 10
448.4302037366911
 20
346.1780456723394
 30
0.0
 10
448.4058381542776
 20
346.1395302051849
 30
0.0
 10
448.4029063471703
 20
346.1344185398055
 30
0.0
 10
448.4014322823594
 20
346.1318484777975
 30
0.0
  0
SPLINE
  5
93
330
1F
100
AcDbEntity
  8
0
  6
Continuous
 62
     8
370
     0
100
AcDbSpline
210
0.0
220
0.0
230
1.0
 70
     8
 71
     3
 72
    38
 73
    34
 74
     0
 42
0.00000001
 43
0.00000001
 12
1.0
 22
0.0
 32
0.0
 13
1.0
 23
0.0
 33
0.0
 40
0.0
 40
0.0
 40
0.0
 40
0.0
 40
0.0313303440220631
 40
0.062437548799625
 40
0.0940077390762108
 40
0.1251508018164247
 40
0.156510252025272
 40
0.187641791358981
 40
0.2190807095779151
 40
0.2506561177752754
 40
0.2815603012888652
 40
0.3128967446395874
 40
0.3445485660909337
 40
0.3753373591962326
 40
0.4377533277007856
 40
0.4682359113980233
 40
0.4992879173860088
 40
0.5149544809848672
 40
0.5306213068171105
 40
0.561505665870737
 40
0.5922084537773127
 40
0.6241069841647767
 40
0.6550092444504646
 40
0.6865772117648594
 40
0.7180128190144371
 40
0.7488822618084614
 40
0.7795896957233189
 40
0.8113129582743361
 40
0.8423727672246313
 40
0.8736783708299161
 40
0.9359573883716823
 40
0.9980720038538832
 40
1.0
 40
1.0
 40
1.0
 40
1.0
 10
479.8881965322459
 20
364.1815183815459
 30
0.0
 10
479.8880203160559
 20
364.6506479005376
 30
0.0
 10
479.887669138713
 20
365.5855657301907
 30
0.0
 10
479.8888313311625
 20
367.0236115783913
 30
0.0
 10
479.8882510797364
 20
368.4750711204165
 30
0.0
 10
479.8882440640965
 20
369.9438050538532
 30
0.0
 10
479.8883098315978
 20
371.4131832889692
 30
0.0
 10
479.8884101264366
 20
372.8897760381209
 30
0.0
 10
479.888618246872
 20
374.3670686676755
 30
0.0
 10
479.8885777773101
 20
375.832932822151
 30
0.0
 10
479.8884878091497
 20
377.2841885132298
 30
0.0
 10
479.8883453329777
 20
378.7186462970306
 30
0.0
 10
479.8884255088414
 20
380.1279313854297
 30
0.0
 10
479.8885999904829
 20
381.9663869724524
 30
0.0
 10
479.8882093316696
 20
383.7255091630075
 30
0.0
 10
479.8883423880276
 20
385.4027023922294
 30
0.0
 10
479.8884826117546
 20
386.4097655535945
 30
0.0
 10
479.8884799951073
 20
387.1983038580607
 30
0.0
 10
479.8884746785049
 20
387.9671644132815
 30
0.0
 10
479.8885219286959
 20
388.8881612250148
 30
0.0
 10
479.888503153318
 20
389.944967251135
 30
0.0
 10
479.8885682878347
 20
390.9393420689459
 30
0.0
 10
479.8884175115149
 20
391.8765954060534
 30
0.0
 10
479.888276532929
 20
392.7398687630929
 30
0.0
 10
479.8883252633428
 20
393.5292293226157
 30
0.0
 10
479.8884470628824
 20
394.236832762536
 30
0.0
 10
479.8882703407136
 20
394.8713428725745
 30
0.0
 10
479.8880856644801
 20
395.4280192239839
 30
0.0
 10
479.8881646707371
 20
395.9040234691215
 30
0.0
 10
479.8883476260152
 20
396.4286699227399
 30
0.0
 10
479.8883349565354
 20
396.8400805167842
 30
0.0
 10
479.888427992761
 20
397.0464174191279
 30
0.0
 10
479.8884275146383
 20
396.9888579268903
 30
0.0
 10
479.8884275002444
 20
396.9871251043776
 30
0.0
  0
SPLINE
  5
94
330
1F
100
AcDbEntity
  8
0
  6
Continuous
 62
     8
370
     0
100
AcDbSpline
210
0.0
220
0.0
230
1.0
 70
     8
 71
     3
 72
    10
 73
     6
 74
     0
 42
0.00000001
 43
0.00000001
 12
1.0
 22
0.0
 32
0.0
 13
1.0
 23
0.0
 33
0.0
 40
0.0
 40
0.0
 40
0.0
 40
0.0
 40
0.5
 40
0.5
 40
1.0
 40
1.0
 40
1.0
 40
1.0
 10
479.8884620564579
 20
364.181515383699
 30
0.0
 10
479.7918106290844
 20
364.0769982090055
 30
0.0
 10
479.5872952787082
 20
363.983024898859
 30
0.0
 10
479.0418087974989
 20
363.8525909429422
 30
0.0
 10
478.7023474378386
 20
363.8164913059841
 30
0.0
 10
478.3619571605311
 20
363.8165052887455
 30
0.0
  0
SPLINE
  5
95
330
1F
100
AcDbEntity
  8
0
  6
Continuous
 62
     8
370
     0
100
AcDbSpline
210
0.0
220
0.0
230
1.0
 70
     8
 71
     3
 72
    70
 73
    66
 74
     0
 42
0.00000001
 43
0.00000001
 12
1.0
 22
0.0
 32
0.0
 13
1.0
 23
0.0
 33
0.0
 40
0.0
 40
0.0
 40
0.0
 40
0.0
 40
0.0156249999999997
 40
0.0156249999999997
 40
0.0312499999999994
 40
0.0312499999999994
 40
0.0624999999999989
 40
0.0624999999999989
 40
0.0781249999999986
 40
0.0781249999999986
 40
0.0937499999999983
 40
0.0937499999999983
 40
0.1249999999999978
 40
0.1249999999999978
 40
0.1406249999999976
 40
0.1406249999999976
 40
0.1562499999999974
 40
0.1562499999999974
 40
0.1874999999999971
 40
0.1874999999999971
 40
0.203124999999997
 40
0.203124999999997
 40
0.2187499999999969
 40
0.2187499999999969
 40
0.2499999999999967
 40
0.2499999999999967
 40
0.2656249999999966
 40
0.2656249999999966
 40
0.2812499999999965
 40
0.2812499999999965
 40
0.2968749999999964
 40
0.2968749999999964
 40
0.3124999999999963
 40
0.3124999999999963
 40
0.3749999999999966
 40
0.3749999999999966
 40
0.4374999999999969
 40
0.4374999999999969
 40
0.4999999999999972
 40
0.4999999999999972
 40
0.5624999999999976
 40
0.5624999999999976
 40
0.6249999999999979
 40
0.6249999999999979
 40
0.6874999999999982
 40
0.6874999999999982
 40
0.7499999999999984
 40
0.7499999999999984
 40
0.7812499999999986
 40
0.7812499999999986
 40
0.8124999999999988
 40
0.8124999999999988
 40
0.843749999999999
 40
0.843749999999999
 40
0.8749999999999992
 40
0.8749999999999992
 40
0.8906249999999993
 40
0.8906249999999993
 40
0.9062499999999993
 40
0.9062499999999993
 40
0.9374999999999996
 40
0.9374999999999996
 40
0.9687499999999998
 40
0.9687499999999998
 40
1.0
 40
1.0
 40
1.0
 40
1.0
 10
477.2987732064198
 20
282.7825885641051
 30
0.0
 10
477.2981641050483
 20
282.7827208924493
 30
0.0
 10
477.2977160139206
 20
282.800884429808
 30
0.0
 10
477.2991933032162
 20
282.87639699363
 30
0.0
 10
477.3011977438738
 20
282.9339941490088
 30
0.0
 10
477.3106629635824
 20
283.1644964492206
 30
0.0
 10
477.3207449801067
 20
283.3927038716233
 30
0.0
 10
477.3391570617241
 20
283.8439262054674
 30
0.0
 10
477.3458896634718
 20
284.0127399755575
 30
0.0
 10
477.3600153476413
 20
284.3886475581911
 30
0.0
 10
477.3676099076609
 20
284.5966221839687
 30
0.0
 10
477.392695358624
 20
285.2706880459507
 30
0.0
 10
477.412259590583
 20
285.7839442070336
 30
0.0
 10
477.448399135276
 20
286.6458800099418
 30
0.0
 10
477.4615590132428
 20
286.948632417954
 30
0.0
 10
477.490334248441
 20
287.5855788725796
 30
0.0
 10
477.5060244296018
 20
287.9213553590257
 30
0.0
 10
477.556449225715
 20
288.965296568489
 30
0.0
 10
477.5945190147036
 20
289.7067402709902
 30
0.0
 10
477.6575877406651
 20
290.8873767115968
 30
0.0
 10
477.6796161364583
 20
291.2923322462942
 30
0.0
 10
477.724853448733
 20
292.1259726120174
 30
0.0
 10
477.7481886167703
 20
292.5569324454108
 30
0.0
 10
477.8171887344767
 20
293.8706884100536
 30
0.0
 10
477.8633954021449
 20
294.7673215422539
 30
0.0
 10
477.904731849444
 20
296.1482783984927
 30
0.0
 10
477.914370717595
 20
296.6149418694674
 30
0.0
 10
477.9404382375685
 20
297.5589986846172
 30
0.0
 10
477.9571158317026
 20
298.0367006987817
 30
0.0
 10
477.9822441433729
 20
298.9947844218412
 30
0.0
 10
477.9900540377756
 20
299.4741909407587
 30
0.0
 10
478.0002952759563
 20
300.4332209604284
 30
0.0
 10
478.0029481173482
 20
300.9128546282422
 30
0.0
 10
478.0113373195164
 20
303.3111949286872
 30
0.0
 10
478.0070231674957
 20
305.2302262575041
 30
0.0
 10
478.0075630481318
 20
309.067977084649
 30
0.0
 10
478.0082413337411
 20
310.9868010009747
 30
0.0
 10
478.0147240163524
 20
314.8243956231065
 30
0.0
 10
478.0178684261665
 20
316.7431832586504
 30
0.0
 10
478.0268551963691
 20
320.5810667065347
 30
0.0
 10
478.0320119554829
 20
322.5001249903952
 30
0.0
 10
478.0407071630762
 20
326.3384082679429
 30
0.0
 10
478.046507727742
 20
328.2575529235351
 30
0.0
 10
478.0613460431932
 20
332.0951836925599
 30
0.0
 10
478.0699858910449
 20
334.0137006209991
 30
0.0
 10
478.0918355681312
 20
337.8495578069849
 30
0.0
 10
478.1058865751951
 20
339.7676786991657
 30
0.0
 10
478.1276055209356
 20
342.6406535674169
 30
0.0
 10
478.1350266565527
 20
343.5965617710804
 30
0.0
 10
478.1511009965141
 20
345.5028270415566
 30
0.0
 10
478.1597263852768
 20
346.4532338677569
 30
0.0
 10
478.1803406037196
 20
348.3443121559029
 30
0.0
 10
478.1932464310311
 20
349.2848447084299
 30
0.0
 10
478.2227050612911
 20
351.1489232314814
 30
0.0
 10
478.2388927639855
 20
352.0724150330478
 30
0.0
 10
478.2606820306049
 20
353.4436440087223
 30
0.0
 10
478.2674981272327
 20
353.8990935164314
 30
0.0
 10
478.2805812440017
 20
354.8018241494306
 30
0.0
 10
478.2870572575229
 20
355.249369487468
 30
0.0
 10
478.3056706676229
 20
356.587636042579
 30
0.0
 10
478.3150953432988
 20
357.47630550177
 30
0.0
 10
478.3334462321733
 20
359.26489133883
 30
0.0
 10
478.3422590745104
 20
360.1645301963415
 30
0.0
 10
478.3555949863992
 20
361.9793827846731
 30
0.0
 10
478.3599645782005
 20
362.8940297651762
 30
0.0
 10
478.3619565282716
 20
363.8162125558509
 30
0.0
  0
SPLINE
  5
96
330
1F
100
AcDbEntity
  8
0
  6
Continuous
 62
     8
370
     0
100
AcDbSpline
210
0.0
220
0.0
230
1.0
 70
     8
 71
     3
 72
    57
 73
    53
 74
     0
 42
0.00000001
 43
0.00000001
 12
1.0
 22
0.0
 32
0.0
 13
1.0
 23
0.0
 33
0.0
 40
0.0
 40
0.0
 40
0.0
 40
0.0
 40
0.0092832394887432
 40
0.0186287259948426
 40
0.0280397547105594
 40
0.0375176707859779
 40
0.0470618237144033
 40
0.0566694463055495
 40
0.0663362718660616
 40
0.076057967731322
 40
0.0858306113606678
 40
0.0956404751471774
 40
0.1054647880830239
 40
0.1153132997566118
 40
0.1251890026592808
 40
0.1528542858563359
 40
0.1790496138765987
 40
0.2040151054676077
 40
0.2277573123384528
 40
0.2502318483836352
 40
0.2842640808482095
 40
0.3371953356296917
 40
0.4090592140500142
 40
0.4999091228445851
 40
0.5550476447810956
 40
0.6245235864907763
 40
0.6655012103467279
 40
0.6867205230134357
 40
0.7014315562890162
 40
0.7166850064650018
 40
0.732524728180943
 40
0.7491042472945699
 40
0.7669608855525075
 40
0.7804156898833938
 40
0.7961996793201748
 40
0.8119497671772161
 40
0.8424904396797245
 40
0.8745987573479335
 40
0.8834303850138606
 40
0.8922733608780535
 40
0.9011492542005022
 40
0.9100804840112754
 40
0.9190628284785416
 40
0.9280072928454558
 40
0.936923402522873
 40
0.94583289118205
 40
0.9547581440312499
 40
0.9637237258551282
 40
0.9727572333410286
 40
0.9818418301725295
 40
0.9909194887343523
 40
1.0
 40
1.0
 40
1.0
 40
1.0
 10
479.8884428237022
 20
364.1814945873562
 30
0.0
 10
479.8884865600936
 20
363.9150699406841
 30
0.0
 10
479.8885743261425
 20
363.3804341869536
 30
0.0
 10
479.8886526720184
 20
362.5799174200798
 30
0.0
 10
479.8886943847504
 20
361.7770384743225
 30
0.0
 10
479.8886997625314
 20
360.9722185650602
 30
0.0
 10
479.8886788708862
 20
360.1656162893542
 30
0.0
 10
479.8886494267762
 20
359.3574603350509
 30
0.0
 10
479.8886327421343
 20
358.5476838212879
 30
0.0
 10
479.8886208516212
 20
357.7358097887099
 30
0.0
 10
479.8886082569845
 20
356.921217261432
 30
0.0
 10
479.8885747099409
 20
356.103760527609
 30
0.0
 10
479.8885084179564
 20
355.2806654772393
 30
0.0
 10
479.8884854565376
 20
354.4487811778966
 30
0.0
 10
479.8884578019708
 20
353.1006496965733
 30
0.0
 10
479.8882497060735
 20
351.2470289014811
 30
0.0
 10
479.8880033517365
 20
348.903490141172
 30
0.0
 10
479.8881789873495
 20
346.6535156787784
 30
0.0
 10
479.8884006989246
 20
344.5060786348329
 30
0.0
 10
479.888633113428
 20
342.0798351717604
 30
0.0
 10
479.8884567550358
 20
338.7659465560156
 30
0.0
 10
479.8881649059566
 20
333.9511514444069
 30
0.0
 10
479.8881909407135
 20
327.4106077376749
 30
0.0
 10
479.8886973942323
 20
320.8023107309571
 30
0.0
 10
479.8887084384089
 20
314.2673364420739
 30
0.0
 10
479.8884107885704
 20
309.2451598464584
 30
0.0
 10
479.8884719409705
 20
305.251514614205
 30
0.0
 10
479.8883228053189
 20
302.9188841076883
 30
0.0
 10
479.8883152567017
 20
301.3665240925702
 30
0.0
 10
479.8887134275921
 20
299.9773644354192
 30
0.0
 10
479.8888500713254
 20
298.5321575453993
 30
0.0
 10
479.888194131088
 20
297.0087356920096
 30
0.0
 10
479.8888173992344
 20
295.5784465683882
 30
0.0
 10
479.888405227577
 20
294.2094530557823
 30
0.0
 10
479.8883423630937
 20
292.9410439139619
 30
0.0
 10
479.8883251735485
 20
291.2638150907518
 30
0.0
 10
479.8885131702597
 20
289.3002092092727
 30
0.0
 10
479.8883500681745
 20
287.7555206763986
 30
0.0
 10
479.8883009206149
 20
286.8140154235105
 30
0.0
 10
479.8883139286492
 20
286.3435188685663
 30
0.0
 10
479.88834613857
 20
285.9043662984402
 30
0.0
 10
479.8883859024551
 20
285.4973941377855
 30
0.0
 10
479.8884177788545
 20
285.1251782255238
 30
0.0
 10
479.8884436752597
 20
284.7900773654263
 30
0.0
 10
479.8884253871695
 20
284.4932901008914
 30
0.0
 10
479.8883868773257
 20
284.2345545087736
 30
0.0
 10
479.8883350543767
 20
284.01357880632
 30
0.0
 10
479.8882765319414
 20
283.8306352260939
 30
0.0
 10
479.8882244771837
 20
283.6868542789948
 30
0.0
 10
479.8882139962278
 20
283.5858162296834
 30
0.0
 10
479.8882636709322
 20
283.5251611018629
 30
0.0
 10
479.8882887274383
 20
283.518580775267
 30
0.0
 10
479.8883012576595
 20
283.5152900950744
 30
0.0
  0
LINE
  5
97
330
1F
100
AcDbEntity
  8
0
  6
Continuous
 62
     8
370
     0
100
AcDbLine
 10
442.5064879103
 20
372.1320329365
 30
0.0
 11
442.5064879103
 21
348.1320327279
 31
0.0
  0
LINE
  5
98
330
1F
100
AcDbEntity
  8
0
  6
Continuous
 62
     8
370
     0
100
AcDbLine
 10
442.5064879103
 20
396.1320331451
 30
0.0
 11
442.5064879103
 21
372.1320329365
 31
0.0
  0
LINE
  5
99
330
1F
100
AcDbEntity
  8
0
  6
Continuous
 62
     8
370
     0
100
AcDbLine
 10
453.7659021659
 20
345.281485295
 30
0.0
 11
459.8354729457
 21
345.281485295
 31
0.0
  0
LINE
  5
9A
330
1F
100
AcDbEntity
  8
0
  6
Continuous
 62
     7
370
    15
100
AcDbLine
 10
134.8725928801
 20
215.0391608733
 30
0.0
 11
135.1148336071
 21
205.7883449155
 31
0.0
  0
LINE
  5
9B
330
1F
100
AcDbEntity
  8
0
  6
Continuous
 62
     7
370
    15
100
AcDbLine
 10
305.130347504
 20
205.7883449155
 30
0.0
 11
305.3725882309
 21
215.0391608733
 31
0.0
  0
ARC
  5
9C
330
1F
100
AcDbEntity
  8
0
  6
Continuous
 62
     7
370
    15
100
AcDbCircle
 10
303.7308291583
 20
205.8249925993
 30
0.0
 40
1.400000000000027
100
AcDbArc
 50
279.653305255
 51
358.5
  0
ARC
  5
9D
330
1F
100
AcDbEntity
  8
0
  6
Continuous
 62
     7
370
    15
100
AcDbCircle
 10
136.5143519528
 20
205.8249925993
 30
0.0
 40
1.400000000000056
100
AcDbArc
 50
181.5
 51
260.346694745
  0
ARC
  5
9E
330
1F
100
AcDbEntity
  8
0
  6
Continuous
 62
     7
370
    15
100
AcDbCircle
 10
220.1225905555
 20
697.3650443121
 30
0.0
 40
500.0000000000001
100
AcDbArc
 50
272.7512560897
 51
279.653305255
  0
ARC
  5
9F
330
1F
100
AcDbEntity
  8
0
  6
Continuous
 62
     7
370
    15
100
AcDbCircle
 10
220.1225905555
 20
697.3650443121
 30
0.0
 40
500.0000000000001
100
AcDbArc
 50
260.346694745
 51
267.2487469119
  0
ARC
  5
A0
330
1F
100
AcDbEntity
  8
0
  6
Continuous
 62
     7
370
    15
100
AcDbCircle
 10
244.5307636705
 20
133.3835091647
 30
0.0
 40
1.591834725607543
100
AcDbArc
 50
285.3082266546
 51
0.5468262946
  0
ARC
  5
A1
330
1F
100
AcDbEntity
  8
0
  6
Continuous
 62
     7
370
    15
100
AcDbCircle
 10
195.714445491
 20
133.3835116516
 30
0.0
 40
1.591839089022908
100
AcDbArc
 50
180.1301394981
 51
253.8535602753
  0
LINE
  5
A2
330
1F
100
AcDbEntity
  8
0
  6
Continuous
 62
     7
370
    15
100
AcDbLine
 10
194.1226030576
 20
164.0215039509
 30
0.0
 11
194.1226030576
 21
133.3835095423
 31
0.0
  0
LINE
  5
A3
330
1F
100
AcDbEntity
  8
0
  6
Continuous
 62
     7
370
    15
100
AcDbLine
 10
246.1226041305
 20
133.3835095423
 30
0.0
 11
246.1226041305
 21
164.0496261674
 31
0.0
  0
SPLINE
  5
A4
330
1F
100
AcDbEntity
  8
0
  6
Continuous
 62
     7
370
    15
100
AcDbSpline
210
0.0
220
0.0
230
1.0
 70
     8
 71
     3
 72
    13
 73
     9
 74
     0
 42
0.00000001
 43
0.00000001
 12
1.0
 22
0.0
 32
0.0
 13
1.0
 23
0.0
 33
0.0
 40
0.0
 40
0.0
 40
0.0
 40
0.0
 40
0.1650651959323088
 40
0.3333029552079561
 40
0.5000728857916704
 40
0.6668426729850702
 40
0.8350802216668884
 40
1.0
 40
1.0
 40
1.0
 40
1.0
 10
195.2770518946472
 20
131.8716302769965
 30
0.0
 10
197.9559602082887
 20
131.158235400377
 30
0.0
 10
203.365265620158
 20
129.7177341531911
 30
0.0
 10
211.7027804161124
 20
128.6046514286956
 30
0.0
 10
220.1226782501828
 20
128.1943955051344
 30
0.0
 10
228.5425637521476
 20
128.6043935236397
 30
0.0
 10
236.8777609430617
 20
129.7166041477935
 30
0.0
 10
242.2846052467301
 20
131.1568821441951
 30
0.0
 10
244.9611051815572
 20
131.8698495882338
 30
0.0
  0
LINE
  5
A5
330
1F
100
AcDbEntity
  8
0
  6
Continuous
 62
     7
370
    15
100
AcDbLine
 10
244.1226038027
 20
169.2391604441
 30
0.0
 11
244.1226038027
 21
198.1607757765
 31
0.0
  0
LINE
  5
A6
330
1F
100
AcDbEntity
  8
0
  6
Continuous
 62
     7
370
    15
100
AcDbLine
 10
196.1226033854
 20
198.1607999909
 30
0.0
 11
196.1226033854
 21
169.2391604441
 31
0.0
  0
ARC
  5
A7
330
1F
100
AcDbEntity
  8
0
  6
Continuous
 62
     7
370
    15
100
AcDbCircle
 10
220.1226036373
 20
169.2391608733
 30
0.0
 40
24.00000000000003
100
AcDbArc
 50
347.5286023535
 51
0.0
  0
ARC
  5
A8
330
1F
100
AcDbEntity
  8
0
  6
Continuous
 62
     7
370
    15
100
AcDbCircle
 10
220.1226036373
 20
169.2391608733
 30
0.0
 40
24.0
100
AcDbArc
 50
180.0
 51
192.4253360275
  0
LINE
  5
A9
330
1F
100
AcDbEntity
  8
0
  6
Continuous
 62
     7
370
    15
100
AcDbLine
 10
305.3725882309
 20
215.0391608733
 30
0.0
 11
134.8725928801
 21
215.0391608733
 31
0.0
  0
SPLINE
  5
AA
330
1F
100
AcDbEntity
  8
0
  6
Continuous
 62
     7
370
    15
100
AcDbSpline
210
0.0
220
0.0
230
1.0
 70
     8
 71
     3
 72
    27
 73
    23
 74
     0
 42
0.00000001
 43
0.00000001
 12
1.0
 22
0.0
 32
0.0
 13
1.0
 23
0.0
 33
0.0
 40
0.0
 40
0.0
 40
0.0
 40
0.0
 40
0.0186636536756231
 40
0.0731556076094257
 40
0.1261171895263871
 40
0.1806152055092664
 40
0.2335669236602652
 40
0.2880553798475083
 40
0.3409865999579544
 40
0.3954540877722353
 40
0.448363180261792
 40
0.5028074670248425
 40
0.555702549760158
 40
0.6101316226491428
 40
0.6630269532926278
 40
0.7174554843508468
 40
0.7703651959621223
 40
0.8248080976748899
 40
0.8777400527095941
 40
0.9322058342501381
 40
0.9851580745017086
 40
1.0
 40
1.0
 40
1.0
 40
1.0
 10
244.046898453218
 20
198.1607757764643
 30
0.0
 10
244.0671953470814
 20
198.1746637936239
 30
0.0
 10
244.1467527386277
 20
198.2291004195631
 30
0.0
 10
243.5835194269878
 20
198.3224921323159
 30
0.0
 10
242.3620911380995
 20
198.4377015005254
 30
0.0
 10
240.4777348240303
 20
198.5440819705229
 30
0.0
 10
238.0075031724251
 20
198.640502664685
 30
0.0
 10
235.0508231107971
 20
198.7224818672599
 30
0.0
 10
231.6423097726154
 20
198.7891763494679
 30
0.0
 10
227.9394004407069
 20
198.8374878109487
 30
0.0
 10
223.9802788047524
 20
198.8669222502772
 30
0.0
 10
219.9487129532749
 20
198.8761239055211
 30
0.0
 10
215.8857769148523
 20
198.8650046837668
 30
0.0
 10
211.9796229654871
 20
198.8340889649297
 30
0.0
 10
208.2700272361898
 20
198.7836957724501
 30
0.0
 10
204.9287057754761
 20
198.7161674919744
 30
0.0
 10
201.9887799353549
 20
198.6321988469573
 30
0.0
 10
199.5908546914817
 20
198.5356740669838
 30
0.0
 10
197.7418823541752
 20
198.4275813769349
 30
0.0
 10
196.5949468778105
 20
198.3129606735332
 30
0.0
 10
196.0776310248552
 20
198.2222458155435
 30
0.0
 10
196.1716190774187
 20
198.1718360204902
 30
0.0
 10
196.1921955334964
 20
198.1607999908513
 30
0.0
  0
LINE
  5
AB
330
1F
100
AcDbEntity
  8
0
  6
Continuous
 62
     7
370
    15
100
AcDbLine
 10
195.2730825978
 20
131.8572804588
 30
0.0
 11
195.2735389459
 21
131.8572283047
 31
0.0
  0
LINE
  5
AC
330
1F
100
AcDbEntity
  8
0
  6
Continuous
 62
     7
370
    15
100
AcDbLine
 10
244.9641878593
 20
131.8572134035
 30
0.0
 11
244.9489160317
 21
131.8572506564
 31
0.0
  0
SPLINE
  5
AD
330
1F
100
AcDbEntity
  8
0
  6
Continuous
 62
     7
370
    15
100
AcDbSpline
210
0.0
220
0.0
230
1.0
 70
     8
 71
     3
 72
    12
 73
     8
 74
     0
 42
0.00000001
 43
0.00000001
 12
1.0
 22
0.0
 32
0.0
 13
1.0
 23
0.0
 33
0.0
 40
0.0
 40
0.0
 40
0.0
 40
0.0
 40
0.0474271946644927
 40
0.3224412686113488
 40
0.588882777487157
 40
0.8621747159083467
 40
1.0
 40
1.0
 40
1.0
 40
1.0
 10
246.0818718063655
 20
164.0496261673754
 30
0.0
 10
246.0946863192964
 20
164.0403247634034
 30
0.0
 10
246.1818078080388
 20
163.97708770041
 30
0.0
 10
245.7878832866877
 20
163.5007309938142
 30
0.0
 10
244.8918360338252
 20
162.6234110994549
 30
0.0
 10
243.7173100703172
 20
161.6358128382824
 30
0.0
 10
242.8211609745345
 20
160.9464877646521
 30
0.0
 10
242.5207308369699
 20
160.7153944927043
 30
0.0
  0
SPLINE
  5
AE
330
1F
100
AcDbEntity
  8
0
  6
Continuous
 62
     7
370
    15
100
AcDbSpline
210
0.0
220
0.0
230
1.0
 70
     8
 71
     3
 72
    20
 73
    16
 74
     0
 42
0.00000001
 43
0.00000001
 12
1.0
 22
0.0
 32
0.0
 13
1.0
 23
0.0
 33
0.0
 40
0.0
 40
0.0
 40
0.0
 40
0.0
 40
0.2499999999999981
 40
0.2499999999999981
 40
0.3749999999999979
 40
0.3749999999999979
 40
0.4374999999999978
 40
0.4374999999999978
 40
0.4999999999999978
 40
0.4999999999999978
 40
0.7499999999999989
 40
0.7499999999999989
 40
0.8749999999999993
 40
0.8749999999999993
 40
1.0
 40
1.0
 40
1.0
 40
1.0
 10
197.7244766534803
 20
160.7153958120212
 30
0.0
 10
197.0304084907097
 20
161.2417657640978
 30
0.0
 10
196.4295380632699
 20
161.7235176763654
 30
0.0
 10
195.6712603516029
 20
162.3657008338653
 30
0.0
 10
195.4424744179734
 20
162.5663402139888
 30
0.0
 10
195.1369870394387
 20
162.8451833957227
 30
0.0
 10
195.0414496830854
 20
162.9344422154734
 30
0.0
 10
194.8633776529087
 20
163.1052075426734
 30
0.0
 10
194.7807072937737
 20
163.186863562649
 30
0.0
 10
194.4047498546481
 20
163.570954491286
 30
0.0
 10
194.219633142176
 20
163.8039833166096
 30
0.0
 10
194.1177814182827
 20
164.0392962461591
 30
0.0
 10
194.1132810109312
 20
164.0986566096907
 30
0.0
 10
194.1654668646666
 20
164.1782169979719
 30
0.0
 10
194.2225598962098
 20
164.1983275602951
 30
0.0
 10
194.3106957247794
 20
164.1983275602951
 30
0.0
  0
ELLIPSE
  5
AF
330
1F
100
AcDbEntity
  8
0
  6
Continuous
 62
     7
370
    15
100
AcDbEllipse
 10
220.1226036373
 20
166.6178716218
 30
0.0
 11
26.0
 21
1.136868377216160E-13
 31
0.0
210
0.0
220
0.0
230
1.0
 40
0.4470496299
 41
3.674238629974254
 42
5.750539330795174
  0
LWPOLYLINE
  5
B0
330
1F
100
AcDbEntity
  8
0
  6
Continuous
 62
     7
370
    15
100
AcDbPolyline
 90
       17
 70
   128
 43
0.0
 10
201.9836529034
 20
160.7153944927
 10
203.7606499034
 20
159.9554837006
 10
205.7277149397
 20
159.2780396598
 10
207.8619989443
 20
158.6909301835
 10
210.1387101102
 20
158.2009762781
 10
212.531399342
 20
157.8138701874
 10
215.0122727144
 20
157.5341083365
 10
217.5525102175
 20
157.3649429041
 10
220.1226036373
 20
157.3083333927
 10
222.6926969706
 20
157.3649429041
 10
225.2329344737
 20
157.5341083365
 10
227.7138078461
 20
157.8138701874
 10
230.1064970779
 20
158.2009762781
 10
232.3832082438
 20
158.6909301835
 10
234.5174931797
 20
159.2780396598
 10
236.4845591473
 20
159.9554837006
 10
238.2615542847
 20
160.7153944927
  0
SPLINE
  5
B1
330
1F
100
AcDbEntity
  8
0
  6
Continuous
 62
     7
370
    15
100
AcDbSpline
210
0.0
220
0.0
230
1.0
 70
     8
 71
     3
 72
    13
 73
     9
 74
     0
 42
0.00000001
 43
0.00000001
 12
1.0
 22
0.0
 32
0.0
 13
1.0
 23
0.0
 33
0.0
 40
0.0
 40
0.0
 40
0.0
 40
0.0
 40
0.0011418445743699
 40
0.2171669768416669
 40
0.4267932953561829
 40
0.6423051013233351
 40
0.8196769476560556
 40
1.0
 40
1.0
 40
1.0
 40
1.0
 10
196.6856418984952
 20
164.0762731688803
 30
0.0
 10
196.6853094968103
 20
164.0760507349432
 30
0.0
 10
196.6220901492359
 20
164.0337461106909
 30
0.0
 10
196.9441265056529
 20
163.7195377730668
 30
0.0
 10
197.6852389427311
 20
163.1295817092427
 30
0.0
 10
198.8694678883756
 20
162.3679176817616
 30
0.0
 10
200.3046330593248
 20
161.545046929066
 30
0.0
 10
201.4209096294104
 20
160.9934622772931
 30
0.0
 10
201.98365290342
 20
160.7153944927043
 30
0.0
  0
SPLINE
  5
B2
330
1F
100
AcDbEntity
  8
0
  6
Continuous
 62
     7
370
    15
100
AcDbSpline
210
0.0
220
0.0
230
1.0
 70
     8
 71
     3
 72
    12
 73
     8
 74
     0
 42
0.00000001
 43
0.00000001
 12
1.0
 22
0.0
 32
0.0
 13
1.0
 23
0.0
 33
0.0
 40
0.0
 40
0.0
 40
0.0
 40
0.0
 40
0.2222745048189097
 40
0.4503778530293588
 40
0.6728130253652319
 40
0.9023842486061119
 40
0.9999999999999999
 40
0.9999999999999999
 40
0.9999999999999999
 40
0.9999999999999999
 10
238.2615542846742
 20
160.7153944927043
 30
0.0
 10
238.9476991200081
 20
161.0573891973895
 30
0.0
 10
240.3379819959348
 20
161.7503469478478
 30
0.0
 10
241.8933539709757
 20
162.6856881855732
 30
0.0
 10
242.990257985703
 20
163.447571348042
 30
0.0
 10
243.4981565272216
 20
163.8973018502632
 30
0.0
 10
243.5241154879859
 20
164.0235869892718
 30
0.0
 10
243.5318603056494
 20
164.0612639742678
 30
0.0
  0
LINE
  5
B3
330
1F
100
AcDbEntity
  8
0
  6
Continuous
 62
     7
370
    15
100
AcDbLine
 10
194.3106948274
 20
164.1983285802
 30
0.0
 11
196.6579499531
 21
164.1983285802
 31
0.0
  0
LINE
  5
B4
330
1F
100
AcDbEntity
  8
0
  6
Continuous
 62
     7
370
    15
100
AcDbLine
 10
243.587257235
 20
164.1983285802
 30
0.0
 11
245.9345123607
 21
164.1983285802
 31
0.0
  0
LINE
  5
B5
330
1F
100
AcDbEntity
  8
0
  6
Continuous
 62
     8
370
     0
100
AcDbLine
 10
305.130347504
 20
205.7883449155
 30
0.0
 11
135.1148336071
 21
205.7883449155
 31
0.0
  0
LINE
  5
B6
330
1F
100
AcDbEntity
  8
0
  6
Continuous
 62
     8
370
     0
100
AcDbLine
 10
303.9655907887
 20
204.4448161754
 30
0.0
 11
136.2795903224
 21
204.4448161754
 31
0.0
  0
SPLINE
  5
B7
330
1F
100
AcDbEntity
  8
0
  6
Continuous
 62
     8
370
     0
100
AcDbSpline
210
0.0
220
0.0
230
1.0
 70
     8
 71
     3
 72
    27
 73
    23
 74
     0
 42
0.00000001
 43
0.00000001
 12
1.0
 22
0.0
 32
0.0
 13
1.0
 23
0.0
 33
0.0
 40
0.0
 40
0.0
 40
0.0
 40
0.0
 40
0.0036239543223834
 40
0.0565688917801771
 40
0.1110492314891675
 40
0.163994164147482
 40
0.2184745498952478
 40
0.2714194694671028
 40
0.3258998298452362
 40
0.3788447800184025
 40
0.4333251215850564
 40
0.4862700690995341
 40
0.540750420846602
 40
0.5936953718784242
 40
0.6481757112937625
 40
0.7011206562768886
 40
0.7556010024776488
 40
0.8085459514350976
 40
0.8630262906480816
 40
0.9159712628442552
 40
0.9704516024476315
 40
1.0
 40
1.0
 40
1.0
 40
1.0
 10
194.14618973313
 20
133.3835095423049
 30
0.0
 10
194.1384493341142
 20
133.383509522415
 30
0.0
 10
194.0176239165421
 20
133.3835092119399
 30
0.0
 10
194.4716271811433
 20
133.383537144219
 30
0.0
 10
195.5474640376832
 20
133.3835475890377
 30
0.0
 10
197.4173411433437
 20
133.3835528961208
 30
0.0
 10
199.8900720794278
 20
133.3835667570457
 30
0.0
 10
202.9682523065951
 20
133.3835503180771
 30
0.0
 10
206.5018442590023
 20
133.3835572159799
 30
0.0
 10
210.4564402738505
 20
133.3835463879649
 30
0.0
 10
214.6483982552752
 20
133.3835375344018
 30
0.0
 10
219.0346501654749
 20
133.3835397004913
 30
0.0
 10
223.4120682562904
 20
133.3835397852016
 30
0.0
 10
227.7355271296459
 20
133.3835372842574
 30
0.0
 10
231.8048975772279
 20
133.3835473239715
 30
0.0
 10
235.5780102977511
 20
133.3835537980572
 30
0.0
 10
238.8810033379015
 20
133.3835633397612
 30
0.0
 10
241.6766786326431
 20
133.3835628074175
 30
0.0
 10
243.8473272413493
 20
133.3835554207691
 30
0.0
 10
245.326692147391
 20
133.3835414925554
 30
0.0
 10
246.0808979329341
 20
133.3835177408876
 30
0.0
 10
246.046214789982
 20
133.3835116752604
 30
0.0
 10
246.0340185898366
 20
133.3835095423049
 30
0.0
  0
SPLINE
  5
B8
330
1F
100
AcDbEntity
  8
0
  6
Continuous
 62
     8
370
     0
100
AcDbSpline
210
0.0
220
0.0
230
1.0
 70
     8
 71
     3
 72
    56
 73
    52
 74
     0
 42
0.00000001
 43
0.00000001
 12
1.0
 22
0.0
 32
0.0
 13
1.0
 23
0.0
 33
0.0
 40
0.0
 40
0.0
 40
0.0
 40
0.0
 40
0.0021166797789661
 40
0.0213822811898299
 40
0.040731522931529
 40
0.0596694417668672
 40
0.0788722471250217
 40
0.0982683145012274
 40
0.1171355227097785
 40
0.1553836953252584
 40
0.1740632600416613
 40
0.1930917637009251
 40
0.2026921503195646
 40
0.2122926976334237
 40
0.2312184681454266
 40
0.250032972826893
 40
0.2695802221233748
 40
0.288516962414912
 40
0.3078616444232145
 40
0.3271252168897151
 40
0.3460418467973869
 40
0.3648591985279498
 40
0.3842990446290159
 40
0.4033323299019674
 40
0.4225162368285959
 40
0.4606804866244829
 40
0.4987439917150764
 40
0.5370551279436959
 40
0.5753837321097995
 40
0.5945429418648402
 40
0.613951138493208
 40
0.6526701533741157
 40
0.6718366578358042
 40
0.6915241286536855
 40
0.7107647394285486
 40
0.7300153032841857
 40
0.7492000921252006
 40
0.7682599648712937
 40
0.7876315676856686
 40
0.8065011057952669
 40
0.8251542952052382
 40
0.8440443126052711
 40
0.8631096965368078
 40
0.8819735738087678
 40
0.900956624195864
 40
0.9204187577013929
 40
0.93988927081466
 40
0.9590881523900533
 40
0.9779515937035831
 40
0.9971510313442714
 40
1.0
 40
1.0
 40
1.0
 40
1.0
 10
195.2735389458957
 20
131.8572283047026
 30
0.0
 10
195.2734386154843
 20
131.8572260639812
 30
0.0
 10
195.2724250974779
 20
131.8572034286553
 30
0.0
 10
195.3539876903592
 20
131.8570187132173
 30
0.0
 10
195.5231280373829
 20
131.8570735619579
 30
0.0
 10
195.7873111689818
 20
131.8571597406297
 30
0.0
 10
196.1344892533108
 20
131.8573032405409
 30
0.0
 10
196.5675578472243
 20
131.8572227895778
 30
0.0
 10
197.2538672717017
 20
131.857048396736
 30
0.0
 10
198.0923163580853
 20
131.8574390175417
 30
0.0
 10
199.0834679632932
 20
131.8573059673364
 30
0.0
 10
199.7608891389586
 20
131.857165742486
 30
0.0
 10
200.343200299349
 20
131.8571683592825
 30
0.0
 10
200.9470203388686
 20
131.8571736758481
 30
0.0
 10
201.7386811236335
 20
131.8571264256763
 30
0.0
 10
202.7598212857633
 20
131.8571452010427
 30
0.0
 10
203.8423747202399
 20
131.8570800665493
 30
0.0
 10
204.9922243956932
 20
131.8572308427892
 30
0.0
 10
206.1897406359613
 20
131.8573718216753
 30
0.0
 10
207.4365913595565
 20
131.8573230901479
 30
0.0
 10
208.7161005684113
 20
131.8572012946803
 30
0.0
 10
210.0383511130924
 20
131.8573780016211
 30
0.0
 10
211.3986465220779
 20
131.8575627360438
 30
0.0
 10
212.7988132196413
 20
131.8574835149888
 30
0.0
 10
214.687539877845
 20
131.8573016295147
 30
0.0
 10
217.0999616924119
 20
131.8573061894742
 30
0.0
 10
220.0374452255101
 20
131.8572020545699
 30
0.0
 10
222.9804650547229
 20
131.8572100812833
 30
0.0
 10
225.4054694739056
 20
131.8571588707481
 30
0.0
 10
227.3100916523655
 20
131.8572678544896
 30
0.0
 10
229.1903322430473
 20
131.8574826067282
 30
0.0
 10
231.0101643646615
 20
131.8570815291415
 30
0.0
 10
232.7542745431691
 20
131.8573555733399
 30
0.0
 10
234.015197513955
 20
131.8574768136762
 30
0.0
 10
235.2273068994227
 20
131.8574467509645
 30
0.0
 10
236.3752942295203
 20
131.8573132892443
 30
0.0
 10
237.4628183157213
 20
131.8573852406685
 30
0.0
 10
238.4915284408467
 20
131.8573643595007
 30
0.0
 10
239.4498964650772
 20
131.8572407918018
 30
0.0
 10
240.3347493380859
 20
131.8572679673676
 30
0.0
 10
241.1440602409367
 20
131.8573685594535
 30
0.0
 10
241.8847482961733
 20
131.8573890410578
 30
0.0
 10
242.552897524691
 20
131.8572940920071
 30
0.0
 10
243.1445377351864
 20
131.8570757772904
 30
0.0
 10
243.6616733277978
 20
131.8572378895402
 30
0.0
 10
244.1007634770034
 20
131.857304832405
 30
0.0
 10
244.453161315832
 20
131.8572264478253
 30
0.0
 10
244.7199721650291
 20
131.857074469372
 30
0.0
 10
244.8833190801323
 20
131.8571331903844
 30
0.0
 10
244.9850975414151
 20
131.8571690237969
 30
0.0
 10
244.9665805223259
 20
131.8572083252349
 30
0.0
 10
244.9641878592792
 20
131.8572134035414
 30
0.0
  0
LINE
  5
B9
330
1F
100
AcDbEntity
  8
0
  6
Continuous
 62
     8
370
     0
100
AcDbLine
 10
242.520730837
 20
160.7153944927
 30
0.0
 11
238.2615542847
 21
160.7153944927
 31
0.0
  0
LINE
  5
BA
330
1F
100
AcDbEntity
  8
0
  6
Continuous
 62
     8
370
     0
100
AcDbLine
 10
201.9836529034
 20
160.7153944927
 30
0.0
 11
197.7244763511
 21
160.7153944927
 31
0.0
  0
LINE
  5
BB
330
1F
100
AcDbEntity
  8
0
  6
Continuous
 62
     8
370
     0
100
AcDbLine
 10
244.1226038027
 20
169.2391604441
 30
0.0
 11
196.1226033854
 21
169.2391604441
 31
0.0
  0
ENDSEC
  0
SECTION
  2
OBJECTS
  0
DICTIONARY
  5
C
330
0
100
AcDbDictionary
281
     1
  3
ACAD_GROUP
350
D
  3
ACAD_LAYOUT
350
1A
  3
ACAD_MATERIAL
350
3B
  3
ACAD_MLEADERSTYLE
350
BD
  3
ACAD_MLINESTYLE
350
17
  3
ACAD_PLOTSETTINGS
350
19
  3
ACAD_PLOTSTYLENAME
350
E
  3
ACAD_TABLESTYLE
350
BC
  3
ACAD_VISUALSTYLE
350
2A
  0
DICTIONARY
  5
D
102
{ACAD_REACTORS
330
C
102
}
330
C
100
AcDbDictionary
281
     1
  0
DICTIONARY
  5
1A
102
{ACAD_REACTORS
330
C
102
}
330
C
100
AcDbDictionary
281
     1
  3
Layout1
350
1E
  3
Layout2
350
26
  3
Model
350
22
  0
DICTIONARY
  5
3B
102
{ACAD_REACTORS
330
C
102
}
330
C
100
AcDbDictionary
281
     1
  3
ByBlock
350
3D
  3
ByLayer
350
3C
  3
Global
350
3E
  0
DICTIONARY
  5
BD
102
{ACAD_REACTORS
330
C
102
}
330
C
100
AcDbDictionary
281
     1
  0
DICTIONARY
  5
17
102
{ACAD_REACTORS
330
C
102
}
330
C
100
AcDbDictionary
281
     1
  3
Standard
350
18
  0
DICTIONARY
  5
19
102
{ACAD_REACTORS
330
C
102
}
330
C
100
AcDbDictionary
281
     1
  0
ACDBDICTIONARYWDFLT
  5
E
102
{ACAD_REACTORS
330
C
102
}
330
C
100
AcDbDictionary
281
     1
  3
Normal
350
F
100
AcDbDictionaryWithDefault
340
F
  0
DICTIONARY
  5
BC
102
{ACAD_REACTORS
330
C
102
}
330
C
100
AcDbDictionary
281
     1
  0
DICTIONARY
  5
2A
102
{ACAD_REACTORS
330
C
102
}
330
C
100
AcDbDictionary
281
     1
  3
2dWireframe
350
2F
  3
3D Hidden
350
31
  3
3dWireframe
350
30
  3
Basic
350
32
  3
Brighten
350
36
  3
ColorChange
350
3A
  3
Conceptual
350
34
  3
Dim
350
35
  3
Facepattern
350
39
  3
Flat
350
2B
  3
FlatWithEdges
350
2C
  3
Gouraud
350
2D
  3
GouraudWithEdges
350
2E
  3
Linepattern
350
38
  3
Realistic
350
33
  3
Thicken
350
37
  0
LAYOUT
  5
1E
102
{ACAD_REACTORS
330
1A
102
}
330
1A
100
AcDbPlotSettings
  1

  2
none_device
  4

  6

 40
0.0
 41
0.0
 42
0.0
 43
0.0
 44
0.0
 45
0.0
 46
0.0
 47
0.0
 48
0.0
 49
0.0
140
0.0
141
0.0
142
1.0
143
1.0
 70
   688
 72
     0
 73
     0
 74
     5
  7

 75
    16
 76
     0
 77
     2
 78
   300
147
1.0
148
0.0
149
0.0
100
AcDbLayout
  1
Layout1
 70
     1
 71
     1
 10
0.0
 20
0.0
 11
420.0
 21
297.0
 12
0.0
 22
0.0
 32
0.0
 14
1.0000000000E+20
 24
1.0000000000E+20
 34
1.0000000000E+20
 15
-1.0000000000E+20
 25
-1.0000000000E+20
 35
-1.0000000000E+20
146
0.0
 13
0.0
 23
0.0
 33
0.0
 16
1.0
 26
0.0
 36
0.0
 17
0.0
 27
1.0
 37
0.0
 76
     0
330
1B
  0
LAYOUT
  5
26
102
{ACAD_REACTORS
330
1A
102
}
330
1A
100
AcDbPlotSettings
  1

  2
none_device
  4

  6

 40
0.0
 41
0.0
 42
0.0
 43
0.0
 44
0.0
 45
0.0
 46
0.0
 47
0.0
 48
0.0
 49
0.0
140
0.0
141
0.0
142
1.0
143
1.0
 70
   688
 72
     0
 73
     0
 74
     5
  7

 75
    16
 76
     0
 77
     2
 78
   300
147
1.0
148
0.0
149
0.0
100
AcDbLayout
  1
Layout2
 70
     1
 71
     2
 10
0.0
 20
0.0
 11
0.0
 21
0.0
 12
0.0
 22
0.0
 32
0.0
 14
0.0
 24
0.0
 34
0.0
 15
0.0
 25
0.0
 35
0.0
146
0.0
 13
0.0
 23
0.0
 33
0.0
 16
1.0
 26
0.0
 36
0.0
 17
0.0
 27
1.0
 37
0.0
 76
     0
330
23
  0
LAYOUT
  5
22
102
{ACAD_REACTORS
330
1A
102
}
330
1A
100
AcDbPlotSettings
  1

  2
none_device
  4

  6

 40
0.0
 41
0.0
 42
0.0
 43
0.0
 44
0.0
 45
0.0
 46
0.0
 47
0.0
 48
0.0
 49
0.0
140
0.0
141
0.0
142
1.0
143
1.0
 70
  1712
 72
     0
 73
     0
 74
     0
  7

 75
     0
 76
     0
 77
     2
 78
   300
147
1.0
148
0.0
149
0.0
100
AcDbLayout
  1
Model
 70
     1
 71
     0
 10
0.0
 20
0.0
 11
594.0
 21
841.0
 12
0.0
 22
0.0
 32
0.0
 14
0.0
 24
0.0
 34
0.0
 15
594.0
 25
841.0
 35
0.0
146
0.0
 13
0.0
 23
0.0
 33
0.0
 16
1.0
 26
0.0
 36
0.0
 17
0.0
 27
1.0
 37
0.0
 76
     0
330
1F
331
29
  0
MATERIAL
  5
3D
102
{ACAD_REACTORS
330
3B
102
}
330
3B
100
AcDbMaterial
  1
ByBlock
 72
     1
 94
      127
  0
MATERIAL
  5
3C
102
{ACAD_REACTORS
330
3B
102
}
330
3B
100
AcDbMaterial
  1
ByLayer
 72
     1
 94
      127
  0
MATERIAL
  5
3E
102
{ACAD_REACTORS
330
3B
102
}
330
3B
100
AcDbMaterial
  1
Global
 72
     1
 94
      127
  0
MLINESTYLE
  5
18
102
{ACAD_REACTORS
330
17
102
}
330
17
100
AcDbMlineStyle
  2
Standard
 70
     0
  3

 62
   256
 51
90.0
 52
90.0
 71
     2
 49
0.5
 62
   256
  6
BYLAYER
 49
-0.5
 62
   256
  6
BYLAYER
  0
ACDBPLACEHOLDER
  5
F
102
{ACAD_REACTORS
330
E
102
}
330
E
  0
VISUALSTYLE
  5
2F
102
{ACAD_REACTORS
330
2A
102
}
330
2A
100
AcDbVisualStyle
  2
2dWireframe
 70
     4
177
     2
291
     0
 71
     0
176
     1
 72
     2
176
     1
 73
     0
176
     1
 90
        0
176
     1
 40
-0.6
176
     1
 41
-30.0
176
     1
 62
     5
 63
     7
421
 16777215
176
     1
 74
     1
176
     1
 91
        4
176
     1
 64
     7
176
     1
 65
   257
176
     1
 75
     1
176
     1
175
     1
176
     1
 42
1.0
176
     1
 92
        0
176
     1
 66
   257
176
     1
 43
1.0
176
     1
 76
     1
176
     1
 77
     6
176
     1
 78
     2
176
     1
 67
     7
176
     1
 79
     5
176
     1
170
     0
176
     1
171
     0
176
     1
290
     0
176
     1
 93
        1
176
     1
 44
0.0
176
     1
173
     0
176
     1
  0
VISUALSTYLE
  5
31
102
{ACAD_REACTORS
330
2A
102
}
330
2A
100
AcDbVisualStyle
  2
3D Hidden
 70
     6
177
     2
291
     0
 71
     1
176
     1
 72
     2
176
     1
 73
     2
176
     1
 90
        0
176
     1
 40
-0.6
176
     1
 41
-30.0
176
     1
 62
     5
 63
     7
421
 16777215
176
     1
 74
     2
176
     1
 91
        2
176
     1
 64
     7
176
     1
 65
   257
176
     1
 75
     2
176
     1
175
     1
176
     1
 42
40.0
176
     1
 92
        0
176
     1
 66
   257
176
     1
 43
1.0
176
     1
 76
     1
176
     1
 77
     6
176
     1
 78
     2
176
     1
 67
     7
176
     1
 79
     3
176
     1
170
     0
176
     1
171
     0
176
     1
290
     0
176
     1
 93
        1
176
     1
 44
0.0
176
     1
173
     0
176
     1
  0
VISUALSTYLE
  5
30
102
{ACAD_REACTORS
330
2A
102
}
330
2A
100
AcDbVisualStyle
  2
3dWireframe
 70
     5
177
     2
291
     0
 71
     0
176
     1
 72
     2
176
     1
 73
     0
176
     1
 90
        0
176
     1
 40
-0.6
176
     1
 41
-30.0
176
     1
 62
     5
 63
     7
421
 16777215
176
     1
 74
     1
176
     1
 91
        4
176
     1
 64
     7
176
     1
 65
   257
176
     1
 75
     1
176
     1
175
     1
176
     1
 42
1.0
176
     1
 92
        0
176
     1
 66
   257
176
     1
 43
1.0
176
     1
 76
     1
176
     1
 77
     6
176
     1
 78
     2
176
     1
 67
     7
176
     1
 79
     5
176
     1
170
     0
176
     1
171
     0
176
     1
290
     0
176
     1
 93
        1
176
     1
 44
0.0
176
     1
173
     0
176
     1
  0
VISUALSTYLE
  5
32
102
{ACAD_REACTORS
330
2A
102
}
330
2A
100
AcDbVisualStyle
  2
Basic
 70
     7
177
     2
291
     1
 71
     1
176
     1
 72
     0
176
     1
 73
     1
176
     1
 90
        0
176
     1
 40
-0.6
176
     1
 41
-30.0
176
     1
 62
     5
 63
     7
421
 16777215
176
     1
 74
     0
176
     1
 91
        4
176
     1
 64
     7
176
     1
 65
   257
176
     1
 75
     1
176
     1
175
     1
176
     1
 42
1.0
176
     1
 92
        8
176
     1
 66
     7
176
     1
 43
1.0
176
     1
 76
     1
176
     1
 77
     6
176
     1
 78
     2
176
     1
 67
     7
176
     1
 79
     5
176
     1
170
     0
176
     1
171
     0
176
     1
290
     0
176
     1
 93
        1
176
     1
 44
0.0
176
     1
173
     0
176
     1
  0
VISUALSTYLE
  5
36
102
{ACAD_REACTORS
330
2A
102
}
330
2A
100
AcDbVisualStyle
  2
Brighten
 70
    12
177
     2
291
     1
 71
     2
176
     1
 72
     2
176
     1
 73
     0
176
     1
 90
        0
176
     1
 40
-0.6
176
     1
 41
-30.0
176
     1
 62
     5
 63
     7
421
 16777215
176
     1
 74
     1
176
     1
 91
        4
176
     1
 64
     7
176
     1
 65
   257
176
     1
 75
     1
176
     1
175
     1
176
     1
 42
1.0
176
     1
 92
        8
176
     1
 66
     7
176
     1
 43
1.0
176
     1
 76
     1
176
     1
 77
     6
176
     1
 78
     2
176
     1
 67
     7
176
     1
 79
     5
176
     1
170
     0
176
     1
171
     0
176
     1
290
     0
176
     1
 93
        1
176
     1
 44
50.0
176
     1
173
     0
176
     1
  0
VISUALSTYLE
  5
3A
102
{ACAD_REACTORS
330
2A
102
}
330
2A
100
AcDbVisualStyle
  2
ColorChange
 70
    16
177
     2
291
     1
 71
     2
176
     1
 72
     2
176
     1
 73
     3
176
     1
 90
        0
176
     1
 40
-0.6
176
     1
 41
-30.0
176
     1
 62
     5
 63
     8
421
  8421504
176
     1
 74
     1
176
     1
 91
        4
176
     1
 64
     7
176
     1
 65
   257
176
     1
 75
     1
176
     1
175
     1
176
     1
 42
1.0
176
     1
 92
        8
176
     1
 66
     8
424
  8421504
176
     1
 43
1.0
176
     1
 76
     1
176
     1
 77
     6
176
     1
 78
     2
176
     1
 67
     7
176
     1
 79
     5
176
     1
170
     0
176
     1
171
     0
176
     1
290
     0
176
     1
 93
        1
176
     1
 44
0.0
176
     1
173
     0
176
     1
  0
VISUALSTYLE
  5
34
102
{ACAD_REACTORS
330
2A
102
}
330
2A
100
AcDbVisualStyle
  2
Conceptual
 70
     9
177
     2
291
     0
 71
     3
176
     1
 72
     2
176
     1
 73
     0
176
     1
 90
        0
176
     1
 40
-0.6
176
     1
 41
-30.0
176
     1
 62
     5
 63
     7
421
 16777215
176
     1
 74
     2
176
     1
 91
        2
176
     1
 64
     7
176
     1
 65
   257
176
     1
 75
     1
176
     1
175
     1
176
     1
 42
40.0
176
     1
 92
        8
176
     1
 66
     7
176
     1
 43
1.0
176
     1
 76
     1
176
     1
 77
     6
176
     1
 78
     2
176
     1
 67
     7
176
     1
 79
     3
176
     1
170
     0
176
     1
171
     0
176
     1
290
     0
176
     1
 93
        1
176
     1
 44
0.0
176
     1
173
     0
176
     1
  0
VISUALSTYLE
  5
35
102
{ACAD_REACTORS
330
2A
102
}
330
2A
100
AcDbVisualStyle
  2
Dim
 70
    11
177
     2
291
     1
 71
     2
176
     1
 72
     2
176
     1
 73
     0
176
     1
 90
        0
176
     1
 40
-0.6
176
     1
 41
-30.0
176
     1
 62
     5
 63
     7
421
 16777215
176
     1
 74
     1
176
     1
 91
        4
176
     1
 64
     7
176
     1
 65
   257
176
     1
 75
     1
176
     1
175
     1
176
     1
 42
1.0
176
     1
 92
        8
176
     1
 66
     7
176
     1
 43
1.0
176
     1
 76
     1
176
     1
 77
     6
176
     1
 78
     2
176
     1
 67
     7
176
     1
 79
     5
176
     1
170
     0
176
     1
171
     0
176
     1
290
     0
176
     1
 93
        1
176
     1
 44
-50.0
176
     1
173
     0
176
     1
  0
VISUALSTYLE
  5
39
102
{ACAD_REACTORS
330
2A
102
}
330
2A
100
AcDbVisualStyle
  2
Facepattern
 70
    15
177
     2
291
     1
 71
     2
176
     1
 72
     2
176
     1
 73
     0
176
     1
 90
        0
176
     1
 40
-0.6
176
     1
 41
-30.0
176
     1
 62
     5
 63
     7
421
 16777215
176
     1
 74
     1
176
     1
 91
        4
176
     1
 64
     7
176
     1
 65
   257
176
     1
 75
     1
176
     1
175
     1
176
     1
 42
1.0
176
     1
 92
        8
176
     1
 66
     7
176
     1
 43
1.0
176
     1
 76
     1
176
     1
 77
     6
176
     1
 78
     2
176
     1
 67
     7
176
     1
 79
     5
176
     1
170
     0
176
     1
171
     0
176
     1
290
     0
176
     1
 93
        1
176
     1
 44
0.0
176
     1
173
     0
176
     1
  0
VISUALSTYLE
  5
2B
102
{ACAD_REACTORS
330
2A
102
}
330
2A
100
AcDbVisualStyle
  2
Flat
 70
     0
177
     2
291
     1
 71
     2
176
     1
 72
     1
176
     1
 73
     1
176
     1
 90
        2
176
     1
 40
-0.6
176
     1
 41
30.0
176
     1
 62
     5
 63
     7
421
 16777215
176
     1
 74
     0
176
     1
 91
        4
176
     1
 64
     7
176
     1
 65
   257
176
     1
 75
     1
176
     1
175
     1
176
     1
 42
1.0
176
     1
 92
        8
176
     1
 66
     7
176
     1
 43
1.0
176
     1
 76
     1
176
     1
 77
     6
176
     1
 78
     2
176
     1
 67
     7
176
     1
 79
     5
176
     1
170
     0
176
     1
171
     0
176
     1
290
     0
176
     1
 93
       13
176
     1
 44
0.0
176
     1
173
     0
176
     1
  0
VISUALSTYLE
  5
2C
102
{ACAD_REACTORS
330
2A
102
}
330
2A
100
AcDbVisualStyle
  2
FlatWithEdges
 70
     1
177
     2
291
     1
 71
     2
176
     1
 72
     1
176
     1
 73
     1
176
     1
 90
        2
176
     1
 40
-0.6
176
     1
 41
30.0
176
     1
 62
     5
 63
     7
421
 16777215
176
     1
 74
     1
176
     1
 91
        4
176
     1
 64
     7
176
     1
 65
   257
176
     1
 75
     1
176
     1
175
     1
176
     1
 42
1.0
176
     1
 92
        0
176
     1
 66
   257
176
     1
 43
1.0
176
     1
 76
     1
176
     1
 77
     6
176
     1
 78
     2
176
     1
 67
     7
176
     1
 79
     5
176
     1
170
     0
176
     1
171
     0
176
     1
290
     0
176
     1
 93
       13
176
     1
 44
0.0
176
     1
173
     0
176
     1
  0
VISUALSTYLE
  5
2D
102
{ACAD_REACTORS
330
2A
102
}
330
2A
100
AcDbVisualStyle
  2
Gouraud
 70
     2
177
     2
291
     1
 71
     2
176
     1
 72
     2
176
     1
 73
     1
176
     1
 90
        2
176
     1
 40
-0.6
176
     1
 41
30.0
176
     1
 62
     5
 63
     7
421
 16777215
176
     1
 74
     0
176
     1
 91
        4
176
     1
 64
     7
176
     1
 65
   257
176
     1
 75
     1
176
     1
175
     1
176
     1
 42
1.0
176
     1
 92
        0
176
     1
 66
     7
176
     1
 43
1.0
176
     1
 76
     1
176
     1
 77
     6
176
     1
 78
     2
176
     1
 67
     7
176
     1
 79
     5
176
     1
170
     0
176
     1
171
     0
176
     1
290
     0
176
     1
 93
       13
176
     1
 44
0.0
176
     1
173
     0
176
     1
  0
VISUALSTYLE
  5
2E
102
{ACAD_REACTORS
330
2A
102
}
330
2A
100
AcDbVisualStyle
  2
GouraudWithEdges
 70
     3
177
     2
291
     1
 71
     2
176
     1
 72
     2
176
     1
 73
     1
176
     1
 90
        2
176
     1
 40
-0.6
176
     1
 41
30.0
176
     1
 62
     5
 63
     7
421
 16777215
176
     1
 74
     1
176
     1
 91
        4
176
     1
 64
     7
176
     1
 65
   257
176
     1
 75
     1
176
     1
175
     1
176
     1
 42
1.0
176
     1
 92
        0
176
     1
 66
   257
176
     1
 43
1.0
176
     1
 76
     1
176
     1
 77
     6
176
     1
 78
     2
176
     1
 67
     7
176
     1
 79
     5
176
     1
170
     0
176
     1
171
     0
176
     1
290
     0
176
     1
 93
       13
176
     1
 44
0.0
176
     1
173
     0
176
     1
  0
VISUALSTYLE
  5
38
102
{ACAD_REACTORS
330
2A
102
}
330
2A
100
AcDbVisualStyle
  2
Linepattern
 70
    14
177
     2
291
     1
 71
     2
176
     1
 72
     2
176
     1
 73
     0
176
     1
 90
        0
176
     1
 40
-0.6
176
     1
 41
-30.0
176
     1
 62
     5
 63
     7
421
 16777215
176
     1
 74
     1
176
     1
 91
        4
176
     1
 64
     7
176
     1
 65
   257
176
     1
 75
     7
176
     1
175
     7
176
     1
 42
1.0
176
     1
 92
        8
176
     1
 66
     7
176
     1
 43
1.0
176
     1
 76
     1
176
     1
 77
     6
176
     1
 78
     2
176
     1
 67
     7
176
     1
 79
     5
176
     1
170
     0
176
     1
171
     0
176
     1
290
     0
176
     1
 93
        1
176
     1
 44
0.0
176
     1
173
     0
176
     1
  0
VISUALSTYLE
  5
33
102
{ACAD_REACTORS
330
2A
102
}
330
2A
100
AcDbVisualStyle
  2
Realistic
 70
     8
177
     2
291
     0
 71
     2
176
     1
 72
     2
176
     1
 73
     0
176
     1
 90
        0
176
     1
 40
-0.6
176
     1
 41
-30.0
176
     1
 62
     5
 63
     7
421
 16777215
176
     1
 74
     1
176
     1
 91
        0
176
     1
 64
     7
176
     1
 65
   257
176
     1
 75
     1
176
     1
175
     1
176
     1
 42
1.0
176
     1
 92
        8
176
     1
 66
     8
424
  7895160
176
     1
 43
1.0
176
     1
 76
     1
176
     1
 77
     6
176
     1
 78
     2
176
     1
 67
     7
176
     1
 79
     5
176
     1
170
     0
176
     1
171
     0
176
     1
290
     0
176
     1
 93
       13
176
     1
 44
0.0
176
     1
173
     0
176
     1
  0
VISUALSTYLE
  5
37
102
{ACAD_REACTORS
330
2A
102
}
330
2A
100
AcDbVisualStyle
  2
Thicken
 70
    13
177
     2
291
     1
 71
     2
176
     1
 72
     2
176
     1
 73
     0
176
     1
 90
        0
176
     1
 40
-0.6
176
     1
 41
-30.0
176
     1
 62
     5
 63
     7
421
 16777215
176
     1
 74
     1
176
     1
 91
        4
176
     1
 64
     7
176
     1
 65
   257
176
     1
 75
     1
176
     1
175
     1
176
     1
 42
1.0
176
     1
 92
       12
176
     1
 66
     7
176
     1
 43
1.0
176
     1
 76
     1
176
     1
 77
     6
176
     1
 78
     2
176
     1
 67
     7
176
     1
 79
     5
176
     1
170
     0
176
     1
171
     0
176
     1
290
     0
176
     1
 93
        1
176
     1
 44
0.0
176
     1
173
     0
176
     1
  0
ENDSEC
  0
EOF
