  0
SECTION
  2
HEADER
  9
$ACADVER
  1
AC1015
  9
$ACADMAINTVER
 70
     6
  9
$DWGCODEPAGE
  3
ANSI_1252
  9
$INSBASE
 10
0.0
 20
0.0
 30
0.0
  9
$EXTMIN
 10
0.0
 20
0.0
 30
0.0
  9
$EXTMAX
 10
841.0
 20
594.0
 30
0.0
  9
$LIMMIN
 10
0.0
 20
0.0
  9
$LIMMAX
 10
841.0
 20
594.0
  9
$ORTHOMODE
 70
     0
  9
$REGENMODE
 70
     1
  9
$FILLMODE
 70
     1
  9
$QTEXTMODE
 70
     0
  9
$MIRRTEXT
 70
     1
  9
$LTSCALE
 40
1.0
  9
$ATTMODE
 70
     1
  9
$TEXTSIZE
 40
10.0
  9
$TRACEWID
 40
1.0
  9
$TEXTSTYLE
  7
Standard
  9
$CLAYER
  8
0
  9
$CELTYPE
  6
ByLayer
  9
$CECOLOR
 62
   256
  9
$CELTSCALE
 40
1.0
  9
$DISPSILH
 70
     0
  9
$DIMSCALE
 40
1.0
  9
$DIMASZ
 40
2.5
  9
$DIMEXO
 40
0.0
  9
$DIMDLI
 40
3.75
  9
$DIMRND
 40
0.0
  9
$DIMDLE
 40
0.0
  9
$DIMEXE
 40
1.0
  9
$DIMTP
 40
0.0
  9
$DIMTM
 40
0.0
  9
$DIMTXT
 40
3.5
  9
$DIMCEN
 40
2.5
  9
$DIMTSZ
 40
0.0
  9
$DIMTOL
 70
     0
  9
$DIMLIM
 70
     0
  9
$DIMTIH
 70
     1
  9
$DIMTOH
 70
     1
  9
$DIMSE1
 70
     0
  9
$DIMSE2
 70
     0
  9
$DIMTAD
 70
     1
  9
$DIMZIN
 70
     0
  9
$DIMBLK
  1

  9
$DIMASO
 70
     1
  9
$DIMSHO
 70
     1
  9
$DIMPOST
  1

  9
$DIMAPOST
  1

  9
$DIMALT
 70
     0
  9
$DIMALTD
 70
     3
  9
$DIMALTF
 40
0.0393700787
  9
$DIMLFAC
 40
1.0
  9
$DIMTOFL
 70
     1
  9
$DIMTVP
 40
0.0
  9
$DIMTIX
 70
     0
  9
$DIMSOXD
 70
     0
  9
$DIMSAH
 70
     0
  9
$DIMBLK1
  1

  9
$DIMBLK2
  1

  9
$DIMSTYLE
  2
ISO-25
  9
$DIMCLRD
 70
     0
  9
$DIMCLRE
 70
     0
  9
$DIMCLRT
 70
     0
  9
$DIMTFAC
 40
1.0
  9
$DIMGAP
 40
1.5
  9
$DIMJUST
 70
     0
  9
$DIMSD1
 70
     0
  9
$DIMSD2
 70
     0
  9
$DIMTOLJ
 70
     0
  9
$DIMTZIN
 70
     0
  9
$DIMALTZ
 70
     0
  9
$DIMALTTZ
 70
     0
  9
$DIMUPT
 70
     0
  9
$DIMDEC
 70
     2
  9
$DIMTDEC
 70
     2
  9
$DIMALTU
 70
     2
  9
$DIMALTTD
 70
     3
  9
$DIMTXSTY
  7
Standard
  9
$DIMAUNIT
 70
     0
  9
$DIMADEC
 70
     2
  9
$DIMALTRND
 40
0.0
  9
$DIMAZIN
 70
     0
  9
$DIMDSEP
 70
    44
  9
$DIMATFIT
 70
     3
  9
$DIMFRAC
 70
     0
  9
$DIMLDRBLK
  1

  9
$DIMLUNIT
 70
     2
  9
$DIMLWD
 70
    -2
  9
$DIMLWE
 70
    -2
  9
$DIMTMOVE
 70
     0
  9
$LUNITS
 70
     2
  9
$LUPREC
 70
     2
  9
$SKETCHINC
 40
1.0
  9
$FILLETRAD
 40
10.0
  9
$AUNITS
 70
     0
  9
$AUPREC
 70
     2
  9
$MENU
  1
.
  9
$ELEVATION
 40
0.0
  9
$PELEVATION
 40
0.0
  9
$THICKNESS
 40
0.0
  9
$LIMCHECK
 70
     0
  9
$CHAMFERA
 40
10.0
  9
$CHAMFERB
 40
10.0
  9
$CHAMFERC
 40
20.0
  9
$CHAMFERD
 40
0.0
  9
$SKPOLY
 70
     0
  9
$TDCREATE
 40
2456813.461333669
  9
$TDUCREATE
 40
2456813.378000336
  9
$TDUPDATE
 40
2456813.461334213
  9
$TDUUPDATE
 40
2456813.37800088
  9
$TDINDWG
 40
0.0000000116
  9
$TDUSRTIMER
 40
0.0000000116
  9
$USRTIMER
 70
     1
  9
$ANGBASE
 50
0.0
  9
$ANGDIR
 70
     0
  9
$PDMODE
 70
     0
  9
$PDSIZE
 40
-1.0
  9
$PLINEWID
 40
0.0
  9
$SPLFRAME
 70
     0
  9
$SPLINETYPE
 70
     6
  9
$SPLINESEGS
 70
     8
  9
$HANDSEED
  5
18C
  9
$SURFTAB1
 70
     6
  9
$SURFTAB2
 70
     6
  9
$SURFTYPE
 70
     6
  9
$SURFU
 70
     6
  9
$SURFV
 70
     6
  9
$UCSBASE
  2

  9
$UCSNAME
  2

  9
$UCSORG
 10
0.0
 20
0.0
 30
0.0
  9
$UCSXDIR
 10
1.0
 20
0.0
 30
0.0
  9
$UCSYDIR
 10
0.0
 20
1.0
 30
0.0
  9
$UCSORTHOREF
  2

  9
$UCSORTHOVIEW
 70
     0
  9
$UCSORGTOP
 10
0.0
 20
0.0
 30
0.0
  9
$UCSORGBOTTOM
 10
0.0
 20
0.0
 30
0.0
  9
$UCSORGLEFT
 10
0.0
 20
0.0
 30
0.0
  9
$UCSORGRIGHT
 10
0.0
 20
0.0
 30
0.0
  9
$UCSORGFRONT
 10
0.0
 20
0.0
 30
0.0
  9
$UCSORGBACK
 10
0.0
 20
0.0
 30
0.0
  9
$PUCSBASE
  2

  9
$PUCSNAME
  2

  9
$PUCSORG
 10
0.0
 20
0.0
 30
0.0
  9
$PUCSXDIR
 10
1.0
 20
0.0
 30
0.0
  9
$PUCSYDIR
 10
0.0
 20
1.0
 30
0.0
  9
$PUCSORTHOREF
  2

  9
$PUCSORTHOVIEW
 70
     0
  9
$PUCSORGTOP
 10
0.0
 20
0.0
 30
0.0
  9
$PUCSORGBOTTOM
 10
0.0
 20
0.0
 30
0.0
  9
$PUCSORGLEFT
 10
0.0
 20
0.0
 30
0.0
  9
$PUCSORGRIGHT
 10
0.0
 20
0.0
 30
0.0
  9
$PUCSORGFRONT
 10
0.0
 20
0.0
 30
0.0
  9
$PUCSORGBACK
 10
0.0
 20
0.0
 30
0.0
  9
$USERI1
 70
     0
  9
$USERI2
 70
     0
  9
$USERI3
 70
     0
  9
$USERI4
 70
     0
  9
$USERI5
 70
     0
  9
$USERR1
 40
0.0
  9
$USERR2
 40
0.0
  9
$USERR3
 40
0.0
  9
$USERR4
 40
0.0
  9
$USERR5
 40
0.0
  9
$WORLDVIEW
 70
     1
  9
$SHADEDGE
 70
     3
  9
$SHADEDIF
 70
    70
  9
$TILEMODE
 70
     1
  9
$MAXACTVP
 70
    64
  9
$PINSBASE
 10
0.0
 20
0.0
 30
0.0
  9
$PLIMCHECK
 70
     0
  9
$PEXTMIN
 10
1.0000000000E+20
 20
1.0000000000E+20
 30
1.0000000000E+20
  9
$PEXTMAX
 10
-1.0000000000E+20
 20
-1.0000000000E+20
 30
-1.0000000000E+20
  9
$PLIMMIN
 10
0.0
 20
0.0
  9
$PLIMMAX
 10
420.0
 20
297.0
  9
$UNITMODE
 70
     0
  9
$VISRETAIN
 70
     1
  9
$PLINEGEN
 70
     0
  9
$PSLTSCALE
 70
     1
  9
$TREEDEPTH
 70
  3020
  9
$CMLSTYLE
  2
Standard
  9
$CMLJUST
 70
     0
  9
$CMLSCALE
 40
20.0
  9
$PROXYGRAPHICS
 70
     1
  9
$MEASUREMENT
 70
     1
  9
$CELWEIGHT
370
    -1
  9
$ENDCAPS
280
     0
  9
$JOINSTYLE
280
     0
  9
$LWDISPLAY
290
     1
  9
$INSUNITS
 70
     4
  9
$HYPERLINKBASE
  1

  9
$STYLESHEET
  1

  9
$XEDIT
290
     1
  9
$CEPSNTYPE
380
     0
  9
$PSTYLEMODE
290
     1
  9
$FINGERPRINTGUID
  2
{6BE6C435-5BEB-47B8-80B8-8BC1DD22614E}
  9
$VERSIONGUID
  2
{FAEB1C32-E019-11D5-929B-00C0DF256EC4}
  9
$EXTNAMES
290
     1
  9
$PSVPSCALE
 40
0.0
  9
$OLESTARTUP
290
     0
  0
ENDSEC
  0
SECTION
  2
CLASSES
  0
CLASS
  1
ACDBDICTIONARYWDFLT
  2
AcDbDictionaryWithDefault
  3
ObjectDBX Classes
 90
        0
280
     0
281
     0
  0
CLASS
  1
VISUALSTYLE
  2
AcDbVisualStyle
  3
ObjectDBX Classes
 90
     4095
280
     0
281
     0
  0
CLASS
  1
MATERIAL
  2
AcDbMaterial
  3
ObjectDBX Classes
 90
     1153
280
     0
281
     0
  0
CLASS
  1
ACDBPLACEHOLDER
  2
AcDbPlaceHolder
  3
ObjectDBX Classes
 90
        0
280
     0
281
     0
  0
CLASS
  1
LAYOUT
  2
AcDbLayout
  3
ObjectDBX Classes
 90
        0
280
     0
281
     0
  0
ENDSEC
  0
SECTION
  2
TABLES
  0
TABLE
  2
VPORT
  5
8
330
0
100
AcDbSymbolTable
 70
     1
  0
VPORT
  5
29
330
8
100
AcDbSymbolTableRecord
100
AcDbViewportTableRecord
  2
*Active
 70
     0
 10
0.0
 20
0.0
 11
1.0
 21
1.0
 12
420.5
 22
297.0
 13
0.0
 23
0.0
 14
10.0
 24
10.0
 15
10.0
 25
10.0
 16
0.0
 26
0.0
 36
1.0
 17
0.0
 27
0.0
 37
0.0
 40
594.0
 41
1.4158249158
 42
50.0
 43
0.0
 44
0.0
 50
0.0
 51
0.0
 71
     0
 72
  2000
 73
     1
 74
     3
 75
     0
 76
     0
 77
     0
 78
     0
281
     0
 65
     1
110
0.0
120
0.0
130
0.0
111
1.0
121
0.0
131
0.0
112
0.0
122
1.0
132
0.0
 79
     0
146
0.0
  0
ENDTAB
  0
TABLE
  2
LTYPE
  5
5
330
0
100
AcDbSymbolTable
 70
     6
  0
LTYPE
  5
14
330
5
100
AcDbSymbolTableRecord
100
AcDbLinetypeTableRecord
  2
ByBlock
 70
     0
  3

 72
    65
 73
     0
 40
0.0
  0
LTYPE
  5
15
330
5
100
AcDbSymbolTableRecord
100
AcDbLinetypeTableRecord
  2
ByLayer
 70
     0
  3

 72
    65
 73
     0
 40
0.0
  0
LTYPE
  5
16
330
5
100
AcDbSymbolTableRecord
100
AcDbLinetypeTableRecord
  2
Continuous
 70
     0
  3
Solid line
 72
    65
 73
     0
 40
0.0
  0
LTYPE
  5
3F
330
5
100
AcDbSymbolTableRecord
100
AcDbLinetypeTableRecord
  2
HIDDEN
 70
     0
  3
Hidden __ __ __ __ __ __ __ __ __ __ __ __ __ __
 72
    65
 73
     2
 40
1.905
 49
1.27
 74
     0
 49
-0.635
 74
     0
  0
LTYPE
  5
40
330
5
100
AcDbSymbolTableRecord
100
AcDbLinetypeTableRecord
  2
PHANTOM
 70
     0
  3
Phantom ______  __  __  ______  __  __  ______
 72
    65
 73
     6
 40
12.7
 49
6.35
 74
     0
 49
-1.27
 74
     0
 49
1.27
 74
     0
 49
-1.27
 74
     0
 49
1.27
 74
     0
 49
-1.27
 74
     0
  0
LTYPE
  5
41
330
5
100
AcDbSymbolTableRecord
100
AcDbLinetypeTableRecord
  2
CENTER
 70
     0
  3
Center ____ _ ____ _ ____ _ ____ _ ____ _ ____
 72
    65
 73
     4
 40
10.16
 49
6.35
 74
     0
 49
-1.27
 74
     0
 49
1.27
 74
     0
 49
-1.27
 74
     0
  0
LTYPE
  5
42
330
5
100
AcDbSymbolTableRecord
100
AcDbLinetypeTableRecord
  2
CENTERX2
 70
     0
  3
Center (2x) ________  __  ________  __  _____
 72
    65
 73
     4
 40
20.32
 49
12.7
 74
     0
 49
-2.54
 74
     0
 49
2.54
 74
     0
 49
-2.54
 74
     0
  0
LTYPE
  5
43
330
5
100
AcDbSymbolTableRecord
100
AcDbLinetypeTableRecord
  2
DOT2
 70
     0
  3
Dot (.5x) ........................................
 72
    65
 73
     2
 40
0.635
 49
0.0
 74
     0
 49
-0.635
 74
     0
  0
ENDTAB
  0
TABLE
  2
LAYER
  5
2
330
0
100
AcDbSymbolTable
 70
     1
  0
LAYER
  5
10
330
2
100
AcDbSymbolTableRecord
100
AcDbLayerTableRecord
  2
0
 70
     0
 62
     7
  6
Continuous
370
    -3
390
F
  0
ENDTAB
  0
TABLE
  2
STYLE
  5
3
330
0
100
AcDbSymbolTable
 70
     3
  0
STYLE
  5
11
330
3
100
AcDbSymbolTableRecord
100
AcDbTextStyleTableRecord
  2
Standard
 70
     0
 40
0.0
 41
1.0
 50
0.0
 71
     0
 42
10.0
  3
txt
  4

  0
STYLE
  5
47
330
3
100
AcDbSymbolTableRecord
100
AcDbTextStyleTableRecord
  2
SLDTEXTSTYLE0
 70
     0
 40
0.0
 41
0.96
 50
0.0
 71
     0
 42
0.2
  3
ISOCP3
  4

  0
STYLE
  5
5E
330
3
100
AcDbSymbolTableRecord
100
AcDbTextStyleTableRecord
  2
SLDTEXTSTYLE1
 70
     0
 40
0.0
 41
0.605
 50
0.0
 71
     0
 42
0.2
  3
TXT
  4

  0
ENDTAB
  0
TABLE
  2
VIEW
  5
6
330
0
100
AcDbSymbolTable
 70
     0
  0
ENDTAB
  0
TABLE
  2
UCS
  5
7
330
0
100
AcDbSymbolTable
 70
     0
  0
ENDTAB
  0
TABLE
  2
APPID
  5
9
330
0
100
AcDbSymbolTable
 70
     1
  0
APPID
  5
12
330
9
100
AcDbSymbolTableRecord
100
AcDbRegAppTableRecord
  2
ACAD
 70
     0
  0
ENDTAB
  0
TABLE
  2
DIMSTYLE
  5
A
330
0
100
AcDbSymbolTable
 70
     2
100
AcDbDimStyleTable
  0
DIMSTYLE
105
27
330
A
100
AcDbSymbolTableRecord
100
AcDbDimStyleTableRecord
  2
ISO-25
 70
     0
 41
2.5
 42
0.625
 43
3.75
 44
1.25
 73
     0
 74
     0
 77
     1
 78
     8
140
2.5
141
2.5
143
0.0393700787
147
0.625
171
     3
172
     1
178
     0
271
     2
272
     2
274
     3
278
    44
283
     0
284
     8
340
11
  0
DIMSTYLE
105
48
102
{ACAD_REACTORS
330
46
330
53
102
}
330
A
100
AcDbSymbolTableRecord
100
AcDbDimStyleTableRecord
  2
SLDDIMSTYLE0
 70
     0
 41
2.5
 44
0.0
 45
0.000000001
 73
     0
 74
     0
 77
     1
 78
    12
 79
     3
140
6.0
147
1.5
173
     1
178
     0
271
     2
272
     2
276
     2
284
    12
340
47
  0
ENDTAB
  0
TABLE
  2
BLOCK_RECORD
  5
1
330
0
100
AcDbSymbolTable
 70
     3
  0
BLOCK_RECORD
  5
1F
330
1
100
AcDbSymbolTableRecord
100
AcDbBlockTableRecord
  2
*Model_Space
340
22
  0
BLOCK_RECORD
  5
1B
330
1
100
AcDbSymbolTableRecord
100
AcDbBlockTableRecord
  2
*Paper_Space
340
1E
  0
BLOCK_RECORD
  5
23
330
1
100
AcDbSymbolTableRecord
100
AcDbBlockTableRecord
  2
*Paper_Space0
340
26
  0
BLOCK_RECORD
  5
49
330
1
100
AcDbSymbolTableRecord
100
AcDbBlockTableRecord
  2
_D
340
0
  0
BLOCK_RECORD
  5
54
330
1
100
AcDbSymbolTableRecord
100
AcDbBlockTableRecord
  2
_D_1
340
0
  0
ENDTAB
  0
ENDSEC
  0
SECTION
  2
BLOCKS
  0
BLOCK
  5
20
330
1F
100
AcDbEntity
  8
0
100
AcDbBlockBegin
  2
*Model_Space
 70
     0
 10
0.0
 20
0.0
 30
0.0
  3
*Model_Space
  1

  0
ENDBLK
  5
21
330
1F
100
AcDbEntity
  8
0
100
AcDbBlockEnd
  0
BLOCK
  5
1C
330
1B
100
AcDbEntity
 67
     1
  8
0
100
AcDbBlockBegin
  2
*Paper_Space
 70
     0
 10
0.0
 20
0.0
 30
0.0
  3
*Paper_Space
  1

  0
ENDBLK
  5
1D
330
1B
100
AcDbEntity
 67
     1
  8
0
100
AcDbBlockEnd
  0
BLOCK
  5
24
330
23
100
AcDbEntity
  8
0
100
AcDbBlockBegin
  2
*Paper_Space0
 70
     0
 10
0.0
 20
0.0
 30
0.0
  3
*Paper_Space0
  1

  0
ENDBLK
  5
25
330
23
100
AcDbEntity
  8
0
100
AcDbBlockEnd
  0
BLOCK
  5
4A
330
49
100
AcDbEntity
  8
0
100
AcDbBlockBegin
  2
_D
 70
     0
 10
0.0
 20
0.0
 30
0.0
  3
_D
  1

  0
SOLID
  5
4C
330
49
100
AcDbEntity
  8
0
  6
Continuous
 62
     7
370
     0
100
AcDbTrace
 10
42.7614395004
 20
152.0299240879
 30
0.0
 11
42.4614395004
 21
149.5299240879
 31
0.0
 12
43.0614395004
 22
149.5299240879
 32
0.0
 13
43.0614395004
 23
149.5299240879
 33
0.0
  0
SOLID
  5
4D
330
49
100
AcDbEntity
  8
0
  6
Continuous
 62
     7
370
     0
100
AcDbTrace
 10
42.7614395004
 20
52.0299240879
 30
0.0
 11
43.0614395004
 21
54.5299240879
 31
0.0
 12
42.4614395004
 22
54.5299240879
 32
0.0
 13
42.4614395004
 23
54.5299240879
 33
0.0
  0
LINE
  5
4E
330
49
100
AcDbEntity
  8
0
  6
Continuous
 62
     7
370
     0
100
AcDbLine
 10
56.6850079902
 20
152.0299240879
 30
0.0
 11
41.7614395004
 21
152.0299240879
 31
0.0
  0
LINE
  5
4F
330
49
100
AcDbEntity
  8
0
  6
Continuous
 62
     7
370
     0
100
AcDbLine
 10
56.6850079902
 20
52.0299240879
 30
0.0
 11
41.7614395004
 21
52.0299240879
 31
0.0
  0
LINE
  5
50
330
49
100
AcDbEntity
  8
0
  6
Continuous
 62
     7
370
     0
100
AcDbLine
 10
42.7614395004
 20
152.0299240879
 30
0.0
 11
42.7614395004
 21
52.0299240879
 31
0.0
  0
MTEXT
  5
51
330
49
100
AcDbEntity
  8
0
  6
Continuous
 62
     7
370
     0
100
AcDbMText
 10
35.0270332946
 20
91.6722208134
 30
0.1
 40
6.0
 41
0.0
 71
     1
 72
     1
  1
100
  7
SLDTEXTSTYLE0
 11
-7.044195017643634E-15
 21
1.0
 31
0.0
 73
     1
 44
1.0
  0
MTEXT
  5
52
330
49
100
AcDbEntity
  8
0
  6
Continuous
 62
     7
370
     0
100
AcDbMText
 10
35.0270332946
 20
108.4388881795
 30
0.1
 40
6.0
 41
0.0
 71
     1
 72
     1
  1
mm
  7
SLDTEXTSTYLE0
 11
-7.044195017643634E-15
 21
1.0
 31
0.0
 73
     1
 44
1.0
  0
ENDBLK
  5
4B
330
49
100
AcDbEntity
  8
0
100
AcDbBlockEnd
  0
BLOCK
  5
55
330
54
100
AcDbEntity
  8
0
100
AcDbBlockBegin
  2
_D_1
 70
     0
 10
0.0
 20
0.0
 30
0.0
  3
_D_1
  1

  0
SOLID
  5
57
330
54
100
AcDbEntity
  8
0
  6
Continuous
 62
     7
370
     0
100
AcDbTrace
 10
56.6850079902
 20
38.4602342313
 30
0.0
 11
59.1850079902
 21
38.1602342313
 31
0.0
 12
59.1850079902
 22
38.7602342313
 32
0.0
 13
59.1850079902
 23
38.7602342313
 33
0.0
  0
SOLID
  5
58
330
54
100
AcDbEntity
  8
0
  6
Continuous
 62
     7
370
     0
100
AcDbTrace
 10
156.6850079902
 20
38.4602342313
 30
0.0
 11
154.1850079902
 21
38.7602342313
 31
0.0
 12
154.1850079902
 22
38.1602342313
 32
0.0
 13
154.1850079902
 23
38.1602342313
 33
0.0
  0
LINE
  5
59
330
54
100
AcDbEntity
  8
0
  6
Continuous
 62
     7
370
     0
100
AcDbLine
 10
56.6850079902
 20
52.0299240879
 30
0.0
 11
56.6850079902
 21
37.4602342313
 31
0.0
  0
LINE
  5
5A
330
54
100
AcDbEntity
  8
0
  6
Continuous
 62
     7
370
     0
100
AcDbLine
 10
156.6850079902
 20
52.0299240879
 30
0.0
 11
156.6850079902
 21
37.4602342313
 31
0.0
  0
LINE
  5
5B
330
54
100
AcDbEntity
  8
0
  6
Continuous
 62
     7
370
     0
100
AcDbLine
 10
56.6850079902
 20
38.4602342313
 30
0.0
 11
156.6850079902
 21
38.4602342313
 31
0.0
  0
MTEXT
  5
5C
330
54
100
AcDbEntity
  8
0
  6
Continuous
 62
     7
370
     0
100
AcDbMText
 10
91.2668151533
 20
46.1946404371
 30
0.1
 40
6.0
 41
0.0
 71
     1
 72
     1
  1
100
  7
SLDTEXTSTYLE0
 73
     1
 44
1.0
  0
MTEXT
  5
5D
330
54
100
AcDbEntity
  8
0
  6
Continuous
 62
     7
370
     0
100
AcDbMText
 10
108.0334825193
 20
46.1946404371
 30
0.1
 40
6.0
 41
0.0
 71
     1
 72
     1
  1
mm
  7
SLDTEXTSTYLE0
 73
     1
 44
1.0
  0
ENDBLK
  5
56
330
54
100
AcDbEntity
  8
0
100
AcDbBlockEnd
  0
ENDSEC
  0
SECTION
  2
ENTITIES
  0
LINE
  5
44
330
1F
100
AcDbEntity
  8
0
  6
Continuous
 62
     7
370
     0
100
AcDbLine
 10
56.6850079902
 20
152.0299240879
 30
0.0
 11
56.6850079902
 21
52.0299240879
 31
0.0
  0
LINE
  5
45
330
1F
100
AcDbEntity
  8
0
  6
Continuous
 62
     7
370
     0
100
AcDbLine
 10
56.6850079902
 20
52.0299240879
 30
0.0
 11
156.6850079902
 21
52.0299240879
 31
0.0
  0
DIMENSION
  5
46
330
1F
100
AcDbEntity
  8
0
  6
Continuous
 62
     7
370
     0
100
AcDbDimension
  2
_D
 10
42.7614395004
 20
52.0299240879
 30
0.0
 11
42.7614395004
 21
105.4472211621
 31
0.0
 70
   160
  1
<>mm
 71
     2
 42
-1.0
  3
SLDDIMSTYLE0
100
AcDbAlignedDimension
 13
56.6850079902
 23
152.0299240879
 33
0.0
 14
56.6850079902
 24
52.0299240879
 34
0.0
 50
90.0
100
AcDbRotatedDimension
  0
DIMENSION
  5
53
330
1F
100
AcDbEntity
  8
0
  6
Continuous
 62
     7
370
     0
100
AcDbDimension
  2
_D_1
 10
156.6850079902
 20
38.4602342313
 30
0.0
 11
105.0418155019
 21
38.4602342313
 31
0.0
 70
   160
  1
<>mm
 71
     2
 42
-1.0
  3
SLDDIMSTYLE0
100
AcDbAlignedDimension
 13
56.6850079902
 23
52.0299240879
 33
0.0
 14
156.6850079902
 24
52.0299240879
 34
0.0
100
AcDbRotatedDimension
  0
MTEXT
  5
5F
330
1F
100
AcDbEntity
  8
0
  6
Continuous
 62
     7
370
     0
100
AcDbMText
 10
347.5532847896
 20
48.6198453877
 30
0.0
 40
10.0
 41
0.0
 71
     1
 72
     1
  1
66 531 05-00
  7
SLDTEXTSTYLE1
 73
     1
 44
1.0
  0
MTEXT
  5
60
330
1F
100
AcDbEntity
  8
0
  6
Continuous
 62
     7
370
     0
100
AcDbMText
 10
664.658399795
 20
48.4342449499
 30
0.0
 40
10.0
 41
0.0
 71
     1
 72
     1
  1
KLUDI GmbH & Co KG
  7
SLDTEXTSTYLE1
 73
     1
 44
1.0
  0
LINE
  5
61
330
1F
100
AcDbEntity
  8
0
  6
Continuous
 62
     7
370
    15
100
AcDbLine
 10
185.2197219414
 20
392.0935451505
 30
0.0
 11
185.3047554178
 21
390.4778465848
 31
0.0
  0
LINE
  5
62
330
1F
100
AcDbEntity
  8
0
  6
Continuous
 62
     7
370
    15
100
AcDbLine
 10
188.8294239325
 20
390.4778465848
 30
0.0
 11
188.9144574089
 21
392.0935451505
 31
0.0
  0
LINE
  5
63
330
1F
100
AcDbEntity
  8
0
  6
Continuous
 62
     7
370
    15
100
AcDbLine
 10
257.2197218688
 20
392.0935451505
 30
0.0
 11
257.3047586048
 21
390.4778465848
 31
0.0
  0
LINE
  5
64
330
1F
100
AcDbEntity
  8
0
  6
Continuous
 62
     7
370
    15
100
AcDbLine
 10
260.8294219972
 20
390.4778465848
 30
0.0
 11
260.9144587332
 21
392.0935451505
 31
0.0
  0
LINE
  5
65
330
1F
100
AcDbEntity
  8
0
  6
Continuous
 62
     7
370
    15
100
AcDbLine
 10
343.6197210831
 20
392.0935451505
 30
0.0
 11
343.7047620101
 21
390.4778465848
 31
0.0
  0
LINE
  5
66
330
1F
100
AcDbEntity
  8
0
  6
Continuous
 62
     7
370
    15
100
AcDbLine
 10
347.2294230742
 20
390.4778465848
 30
0.0
 11
347.3144565506
 21
392.0935451505
 31
0.0
  0
LINE
  5
67
330
1F
100
AcDbEntity
  8
0
  6
Continuous
 62
     7
370
    15
100
AcDbLine
 10
286.0197220726
 20
392.0935451505
 30
0.0
 11
286.1047592742
 21
390.4778465848
 31
0.0
  0
LINE
  5
68
330
1F
100
AcDbEntity
  8
0
  6
Continuous
 62
     7
370
    15
100
AcDbLine
 10
289.629422201
 20
390.4778465848
 30
0.0
 11
289.7144594026
 21
392.0935451505
 31
0.0
  0
LINE
  5
69
330
1F
100
AcDbEntity
  8
0
  6
Continuous
 62
     7
370
    15
100
AcDbLine
 10
271.6197223199
 20
392.0935451505
 30
0.0
 11
271.7047585902
 21
390.4778465848
 31
0.0
  0
LINE
  5
6A
330
1F
100
AcDbEntity
  8
0
  6
Continuous
 62
     7
370
    15
100
AcDbLine
 10
275.2294224484
 20
390.4778465848
 30
0.0
 11
275.31445965
 21
392.0935451505
 31
0.0
  0
LINE
  5
6B
330
1F
100
AcDbEntity
  8
0
  6
Continuous
 62
     7
370
    15
100
AcDbLine
 10
314.8197215778
 20
392.0935451505
 30
0.0
 11
314.9047587795
 21
390.4778465848
 31
0.0
  0
LINE
  5
6C
330
1F
100
AcDbEntity
  8
0
  6
Continuous
 62
     7
370
    15
100
AcDbLine
 10
318.4294235689
 20
390.4778465848
 30
0.0
 11
318.5144570453
 21
392.0935451505
 31
0.0
  0
LINE
  5
6D
330
1F
100
AcDbEntity
  8
0
  6
Continuous
 62
     7
370
    15
100
AcDbLine
 10
329.2197231931
 20
392.0935451505
 30
0.0
 11
329.3047566695
 21
390.4778465848
 31
0.0
  0
LINE
  5
6E
330
1F
100
AcDbEntity
  8
0
  6
Continuous
 62
     7
370
    15
100
AcDbLine
 10
332.8294251842
 20
390.4778465848
 30
0.0
 11
332.9144586606
 21
392.0935451505
 31
0.0
  0
LINE
  5
6F
330
1F
100
AcDbEntity
  8
0
  6
Continuous
 62
     7
370
    15
100
AcDbLine
 10
242.819720952
 20
392.0935451505
 30
0.0
 11
242.9047581536
 21
390.4778465848
 31
0.0
  0
LINE
  5
70
330
1F
100
AcDbEntity
  8
0
  6
Continuous
 62
     7
370
    15
100
AcDbLine
 10
246.4294220118
 20
390.4778465848
 30
0.0
 11
246.5144582821
 21
392.0935451505
 31
0.0
  0
LINE
  5
71
330
1F
100
AcDbEntity
  8
0
  6
Continuous
 62
     7
370
    15
100
AcDbLine
 10
170.8197240514
 20
392.0935451505
 30
0.0
 11
170.9047575278
 21
390.4778465848
 31
0.0
  0
LINE
  5
72
330
1F
100
AcDbEntity
  8
0
  6
Continuous
 62
     7
370
    15
100
AcDbLine
 10
174.4294185919
 20
390.4778465848
 30
0.0
 11
174.5144595189
 21
392.0935451505
 31
0.0
  0
LINE
  5
73
330
1F
100
AcDbEntity
  8
0
  6
Continuous
 62
     7
370
    15
100
AcDbLine
 10
199.6197235567
 20
392.0935451505
 30
0.0
 11
199.7047570331
 21
390.4778465848
 31
0.0
  0
LINE
  5
74
330
1F
100
AcDbEntity
  8
0
  6
Continuous
 62
     7
370
    15
100
AcDbLine
 10
203.2294218225
 20
390.4778465848
 30
0.0
 11
203.3144590242
 21
392.0935451505
 31
0.0
  0
LINE
  5
75
330
1F
100
AcDbEntity
  8
0
  6
Continuous
 62
     7
370
    15
100
AcDbLine
 10
300.4197236879
 20
392.0935451505
 30
0.0
 11
300.5047571642
 21
390.4778465848
 31
0.0
  0
LINE
  5
76
330
1F
100
AcDbEntity
  8
0
  6
Continuous
 62
     7
370
    15
100
AcDbLine
 10
304.0294219536
 20
390.4778465848
 30
0.0
 11
304.1144591553
 21
392.0935451505
 31
0.0
  0
LINE
  5
77
330
1F
100
AcDbEntity
  8
0
  6
Continuous
 62
     7
370
    15
100
AcDbLine
 10
228.4197211994
 20
392.0935451505
 30
0.0
 11
228.504758401
 21
390.4778465848
 31
0.0
  0
LINE
  5
78
330
1F
100
AcDbEntity
  8
0
  6
Continuous
 62
     7
370
    15
100
AcDbLine
 10
232.0294213278
 20
390.4778465848
 30
0.0
 11
232.1144585294
 21
392.0935451505
 31
0.0
  0
LINE
  5
79
330
1F
100
AcDbEntity
  8
0
  6
Continuous
 62
     7
370
    15
100
AcDbLine
 10
214.0197214467
 20
392.0935451505
 30
0.0
 11
214.1047586484
 21
390.4778465848
 31
0.0
  0
LINE
  5
7A
330
1F
100
AcDbEntity
  8
0
  6
Continuous
 62
     7
370
    15
100
AcDbLine
 10
217.6294234378
 20
390.4778465848
 30
0.0
 11
217.7144569142
 21
392.0935451505
 31
0.0
  0
ARC
  5
7B
330
1F
100
AcDbEntity
  8
0
  6
Continuous
 62
     7
370
    15
100
AcDbCircle
 10
344.953030932
 20
390.5435451505
 30
0.0
 40
1.249999999999975
100
AcDbArc
 50
183.0127875042
 51
270.0
  0
ARC
  5
7C
330
1F
100
AcDbEntity
  8
0
  6
Continuous
 62
     7
370
    15
100
AcDbCircle
 10
345.9811496701
 20
390.5435451505
 30
0.0
 40
1.249999999999975
100
AcDbArc
 50
270.0
 51
356.9872124958
  0
ARC
  5
7D
330
1F
100
AcDbEntity
  8
0
  6
Continuous
 62
     7
370
    15
100
AcDbCircle
 10
244.153030932
 20
390.5435451505
 30
0.0
 40
1.250000000000004
100
AcDbArc
 50
183.0127875042
 51
270.0
  0
ARC
  5
7E
330
1F
100
AcDbEntity
  8
0
  6
Continuous
 62
     7
370
    15
100
AcDbCircle
 10
245.1811496701
 20
390.5435451505
 30
0.0
 40
1.249999999999975
100
AcDbArc
 50
270.0
 51
356.9872124958
  0
ARC
  5
7F
330
1F
100
AcDbEntity
  8
0
  6
Continuous
 62
     7
370
    15
100
AcDbCircle
 10
272.953030932
 20
390.5435451505
 30
0.0
 40
1.249999999999975
100
AcDbArc
 50
183.0127875042
 51
270.0
  0
ARC
  5
80
330
1F
100
AcDbEntity
  8
0
  6
Continuous
 62
     7
370
    15
100
AcDbCircle
 10
273.9811496701
 20
390.5435451505
 30
0.0
 40
1.250000000000032
100
AcDbArc
 50
270.0
 51
356.9872124958
  0
ARC
  5
81
330
1F
100
AcDbEntity
  8
0
  6
Continuous
 62
     7
370
    15
100
AcDbCircle
 10
330.553030932
 20
390.5435451505
 30
0.0
 40
1.249999999999975
100
AcDbArc
 50
183.0127875042
 51
270.0
  0
ARC
  5
82
330
1F
100
AcDbEntity
  8
0
  6
Continuous
 62
     7
370
    15
100
AcDbCircle
 10
331.5811496701
 20
390.5435451505
 30
0.0
 40
1.250000000000032
100
AcDbArc
 50
270.0
 51
356.9872124958
  0
ARC
  5
83
330
1F
100
AcDbEntity
  8
0
  6
Continuous
 62
     7
370
    15
100
AcDbCircle
 10
258.553030932
 20
390.5435451505
 30
0.0
 40
1.249999999999975
100
AcDbArc
 50
183.0127875042
 51
270.0
  0
ARC
  5
84
330
1F
100
AcDbEntity
  8
0
  6
Continuous
 62
     7
370
    15
100
AcDbCircle
 10
259.5811496701
 20
390.5435451505
 30
0.0
 40
1.249999999999975
100
AcDbArc
 50
270.0
 51
356.9872124958
  0
ARC
  5
85
330
1F
100
AcDbEntity
  8
0
  6
Continuous
 62
     7
370
    15
100
AcDbCircle
 10
200.953030932
 20
390.5435451505
 30
0.0
 40
1.250000000000004
100
AcDbArc
 50
183.0127875042
 51
270.0
  0
ARC
  5
86
330
1F
100
AcDbEntity
  8
0
  6
Continuous
 62
     7
370
    15
100
AcDbCircle
 10
201.9811496701
 20
390.5435451505
 30
0.0
 40
1.249999999999975
100
AcDbArc
 50
270.0
 51
356.9872124958
  0
ARC
  5
87
330
1F
100
AcDbEntity
  8
0
  6
Continuous
 62
     7
370
    15
100
AcDbCircle
 10
186.553030932
 20
390.5435451505
 30
0.0
 40
1.249999999999975
100
AcDbArc
 50
183.0127875042
 51
270.0
  0
ARC
  5
88
330
1F
100
AcDbEntity
  8
0
  6
Continuous
 62
     7
370
    15
100
AcDbCircle
 10
187.5811496701
 20
390.5435451505
 30
0.0
 40
1.250000000000004
100
AcDbArc
 50
270.0
 51
356.9872124958
  0
ARC
  5
89
330
1F
100
AcDbEntity
  8
0
  6
Continuous
 62
     7
370
    15
100
AcDbCircle
 10
229.753030932
 20
390.5435451505
 30
0.0
 40
1.249999999999975
100
AcDbArc
 50
183.0127875042
 51
270.0
  0
ARC
  5
8A
330
1F
100
AcDbEntity
  8
0
  6
Continuous
 62
     7
370
    15
100
AcDbCircle
 10
230.7811496701
 20
390.5435451505
 30
0.0
 40
1.250000000000004
100
AcDbArc
 50
270.0
 51
356.9872124958
  0
ARC
  5
8B
330
1F
100
AcDbEntity
  8
0
  6
Continuous
 62
     7
370
    15
100
AcDbCircle
 10
316.153030932
 20
390.5435451505
 30
0.0
 40
1.250000000000032
100
AcDbArc
 50
183.0127875042
 51
270.0
  0
ARC
  5
8C
330
1F
100
AcDbEntity
  8
0
  6
Continuous
 62
     7
370
    15
100
AcDbCircle
 10
317.1811496701
 20
390.5435451505
 30
0.0
 40
1.249999999999975
100
AcDbArc
 50
270.0
 51
356.9872124958
  0
ARC
  5
8D
330
1F
100
AcDbEntity
  8
0
  6
Continuous
 62
     7
370
    15
100
AcDbCircle
 10
287.353030932
 20
390.5435451505
 30
0.0
 40
1.249999999999975
100
AcDbArc
 50
183.0127875042
 51
270.0
  0
ARC
  5
8E
330
1F
100
AcDbEntity
  8
0
  6
Continuous
 62
     7
370
    15
100
AcDbCircle
 10
288.3811496701
 20
390.5435451505
 30
0.0
 40
1.250000000000032
100
AcDbArc
 50
270.0
 51
356.9872124958
  0
ARC
  5
8F
330
1F
100
AcDbEntity
  8
0
  6
Continuous
 62
     7
370
    15
100
AcDbCircle
 10
172.153030932
 20
390.5435451505
 30
0.0
 40
1.250000000000004
100
AcDbArc
 50
183.0127875042
 51
270.0
  0
ARC
  5
90
330
1F
100
AcDbEntity
  8
0
  6
Continuous
 62
     7
370
    15
100
AcDbCircle
 10
173.1811496701
 20
390.5435451505
 30
0.0
 40
1.250000000000004
100
AcDbArc
 50
270.0
 51
356.9872124958
  0
ARC
  5
91
330
1F
100
AcDbEntity
  8
0
  6
Continuous
 62
     7
370
    15
100
AcDbCircle
 10
215.353030932
 20
390.5435451505
 30
0.0
 40
1.250000000000004
100
AcDbArc
 50
183.0127875042
 51
270.0
  0
ARC
  5
92
330
1F
100
AcDbEntity
  8
0
  6
Continuous
 62
     7
370
    15
100
AcDbCircle
 10
216.3811496701
 20
390.5435451505
 30
0.0
 40
1.250000000000004
100
AcDbArc
 50
270.0
 51
356.9872124958
  0
ARC
  5
93
330
1F
100
AcDbEntity
  8
0
  6
Continuous
 62
     7
370
    15
100
AcDbCircle
 10
301.753030932
 20
390.5435451505
 30
0.0
 40
1.250000000000032
100
AcDbArc
 50
183.0127875042
 51
270.0
  0
ARC
  5
94
330
1F
100
AcDbEntity
  8
0
  6
Continuous
 62
     7
370
    15
100
AcDbCircle
 10
302.7811496701
 20
390.5435451505
 30
0.0
 40
1.249999999999975
100
AcDbArc
 50
270.0
 51
356.9872124958
  0
ARC
  5
95
330
1F
100
AcDbEntity
  8
0
  6
Continuous
 62
     7
370
    15
100
AcDbCircle
 10
242.567090301
 20
424.1935451505
 30
0.0
 40
2.000000000000002
100
AcDbArc
 50
90.0
 51
121.9624323828
  0
ARC
  5
96
330
1F
100
AcDbEntity
  8
0
  6
Continuous
 62
     7
370
    15
100
AcDbCircle
 10
275.567090301
 20
424.1935451505
 30
0.0
 40
2.0
100
AcDbArc
 50
58.572804223
 51
90.0
  0
LINE
  5
97
330
1F
100
AcDbEntity
  8
0
  6
Continuous
 62
     7
370
    15
100
AcDbLine
 10
247.0670901967
 20
447.1935465453
 30
0.0
 11
247.0670901967
 21
433.1935442505
 31
0.0
  0
LINE
  5
98
330
1F
100
AcDbEntity
  8
0
  6
Continuous
 62
     7
370
    15
100
AcDbLine
 10
271.0670904053
 20
433.1935442505
 30
0.0
 11
271.0670904053
 21
447.1935465453
 31
0.0
  0
LINE
  5
99
330
1F
100
AcDbEntity
  8
0
  6
Continuous
 62
     7
370
    15
100
AcDbLine
 10
247.0670901967
 20
433.1935442505
 30
0.0
 11
249.787090419
 21
430.8543860433
 31
0.0
  0
LINE
  5
9A
330
1F
100
AcDbEntity
  8
0
  6
Continuous
 62
     7
370
    15
100
AcDbLine
 10
268.347090183
 20
430.8543860433
 30
0.0
 11
271.0670904053
 21
433.1935442505
 31
0.0
  0
ARC
  5
9B
330
1F
100
AcDbEntity
  8
0
  6
Continuous
 62
     7
370
    15
100
AcDbCircle
 10
259.0092358814
 20
420.8321677761
 30
0.0
 40
12.62500000000004
100
AcDbArc
 50
136.9255566501
 51
154.8706306359
  0
ARC
  5
9C
330
1F
100
AcDbEntity
  8
0
  6
Continuous
 62
     7
370
    15
100
AcDbCircle
 10
259.1249447206
 20
420.8321677761
 30
0.0
 40
12.62500000000004
100
AcDbArc
 50
25.1293693641
 51
43.0744433499
  0
LINE
  5
9D
330
1F
100
AcDbEntity
  8
0
  6
Continuous
 62
     7
370
    15
100
AcDbLine
 10
249.787090419
 20
430.8543860433
 30
0.0
 11
249.787090419
 21
429.4543846962
 31
0.0
  0
LINE
  5
9E
330
1F
100
AcDbEntity
  8
0
  6
Continuous
 62
     7
370
    15
100
AcDbLine
 10
268.347090183
 20
429.4543846962
 30
0.0
 11
268.347090183
 21
430.8543860433
 31
0.0
  0
LINE
  5
9F
330
1F
100
AcDbEntity
  8
0
  6
Continuous
 62
     7
370
    15
100
AcDbLine
 10
138.0670909567
 20
408.5935450611
 30
0.0
 11
380.0670896454
 21
408.5935450611
 31
0.0
  0
LINE
  5
A0
330
1F
100
AcDbEntity
  8
0
  6
Continuous
 62
     7
370
    15
100
AcDbLine
 10
134.067090301
 20
408.5935450611
 30
0.0
 11
134.337948708
 21
393.076092795
 31
0.0
  0
LINE
  5
A1
330
1F
100
AcDbEntity
  8
0
  6
Continuous
 62
     7
370
    15
100
AcDbLine
 10
134.067090301
 20
408.5935450611
 30
0.0
 11
138.0670909567
 21
408.5935450611
 31
0.0
  0
LINE
  5
A2
330
1F
100
AcDbEntity
  8
0
  6
Continuous
 62
     7
370
    15
100
AcDbLine
 10
384.067090301
 20
408.5935450611
 30
0.0
 11
383.796231894
 21
393.076092795
 31
0.0
  0
LINE
  5
A3
330
1F
100
AcDbEntity
  8
0
  6
Continuous
 62
     7
370
    15
100
AcDbLine
 10
380.0670896454
 20
408.5935450611
 30
0.0
 11
384.067090301
 21
408.5935450611
 31
0.0
  0
ARC
  5
A4
330
1F
100
AcDbEntity
  8
0
  6
Continuous
 62
     7
370
    15
100
AcDbCircle
 10
382.7963844666
 20
393.0935451505
 30
0.0
 40
1.0
100
AcDbArc
 50
270.0
 51
359.0
  0
LINE
  5
A5
330
1F
100
AcDbEntity
  8
0
  6
Continuous
 62
     7
370
    15
100
AcDbLine
 10
382.7963863296
 20
392.0935451505
 30
0.0
 11
380.0670896454
 21
392.0935451505
 31
0.0
  0
LINE
  5
A6
330
1F
100
AcDbEntity
  8
0
  6
Continuous
 62
     7
370
    15
100
AcDbLine
 10
138.0670909567
 20
392.0935451505
 30
0.0
 11
135.3377942724
 21
392.0935451505
 31
0.0
  0
ARC
  5
A7
330
1F
100
AcDbEntity
  8
0
  6
Continuous
 62
     7
370
    15
100
AcDbCircle
 10
135.3377961354
 20
393.0935451505
 30
0.0
 40
1.0
100
AcDbArc
 50
181.0
 51
270.0
  0
LINE
  5
A8
330
1F
100
AcDbEntity
  8
0
  6
Continuous
 62
     7
370
    15
100
AcDbLine
 10
380.0670896454
 20
392.0935451505
 30
0.0
 11
138.0670909567
 21
392.0935451505
 31
0.0
  0
LINE
  5
A9
330
1F
100
AcDbEntity
  8
0
  6
Continuous
 62
     7
370
    15
100
AcDbLine
 10
137.8170867247
 20
408.6935448912
 30
0.0
 11
140.3170917911
 21
408.6935448912
 31
0.0
  0
ARC
  5
AA
330
1F
100
AcDbEntity
  8
0
  6
Continuous
 62
     7
370
    15
100
AcDbCircle
 10
137.817090301
 20
408.1935451505
 30
0.0
 40
0.5000000000000341
100
AcDbArc
 50
90.0
 51
126.8698976458
  0
LINE
  5
AB
330
1F
100
AcDbEntity
  8
0
  6
Continuous
 62
     7
370
    15
100
AcDbLine
 10
377.8170888109
 20
408.6935448912
 30
0.0
 11
380.3170938773
 21
408.6935448912
 31
0.0
  0
ARC
  5
AC
330
1F
100
AcDbEntity
  8
0
  6
Continuous
 62
     7
370
    15
100
AcDbCircle
 10
380.317090301
 20
408.1935451505
 30
0.0
 40
0.5
100
AcDbArc
 50
53.1301023542
 51
90.0
  0
LINE
  5
AD
330
1F
100
AcDbEntity
  8
0
  6
Continuous
 62
     7
370
    15
100
AcDbLine
 10
140.3170917911
 20
408.6935448912
 30
0.0
 11
377.8170888109
 21
408.6935448912
 31
0.0
  0
LINE
  5
AE
330
1F
100
AcDbEntity
  8
0
  6
Continuous
 62
     7
370
    15
100
AcDbLine
 10
344.9530322833
 20
389.2935452503
 30
0.0
 11
345.981152801
 21
389.2935452503
 31
0.0
  0
LINE
  5
AF
330
1F
100
AcDbEntity
  8
0
  6
Continuous
 62
     7
370
    15
100
AcDbLine
 10
244.1530312208
 20
389.2935452503
 30
0.0
 11
245.1811498759
 21
389.2935452503
 31
0.0
  0
LINE
  5
B0
330
1F
100
AcDbEntity
  8
0
  6
Continuous
 62
     7
370
    15
100
AcDbLine
 10
272.9530307261
 20
389.2935452503
 30
0.0
 11
273.9811493812
 21
389.2935452503
 31
0.0
  0
LINE
  5
B1
330
1F
100
AcDbEntity
  8
0
  6
Continuous
 62
     7
370
    15
100
AcDbLine
 10
330.5530343933
 20
389.2935452503
 30
0.0
 11
331.5811474604
 21
389.2935452503
 31
0.0
  0
LINE
  5
B2
330
1F
100
AcDbEntity
  8
0
  6
Continuous
 62
     7
370
    15
100
AcDbLine
 10
258.5530309153
 20
389.2935452503
 30
0.0
 11
259.5811496868
 21
389.2935452503
 31
0.0
  0
LINE
  5
B3
330
1F
100
AcDbEntity
  8
0
  6
Continuous
 62
     7
370
    15
100
AcDbLine
 10
200.9530310316
 20
389.2935452503
 30
0.0
 11
201.981147824
 21
389.2935452503
 31
0.0
  0
LINE
  5
B4
330
1F
100
AcDbEntity
  8
0
  6
Continuous
 62
     7
370
    15
100
AcDbLine
 10
186.5530331416
 20
389.2935452503
 30
0.0
 11
187.5811462087
 21
389.2935452503
 31
0.0
  0
LINE
  5
B5
330
1F
100
AcDbEntity
  8
0
  6
Continuous
 62
     7
370
    15
100
AcDbLine
 10
229.7530305369
 20
389.2935452503
 30
0.0
 11
230.7811491919
 21
389.2935452503
 31
0.0
  0
LINE
  5
B6
330
1F
100
AcDbEntity
  8
0
  6
Continuous
 62
     7
370
    15
100
AcDbLine
 10
316.153032778
 20
389.2935452503
 30
0.0
 11
317.1811495704
 21
389.2935452503
 31
0.0
  0
LINE
  5
B7
330
1F
100
AcDbEntity
  8
0
  6
Continuous
 62
     7
370
    15
100
AcDbLine
 10
287.3530314101
 20
389.2935452503
 30
0.0
 11
288.3811500652
 21
389.2935452503
 31
0.0
  0
LINE
  5
B8
330
1F
100
AcDbEntity
  8
0
  6
Continuous
 62
     7
370
    15
100
AcDbLine
 10
172.153027801
 20
389.2935452503
 30
0.0
 11
173.1811483187
 21
389.2935452503
 31
0.0
  0
LINE
  5
B9
330
1F
100
AcDbEntity
  8
0
  6
Continuous
 62
     7
370
    15
100
AcDbLine
 10
215.3530326469
 20
389.2935452503
 30
0.0
 11
216.3811494393
 21
389.2935452503
 31
0.0
  0
LINE
  5
BA
330
1F
100
AcDbEntity
  8
0
  6
Continuous
 62
     7
370
    15
100
AcDbLine
 10
301.7530311627
 20
389.2935452503
 30
0.0
 11
302.7811479551
 21
389.2935452503
 31
0.0
  0
LINE
  5
BB
330
1F
100
AcDbEntity
  8
0
  6
Continuous
 62
     7
370
    15
100
AcDbLine
 10
276.5970901383
 20
408.6935448912
 30
0.0
 11
276.5970901383
 21
424.1935446379
 31
0.0
  0
LINE
  5
BC
330
1F
100
AcDbEntity
  8
0
  6
Continuous
 62
     7
370
    15
100
AcDbLine
 10
241.5370904637
 20
424.1935446379
 30
0.0
 11
241.5370904637
 21
408.6935448912
 31
0.0
  0
LINE
  5
BD
330
1F
100
AcDbEntity
  8
0
  6
Continuous
 62
     7
370
    15
100
AcDbLine
 10
259.067090301
 20
426.1935449657
 30
0.0
 11
275.5670902116
 21
426.1935449657
 31
0.0
  0
LINE
  5
BE
330
1F
100
AcDbEntity
  8
0
  6
Continuous
 62
     7
370
    15
100
AcDbLine
 10
242.5670903904
 20
426.1935449657
 30
0.0
 11
259.067090301
 21
426.1935449657
 31
0.0
  0
SPLINE
  5
BF
330
1F
100
AcDbEntity
  8
0
  6
Continuous
 62
     7
370
    15
100
AcDbSpline
210
0.0
220
0.0
230
1.0
 70
    24
 71
     3
 72
    15
 73
    11
 74
     0
 42
0.00000001
 43
0.00000001
 12
1.0
 22
0.0
 32
0.0
 13
1.0
 23
0.0
 33
0.0
 40
0.0
 40
0.0
 40
0.0
 40
0.0
 40
0.1623561795316813
 40
0.4158229285677786
 40
0.6721655641051623
 40
0.7989291793717445
 40
0.8908318190551474
 40
0.9383441182235642
 40
0.9773657140052676
 40
1.0
 40
1.0
 40
1.0
 40
1.0
 10
276.5970901382827
 20
425.8789069471196
 30
0.0
 10
276.5970901382827
 20
425.8869080754849
 30
0.0
 10
276.5970901382827
 20
425.9074003822042
 30
0.0
 10
276.5970901382827
 20
425.7870503305712
 30
0.0
 10
276.5970901382827
 20
425.5609618113325
 30
0.0
 10
276.5970901382827
 20
425.2044472165499
 30
0.0
 10
276.5970901382827
 20
424.8919225708581
 30
0.0
 10
276.5970901382827
 20
424.5975060833271
 30
0.0
 10
276.5970901382827
 20
424.3766311596681
 30
0.0
 10
276.5970901382827
 20
424.2427085297891
 30
0.0
 10
276.5970901382827
 20
424.1935446379021
 30
0.0
  0
SPLINE
  5
C0
330
1F
100
AcDbEntity
  8
0
  6
Continuous
 62
     7
370
    15
100
AcDbSpline
210
0.0
220
0.0
230
1.0
 70
    24
 71
     3
 72
    14
 73
    10
 74
     0
 42
0.00000001
 43
0.00000001
 12
1.0
 22
0.0
 32
0.0
 13
1.0
 23
0.0
 33
0.0
 40
0.0
 40
0.0
 40
0.0
 40
0.0
 40
0.0248728703756498
 40
0.0583886964286224
 40
0.1147286258247563
 40
0.2190592663782893
 40
0.5345106861199665
 40
0.8374882956298663
 40
0.9999999999999999
 40
0.9999999999999999
 40
0.9999999999999999
 40
0.9999999999999999
 10
241.537090463724
 20
424.1935446379021
 30
0.0
 10
241.537090463724
 20
424.2475511321295
 30
0.0
 10
241.537090463724
 20
424.3743305809424
 30
0.0
 10
241.537090463724
 20
424.6057419574893
 30
0.0
 10
241.537090463724
 20
424.9247178168682
 30
0.0
 10
241.537090463724
 20
425.4489760827057
 30
0.0
 10
241.537090463724
 20
425.7487341691149
 30
0.0
 10
241.537090463724
 20
425.9259605816222
 30
0.0
 10
241.537090463724
 20
425.8677781551266
 30
0.0
 10
241.537090463724
 20
425.8474654970005
 30
0.0
  0
LINE
  5
C1
330
1F
100
AcDbEntity
  8
0
  6
Continuous
 62
     7
370
    15
100
AcDbLine
 10
247.0670901967
 20
433.1935442505
 30
0.0
 11
271.0670904053
 21
433.1935442505
 31
0.0
  0
LINE
  5
C2
330
1F
100
AcDbEntity
  8
0
  6
Continuous
 62
     7
370
    15
100
AcDbLine
 10
247.0670901967
 20
447.1935465453
 30
0.0
 11
254.8912671191
 21
447.1935465453
 31
0.0
  0
LINE
  5
C3
330
1F
100
AcDbEntity
  8
0
  6
Continuous
 62
     7
370
    15
100
AcDbLine
 10
254.8912671191
 20
440.6935445485
 30
0.0
 11
254.8912671191
 21
447.1935465453
 31
0.0
  0
LINE
  5
C4
330
1F
100
AcDbEntity
  8
0
  6
Continuous
 62
     7
370
    15
100
AcDbLine
 10
263.2429134829
 20
447.1935465453
 30
0.0
 11
263.2429134829
 21
440.6935445485
 31
0.0
  0
LINE
  5
C5
330
1F
100
AcDbEntity
  8
0
  6
Continuous
 62
     7
370
    15
100
AcDbLine
 10
263.2429134829
 20
447.1935465453
 30
0.0
 11
271.0670904053
 21
447.1935465453
 31
0.0
  0
LINE
  5
C6
330
1F
100
AcDbEntity
  8
0
  6
Continuous
 62
     7
370
    15
100
AcDbLine
 10
263.2429134829
 20
440.6935445485
 30
0.0
 11
254.8912671191
 21
440.6935445485
 31
0.0
  0
LINE
  5
C7
330
1F
100
AcDbEntity
  8
0
  6
Continuous
 62
     7
370
    15
100
AcDbLine
 10
249.787090419
 20
430.8543860433
 30
0.0
 11
268.347090183
 21
430.8543860433
 31
0.0
  0
LINE
  5
C8
330
1F
100
AcDbEntity
  8
0
  6
Continuous
 62
     7
370
    15
100
AcDbLine
 10
249.787090419
 20
429.4543846962
 30
0.0
 11
268.347090183
 21
429.4543846962
 31
0.0
  0
LINE
  5
C9
330
1F
100
AcDbEntity
  8
0
  6
Continuous
 62
     7
370
    15
100
AcDbLine
 10
254.8912671191
 20
447.1935465453
 30
0.0
 11
263.2429134829
 21
447.1935465453
 31
0.0
  0
LINE
  5
CA
330
1F
100
AcDbEntity
  8
0
  6
Continuous
 62
     7
370
     0
100
AcDbLine
 10
380.0670896454
 20
408.5935450611
 30
0.0
 11
380.0670896454
 21
393.076092795
 31
0.0
  0
LINE
  5
CB
330
1F
100
AcDbEntity
  8
0
  6
Continuous
 62
     7
370
     0
100
AcDbLine
 10
138.0670909567
 20
393.076092795
 30
0.0
 11
380.0670896454
 21
393.076092795
 31
0.0
  0
LINE
  5
CC
330
1F
100
AcDbEntity
  8
0
  6
Continuous
 62
     7
370
     0
100
AcDbLine
 10
138.0670909567
 20
408.5935450611
 30
0.0
 11
138.0670909567
 21
393.076092795
 31
0.0
  0
LINE
  5
CD
330
1F
100
AcDbEntity
  8
0
  6
Continuous
 62
     7
370
     0
100
AcDbLine
 10
134.337948708
 20
393.076092795
 30
0.0
 11
138.0670909567
 21
393.076092795
 31
0.0
  0
LINE
  5
CE
330
1F
100
AcDbEntity
  8
0
  6
Continuous
 62
     7
370
     0
100
AcDbLine
 10
380.0670896454
 20
393.076092795
 30
0.0
 11
383.796231894
 21
393.076092795
 31
0.0
  0
LINE
  5
CF
330
1F
100
AcDbEntity
  8
0
  6
Continuous
 62
     7
370
     0
100
AcDbLine
 10
380.0670896454
 20
393.076092795
 30
0.0
 11
380.0670896454
 21
392.0935451505
 31
0.0
  0
LINE
  5
D0
330
1F
100
AcDbEntity
  8
0
  6
Continuous
 62
     7
370
     0
100
AcDbLine
 10
138.0670909567
 20
393.076092795
 30
0.0
 11
138.0670909567
 21
392.0935451505
 31
0.0
  0
LINE
  5
D1
330
1F
100
AcDbEntity
  8
0
  6
Continuous
 62
     7
370
     0
100
AcDbLine
 10
140.3170917911
 20
408.6935448912
 30
0.0
 11
140.3170917911
 21
408.5935450611
 31
0.0
  0
LINE
  5
D2
330
1F
100
AcDbEntity
  8
0
  6
Continuous
 62
     7
370
     0
100
AcDbLine
 10
377.8170888109
 20
408.6935448912
 30
0.0
 11
377.8170888109
 21
408.5935450611
 31
0.0
  0
LINE
  5
D3
330
1F
100
AcDbEntity
  8
0
  6
Continuous
 62
     7
370
     0
100
AcDbLine
 10
185.3047554178
 20
390.4778465848
 30
0.0
 11
188.8294239325
 21
390.4778465848
 31
0.0
  0
LINE
  5
D4
330
1F
100
AcDbEntity
  8
0
  6
Continuous
 62
     7
370
     0
100
AcDbLine
 10
257.3047586048
 20
390.4778465848
 30
0.0
 11
260.8294219972
 21
390.4778465848
 31
0.0
  0
LINE
  5
D5
330
1F
100
AcDbEntity
  8
0
  6
Continuous
 62
     7
370
     0
100
AcDbLine
 10
343.7047620101
 20
390.4778465848
 30
0.0
 11
347.2294230742
 21
390.4778465848
 31
0.0
  0
LINE
  5
D6
330
1F
100
AcDbEntity
  8
0
  6
Continuous
 62
     7
370
     0
100
AcDbLine
 10
286.1047592742
 20
390.4778465848
 30
0.0
 11
289.629422201
 21
390.4778465848
 31
0.0
  0
LINE
  5
D7
330
1F
100
AcDbEntity
  8
0
  6
Continuous
 62
     7
370
     0
100
AcDbLine
 10
271.7047585902
 20
390.4778465848
 30
0.0
 11
275.2294224484
 21
390.4778465848
 31
0.0
  0
LINE
  5
D8
330
1F
100
AcDbEntity
  8
0
  6
Continuous
 62
     7
370
     0
100
AcDbLine
 10
314.9047587795
 20
390.4778465848
 30
0.0
 11
318.4294235689
 21
390.4778465848
 31
0.0
  0
LINE
  5
D9
330
1F
100
AcDbEntity
  8
0
  6
Continuous
 62
     7
370
     0
100
AcDbLine
 10
329.3047566695
 20
390.4778465848
 30
0.0
 11
332.8294251842
 21
390.4778465848
 31
0.0
  0
LINE
  5
DA
330
1F
100
AcDbEntity
  8
0
  6
Continuous
 62
     7
370
     0
100
AcDbLine
 10
242.9047581536
 20
390.4778465848
 30
0.0
 11
246.4294220118
 21
390.4778465848
 31
0.0
  0
LINE
  5
DB
330
1F
100
AcDbEntity
  8
0
  6
Continuous
 62
     7
370
     0
100
AcDbLine
 10
170.9047575278
 20
390.4778465848
 30
0.0
 11
174.4294185919
 21
390.4778465848
 31
0.0
  0
LINE
  5
DC
330
1F
100
AcDbEntity
  8
0
  6
Continuous
 62
     7
370
     0
100
AcDbLine
 10
199.7047570331
 20
390.4778465848
 30
0.0
 11
203.2294218225
 21
390.4778465848
 31
0.0
  0
LINE
  5
DD
330
1F
100
AcDbEntity
  8
0
  6
Continuous
 62
     7
370
     0
100
AcDbLine
 10
300.5047571642
 20
390.4778465848
 30
0.0
 11
304.0294219536
 21
390.4778465848
 31
0.0
  0
LINE
  5
DE
330
1F
100
AcDbEntity
  8
0
  6
Continuous
 62
     7
370
     0
100
AcDbLine
 10
228.504758401
 20
390.4778465848
 30
0.0
 11
232.0294213278
 21
390.4778465848
 31
0.0
  0
LINE
  5
DF
330
1F
100
AcDbEntity
  8
0
  6
Continuous
 62
     7
370
     0
100
AcDbLine
 10
214.1047586484
 20
390.4778465848
 30
0.0
 11
217.6294234378
 21
390.4778465848
 31
0.0
  0
LINE
  5
E0
330
1F
100
AcDbEntity
  8
0
  6
Continuous
 62
     7
370
     0
100
AcDbLine
 10
276.5970901383
 20
424.1935446379
 30
0.0
 11
241.5370904637
 21
424.1935446379
 31
0.0
  0
ARC
  5
E1
330
1F
100
AcDbEntity
  8
0
  6
Continuous
 62
     7
370
    15
100
AcDbCircle
 10
259.067090301
 20
204.1254180602
 30
0.0
 40
12.00000000000004
100
AcDbArc
 50
290.3641348063
 51
69.6358651937
  0
LINE
  5
E2
330
1F
100
AcDbEntity
  8
0
  6
Continuous
 62
     7
370
    15
100
AcDbLine
 10
254.8912671191
 20
192.8754176132
 30
0.0
 11
263.2429134829
 21
192.8754176132
 31
0.0
  0
ARC
  5
E3
330
1F
100
AcDbEntity
  8
0
  6
Continuous
 62
     7
370
    15
100
AcDbCircle
 10
259.067090301
 20
204.1254180602
 30
0.0
 40
12.00000000000002
100
AcDbArc
 50
110.3641348063
 51
249.6358651937
  0
LINE
  5
E4
330
1F
100
AcDbEntity
  8
0
  6
Continuous
 62
     7
370
    15
100
AcDbLine
 10
254.8912671191
 20
215.3754185072
 30
0.0
 11
263.2429134829
 21
215.3754185072
 31
0.0
  0
ARC
  5
E5
330
1F
100
AcDbEntity
  8
0
  6
Continuous
 62
     7
370
    15
100
AcDbCircle
 10
259.067090301
 20
204.1254180602
 30
0.0
 40
12.00000000000004
100
AcDbArc
 50
69.6358651937
 51
110.3641348063
  0
ARC
  5
E6
330
1F
100
AcDbEntity
  8
0
  6
Continuous
 62
     7
370
    15
100
AcDbCircle
 10
259.067090301
 20
204.1254180602
 30
0.0
 40
11.99999999999999
100
AcDbArc
 50
249.6358651937
 51
290.3641348063
  0
ARC
  5
E7
330
1F
100
AcDbEntity
  8
0
  6
Continuous
 62
     7
370
    15
100
AcDbCircle
 10
259.067090301
 20
204.1254180602
 30
0.0
 40
18.50000000000003
100
AcDbArc
 50
18.6360443457
 51
161.3639556543
  0
SPLINE
  5
E8
330
1F
100
AcDbEntity
  8
0
  6
Continuous
 62
     7
370
    15
100
AcDbSpline
210
0.0
220
0.0
230
1.0
 70
    24
 71
     3
 72
    42
 73
    38
 74
     0
 42
0.00000001
 43
0.00000001
 12
1.0
 22
0.0
 32
0.0
 13
1.0
 23
0.0
 33
0.0
 40
0.0
 40
0.0
 40
0.0
 40
0.0
 40
0.0312499999999996
 40
0.0312499999999996
 40
0.0624999999999993
 40
0.0624999999999993
 40
0.0937499999999989
 40
0.0937499999999989
 40
0.1249999999999985
 40
0.1249999999999985
 40
0.1874999999999985
 40
0.1874999999999985
 40
0.2499999999999984
 40
0.2499999999999984
 40
0.3749999999999984
 40
0.3749999999999984
 40
0.4999999999999983
 40
0.4999999999999983
 40
0.5624999999999983
 40
0.5624999999999983
 40
0.5937499999999983
 40
0.5937499999999983
 40
0.6249999999999982
 40
0.6249999999999982
 40
0.7499999999999986
 40
0.7499999999999986
 40
0.8124999999999986
 40
0.8124999999999986
 40
0.8749999999999986
 40
0.8749999999999986
 40
0.9374999999999988
 40
0.9374999999999988
 40
0.9687499999999988
 40
0.9687499999999988
 40
0.9843749999999994
 40
0.9843749999999994
 40
1.0
 40
1.0
 40
1.0
 40
1.0
 10
276.5970903010035
 20
210.0371944429814
 30
0.0
 10
276.5970903010035
 20
210.0371944429814
 30
0.0
 10
276.5970903010035
 20
209.9899563446464
 30
0.0
 10
276.5970903010035
 20
209.8447422682052
 30
0.0
 10
276.5970903010035
 20
209.7474507376211
 30
0.0
 10
276.5970903010035
 20
209.5372194049638
 30
0.0
 10
276.5970903010035
 20
209.4212895639898
 30
0.0
 10
276.5970903010035
 20
209.1833880446845
 30
0.0
 10
276.5970903010035
 20
209.0609597660475
 30
0.0
 10
276.5970903010035
 20
208.6868129365758
 30
0.0
 10
276.5970903010035
 20
208.4279825303767
 30
0.0
 10
276.5970903010035
 20
207.9015892984379
 30
0.0
 10
276.5970903010035
 20
207.6373667160764
 30
0.0
 10
276.5970903010035
 20
206.8427961695314
 30
0.0
 10
276.5970903010035
 20
206.3105877867027
 30
0.0
 10
276.5970903010035
 20
205.2436241882028
 30
0.0
 10
276.5970903010035
 20
204.708821147296
 30
0.0
 10
276.5970903010035
 20
203.9051030513947
 30
0.0
 10
276.5970903010035
 20
203.6369348713133
 30
0.0
 10
276.5970903010035
 20
203.2342620254178
 30
0.0
 10
276.5970903010035
 20
203.1004753682041
 30
0.0
 10
276.5970903010035
 20
202.8268348597762
 30
0.0
 10
276.5970903010035
 20
202.6901622614054
 30
0.0
 10
276.5970903010035
 20
202.007617284487
 30
0.0
 10
276.5970903010035
 20
201.4640163819202
 30
0.0
 10
276.5970903010035
 20
200.6556314146715
 30
0.0
 10
276.5970903010035
 20
200.3873600406843
 30
0.0
 10
276.5970903010035
 20
199.8546027243321
 30
0.0
 10
276.5970903010035
 20
199.5890404065827
 30
0.0
 10
276.5970903010035
 20
199.0785117874455
 30
0.0
 10
276.5970903010035
 20
198.8292810571101
 30
0.0
 10
276.5970903010035
 20
198.5081054970858
 30
0.0
 10
276.5970903010035
 20
198.4097515911761
 30
0.0
 10
276.5970903010035
 20
198.2979231978263
 30
0.0
 10
276.5970903010035
 20
198.2674878881361
 30
0.0
 10
276.5970903010035
 20
198.225106970526
 30
0.0
 10
276.5970903010035
 20
198.2136416774204
 30
0.0
 10
276.5970903010035
 20
198.2136416774204
 30
0.0
  0
ARC
  5
E9
330
1F
100
AcDbEntity
  8
0
  6
Continuous
 62
     7
370
    15
100
AcDbCircle
 10
259.067090301
 20
204.1254180602
 30
0.0
 40
18.50000000000002
100
AcDbArc
 50
198.6360443457
 51
341.3639556543
  0
SPLINE
  5
EA
330
1F
100
AcDbEntity
  8
0
  6
Continuous
 62
     7
370
    15
100
AcDbSpline
210
0.0
220
0.0
230
1.0
 70
    24
 71
     3
 72
    38
 73
    34
 74
     0
 42
0.00000001
 43
0.00000001
 12
1.0
 22
0.0
 32
0.0
 13
1.0
 23
0.0
 33
0.0
 40
0.0
 40
0.0
 40
0.0
 40
0.0
 40
0.0312500000000001
 40
0.0312500000000001
 40
0.0625000000000002
 40
0.0625000000000002
 40
0.0937500000000004
 40
0.0937500000000004
 40
0.1250000000000005
 40
0.1250000000000005
 40
0.1875000000000005
 40
0.1875000000000005
 40
0.2500000000000006
 40
0.2500000000000006
 40
0.3750000000000004
 40
0.3750000000000004
 40
0.4375000000000004
 40
0.4375000000000004
 40
0.5000000000000003
 40
0.5000000000000003
 40
0.6250000000000001
 40
0.6250000000000001
 40
0.7499999999999999
 40
0.7499999999999999
 40
0.8125
 40
0.8125
 40
0.875
 40
0.875
 40
0.9375
 40
0.9375
 40
0.96875
 40
0.96875
 40
1.0
 40
1.0
 40
1.0
 40
1.0
 10
241.5370903010035
 20
198.2136416774191
 30
0.0
 10
241.5370903010035
 20
198.2136416774191
 30
0.0
 10
241.5370903010035
 20
198.2600181331772
 30
0.0
 10
241.5370903010035
 20
198.4058786336818
 30
0.0
 10
241.5370903010035
 20
198.501798842587
 30
0.0
 10
241.5370903010035
 20
198.712575331798
 30
0.0
 10
241.5370903010035
 20
198.8262972171269
 30
0.0
 10
241.5370903010035
 20
199.0635874521079
 30
0.0
 10
241.5370903010035
 20
199.1877885416177
 30
0.0
 10
241.5370903010035
 20
199.5633196571713
 30
0.0
 10
241.5370903010035
 20
199.8200398602087
 30
0.0
 10
241.5370903010035
 20
200.3403070240132
 30
0.0
 10
241.5370903010035
 20
200.6039984958003
 30
0.0
 10
241.5370903010035
 20
201.4020132585828
 30
0.0
 10
241.5370903010035
 20
201.940198040152
 30
0.0
 10
241.5370903010035
 20
202.7476282320697
 30
0.0
 10
241.5370903010035
 20
203.0169187356575
 30
0.0
 10
241.5370903010035
 20
203.5604506580441
 30
0.0
 10
241.5370903010035
 20
203.8320595495498
 30
0.0
 10
241.5370903010035
 20
204.6464504073938
 30
0.0
 10
241.5370903010035
 20
205.1888191184591
 30
0.0
 10
241.5370903010035
 20
206.2721058994499
 30
0.0
 10
241.5370903010035
 20
206.8148793020911
 30
0.0
 10
241.5370903010035
 20
207.6205687281562
 30
0.0
 10
241.5370903010035
 20
207.886922499661
 30
0.0
 10
241.5370903010035
 20
208.4128084730549
 30
0.0
 10
241.5370903010035
 20
208.672482574549
 30
0.0
 10
241.5370903010035
 20
209.1795544318296
 30
0.0
 10
241.5370903010035
 20
209.4258287673931
 30
0.0
 10
241.5370903010035
 20
209.7463159263974
 30
0.0
 10
241.5370903010035
 20
209.8437066290805
 30
0.0
 10
241.5370903010035
 20
209.9900244219241
 30
0.0
 10
241.5370903010035
 20
210.0371944429811
 30
0.0
 10
241.5370903010035
 20
210.0371944429811
 30
0.0
  0
ARC
  5
EB
330
1F
100
AcDbEntity
  8
0
  6
Continuous
 62
     7
370
    15
100
AcDbCircle
 10
377.817090301
 20
322.8754180602
 30
0.0
 40
2.799999999999955
100
AcDbArc
 50
0.0
 51
90.0
  0
ARC
  5
EC
330
1F
100
AcDbEntity
  8
0
  6
Continuous
 62
     7
370
    15
100
AcDbCircle
 10
140.317090301
 20
322.8754180602
 30
0.0
 40
2.800000000000011
100
AcDbArc
 50
90.0
 51
180.0
  0
LINE
  5
ED
330
1F
100
AcDbEntity
  8
0
  6
Continuous
 62
     7
370
    15
100
AcDbLine
 10
377.8170888109
 20
325.6754192642
 30
0.0
 11
140.3170917911
 21
325.6754192642
 31
0.0
  0
LINE
  5
EE
330
1F
100
AcDbEntity
  8
0
  6
Continuous
 62
     7
370
    15
100
AcDbLine
 10
380.617091505
 20
85.3754195503
 30
0.0
 11
380.617091505
 21
322.8754165701
 31
0.0
  0
LINE
  5
EF
330
1F
100
AcDbEntity
  8
0
  6
Continuous
 62
     7
370
    15
100
AcDbLine
 10
137.517089097
 20
322.8754165701
 30
0.0
 11
137.517089097
 21
85.3754195503
 31
0.0
  0
ARC
  5
F0
330
1F
100
AcDbEntity
  8
0
  6
Continuous
 62
     7
370
    15
100
AcDbCircle
 10
377.817090301
 20
85.3754180602
 30
0.0
 40
2.799999999999997
100
AcDbArc
 50
270.0
 51
0.0
  0
ARC
  5
F1
330
1F
100
AcDbEntity
  8
0
  6
Continuous
 62
     7
370
    15
100
AcDbCircle
 10
140.317090301
 20
85.3754180602
 30
0.0
 40
2.800000000000011
100
AcDbArc
 50
180.0
 51
270.0
  0
LINE
  5
F2
330
1F
100
AcDbEntity
  8
0
  6
Continuous
 62
     7
370
    15
100
AcDbLine
 10
140.3170917911
 20
82.5754168562
 30
0.0
 11
377.8170888109
 21
82.5754168562
 31
0.0
  0
LINE
  5
F3
330
1F
100
AcDbEntity
  8
0
  6
Continuous
 62
     7
370
    15
100
AcDbLine
 10
380.0670896454
 20
329.1254180602
 30
0.0
 11
138.0670909567
 21
329.1254180602
 31
0.0
  0
ARC
  5
F4
330
1F
100
AcDbEntity
  8
0
  6
Continuous
 62
     7
370
    15
100
AcDbCircle
 10
380.067090301
 20
325.1254180602
 30
0.0
 40
4.000000000000057
100
AcDbArc
 50
0.0
 51
90.0
  0
LINE
  5
F5
330
1F
100
AcDbEntity
  8
0
  6
Continuous
 62
     7
370
    15
100
AcDbLine
 10
384.067090301
 20
83.1254187159
 30
0.0
 11
384.067090301
 21
325.1254174045
 31
0.0
  0
ARC
  5
F6
330
1F
100
AcDbEntity
  8
0
  6
Continuous
 62
     7
370
    15
100
AcDbCircle
 10
380.067090301
 20
83.1254180602
 30
0.0
 40
4.000000000000057
100
AcDbArc
 50
270.0
 51
0.0
  0
LINE
  5
F7
330
1F
100
AcDbEntity
  8
0
  6
Continuous
 62
     7
370
    15
100
AcDbLine
 10
138.0670909567
 20
79.1254180602
 30
0.0
 11
380.0670896454
 21
79.1254180602
 31
0.0
  0
ARC
  5
F8
330
1F
100
AcDbEntity
  8
0
  6
Continuous
 62
     7
370
    15
100
AcDbCircle
 10
138.067090301
 20
83.1254180602
 30
0.0
 40
4.0
100
AcDbArc
 50
180.0
 51
270.0
  0
LINE
  5
F9
330
1F
100
AcDbEntity
  8
0
  6
Continuous
 62
     7
370
    15
100
AcDbLine
 10
134.067090301
 20
325.1254174045
 30
0.0
 11
134.067090301
 21
83.1254187159
 31
0.0
  0
ARC
  5
FA
330
1F
100
AcDbEntity
  8
0
  6
Continuous
 62
     7
370
    15
100
AcDbCircle
 10
138.067090301
 20
325.1254180602
 30
0.0
 40
4.0
100
AcDbArc
 50
90.0
 51
180.0
  0
CIRCLE
  5
FB
330
1F
100
AcDbEntity
  8
0
  6
Continuous
 62
     7
370
     0
100
AcDbCircle
 10
259.067090301
 20
204.1254180602
 30
0.0
 40
16.49999999999997
  0
ARC
  5
FC
330
1F
100
AcDbEntity
  8
0
  6
Continuous
 62
     7
370
     0
100
AcDbCircle
 10
377.817090301
 20
322.8754180602
 30
0.0
 40
2.5
100
AcDbArc
 50
0.0
 51
90.0
  0
LINE
  5
FD
330
1F
100
AcDbEntity
  8
0
  6
Continuous
 62
     7
370
     0
100
AcDbLine
 10
377.8170888109
 20
325.6754192642
 30
0.0
 11
377.8170888109
 21
325.3754216365
 31
0.0
  0
LINE
  5
FE
330
1F
100
AcDbEntity
  8
0
  6
Continuous
 62
     7
370
     0
100
AcDbLine
 10
380.3170938773
 20
322.8754165701
 30
0.0
 11
380.617091505
 21
322.8754165701
 31
0.0
  0
ARC
  5
FF
330
1F
100
AcDbEntity
  8
0
  6
Continuous
 62
     7
370
     0
100
AcDbCircle
 10
377.817090301
 20
85.3754180602
 30
0.0
 40
2.5
100
AcDbArc
 50
270.0
 51
0.0
  0
LINE
  5
100
330
1F
100
AcDbEntity
  8
0
  6
Continuous
 62
     7
370
     0
100
AcDbLine
 10
140.3170917911
 20
82.8754144839
 30
0.0
 11
377.8170888109
 21
82.8754144839
 31
0.0
  0
ARC
  5
101
330
1F
100
AcDbEntity
  8
0
  6
Continuous
 62
     7
370
     0
100
AcDbCircle
 10
140.317090301
 20
85.3754180602
 30
0.0
 40
2.5
100
AcDbArc
 50
180.0
 51
270.0
  0
LINE
  5
102
330
1F
100
AcDbEntity
  8
0
  6
Continuous
 62
     7
370
     0
100
AcDbLine
 10
137.8170867247
 20
322.8754165701
 30
0.0
 11
137.8170867247
 21
85.3754195503
 31
0.0
  0
ARC
  5
103
330
1F
100
AcDbEntity
  8
0
  6
Continuous
 62
     7
370
     0
100
AcDbCircle
 10
140.317090301
 20
322.8754180602
 30
0.0
 40
2.5
100
AcDbArc
 50
90.0
 51
180.0
  0
LINE
  5
104
330
1F
100
AcDbEntity
  8
0
  6
Continuous
 62
     7
370
     0
100
AcDbLine
 10
377.8170888109
 20
325.3754216365
 30
0.0
 11
140.3170917911
 21
325.3754216365
 31
0.0
  0
LINE
  5
105
330
1F
100
AcDbEntity
  8
0
  6
Continuous
 62
     7
370
     0
100
AcDbLine
 10
380.3170938773
 20
85.3754195503
 30
0.0
 11
380.3170938773
 21
322.8754165701
 31
0.0
  0
LINE
  5
106
330
1F
100
AcDbEntity
  8
0
  6
Continuous
 62
     7
370
     0
100
AcDbLine
 10
137.517089097
 20
322.8754165701
 30
0.0
 11
137.8170867247
 21
322.8754165701
 31
0.0
  0
LINE
  5
107
330
1F
100
AcDbEntity
  8
0
  6
Continuous
 62
     7
370
     0
100
AcDbLine
 10
140.3170917911
 20
325.6754192642
 30
0.0
 11
140.3170917911
 21
325.3754216365
 31
0.0
  0
LINE
  5
108
330
1F
100
AcDbEntity
  8
0
  6
Continuous
 62
     7
370
     0
100
AcDbLine
 10
380.3170938773
 20
85.3754195503
 30
0.0
 11
380.617091505
 21
85.3754195503
 31
0.0
  0
LINE
  5
109
330
1F
100
AcDbEntity
  8
0
  6
Continuous
 62
     7
370
     0
100
AcDbLine
 10
137.517089097
 20
85.3754195503
 30
0.0
 11
137.8170867247
 21
85.3754195503
 31
0.0
  0
LINE
  5
10A
330
1F
100
AcDbEntity
  8
0
  6
Continuous
 62
     7
370
     0
100
AcDbLine
 10
377.8170888109
 20
82.8754144839
 30
0.0
 11
377.8170888109
 21
82.5754168562
 31
0.0
  0
LINE
  5
10B
330
1F
100
AcDbEntity
  8
0
  6
Continuous
 62
     7
370
     0
100
AcDbLine
 10
140.3170917911
 20
82.8754144839
 30
0.0
 11
140.3170917911
 21
82.5754168562
 31
0.0
  0
LINE
  5
10C
330
1F
100
AcDbEntity
  8
0
  6
Continuous
 62
     7
370
    15
100
AcDbLine
 10
495.0364464595
 20
392.0935451505
 30
0.0
 11
495.1214799358
 21
390.4778465848
 31
0.0
  0
LINE
  5
10D
330
1F
100
AcDbEntity
  8
0
  6
Continuous
 62
     7
370
    15
100
AcDbLine
 10
498.646141
 20
390.4778465848
 30
0.0
 11
498.7311819269
 21
392.0935451505
 31
0.0
  0
LINE
  5
10E
330
1F
100
AcDbEntity
  8
0
  6
Continuous
 62
     7
370
    15
100
AcDbLine
 10
509.4364443495
 20
392.0935451505
 30
0.0
 11
509.5214778258
 21
390.4778465848
 31
0.0
  0
LINE
  5
10F
330
1F
100
AcDbEntity
  8
0
  6
Continuous
 62
     7
370
    15
100
AcDbLine
 10
513.0461463405
 20
390.4778465848
 30
0.0
 11
513.1311798169
 21
392.0935451505
 31
0.0
  0
LINE
  5
110
330
1F
100
AcDbEntity
  8
0
  6
Continuous
 62
     7
370
    15
100
AcDbLine
 10
523.8364459647
 20
392.0935451505
 30
0.0
 11
523.9214794411
 21
390.4778465848
 31
0.0
  0
LINE
  5
111
330
1F
100
AcDbEntity
  8
0
  6
Continuous
 62
     7
370
    15
100
AcDbLine
 10
527.4461442305
 20
390.4778465848
 30
0.0
 11
527.5311814322
 21
392.0935451505
 31
0.0
  0
LINE
  5
112
330
1F
100
AcDbEntity
  8
0
  6
Continuous
 62
     7
370
    15
100
AcDbLine
 10
538.2364438547
 20
392.0935451505
 30
0.0
 11
538.3214810564
 21
390.4778465848
 31
0.0
  0
LINE
  5
113
330
1F
100
AcDbEntity
  8
0
  6
Continuous
 62
     7
370
    15
100
AcDbLine
 10
541.8461458458
 20
390.4778465848
 30
0.0
 11
541.9311793222
 21
392.0935451505
 31
0.0
  0
LINE
  5
114
330
1F
100
AcDbEntity
  8
0
  6
Continuous
 62
     7
370
    15
100
AcDbLine
 10
552.6364436074
 20
392.0935451505
 30
0.0
 11
552.721480809
 21
390.4778465848
 31
0.0
  0
LINE
  5
115
330
1F
100
AcDbEntity
  8
0
  6
Continuous
 62
     7
370
    15
100
AcDbLine
 10
556.2461437358
 20
390.4778465848
 30
0.0
 11
556.3311809375
 21
392.0935451505
 31
0.0
  0
LINE
  5
116
330
1F
100
AcDbEntity
  8
0
  6
Continuous
 62
     7
370
    15
100
AcDbLine
 10
567.03644336
 20
392.0935451505
 30
0.0
 11
567.1214805617
 21
390.4778465848
 31
0.0
  0
LINE
  5
117
330
1F
100
AcDbEntity
  8
0
  6
Continuous
 62
     7
370
    15
100
AcDbLine
 10
570.6461444198
 20
390.4778465848
 30
0.0
 11
570.7311806901
 21
392.0935451505
 31
0.0
  0
LINE
  5
118
330
1F
100
AcDbEntity
  8
0
  6
Continuous
 62
     7
370
    15
100
AcDbLine
 10
581.4364442768
 20
392.0935451505
 30
0.0
 11
581.5214810128
 21
390.4778465848
 31
0.0
  0
LINE
  5
119
330
1F
100
AcDbEntity
  8
0
  6
Continuous
 62
     7
370
    15
100
AcDbLine
 10
585.0461444053
 20
390.4778465848
 30
0.0
 11
585.1311811412
 21
392.0935451505
 31
0.0
  0
LINE
  5
11A
330
1F
100
AcDbEntity
  8
0
  6
Continuous
 62
     7
370
    15
100
AcDbLine
 10
595.836444728
 20
392.0935451505
 30
0.0
 11
595.9214809983
 21
390.4778465848
 31
0.0
  0
LINE
  5
11B
330
1F
100
AcDbEntity
  8
0
  6
Continuous
 62
     7
370
    15
100
AcDbLine
 10
599.4461448564
 20
390.4778465848
 30
0.0
 11
599.531182058
 21
392.0935451505
 31
0.0
  0
LINE
  5
11C
330
1F
100
AcDbEntity
  8
0
  6
Continuous
 62
     7
370
    15
100
AcDbLine
 10
610.2364444806
 20
392.0935451505
 30
0.0
 11
610.3214816822
 21
390.4778465848
 31
0.0
  0
LINE
  5
11D
330
1F
100
AcDbEntity
  8
0
  6
Continuous
 62
     7
370
    15
100
AcDbLine
 10
613.846144609
 20
390.4778465848
 30
0.0
 11
613.9311818107
 21
392.0935451505
 31
0.0
  0
LINE
  5
11E
330
1F
100
AcDbEntity
  8
0
  6
Continuous
 62
     7
370
    15
100
AcDbLine
 10
624.6364460959
 20
392.0935451505
 30
0.0
 11
624.7214795722
 21
390.4778465848
 31
0.0
  0
LINE
  5
11F
330
1F
100
AcDbEntity
  8
0
  6
Continuous
 62
     7
370
    15
100
AcDbLine
 10
628.2461443617
 20
390.4778465848
 30
0.0
 11
628.3311815633
 21
392.0935451505
 31
0.0
  0
LINE
  5
120
330
1F
100
AcDbEntity
  8
0
  6
Continuous
 62
     7
370
    15
100
AcDbLine
 10
639.0364439859
 20
392.0935451505
 30
0.0
 11
639.1214811875
 21
390.4778465848
 31
0.0
  0
LINE
  5
121
330
1F
100
AcDbEntity
  8
0
  6
Continuous
 62
     7
370
    15
100
AcDbLine
 10
642.646145977
 20
390.4778465848
 30
0.0
 11
642.7311794533
 21
392.0935451505
 31
0.0
  0
LINE
  5
122
330
1F
100
AcDbEntity
  8
0
  6
Continuous
 62
     7
370
    15
100
AcDbLine
 10
653.4364456012
 20
392.0935451505
 30
0.0
 11
653.5214790775
 21
390.4778465848
 31
0.0
  0
LINE
  5
123
330
1F
100
AcDbEntity
  8
0
  6
Continuous
 62
     7
370
    15
100
AcDbLine
 10
657.0461475922
 20
390.4778465848
 30
0.0
 11
657.1311810686
 21
392.0935451505
 31
0.0
  0
LINE
  5
124
330
1F
100
AcDbEntity
  8
0
  6
Continuous
 62
     7
370
    15
100
AcDbLine
 10
667.8364434912
 20
392.0935451505
 30
0.0
 11
667.9214844181
 21
390.4778465848
 31
0.0
  0
LINE
  5
125
330
1F
100
AcDbEntity
  8
0
  6
Continuous
 62
     7
370
    15
100
AcDbLine
 10
671.4461454822
 20
390.4778465848
 30
0.0
 11
671.5311789586
 21
392.0935451505
 31
0.0
  0
ARC
  5
126
330
1F
100
AcDbEntity
  8
0
  6
Continuous
 62
     7
370
    15
100
AcDbCircle
 10
496.36975334
 20
390.5435451505
 30
0.0
 40
1.249999999999943
100
AcDbArc
 50
183.0127875042
 51
270.0
  0
ARC
  5
127
330
1F
100
AcDbEntity
  8
0
  6
Continuous
 62
     7
370
    15
100
AcDbCircle
 10
497.3978720781
 20
390.5435451505
 30
0.0
 40
1.250000000000089
100
AcDbArc
 50
270.0
 51
356.9872124958
  0
ARC
  5
128
330
1F
100
AcDbEntity
  8
0
  6
Continuous
 62
     7
370
    15
100
AcDbCircle
 10
510.76975334
 20
390.5435451505
 30
0.0
 40
1.249999999999943
100
AcDbArc
 50
183.0127875042
 51
270.0
  0
ARC
  5
129
330
1F
100
AcDbEntity
  8
0
  6
Continuous
 62
     7
370
    15
100
AcDbCircle
 10
511.7978720781
 20
390.5435451505
 30
0.0
 40
1.249999999999943
100
AcDbArc
 50
270.0
 51
356.9872124958
  0
ARC
  5
12A
330
1F
100
AcDbEntity
  8
0
  6
Continuous
 62
     7
370
    15
100
AcDbCircle
 10
525.16975334
 20
390.5435451505
 30
0.0
 40
1.249999999999975
100
AcDbArc
 50
183.0127875042
 51
270.0
  0
ARC
  5
12B
330
1F
100
AcDbEntity
  8
0
  6
Continuous
 62
     7
370
    15
100
AcDbCircle
 10
526.1978720781
 20
390.5435451505
 30
0.0
 40
1.249999999999943
100
AcDbArc
 50
270.0
 51
356.9872124958
  0
ARC
  5
12C
330
1F
100
AcDbEntity
  8
0
  6
Continuous
 62
     7
370
    15
100
AcDbCircle
 10
539.56975334
 20
390.5435451505
 30
0.0
 40
1.249999999999975
100
AcDbArc
 50
183.0127875042
 51
270.0
  0
ARC
  5
12D
330
1F
100
AcDbEntity
  8
0
  6
Continuous
 62
     7
370
    15
100
AcDbCircle
 10
540.5978720781
 20
390.5435451505
 30
0.0
 40
1.250000000000089
100
AcDbArc
 50
270.0
 51
356.9872124958
  0
ARC
  5
12E
330
1F
100
AcDbEntity
  8
0
  6
Continuous
 62
     7
370
    15
100
AcDbCircle
 10
553.96975334
 20
390.5435451505
 30
0.0
 40
1.249999999999943
100
AcDbArc
 50
183.0127875042
 51
270.0
  0
ARC
  5
12F
330
1F
100
AcDbEntity
  8
0
  6
Continuous
 62
     7
370
    15
100
AcDbCircle
 10
554.9978720781
 20
390.5435451505
 30
0.0
 40
1.250000000000089
100
AcDbArc
 50
270.0
 51
356.9872124958
  0
ARC
  5
130
330
1F
100
AcDbEntity
  8
0
  6
Continuous
 62
     7
370
    15
100
AcDbCircle
 10
568.36975334
 20
390.5435451505
 30
0.0
 40
1.250000000000089
100
AcDbArc
 50
183.0127875042
 51
270.0
  0
ARC
  5
131
330
1F
100
AcDbEntity
  8
0
  6
Continuous
 62
     7
370
    15
100
AcDbCircle
 10
569.3978720781
 20
390.5435451505
 30
0.0
 40
1.249999999999975
100
AcDbArc
 50
270.0
 51
356.9872124958
  0
ARC
  5
132
330
1F
100
AcDbEntity
  8
0
  6
Continuous
 62
     7
370
    15
100
AcDbCircle
 10
582.76975334
 20
390.5435451505
 30
0.0
 40
1.249999999999975
100
AcDbArc
 50
183.0127875042
 51
270.0
  0
ARC
  5
133
330
1F
100
AcDbEntity
  8
0
  6
Continuous
 62
     7
370
    15
100
AcDbCircle
 10
583.7978720781
 20
390.5435451505
 30
0.0
 40
1.250000000000089
100
AcDbArc
 50
270.0
 51
356.9872124958
  0
ARC
  5
134
330
1F
100
AcDbEntity
  8
0
  6
Continuous
 62
     7
370
    15
100
AcDbCircle
 10
597.16975334
 20
390.5435451505
 30
0.0
 40
1.249999999999975
100
AcDbArc
 50
183.0127875042
 51
270.0
  0
ARC
  5
135
330
1F
100
AcDbEntity
  8
0
  6
Continuous
 62
     7
370
    15
100
AcDbCircle
 10
598.1978720781
 20
390.5435451505
 30
0.0
 40
1.250000000000089
100
AcDbArc
 50
270.0
 51
356.9872124958
  0
ARC
  5
136
330
1F
100
AcDbEntity
  8
0
  6
Continuous
 62
     7
370
    15
100
AcDbCircle
 10
611.56975334
 20
390.5435451505
 30
0.0
 40
1.249999999999975
100
AcDbArc
 50
183.0127875042
 51
270.0
  0
ARC
  5
137
330
1F
100
AcDbEntity
  8
0
  6
Continuous
 62
     7
370
    15
100
AcDbCircle
 10
612.5978720781
 20
390.5435451505
 30
0.0
 40
1.249999999999975
100
AcDbArc
 50
270.0
 51
356.9872124958
  0
ARC
  5
138
330
1F
100
AcDbEntity
  8
0
  6
Continuous
 62
     7
370
    15
100
AcDbCircle
 10
625.96975334
 20
390.5435451505
 30
0.0
 40
1.250000000000089
100
AcDbArc
 50
183.0127875042
 51
270.0
  0
ARC
  5
139
330
1F
100
AcDbEntity
  8
0
  6
Continuous
 62
     7
370
    15
100
AcDbCircle
 10
626.9978720781
 20
390.5435451505
 30
0.0
 40
1.249999999999975
100
AcDbArc
 50
270.0
 51
356.9872124958
  0
ARC
  5
13A
330
1F
100
AcDbEntity
  8
0
  6
Continuous
 62
     7
370
    15
100
AcDbCircle
 10
640.36975334
 20
390.5435451505
 30
0.0
 40
1.250000000000089
100
AcDbArc
 50
183.0127875042
 51
270.0
  0
ARC
  5
13B
330
1F
100
AcDbEntity
  8
0
  6
Continuous
 62
     7
370
    15
100
AcDbCircle
 10
641.3978720781
 20
390.5435451505
 30
0.0
 40
1.249999999999975
100
AcDbArc
 50
270.0
 51
356.9872124958
  0
ARC
  5
13C
330
1F
100
AcDbEntity
  8
0
  6
Continuous
 62
     7
370
    15
100
AcDbCircle
 10
654.76975334
 20
390.5435451505
 30
0.0
 40
1.249999999999975
100
AcDbArc
 50
183.0127875042
 51
270.0
  0
ARC
  5
13D
330
1F
100
AcDbEntity
  8
0
  6
Continuous
 62
     7
370
    15
100
AcDbCircle
 10
655.7978720781
 20
390.5435451505
 30
0.0
 40
1.249999999999975
100
AcDbArc
 50
270.0
 51
356.9872124958
  0
ARC
  5
13E
330
1F
100
AcDbEntity
  8
0
  6
Continuous
 62
     7
370
    15
100
AcDbCircle
 10
669.16975334
 20
390.5435451505
 30
0.0
 40
1.250000000000089
100
AcDbArc
 50
183.0127875042
 51
270.0
  0
ARC
  5
13F
330
1F
100
AcDbEntity
  8
0
  6
Continuous
 62
     7
370
    15
100
AcDbCircle
 10
670.1978720781
 20
390.5435451505
 30
0.0
 40
1.249999999999943
100
AcDbArc
 50
270.0
 51
356.9872124958
  0
LINE
  5
140
330
1F
100
AcDbEntity
  8
0
  6
Continuous
 62
     7
370
    15
100
AcDbLine
 10
564.7838124706
 20
424.1935446379
 30
0.0
 11
564.7838124706
 21
408.6935448912
 31
0.0
  0
ARC
  5
141
330
1F
100
AcDbEntity
  8
0
  6
Continuous
 62
     7
370
    15
100
AcDbCircle
 10
566.783812709
 20
424.1935451505
 30
0.0
 40
2.0
100
AcDbArc
 50
90.0
 51
180.0
  0
ARC
  5
142
330
1F
100
AcDbEntity
  8
0
  6
Continuous
 62
     7
370
    15
100
AcDbCircle
 10
599.783812709
 20
424.1935451505
 30
0.0
 40
2.0
100
AcDbArc
 50
0.0
 51
90.0
  0
LINE
  5
143
330
1F
100
AcDbEntity
  8
0
  6
Continuous
 62
     7
370
    15
100
AcDbLine
 10
601.7838129474
 20
408.6935448912
 30
0.0
 11
601.7838129474
 21
424.1935446379
 31
0.0
  0
LINE
  5
144
330
1F
100
AcDbEntity
  8
0
  6
Continuous
 62
     7
370
    15
100
AcDbLine
 10
571.2838126047
 20
433.1935442505
 30
0.0
 11
574.003812827
 21
430.8543860433
 31
0.0
  0
LINE
  5
145
330
1F
100
AcDbEntity
  8
0
  6
Continuous
 62
     7
370
    15
100
AcDbLine
 10
592.563812591
 20
430.8543860433
 30
0.0
 11
595.2838128133
 21
433.1935442505
 31
0.0
  0
LINE
  5
146
330
1F
100
AcDbEntity
  8
0
  6
Continuous
 62
     7
370
    15
100
AcDbLine
 10
571.2838126047
 20
440.6935445485
 30
0.0
 11
571.2838126047
 21
433.1935442505
 31
0.0
  0
LINE
  5
147
330
1F
100
AcDbEntity
  8
0
  6
Continuous
 62
     7
370
    15
100
AcDbLine
 10
595.2838128133
 20
433.1935442505
 30
0.0
 11
595.2838128133
 21
440.6935445485
 31
0.0
  0
ARC
  5
148
330
1F
100
AcDbEntity
  8
0
  6
Continuous
 62
     7
370
    15
100
AcDbCircle
 10
583.2259582894
 20
420.8321677761
 30
0.0
 40
12.625
100
AcDbArc
 50
136.9255566501
 51
154.8706306359
  0
ARC
  5
149
330
1F
100
AcDbEntity
  8
0
  6
Continuous
 62
     7
370
    15
100
AcDbCircle
 10
583.3416671287
 20
420.8321677761
 30
0.0
 40
12.62499999999991
100
AcDbArc
 50
25.1293693641
 51
43.0744433499
  0
LINE
  5
14A
330
1F
100
AcDbEntity
  8
0
  6
Continuous
 62
     7
370
    15
100
AcDbLine
 10
574.003812827
 20
430.8543860433
 30
0.0
 11
574.003812827
 21
429.4543846962
 31
0.0
  0
LINE
  5
14B
330
1F
100
AcDbEntity
  8
0
  6
Continuous
 62
     7
370
    15
100
AcDbLine
 10
592.563812591
 20
429.4543846962
 30
0.0
 11
592.563812591
 21
430.8543860433
 31
0.0
  0
LINE
  5
14C
330
1F
100
AcDbEntity
  8
0
  6
Continuous
 62
     7
370
    15
100
AcDbLine
 10
458.283812709
 20
408.5935450611
 30
0.0
 11
462.2838133647
 21
408.5935450611
 31
0.0
  0
LINE
  5
14D
330
1F
100
AcDbEntity
  8
0
  6
Continuous
 62
     7
370
    15
100
AcDbLine
 10
458.283812709
 20
408.5935450611
 30
0.0
 11
458.554671116
 21
393.076092795
 31
0.0
  0
LINE
  5
14E
330
1F
100
AcDbEntity
  8
0
  6
Continuous
 62
     7
370
    15
100
AcDbLine
 10
462.2838133647
 20
408.5935450611
 30
0.0
 11
704.2838120534
 21
408.5935450611
 31
0.0
  0
LINE
  5
14F
330
1F
100
AcDbEntity
  8
0
  6
Continuous
 62
     7
370
    15
100
AcDbLine
 10
708.283812709
 20
408.5935450611
 30
0.0
 11
708.012954302
 21
393.076092795
 31
0.0
  0
LINE
  5
150
330
1F
100
AcDbEntity
  8
0
  6
Continuous
 62
     7
370
    15
100
AcDbLine
 10
704.2838120534
 20
408.5935450611
 30
0.0
 11
708.283812709
 21
408.5935450611
 31
0.0
  0
LINE
  5
151
330
1F
100
AcDbEntity
  8
0
  6
Continuous
 62
     7
370
    15
100
AcDbLine
 10
462.2838133647
 20
392.0935451505
 30
0.0
 11
459.5545166804
 21
392.0935451505
 31
0.0
  0
ARC
  5
152
330
1F
100
AcDbEntity
  8
0
  6
Continuous
 62
     7
370
    15
100
AcDbCircle
 10
459.5545185435
 20
393.0935451505
 30
0.0
 40
1.0
100
AcDbArc
 50
181.0
 51
270.0
  0
LINE
  5
153
330
1F
100
AcDbEntity
  8
0
  6
Continuous
 62
     7
370
    15
100
AcDbLine
 10
704.2838120534
 20
392.0935451505
 30
0.0
 11
462.2838133647
 21
392.0935451505
 31
0.0
  0
ARC
  5
154
330
1F
100
AcDbEntity
  8
0
  6
Continuous
 62
     7
370
    15
100
AcDbCircle
 10
707.0131068746
 20
393.0935451505
 30
0.0
 40
1.000000000000014
100
AcDbArc
 50
270.0
 51
359.0
  0
LINE
  5
155
330
1F
100
AcDbEntity
  8
0
  6
Continuous
 62
     7
370
    15
100
AcDbLine
 10
707.0131087376
 20
392.0935451505
 30
0.0
 11
704.2838120534
 21
392.0935451505
 31
0.0
  0
LINE
  5
156
330
1F
100
AcDbEntity
  8
0
  6
Continuous
 62
     7
370
    15
100
AcDbLine
 10
464.5338141991
 20
408.6935448912
 30
0.0
 11
702.0338112189
 21
408.6935448912
 31
0.0
  0
LINE
  5
157
330
1F
100
AcDbEntity
  8
0
  6
Continuous
 62
     7
370
    15
100
AcDbLine
 10
462.0338091328
 20
408.6935448912
 30
0.0
 11
464.5338141991
 21
408.6935448912
 31
0.0
  0
ARC
  5
158
330
1F
100
AcDbEntity
  8
0
  6
Continuous
 62
     7
370
    15
100
AcDbCircle
 10
462.033812709
 20
408.1935451505
 30
0.0
 40
0.5000000000000341
100
AcDbArc
 50
90.0
 51
126.8698976458
  0
LINE
  5
159
330
1F
100
AcDbEntity
  8
0
  6
Continuous
 62
     7
370
    15
100
AcDbLine
 10
702.0338112189
 20
408.6935448912
 30
0.0
 11
704.5338162853
 21
408.6935448912
 31
0.0
  0
ARC
  5
15A
330
1F
100
AcDbEntity
  8
0
  6
Continuous
 62
     7
370
    15
100
AcDbCircle
 10
704.533812709
 20
408.1935451505
 30
0.0
 40
0.5
100
AcDbArc
 50
53.1301023542
 51
90.0
  0
LINE
  5
15B
330
1F
100
AcDbEntity
  8
0
  6
Continuous
 62
     7
370
    15
100
AcDbLine
 10
496.369750209
 20
389.2935452503
 30
0.0
 11
497.3978707268
 21
389.2935452503
 31
0.0
  0
LINE
  5
15C
330
1F
100
AcDbEntity
  8
0
  6
Continuous
 62
     7
370
    15
100
AcDbLine
 10
510.7697555496
 20
389.2935452503
 30
0.0
 11
511.7978686168
 21
389.2935452503
 31
0.0
  0
LINE
  5
15D
330
1F
100
AcDbEntity
  8
0
  6
Continuous
 62
     7
370
    15
100
AcDbLine
 10
525.1697534396
 20
389.2935452503
 30
0.0
 11
526.197870232
 21
389.2935452503
 31
0.0
  0
LINE
  5
15E
330
1F
100
AcDbEntity
  8
0
  6
Continuous
 62
     7
370
    15
100
AcDbLine
 10
539.5697550549
 20
389.2935452503
 30
0.0
 11
540.5978718473
 21
389.2935452503
 31
0.0
  0
LINE
  5
15F
330
1F
100
AcDbEntity
  8
0
  6
Continuous
 62
     7
370
    15
100
AcDbLine
 10
553.9697529449
 20
389.2935452503
 30
0.0
 11
554.9978716
 21
389.2935452503
 31
0.0
  0
LINE
  5
160
330
1F
100
AcDbEntity
  8
0
  6
Continuous
 62
     7
370
    15
100
AcDbLine
 10
568.3697536288
 20
389.2935452503
 30
0.0
 11
569.3978722839
 21
389.2935452503
 31
0.0
  0
LINE
  5
161
330
1F
100
AcDbEntity
  8
0
  6
Continuous
 62
     7
370
    15
100
AcDbLine
 10
582.7697533233
 20
389.2935452503
 30
0.0
 11
583.7978720948
 21
389.2935452503
 31
0.0
  0
LINE
  5
162
330
1F
100
AcDbEntity
  8
0
  6
Continuous
 62
     7
370
    15
100
AcDbLine
 10
597.1697531341
 20
389.2935452503
 30
0.0
 11
598.1978717892
 21
389.2935452503
 31
0.0
  0
LINE
  5
163
330
1F
100
AcDbEntity
  8
0
  6
Continuous
 62
     7
370
    15
100
AcDbLine
 10
611.5697538181
 20
389.2935452503
 30
0.0
 11
612.5978724732
 21
389.2935452503
 31
0.0
  0
LINE
  5
164
330
1F
100
AcDbEntity
  8
0
  6
Continuous
 62
     7
370
    15
100
AcDbLine
 10
625.9697535707
 20
389.2935452503
 30
0.0
 11
626.9978703632
 21
389.2935452503
 31
0.0
  0
LINE
  5
165
330
1F
100
AcDbEntity
  8
0
  6
Continuous
 62
     7
370
    15
100
AcDbLine
 10
640.369755186
 20
389.2935452503
 30
0.0
 11
641.3978719785
 21
389.2935452503
 31
0.0
  0
LINE
  5
166
330
1F
100
AcDbEntity
  8
0
  6
Continuous
 62
     7
370
    15
100
AcDbLine
 10
654.7697568013
 20
389.2935452503
 30
0.0
 11
655.7978698685
 21
389.2935452503
 31
0.0
  0
LINE
  5
167
330
1F
100
AcDbEntity
  8
0
  6
Continuous
 62
     7
370
    15
100
AcDbLine
 10
669.1697546913
 20
389.2935452503
 30
0.0
 11
670.197875209
 21
389.2935452503
 31
0.0
  0
LINE
  5
168
330
1F
100
AcDbEntity
  8
0
  6
Continuous
 62
     7
370
    15
100
AcDbLine
 10
577.3720363787
 20
408.6935448912
 30
0.0
 11
577.3720363787
 21
424.1935446379
 31
0.0
  0
LINE
  5
169
330
1F
100
AcDbEntity
  8
0
  6
Continuous
 62
     7
370
    15
100
AcDbLine
 10
566.7838127984
 20
426.1935449657
 30
0.0
 11
599.7838126196
 21
426.1935449657
 31
0.0
  0
SPLINE
  5
16A
330
1F
100
AcDbEntity
  8
0
  6
Continuous
 62
     7
370
    15
100
AcDbSpline
210
0.0
220
0.0
230
1.0
 70
     8
 71
     3
 72
    38
 73
    34
 74
     0
 42
0.00000001
 43
0.00000001
 12
1.0
 22
0.0
 32
0.0
 13
1.0
 23
0.0
 33
0.0
 40
0.0
 40
0.0
 40
0.0
 40
0.0
 40
0.0312500000000001
 40
0.0312500000000001
 40
0.0625000000000002
 40
0.0625000000000002
 40
0.0937500000000004
 40
0.0937500000000004
 40
0.1250000000000005
 40
0.1250000000000005
 40
0.1875000000000005
 40
0.1875000000000005
 40
0.2500000000000006
 40
0.2500000000000006
 40
0.3750000000000004
 40
0.3750000000000004
 40
0.4375000000000004
 40
0.4375000000000004
 40
0.5000000000000003
 40
0.5000000000000003
 40
0.6250000000000001
 40
0.6250000000000001
 40
0.7499999999999999
 40
0.7499999999999999
 40
0.8125
 40
0.8125
 40
0.875
 40
0.875
 40
0.9375
 40
0.9375
 40
0.96875
 40
0.96875
 40
1.0
 40
1.0
 40
1.0
 40
1.0
 10
589.1955890918103
 20
424.1935451505021
 30
0.0
 10
589.1955890918103
 20
424.3297587724033
 30
0.0
 10
589.1492126360522
 20
424.4643924664473
 30
0.0
 10
589.0033521355476
 20
424.6964902418386
 30
0.0
 10
588.9074319266424
 20
424.7949057175883
 30
0.0
 10
588.6966554374314
 20
424.9677210570505
 30
0.0
 10
588.5829335521025
 20
425.0410074929676
 30
0.0
 10
588.3456433171215
 20
425.1720772053887
 30
0.0
 10
588.2214422276118
 20
425.2297649227559
 30
0.0
 10
587.8459111120582
 20
425.3832315301535
 30
0.0
 10
587.5891909090208
 20
425.4615104171626
 30
0.0
 10
587.0689237452162
 20
425.5922971175544
 30
0.0
 10
586.8052322734292
 20
425.6442594004985
 30
0.0
 10
586.0072175106467
 20
425.7739463735677
 30
0.0
 10
585.4690327290774
 20
425.8256440128215
 30
0.0
 10
584.6616025371598
 20
425.8758495878615
 30
0.0
 10
584.3923120335719
 20
425.8877834884322
 30
0.0
 10
583.8487801111853
 20
425.9037676406783
 30
0.0
 10
583.5771712196797
 20
425.9077135811057
 30
0.0
 10
582.7627803618356
 20
425.9083247078915
 30
0.0
 10
582.2204116507703
 20
425.894344384368
 30
0.0
 10
581.1371248697795
 20
425.8290150318319
 30
0.0
 10
580.5943514671384
 20
425.7780701429201
 30
0.0
 10
579.7886620410733
 20
425.6491699239502
 30
0.0
 10
579.5223082695685
 20
425.5974171868713
 30
0.0
 10
578.9964222961745
 20
425.4667843963136
 30
0.0
 10
578.7367481946804
 20
425.3884686345884
 30
0.0
 10
578.2296763373998
 20
425.1830178022373
 30
0.0
 10
577.9834020018363
 20
425.0587954749223
 30
0.0
 10
577.6629148428319
 20
424.7976750886622
 30
0.0
 10
577.5655241401489
 20
424.6979533166025
 30
0.0
 10
577.4192063473052
 20
424.4661752089937
 30
0.0
 10
577.3720363262483
 20
424.3323519133042
 30
0.0
 10
577.3720363262483
 20
424.1935451505021
 30
0.0
  0
LINE
  5
16B
330
1F
100
AcDbEntity
  8
0
  6
Continuous
 62
     7
370
    15
100
AcDbLine
 10
589.1955890394
 20
424.1935446379
 30
0.0
 11
589.1955890394
 21
408.6935448912
 31
0.0
  0
LINE
  5
16C
330
1F
100
AcDbEntity
  8
0
  6
Continuous
 62
     7
370
    15
100
AcDbLine
 10
571.2838126047
 20
433.1935442505
 30
0.0
 11
595.2838128133
 21
433.1935442505
 31
0.0
  0
LINE
  5
16D
330
1F
100
AcDbEntity
  8
0
  6
Continuous
 62
     7
370
    15
100
AcDbLine
 10
574.003812827
 20
430.8543860433
 30
0.0
 11
592.563812591
 21
430.8543860433
 31
0.0
  0
LINE
  5
16E
330
1F
100
AcDbEntity
  8
0
  6
Continuous
 62
     7
370
    15
100
AcDbLine
 10
571.2838126047
 20
440.6935445485
 30
0.0
 11
572.033812262
 21
440.6935445485
 31
0.0
  0
LINE
  5
16F
330
1F
100
AcDbEntity
  8
0
  6
Continuous
 62
     7
370
    15
100
AcDbLine
 10
572.033812262
 20
440.6935445485
 30
0.0
 11
572.033812262
 21
447.1935465453
 31
0.0
  0
LINE
  5
170
330
1F
100
AcDbEntity
  8
0
  6
Continuous
 62
     7
370
    15
100
AcDbLine
 10
572.033812262
 20
447.1935465453
 30
0.0
 11
594.5338131561
 21
447.1935465453
 31
0.0
  0
LINE
  5
171
330
1F
100
AcDbEntity
  8
0
  6
Continuous
 62
     7
370
    15
100
AcDbLine
 10
594.5338131561
 20
440.6935445485
 30
0.0
 11
594.5338131561
 21
447.1935465453
 31
0.0
  0
LINE
  5
172
330
1F
100
AcDbEntity
  8
0
  6
Continuous
 62
     7
370
    15
100
AcDbLine
 10
595.2838128133
 20
440.6935445485
 30
0.0
 11
594.5338131561
 21
440.6935445485
 31
0.0
  0
LINE
  5
173
330
1F
100
AcDbEntity
  8
0
  6
Continuous
 62
     7
370
    15
100
AcDbLine
 10
574.003812827
 20
429.4543846962
 30
0.0
 11
592.563812591
 21
429.4543846962
 31
0.0
  0
LINE
  5
174
330
1F
100
AcDbEntity
  8
0
  6
Continuous
 62
     7
370
     0
100
AcDbLine
 10
462.2838133647
 20
408.5935450611
 30
0.0
 11
462.2838133647
 21
393.076092795
 31
0.0
  0
LINE
  5
175
330
1F
100
AcDbEntity
  8
0
  6
Continuous
 62
     7
370
     0
100
AcDbLine
 10
458.554671116
 20
393.076092795
 30
0.0
 11
462.2838133647
 21
393.076092795
 31
0.0
  0
LINE
  5
176
330
1F
100
AcDbEntity
  8
0
  6
Continuous
 62
     7
370
     0
100
AcDbLine
 10
704.2838120534
 20
408.5935450611
 30
0.0
 11
704.2838120534
 21
393.076092795
 31
0.0
  0
LINE
  5
177
330
1F
100
AcDbEntity
  8
0
  6
Continuous
 62
     7
370
     0
100
AcDbLine
 10
462.2838133647
 20
393.076092795
 30
0.0
 11
704.2838120534
 21
393.076092795
 31
0.0
  0
LINE
  5
178
330
1F
100
AcDbEntity
  8
0
  6
Continuous
 62
     7
370
     0
100
AcDbLine
 10
704.2838120534
 20
393.076092795
 30
0.0
 11
708.012954302
 21
393.076092795
 31
0.0
  0
LINE
  5
179
330
1F
100
AcDbEntity
  8
0
  6
Continuous
 62
     7
370
     0
100
AcDbLine
 10
462.2838133647
 20
393.076092795
 30
0.0
 11
462.2838133647
 21
392.0935451505
 31
0.0
  0
LINE
  5
17A
330
1F
100
AcDbEntity
  8
0
  6
Continuous
 62
     7
370
     0
100
AcDbLine
 10
704.2838120534
 20
393.076092795
 30
0.0
 11
704.2838120534
 21
392.0935451505
 31
0.0
  0
LINE
  5
17B
330
1F
100
AcDbEntity
  8
0
  6
Continuous
 62
     7
370
     0
100
AcDbLine
 10
702.0338112189
 20
408.5935450611
 30
0.0
 11
702.0338112189
 21
408.6935448912
 31
0.0
  0
LINE
  5
17C
330
1F
100
AcDbEntity
  8
0
  6
Continuous
 62
     7
370
     0
100
AcDbLine
 10
464.5338141991
 20
408.5935450611
 30
0.0
 11
464.5338141991
 21
408.6935448912
 31
0.0
  0
LINE
  5
17D
330
1F
100
AcDbEntity
  8
0
  6
Continuous
 62
     7
370
     0
100
AcDbLine
 10
495.1214799358
 20
390.4778465848
 30
0.0
 11
498.646141
 21
390.4778465848
 31
0.0
  0
LINE
  5
17E
330
1F
100
AcDbEntity
  8
0
  6
Continuous
 62
     7
370
     0
100
AcDbLine
 10
509.5214778258
 20
390.4778465848
 30
0.0
 11
513.0461463405
 21
390.4778465848
 31
0.0
  0
LINE
  5
17F
330
1F
100
AcDbEntity
  8
0
  6
Continuous
 62
     7
370
     0
100
AcDbLine
 10
523.9214794411
 20
390.4778465848
 30
0.0
 11
527.4461442305
 21
390.4778465848
 31
0.0
  0
LINE
  5
180
330
1F
100
AcDbEntity
  8
0
  6
Continuous
 62
     7
370
     0
100
AcDbLine
 10
538.3214810564
 20
390.4778465848
 30
0.0
 11
541.8461458458
 21
390.4778465848
 31
0.0
  0
LINE
  5
181
330
1F
100
AcDbEntity
  8
0
  6
Continuous
 62
     7
370
     0
100
AcDbLine
 10
552.721480809
 20
390.4778465848
 30
0.0
 11
556.2461437358
 21
390.4778465848
 31
0.0
  0
LINE
  5
182
330
1F
100
AcDbEntity
  8
0
  6
Continuous
 62
     7
370
     0
100
AcDbLine
 10
567.1214805617
 20
390.4778465848
 30
0.0
 11
570.6461444198
 21
390.4778465848
 31
0.0
  0
LINE
  5
183
330
1F
100
AcDbEntity
  8
0
  6
Continuous
 62
     7
370
     0
100
AcDbLine
 10
581.5214810128
 20
390.4778465848
 30
0.0
 11
585.0461444053
 21
390.4778465848
 31
0.0
  0
LINE
  5
184
330
1F
100
AcDbEntity
  8
0
  6
Continuous
 62
     7
370
     0
100
AcDbLine
 10
595.9214809983
 20
390.4778465848
 30
0.0
 11
599.4461448564
 21
390.4778465848
 31
0.0
  0
LINE
  5
185
330
1F
100
AcDbEntity
  8
0
  6
Continuous
 62
     7
370
     0
100
AcDbLine
 10
610.3214816822
 20
390.4778465848
 30
0.0
 11
613.846144609
 21
390.4778465848
 31
0.0
  0
LINE
  5
186
330
1F
100
AcDbEntity
  8
0
  6
Continuous
 62
     7
370
     0
100
AcDbLine
 10
624.7214795722
 20
390.4778465848
 30
0.0
 11
628.2461443617
 21
390.4778465848
 31
0.0
  0
LINE
  5
187
330
1F
100
AcDbEntity
  8
0
  6
Continuous
 62
     7
370
     0
100
AcDbLine
 10
639.1214811875
 20
390.4778465848
 30
0.0
 11
642.646145977
 21
390.4778465848
 31
0.0
  0
LINE
  5
188
330
1F
100
AcDbEntity
  8
0
  6
Continuous
 62
     7
370
     0
100
AcDbLine
 10
653.5214790775
 20
390.4778465848
 30
0.0
 11
657.0461475922
 21
390.4778465848
 31
0.0
  0
LINE
  5
189
330
1F
100
AcDbEntity
  8
0
  6
Continuous
 62
     7
370
     0
100
AcDbLine
 10
667.9214844181
 20
390.4778465848
 30
0.0
 11
671.4461454822
 21
390.4778465848
 31
0.0
  0
LINE
  5
18A
330
1F
100
AcDbEntity
  8
0
  6
Continuous
 62
     7
370
     0
100
AcDbLine
 10
577.3720363787
 20
424.1935446379
 30
0.0
 11
564.7838124706
 21
424.1935446379
 31
0.0
  0
LINE
  5
18B
330
1F
100
AcDbEntity
  8
0
  6
Continuous
 62
     7
370
     0
100
AcDbLine
 10
601.7838129474
 20
424.1935446379
 30
0.0
 11
589.1955890394
 21
424.1935446379
 31
0.0
  0
ENDSEC
  0
SECTION
  2
OBJECTS
  0
DICTIONARY
  5
C
330
0
100
AcDbDictionary
281
     1
  3
ACAD_GROUP
350
D
  3
ACAD_LAYOUT
350
1A
  3
ACAD_MLINESTYLE
350
17
  3
ACAD_PLOTSETTINGS
350
19
  3
ACAD_PLOTSTYLENAME
350
E
  0
DICTIONARY
  5
D
102
{ACAD_REACTORS
330
C
102
}
330
C
100
AcDbDictionary
281
     1
  0
DICTIONARY
  5
1A
102
{ACAD_REACTORS
330
C
102
}
330
C
100
AcDbDictionary
281
     1
  3
Layout1
350
1E
  3
Layout2
350
26
  3
Model
350
22
  0
DICTIONARY
  5
17
102
{ACAD_REACTORS
330
C
102
}
330
C
100
AcDbDictionary
281
     1
  3
Standard
350
18
  0
DICTIONARY
  5
19
102
{ACAD_REACTORS
330
C
102
}
330
C
100
AcDbDictionary
281
     1
  0
ACDBDICTIONARYWDFLT
  5
E
102
{ACAD_REACTORS
330
C
102
}
330
C
100
AcDbDictionary
281
     1
  3
Normal
350
F
100
AcDbDictionaryWithDefault
340
F
  0
LAYOUT
  5
1E
102
{ACAD_REACTORS
330
1A
102
}
330
1A
100
AcDbPlotSettings
  1

  2
none_device
  4

  6

 40
0.0
 41
0.0
 42
0.0
 43
0.0
 44
0.0
 45
0.0
 46
0.0
 47
0.0
 48
0.0
 49
0.0
140
0.0
141
0.0
142
1.0
143
1.0
 70
   688
 72
     0
 73
     0
 74
     5
  7

 75
    16
147
1.0
148
0.0
149
0.0
100
AcDbLayout
  1
Layout1
 70
     1
 71
     1
 10
0.0
 20
0.0
 11
420.0
 21
297.0
 12
0.0
 22
0.0
 32
0.0
 14
1.0000000000E+20
 24
1.0000000000E+20
 34
1.0000000000E+20
 15
-1.0000000000E+20
 25
-1.0000000000E+20
 35
-1.0000000000E+20
146
0.0
 13
0.0
 23
0.0
 33
0.0
 16
1.0
 26
0.0
 36
0.0
 17
0.0
 27
1.0
 37
0.0
 76
     0
330
1B
  0
LAYOUT
  5
26
102
{ACAD_REACTORS
330
1A
102
}
330
1A
100
AcDbPlotSettings
  1

  2
none_device
  4

  6

 40
0.0
 41
0.0
 42
0.0
 43
0.0
 44
0.0
 45
0.0
 46
0.0
 47
0.0
 48
0.0
 49
0.0
140
0.0
141
0.0
142
1.0
143
1.0
 70
   688
 72
     0
 73
     0
 74
     5
  7

 75
    16
147
1.0
148
0.0
149
0.0
100
AcDbLayout
  1
Layout2
 70
     1
 71
     2
 10
0.0
 20
0.0
 11
0.0
 21
0.0
 12
0.0
 22
0.0
 32
0.0
 14
0.0
 24
0.0
 34
0.0
 15
0.0
 25
0.0
 35
0.0
146
0.0
 13
0.0
 23
0.0
 33
0.0
 16
1.0
 26
0.0
 36
0.0
 17
0.0
 27
1.0
 37
0.0
 76
     0
330
23
  0
LAYOUT
  5
22
102
{ACAD_REACTORS
330
1A
102
}
330
1A
100
AcDbPlotSettings
  1

  2
none_device
  4

  6

 40
0.0
 41
0.0
 42
0.0
 43
0.0
 44
0.0
 45
0.0
 46
0.0
 47
0.0
 48
0.0
 49
0.0
140
0.0
141
0.0
142
1.0
143
1.0
 70
  1712
 72
     0
 73
     0
 74
     0
  7

 75
     0
147
1.0
148
0.0
149
0.0
100
AcDbLayout
  1
Model
 70
     1
 71
     0
 10
0.0
 20
0.0
 11
841.0
 21
594.0
 12
0.0
 22
0.0
 32
0.0
 14
0.0
 24
0.0
 34
0.0
 15
841.0
 25
594.0
 35
0.0
146
0.0
 13
0.0
 23
0.0
 33
0.0
 16
1.0
 26
0.0
 36
0.0
 17
0.0
 27
1.0
 37
0.0
 76
     0
330
1F
331
29
  0
MLINESTYLE
  5
18
102
{ACAD_REACTORS
330
17
102
}
330
17
100
AcDbMlineStyle
  2
Standard
 70
     0
  3

 62
   256
 51
90.0
 52
90.0
 71
     2
 49
0.5
 62
   256
  6
BYLAYER
 49
-0.5
 62
   256
  6
BYLAYER
  0
ACDBPLACEHOLDER
  5
F
102
{ACAD_REACTORS
330
E
102
}
330
E
  0
ENDSEC
  0
EOF
