  0
SECTION
  2
HEADER
  9
$ACADVER
  1
AC1009
  9
$DWGCODEPAGE
  3
ansi_1252
  9
$INSBASE
 10
0.0
 20
0.0
 30
0.0
  9
$EXTMIN
 10
0.0
 20
0.0
 30
0.0
  9
$EXTMAX
 10
594.0
 20
841.0
 30
0.0
  9
$LIMMIN
 10
0.0
 20
0.0
  9
$LIMMAX
 10
594.0
 20
841.0
  9
$ORTHOMODE
 70
     0
  9
$REGENMODE
 70
     1
  9
$FILLMODE
 70
     1
  9
$QTEXTMODE
 70
     0
  9
$MIRRTEXT
 70
     1
  9
$DRAGMODE
 70
     2
  9
$LTSCALE
 40
1.0
  9
$OSMODE
 70
    37
  9
$ATTMODE
 70
     1
  9
$TEXTSIZE
 40
10.0
  9
$TRACEWID
 40
1.0
  9
$TEXTSTYLE
  7
STANDARD
  9
$CLAYER
  8
0
  9
$CELTYPE
  6
BYLAYER
  9
$CECOLOR
 62
   256
  9
$DIMSCALE
 40
1.0
  9
$DIMASZ
 40
2.5
  9
$DIMEXO
 40
0.0
  9
$DIMDLI
 40
3.75
  9
$DIMRND
 40
0.0
  9
$DIMDLE
 40
0.0
  9
$DIMEXE
 40
1.0
  9
$DIMTP
 40
0.0
  9
$DIMTM
 40
0.0
  9
$DIMTXT
 40
3.5
  9
$DIMCEN
 40
2.5
  9
$DIMTSZ
 40
0.0
  9
$DIMTOL
 70
     0
  9
$DIMLIM
 70
     0
  9
$DIMTIH
 70
     1
  9
$DIMTOH
 70
     1
  9
$DIMSE1
 70
     0
  9
$DIMSE2
 70
     0
  9
$DIMTAD
 70
     1
  9
$DIMZIN
 70
     0
  9
$DIMBLK
  1

  9
$DIMASO
 70
     1
  9
$DIMSHO
 70
     1
  9
$DIMPOST
  1

  9
$DIMAPOST
  1

  9
$DIMALT
 70
     0
  9
$DIMALTD
 70
     3
  9
$DIMALTF
 40
0.0393700787
  9
$DIMLFAC
 40
2.0
  9
$DIMTOFL
 70
     1
  9
$DIMTVP
 40
0.0
  9
$DIMTIX
 70
     0
  9
$DIMSOXD
 70
     0
  9
$DIMSAH
 70
     0
  9
$DIMBLK1
  1

  9
$DIMBLK2
  1

  9
$DIMSTYLE
  2
ISO-25
  9
$DIMCLRD
 70
     0
  9
$DIMCLRE
 70
     0
  9
$DIMCLRT
 70
     0
  9
$DIMTFAC
 40
1.0
  9
$DIMGAP
 40
1.5
  9
$LUNITS
 70
     2
  9
$LUPREC
 70
     2
  9
$SKETCHINC
 40
1.0
  9
$FILLETRAD
 40
10.0
  9
$AUNITS
 70
     0
  9
$AUPREC
 70
     2
  9
$MENU
  1
.
  9
$ELEVATION
 40
0.0
  9
$PELEVATION
 40
0.0
  9
$THICKNESS
 40
0.0
  9
$LIMCHECK
 70
     0
  9
$CHAMFERA
 40
0.0
  9
$CHAMFERB
 40
0.0
  9
$SKPOLY
 70
     0
  9
$TDCREATE
 40
2458514.292141759
  9
$TDUPDATE
 40
2458514.292142315
  9
$TDINDWG
 40
0.0000000116
  9
$TDUSRTIMER
 40
0.0000000116
  9
$USRTIMER
 70
     1
  9
$ANGBASE
 50
0.0
  9
$ANGDIR
 70
     0
  9
$PDMODE
 70
     0
  9
$PDSIZE
 40
-1.0
  9
$PLINEWID
 40
0.0
  9
$COORDS
 70
     1
  9
$SPLFRAME
 70
     0
  9
$SPLINETYPE
 70
     6
  9
$SPLINESEGS
 70
     8
  9
$ATTDIA
 70
     0
  9
$ATTREQ
 70
     1
  9
$HANDLING
 70
     1
  9
$HANDSEED
  5
378
  9
$SURFTAB1
 70
     6
  9
$SURFTAB2
 70
     6
  9
$SURFTYPE
 70
     6
  9
$SURFU
 70
     6
  9
$SURFV
 70
     6
  9
$UCSNAME
  2

  9
$UCSORG
 10
0.0
 20
0.0
 30
0.0
  9
$UCSXDIR
 10
1.0
 20
0.0
 30
0.0
  9
$UCSYDIR
 10
0.0
 20
1.0
 30
0.0
  9
$PUCSNAME
  2

  9
$PUCSORG
 10
0.0
 20
0.0
 30
0.0
  9
$PUCSXDIR
 10
1.0
 20
0.0
 30
0.0
  9
$PUCSYDIR
 10
0.0
 20
1.0
 30
0.0
  9
$USERI1
 70
     0
  9
$USERI2
 70
     0
  9
$USERI3
 70
     0
  9
$USERI4
 70
     0
  9
$USERI5
 70
     0
  9
$USERR1
 40
0.0
  9
$USERR2
 40
0.0
  9
$USERR3
 40
0.0
  9
$USERR4
 40
0.0
  9
$USERR5
 40
0.0
  9
$WORLDVIEW
 70
     1
  9
$SHADEDGE
 70
     3
  9
$SHADEDIF
 70
    70
  9
$TILEMODE
 70
     1
  9
$MAXACTVP
 70
    64
  9
$PLIMCHECK
 70
     0
  9
$PEXTMIN
 10
1.0000000000E+20
 20
1.0000000000E+20
 30
1.0000000000E+20
  9
$PEXTMAX
 10
-1.0000000000E+20
 20
-1.0000000000E+20
 30
-1.0000000000E+20
  9
$PLIMMIN
 10
0.0
 20
0.0
  9
$PLIMMAX
 10
420.0
 20
297.0
  9
$UNITMODE
 70
     0
  9
$VISRETAIN
 70
     1
  9
$PLINEGEN
 70
     0
  9
$PSLTSCALE
 70
     1
  0
ENDSEC
  0
SECTION
  2
TABLES
  0
TABLE
  2
VPORT
 70
     1
  0
VPORT
  2
*ACTIVE
 70
     0
 10
0.0
 20
0.0
 11
1.0
 21
1.0
 12
297.0
 22
420.5
 13
0.0
 23
0.0
 14
10.0
 24
10.0
 15
10.0
 25
10.0
 16
0.0
 26
0.0
 36
1.0
 17
0.0
 27
0.0
 37
0.0
 40
841.0
 41
0.7063020214
 42
50.0
 43
0.0
 44
0.0
 50
0.0
 51
0.0
 71
     0
 72
  2000
 73
     1
 74
     3
 75
     0
 76
     0
 77
     0
 78
     0
  0
ENDTAB
  0
TABLE
  2
LTYPE
 70
     6
  0
LTYPE
  2
CONTINUOUS
 70
     0
  3
Solid line
 72
    65
 73
     0
 40
0.0
  0
LTYPE
  2
HIDDEN
 70
     0
  3
Hidden __ __ __ __ __ __ __ __ __ __ __ __ __ __
 72
    65
 73
     2
 40
1.905
 49
1.27
 49
-0.635
  0
LTYPE
  2
PHANTOM
 70
     0
  3
Phantom ______  __  __  ______  __  __  ______
 72
    65
 73
     6
 40
12.7
 49
6.35
 49
-1.27
 49
1.27
 49
-1.27
 49
1.27
 49
-1.27
  0
LTYPE
  2
CENTER
 70
     0
  3
Center ____ _ ____ _ ____ _ ____ _ ____ _ ____
 72
    65
 73
     4
 40
10.16
 49
6.35
 49
-1.27
 49
1.27
 49
-1.27
  0
LTYPE
  2
CENTERX2
 70
     0
  3
Center (2x) ________  __  ________  __  _____
 72
    65
 73
     4
 40
20.32
 49
12.7
 49
-2.54
 49
2.54
 49
-2.54
  0
LTYPE
  2
DOT2
 70
     0
  3
Dot (.5x) ........................................
 72
    65
 73
     2
 40
0.635
 49
0.0
 49
-0.635
  0
ENDTAB
  0
TABLE
  2
LAYER
 70
     1
  0
LAYER
  2
0
 70
     0
 62
     7
  6
CONTINUOUS
  0
ENDTAB
  0
TABLE
  2
STYLE
 70
     1
  0
STYLE
  2
STANDARD
 70
     0
 40
0.0
 41
1.0
 50
0.0
 71
     0
 42
10.0
  3
txt
  4

  0
ENDTAB
  0
TABLE
  2
VIEW
 70
     0
  0
ENDTAB
  0
TABLE
  2
UCS
 70
     0
  0
ENDTAB
  0
TABLE
  2
APPID
 70
     1
  0
APPID
  2
ACAD
 70
     0
  0
ENDTAB
  0
TABLE
  2
DIMSTYLE
 70
     2
  0
DIMSTYLE
  2
ISO-25
 70
     0
  3

  4

  5

  6

  7

 40
1.0
 41
2.5
 42
0.625
 43
3.75
 44
1.25
 45
0.0
 46
0.0
 47
0.0
 48
0.0
140
2.5
141
2.5
142
0.0
143
0.0393700787
144
1.0
145
0.0
146
1.0
147
0.625
 71
     0
 72
     0
 73
     0
 74
     0
 75
     0
 76
     0
 77
     1
 78
     8
170
     0
171
     3
172
     1
173
     0
174
     0
175
     0
176
     0
177
     0
178
     0
  0
DIMSTYLE
  2
SLDDIMSTYLE0
 70
     0
  3

  4

  5

  6

  7

 40
1.0
 41
2.5
 42
0.0625
 43
0.38
 44
0.0
 45
0.000000001
 46
0.0
 47
0.0
 48
0.0
140
6.0
141
0.09
142
0.0
143
25.4
144
2.0
145
0.0
146
1.0
147
1.5
 71
     0
 72
     0
 73
     0
 74
     0
 75
     0
 76
     0
 77
     1
 78
    12
170
     0
171
     2
172
     0
173
     1
174
     0
175
     0
176
     0
177
     0
178
     0
  0
ENDTAB
  0
ENDSEC
  0
SECTION
  2
BLOCKS
  0
BLOCK
  8
0
  2
$MODEL_SPACE
 70
     0
 10
0.0
 20
0.0
 30
0.0
  3
$MODEL_SPACE
  1

  0
ENDBLK
  5
21
  8
0
  0
BLOCK
 67
     1
  8
0
  2
$PAPER_SPACE
 70
     0
 10
0.0
 20
0.0
 30
0.0
  3
$PAPER_SPACE
  1

  0
ENDBLK
  5
1D
 67
     1
  8
0
  0
BLOCK
  8
0
  2
_D
 70
     0
 10
0.0
 20
0.0
 30
0.0
  3
_D
  1

  0
SOLID
  5
7A
  8
0
  6
CONTINUOUS
 62
     7
 10
42.7614395004
 20
152.0299240879
 30
0.0
 11
42.4614395004
 21
149.5299240879
 31
0.0
 12
43.0614395004
 22
149.5299240879
 32
0.0
 13
43.0614395004
 23
149.5299240879
 33
0.0
  0
SOLID
  5
7B
  8
0
  6
CONTINUOUS
 62
     7
 10
42.7614395004
 20
52.0299240879
 30
0.0
 11
43.0614395004
 21
54.5299240879
 31
0.0
 12
42.4614395004
 22
54.5299240879
 32
0.0
 13
42.4614395004
 23
54.5299240879
 33
0.0
  0
LINE
  5
7C
  8
0
  6
CONTINUOUS
 62
     7
 10
56.6850079902
 20
152.0299240879
 30
0.0
 11
41.7614395004
 21
152.0299240879
 31
0.0
  0
LINE
  5
7D
  8
0
  6
CONTINUOUS
 62
     7
 10
56.6850079902
 20
52.0299240879
 30
0.0
 11
41.7614395004
 21
52.0299240879
 31
0.0
  0
LINE
  5
7E
  8
0
  6
CONTINUOUS
 62
     7
 10
42.7614395004
 20
152.0299240879
 30
0.0
 11
42.7614395004
 21
52.0299240879
 31
0.0
  0
TEXT
  5
7F
  8
0
  6
CONTINUOUS
 62
     7
 10
40.6418793617
 20
94.3680541463
 30
0.0
 40
6.0
  1
100
 50
90.0
 41
0.7
 11
42.7614397332
 21
94.3680541463
 31
0.0
 73
     1
  0
TEXT
  5
80
  8
0
  6
CONTINUOUS
 62
     7
 10
40.6418793617
 20
105.7430548466
 30
0.0
 40
6.0
  1
mm
 50
90.0
 41
0.7
 11
42.7614397332
 21
105.7430548466
 31
0.0
 73
     1
  0
ENDBLK
  5
79
  8
0
  0
BLOCK
  8
0
  2
_D_1
 70
     0
 10
0.0
 20
0.0
 30
0.0
  3
_D_1
  1

  0
SOLID
  5
85
  8
0
  6
CONTINUOUS
 62
     7
 10
56.6850079902
 20
38.4602342313
 30
0.0
 11
59.1850079902
 21
38.1602342313
 31
0.0
 12
59.1850079902
 22
38.7602342313
 32
0.0
 13
59.1850079902
 23
38.7602342313
 33
0.0
  0
SOLID
  5
86
  8
0
  6
CONTINUOUS
 62
     7
 10
156.6850079902
 20
38.4602342313
 30
0.0
 11
154.1850079902
 21
38.7602342313
 31
0.0
 12
154.1850079902
 22
38.1602342313
 32
0.0
 13
154.1850079902
 23
38.1602342313
 33
0.0
  0
LINE
  5
87
  8
0
  6
CONTINUOUS
 62
     7
 10
56.6850079902
 20
52.0299240879
 30
0.0
 11
56.6850079902
 21
37.4602342313
 31
0.0
  0
LINE
  5
88
  8
0
  6
CONTINUOUS
 62
     7
 10
156.6850079902
 20
52.0299240879
 30
0.0
 11
156.6850079902
 21
37.4602342313
 31
0.0
  0
LINE
  5
89
  8
0
  6
CONTINUOUS
 62
     7
 10
56.6850079902
 20
38.4602342313
 30
0.0
 11
156.6850079902
 21
38.4602342313
 31
0.0
  0
TEXT
  5
8A
  8
0
  6
CONTINUOUS
 62
     7
 10
93.9626484861
 20
40.57979437
 30
0.0
 40
6.0
  1
100
 41
0.7
 11
93.9626484861
 21
38.4602339984
 31
0.0
 73
     1
  0
TEXT
  5
8B
  8
0
  6
CONTINUOUS
 62
     7
 10
105.3376491864
 20
40.57979437
 30
0.0
 40
6.0
  1
mm
 41
0.7
 11
105.3376491864
 21
38.4602339984
 31
0.0
 73
     1
  0
ENDBLK
  5
84
  8
0
  0
ENDSEC
  0
SECTION
  2
ENTITIES
  0
LINE
  5
73
  8
0
  6
CONTINUOUS
 62
     7
 10
56.6850079902
 20
152.0299240879
 30
0.0
 11
56.6850079902
 21
52.0299240879
 31
0.0
  0
LINE
  5
74
  8
0
  6
CONTINUOUS
 62
     7
 10
56.6850079902
 20
52.0299240879
 30
0.0
 11
156.6850079902
 21
52.0299240879
 31
0.0
  0
DIMENSION
  5
75
  8
0
  6
CONTINUOUS
 62
     7
  2
_D
 10
42.7614395004
 20
52.0299240879
 30
0.0
 11
42.7614395004
 21
105.4472211621
 31
0.0
 70
   160
  1
<>mm
  3
SLDDIMSTYLE0
 13
56.6850079902
 23
152.0299240879
 33
0.0
 14
56.6850079902
 24
52.0299240879
 34
0.0
 50
90.0
  0
DIMENSION
  5
81
  8
0
  6
CONTINUOUS
 62
     7
  2
_D_1
 10
156.6850079902
 20
38.4602342313
 30
0.0
 11
105.0418155019
 21
38.4602342313
 31
0.0
 70
   160
  1
<>mm
  3
SLDDIMSTYLE0
 13
56.6850079902
 23
52.0299240879
 33
0.0
 14
156.6850079902
 24
52.0299240879
 34
0.0
  0
TEXT
  5
8C
  8
0
  6
CONTINUOUS
 62
     7
 10
412.8252631579
 20
39.0761681714
 30
0.0
 40
10.0
  1
KLUDI GmbH & Co KG
 41
0.6222222222
 11
412.8252631579
 21
35.5435675522
 31
0.0
 73
     1
  0
TEXT
  5
8D
  8
0
  6
CONTINUOUS
 62
     7
 10
210.0873490389
 20
39.0761681714
 30
0.0
 40
10.0
  1
46 851 05 78
 41
0.6125
 11
210.0873490389
 21
35.5435675522
 31
0.0
 73
     1
  0
POLYLINE
  5
8E
  8
0
  6
CONTINUOUS
 62
     7
 66
     1
 10
0.0
 20
0.0
 30
0.0
 70
   128
  0
VERTEX
  5
1A2
  8
0
  6
CONTINUOUS
 62
     7
 10
130.5915962423
 20
628.4664982713
 30
0.0
  0
VERTEX
  5
1A3
  8
0
  6
CONTINUOUS
 62
     7
 10
130.7589745224
 20
628.5435602289
 30
0.0
  0
VERTEX
  5
1A4
  8
0
  6
CONTINUOUS
 62
     7
 10
131.5212783767
 20
629.0980381237
 30
0.0
  0
VERTEX
  5
1A5
  8
0
  6
CONTINUOUS
 62
     7
 10
131.9254116809
 20
629.6517859146
 30
0.0
  0
VERTEX
  5
1A6
  8
0
  6
CONTINUOUS
 62
     7
 10
132.0530891727
 20
630.2419819492
 30
0.0
  0
VERTEX
  5
1A7
  8
0
  6
CONTINUOUS
 62
     7
 10
132.0046555781
 20
630.4213574272
 30
0.0
  0
SEQEND
  5
349
  8
0
  6
CONTINUOUS
 62
     7
  0
ARC
  5
8F
  8
0
  6
CONTINUOUS
 62
     7
 10
110.0904727257
 20
630.4111201281
 30
0.0
 40
2.01281094021565
 50
183.6112089688
 51
252.9033653944
  0
LINE
  5
90
  8
0
  6
CONTINUOUS
 62
     7
 10
108.0533557374
 20
671.0746207192
 30
0.0
 11
108.0533557374
 21
630.2159582672
 31
0.0
  0
LINE
  5
91
  8
0
  6
CONTINUOUS
 62
     7
 10
132.0533557374
 20
630.2159582672
 30
0.0
 11
132.0533557374
 21
671.0746207192
 31
0.0
  0
LINE
  5
92
  8
0
  6
CONTINUOUS
 62
     7
 10
132.0533557374
 20
671.2678058845
 30
0.0
 11
132.0533557374
 21
720.5300230252
 31
0.0
  0
LINE
  5
93
  8
0
  6
CONTINUOUS
 62
     7
 10
108.0533557374
 20
720.5300230252
 30
0.0
 11
108.0533557374
 21
671.2678058845
 31
0.0
  0
ARC
  5
94
  8
0
  6
CONTINUOUS
 62
     7
 10
120.0533557374
 20
790.9422137405
 30
0.0
 40
12.0
 50
0.0
 51
180.0
  0
LINE
  5
95
  8
0
  6
CONTINUOUS
 62
     7
 10
108.0533557374
 20
790.9422137405
 30
0.0
 11
108.0533557374
 21
720.5300230252
 31
0.0
  0
LINE
  5
96
  8
0
  6
CONTINUOUS
 62
     7
 10
132.0533557374
 20
720.5300230252
 30
0.0
 11
132.0533557374
 21
790.9422137405
 31
0.0
  0
ARC
  5
97
  8
0
  6
CONTINUOUS
 62
     7
 10
95.2533557374
 20
407.1422137405
 30
0.0
 40
0.2000000000000028
 50
180.0
 51
270.0
  0
ARC
  5
98
  8
0
  6
CONTINUOUS
 62
     7
 10
144.8533557374
 20
407.1422137405
 30
0.0
 40
0.2000000000000171
 50
270.0
 51
0.0
  0
ARC
  5
99
  8
0
  6
CONTINUOUS
 62
     7
 10
144.0533557374
 20
410.3314871019
 30
0.0
 40
1.0
 50
0.0
 51
63.5200440425
  0
ARC
  5
9A
  8
0
  6
CONTINUOUS
 62
     7
 10
96.0533557374
 20
410.3314871019
 30
0.0
 40
1.0
 50
116.4799559575
 51
180.0
  0
LINE
  5
9B
  8
0
  6
CONTINUOUS
 62
     7
 10
95.0533557374
 20
410.3314871019
 30
0.0
 11
95.0533557374
 21
407.1422137405
 31
0.0
  0
LINE
  5
9C
  8
0
  6
CONTINUOUS
 62
     7
 10
145.0533557374
 20
407.1422137405
 30
0.0
 11
145.0533557374
 21
410.3314871019
 31
0.0
  0
ARC
  5
9D
  8
0
  6
CONTINUOUS
 62
     7
 10
107.200473409
 20
387.9542270458
 30
0.0
 40
26.0
 50
104.6430576274
 51
116.4799559575
  0
ARC
  5
9E
  8
0
  6
CONTINUOUS
 62
     7
 10
132.9062380657
 20
387.9542270458
 30
0.0
 40
26.00000000000001
 50
63.5200440425
 51
75.3569423726
  0
ARC
  5
9F
  8
0
  6
CONTINUOUS
 62
     7
 10
139.226151013
 20
412.1422137405
 30
0.0
 40
1.000000000000019
 50
75.3569423726
 51
90.0
  0
ARC
  5
A0
  8
0
  6
CONTINUOUS
 62
     7
 10
100.8805604617
 20
412.1422137405
 30
0.0
 40
1.000000000000008
 50
90.0
 51
104.6430576274
  0
LINE
  5
A1
  8
0
  6
CONTINUOUS
 62
     7
 10
139.0533557374
 20
493.9420188932
 30
0.0
 11
139.0533557374
 21
516.4340357825
 31
0.0
  0
LINE
  5
A2
  8
0
  6
CONTINUOUS
 62
     7
 10
139.0533557374
 20
413.1422137405
 30
0.0
 11
139.0533557374
 21
443.9424015542
 31
0.0
  0
LINE
  5
A3
  8
0
  6
CONTINUOUS
 62
     7
 10
101.0533557374
 20
516.4340357825
 30
0.0
 11
101.0533557374
 21
413.1422137405
 31
0.0
  0
POLYLINE
  5
A4
  8
0
  6
CONTINUOUS
 62
     7
 66
     1
 10
0.0
 20
0.0
 30
0.0
 70
   128
  0
VERTEX
  5
1A8
  8
0
  6
CONTINUOUS
 62
     7
 10
139.0418651044
 20
443.9822404851
 30
0.0
  0
VERTEX
  5
1A9
  8
0
  6
CONTINUOUS
 62
     7
 10
139.0623529091
 20
445.6039543818
 30
0.0
  0
VERTEX
  5
1AA
  8
0
  6
CONTINUOUS
 62
     7
 10
139.3055150941
 20
447.4249020404
 30
0.0
  0
VERTEX
  5
1AB
  8
0
  6
CONTINUOUS
 62
     7
 10
139.795516975
 20
448.857097116
 30
0.0
  0
VERTEX
  5
1AC
  8
0
  6
CONTINUOUS
 62
     7
 10
140.4646588487
 20
449.9285589559
 30
0.0
  0
VERTEX
  5
1AD
  8
0
  6
CONTINUOUS
 62
     7
 10
141.2298769197
 20
450.6820679665
 30
0.0
  0
VERTEX
  5
1AE
  8
0
  6
CONTINUOUS
 62
     7
 10
142.0072484348
 20
451.1790449931
 30
0.0
  0
VERTEX
  5
1AF
  8
0
  6
CONTINUOUS
 62
     7
 10
143.3353712878
 20
451.6681011225
 30
0.0
  0
VERTEX
  5
1B0
  8
0
  6
CONTINUOUS
 62
     7
 10
144.6378303284
 20
451.8815403713
 30
0.0
  0
VERTEX
  5
1B1
  8
0
  6
CONTINUOUS
 62
     7
 10
146.5748539048
 20
451.9596556712
 30
0.0
  0
VERTEX
  5
1B2
  8
0
  6
CONTINUOUS
 62
     7
 10
146.9918485806
 20
451.9516761544
 30
0.0
  0
SEQEND
  5
34A
  8
0
  6
CONTINUOUS
 62
     7
  0
ARC
  5
A5
  8
0
  6
CONTINUOUS
 62
     7
 10
102.0533557374
 20
516.4340357825
 30
0.0
 40
1.000000000000063
 50
125.6847825153
 51
180.0
  0
ARC
  5
A6
  8
0
  6
CONTINUOUS
 62
     7
 10
138.0533557374
 20
516.4340357825
 30
0.0
 40
1.000000000000063
 50
0.0
 51
54.3152174847
  0
ARC
  5
A7
  8
0
  6
CONTINUOUS
 62
     7
 10
121.3030974116
 20
489.6301658105
 30
0.0
 40
34.00000000000002
 50
113.2854343066
 51
125.6847825153
  0
ARC
  5
A8
  8
0
  6
CONTINUOUS
 62
     7
 10
118.8036140631
 20
489.6301658105
 30
0.0
 40
34.0
 50
54.3152174847
 51
66.7145656934
  0
LINE
  5
A9
  8
0
  6
CONTINUOUS
 62
     7
 10
161.7533557374
 20
485.9422137405
 30
0.0
 11
147.053356629
 21
485.9422137405
 31
0.0
  0
LINE
  5
AA
  8
0
  6
CONTINUOUS
 62
     7
 10
147.0532615174
 20
451.9422137405
 30
0.0
 11
161.7533557374
 21
451.9422137405
 31
0.0
  0
ARC
  5
AB
  8
0
  6
CONTINUOUS
 62
     7
 10
161.7533557374
 20
452.2422137405
 30
0.0
 40
0.3000000000000114
 50
270.0
 51
0.0
  0
ARC
  5
AC
  8
0
  6
CONTINUOUS
 62
     7
 10
161.7533557374
 20
485.6422137405
 30
0.0
 40
0.3000000000000114
 50
0.0
 51
90.0
  0
LINE
  5
AD
  8
0
  6
CONTINUOUS
 62
     7
 10
171.4297302316
 20
451.8694919543
 30
0.0
 11
193.3019944551
 21
451.8694919543
 31
0.0
  0
LINE
  5
AE
  8
0
  6
CONTINUOUS
 62
     7
 10
178.558736013
 20
485.8694919543
 30
0.0
 11
166.5533557374
 21
485.8694919543
 31
0.0
  0
ARC
  5
AF
  8
0
  6
CONTINUOUS
 62
     7
 10
193.3019944551
 20
452.8694919543
 30
0.0
 40
1.0
 50
270.0
 51
351.0559916206
  0
ARC
  5
B0
  8
0
  6
CONTINUOUS
 62
     7
 10
166.5533557374
 20
485.4694919543
 30
0.0
 40
0.4000000000000341
 50
90.0
 51
180.0
  0
ARC
  5
B1
  8
0
  6
CONTINUOUS
 62
     7
 10
91.6390700231
 20
468.8694919543
 30
0.0
 40
103.914285714286
 50
351.0559916206
 51
0.0
  0
ARC
  5
B2
  8
0
  6
CONTINUOUS
 62
     7
 10
91.6390700231
 20
468.8694919543
 30
0.0
 40
103.914285714286
 50
0.0
 51
8.6452186568
  0
ARC
  5
B3
  8
0
  6
CONTINUOUS
 62
     7
 10
157.2845776029
 20
455.4085045767
 30
0.0
 40
30.00000000000005
 50
72.8049248699
 51
79.8849141309
  0
ARC
  5
B4
  8
0
  6
CONTINUOUS
 62
     7
 10
157.2845776029
 20
482.4759229042
 30
0.0
 40
30.00000000000004
 50
280.1150858691
 51
294.3114609947
  0
LINE
  5
B5
  8
0
  6
CONTINUOUS
 62
     7
 10
162.0533557374
 20
452.9422137405
 30
0.0
 11
162.5533557374
 21
452.9422137405
 31
0.0
  0
LINE
  5
B6
  8
0
  6
CONTINUOUS
 62
     7
 10
162.5533557374
 20
484.9422137405
 30
0.0
 11
162.0533557374
 21
484.9422137405
 31
0.0
  0
POLYLINE
  5
B7
  8
0
  6
CONTINUOUS
 62
     7
 66
     1
 10
0.0
 20
0.0
 30
0.0
 70
   128
  0
VERTEX
  5
1B3
  8
0
  6
CONTINUOUS
 62
     7
 10
171.047176729
 20
452.0687067727
 30
0.0
  0
VERTEX
  5
1B4
  8
0
  6
CONTINUOUS
 62
     7
 10
171.231849044
 20
451.9144084693
 30
0.0
  0
VERTEX
  5
1B5
  8
0
  6
CONTINUOUS
 62
     7
 10
171.4176610063
 20
451.8994212401
 30
0.0
  0
SEQEND
  5
34B
  8
0
  6
CONTINUOUS
 62
     7
  0
ARC
  5
B8
  8
0
  6
CONTINUOUS
 62
     7
 10
108.2578013132
 20
519.9422137405
 30
0.0
 40
1.0
 50
90.0
 51
113.2854343066
  0
ARC
  5
B9
  8
0
  6
CONTINUOUS
 62
     7
 10
131.8489101615
 20
519.9422137405
 30
0.0
 40
1.0
 50
66.7145656934
 51
90.0
  0
LINE
  5
BA
  8
0
  6
CONTINUOUS
 62
     7
 10
132.0533557374
 20
520.9422137405
 30
0.0
 11
132.0533557374
 21
630.2159582672
 31
0.0
  0
LINE
  5
BB
  8
0
  6
CONTINUOUS
 62
     7
 10
132.0533557374
 20
671.0746207192
 30
0.0
 11
132.0533557374
 21
671.2678058845
 31
0.0
  0
LINE
  5
BC
  8
0
  6
CONTINUOUS
 62
     7
 10
108.0533557374
 20
671.2678058845
 30
0.0
 11
108.0533557374
 21
671.0746207192
 31
0.0
  0
LINE
  5
BD
  8
0
  6
CONTINUOUS
 62
     7
 10
108.0533557374
 20
630.2159582672
 30
0.0
 11
108.0533557374
 21
520.9422137405
 31
0.0
  0
POLYLINE
  5
BE
  8
0
  6
CONTINUOUS
 62
     7
 66
     1
 10
0.0
 20
0.0
 30
0.0
 70
   128
  0
VERTEX
  5
1B6
  8
0
  6
CONTINUOUS
 62
     7
 10
194.2300164356
 20
512.7264623835
 30
0.0
  0
VERTEX
  5
1B7
  8
0
  6
CONTINUOUS
 62
     7
 10
194.1094828701
 20
513.8360182437
 30
0.0
  0
VERTEX
  5
1B8
  8
0
  6
CONTINUOUS
 62
     7
 10
194.083888515
 20
513.9188004328
 30
0.0
  0
SEQEND
  5
34C
  8
0
  6
CONTINUOUS
 62
     7
  0
LINE
  5
BF
  8
0
  6
CONTINUOUS
 62
     7
 10
194.4428723588
 20
484.5687589642
 30
0.0
 11
194.2435410554
 21
512.7257516692
 31
0.0
  0
LINE
  5
C0
  8
0
  6
CONTINUOUS
 62
     7
 10
190.2067965301
 20
516.9083324889
 30
0.0
 11
184.1533557374
 21
516.9083324889
 31
0.0
  0
ARC
  5
C1
  8
0
  6
CONTINUOUS
 62
     7
 10
202.6293542059
 20
484.4882794703
 30
0.0
 40
8.183106338623906
 50
179.3877396071
 51
185.7125490597
  0
POLYLINE
  5
C2
  8
0
  6
CONTINUOUS
 62
     7
 66
     1
 10
0.0
 20
0.0
 30
0.0
 70
   128
  0
VERTEX
  5
1B9
  8
0
  6
CONTINUOUS
 62
     7
 10
179.9541453102
 20
486.9938339139
 30
0.0
  0
VERTEX
  5
1BA
  8
0
  6
CONTINUOUS
 62
     7
 10
179.8476973927
 20
486.7279649559
 30
0.0
  0
VERTEX
  5
1BB
  8
0
  6
CONTINUOUS
 62
     7
 10
179.4825480852
 20
486.3014653183
 30
0.0
  0
VERTEX
  5
1BC
  8
0
  6
CONTINUOUS
 62
     7
 10
179.108024453
 20
486.0450513081
 30
0.0
  0
VERTEX
  5
1BD
  8
0
  6
CONTINUOUS
 62
     7
 10
178.8036561362
 20
485.919604
 30
0.0
  0
VERTEX
  5
1BE
  8
0
  6
CONTINUOUS
 62
     7
 10
178.6343045148
 20
485.8775426648
 30
0.0
  0
VERTEX
  5
1BF
  8
0
  6
CONTINUOUS
 62
     7
 10
178.5603624035
 20
485.8661962808
 30
0.0
  0
VERTEX
  5
1C0
  8
0
  6
CONTINUOUS
 62
     7
 10
178.5553856588
 20
485.8654693928
 30
0.0
  0
VERTEX
  5
1C1
  8
0
  6
CONTINUOUS
 62
     7
 10
178.6278887588
 20
485.8682108586
 30
0.0
  0
VERTEX
  5
1C2
  8
0
  6
CONTINUOUS
 62
     7
 10
178.7734908096
 20
485.8687568615
 30
0.0
  0
SEQEND
  5
34D
  8
0
  6
CONTINUOUS
 62
     7
  0
LINE
  5
C3
  8
0
  6
CONTINUOUS
 62
     7
 10
132.0419805436
 20
630.3511587704
 30
0.0
 11
132.0533557374
 21
630.2159582672
 31
0.0
  0
POLYLINE
  5
C4
  8
0
  6
CONTINUOUS
 62
     7
 66
     1
 10
0.0
 20
0.0
 30
0.0
 70
   128
  0
VERTEX
  5
1C3
  8
0
  6
CONTINUOUS
 62
     7
 10
120.0533557374
 20
632.7094143727
 30
0.0
  0
VERTEX
  5
1C4
  8
0
  6
CONTINUOUS
 62
     7
 10
117.9999514472
 20
632.6615820946
 30
0.0
  0
VERTEX
  5
1C5
  8
0
  6
CONTINUOUS
 62
     7
 10
116.0125452604
 20
632.5196226289
 30
0.0
  0
VERTEX
  5
1C6
  8
0
  6
CONTINUOUS
 62
     7
 10
114.1550140472
 20
632.2880986699
 30
0.0
  0
VERTEX
  5
1C7
  8
0
  6
CONTINUOUS
 62
     7
 10
112.487060389
 20
631.9744515879
 30
0.0
  0
VERTEX
  5
1C8
  8
0
  6
CONTINUOUS
 62
     7
 10
111.062293689
 20
631.5887622582
 30
0.0
  0
VERTEX
  5
1C9
  8
0
  6
CONTINUOUS
 62
     7
 10
109.926507121
 20
631.1434270534
 30
0.0
  0
VERTEX
  5
1CA
  8
0
  6
CONTINUOUS
 62
     7
 10
109.1162058
 20
630.6527594132
 30
0.0
  0
VERTEX
  5
1CB
  8
0
  6
CONTINUOUS
 62
     7
 10
108.864537534
 20
630.4207115626
 30
0.0
  0
SEQEND
  5
34E
  8
0
  6
CONTINUOUS
 62
     7
  0
POLYLINE
  5
C5
  8
0
  6
CONTINUOUS
 62
     7
 66
     1
 10
0.0
 20
0.0
 30
0.0
 70
   128
  0
VERTEX
  5
1CC
  8
0
  6
CONTINUOUS
 62
     7
 10
109.7124420396
 20
628.4307598891
 30
0.0
  0
VERTEX
  5
1CD
  8
0
  6
CONTINUOUS
 62
     7
 10
110.4557633196
 20
628.0932951011
 30
0.0
  0
VERTEX
  5
1CE
  8
0
  6
CONTINUOUS
 62
     7
 10
111.7412148033
 20
627.6761033425
 30
0.0
  0
VERTEX
  5
1CF
  8
0
  6
CONTINUOUS
 62
     7
 10
113.293825336
 20
627.3250217855
 30
0.0
  0
VERTEX
  5
1D0
  8
0
  6
CONTINUOUS
 62
     7
 10
115.0636927375
 20
627.0513344804
 30
0.0
  0
VERTEX
  5
1D1
  8
0
  6
CONTINUOUS
 62
     7
 10
116.9939320133
 20
626.8638379622
 30
0.0
  0
VERTEX
  5
1D2
  8
0
  6
CONTINUOUS
 62
     7
 10
119.022503685
 20
626.7685585233
 30
0.0
  0
VERTEX
  5
1D3
  8
0
  6
CONTINUOUS
 62
     7
 10
121.0842077897
 20
626.7685585233
 30
0.0
  0
VERTEX
  5
1D4
  8
0
  6
CONTINUOUS
 62
     7
 10
123.1127794614
 20
626.8638379622
 30
0.0
  0
VERTEX
  5
1D5
  8
0
  6
CONTINUOUS
 62
     7
 10
125.0430187372
 20
627.0513344804
 30
0.0
  0
VERTEX
  5
1D6
  8
0
  6
CONTINUOUS
 62
     7
 10
126.8128861387
 20
627.3250217855
 30
0.0
  0
VERTEX
  5
1D7
  8
0
  6
CONTINUOUS
 62
     7
 10
128.3654966714
 20
627.6761033425
 30
0.0
  0
VERTEX
  5
1D8
  8
0
  6
CONTINUOUS
 62
     7
 10
129.6509481552
 20
628.0932951011
 30
0.0
  0
VERTEX
  5
1D9
  8
0
  6
CONTINUOUS
 62
     7
 10
130.3636568793
 20
628.4146002427
 30
0.0
  0
SEQEND
  5
34F
  8
0
  6
CONTINUOUS
 62
     7
  0
POLYLINE
  5
C6
  8
0
  6
CONTINUOUS
 62
     7
 66
     1
 10
0.0
 20
0.0
 30
0.0
 70
   128
  0
VERTEX
  5
1DA
  8
0
  6
CONTINUOUS
 62
     7
 10
131.2043274522
 20
630.460724822
 30
0.0
  0
VERTEX
  5
1DB
  8
0
  6
CONTINUOUS
 62
     7
 10
130.9905056748
 20
630.6527594132
 30
0.0
  0
VERTEX
  5
1DC
  8
0
  6
CONTINUOUS
 62
     7
 10
130.1802043537
 20
631.1434270534
 30
0.0
  0
VERTEX
  5
1DD
  8
0
  6
CONTINUOUS
 62
     7
 10
129.0444177857
 20
631.5887622582
 30
0.0
  0
VERTEX
  5
1DE
  8
0
  6
CONTINUOUS
 62
     7
 10
127.6196510857
 20
631.9744515879
 30
0.0
  0
VERTEX
  5
1DF
  8
0
  6
CONTINUOUS
 62
     7
 10
125.9516974275
 20
632.2880986699
 30
0.0
  0
VERTEX
  5
1E0
  8
0
  6
CONTINUOUS
 62
     7
 10
124.0941662143
 20
632.5196226289
 30
0.0
  0
VERTEX
  5
1E1
  8
0
  6
CONTINUOUS
 62
     7
 10
122.1067600275
 20
632.6615820946
 30
0.0
  0
VERTEX
  5
1E2
  8
0
  6
CONTINUOUS
 62
     7
 10
120.0533557374
 20
632.7094143727
 30
0.0
  0
SEQEND
  5
350
  8
0
  6
CONTINUOUS
 62
     7
  0
POLYLINE
  5
C7
  8
0
  6
CONTINUOUS
 62
     7
 66
     1
 10
0.0
 20
0.0
 30
0.0
 70
   128
  0
VERTEX
  5
1E3
  8
0
  6
CONTINUOUS
 62
     7
 10
120.0533557374
 20
674.1804492604
 30
0.0
  0
VERTEX
  5
1E4
  8
0
  6
CONTINUOUS
 62
     7
 10
122.1371338694
 20
674.1332647461
 30
0.0
  0
VERTEX
  5
1E5
  8
0
  6
CONTINUOUS
 62
     7
 10
124.1575974573
 20
673.9931448808
 30
0.0
  0
VERTEX
  5
1E6
  8
0
  6
CONTINUOUS
 62
     7
 10
126.0533557374
 20
673.7643471357
 30
0.0
  0
VERTEX
  5
1E7
  8
0
  6
CONTINUOUS
 62
     7
 10
127.7668070536
 20
673.4538234145
 30
0.0
  0
VERTEX
  5
1E8
  8
0
  6
CONTINUOUS
 62
     7
 10
129.2458890548
 20
673.0710088233
 30
0.0
  0
VERTEX
  5
1E9
  8
0
  6
CONTINUOUS
 62
     7
 10
130.4456605828
 20
672.6275349898
 30
0.0
  0
VERTEX
  5
1EA
  8
0
  6
CONTINUOUS
 62
     7
 10
131.3296671868
 20
672.136876642
 30
0.0
  0
VERTEX
  5
1EB
  8
0
  6
CONTINUOUS
 62
     7
 10
131.8710487735
 20
671.6139421855
 30
0.0
  0
VERTEX
  5
1EC
  8
0
  6
CONTINUOUS
 62
     7
 10
132.0533557374
 20
671.0746207192
 30
0.0
  0
SEQEND
  5
351
  8
0
  6
CONTINUOUS
 62
     7
  0
POLYLINE
  5
C8
  8
0
  6
CONTINUOUS
 62
     7
 66
     1
 10
0.0
 20
0.0
 30
0.0
 70
   128
  0
VERTEX
  5
1ED
  8
0
  6
CONTINUOUS
 62
     7
 10
108.0533557374
 20
671.0746207192
 30
0.0
  0
VERTEX
  5
1EE
  8
0
  6
CONTINUOUS
 62
     7
 10
108.2356627012
 20
671.6139421855
 30
0.0
  0
VERTEX
  5
1EF
  8
0
  6
CONTINUOUS
 62
     7
 10
108.7770442879
 20
672.136876642
 30
0.0
  0
VERTEX
  5
1F0
  8
0
  6
CONTINUOUS
 62
     7
 10
109.6610508919
 20
672.6275349898
 30
0.0
  0
VERTEX
  5
1F1
  8
0
  6
CONTINUOUS
 62
     7
 10
110.8608224199
 20
673.0710088233
 30
0.0
  0
VERTEX
  5
1F2
  8
0
  6
CONTINUOUS
 62
     7
 10
112.3399044211
 20
673.4538234145
 30
0.0
  0
VERTEX
  5
1F3
  8
0
  6
CONTINUOUS
 62
     7
 10
114.0533557374
 20
673.7643471357
 30
0.0
  0
VERTEX
  5
1F4
  8
0
  6
CONTINUOUS
 62
     7
 10
115.9491140174
 20
673.9931448808
 30
0.0
  0
VERTEX
  5
1F5
  8
0
  6
CONTINUOUS
 62
     7
 10
117.9695776054
 20
674.1332647461
 30
0.0
  0
VERTEX
  5
1F6
  8
0
  6
CONTINUOUS
 62
     7
 10
120.0533557374
 20
674.1804492604
 30
0.0
  0
SEQEND
  5
352
  8
0
  6
CONTINUOUS
 62
     7
  0
POLYLINE
  5
C9
  8
0
  6
CONTINUOUS
 62
     7
 66
     1
 10
0.0
 20
0.0
 30
0.0
 70
   128
  0
VERTEX
  5
1F7
  8
0
  6
CONTINUOUS
 62
     7
 10
120.0533557374
 20
674.3218706167
 30
0.0
  0
VERTEX
  5
1F8
  8
0
  6
CONTINUOUS
 62
     7
 10
122.1024042338
 20
674.2754725109
 30
0.0
  0
VERTEX
  5
1F9
  8
0
  6
CONTINUOUS
 62
     7
 10
124.0891934286
 20
674.1376879767
 30
0.0
  0
VERTEX
  5
1FA
  8
0
  6
CONTINUOUS
 62
     7
 10
125.9533557374
 20
673.9127035274
 30
0.0
  0
VERTEX
  5
1FB
  8
0
  6
CONTINUOUS
 62
     7
 10
127.6382495317
 20
673.6073552015
 30
0.0
  0
VERTEX
  5
1FC
  8
0
  6
CONTINUOUS
 62
     7
 10
129.0926801662
 20
673.2309208535
 30
0.0
  0
VERTEX
  5
1FD
  8
0
  6
CONTINUOUS
 62
     7
 10
130.272455502
 20
672.7948382506
 30
0.0
  0
VERTEX
  5
1FE
  8
0
  6
CONTINUOUS
 62
     7
 10
131.1417286626
 20
672.3123575419
 30
0.0
  0
VERTEX
  5
1FF
  8
0
  6
CONTINUOUS
 62
     7
 10
131.2580533994
 20
672.2256024813
 30
0.0
  0
SEQEND
  5
353
  8
0
  6
CONTINUOUS
 62
     7
  0
POLYLINE
  5
CA
  8
0
  6
CONTINUOUS
 62
     7
 66
     1
 10
0.0
 20
0.0
 30
0.0
 70
   128
  0
VERTEX
  5
200
  8
0
  6
CONTINUOUS
 62
     7
 10
108.876081679
 20
672.2468312897
 30
0.0
  0
VERTEX
  5
201
  8
0
  6
CONTINUOUS
 62
     7
 10
108.9649828121
 20
672.3123575419
 30
0.0
  0
VERTEX
  5
202
  8
0
  6
CONTINUOUS
 62
     7
 10
109.8342559727
 20
672.7948382506
 30
0.0
  0
VERTEX
  5
203
  8
0
  6
CONTINUOUS
 62
     7
 10
111.0140313086
 20
673.2309208535
 30
0.0
  0
VERTEX
  5
204
  8
0
  6
CONTINUOUS
 62
     7
 10
112.4684619431
 20
673.6073552015
 30
0.0
  0
VERTEX
  5
205
  8
0
  6
CONTINUOUS
 62
     7
 10
114.1533557374
 20
673.9127035274
 30
0.0
  0
VERTEX
  5
206
  8
0
  6
CONTINUOUS
 62
     7
 10
116.0175180461
 20
674.1376879767
 30
0.0
  0
VERTEX
  5
207
  8
0
  6
CONTINUOUS
 62
     7
 10
118.0043072409
 20
674.2754725109
 30
0.0
  0
VERTEX
  5
208
  8
0
  6
CONTINUOUS
 62
     7
 10
120.0533557374
 20
674.3218706167
 30
0.0
  0
SEQEND
  5
354
  8
0
  6
CONTINUOUS
 62
     7
  0
POLYLINE
  5
CB
  8
0
  6
CONTINUOUS
 62
     7
 66
     1
 10
0.0
 20
0.0
 30
0.0
 70
   128
  0
VERTEX
  5
209
  8
0
  6
CONTINUOUS
 62
     7
 10
132.0533557374
 20
671.2678058845
 30
0.0
  0
VERTEX
  5
20A
  8
0
  6
CONTINUOUS
 62
     7
 10
131.8710487735
 20
671.8071273508
 30
0.0
  0
VERTEX
  5
20B
  8
0
  6
CONTINUOUS
 62
     7
 10
131.3296671868
 20
672.3300618073
 30
0.0
  0
VERTEX
  5
20C
  8
0
  6
CONTINUOUS
 62
     7
 10
130.4456605828
 20
672.8207201551
 30
0.0
  0
VERTEX
  5
20D
  8
0
  6
CONTINUOUS
 62
     7
 10
129.2458890548
 20
673.2641939886
 30
0.0
  0
VERTEX
  5
20E
  8
0
  6
CONTINUOUS
 62
     7
 10
127.7668070536
 20
673.6470085797
 30
0.0
  0
VERTEX
  5
20F
  8
0
  6
CONTINUOUS
 62
     7
 10
126.0533557374
 20
673.957532301
 30
0.0
  0
VERTEX
  5
210
  8
0
  6
CONTINUOUS
 62
     7
 10
124.1575974573
 20
674.1863300461
 30
0.0
  0
VERTEX
  5
211
  8
0
  6
CONTINUOUS
 62
     7
 10
122.1371338694
 20
674.3264499114
 30
0.0
  0
VERTEX
  5
212
  8
0
  6
CONTINUOUS
 62
     7
 10
120.0533557374
 20
674.3736344257
 30
0.0
  0
VERTEX
  5
213
  8
0
  6
CONTINUOUS
 62
     7
 10
117.9695776054
 20
674.3264499114
 30
0.0
  0
VERTEX
  5
214
  8
0
  6
CONTINUOUS
 62
     7
 10
115.9491140174
 20
674.1863300461
 30
0.0
  0
VERTEX
  5
215
  8
0
  6
CONTINUOUS
 62
     7
 10
114.0533557374
 20
673.957532301
 30
0.0
  0
VERTEX
  5
216
  8
0
  6
CONTINUOUS
 62
     7
 10
112.3399044211
 20
673.6470085797
 30
0.0
  0
VERTEX
  5
217
  8
0
  6
CONTINUOUS
 62
     7
 10
110.8608224199
 20
673.2641939886
 30
0.0
  0
VERTEX
  5
218
  8
0
  6
CONTINUOUS
 62
     7
 10
109.6610508919
 20
672.8207201551
 30
0.0
  0
VERTEX
  5
219
  8
0
  6
CONTINUOUS
 62
     7
 10
108.7770442879
 20
672.3300618073
 30
0.0
  0
VERTEX
  5
21A
  8
0
  6
CONTINUOUS
 62
     7
 10
108.2356627012
 20
671.8071273508
 30
0.0
  0
VERTEX
  5
21B
  8
0
  6
CONTINUOUS
 62
     7
 10
108.0533557374
 20
671.2678058845
 30
0.0
  0
VERTEX
  5
21C
  8
0
  6
CONTINUOUS
 62
     7
 10
108.0533557374
 20
671.2678058845
 30
0.0
  0
SEQEND
  5
355
  8
0
  6
CONTINUOUS
 62
     7
  0
LINE
  5
CC
  8
0
  6
CONTINUOUS
 62
     7
 10
144.8533557374
 20
406.9422137405
 30
0.0
 11
95.2533557374
 21
406.9422137405
 31
0.0
  0
LINE
  5
CD
  8
0
  6
CONTINUOUS
 62
     7
 10
120.0533557374
 20
413.1422137405
 30
0.0
 11
139.226151013
 21
413.1422137405
 31
0.0
  0
LINE
  5
CE
  8
0
  6
CONTINUOUS
 62
     7
 10
100.8805604617
 20
413.1422137405
 30
0.0
 11
120.0533557374
 21
413.1422137405
 31
0.0
  0
LINE
  5
CF
  8
0
  6
CONTINUOUS
 62
     7
 10
138.9688608407
 20
443.9838209453
 30
0.0
 11
139.0533557374
 21
443.9424015542
 31
0.0
  0
LINE
  5
D0
  8
0
  6
CONTINUOUS
 62
     7
 10
138.9721363072
 20
493.9022051707
 30
0.0
 11
139.0533557374
 21
493.9420188903
 31
0.0
  0
LINE
  5
D1
  8
0
  6
CONTINUOUS
 62
     7
 10
146.9913703866
 20
452.0099515056
 30
0.0
 11
147.0532615165
 21
451.9422137405
 31
0.0
  0
POLYLINE
  5
D2
  8
0
  6
CONTINUOUS
 62
     7
 66
     1
 10
0.0
 20
0.0
 30
0.0
 70
   128
  0
VERTEX
  5
21D
  8
0
  6
CONTINUOUS
 62
     7
 10
147.0533888082
 20
485.9423123279
 30
0.0
  0
VERTEX
  5
21E
  8
0
  6
CONTINUOUS
 62
     7
 10
143.5782338752
 20
486.2440267825
 30
0.0
  0
VERTEX
  5
21F
  8
0
  6
CONTINUOUS
 62
     7
 10
142.1467917277
 20
486.7545061614
 30
0.0
  0
VERTEX
  5
220
  8
0
  6
CONTINUOUS
 62
     7
 10
140.9447885683
 20
487.5713189835
 30
0.0
  0
VERTEX
  5
221
  8
0
  6
CONTINUOUS
 62
     7
 10
140.0305633838
 20
488.7266437369
 30
0.0
  0
VERTEX
  5
222
  8
0
  6
CONTINUOUS
 62
     7
 10
139.4274316485
 20
490.1915480118
 30
0.0
  0
VERTEX
  5
223
  8
0
  6
CONTINUOUS
 62
     7
 10
139.1178287875
 20
491.9376707219
 30
0.0
  0
VERTEX
  5
224
  8
0
  6
CONTINUOUS
 62
     7
 10
139.0535783278
 20
493.9422082821
 30
0.0
  0
SEQEND
  5
356
  8
0
  6
CONTINUOUS
 62
     7
  0
ARC
  5
D3
  8
0
  6
CONTINUOUS
 62
     7
 10
190.1777007639
 20
469.1861387487
 30
0.0
 40
24.02482037623864
 50
179.6395750227
 51
197.8117443088
  0
LINE
  5
D4
  8
0
  6
CONTINUOUS
 62
     7
 10
162.0533557374
 20
485.6422134535
 30
0.0
 11
162.0533557374
 21
452.2422137405
 31
0.0
  0
POLYLINE
  5
D5
  8
0
  6
CONTINUOUS
 62
     7
 66
     1
 10
0.0
 20
0.0
 30
0.0
 70
   128
  0
VERTEX
  5
225
  8
0
  6
CONTINUOUS
 62
     7
 10
167.6867595802
 20
461.7864295524
 30
0.0
  0
VERTEX
  5
226
  8
0
  6
CONTINUOUS
 62
     7
 10
168.3933163039
 20
459.6110013155
 30
0.0
  0
VERTEX
  5
227
  8
0
  6
CONTINUOUS
 62
     7
 10
169.0572815688
 20
457.6330473647
 30
0.0
  0
VERTEX
  5
228
  8
0
  6
CONTINUOUS
 62
     7
 10
169.6644936641
 20
455.894755467
 30
0.0
  0
VERTEX
  5
229
  8
0
  6
CONTINUOUS
 62
     7
 10
170.202001367
 20
454.4332016388
 30
0.0
  0
VERTEX
  5
22A
  8
0
  6
CONTINUOUS
 62
     7
 10
170.6583401791
 20
453.2795593521
 30
0.0
  0
VERTEX
  5
22B
  8
0
  6
CONTINUOUS
 62
     7
 10
171.023776853
 20
452.4584346358
 30
0.0
  0
VERTEX
  5
22C
  8
0
  6
CONTINUOUS
 62
     7
 10
171.2905169923
 20
451.9873412536
 30
0.0
  0
VERTEX
  5
22D
  8
0
  6
CONTINUOUS
 62
     7
 10
171.4297302316
 20
451.8694919543
 30
0.0
  0
SEQEND
  5
357
  8
0
  6
CONTINUOUS
 62
     7
  0
LINE
  5
D6
  8
0
  6
CONTINUOUS
 62
     7
 10
166.1533557374
 20
469.3372683485
 30
0.0
 11
166.1533557374
 21
485.4694919543
 31
0.0
  0
LINE
  5
D7
  8
0
  6
CONTINUOUS
 62
     7
 10
162.5533557374
 20
452.9422137405
 30
0.0
 11
162.5533557374
 21
484.9422137405
 31
0.0
  0
LINE
  5
D8
  8
0
  6
CONTINUOUS
 62
     7
 10
171.0968521713
 20
452.1935055437
 30
0.0
 11
171.0827573651
 21
452.1709411035
 31
0.0
  0
ARC
  5
D9
  8
0
  6
CONTINUOUS
 62
     7
 10
219.6876578451
 20
476.1849569347
 30
0.0
 40
54.31258886538359
 50
195.3176672647
 51
206.1836268335
  0
LINE
  5
DA
  8
0
  6
CONTINUOUS
 62
     7
 10
108.0533557374
 20
520.9422137405
 30
0.0
 11
132.0533557374
 21
520.9422137405
 31
0.0
  0
ARC
  5
DB
  8
0
  6
CONTINUOUS
 62
     7
 10
184.1232020477
 20
512.402345838
 30
0.0
 40
3.969964388084442
 50
89.5648082465
 51
179.5580945801
  0
LINE
  5
DC
  8
0
  6
CONTINUOUS
 62
     7
 10
180.1533557374
 20
487.2619648669
 30
0.0
 11
180.1533557374
 21
512.4329646969
 31
0.0
  0
ARC
  5
DD
  8
0
  6
CONTINUOUS
 62
     7
 10
190.2570272213
 20
512.9587752208
 30
0.0
 40
3.934685659807576
 50
14.0611196935
 51
90.7314649848
  0
LINE
  5
DE
  8
0
  6
CONTINUOUS
 62
     7
 10
180.1533557374
 20
512.4329646969
 30
0.0
 11
180.1533557374
 21
512.9539092299
 31
0.0
  0
ARC
  5
DF
  8
0
  6
CONTINUOUS
 62
     7
 10
184.1232020477
 20
512.923290371
 30
0.0
 40
3.969964388084451
 50
89.5648082465
 51
179.5580945801
  0
LINE
  5
E0
  8
0
  6
CONTINUOUS
 62
     7
 10
190.2067965301
 20
516.8931402419
 30
0.0
 11
190.2067965301
 21
516.9083324889
 31
0.0
  0
LINE
  5
E1
  8
0
  6
CONTINUOUS
 62
     7
 10
184.1533557374
 20
516.8931402419
 30
0.0
 11
184.1533557374
 21
516.9083324889
 31
0.0
  0
ARC
  5
E2
  8
0
  6
CONTINUOUS
 62
     7
 10
178.1698087536
 20
487.7831117624
 30
0.0
 40
1.983546994056171
 50
335.9199013983
 51
359.9941546559
  0
POLYLINE
  5
E3
  8
0
  6
CONTINUOUS
 62
     8
 66
     1
 10
0.0
 20
0.0
 30
0.0
 70
   128
  0
VERTEX
  5
22E
  8
0
  6
CONTINUOUS
 62
     8
 10
120.0533557374
 20
633.3217868084
 30
0.0
  0
VERTEX
  5
22F
  8
0
  6
CONTINUOUS
 62
     8
 10
122.1371338694
 20
633.2746022941
 30
0.0
  0
VERTEX
  5
230
  8
0
  6
CONTINUOUS
 62
     8
 10
124.1575974573
 20
633.1344824288
 30
0.0
  0
VERTEX
  5
231
  8
0
  6
CONTINUOUS
 62
     8
 10
126.0533557374
 20
632.9056846837
 30
0.0
  0
VERTEX
  5
232
  8
0
  6
CONTINUOUS
 62
     8
 10
127.7668070536
 20
632.5951609625
 30
0.0
  0
VERTEX
  5
233
  8
0
  6
CONTINUOUS
 62
     8
 10
129.2458890548
 20
632.2123463713
 30
0.0
  0
VERTEX
  5
234
  8
0
  6
CONTINUOUS
 62
     8
 10
130.4456605828
 20
631.7688725378
 30
0.0
  0
VERTEX
  5
235
  8
0
  6
CONTINUOUS
 62
     8
 10
131.3296671868
 20
631.27821419
 30
0.0
  0
VERTEX
  5
236
  8
0
  6
CONTINUOUS
 62
     8
 10
131.8710487735
 20
630.7552797335
 30
0.0
  0
VERTEX
  5
237
  8
0
  6
CONTINUOUS
 62
     8
 10
132.0419805436
 20
630.3511587704
 30
0.0
  0
SEQEND
  5
358
  8
0
  6
CONTINUOUS
 62
     8
  0
POLYLINE
  5
E4
  8
0
  6
CONTINUOUS
 62
     8
 66
     1
 10
0.0
 20
0.0
 30
0.0
 70
   128
  0
VERTEX
  5
238
  8
0
  6
CONTINUOUS
 62
     8
 10
108.0544931618
 20
630.2587197578
 30
0.0
  0
VERTEX
  5
239
  8
0
  6
CONTINUOUS
 62
     8
 10
108.2356627012
 20
630.7552797335
 30
0.0
  0
VERTEX
  5
23A
  8
0
  6
CONTINUOUS
 62
     8
 10
108.7770442879
 20
631.27821419
 30
0.0
  0
VERTEX
  5
23B
  8
0
  6
CONTINUOUS
 62
     8
 10
109.6610508919
 20
631.7688725378
 30
0.0
  0
VERTEX
  5
23C
  8
0
  6
CONTINUOUS
 62
     8
 10
110.8608224199
 20
632.2123463713
 30
0.0
  0
VERTEX
  5
23D
  8
0
  6
CONTINUOUS
 62
     8
 10
112.3399044211
 20
632.5951609625
 30
0.0
  0
VERTEX
  5
23E
  8
0
  6
CONTINUOUS
 62
     8
 10
114.0533557374
 20
632.9056846837
 30
0.0
  0
VERTEX
  5
23F
  8
0
  6
CONTINUOUS
 62
     8
 10
115.9491140174
 20
633.1344824288
 30
0.0
  0
VERTEX
  5
240
  8
0
  6
CONTINUOUS
 62
     8
 10
117.9695776054
 20
633.2746022941
 30
0.0
  0
VERTEX
  5
241
  8
0
  6
CONTINUOUS
 62
     8
 10
120.0533557374
 20
633.3217868084
 30
0.0
  0
SEQEND
  5
359
  8
0
  6
CONTINUOUS
 62
     8
  0
POLYLINE
  5
E5
  8
0
  6
CONTINUOUS
 62
     8
 66
     1
 10
0.0
 20
0.0
 30
0.0
 70
   128
  0
VERTEX
  5
242
  8
0
  6
CONTINUOUS
 62
     8
 10
108.864537534
 20
630.4207115626
 30
0.0
  0
VERTEX
  5
243
  8
0
  6
CONTINUOUS
 62
     8
 10
108.657433477
 20
630.1325297993
 30
0.0
  0
VERTEX
  5
244
  8
0
  6
CONTINUOUS
 62
     8
 10
108.5649354721
 20
629.5994588197
 30
0.0
  0
VERTEX
  5
245
  8
0
  6
CONTINUOUS
 62
     8
 10
108.8416847473
 20
629.0706798141
 30
0.0
  0
VERTEX
  5
246
  8
0
  6
CONTINUOUS
 62
     8
 10
109.478786353
 20
628.563188175
 30
0.0
  0
VERTEX
  5
247
  8
0
  6
CONTINUOUS
 62
     8
 10
109.7124420396
 20
628.4307598891
 30
0.0
  0
SEQEND
  5
35A
  8
0
  6
CONTINUOUS
 62
     8
  0
POLYLINE
  5
E6
  8
0
  6
CONTINUOUS
 62
     8
 66
     1
 10
0.0
 20
0.0
 30
0.0
 70
   128
  0
VERTEX
  5
248
  8
0
  6
CONTINUOUS
 62
     8
 10
130.3636568793
 20
628.4146002427
 30
0.0
  0
VERTEX
  5
249
  8
0
  6
CONTINUOUS
 62
     8
 10
130.6279251217
 20
628.563188175
 30
0.0
  0
VERTEX
  5
24A
  8
0
  6
CONTINUOUS
 62
     8
 10
131.2650267274
 20
629.0706798141
 30
0.0
  0
VERTEX
  5
24B
  8
0
  6
CONTINUOUS
 62
     8
 10
131.5417760026
 20
629.5994588197
 30
0.0
  0
VERTEX
  5
24C
  8
0
  6
CONTINUOUS
 62
     8
 10
131.4492779977
 20
630.1325297993
 30
0.0
  0
VERTEX
  5
24D
  8
0
  6
CONTINUOUS
 62
     8
 10
131.2043274522
 20
630.460724822
 30
0.0
  0
SEQEND
  5
35B
  8
0
  6
CONTINUOUS
 62
     8
  0
POLYLINE
  5
E7
  8
0
  6
CONTINUOUS
 62
     8
 66
     1
 10
0.0
 20
0.0
 30
0.0
 70
   128
  0
VERTEX
  5
24E
  8
0
  6
CONTINUOUS
 62
     8
 10
132.0533557374
 20
720.5300230252
 30
0.0
  0
VERTEX
  5
24F
  8
0
  6
CONTINUOUS
 62
     8
 10
131.8710487735
 20
721.0693444915
 30
0.0
  0
VERTEX
  5
250
  8
0
  6
CONTINUOUS
 62
     8
 10
131.3296671868
 20
721.592278948
 30
0.0
  0
VERTEX
  5
251
  8
0
  6
CONTINUOUS
 62
     8
 10
130.4456605828
 20
722.0829372958
 30
0.0
  0
VERTEX
  5
252
  8
0
  6
CONTINUOUS
 62
     8
 10
129.2458890548
 20
722.5264111293
 30
0.0
  0
VERTEX
  5
253
  8
0
  6
CONTINUOUS
 62
     8
 10
127.7668070536
 20
722.9092257205
 30
0.0
  0
VERTEX
  5
254
  8
0
  6
CONTINUOUS
 62
     8
 10
126.0533557374
 20
723.2197494417
 30
0.0
  0
VERTEX
  5
255
  8
0
  6
CONTINUOUS
 62
     8
 10
124.1575974573
 20
723.4485471868
 30
0.0
  0
VERTEX
  5
256
  8
0
  6
CONTINUOUS
 62
     8
 10
122.1371338694
 20
723.5886670521
 30
0.0
  0
VERTEX
  5
257
  8
0
  6
CONTINUOUS
 62
     8
 10
120.0533557374
 20
723.6358515664
 30
0.0
  0
VERTEX
  5
258
  8
0
  6
CONTINUOUS
 62
     8
 10
117.9695776054
 20
723.5886670521
 30
0.0
  0
VERTEX
  5
259
  8
0
  6
CONTINUOUS
 62
     8
 10
115.9491140174
 20
723.4485471868
 30
0.0
  0
VERTEX
  5
25A
  8
0
  6
CONTINUOUS
 62
     8
 10
114.0533557374
 20
723.2197494417
 30
0.0
  0
VERTEX
  5
25B
  8
0
  6
CONTINUOUS
 62
     8
 10
112.3399044211
 20
722.9092257205
 30
0.0
  0
VERTEX
  5
25C
  8
0
  6
CONTINUOUS
 62
     8
 10
110.8608224199
 20
722.5264111293
 30
0.0
  0
VERTEX
  5
25D
  8
0
  6
CONTINUOUS
 62
     8
 10
109.6610508919
 20
722.0829372958
 30
0.0
  0
VERTEX
  5
25E
  8
0
  6
CONTINUOUS
 62
     8
 10
108.7770442879
 20
721.592278948
 30
0.0
  0
VERTEX
  5
25F
  8
0
  6
CONTINUOUS
 62
     8
 10
108.2356627012
 20
721.0693444915
 30
0.0
  0
VERTEX
  5
260
  8
0
  6
CONTINUOUS
 62
     8
 10
108.0533557374
 20
720.5300230252
 30
0.0
  0
SEQEND
  5
35C
  8
0
  6
CONTINUOUS
 62
     8
  0
LINE
  5
E8
  8
0
  6
CONTINUOUS
 62
     8
 10
120.0533557374
 20
411.2265775041
 30
0.0
 11
144.4992404442
 21
411.2265775041
 31
0.0
  0
LINE
  5
E9
  8
0
  6
CONTINUOUS
 62
     8
 10
95.6074710305
 20
411.2265775041
 30
0.0
 11
120.0533557374
 21
411.2265775041
 31
0.0
  0
LINE
  5
EA
  8
0
  6
CONTINUOUS
 62
     8
 10
120.0533557374
 20
410.3314871019
 30
0.0
 11
95.0533557374
 21
410.3314871019
 31
0.0
  0
LINE
  5
EB
  8
0
  6
CONTINUOUS
 62
     8
 10
145.0533557374
 20
410.3314871019
 30
0.0
 11
120.0533557374
 21
410.3314871019
 31
0.0
  0
LINE
  5
EC
  8
0
  6
CONTINUOUS
 62
     8
 10
120.0533557374
 20
413.1097332082
 30
0.0
 11
100.6277639438
 21
413.1097332082
 31
0.0
  0
LINE
  5
ED
  8
0
  6
CONTINUOUS
 62
     8
 10
139.4789475309
 20
413.1097332082
 30
0.0
 11
120.0533557374
 21
413.1097332082
 31
0.0
  0
POLYLINE
  5
EE
  8
0
  6
CONTINUOUS
 62
     8
 66
     1
 10
0.0
 20
0.0
 30
0.0
 70
   128
  0
VERTEX
  5
261
  8
0
  6
CONTINUOUS
 62
     8
 10
139.0533557374
 20
493.9420188903
 30
0.0
  0
VERTEX
  5
262
  8
0
  6
CONTINUOUS
 62
     8
 10
138.7879819899
 20
493.811977882
 30
0.0
  0
VERTEX
  5
263
  8
0
  6
CONTINUOUS
 62
     8
 10
137.9768649113
 20
493.4223893587
 30
0.0
  0
VERTEX
  5
264
  8
0
  6
CONTINUOUS
 62
     8
 10
136.6103255921
 20
492.7732533206
 30
0.0
  0
VERTEX
  5
265
  8
0
  6
CONTINUOUS
 62
     8
 10
134.6978909941
 20
491.8645697676
 30
0.0
  0
VERTEX
  5
266
  8
0
  6
CONTINUOUS
 62
     8
 10
133.4657085736
 20
491.2724487554
 30
0.0
  0
VERTEX
  5
267
  8
0
  6
CONTINUOUS
 62
     8
 10
131.9984115664
 20
490.5651828575
 30
0.0
  0
VERTEX
  5
268
  8
0
  6
CONTINUOUS
 62
     8
 10
130.2823155034
 20
489.7427720739
 30
0.0
  0
VERTEX
  5
269
  8
0
  6
CONTINUOUS
 62
     8
 10
127.230340745
 20
488.2932592379
 30
0.0
  0
VERTEX
  5
26A
  8
0
  6
CONTINUOUS
 62
     8
 10
123.6283464967
 20
486.5846704091
 30
0.0
  0
SEQEND
  5
35D
  8
0
  6
CONTINUOUS
 62
     8
  0
LINE
  5
EF
  8
0
  6
CONTINUOUS
 62
     8
 10
123.6283464967
 20
486.5846704091
 30
0.0
 11
123.6283464967
 21
451.2997570718
 31
0.0
  0
POLYLINE
  5
F0
  8
0
  6
CONTINUOUS
 62
     8
 66
     1
 10
0.0
 20
0.0
 30
0.0
 70
   128
  0
VERTEX
  5
26B
  8
0
  6
CONTINUOUS
 62
     8
 10
123.6283464967
 20
451.2997570718
 30
0.0
  0
VERTEX
  5
26C
  8
0
  6
CONTINUOUS
 62
     8
 10
127.2310697611
 20
449.5907977798
 30
0.0
  0
VERTEX
  5
26D
  8
0
  6
CONTINUOUS
 62
     8
 10
130.283200166
 20
448.1411606162
 30
0.0
  0
VERTEX
  5
26E
  8
0
  6
CONTINUOUS
 62
     8
 10
132.7630355636
 20
446.9508455812
 30
0.0
  0
VERTEX
  5
26F
  8
0
  6
CONTINUOUS
 62
     8
 10
134.6978909712
 20
446.0198526746
 30
0.0
  0
VERTEX
  5
270
  8
0
  6
CONTINUOUS
 62
     8
 10
136.0326539822
 20
445.3852243846
 30
0.0
  0
VERTEX
  5
271
  8
0
  6
CONTINUOUS
 62
     8
 10
137.1276735971
 20
444.8659506692
 30
0.0
  0
VERTEX
  5
272
  8
0
  6
CONTINUOUS
 62
     8
 10
137.9771093151
 20
444.4620315284
 30
0.0
  0
VERTEX
  5
273
  8
0
  6
CONTINUOUS
 62
     8
 10
138.7880739883
 20
444.0724426448
 30
0.0
  0
VERTEX
  5
274
  8
0
  6
CONTINUOUS
 62
     8
 10
138.9688608407
 20
443.9838209453
 30
0.0
  0
SEQEND
  5
35E
  8
0
  6
CONTINUOUS
 62
     8
  0
LINE
  5
F1
  8
0
  6
CONTINUOUS
 62
     8
 10
120.0533557374
 20
516.4340357825
 30
0.0
 11
101.0533557374
 21
516.4340357825
 31
0.0
  0
LINE
  5
F2
  8
0
  6
CONTINUOUS
 62
     8
 10
139.0533557374
 20
516.4340357825
 30
0.0
 11
120.0533557374
 21
516.4340357825
 31
0.0
  0
POLYLINE
  5
F3
  8
0
  6
CONTINUOUS
 62
     8
 66
     1
 10
0.0
 20
0.0
 30
0.0
 70
   128
  0
VERTEX
  5
275
  8
0
  6
CONTINUOUS
 62
     8
 10
147.053356629
 20
485.9422137405
 30
0.0
  0
VERTEX
  5
276
  8
0
  6
CONTINUOUS
 62
     8
 10
146.7394290289
 20
485.5986306745
 30
0.0
  0
VERTEX
  5
277
  8
0
  6
CONTINUOUS
 62
     8
 10
146.4952631177
 20
485.3251900802
 30
0.0
  0
VERTEX
  5
278
  8
0
  6
CONTINUOUS
 62
     8
 10
146.1813355177
 20
484.9692128659
 30
0.0
  0
VERTEX
  5
279
  8
0
  6
CONTINUOUS
 62
     8
 10
145.7976462287
 20
484.5295055618
 30
0.0
  0
VERTEX
  5
27A
  8
0
  6
CONTINUOUS
 62
     8
 10
145.3922510772
 20
484.0629986815
 30
0.0
  0
VERTEX
  5
27B
  8
0
  6
CONTINUOUS
 62
     8
 10
144.8959748348
 20
483.4816090241
 30
0.0
  0
VERTEX
  5
27C
  8
0
  6
CONTINUOUS
 62
     8
 10
144.3088175017
 20
482.7694570597
 30
0.0
  0
VERTEX
  5
27D
  8
0
  6
CONTINUOUS
 62
     8
 10
143.6307790778
 20
481.9112200907
 30
0.0
  0
VERTEX
  5
27E
  8
0
  6
CONTINUOUS
 62
     8
 10
142.8618595631
 20
480.8928741247
 30
0.0
  0
VERTEX
  5
27F
  8
0
  6
CONTINUOUS
 62
     8
 10
141.6856000828
 20
479.1889962327
 30
0.0
  0
VERTEX
  5
280
  8
0
  6
CONTINUOUS
 62
     8
 10
140.7604344165
 20
477.6913010886
 30
0.0
  0
VERTEX
  5
281
  8
0
  6
CONTINUOUS
 62
     8
 10
140.3920117635
 20
477.0519720268
 30
0.0
  0
VERTEX
  5
282
  8
0
  6
CONTINUOUS
 62
     8
 10
140.0863625641
 20
476.497684692
 30
0.0
  0
VERTEX
  5
283
  8
0
  6
CONTINUOUS
 62
     8
 10
139.8434868181
 20
476.0348953432
 30
0.0
  0
VERTEX
  5
284
  8
0
  6
CONTINUOUS
 62
     8
 10
139.6633845257
 20
475.6684107279
 30
0.0
  0
VERTEX
  5
285
  8
0
  6
CONTINUOUS
 62
     8
 10
138.4425621913
 20
472.2209191579
 30
0.0
  0
VERTEX
  5
286
  8
0
  6
CONTINUOUS
 62
     8
 10
138.0345358276
 20
468.9491998615
 30
0.0
  0
VERTEX
  5
287
  8
0
  6
CONTINUOUS
 62
     8
 10
138.4385899024
 20
465.6797999016
 30
0.0
  0
VERTEX
  5
288
  8
0
  6
CONTINUOUS
 62
     8
 10
138.6167643348
 20
464.9991946776
 30
0.0
  0
VERTEX
  5
289
  8
0
  6
CONTINUOUS
 62
     8
 10
138.8273933065
 20
464.3128486796
 30
0.0
  0
VERTEX
  5
28A
  8
0
  6
CONTINUOUS
 62
     8
 10
139.0704768173
 20
463.6223623451
 30
0.0
  0
VERTEX
  5
28B
  8
0
  6
CONTINUOUS
 62
     8
 10
139.3460148672
 20
462.9294608044
 30
0.0
  0
VERTEX
  5
28C
  8
0
  6
CONTINUOUS
 62
     8
 10
139.6540074563
 20
462.2359946481
 30
0.0
  0
VERTEX
  5
28D
  8
0
  6
CONTINUOUS
 62
     8
 10
140.0786294355
 20
461.4018093185
 30
0.0
  0
VERTEX
  5
28E
  8
0
  6
CONTINUOUS
 62
     8
 10
140.7546234657
 20
460.2033184763
 30
0.0
  0
VERTEX
  5
28F
  8
0
  6
CONTINUOUS
 62
     8
 10
141.344937292
 20
459.2303682837
 30
0.0
  0
VERTEX
  5
290
  8
0
  6
CONTINUOUS
 62
     8
 10
142.0469720298
 20
458.1483384428
 30
0.0
  0
VERTEX
  5
291
  8
0
  6
CONTINUOUS
 62
     8
 10
142.8607276792
 20
456.9929979259
 30
0.0
  0
VERTEX
  5
292
  8
0
  6
CONTINUOUS
 62
     8
 10
143.808044397
 20
455.745018378
 30
0.0
  0
VERTEX
  5
293
  8
0
  6
CONTINUOUS
 62
     8
 10
144.6132721395
 20
454.7420401586
 30
0.0
  0
VERTEX
  5
294
  8
0
  6
CONTINUOUS
 62
     8
 10
145.2764109068
 20
453.9556132018
 30
0.0
  0
VERTEX
  5
295
  8
0
  6
CONTINUOUS
 62
     8
 10
145.7974606987
 20
453.3550305539
 30
0.0
  0
VERTEX
  5
296
  8
0
  6
CONTINUOUS
 62
     8
 10
146.7393113121
 20
452.2858217055
 30
0.0
  0
VERTEX
  5
297
  8
0
  6
CONTINUOUS
 62
     8
 10
146.9913703866
 20
452.0099515056
 30
0.0
  0
SEQEND
  5
35F
  8
0
  6
CONTINUOUS
 62
     8
  0
LINE
  5
F4
  8
0
  6
CONTINUOUS
 62
     8
 10
101.4700302321
 20
517.2462742665
 30
0.0
 11
138.6366812426
 21
517.2462742665
 31
0.0
  0
LINE
  5
F5
  8
0
  6
CONTINUOUS
 62
     8
 10
132.2442221645
 20
520.8607606474
 30
0.0
 11
107.8624893103
 21
520.8607606474
 31
0.0
  0
ARC
  5
F6
  8
0
  6
CONTINUOUS
 62
     8
 10
191.3012183144
 20
469.1917402816
 30
0.0
 40
24.74835930533179
 50
179.6369849801
 51
197.4110193326
  0
POLYLINE
  5
F7
  8
0
  6
CONTINUOUS
 62
     8
 66
     1
 10
0.0
 20
0.0
 30
0.0
 70
   128
  0
VERTEX
  5
298
  8
0
  6
CONTINUOUS
 62
     8
 10
167.6867595802
 20
461.7864295524
 30
0.0
  0
VERTEX
  5
299
  8
0
  6
CONTINUOUS
 62
     8
 10
167.6154695653
 20
461.7700296874
 30
0.0
  0
VERTEX
  5
29A
  8
0
  6
CONTINUOUS
 62
     8
 10
167.5466666891
 20
461.760016355
 30
0.0
  0
VERTEX
  5
29B
  8
0
  6
CONTINUOUS
 62
     8
 10
167.4827513199
 20
461.7567388963
 30
0.0
  0
VERTEX
  5
29C
  8
0
  6
CONTINUOUS
 62
     8
 10
167.4259533126
 20
461.7603116542
 30
0.0
  0
VERTEX
  5
29D
  8
0
  6
CONTINUOUS
 62
     8
 10
167.3782542143
 20
461.7706099836
 30
0.0
  0
VERTEX
  5
29E
  8
0
  6
CONTINUOUS
 62
     8
 10
167.3413181329
 20
461.7872746003
 30
0.0
  0
VERTEX
  5
29F
  8
0
  6
CONTINUOUS
 62
     8
 10
167.3164336801
 20
461.8097241157
 30
0.0
  0
VERTEX
  5
2A0
  8
0
  6
CONTINUOUS
 62
     8
 10
167.3044690152
 20
461.8371753196
 30
0.0
  0
SEQEND
  5
360
  8
0
  6
CONTINUOUS
 62
     8
  0
ARC
  5
F8
  8
0
  6
CONTINUOUS
 62
     8
 10
166.4534351447
 20
465.7913821955
 30
0.0
 40
3.558560981742734
 50
88.3909842101
 51
94.8372714978
  0
POLYLINE
  5
F9
  8
0
  6
CONTINUOUS
 62
     8
 66
     1
 10
0.0
 20
0.0
 30
0.0
 70
   128
  0
VERTEX
  5
2A1
  8
0
  6
CONTINUOUS
 62
     8
 10
178.1533557374
 20
485.792023353
 30
0.0
  0
VERTEX
  5
2A2
  8
0
  6
CONTINUOUS
 62
     8
 10
178.3227590702
 20
485.8538521496
 30
0.0
  0
VERTEX
  5
2A3
  8
0
  6
CONTINUOUS
 62
     8
 10
178.7686903362
 20
485.868075783
 30
0.0
  0
SEQEND
  5
361
  8
0
  6
CONTINUOUS
 62
     8
  0
LINE
  5
FA
  8
0
  6
CONTINUOUS
 62
     8
 10
178.1533557374
 20
485.3259150866
 30
0.0
 11
178.1533557374
 21
485.792023353
 31
0.0
  0
POLYLINE
  5
FB
  8
0
  6
CONTINUOUS
 62
     8
 66
     1
 10
0.0
 20
0.0
 30
0.0
 70
   128
  0
VERTEX
  5
2A4
  8
0
  6
CONTINUOUS
 62
     8
 10
181.1533557374
 20
484.4357281951
 30
0.0
  0
VERTEX
  5
2A5
  8
0
  6
CONTINUOUS
 62
     8
 10
180.1778665047
 20
484.4954054596
 30
0.0
  0
VERTEX
  5
2A6
  8
0
  6
CONTINUOUS
 62
     8
 10
179.3126199816
 20
484.6593533332
 30
0.0
  0
VERTEX
  5
2A7
  8
0
  6
CONTINUOUS
 62
     8
 10
178.6384222992
 20
484.8944966929
 30
0.0
  0
VERTEX
  5
2A8
  8
0
  6
CONTINUOUS
 62
     8
 10
178.2365971169
 20
485.1563385379
 30
0.0
  0
VERTEX
  5
2A9
  8
0
  6
CONTINUOUS
 62
     8
 10
178.1533557374
 20
485.3259150866
 30
0.0
  0
SEQEND
  5
362
  8
0
  6
CONTINUOUS
 62
     8
  0
LINE
  5
FC
  8
0
  6
CONTINUOUS
 62
     8
 10
193.3019944551
 20
484.4357281951
 30
0.0
 11
181.1533557374
 21
484.4357281951
 31
0.0
  0
LINE
  5
FD
  8
0
  6
CONTINUOUS
 62
     8
 10
193.3019944551
 20
451.8694919543
 30
0.0
 11
193.3019944551
 21
484.4357281951
 31
0.0
  0
LINE
  5
FE
  8
0
  6
CONTINUOUS
 62
     8
 10
194.2898351978
 20
483.6624243011
 30
0.0
 11
194.2898351978
 21
452.7140227705
 31
0.0
  0
LINE
  5
FF
  8
0
  6
CONTINUOUS
 62
     8
 10
194.2812360171
 20
483.9159595879
 30
0.0
 11
194.2898351978
 21
483.6624243011
 31
0.0
  0
POLYLINE
  5
100
  8
0
  6
CONTINUOUS
 62
     8
 66
     1
 10
0.0
 20
0.0
 30
0.0
 70
   128
  0
VERTEX
  5
2AA
  8
0
  6
CONTINUOUS
 62
     8
 10
194.3722461499
 20
484.4905124651
 30
0.0
  0
VERTEX
  5
2AB
  8
0
  6
CONTINUOUS
 62
     8
 10
194.3806172599
 20
484.4371064298
 30
0.0
  0
VERTEX
  5
2AC
  8
0
  6
CONTINUOUS
 62
     8
 10
194.5271893162
 20
483.365162166
 30
0.0
  0
VERTEX
  5
2AD
  8
0
  6
CONTINUOUS
 62
     8
 10
194.5556911611
 20
482.9650857718
 30
0.0
  0
VERTEX
  5
2AE
  8
0
  6
CONTINUOUS
 62
     8
 10
194.5235261089
 20
482.9948419069
 30
0.0
  0
VERTEX
  5
2AF
  8
0
  6
CONTINUOUS
 62
     8
 10
194.3917576467
 20
483.4714931512
 30
0.0
  0
VERTEX
  5
2B0
  8
0
  6
CONTINUOUS
 62
     8
 10
194.2812360171
 20
483.9159595879
 30
0.0
  0
SEQEND
  5
363
  8
0
  6
CONTINUOUS
 62
     8
  0
ARC
  5
101
  8
0
  6
CONTINUOUS
 62
     8
 10
190.2272021909
 20
512.2306823952
 30
0.0
 40
2.98312717490016
 50
0.7926611848
 51
90.391926757
  0
POLYLINE
  5
102
  8
0
  6
CONTINUOUS
 62
     8
 66
     1
 10
0.0
 20
0.0
 30
0.0
 70
   128
  0
VERTEX
  5
2B1
  8
0
  6
CONTINUOUS
 62
     8
 10
193.3183905382
 20
486.6143464611
 30
0.0
  0
VERTEX
  5
2B2
  8
0
  6
CONTINUOUS
 62
     8
 10
193.2744550809
 20
497.2077052248
 30
0.0
  0
VERTEX
  5
2B3
  8
0
  6
CONTINUOUS
 62
     8
 10
193.2293862641
 20
507.8010594913
 30
0.0
  0
VERTEX
  5
2B4
  8
0
  6
CONTINUOUS
 62
     8
 10
193.210043893
 20
512.2719512934
 30
0.0
  0
SEQEND
  5
364
  8
0
  6
CONTINUOUS
 62
     8
  0
LINE
  5
103
  8
0
  6
CONTINUOUS
 62
     8
 10
181.1533557374
 20
512.2593165192
 30
0.0
 11
181.1533557374
 21
486.6143464611
 31
0.0
  0
ARC
  5
104
  8
0
  6
CONTINUOUS
 62
     8
 10
184.1307404702
 20
512.2363523751
 30
0.0
 40
2.977473291063367
 50
89.5648082465
 51
179.5580945801
  0
LINE
  5
105
  8
0
  6
CONTINUOUS
 62
     8
 10
190.2067965301
 20
515.2137397782
 30
0.0
 11
184.1533557374
 21
515.2137397782
 31
0.0
  0
ARC
  5
106
  8
0
  6
CONTINUOUS
 62
     8
 10
190.2288983316
 20
512.3917972608
 30
0.0
 40
3.980459809555872
 50
0.7236612725
 51
90.3181407458
  0
ARC
  5
107
  8
0
  6
CONTINUOUS
 62
     8
 10
193.4306472211
 20
513.9947783541
 30
0.0
 40
1.736893465180687
 50
262.7031381359
 51
296.6252224957
  0
LINE
  5
108
  8
0
  6
CONTINUOUS
 62
     8
 10
190.2067965301
 20
516.3721957089
 30
0.0
 11
190.2067965301
 21
515.2137397782
 31
0.0
  0
LINE
  5
109
  8
0
  6
CONTINUOUS
 62
     8
 10
184.1533557374
 20
516.3721957089
 30
0.0
 11
184.1533557374
 21
515.2137397782
 31
0.0
  0
ARC
  5
10A
  8
0
  6
CONTINUOUS
 62
     8
 10
180.9108941598
 20
513.8292452732
 30
0.0
 40
1.588541440871505
 50
241.5183868198
 51
278.779460947
  0
LINE
  5
10B
  8
0
  6
CONTINUOUS
 62
     8
 10
184.1533557374
 20
516.3721957089
 30
0.0
 11
190.2067965301
 21
516.3721957089
 31
0.0
  0
POLYLINE
  5
10C
  8
0
  6
CONTINUOUS
 62
     8
 66
     1
 10
0.0
 20
0.0
 30
0.0
 70
   128
  0
VERTEX
  5
2B5
  8
0
  6
CONTINUOUS
 62
     8
 10
194.2090406564
 20
512.4420702137
 30
0.0
  0
VERTEX
  5
2B6
  8
0
  6
CONTINUOUS
 62
     8
 10
194.2672239962
 20
497.9423082569
 30
0.0
  0
VERTEX
  5
2B7
  8
0
  6
CONTINUOUS
 62
     8
 10
194.3084137838
 20
486.7674651879
 30
0.0
  0
SEQEND
  5
365
  8
0
  6
CONTINUOUS
 62
     8
  0
ARC
  5
10D
  8
0
  6
CONTINUOUS
 62
     8
 10
189.2947623139
 20
516.6326679754
 30
0.0
 40
0.9484999805601844
 50
344.0609314994
 51
15.9390685006
  0
POLYLINE
  5
10E
  8
0
  6
CONTINUOUS
 62
     8
 66
     1
 10
0.0
 20
0.0
 30
0.0
 70
   128
  0
VERTEX
  5
2B8
  8
0
  6
CONTINUOUS
 62
     8
 10
194.2404396618
 20
512.7275559494
 30
0.0
  0
VERTEX
  5
2B9
  8
0
  6
CONTINUOUS
 62
     8
 10
194.2434102256
 20
512.703815237
 30
0.0
  0
VERTEX
  5
2BA
  8
0
  6
CONTINUOUS
 62
     8
 10
194.2090406564
 20
512.4420702137
 30
0.0
  0
SEQEND
  5
366
  8
0
  6
CONTINUOUS
 62
     8
  0
LINE
  5
10F
  8
0
  6
CONTINUOUS
 62
     8
 10
184.1533557374
 20
516.8931402419
 30
0.0
 11
184.1533557374
 21
516.3721957089
 31
0.0
  0
LINE
  5
110
  8
0
  6
CONTINUOUS
 62
     8
 10
190.2067965301
 20
516.8931402419
 30
0.0
 11
184.1533557374
 21
516.8931402419
 31
0.0
  0
POLYLINE
  5
111
  8
0
  6
CONTINUOUS
 62
     8
 66
     1
 10
0.0
 20
0.0
 30
0.0
 70
   128
  0
VERTEX
  5
2BB
  8
0
  6
CONTINUOUS
 62
     8
 10
194.290665647
 20
485.8998779266
 30
0.0
  0
VERTEX
  5
2BC
  8
0
  6
CONTINUOUS
 62
     8
 10
194.3278950466
 20
485.5576766862
 30
0.0
  0
VERTEX
  5
2BD
  8
0
  6
CONTINUOUS
 62
     8
 10
194.3811101785
 20
485.0602391013
 30
0.0
  0
VERTEX
  5
2BE
  8
0
  6
CONTINUOUS
 62
     8
 10
194.433191279
 20
484.5901978342
 30
0.0
  0
VERTEX
  5
2BF
  8
0
  6
CONTINUOUS
 62
     8
 10
194.4419501841
 20
484.5392117799
 30
0.0
  0
VERTEX
  5
2C0
  8
0
  6
CONTINUOUS
 62
     8
 10
194.4416951043
 20
484.5687505688
 30
0.0
  0
SEQEND
  5
367
  8
0
  6
CONTINUOUS
 62
     8
  0
POLYLINE
  5
112
  8
0
  6
CONTINUOUS
 62
     8
 66
     1
 10
0.0
 20
0.0
 30
0.0
 70
   128
  0
VERTEX
  5
2C1
  8
0
  6
CONTINUOUS
 62
     8
 10
194.3084137838
 20
486.7674651879
 30
0.0
  0
VERTEX
  5
2C2
  8
0
  6
CONTINUOUS
 62
     8
 10
194.3050164468
 20
486.3395775838
 30
0.0
  0
VERTEX
  5
2C3
  8
0
  6
CONTINUOUS
 62
     8
 10
194.290665647
 20
485.8998779266
 30
0.0
  0
SEQEND
  5
368
  8
0
  6
CONTINUOUS
 62
     8
  0
LINE
  5
113
  8
0
  6
CONTINUOUS
 62
     8
 10
181.1533557374
 20
486.6143464611
 30
0.0
 11
181.1533557374
 21
484.4357281951
 31
0.0
  0
LINE
  5
114
  8
0
  6
CONTINUOUS
 62
     8
 10
193.3019944551
 20
484.4357281951
 30
0.0
 11
193.2934780271
 21
484.6031251528
 31
0.0
  0
LINE
  5
115
  8
0
  6
CONTINUOUS
 62
     8
 10
193.3029138382
 20
486.0380563744
 30
0.0
 11
193.3183905382
 21
486.6143464611
 31
0.0
  0
ARC
  5
116
  8
0
  6
CONTINUOUS
 62
     8
 10
202.2719938725
 20
485.2615809231
 30
0.0
 40
9.002627993436132
 50
175.0520991531
 51
184.1943812993
  0
ARC
  5
117
  8
0
  6
CONTINUOUS
 62
     8
 10
216.3672002873
 20
484.8029658437
 30
0.0
 40
22.10376886057594
 50
177.1554960613
 51
182.2998505464
  0
ARC
  5
118
  8
0
  6
CONTINUOUS
 62
     8
 10
178.1556544244
 20
487.7922022021
 30
0.0
 40
2.000180169919697
 50
269.9341533838
 51
335.8475949662
  0
LINE
  5
119
  8
0
  6
CONTINUOUS
 62
     7
 10
296.5442746709
 20
410.3314871019
 30
0.0
 11
296.5442746709
 21
407.1422137405
 31
0.0
  0
LINE
  5
11A
  8
0
  6
CONTINUOUS
 62
     7
 10
346.5442746709
 20
407.1422137405
 30
0.0
 11
346.5442746709
 21
410.3314871019
 31
0.0
  0
ARC
  5
11B
  8
0
  6
CONTINUOUS
 62
     7
 10
296.7442746709
 20
407.1422137405
 30
0.0
 40
0.1999999999999886
 50
180.0
 51
270.0
  0
ARC
  5
11C
  8
0
  6
CONTINUOUS
 62
     7
 10
346.3442746709
 20
407.1422137405
 30
0.0
 40
0.1999999999999886
 50
270.0
 51
0.0
  0
ARC
  5
11D
  8
0
  6
CONTINUOUS
 62
     7
 10
345.5442746709
 20
410.3314871019
 30
0.0
 40
1.0
 50
0.0
 51
63.5200440425
  0
ARC
  5
11E
  8
0
  6
CONTINUOUS
 62
     7
 10
297.5442746709
 20
410.3314871019
 30
0.0
 40
1.0
 50
116.4799559575
 51
180.0
  0
ARC
  5
11F
  8
0
  6
CONTINUOUS
 62
     7
 10
308.6913923425
 20
387.9542270458
 30
0.0
 40
25.99999999999999
 50
104.6430576274
 51
116.4799559575
  0
ARC
  5
120
  8
0
  6
CONTINUOUS
 62
     7
 10
334.3971569993
 20
387.9542270458
 30
0.0
 40
26.00000000000001
 50
63.5200440425
 51
75.3569423726
  0
ARC
  5
121
  8
0
  6
CONTINUOUS
 62
     7
 10
340.7170699465
 20
412.1422137405
 30
0.0
 40
1.000000000000005
 50
75.3569423726
 51
90.0
  0
ARC
  5
122
  8
0
  6
CONTINUOUS
 62
     7
 10
302.3714793953
 20
412.1422137405
 30
0.0
 40
1.0
 50
90.0
 51
104.6430576274
  0
LINE
  5
123
  8
0
  6
CONTINUOUS
 62
     7
 10
340.5442746709
 20
413.1422137405
 30
0.0
 11
340.5442746709
 21
516.4340357825
 31
0.0
  0
LINE
  5
124
  8
0
  6
CONTINUOUS
 62
     7
 10
302.5442746709
 20
516.4340357825
 30
0.0
 11
302.5442746709
 21
413.1422137405
 31
0.0
  0
ARC
  5
125
  8
0
  6
CONTINUOUS
 62
     7
 10
303.5442746709
 20
516.4340357825
 30
0.0
 40
1.000000000000047
 50
125.6847825153
 51
180.0
  0
ARC
  5
126
  8
0
  6
CONTINUOUS
 62
     7
 10
339.5442746709
 20
516.4340357825
 30
0.0
 40
1.000000000000047
 50
0.0
 51
54.3152174847
  0
ARC
  5
127
  8
0
  6
CONTINUOUS
 62
     7
 10
322.7940163451
 20
489.6301658105
 30
0.0
 40
34.00000000000005
 50
113.2854343066
 51
125.6847825153
  0
ARC
  5
128
  8
0
  6
CONTINUOUS
 62
     7
 10
320.2945329967
 20
489.6301658105
 30
0.0
 40
34.00000000000001
 50
54.3152174847
 51
66.7145656934
  0
ARC
  5
129
  8
0
  6
CONTINUOUS
 62
     7
 10
309.7487202468
 20
519.9422137405
 30
0.0
 40
1.0
 50
90.0
 51
113.2854343066
  0
ARC
  5
12A
  8
0
  6
CONTINUOUS
 62
     7
 10
333.339829095
 20
519.9422137405
 30
0.0
 40
1.0
 50
66.7145656934
 51
90.0
  0
LINE
  5
12B
  8
0
  6
CONTINUOUS
 62
     7
 10
333.5442746709
 20
520.9422137405
 30
0.0
 11
333.5442746709
 21
695.9422137405
 31
0.0
  0
LINE
  5
12C
  8
0
  6
CONTINUOUS
 62
     7
 10
309.5442746709
 20
695.9422137405
 30
0.0
 11
309.5442746709
 21
520.9422137405
 31
0.0
  0
ARC
  5
12D
  8
0
  6
CONTINUOUS
 62
     7
 10
416.5442746709
 20
695.9422137405
 30
0.0
 40
83.0
 50
15.0
 51
180.0
  0
ARC
  5
12E
  8
0
  6
CONTINUOUS
 62
     7
 10
416.5442746709
 20
695.9422137405
 30
0.0
 40
107.0000000000001
 50
15.0
 51
180.0
  0
LINE
  5
12F
  8
0
  6
CONTINUOUS
 62
     7
 10
533.0981093841
 20
674.3736344257
 30
0.0
 11
519.8983380838
 21
723.6358515664
 31
0.0
  0
LINE
  5
130
  8
0
  6
CONTINUOUS
 62
     7
 10
496.7161182529
 20
717.424194484
 30
0.0
 11
509.9158895531
 21
668.1619773432
 31
0.0
  0
ARC
  5
131
  8
0
  6
CONTINUOUS
 62
     7
 10
510.1608385274
 20
668.020555987
 30
0.0
 40
0.1999999999999563
 50
105.0
 51
195.0
  0
ARC
  5
132
  8
0
  6
CONTINUOUS
 62
     7
 10
532.9566880278
 20
674.1286854514
 30
0.0
 40
0.2000000000000661
 50
15.0
 51
105.0
  0
LINE
  5
133
  8
0
  6
CONTINUOUS
 62
     7
 10
509.9676533621
 20
667.968792178
 30
0.0
 11
520.91569897
 21
627.1101297259
 31
0.0
  0
LINE
  5
134
  8
0
  6
CONTINUOUS
 62
     7
 10
544.0979188009
 20
633.3217868084
 30
0.0
 11
533.1498731931
 21
674.1804492604
 31
0.0
  0
ARC
  5
135
  8
0
  6
CONTINUOUS
 62
     7
 10
521.3986618831
 20
627.2395392485
 30
0.0
 40
0.5000000000000594
 50
195.0
 51
285.0
  0
ARC
  5
136
  8
0
  6
CONTINUOUS
 62
     7
 10
543.6149558878
 20
633.1923772858
 30
0.0
 40
0.5000000000000515
 50
285.0
 51
15.0
  0
LINE
  5
137
  8
0
  6
CONTINUOUS
 62
     7
 10
296.7442746709
 20
406.9422137405
 30
0.0
 11
346.3442746709
 21
406.9422137405
 31
0.0
  0
LINE
  5
138
  8
0
  6
CONTINUOUS
 62
     7
 10
302.3714794753
 20
413.1422137405
 30
0.0
 11
340.7170699465
 21
413.1422137405
 31
0.0
  0
LINE
  5
139
  8
0
  6
CONTINUOUS
 62
     7
 10
309.5442746709
 20
520.9422137405
 30
0.0
 11
333.5442746709
 21
520.9422137405
 31
0.0
  0
LINE
  5
13A
  8
0
  6
CONTINUOUS
 62
     7
 10
521.5069994686
 20
671.2678058845
 30
0.0
 11
509.9158895531
 21
668.1619773432
 31
0.0
  0
LINE
  5
13B
  8
0
  6
CONTINUOUS
 62
     7
 10
533.0981093841
 20
674.3736344257
 30
0.0
 11
521.5069994686
 21
671.2678058845
 31
0.0
  0
LINE
  5
13C
  8
0
  6
CONTINUOUS
 62
     7
 10
543.7443654103
 20
632.7094143727
 30
0.0
 11
521.5281091055
 21
626.756586437
 31
0.0
  0
LINE
  5
13D
  8
0
  6
CONTINUOUS
 62
     8
 10
346.5442746709
 20
410.3314871019
 30
0.0
 11
296.5442746709
 21
410.3314871019
 31
0.0
  0
LINE
  5
13E
  8
0
  6
CONTINUOUS
 62
     8
 10
297.098389964
 20
411.2265775041
 30
0.0
 11
345.9901593778
 21
411.2265775041
 31
0.0
  0
LINE
  5
13F
  8
0
  6
CONTINUOUS
 62
     8
 10
340.9698664644
 20
413.1097332082
 30
0.0
 11
302.1186828774
 21
413.1097332082
 31
0.0
  0
LINE
  5
140
  8
0
  6
CONTINUOUS
 62
     8
 10
340.5442746709
 20
516.4340357825
 30
0.0
 11
302.5442746709
 21
516.4340357825
 31
0.0
  0
LINE
  5
141
  8
0
  6
CONTINUOUS
 62
     8
 10
302.9609491656
 20
517.2462742665
 30
0.0
 11
340.1276001762
 21
517.2462742665
 31
0.0
  0
LINE
  5
142
  8
0
  6
CONTINUOUS
 62
     8
 10
333.735141098
 20
520.8607606474
 30
0.0
 11
309.3534082438
 21
520.8607606474
 31
0.0
  0
LINE
  5
143
  8
0
  6
CONTINUOUS
 62
     8
 10
509.9676533621
 20
667.968792178
 30
0.0
 11
533.1498731931
 21
674.1804492604
 31
0.0
  0
LINE
  5
144
  8
0
  6
CONTINUOUS
 62
     8
 10
520.91569897
 20
627.1101297259
 30
0.0
 11
544.0979188009
 21
633.3217868084
 31
0.0
  0
LINE
  5
145
  8
0
  6
CONTINUOUS
 62
     7
 10
108.0533557374
 20
317.3811421352
 30
0.0
 11
108.0533557374
 21
130.6181886377
 31
0.0
  0
LINE
  5
146
  8
0
  6
CONTINUOUS
 62
     7
 10
132.0533557374
 20
130.6181886377
 30
0.0
 11
132.0533557374
 21
317.3811421352
 31
0.0
  0
LINE
  5
147
  8
0
  6
CONTINUOUS
 62
     7
 10
132.0533557374
 20
117.4184173375
 30
0.0
 11
132.0533557374
 21
130.6181886377
 31
0.0
  0
LINE
  5
148
  8
0
  6
CONTINUOUS
 62
     7
 10
108.0533557374
 20
130.6181886377
 30
0.0
 11
108.0533557374
 21
117.4184173375
 31
0.0
  0
LINE
  5
149
  8
0
  6
CONTINUOUS
 62
     7
 10
108.0533557374
 20
117.3666535284
 30
0.0
 11
108.0533557374
 21
106.4186079206
 31
0.0
  0
LINE
  5
14A
  8
0
  6
CONTINUOUS
 62
     7
 10
132.0533557374
 20
106.4186079206
 30
0.0
 11
132.0533557374
 21
117.3666535284
 31
0.0
  0
POLYLINE
  5
14B
  8
0
  6
CONTINUOUS
 62
     7
 66
     1
 10
0.0
 20
0.0
 30
0.0
 70
   128
  0
VERTEX
  5
2C4
  8
0
  6
CONTINUOUS
 62
     7
 10
190.2875742636
 20
306.6757181874
 30
0.0
  0
VERTEX
  5
2C5
  8
0
  6
CONTINUOUS
 62
     7
 10
190.7001513396
 20
306.6751534328
 30
0.0
  0
VERTEX
  5
2C6
  8
0
  6
CONTINUOUS
 62
     7
 10
191.6863199972
 20
306.731655266
 30
0.0
  0
VERTEX
  5
2C7
  8
0
  6
CONTINUOUS
 62
     7
 10
192.5531569213
 20
306.8449729589
 30
0.0
  0
VERTEX
  5
2C8
  8
0
  6
CONTINUOUS
 62
     7
 10
193.2865204258
 20
307.0354993243
 30
0.0
  0
VERTEX
  5
2C9
  8
0
  6
CONTINUOUS
 62
     7
 10
193.6837385385
 20
307.2369538336
 30
0.0
  0
VERTEX
  5
2CA
  8
0
  6
CONTINUOUS
 62
     7
 10
194.0219395518
 20
307.5747677438
 30
0.0
  0
VERTEX
  5
2CB
  8
0
  6
CONTINUOUS
 62
     7
 10
194.1877072732
 20
307.9697765368
 30
0.0
  0
VERTEX
  5
2CC
  8
0
  6
CONTINUOUS
 62
     7
 10
194.1878084872
 20
308.1691796068
 30
0.0
  0
SEQEND
  5
369
  8
0
  6
CONTINUOUS
 62
     7
  0
POLYLINE
  5
14C
  8
0
  6
CONTINUOUS
 62
     7
 66
     1
 10
0.0
 20
0.0
 30
0.0
 70
   128
  0
VERTEX
  5
2CD
  8
0
  6
CONTINUOUS
 62
     7
 10
180.1533557374
 20
308.1894094124
 30
0.0
  0
VERTEX
  5
2CE
  8
0
  6
CONTINUOUS
 62
     7
 10
180.2446815332
 20
307.7517354341
 30
0.0
  0
VERTEX
  5
2CF
  8
0
  6
CONTINUOUS
 62
     7
 10
180.4384799711
 20
307.4484864791
 30
0.0
  0
VERTEX
  5
2D0
  8
0
  6
CONTINUOUS
 62
     7
 10
180.6824349693
 20
307.2348752993
 30
0.0
  0
VERTEX
  5
2D1
  8
0
  6
CONTINUOUS
 62
     7
 10
181.0036707324
 20
307.0642400654
 30
0.0
  0
VERTEX
  5
2D2
  8
0
  6
CONTINUOUS
 62
     7
 10
181.5462023736
 20
306.8983877844
 30
0.0
  0
VERTEX
  5
2D3
  8
0
  6
CONTINUOUS
 62
     7
 10
182.3427110911
 20
306.7662894213
 30
0.0
  0
VERTEX
  5
2D4
  8
0
  6
CONTINUOUS
 62
     7
 10
183.3367963949
 20
306.6870008881
 30
0.0
  0
VERTEX
  5
2D5
  8
0
  6
CONTINUOUS
 62
     7
 10
184.1533557374
 20
306.6684648794
 30
0.0
  0
SEQEND
  5
36A
  8
0
  6
CONTINUOUS
 62
     7
  0
LINE
  5
14D
  8
0
  6
CONTINUOUS
 62
     7
 10
184.1533557374
 20
306.6684648794
 30
0.0
 11
190.2067965301
 21
306.6684648794
 31
0.0
  0
ARC
  5
14E
  8
0
  6
CONTINUOUS
 62
     7
 10
138.211962687
 20
400.1048710324
 30
0.0
 40
65.71292636215551
 50
256.9185171454
 51
269.8497460945
  0
ARC
  5
14F
  8
0
  6
CONTINUOUS
 62
     7
 10
137.2993559289
 20
258.2994363453
 30
0.0
 40
42.08407366678566
 50
88.9843615389
 51
97.1608466158
  0
LINE
  5
150
  8
0
  6
CONTINUOUS
 62
     7
 10
161.7533557374
 20
334.3811421352
 30
0.0
 11
138.0360386633
 21
334.3811421352
 31
0.0
  0
LINE
  5
151
  8
0
  6
CONTINUOUS
 62
     7
 10
138.0353912119
 20
300.3811421352
 30
0.0
 11
161.7533557374
 21
300.3811421352
 31
0.0
  0
ARC
  5
152
  8
0
  6
CONTINUOUS
 62
     7
 10
161.7533557374
 20
300.6811421352
 30
0.0
 40
0.3000000000000114
 50
270.0
 51
0.0
  0
ARC
  5
153
  8
0
  6
CONTINUOUS
 62
     7
 10
161.7533557374
 20
334.0811421352
 30
0.0
 40
0.3000000000000114
 50
0.0
 51
90.0
  0
LINE
  5
154
  8
0
  6
CONTINUOUS
 62
     7
 10
166.5790695773
 20
300.3939649481
 30
0.0
 11
193.3019944551
 21
300.3939649481
 31
0.0
  0
LINE
  5
155
  8
0
  6
CONTINUOUS
 62
     7
 10
193.3019944551
 20
334.3939649481
 30
0.0
 11
167.3225633941
 21
334.3939649481
 31
0.0
  0
ARC
  5
156
  8
0
  6
CONTINUOUS
 62
     7
 10
193.3019944551
 20
301.3939649481
 30
0.0
 40
1.0
 50
270.0
 51
351.0559916206
  0
ARC
  5
157
  8
0
  6
CONTINUOUS
 62
     7
 10
193.3019944551
 20
333.3939649481
 30
0.0
 40
1.0
 50
8.9440083794
 51
90.0
  0
ARC
  5
158
  8
0
  6
CONTINUOUS
 62
     7
 10
91.6390700231
 20
317.3939649481
 30
0.0
 40
103.9142857142859
 50
351.0559916206
 51
8.9440083794
  0
ARC
  5
159
  8
0
  6
CONTINUOUS
 62
     7
 10
157.2845776029
 20
303.8474329714
 30
0.0
 40
30.00000000000001
 50
73.0998623114
 51
79.8849141309
  0
ARC
  5
15A
  8
0
  6
CONTINUOUS
 62
     7
 10
157.2845776029
 20
330.9148512989
 30
0.0
 40
30.0
 50
280.1150858691
 51
287.2912572075
  0
LINE
  5
15B
  8
0
  6
CONTINUOUS
 62
     7
 10
162.0533557374
 20
301.3811421352
 30
0.0
 11
162.5533557374
 21
301.3811421352
 31
0.0
  0
LINE
  5
15C
  8
0
  6
CONTINUOUS
 62
     7
 10
162.5533557374
 20
333.3811421352
 30
0.0
 11
162.0533557374
 21
333.3811421352
 31
0.0
  0
POLYLINE
  5
15D
  8
0
  6
CONTINUOUS
 62
     7
 66
     1
 10
0.0
 20
0.0
 30
0.0
 70
   128
  0
VERTEX
  5
2D6
  8
0
  6
CONTINUOUS
 62
     7
 10
167.2867545482
 20
334.3720066007
 30
0.0
  0
VERTEX
  5
2D7
  8
0
  6
CONTINUOUS
 62
     7
 10
167.1508880242
 20
334.3828772467
 30
0.0
  0
VERTEX
  5
2D8
  8
0
  6
CONTINUOUS
 62
     7
 10
166.6573406127
 20
334.1861953134
 30
0.0
  0
VERTEX
  5
2D9
  8
0
  6
CONTINUOUS
 62
     7
 10
166.316384822
 20
333.7459951162
 30
0.0
  0
VERTEX
  5
2DA
  8
0
  6
CONTINUOUS
 62
     7
 10
166.1698914602
 20
333.1624872377
 30
0.0
  0
VERTEX
  5
2DB
  8
0
  6
CONTINUOUS
 62
     7
 10
166.1782164255
 20
332.8002912164
 30
0.0
  0
SEQEND
  5
36B
  8
0
  6
CONTINUOUS
 62
     7
  0
ARC
  5
15E
  8
0
  6
CONTINUOUS
 62
     7
 10
166.5337741568
 20
300.771902699
 30
0.0
 40
0.3779052830343356
 50
176.9962360559
 51
277.5358530598
  0
ARC
  5
15F
  8
0
  6
CONTINUOUS
 62
     7
 10
120.0533557374
 20
317.3811421352
 30
0.0
 40
12.0
 50
0.0
 51
180.0
  0
POLYLINE
  5
160
  8
0
  6
CONTINUOUS
 62
     7
 66
     1
 10
0.0
 20
0.0
 30
0.0
 70
   128
  0
VERTEX
  5
2DC
  8
0
  6
CONTINUOUS
 62
     7
 10
132.0533557374
 20
117.4184173375
 30
0.0
  0
VERTEX
  5
2DD
  8
0
  6
CONTINUOUS
 62
     7
 10
131.8710487735
 20
115.4056422235
 30
0.0
  0
VERTEX
  5
2DE
  8
0
  6
CONTINUOUS
 62
     7
 10
131.3296671868
 20
113.4540242629
 30
0.0
  0
VERTEX
  5
2DF
  8
0
  6
CONTINUOUS
 62
     7
 10
130.4456605828
 20
111.6228623797
 30
0.0
  0
VERTEX
  5
2E0
  8
0
  6
CONTINUOUS
 62
     7
 10
129.2458890548
 20
109.9677955013
 30
0.0
  0
VERTEX
  5
2E1
  8
0
  6
CONTINUOUS
 62
     7
 10
127.7668070536
 20
108.5391119971
 30
0.0
  0
VERTEX
  5
2E2
  8
0
  6
CONTINUOUS
 62
     7
 10
126.0533557374
 20
107.3802216926
 30
0.0
  0
VERTEX
  5
2E3
  8
0
  6
CONTINUOUS
 62
     7
 10
124.1575974573
 20
106.5263368832
 30
0.0
  0
VERTEX
  5
2E4
  8
0
  6
CONTINUOUS
 62
     7
 10
122.1371338694
 20
106.0034024267
 30
0.0
  0
VERTEX
  5
2E5
  8
0
  6
CONTINUOUS
 62
     7
 10
120.0533557374
 20
105.827307422
 30
0.0
  0
VERTEX
  5
2E6
  8
0
  6
CONTINUOUS
 62
     7
 10
117.9695776054
 20
106.0034024267
 30
0.0
  0
VERTEX
  5
2E7
  8
0
  6
CONTINUOUS
 62
     7
 10
115.9491140174
 20
106.5263368832
 30
0.0
  0
VERTEX
  5
2E8
  8
0
  6
CONTINUOUS
 62
     7
 10
114.0533557374
 20
107.3802216926
 30
0.0
  0
VERTEX
  5
2E9
  8
0
  6
CONTINUOUS
 62
     7
 10
112.3399044211
 20
108.5391119971
 30
0.0
  0
VERTEX
  5
2EA
  8
0
  6
CONTINUOUS
 62
     7
 10
110.8608224199
 20
109.9677955013
 30
0.0
  0
VERTEX
  5
2EB
  8
0
  6
CONTINUOUS
 62
     7
 10
109.6610508919
 20
111.6228623797
 30
0.0
  0
VERTEX
  5
2EC
  8
0
  6
CONTINUOUS
 62
     7
 10
108.7770442879
 20
113.4540242629
 30
0.0
  0
VERTEX
  5
2ED
  8
0
  6
CONTINUOUS
 62
     7
 10
108.2356627012
 20
115.4056422235
 30
0.0
  0
VERTEX
  5
2EE
  8
0
  6
CONTINUOUS
 62
     7
 10
108.0533557374
 20
117.4184173375
 30
0.0
  0
VERTEX
  5
2EF
  8
0
  6
CONTINUOUS
 62
     7
 10
108.0533557374
 20
117.4184173375
 30
0.0
  0
SEQEND
  5
36C
  8
0
  6
CONTINUOUS
 62
     7
  0
ARC
  5
161
  8
0
  6
CONTINUOUS
 62
     7
 10
120.2625742739
 20
117.5661566858
 30
0.0
 40
11.79246916587799
 50
268.9834217131
 51
359.0306326781
  0
ARC
  5
162
  8
0
  6
CONTINUOUS
 62
     7
 10
119.8606504853
 20
117.5832524959
 30
0.0
 40
11.80928128113563
 50
181.0509447869
 51
270.9350008218
  0
ARC
  5
163
  8
0
  6
CONTINUOUS
 62
     7
 10
120.2625742739
 20
106.6181110779
 30
0.0
 40
11.79246916587799
 50
268.9834217131
 51
359.0306326781
  0
ARC
  5
164
  8
0
  6
CONTINUOUS
 62
     7
 10
119.8606504853
 20
106.635206888
 30
0.0
 40
11.8092812811356
 50
181.0509447869
 51
270.9350008218
  0
ARC
  5
165
  8
0
  6
CONTINUOUS
 62
     7
 10
120.0533557374
 20
317.3811421352
 30
0.0
 40
19.00000000000002
 50
309.1667107161
 51
230.8332892839
  0
LINE
  5
166
  8
0
  6
CONTINUOUS
 62
     7
 10
194.2216007683
 20
308.6624151756
 30
0.0
 11
194.2090406564
 21
308.142538409
 31
0.0
  0
LINE
  5
167
  8
0
  6
CONTINUOUS
 62
     7
 10
180.1533557374
 20
308.1894094124
 30
0.0
 11
180.1533557374
 21
311.1438326715
 31
0.0
  0
LINE
  5
168
  8
0
  6
CONTINUOUS
 62
     7
 10
180.1533557374
 20
311.1438326715
 30
0.0
 11
180.1533557374
 21
315.5821590729
 31
0.0
  0
POLYLINE
  5
169
  8
0
  6
CONTINUOUS
 62
     7
 66
     1
 10
0.0
 20
0.0
 30
0.0
 70
   128
  0
VERTEX
  5
2F0
  8
0
  6
CONTINUOUS
 62
     7
 10
194.290665647
 20
316.0901225397
 30
0.0
  0
VERTEX
  5
2F1
  8
0
  6
CONTINUOUS
 62
     7
 10
194.3047951379
 20
315.9164969885
 30
0.0
  0
VERTEX
  5
2F2
  8
0
  6
CONTINUOUS
 62
     7
 10
194.3084137838
 20
315.8037479705
 30
0.0
  0
SEQEND
  5
36D
  8
0
  6
CONTINUOUS
 62
     7
  0
LINE
  5
16A
  8
0
  6
CONTINUOUS
 62
     7
 10
139.1171199578
 20
317.3811492235
 30
0.0
 11
139.2647436074
 21
317.3811406726
 31
0.0
  0
LINE
  5
16B
  8
0
  6
CONTINUOUS
 62
     7
 10
162.0533557374
 20
334.0811421352
 30
0.0
 11
162.0533557374
 21
300.6811421352
 31
0.0
  0
LINE
  5
16C
  8
0
  6
CONTINUOUS
 62
     7
 10
166.1533557374
 20
300.8005570629
 30
0.0
 11
166.1533557374
 21
332.8266789422
 31
0.0
  0
ARC
  5
16D
  8
0
  6
CONTINUOUS
 62
     7
 10
166.5532763301
 20
300.8006365018
 30
0.0
 40
0.3999206005901422
 50
180.0113810357
 51
270.0113765161
  0
LINE
  5
16E
  8
0
  6
CONTINUOUS
 62
     7
 10
162.5533557374
 20
301.3811421352
 30
0.0
 11
162.5533557374
 21
333.3811421352
 31
0.0
  0
ARC
  5
16F
  8
0
  6
CONTINUOUS
 62
     7
 10
120.0533557374
 20
317.3811421352
 30
0.0
 40
25.00000000000004
 50
42.8436430436
 51
241.3145979859
  0
ARC
  5
170
  8
0
  6
CONTINUOUS
 62
     7
 10
120.0533557374
 20
317.3811421352
 30
0.0
 40
25.00000000000003
 50
298.6854020141
 51
317.1563569564
  0
ARC
  5
171
  8
0
  6
CONTINUOUS
 62
     8
 10
120.0533557374
 20
130.9351995394
 30
0.0
 40
12.00418659934008
 50
181.5132635963
 51
358.4867364037
  0
ARC
  5
172
  8
0
  6
CONTINUOUS
 62
     8
 10
120.0533557374
 20
317.3811421352
 30
0.0
 40
12.1908664271028
 50
349.8479586675
 51
90.0
  0
ARC
  5
173
  8
0
  6
CONTINUOUS
 62
     8
 10
120.0533557374
 20
317.3811421352
 30
0.0
 40
12.1908664271028
 50
90.0
 51
190.1520413325
  0
POLYLINE
  5
174
  8
0
  6
CONTINUOUS
 62
     8
 66
     1
 10
0.0
 20
0.0
 30
0.0
 70
   128
  0
VERTEX
  5
2F3
  8
0
  6
CONTINUOUS
 62
     8
 10
194.2090406564
 20
311.1847627374
 30
0.0
  0
VERTEX
  5
2F4
  8
0
  6
CONTINUOUS
 62
     8
 10
194.1123621724
 20
311.0349876913
 30
0.0
  0
VERTEX
  5
2F5
  8
0
  6
CONTINUOUS
 62
     8
 10
193.6026137973
 20
310.8139741818
 30
0.0
  0
VERTEX
  5
2F6
  8
0
  6
CONTINUOUS
 62
     8
 10
192.7091061935
 20
310.630122436
 30
0.0
  0
VERTEX
  5
2F7
  8
0
  6
CONTINUOUS
 62
     8
 10
191.5326588253
 20
310.503915047
 30
0.0
  0
VERTEX
  5
2F8
  8
0
  6
CONTINUOUS
 62
     8
 10
190.2067965301
 20
310.4492399608
 30
0.0
  0
SEQEND
  5
36E
  8
0
  6
CONTINUOUS
 62
     8
  0
LINE
  5
175
  8
0
  6
CONTINUOUS
 62
     8
 10
190.2067965301
 20
310.4492399608
 30
0.0
 11
190.2067965301
 21
311.6076958915
 31
0.0
  0
POLYLINE
  5
176
  8
0
  6
CONTINUOUS
 62
     8
 66
     1
 10
0.0
 20
0.0
 30
0.0
 70
   128
  0
VERTEX
  5
2F9
  8
0
  6
CONTINUOUS
 62
     8
 10
190.2067965301
 20
311.6076958915
 30
0.0
  0
VERTEX
  5
2FA
  8
0
  6
CONTINUOUS
 62
     8
 10
191.2017604752
 20
311.6371105593
 30
0.0
  0
VERTEX
  5
2FB
  8
0
  6
CONTINUOUS
 62
     8
 10
192.084556801
 20
311.7220675996
 30
0.0
  0
VERTEX
  5
2FC
  8
0
  6
CONTINUOUS
 62
     8
 10
192.7550134389
 20
311.8529313102
 30
0.0
  0
VERTEX
  5
2FD
  8
0
  6
CONTINUOUS
 62
     8
 10
193.1375020682
 20
312.0148079675
 30
0.0
  0
VERTEX
  5
2FE
  8
0
  6
CONTINUOUS
 62
     8
 10
193.210043893
 20
312.1264125729
 30
0.0
  0
SEQEND
  5
36F
  8
0
  6
CONTINUOUS
 62
     8
  0
ARC
  5
177
  8
0
  6
CONTINUOUS
 62
     8
 10
193.2162579082
 20
311.1322620334
 30
0.0
 40
0.9941699598873434
 50
3.0271168529
 51
90.3581270567
  0
POLYLINE
  5
178
  8
0
  6
CONTINUOUS
 62
     8
 66
     1
 10
0.0
 20
0.0
 30
0.0
 70
   128
  0
VERTEX
  5
2FF
  8
0
  6
CONTINUOUS
 62
     8
 10
190.2067965301
 20
307.4948167018
 30
0.0
  0
VERTEX
  5
300
  8
0
  6
CONTINUOUS
 62
     8
 10
191.0727509734
 20
307.501064785
 30
0.0
  0
VERTEX
  5
301
  8
0
  6
CONTINUOUS
 62
     8
 10
192.3169585279
 20
307.5750452109
 30
0.0
  0
VERTEX
  5
302
  8
0
  6
CONTINUOUS
 62
     8
 10
193.3228922667
 20
307.7186549393
 30
0.0
  0
VERTEX
  5
303
  8
0
  6
CONTINUOUS
 62
     8
 10
193.9781270184
 20
307.915289288
 30
0.0
  0
VERTEX
  5
304
  8
0
  6
CONTINUOUS
 62
     8
 10
194.2090406564
 20
308.142538409
 30
0.0
  0
SEQEND
  5
370
  8
0
  6
CONTINUOUS
 62
     8
  0
POLYLINE
  5
179
  8
0
  6
CONTINUOUS
 62
     8
 66
     1
 10
0.0
 20
0.0
 30
0.0
 70
   128
  0
VERTEX
  5
305
  8
0
  6
CONTINUOUS
 62
     8
 10
194.2090406564
 20
311.1847627374
 30
0.0
  0
VERTEX
  5
306
  8
0
  6
CONTINUOUS
 62
     8
 10
194.2434102256
 20
309.5651324659
 30
0.0
  0
VERTEX
  5
307
  8
0
  6
CONTINUOUS
 62
     8
 10
194.2216007683
 20
308.6624151756
 30
0.0
  0
SEQEND
  5
371
  8
0
  6
CONTINUOUS
 62
     8
  0
POLYLINE
  5
17A
  8
0
  6
CONTINUOUS
 62
     8
 66
     1
 10
0.0
 20
0.0
 30
0.0
 70
   128
  0
VERTEX
  5
308
  8
0
  6
CONTINUOUS
 62
     8
 10
184.1533557374
 20
310.4492399608
 30
0.0
  0
VERTEX
  5
309
  8
0
  6
CONTINUOUS
 62
     8
 10
183.3729944493
 20
310.462586365
 30
0.0
  0
VERTEX
  5
30A
  8
0
  6
CONTINUOUS
 62
     8
 10
182.6226220079
 20
310.5021126827
 30
0.0
  0
VERTEX
  5
30B
  8
0
  6
CONTINUOUS
 62
     8
 10
181.9310748053
 20
310.5662999396
 30
0.0
  0
VERTEX
  5
30C
  8
0
  6
CONTINUOUS
 62
     8
 10
181.3249286126
 20
310.6526814556
 30
0.0
  0
VERTEX
  5
30D
  8
0
  6
CONTINUOUS
 62
     8
 10
180.8274772881
 20
310.7579376374
 30
0.0
  0
VERTEX
  5
30E
  8
0
  6
CONTINUOUS
 62
     8
 10
180.4578376073
 20
310.8780235489
 30
0.0
  0
VERTEX
  5
30F
  8
0
  6
CONTINUOUS
 62
     8
 10
180.2302146157
 20
311.0083243559
 30
0.0
  0
VERTEX
  5
310
  8
0
  6
CONTINUOUS
 62
     8
 10
180.1533557374
 20
311.1438326715
 30
0.0
  0
SEQEND
  5
372
  8
0
  6
CONTINUOUS
 62
     8
  0
ARC
  5
17B
  8
0
  6
CONTINUOUS
 62
     8
 10
181.145817315
 20
311.1361779568
 30
0.0
 40
0.9924910970211954
 50
89.5648082465
 51
179.5580945801
  0
ARC
  5
17C
  8
0
  6
CONTINUOUS
 62
     8
 10
183.4259710046
 20
316.3174821536
 30
0.0
 40
4.765624322609188
 50
241.5183868198
 51
278.7794609471
  0
LINE
  5
17D
  8
0
  6
CONTINUOUS
 62
     8
 10
184.1533557374
 20
310.4492399608
 30
0.0
 11
184.1533557374
 21
311.6076958915
 31
0.0
  0
LINE
  5
17E
  8
0
  6
CONTINUOUS
 62
     8
 10
190.2067965301
 20
310.4492399608
 30
0.0
 11
184.1533557374
 21
310.4492399608
 31
0.0
  0
LINE
  5
17F
  8
0
  6
CONTINUOUS
 62
     8
 10
184.1533557374
 20
311.6076958915
 30
0.0
 11
190.2067965301
 21
311.6076958915
 31
0.0
  0
POLYLINE
  5
180
  8
0
  6
CONTINUOUS
 62
     8
 66
     1
 10
0.0
 20
0.0
 30
0.0
 70
   128
  0
VERTEX
  5
311
  8
0
  6
CONTINUOUS
 62
     8
 10
180.1533557374
 20
308.1894094124
 30
0.0
  0
VERTEX
  5
312
  8
0
  6
CONTINUOUS
 62
     8
 10
180.2302146157
 20
308.0539010968
 30
0.0
  0
VERTEX
  5
313
  8
0
  6
CONTINUOUS
 62
     8
 10
180.4578376073
 20
307.9236002898
 30
0.0
  0
VERTEX
  5
314
  8
0
  6
CONTINUOUS
 62
     8
 10
180.8274772881
 20
307.8035143783
 30
0.0
  0
VERTEX
  5
315
  8
0
  6
CONTINUOUS
 62
     8
 10
181.3249286126
 20
307.6982581966
 30
0.0
  0
VERTEX
  5
316
  8
0
  6
CONTINUOUS
 62
     8
 10
181.9310748053
 20
307.6118766806
 30
0.0
  0
VERTEX
  5
317
  8
0
  6
CONTINUOUS
 62
     8
 10
182.6226220079
 20
307.5476894236
 30
0.0
  0
VERTEX
  5
318
  8
0
  6
CONTINUOUS
 62
     8
 10
183.3729944493
 20
307.5081631059
 30
0.0
  0
VERTEX
  5
319
  8
0
  6
CONTINUOUS
 62
     8
 10
184.1533557374
 20
307.4948167018
 30
0.0
  0
SEQEND
  5
373
  8
0
  6
CONTINUOUS
 62
     8
  0
LINE
  5
181
  8
0
  6
CONTINUOUS
 62
     8
 10
184.1533557374
 20
307.4948167018
 30
0.0
 11
190.2067965301
 21
307.4948167018
 31
0.0
  0
LINE
  5
182
  8
0
  6
CONTINUOUS
 62
     8
 10
190.2067965301
 20
307.4948167018
 30
0.0
 11
190.2067965301
 21
306.6684648794
 31
0.0
  0
LINE
  5
183
  8
0
  6
CONTINUOUS
 62
     8
 10
184.1533557374
 20
307.4948167018
 30
0.0
 11
184.1533557374
 21
306.6684648794
 31
0.0
  0
LINE
  5
184
  8
0
  6
CONTINUOUS
 62
     8
 10
193.3183905382
 20
316.6505405652
 30
0.0
 11
181.1533557374
 21
316.6505405652
 31
0.0
  0
LINE
  5
185
  8
0
  6
CONTINUOUS
 62
     8
 10
193.210043893
 20
312.1264125729
 30
0.0
 11
193.3183905382
 21
316.6505405652
 31
0.0
  0
LINE
  5
186
  8
0
  6
CONTINUOUS
 62
     8
 10
181.1533557374
 20
316.6505405652
 30
0.0
 11
181.1533557374
 21
312.1286404245
 31
0.0
  0
POLYLINE
  5
187
  8
0
  6
CONTINUOUS
 62
     8
 66
     1
 10
0.0
 20
0.0
 30
0.0
 70
   128
  0
VERTEX
  5
31A
  8
0
  6
CONTINUOUS
 62
     8
 10
194.3084137838
 20
315.8037479705
 30
0.0
  0
VERTEX
  5
31B
  8
0
  6
CONTINUOUS
 62
     8
 10
194.2543341711
 20
313.1941541244
 30
0.0
  0
VERTEX
  5
31C
  8
0
  6
CONTINUOUS
 62
     8
 10
194.2090406564
 20
311.1847627374
 30
0.0
  0
SEQEND
  5
374
  8
0
  6
CONTINUOUS
 62
     8
  0
ARC
  5
188
  8
0
  6
CONTINUOUS
 62
     8
 10
193.3236883498
 20
315.6545978618
 30
0.0
 40
0.9959567938955656
 50
8.6127635792
 51
90.3047759533
  0
ARC
  5
189
  8
0
  6
CONTINUOUS
 62
     8
 10
181.1967095094
 20
315.6077732704
 30
0.0
 40
1.043668137238937
 50
92.3807405875
 51
181.4063213462
  0
POLYLINE
  5
18A
  8
0
  6
CONTINUOUS
 62
     8
 66
     1
 10
0.0
 20
0.0
 30
0.0
 70
   128
  0
VERTEX
  5
31D
  8
0
  6
CONTINUOUS
 62
     8
 10
138.039723695
 20
334.3770816015
 30
0.0
  0
VERTEX
  5
31E
  8
0
  6
CONTINUOUS
 62
     8
 10
138.4412669544
 20
334.0629078566
 30
0.0
  0
VERTEX
  5
31F
  8
0
  6
CONTINUOUS
 62
     8
 10
138.6195423198
 20
333.9151721561
 30
0.0
  0
VERTEX
  5
320
  8
0
  6
CONTINUOUS
 62
     8
 10
138.8301276515
 20
333.7363138747
 30
0.0
  0
VERTEX
  5
321
  8
0
  6
CONTINUOUS
 62
     8
 10
139.0730229493
 20
333.5250933647
 30
0.0
  0
VERTEX
  5
322
  8
0
  6
CONTINUOUS
 62
     8
 10
139.3482282134
 20
333.2803311271
 30
0.0
  0
VERTEX
  5
323
  8
0
  6
CONTINUOUS
 62
     8
 10
139.6557434437
 20
333.0009182753
 30
0.0
  0
VERTEX
  5
324
  8
0
  6
CONTINUOUS
 62
     8
 10
140.0804164445
 20
332.6155828103
 30
0.0
  0
VERTEX
  5
325
  8
0
  6
CONTINUOUS
 62
     8
 10
140.7554937223
 20
331.9619621816
 30
0.0
  0
VERTEX
  5
326
  8
0
  6
CONTINUOUS
 62
     8
 10
141.3446587282
 20
331.3340618058
 30
0.0
  0
VERTEX
  5
327
  8
0
  6
CONTINUOUS
 62
     8
 10
142.0451145238
 20
330.5169553863
 30
0.0
  0
VERTEX
  5
328
  8
0
  6
CONTINUOUS
 62
     8
 10
142.8568611093
 20
329.4783919976
 30
0.0
  0
VERTEX
  5
329
  8
0
  6
CONTINUOUS
 62
     8
 10
143.8017477822
 20
328.1072270593
 30
0.0
  0
VERTEX
  5
32A
  8
0
  6
CONTINUOUS
 62
     8
 10
144.6052131247
 20
326.7426624201
 30
0.0
  0
VERTEX
  5
32B
  8
0
  6
CONTINUOUS
 62
     8
 10
145.2672571367
 20
325.4265677341
 30
0.0
  0
VERTEX
  5
32C
  8
0
  6
CONTINUOUS
 62
     8
 10
145.7878798183
 20
324.1919252596
 30
0.0
  0
VERTEX
  5
32D
  8
0
  6
CONTINUOUS
 62
     8
 10
146.7369874263
 20
320.7946366873
 30
0.0
  0
VERTEX
  5
32E
  8
0
  6
CONTINUOUS
 62
     8
 10
147.053356629
 20
317.3811421352
 30
0.0
  0
SEQEND
  5
375
  8
0
  6
CONTINUOUS
 62
     8
  0
POLYLINE
  5
18B
  8
0
  6
CONTINUOUS
 62
     8
 66
     1
 10
0.0
 20
0.0
 30
0.0
 70
   128
  0
VERTEX
  5
32F
  8
0
  6
CONTINUOUS
 62
     8
 10
147.053356629
 20
317.3811421352
 30
0.0
  0
VERTEX
  5
330
  8
0
  6
CONTINUOUS
 62
     8
 10
146.7394290289
 20
313.9805870452
 30
0.0
  0
VERTEX
  5
331
  8
0
  6
CONTINUOUS
 62
     8
 10
146.4952631177
 20
312.8426306776
 30
0.0
  0
VERTEX
  5
332
  8
0
  6
CONTINUOUS
 62
     8
 10
146.1813355177
 20
311.712341642
 30
0.0
  0
VERTEX
  5
333
  8
0
  6
CONTINUOUS
 62
     8
 10
145.7976462287
 20
310.5961341265
 30
0.0
  0
VERTEX
  5
334
  8
0
  6
CONTINUOUS
 62
     8
 10
145.3922510772
 20
309.6118524143
 30
0.0
  0
VERTEX
  5
335
  8
0
  6
CONTINUOUS
 62
     8
 10
144.8959748348
 20
308.5717162295
 30
0.0
  0
VERTEX
  5
336
  8
0
  6
CONTINUOUS
 62
     8
 10
144.3088175017
 20
307.4913826745
 30
0.0
  0
VERTEX
  5
337
  8
0
  6
CONTINUOUS
 62
     8
 10
143.6307790778
 20
306.3900150643
 30
0.0
  0
VERTEX
  5
338
  8
0
  6
CONTINUOUS
 62
     8
 10
142.8618595631
 20
305.2905790225
 30
0.0
  0
VERTEX
  5
339
  8
0
  6
CONTINUOUS
 62
     8
 10
141.6856000828
 20
303.816355054
 30
0.0
  0
VERTEX
  5
33A
  8
0
  6
CONTINUOUS
 62
     8
 10
140.7604344165
 20
302.8053584316
 30
0.0
  0
VERTEX
  5
33B
  8
0
  6
CONTINUOUS
 62
     8
 10
140.3920117635
 20
302.4401977026
 30
0.0
  0
VERTEX
  5
33C
  8
0
  6
CONTINUOUS
 62
     8
 10
140.0863625641
 20
302.15239108
 30
0.0
  0
VERTEX
  5
33D
  8
0
  6
CONTINUOUS
 62
     8
 10
139.8434868181
 20
301.9314215007
 30
0.0
  0
VERTEX
  5
33E
  8
0
  6
CONTINUOUS
 62
     8
 10
139.6633845257
 20
301.7683821586
 30
0.0
  0
VERTEX
  5
33F
  8
0
  6
CONTINUOUS
 62
     8
 10
138.4425621913
 20
300.7003120963
 30
0.0
  0
VERTEX
  5
340
  8
0
  6
CONTINUOUS
 62
     8
 10
138.0345358276
 20
300.3811435706
 30
0.0
  0
VERTEX
  5
341
  8
0
  6
CONTINUOUS
 62
     8
 10
138.0451455865
 20
300.3894405151
 30
0.0
  0
SEQEND
  5
376
  8
0
  6
CONTINUOUS
 62
     8
  0
ARC
  5
18C
  8
0
  6
CONTINUOUS
 62
     8
 10
181.0301382185
 20
315.6124681328
 30
0.0
 40
2.881251110411684
 50
87.5489822943
 51
176.8085328167
  0
ARC
  5
18D
  8
0
  6
CONTINUOUS
 62
     8
 10
178.6488091438
 20
310.3864508287
 30
0.0
 40
5.409163023196801
 50
73.8503115374
 51
95.255384826
  0
ARC
  5
18E
  8
0
  6
CONTINUOUS
 62
     8
 10
178.6218918313
 20
310.7599729484
 30
0.0
 40
2.415350868319537
 50
50.6501118314
 51
101.1852973217
  0
LINE
  5
18F
  8
0
  6
CONTINUOUS
 62
     8
 10
178.1533557374
 20
313.1294441438
 30
0.0
 11
178.1533557374
 21
315.7728754808
 31
0.0
  0
LINE
  5
190
  8
0
  6
CONTINUOUS
 62
     8
 10
193.3183905382
 20
316.6505405652
 30
0.0
 11
193.3029138382
 21
316.8314508699
 31
0.0
  0
LINE
  5
191
  8
0
  6
CONTINUOUS
 62
     8
 10
181.1533557374
 20
318.4910833214
 30
0.0
 11
193.3019944551
 21
318.4910833214
 31
0.0
  0
LINE
  5
192
  8
0
  6
CONTINUOUS
 62
     8
 10
193.2934780271
 20
318.1465090368
 30
0.0
 11
193.3019944551
 21
318.4910833214
 31
0.0
  0
ARC
  5
193
  8
0
  6
CONTINUOUS
 62
     8
 10
200.1939857469
 20
317.5384586547
 30
0.0
 40
6.927245632922897
 50
174.9642880434
 51
185.8579157051
  0
ARC
  5
194
  8
0
  6
CONTINUOUS
 62
     8
 10
180.7446753338
 20
313.2347576301
 30
0.0
 40
2.593458729480001
 50
182.3272696642
 51
256.8203983415
  0
ARC
  5
195
  8
0
  6
CONTINUOUS
 62
     8
 10
211.2207244219
 20
317.0899306639
 30
0.0
 40
16.95955501797036
 50
177.2125295395
 51
183.3796888542
  0
LINE
  5
196
  8
0
  6
CONTINUOUS
 62
     8
 10
161.7533557374
 20
300.3811421352
 30
0.0
 11
161.7533557374
 21
334.3811421352
 31
0.0
  0
LINE
  5
197
  8
0
  6
CONTINUOUS
 62
     8
 10
194.2898351978
 20
318.436580364
 30
0.0
 11
194.2812360171
 21
317.9146966856
 31
0.0
  0
LINE
  5
198
  8
0
  6
CONTINUOUS
 62
     8
 10
193.3019944551
 20
318.4910833214
 30
0.0
 11
193.3019944551
 21
334.3939649481
 31
0.0
  0
LINE
  5
199
  8
0
  6
CONTINUOUS
 62
     8
 10
193.3019944551
 20
300.3939649481
 30
0.0
 11
193.3019944551
 21
306.949513352
 31
0.0
  0
LINE
  5
19A
  8
0
  6
CONTINUOUS
 62
     8
 10
166.5533557374
 20
300.4007159091
 30
0.0
 11
166.5790695773
 21
300.4283262803
 31
0.0
  0
LINE
  5
19B
  8
0
  6
CONTINUOUS
 62
     8
 10
166.5533557374
 20
333.1985515685
 30
0.0
 11
166.5533557374
 21
300.4007159091
 31
0.0
  0
POLYLINE
  5
19C
  8
0
  6
CONTINUOUS
 62
     8
 66
     1
 10
0.0
 20
0.0
 30
0.0
 70
   128
  0
VERTEX
  5
342
  8
0
  6
CONTINUOUS
 62
     8
 10
167.3225633941
 20
334.3924847977
 30
0.0
  0
VERTEX
  5
343
  8
0
  6
CONTINUOUS
 62
     8
 10
167.3128184788
 20
334.3939252805
 30
0.0
  0
VERTEX
  5
344
  8
0
  6
CONTINUOUS
 62
     8
 10
167.0068325403
 20
334.3300119815
 30
0.0
  0
VERTEX
  5
345
  8
0
  6
CONTINUOUS
 62
     8
 10
166.8112060119
 20
334.1834618627
 30
0.0
  0
VERTEX
  5
346
  8
0
  6
CONTINUOUS
 62
     8
 10
166.6693555564
 20
333.949207055
 30
0.0
  0
VERTEX
  5
347
  8
0
  6
CONTINUOUS
 62
     8
 10
166.5823128019
 20
333.620121205
 30
0.0
  0
VERTEX
  5
348
  8
0
  6
CONTINUOUS
 62
     8
 10
166.5533557374
 20
333.1985515685
 30
0.0
  0
SEQEND
  5
377
  8
0
  6
CONTINUOUS
 62
     8
  0
ARC
  5
19D
  8
0
  6
CONTINUOUS
 62
     8
 10
166.5397865188
 20
332.812083387
 30
0.0
 40
0.3867063214424036
 50
87.9891236738
 51
177.8369570311
  0
LINE
  5
19E
  8
0
  6
CONTINUOUS
 62
     8
 10
194.2898351978
 20
310.2639194657
 30
0.0
 11
194.2898351978
 21
301.2384957643
 31
0.0
  0
LINE
  5
19F
  8
0
  6
CONTINUOUS
 62
     8
 10
194.2898351978
 20
333.5494341319
 30
0.0
 11
194.2898351978
 21
318.436580364
 31
0.0
  0
ARC
  5
1A0
  8
0
  6
CONTINUOUS
 62
     8
 10
120.0533557374
 20
317.3811421352
 30
0.0
 40
19.17279527564087
 50
359.9818914965
 51
231.2526921605
  0
ARC
  5
1A1
  8
0
  6
CONTINUOUS
 62
     8
 10
120.0533557374
 20
317.3811421352
 30
0.0
 40
19.42559179353082
 50
68.6267092936
 51
231.8485845283
  0
ENDSEC
  0
EOF
