  0
SECTION
  2
HEADER
  9
$ACADVER
  1
AC1015
  9
$ACADMAINTVER
 70
     6
  9
$DWGCODEPAGE
  3
ANSI_1252
  9
$INSBASE
 10
0.0
 20
0.0
 30
0.0
  9
$EXTMIN
 10
0.0
 20
0.0
 30
0.0
  9
$EXTMAX
 10
594.0
 20
841.0
 30
0.0
  9
$LIMMIN
 10
0.0
 20
0.0
  9
$LIMMAX
 10
594.0
 20
841.0
  9
$ORTHOMODE
 70
     0
  9
$REGENMODE
 70
     1
  9
$FILLMODE
 70
     1
  9
$QTEXTMODE
 70
     0
  9
$MIRRTEXT
 70
     1
  9
$LTSCALE
 40
1.0
  9
$ATTMODE
 70
     1
  9
$TEXTSIZE
 40
10.0
  9
$TRACEWID
 40
1.0
  9
$TEXTSTYLE
  7
Standard
  9
$CLAYER
  8
0
  9
$CELTYPE
  6
ByLayer
  9
$CECOLOR
 62
   256
  9
$CELTSCALE
 40
1.0
  9
$DISPSILH
 70
     0
  9
$DIMSCALE
 40
1.0
  9
$DIMASZ
 40
2.5
  9
$DIMEXO
 40
0.0
  9
$DIMDLI
 40
3.75
  9
$DIMRND
 40
0.0
  9
$DIMDLE
 40
0.0
  9
$DIMEXE
 40
1.0
  9
$DIMTP
 40
0.0
  9
$DIMTM
 40
0.0
  9
$DIMTXT
 40
3.5
  9
$DIMCEN
 40
2.5
  9
$DIMTSZ
 40
0.0
  9
$DIMTOL
 70
     0
  9
$DIMLIM
 70
     0
  9
$DIMTIH
 70
     1
  9
$DIMTOH
 70
     1
  9
$DIMSE1
 70
     0
  9
$DIMSE2
 70
     0
  9
$DIMTAD
 70
     1
  9
$DIMZIN
 70
     0
  9
$DIMBLK
  1

  9
$DIMASO
 70
     1
  9
$DIMSHO
 70
     1
  9
$DIMPOST
  1

  9
$DIMAPOST
  1

  9
$DIMALT
 70
     0
  9
$DIMALTD
 70
     3
  9
$DIMALTF
 40
0.0393700787
  9
$DIMLFAC
 40
1.0
  9
$DIMTOFL
 70
     1
  9
$DIMTVP
 40
0.0
  9
$DIMTIX
 70
     0
  9
$DIMSOXD
 70
     0
  9
$DIMSAH
 70
     0
  9
$DIMBLK1
  1

  9
$DIMBLK2
  1

  9
$DIMSTYLE
  2
ISO-25
  9
$DIMCLRD
 70
     0
  9
$DIMCLRE
 70
     0
  9
$DIMCLRT
 70
     0
  9
$DIMTFAC
 40
1.0
  9
$DIMGAP
 40
1.5
  9
$DIMJUST
 70
     0
  9
$DIMSD1
 70
     0
  9
$DIMSD2
 70
     0
  9
$DIMTOLJ
 70
     0
  9
$DIMTZIN
 70
     0
  9
$DIMALTZ
 70
     0
  9
$DIMALTTZ
 70
     0
  9
$DIMUPT
 70
     0
  9
$DIMDEC
 70
     2
  9
$DIMTDEC
 70
     2
  9
$DIMALTU
 70
     2
  9
$DIMALTTD
 70
     3
  9
$DIMTXSTY
  7
Standard
  9
$DIMAUNIT
 70
     0
  9
$DIMADEC
 70
     2
  9
$DIMALTRND
 40
0.0
  9
$DIMAZIN
 70
     0
  9
$DIMDSEP
 70
    44
  9
$DIMATFIT
 70
     3
  9
$DIMFRAC
 70
     0
  9
$DIMLDRBLK
  1

  9
$DIMLUNIT
 70
     2
  9
$DIMLWD
 70
    -2
  9
$DIMLWE
 70
    -2
  9
$DIMTMOVE
 70
     0
  9
$LUNITS
 70
     2
  9
$LUPREC
 70
     2
  9
$SKETCHINC
 40
1.0
  9
$FILLETRAD
 40
10.0
  9
$AUNITS
 70
     0
  9
$AUPREC
 70
     2
  9
$MENU
  1
.
  9
$ELEVATION
 40
0.0
  9
$PELEVATION
 40
0.0
  9
$THICKNESS
 40
0.0
  9
$LIMCHECK
 70
     0
  9
$CHAMFERA
 40
10.0
  9
$CHAMFERB
 40
10.0
  9
$CHAMFERC
 40
20.0
  9
$CHAMFERD
 40
0.0
  9
$SKPOLY
 70
     0
  9
$TDCREATE
 40
2456350.37380515
  9
$TDUCREATE
 40
2456350.332138484
  9
$TDUPDATE
 40
2456350.373808588
  9
$TDUUPDATE
 40
2456350.332141921
  9
$TDINDWG
 40
0.0000000116
  9
$TDUSRTIMER
 40
0.0000000116
  9
$USRTIMER
 70
     1
  9
$ANGBASE
 50
0.0
  9
$ANGDIR
 70
     0
  9
$PDMODE
 70
     0
  9
$PDSIZE
 40
-1.0
  9
$PLINEWID
 40
0.0
  9
$SPLFRAME
 70
     0
  9
$SPLINETYPE
 70
     6
  9
$SPLINESEGS
 70
     8
  9
$HANDSEED
  5
188
  9
$SURFTAB1
 70
     6
  9
$SURFTAB2
 70
     6
  9
$SURFTYPE
 70
     6
  9
$SURFU
 70
     6
  9
$SURFV
 70
     6
  9
$UCSBASE
  2

  9
$UCSNAME
  2

  9
$UCSORG
 10
0.0
 20
0.0
 30
0.0
  9
$UCSXDIR
 10
1.0
 20
0.0
 30
0.0
  9
$UCSYDIR
 10
0.0
 20
1.0
 30
0.0
  9
$UCSORTHOREF
  2

  9
$UCSORTHOVIEW
 70
     0
  9
$UCSORGTOP
 10
0.0
 20
0.0
 30
0.0
  9
$UCSORGBOTTOM
 10
0.0
 20
0.0
 30
0.0
  9
$UCSORGLEFT
 10
0.0
 20
0.0
 30
0.0
  9
$UCSORGRIGHT
 10
0.0
 20
0.0
 30
0.0
  9
$UCSORGFRONT
 10
0.0
 20
0.0
 30
0.0
  9
$UCSORGBACK
 10
0.0
 20
0.0
 30
0.0
  9
$PUCSBASE
  2

  9
$PUCSNAME
  2

  9
$PUCSORG
 10
0.0
 20
0.0
 30
0.0
  9
$PUCSXDIR
 10
1.0
 20
0.0
 30
0.0
  9
$PUCSYDIR
 10
0.0
 20
1.0
 30
0.0
  9
$PUCSORTHOREF
  2

  9
$PUCSORTHOVIEW
 70
     0
  9
$PUCSORGTOP
 10
0.0
 20
0.0
 30
0.0
  9
$PUCSORGBOTTOM
 10
0.0
 20
0.0
 30
0.0
  9
$PUCSORGLEFT
 10
0.0
 20
0.0
 30
0.0
  9
$PUCSORGRIGHT
 10
0.0
 20
0.0
 30
0.0
  9
$PUCSORGFRONT
 10
0.0
 20
0.0
 30
0.0
  9
$PUCSORGBACK
 10
0.0
 20
0.0
 30
0.0
  9
$USERI1
 70
     0
  9
$USERI2
 70
     0
  9
$USERI3
 70
     0
  9
$USERI4
 70
     0
  9
$USERI5
 70
     0
  9
$USERR1
 40
0.0
  9
$USERR2
 40
0.0
  9
$USERR3
 40
0.0
  9
$USERR4
 40
0.0
  9
$USERR5
 40
0.0
  9
$WORLDVIEW
 70
     1
  9
$SHADEDGE
 70
     3
  9
$SHADEDIF
 70
    70
  9
$TILEMODE
 70
     1
  9
$MAXACTVP
 70
    64
  9
$PINSBASE
 10
0.0
 20
0.0
 30
0.0
  9
$PLIMCHECK
 70
     0
  9
$PEXTMIN
 10
1.0000000000E+20
 20
1.0000000000E+20
 30
1.0000000000E+20
  9
$PEXTMAX
 10
-1.0000000000E+20
 20
-1.0000000000E+20
 30
-1.0000000000E+20
  9
$PLIMMIN
 10
0.0
 20
0.0
  9
$PLIMMAX
 10
420.0
 20
297.0
  9
$UNITMODE
 70
     0
  9
$VISRETAIN
 70
     1
  9
$PLINEGEN
 70
     0
  9
$PSLTSCALE
 70
     1
  9
$TREEDEPTH
 70
  3020
  9
$CMLSTYLE
  2
Standard
  9
$CMLJUST
 70
     0
  9
$CMLSCALE
 40
20.0
  9
$PROXYGRAPHICS
 70
     1
  9
$MEASUREMENT
 70
     1
  9
$CELWEIGHT
370
    -1
  9
$ENDCAPS
280
     0
  9
$JOINSTYLE
280
     0
  9
$LWDISPLAY
290
     1
  9
$INSUNITS
 70
     4
  9
$HYPERLINKBASE
  1

  9
$STYLESHEET
  1

  9
$XEDIT
290
     1
  9
$CEPSNTYPE
380
     0
  9
$PSTYLEMODE
290
     1
  9
$FINGERPRINTGUID
  2
{E4A9030E-A7ED-49ED-9CCA-2A477C409F98}
  9
$VERSIONGUID
  2
{FAEB1C32-E019-11D5-929B-00C0DF256EC4}
  9
$EXTNAMES
290
     1
  9
$PSVPSCALE
 40
0.0
  9
$OLESTARTUP
290
     0
  0
ENDSEC
  0
SECTION
  2
CLASSES
  0
CLASS
  1
ACDBDICTIONARYWDFLT
  2
AcDbDictionaryWithDefault
  3
ObjectDBX Classes
 90
        0
280
     0
281
     0
  0
CLASS
  1
VISUALSTYLE
  2
AcDbVisualStyle
  3
ObjectDBX Classes
 90
     4095
280
     0
281
     0
  0
CLASS
  1
MATERIAL
  2
AcDbMaterial
  3
ObjectDBX Classes
 90
     1153
280
     0
281
     0
  0
CLASS
  1
ACDBPLACEHOLDER
  2
AcDbPlaceHolder
  3
ObjectDBX Classes
 90
        0
280
     0
281
     0
  0
CLASS
  1
LAYOUT
  2
AcDbLayout
  3
ObjectDBX Classes
 90
        0
280
     0
281
     0
  0
ENDSEC
  0
SECTION
  2
TABLES
  0
TABLE
  2
VPORT
  5
8
330
0
100
AcDbSymbolTable
 70
     1
  0
VPORT
  5
29
330
8
100
AcDbSymbolTableRecord
100
AcDbViewportTableRecord
  2
*Active
 70
     0
 10
0.0
 20
0.0
 11
1.0
 21
1.0
 12
297.0
 22
420.5
 13
0.0
 23
0.0
 14
10.0
 24
10.0
 15
10.0
 25
10.0
 16
0.0
 26
0.0
 36
1.0
 17
0.0
 27
0.0
 37
0.0
 40
841.0
 41
0.7063020214
 42
50.0
 43
0.0
 44
0.0
 50
0.0
 51
0.0
 71
     0
 72
  2000
 73
     1
 74
     3
 75
     0
 76
     0
 77
     0
 78
     0
281
     0
 65
     1
110
0.0
120
0.0
130
0.0
111
1.0
121
0.0
131
0.0
112
0.0
122
1.0
132
0.0
 79
     0
146
0.0
  0
ENDTAB
  0
TABLE
  2
LTYPE
  5
5
330
0
100
AcDbSymbolTable
 70
     8
  0
LTYPE
  5
14
330
5
100
AcDbSymbolTableRecord
100
AcDbLinetypeTableRecord
  2
ByBlock
 70
     0
  3

 72
    65
 73
     0
 40
0.0
  0
LTYPE
  5
15
330
5
100
AcDbSymbolTableRecord
100
AcDbLinetypeTableRecord
  2
ByLayer
 70
     0
  3

 72
    65
 73
     0
 40
0.0
  0
LTYPE
  5
16
330
5
100
AcDbSymbolTableRecord
100
AcDbLinetypeTableRecord
  2
Continuous
 70
     0
  3
Solid line
 72
    65
 73
     0
 40
0.0
  0
LTYPE
  5
3F
330
5
100
AcDbSymbolTableRecord
100
AcDbLinetypeTableRecord
  2
SLD-Durchgehend
 70
     0
  3
SolidWorks Line Style
 72
    65
 73
     0
 40
0.0
  0
LTYPE
  5
40
330
5
100
AcDbSymbolTableRecord
100
AcDbLinetypeTableRecord
  2
SLD-Gestrichelt
 70
     0
  3
SolidWorks Line Style
 72
    65
 73
     2
 40
1.905
 49
1.27
 74
     0
 49
-0.635
 74
     0
  0
LTYPE
  5
41
330
5
100
AcDbSymbolTableRecord
100
AcDbLinetypeTableRecord
  2
SLD-Phantom
 70
     0
  3
SolidWorks Line Style
 72
    65
 73
     6
 40
12.7
 49
6.35
 74
     0
 49
-1.27
 74
     0
 49
1.27
 74
     0
 49
-1.27
 74
     0
 49
1.27
 74
     0
 49
-1.27
 74
     0
  0
LTYPE
  5
42
330
5
100
AcDbSymbolTableRecord
100
AcDbLinetypeTableRecord
  2
SLD-Kette
 70
     0
  3
SolidWorks Line Style
 72
    65
 73
     4
 40
10.16
 49
6.35
 74
     0
 49
-1.27
 74
     0
 49
1.27
 74
     0
 49
-1.27
 74
     0
  0
LTYPE
  5
43
330
5
100
AcDbSymbolTableRecord
100
AcDbLinetypeTableRecord
  2
SLD-Punktstrich
 70
     0
  3
SolidWorks Line Style
 72
    65
 73
     4
 40
19.05
 49
15.24
 74
     0
 49
-1.27
 74
     0
 49
1.27
 74
     0
 49
-1.27
 74
     0
  0
LTYPE
  5
44
330
5
100
AcDbSymbolTableRecord
100
AcDbLinetypeTableRecord
  2
SLD-Naht
 70
     0
  3
SolidWorks Line Style
 72
    65
 73
     2
 40
0.635
 49
0.0
 74
     0
 49
-0.635
 74
     0
  0
LTYPE
  5
45
330
5
100
AcDbSymbolTableRecord
100
AcDbLinetypeTableRecord
  2
SLD-Dicke-Dünne-Kette
 70
     0
  3
SolidWorks Line Style
 72
    65
 73
     4
 40
10.16
 49
6.35
 74
     0
 49
-1.27
 74
     0
 49
1.27
 74
     0
 49
-1.27
 74
     0
  0
ENDTAB
  0
TABLE
  2
LAYER
  5
2
330
0
100
AcDbSymbolTable
 70
     1
  0
LAYER
  5
10
330
2
100
AcDbSymbolTableRecord
100
AcDbLayerTableRecord
  2
0
 70
     0
 62
     7
  6
Continuous
370
    -3
390
F
  0
ENDTAB
  0
TABLE
  2
STYLE
  5
3
330
0
100
AcDbSymbolTable
 70
     3
  0
STYLE
  5
11
330
3
100
AcDbSymbolTableRecord
100
AcDbTextStyleTableRecord
  2
Standard
 70
     0
 40
0.0
 41
1.0
 50
0.0
 71
     0
 42
10.0
  3
txt
  4

  0
STYLE
  5
49
330
3
100
AcDbSymbolTableRecord
100
AcDbTextStyleTableRecord
  2
SLDTEXTSTYLE0
 70
     0
 40
0.0
 41
0.96
 50
0.0
 71
     0
 42
0.2
  3
ISOCP3
  4

  0
STYLE
  5
60
330
3
100
AcDbSymbolTableRecord
100
AcDbTextStyleTableRecord
  2
SLDTEXTSTYLE1
 70
     0
 40
0.0
 41
0.605
 50
0.0
 71
     0
 42
0.2
  3
TXT
  4

  0
ENDTAB
  0
TABLE
  2
VIEW
  5
6
330
0
100
AcDbSymbolTable
 70
     0
  0
ENDTAB
  0
TABLE
  2
UCS
  5
7
330
0
100
AcDbSymbolTable
 70
     0
  0
ENDTAB
  0
TABLE
  2
APPID
  5
9
330
0
100
AcDbSymbolTable
 70
     1
  0
APPID
  5
12
330
9
100
AcDbSymbolTableRecord
100
AcDbRegAppTableRecord
  2
ACAD
 70
     0
  0
ENDTAB
  0
TABLE
  2
DIMSTYLE
  5
A
330
0
100
AcDbSymbolTable
 70
     2
100
AcDbDimStyleTable
  0
DIMSTYLE
105
27
330
A
100
AcDbSymbolTableRecord
100
AcDbDimStyleTableRecord
  2
ISO-25
 70
     0
 41
2.5
 42
0.625
 43
3.75
 44
1.25
 73
     0
 74
     0
 77
     1
 78
     8
140
2.5
141
2.5
143
0.0393700787
147
0.625
171
     3
172
     1
178
     0
271
     2
272
     2
274
     3
278
    44
283
     0
284
     8
340
11
  0
DIMSTYLE
105
4A
102
{ACAD_REACTORS
330
48
330
55
102
}
330
A
100
AcDbSymbolTableRecord
100
AcDbDimStyleTableRecord
  2
SLDDIMSTYLE0
 70
     0
 41
2.5
 44
0.0
 45
0.000000001
 73
     0
 74
     0
 77
     1
 78
    12
 79
     3
140
6.0
147
1.5
173
     1
178
     0
271
     2
272
     2
276
     2
284
    12
340
49
  0
ENDTAB
  0
TABLE
  2
BLOCK_RECORD
  5
1
330
0
100
AcDbSymbolTable
 70
     3
  0
BLOCK_RECORD
  5
1F
330
1
100
AcDbSymbolTableRecord
100
AcDbBlockTableRecord
  2
*Model_Space
340
22
  0
BLOCK_RECORD
  5
1B
330
1
100
AcDbSymbolTableRecord
100
AcDbBlockTableRecord
  2
*Paper_Space
340
1E
  0
BLOCK_RECORD
  5
23
330
1
100
AcDbSymbolTableRecord
100
AcDbBlockTableRecord
  2
*Paper_Space0
340
26
  0
BLOCK_RECORD
  5
4B
330
1
100
AcDbSymbolTableRecord
100
AcDbBlockTableRecord
  2
_D
340
0
  0
BLOCK_RECORD
  5
56
330
1
100
AcDbSymbolTableRecord
100
AcDbBlockTableRecord
  2
_D_1
340
0
  0
ENDTAB
  0
ENDSEC
  0
SECTION
  2
BLOCKS
  0
BLOCK
  5
20
330
1F
100
AcDbEntity
  8
0
100
AcDbBlockBegin
  2
*Model_Space
 70
     0
 10
0.0
 20
0.0
 30
0.0
  3
*Model_Space
  1

  0
ENDBLK
  5
21
330
1F
100
AcDbEntity
  8
0
100
AcDbBlockEnd
  0
BLOCK
  5
1C
330
1B
100
AcDbEntity
 67
     1
  8
0
100
AcDbBlockBegin
  2
*Paper_Space
 70
     0
 10
0.0
 20
0.0
 30
0.0
  3
*Paper_Space
  1

  0
ENDBLK
  5
1D
330
1B
100
AcDbEntity
 67
     1
  8
0
100
AcDbBlockEnd
  0
BLOCK
  5
24
330
23
100
AcDbEntity
  8
0
100
AcDbBlockBegin
  2
*Paper_Space0
 70
     0
 10
0.0
 20
0.0
 30
0.0
  3
*Paper_Space0
  1

  0
ENDBLK
  5
25
330
23
100
AcDbEntity
  8
0
100
AcDbBlockEnd
  0
BLOCK
  5
4C
330
4B
100
AcDbEntity
  8
0
100
AcDbBlockBegin
  2
_D
 70
     0
 10
0.0
 20
0.0
 30
0.0
  3
_D
  1

  0
SOLID
  5
4E
330
4B
100
AcDbEntity
  8
0
  6
SLD-Durchgehend
 62
     7
370
     0
100
AcDbTrace
 10
42.7614395004
 20
152.0299240879
 30
0.0
 11
42.4614395004
 21
149.5299240879
 31
0.0
 12
43.0614395004
 22
149.5299240879
 32
0.0
 13
43.0614395004
 23
149.5299240879
 33
0.0
  0
SOLID
  5
4F
330
4B
100
AcDbEntity
  8
0
  6
SLD-Durchgehend
 62
     7
370
     0
100
AcDbTrace
 10
42.7614395004
 20
52.0299240879
 30
0.0
 11
43.0614395004
 21
54.5299240879
 31
0.0
 12
42.4614395004
 22
54.5299240879
 32
0.0
 13
42.4614395004
 23
54.5299240879
 33
0.0
  0
LINE
  5
50
330
4B
100
AcDbEntity
  8
0
  6
SLD-Durchgehend
 62
     7
370
     0
100
AcDbLine
 10
56.6850079902
 20
152.0299240879
 30
0.0
 11
41.7614395004
 21
152.0299240879
 31
0.0
  0
LINE
  5
51
330
4B
100
AcDbEntity
  8
0
  6
SLD-Durchgehend
 62
     7
370
     0
100
AcDbLine
 10
56.6850079902
 20
52.0299240879
 30
0.0
 11
41.7614395004
 21
52.0299240879
 31
0.0
  0
LINE
  5
52
330
4B
100
AcDbEntity
  8
0
  6
SLD-Durchgehend
 62
     7
370
     0
100
AcDbLine
 10
42.7614395004
 20
152.0299240879
 30
0.0
 11
42.7614395004
 21
52.0299240879
 31
0.0
  0
MTEXT
  5
53
330
4B
100
AcDbEntity
  8
0
  6
SLD-Durchgehend
 62
     7
370
     0
100
AcDbMText
 10
35.0270332946
 20
91.6722208134
 30
0.1
 40
6.0
 41
0.0
 71
     1
 72
     1
  1
100
  7
SLDTEXTSTYLE0
 11
-7.044195017643634E-15
 21
1.0
 31
0.0
 73
     1
 44
1.0
  0
MTEXT
  5
54
330
4B
100
AcDbEntity
  8
0
  6
SLD-Durchgehend
 62
     7
370
     0
100
AcDbMText
 10
35.0270332946
 20
108.4388881795
 30
0.1
 40
6.0
 41
0.0
 71
     1
 72
     1
  1
mm
  7
SLDTEXTSTYLE0
 11
-7.044195017643634E-15
 21
1.0
 31
0.0
 73
     1
 44
1.0
  0
ENDBLK
  5
4D
330
4B
100
AcDbEntity
  8
0
100
AcDbBlockEnd
  0
BLOCK
  5
57
330
56
100
AcDbEntity
  8
0
100
AcDbBlockBegin
  2
_D_1
 70
     0
 10
0.0
 20
0.0
 30
0.0
  3
_D_1
  1

  0
SOLID
  5
59
330
56
100
AcDbEntity
  8
0
  6
SLD-Durchgehend
 62
     7
370
     0
100
AcDbTrace
 10
56.6850079902
 20
38.4602342313
 30
0.0
 11
59.1850079902
 21
38.1602342313
 31
0.0
 12
59.1850079902
 22
38.7602342313
 32
0.0
 13
59.1850079902
 23
38.7602342313
 33
0.0
  0
SOLID
  5
5A
330
56
100
AcDbEntity
  8
0
  6
SLD-Durchgehend
 62
     7
370
     0
100
AcDbTrace
 10
156.6850079902
 20
38.4602342313
 30
0.0
 11
154.1850079902
 21
38.7602342313
 31
0.0
 12
154.1850079902
 22
38.1602342313
 32
0.0
 13
154.1850079902
 23
38.1602342313
 33
0.0
  0
LINE
  5
5B
330
56
100
AcDbEntity
  8
0
  6
SLD-Durchgehend
 62
     7
370
     0
100
AcDbLine
 10
56.6850079902
 20
52.0299240879
 30
0.0
 11
56.6850079902
 21
37.4602342313
 31
0.0
  0
LINE
  5
5C
330
56
100
AcDbEntity
  8
0
  6
SLD-Durchgehend
 62
     7
370
     0
100
AcDbLine
 10
156.6850079902
 20
52.0299240879
 30
0.0
 11
156.6850079902
 21
37.4602342313
 31
0.0
  0
LINE
  5
5D
330
56
100
AcDbEntity
  8
0
  6
SLD-Durchgehend
 62
     7
370
     0
100
AcDbLine
 10
56.6850079902
 20
38.4602342313
 30
0.0
 11
156.6850079902
 21
38.4602342313
 31
0.0
  0
MTEXT
  5
5E
330
56
100
AcDbEntity
  8
0
  6
SLD-Durchgehend
 62
     7
370
     0
100
AcDbMText
 10
91.2668151533
 20
46.1946404371
 30
0.1
 40
6.0
 41
0.0
 71
     1
 72
     1
  1
100
  7
SLDTEXTSTYLE0
 73
     1
 44
1.0
  0
MTEXT
  5
5F
330
56
100
AcDbEntity
  8
0
  6
SLD-Durchgehend
 62
     7
370
     0
100
AcDbMText
 10
108.0334825193
 20
46.1946404371
 30
0.1
 40
6.0
 41
0.0
 71
     1
 72
     1
  1
mm
  7
SLDTEXTSTYLE0
 73
     1
 44
1.0
  0
ENDBLK
  5
58
330
56
100
AcDbEntity
  8
0
100
AcDbBlockEnd
  0
ENDSEC
  0
SECTION
  2
ENTITIES
  0
LINE
  5
46
330
1F
100
AcDbEntity
  8
0
  6
SLD-Durchgehend
 62
     7
370
     0
100
AcDbLine
 10
56.6850079902
 20
152.0299240879
 30
0.0
 11
56.6850079902
 21
52.0299240879
 31
0.0
  0
LINE
  5
47
330
1F
100
AcDbEntity
  8
0
  6
SLD-Durchgehend
 62
     7
370
     0
100
AcDbLine
 10
56.6850079902
 20
52.0299240879
 30
0.0
 11
156.6850079902
 21
52.0299240879
 31
0.0
  0
DIMENSION
  5
48
330
1F
100
AcDbEntity
  8
0
  6
SLD-Durchgehend
 62
     7
370
     0
100
AcDbDimension
  2
_D
 10
42.7614395004
 20
52.0299240879
 30
0.0
 11
42.7614395004
 21
105.4472211621
 31
0.0
 70
   160
  1
<>mm
 71
     2
 42
-1.0
  3
SLDDIMSTYLE0
100
AcDbAlignedDimension
 13
56.6850079902
 23
152.0299240879
 33
0.0
 14
56.6850079902
 24
52.0299240879
 34
0.0
 50
90.0
100
AcDbRotatedDimension
  0
DIMENSION
  5
55
330
1F
100
AcDbEntity
  8
0
  6
SLD-Durchgehend
 62
     7
370
     0
100
AcDbDimension
  2
_D_1
 10
156.6850079902
 20
38.4602342313
 30
0.0
 11
105.0418155019
 21
38.4602342313
 31
0.0
 70
   160
  1
<>mm
 71
     2
 42
-1.0
  3
SLDDIMSTYLE0
100
AcDbAlignedDimension
 13
56.6850079902
 23
52.0299240879
 33
0.0
 14
156.6850079902
 24
52.0299240879
 34
0.0
100
AcDbRotatedDimension
  0
MTEXT
  5
61
330
1F
100
AcDbEntity
  8
0
  6
Continuous
 62
     7
370
     0
100
AcDbMText
 10
222.8856995391
 20
49.3034557666
 30
0.0
 40
10.0
 41
0.0
 71
     1
 72
     1
  1
53 974 05
  7
SLDTEXTSTYLE1
 73
     1
 44
1.0
  0
MTEXT
  5
62
330
1F
100
AcDbEntity
  8
0
  6
Continuous
 62
     7
370
     0
100
AcDbMText
 10
412.8252631579
 20
48.4342449499
 30
0.0
 40
10.0
 41
0.0
 71
     1
 72
     1
  1
KLUDI GmbH & Co KG
  7
SLDTEXTSTYLE1
 73
     1
 44
1.0
  0
SPLINE
  5
63
330
1F
100
AcDbEntity
  8
0
  6
SLD-Durchgehend
 62
     7
370
    15
100
AcDbSpline
210
0.0
220
0.0
230
1.0
 70
     8
 71
     3
 72
     9
 73
     5
 74
     0
 42
0.00000001
 43
0.00000001
 12
1.0
 22
0.0
 32
0.0
 13
1.0
 23
0.0
 33
0.0
 40
0.0
 40
0.0
 40
0.0
 40
0.0
 40
0.4737804769875829
 40
1.0
 40
1.0
 40
1.0
 40
1.0
 10
224.135561972171
 20
513.2006358407656
 30
0.0
 10
223.2703744534795
 20
513.3678285400794
 30
0.0
 10
221.4442385936979
 20
513.7207191876146
 30
0.0
 10
219.3465526233169
 20
513.818811077907
 30
0.0
 10
218.2427093125532
 20
513.8704289456281
 30
0.0
  0
SPLINE
  5
64
330
1F
100
AcDbEntity
  8
0
  6
SLD-Durchgehend
 62
     7
370
    15
100
AcDbSpline
210
0.0
220
0.0
230
1.0
 70
     8
 71
     3
 72
     9
 73
     5
 74
     0
 42
0.00000001
 43
0.00000001
 12
1.0
 22
0.0
 32
0.0
 13
1.0
 23
0.0
 33
0.0
 40
0.0
 40
0.0
 40
0.0
 40
0.0
 40
0.5258880959727328
 40
0.9999999999999999
 40
0.9999999999999999
 40
0.9999999999999999
 40
0.9999999999999999
 10
123.7177343446505
 20
513.8701295043413
 30
0.0
 10
122.6153731827884
 20
513.8185654146622
 30
0.0
 10
120.5191835745731
 20
513.7205139659337
 30
0.0
 10
118.6943542503604
 20
513.3678418765572
 30
0.0
 10
117.829180944933
 20
513.2006358407656
 30
0.0
  0
LINE
  5
65
330
1F
100
AcDbEntity
  8
0
  6
SLD-Durchgehend
 62
     7
370
    15
100
AcDbLine
 10
206.4823714586
 20
414.9218467996
 30
0.0
 11
206.4823714586
 21
486.9957370409
 31
0.0
  0
LINE
  5
66
330
1F
100
AcDbEntity
  8
0
  6
SLD-Durchgehend
 62
     7
370
    15
100
AcDbLine
 10
135.4823714586
 20
486.9957370409
 30
0.0
 11
135.4823714586
 21
414.9218467996
 31
0.0
  0
SPLINE
  5
67
330
1F
100
AcDbEntity
  8
0
  6
SLD-Durchgehend
 62
     7
370
    15
100
AcDbSpline
210
0.0
220
0.0
230
1.0
 70
     8
 71
     3
 72
    17
 73
    13
 74
     0
 42
0.00000001
 43
0.00000001
 12
1.0
 22
0.0
 32
0.0
 13
1.0
 23
0.0
 33
0.0
 40
0.0
 40
0.0
 40
0.0
 40
0.0
 40
0.122729966120063
 40
0.2485720543254501
 40
0.3741406599941637
 40
0.4370387633262466
 40
0.4999999999999967
 40
0.5629612366737466
 40
0.6258593400058301
 40
0.7514279456745446
 40
0.8772700338799345
 40
1.0
 40
1.0
 40
1.0
 40
1.0
 10
184.982371458552
 20
393.42184679958
 30
0.0
 10
186.4487390332628
 20
393.4237646079457
 30
0.0
 10
189.4186575622511
 20
393.4276488554555
 30
0.0
 10
193.8765634699611
 20
393.9144553715686
 30
0.0
 10
197.4913230048863
 20
395.0865713829855
 30
0.0
 10
200.0823985854079
 20
396.6285223350233
 30
0.0
 10
201.815116909799
 20
398.0891013483328
 30
0.0
 10
203.2756959231085
 20
399.821819672724
 30
0.0
 10
204.8176468751463
 20
402.4128952532455
 30
0.0
 10
205.9897628865633
 20
406.0276547881708
 30
0.0
 10
206.4765694026765
 20
410.4855606958808
 30
0.0
 10
206.4804536501863
 20
413.4554792248692
 30
0.0
 10
206.4823714585521
 20
414.92184679958
 30
0.0
  0
SPLINE
  5
68
330
1F
100
AcDbEntity
  8
0
  6
SLD-Durchgehend
 62
     7
370
    15
100
AcDbSpline
210
0.0
220
0.0
230
1.0
 70
     8
 71
     3
 72
    17
 73
    13
 74
     0
 42
0.00000001
 43
0.00000001
 12
1.0
 22
0.0
 32
0.0
 13
1.0
 23
0.0
 33
0.0
 40
0.0
 40
0.0
 40
0.0
 40
0.0
 40
0.1227299661200651
 40
0.248572054325456
 40
0.3741406599941706
 40
0.437038763326254
 40
0.500000000000004
 40
0.562961236673754
 40
0.6258593400058364
 40
0.75142794567455
 40
0.8772700338799369
 40
1.0
 40
1.0
 40
1.0
 40
1.0
 10
135.482371458552
 20
414.92184679958
 30
0.0
 10
135.4842892669178
 20
413.4554792248691
 30
0.0
 10
135.4881735144276
 20
410.4855606958808
 30
0.0
 10
135.9749800305407
 20
406.0276547881707
 30
0.0
 10
137.1470960419578
 20
402.4128952532455
 30
0.0
 10
138.6890469939956
 20
399.8218196727239
 30
0.0
 10
140.1496260073051
 20
398.0891013483328
 30
0.0
 10
141.8823443316962
 20
396.6285223350233
 30
0.0
 10
144.4734199122178
 20
395.0865713829855
 30
0.0
 10
148.088179447143
 20
393.9144553715686
 30
0.0
 10
152.546085354853
 20
393.4276488554555
 30
0.0
 10
155.5160038838413
 20
393.4237646079457
 30
0.0
 10
156.9823714585521
 20
393.4218467995799
 30
0.0
  0
LINE
  5
69
330
1F
100
AcDbEntity
  8
0
  6
SLD-Durchgehend
 62
     7
370
    15
100
AcDbLine
 10
162.9823714586
 20
758.4718467996
 30
0.0
 11
163.0323714586
 21
758.4218467996
 31
0.0
  0
LINE
  5
6A
330
1F
100
AcDbEntity
  8
0
  6
SLD-Durchgehend
 62
     7
370
    15
100
AcDbLine
 10
178.9323714586
 20
758.4218467996
 30
0.0
 11
178.9823714586
 21
758.4718467996
 31
0.0
  0
LINE
  5
6B
330
1F
100
AcDbEntity
  8
0
  6
SLD-Durchgehend
 62
     7
370
    15
100
AcDbLine
 10
162.9823714586
 20
758.3718467996
 30
0.0
 11
162.9823714586
 21
513.8829771694
 31
0.0
  0
LINE
  5
6C
330
1F
100
AcDbEntity
  8
0
  6
SLD-Durchgehend
 62
     7
370
    15
100
AcDbLine
 10
178.9823714586
 20
513.8828795383
 30
0.0
 11
178.9823714586
 21
758.3718467996
 31
0.0
  0
LINE
  5
6D
330
1F
100
AcDbEntity
  8
0
  6
SLD-Durchgehend
 62
     7
370
    15
100
AcDbLine
 10
162.9823714586
 20
759.9218467996
 30
0.0
 11
162.9823714586
 21
758.4718467996
 31
0.0
  0
LINE
  5
6E
330
1F
100
AcDbEntity
  8
0
  6
SLD-Durchgehend
 62
     7
370
    15
100
AcDbLine
 10
178.9823714586
 20
758.4718467996
 30
0.0
 11
178.9823714586
 21
759.9218467996
 31
0.0
  0
LINE
  5
6F
330
1F
100
AcDbEntity
  8
0
  6
SLD-Durchgehend
 62
     7
370
    15
100
AcDbLine
 10
178.9823714586
 20
758.3718467996
 30
0.0
 11
178.9323714586
 21
758.4218467996
 31
0.0
  0
LINE
  5
70
330
1F
100
AcDbEntity
  8
0
  6
SLD-Durchgehend
 62
     7
370
    15
100
AcDbLine
 10
163.0323714586
 20
758.4218467996
 30
0.0
 11
162.9823714586
 21
758.3718467996
 31
0.0
  0
SPLINE
  5
71
330
1F
100
AcDbEntity
  8
0
  6
SLD-Durchgehend
 62
     7
370
    15
100
AcDbSpline
210
0.0
220
0.0
230
1.0
 70
     8
 71
     3
 72
    16
 73
    12
 74
     0
 42
0.00000001
 43
0.00000001
 12
1.0
 22
0.0
 32
0.0
 13
1.0
 23
0.0
 33
0.0
 40
0.0
 40
0.0
 40
0.0
 40
0.0
 40
0.1183361155038287
 40
0.2556727097900294
 40
0.4063682914694692
 40
0.5761834964167981
 40
0.7226897698000216
 40
0.8098610906082361
 40
0.8815227398456789
 40
0.9473291591045669
 40
1.0
 40
1.0
 40
1.0
 40
1.0
 10
117.3790757004294
 20
513.2055329335756
 30
0.0
 10
117.299433182587
 20
513.18814080599
 30
0.0
 10
117.1273604534414
 20
513.1505640073104
 30
0.0
 10
117.0942401139827
 20
513.1282024917169
 30
0.0
 10
117.1996399054677
 20
513.1687799109874
 30
0.0
 10
117.0494027284106
 20
513.1153146715095
 30
0.0
 10
116.8885177481747
 20
513.0428823145655
 30
0.0
 10
116.6368642401788
 20
512.8787385370231
 30
0.0
 10
116.3685267876016
 20
512.6089292381162
 30
0.0
 10
116.0743714245835
 20
512.1279447202324
 30
0.0
 10
116.0872550211273
 20
511.7044350696609
 30
0.0
 10
116.0929826169785
 20
511.5161575099513
 30
0.0
  0
LINE
  5
72
330
1F
100
AcDbEntity
  8
0
  6
SLD-Durchgehend
 62
     7
370
    15
100
AcDbLine
 10
116.0710054543
 20
511.5184357519
 30
0.0
 11
116.2802858204
 21
509.2332341639
 31
0.0
  0
LINE
  5
73
330
1F
100
AcDbEntity
  8
0
  6
SLD-Durchgehend
 62
     7
370
    15
100
AcDbLine
 10
225.6844644721
 20
509.233314698
 30
0.0
 11
225.8937786459
 21
511.518885444
 31
0.0
  0
SPLINE
  5
74
330
1F
100
AcDbEntity
  8
0
  6
SLD-Durchgehend
 62
     7
370
    15
100
AcDbSpline
210
0.0
220
0.0
230
1.0
 70
     8
 71
     3
 72
    16
 73
    12
 74
     0
 42
0.00000001
 43
0.00000001
 12
1.0
 22
0.0
 32
0.0
 13
1.0
 23
0.0
 33
0.0
 40
0.0
 40
0.0
 40
0.0
 40
0.0
 40
0.0342674783509503
 40
0.1128569748564469
 40
0.1903597998680258
 40
0.2774160403883559
 40
0.3919652411185627
 40
0.5600979370005386
 40
0.7184090408852414
 40
0.931222395557781
 40
1.0
 40
1.0
 40
1.0
 40
1.0
 10
225.8632705209007
 20
511.522039648387
 30
0.0
 10
225.8803320348405
 20
511.6234957380044
 30
0.0
 10
225.9365226547046
 20
511.957632590378
 30
0.0
 10
225.6937017398007
 20
512.4747159492327
 30
0.0
 10
225.4203641784655
 20
512.7992131490997
 30
0.0
 10
225.1837405420603
 20
512.9781395989535
 30
0.0
 10
224.9888773042395
 20
513.0838905276353
 30
0.0
 10
224.8809191470117
 20
513.1284388018144
 30
0.0
 10
224.7283319119957
 20
513.1789035150082
 30
0.0
 10
224.9276061945555
 20
513.1151685846079
 30
0.0
 10
224.8032537986394
 20
513.1515255983667
 30
0.0
 10
224.7728811619446
 20
513.1604056715014
 30
0.0
  0
LWPOLYLINE
  5
75
330
1F
100
AcDbEntity
  8
0
  6
SLD-Durchgehend
 62
     7
370
    15
100
AcDbPolyline
 90
        5
 70
   128
 43
0.0
 10
223.9251700977
 20
513.2317858569
 10
224.2985046958
 20
513.225137549
 10
224.5819639251
 20
513.2131510411
 10
224.5819641957
 20
513.2131509798
 10
224.5819641957
 20
513.2131509798
  0
LINE
  5
76
330
1F
100
AcDbEntity
  8
0
  6
SLD-Durchgehend
 62
     7
370
    15
100
AcDbLine
 10
116.1009311706
 20
511.4820995144
 30
0.0
 11
116.1008939506
 21
511.4821284203
 31
0.0
  0
SPLINE
  5
77
330
1F
100
AcDbEntity
  8
0
  6
SLD-Durchgehend
 62
     7
370
    15
100
AcDbSpline
210
0.0
220
0.0
230
1.0
 70
     8
 71
     3
 72
    47
 73
    43
 74
     0
 42
0.00000001
 43
0.00000001
 12
1.0
 22
0.0
 32
0.0
 13
1.0
 23
0.0
 33
0.0
 40
0.0
 40
0.0
 40
0.0
 40
0.0
 40
0.1249999999999988
 40
0.1249999999999988
 40
0.1874999999999982
 40
0.1874999999999982
 40
0.2187499999999979
 40
0.2187499999999979
 40
0.2499999999999976
 40
0.2499999999999976
 40
0.3124999999999968
 40
0.3124999999999968
 40
0.3749999999999961
 40
0.3749999999999961
 40
0.3906249999999959
 40
0.3906249999999959
 40
0.4062499999999958
 40
0.4062499999999958
 40
0.4374999999999958
 40
0.4374999999999958
 40
0.499999999999996
 40
0.499999999999996
 40
0.5156249999999962
 40
0.5156249999999962
 40
0.5312499999999963
 40
0.5312499999999963
 40
0.5624999999999964
 40
0.5937499999999967
 40
0.5937499999999967
 40
0.6249999999999969
 40
0.6249999999999969
 40
0.6874999999999973
 40
0.6874999999999973
 40
0.7499999999999979
 40
0.7499999999999979
 40
0.7812499999999981
 40
0.7812499999999981
 40
0.8124999999999983
 40
0.8124999999999983
 40
0.8749999999999989
 40
0.8749999999999989
 40
1.0
 40
1.0
 40
1.0
 40
1.0
 10
218.7909141951432
 20
513.8810479225048
 30
0.0
 10
218.7907263434923
 20
513.881195387725
 30
0.0
 10
218.6922688283514
 20
513.8815505708093
 30
0.0
 10
218.3360854049091
 20
513.8835331921589
 30
0.0
 10
218.1822955346954
 20
513.8843798217684
 30
0.0
 10
217.8816022281065
 20
513.8858301005888
 30
0.0
 10
217.769614826075
 20
513.8863429715005
 30
0.0
 10
217.5180180652192
 20
513.8874122613827
 30
0.0
 10
217.3781826119896
 20
513.8879694547325
 30
0.0
 10
216.9117518884241
 20
513.8896813519489
 30
0.0
 10
216.5386142550657
 20
513.8908979921533
 30
0.0
 10
215.6214024451931
 20
513.893238026699
 30
0.0
 10
215.0778951911919
 20
513.8943416931061
 30
0.0
 10
214.2491107456446
 20
513.8955038904256
 30
0.0
 10
214.0758049463278
 20
513.8957259024339
 30
0.0
 10
213.7126482044636
 20
513.8961475936459
 30
0.0
 10
213.5223806760597
 20
513.8963474338841
 30
0.0
 10
212.9300076774854
 20
513.8969094491964
 30
0.0
 10
212.5052720810335
 20
513.8972369401206
 30
0.0
 10
211.134485884027
 20
513.8980725877933
 30
0.0
 10
210.0918273959998
 20
513.8984499095255
 30
0.0
 10
208.6041425048887
 20
513.8984564340645
 30
0.0
 10
208.2969817837131
 20
513.8984327127263
 30
0.0
 10
207.671842895268
 20
513.8983444934082
 30
0.0
 10
207.3529903550123
 20
513.8982800652872
 30
0.0
 10
206.378303122302
 20
513.8980368336133
 30
0.0
 10
205.0303805219871
 20
513.8975812383406
 30
0.0
 10
203.5933151983482
 20
513.8969312471014
 30
0.0
 10
202.1153591078046
 20
513.8961889908859
 30
0.0
 10
201.3528161128225
 20
513.8957672122376
 30
0.0
 10
199.0396840336933
 20
513.8943723790338
 30
0.0
 10
197.4613294217071
 20
513.8932671234609
 30
0.0
 10
194.2533627115739
 20
513.8909219881853
 30
0.0
 10
192.6235727276614
 20
513.8897016406212
 30
0.0
 10
190.1508191115513
 20
513.8879852970465
 30
0.0
 10
189.3221855555555
 20
513.8874271738181
 30
0.0
 10
187.6651098110152
 20
513.886355927769
 30
0.0
 10
186.8355369171646
 20
513.8858420554916
 30
0.0
 10
184.3441754999799
 20
513.8843887526392
 30
0.0
 10
182.6797706086221
 20
513.8835400434074
 30
0.0
 10
177.6786769677058
 20
513.8815521870571
 30
0.0
 10
174.3342033454107
 20
513.8811955846461
 30
0.0
 10
170.982371458552
 20
513.8810479225048
 30
0.0
  0
SPLINE
  5
78
330
1F
100
AcDbEntity
  8
0
  6
SLD-Durchgehend
 62
     7
370
    15
100
AcDbSpline
210
0.0
220
0.0
230
1.0
 70
     8
 71
     3
 72
     8
 73
     4
 74
     0
 42
0.00000001
 43
0.00000001
 12
1.0
 22
0.0
 32
0.0
 13
1.0
 23
0.0
 33
0.0
 40
0.1697971195247339
 40
0.1697971195247339
 40
0.1697971195247339
 40
0.1697971195247339
 40
0.8032587855161577
 40
0.8032587855161577
 40
0.8032587855161577
 40
0.8032587855161577
 10
123.1738287219608
 20
513.8810479225048
 30
0.0
 10
120.653790551603
 20
513.7826196425099
 30
0.0
 10
118.9245796403575
 20
513.5176220790707
 30
0.0
 10
117.3827787213728
 20
513.2131509798354
 30
0.0
  0
SPLINE
  5
79
330
1F
100
AcDbEntity
  8
0
  6
SLD-Durchgehend
 62
     7
370
    15
100
AcDbSpline
210
0.0
220
0.0
230
1.0
 70
     8
 71
     3
 72
    47
 73
    43
 74
     0
 42
0.00000001
 43
0.00000001
 12
1.0
 22
0.0
 32
0.0
 13
1.0
 23
0.0
 33
0.0
 40
0.0
 40
0.0
 40
0.0
 40
0.0
 40
0.1250000000000009
 40
0.1250000000000009
 40
0.1875000000000013
 40
0.1875000000000013
 40
0.2187500000000015
 40
0.2187500000000015
 40
0.2500000000000016
 40
0.2500000000000016
 40
0.3125000000000021
 40
0.3125000000000021
 40
0.3750000000000024
 40
0.3750000000000024
 40
0.3906250000000026
 40
0.3906250000000026
 40
0.4062500000000027
 40
0.4062500000000027
 40
0.4375000000000027
 40
0.4375000000000027
 40
0.5000000000000027
 40
0.5000000000000027
 40
0.5156250000000026
 40
0.5156250000000026
 40
0.5312500000000024
 40
0.5312500000000024
 40
0.5625000000000021
 40
0.5937500000000018
 40
0.5937500000000018
 40
0.6250000000000017
 40
0.6250000000000017
 40
0.6875000000000013
 40
0.6875000000000013
 40
0.7500000000000009
 40
0.7500000000000009
 40
0.7812500000000008
 40
0.7812500000000008
 40
0.8125000000000007
 40
0.8125000000000007
 40
0.8750000000000004
 40
0.8750000000000004
 40
1.0
 40
1.0
 40
1.0
 40
1.0
 10
170.982371458552
 20
513.8810479225048
 30
0.0
 10
167.6350095477584
 20
513.881195387725
 30
0.0
 10
164.2948444048327
 20
513.8815505708093
 30
0.0
 10
159.2998663185539
 20
513.8835331921589
 30
0.0
 10
157.6374414294674
 20
513.8843798217684
 30
0.0
 10
155.1489311722572
 20
513.8858301005888
 30
0.0
 10
154.3202887261474
 20
513.8863429715005
 30
0.0
 10
152.6650267195294
 20
513.8874122613827
 30
0.0
 10
151.8372554107175
 20
513.8879694547325
 30
0.0
 10
149.3694081878723
 20
513.8896813519489
 30
0.0
 10
147.7433667422171
 20
513.8908979921533
 30
0.0
 10
144.544034965827
 20
513.893238026699
 30
0.0
 10
142.9705696688092
 20
513.8943416931061
 30
0.0
 10
141.0498429968789
 20
513.8955038904256
 30
0.0
 10
140.6680272561927
 20
513.8957259024339
 30
0.0
 10
139.9095016063981
 20
513.8961475936459
 30
0.0
 10
139.5320990504158
 20
513.8963474338841
 30
0.0
 10
138.418084991844
 20
513.8969094491964
 30
0.0
 10
137.6971487169319
 20
513.8972369401206
 30
0.0
 10
135.6047488461276
 20
513.8980725877933
 30
0.0
 10
134.3037149717712
 20
513.8984499095255
 30
0.0
 10
132.8118272067358
 20
513.8984564340645
 30
0.0
 10
132.5199082463127
 20
513.8984327127263
 30
0.0
 10
131.9565285057333
 20
513.8983444934082
 30
0.0
 10
131.6841421694908
 20
513.8982800652872
 30
0.0
 10
130.893828116027
 20
513.8980368336133
 30
0.0
 10
129.911653694167
 20
513.8975812383406
 30
0.0
 10
129.0614750323809
 20
513.8969312471014
 30
0.0
 10
128.2718443077486
 20
513.8961889908859
 30
0.0
 10
127.9061673148184
 20
513.8957672122376
 30
0.0
 10
126.9034839549484
 20
513.8943723790338
 30
0.0
 10
126.3564266658591
 20
513.8932671234609
 30
0.0
 10
125.4338905744684
 20
513.8909219881853
 30
0.0
 10
125.059007177781
 20
513.8897016406212
 30
0.0
 10
124.5906381633453
 20
513.8879852970465
 30
0.0
 10
124.4503870603177
 20
513.8874271738181
 30
0.0
 10
124.1980271410144
 20
513.886355927769
 30
0.0
 10
124.0857060398061
 20
513.8858420554916
 30
0.0
 10
123.7841286010827
 20
513.8843887526392
 30
0.0
 10
123.6299050538102
 20
513.8835400434074
 30
0.0
 10
123.2727312525521
 20
513.8815521870571
 30
0.0
 10
123.1740168244637
 20
513.8811955846461
 30
0.0
 10
123.1738287219608
 20
513.8810479225048
 30
0.0
  0
SPLINE
  5
7A
330
1F
100
AcDbEntity
  8
0
  6
SLD-Durchgehend
 62
     7
370
    15
100
AcDbSpline
210
0.0
220
0.0
230
1.0
 70
     8
 71
     3
 72
    38
 73
    34
 74
     0
 42
0.00000001
 43
0.00000001
 12
1.0
 22
0.0
 32
0.0
 13
1.0
 23
0.0
 33
0.0
 40
0.0
 40
0.0
 40
0.0
 40
0.0
 40
0.1250000000000001
 40
0.1250000000000001
 40
0.1875000000000002
 40
0.1875000000000002
 40
0.2187500000000002
 40
0.2187500000000002
 40
0.2500000000000002
 40
0.2500000000000002
 40
0.3749999999999997
 40
0.3749999999999997
 40
0.4062499999999996
 40
0.4062499999999996
 40
0.4374999999999995
 40
0.4374999999999995
 40
0.4999999999999994
 40
0.4999999999999994
 40
0.6249999999999993
 40
0.6249999999999993
 40
0.6562499999999994
 40
0.6562499999999994
 40
0.6874999999999996
 40
0.6874999999999996
 40
0.7499999999999996
 40
0.7499999999999996
 40
0.8124999999999997
 40
0.8124999999999997
 40
0.8437499999999997
 40
0.8437499999999997
 40
0.8749999999999997
 40
0.8749999999999997
 40
1.0
 40
1.0
 40
1.0
 40
1.0
 10
170.9826340208463
 20
491.4781433410516
 30
0.0
 10
168.6352078739955
 20
491.4780961648101
 30
0.0
 10
166.3248813014525
 20
491.4559758432351
 30
0.0
 10
162.9134260137512
 20
491.3906463951912
 30
0.0
 10
161.785369417206
 20
491.3634585587362
 30
0.0
 10
160.1072639913112
 20
491.3143594350547
 30
0.0
 10
159.5487489911106
 20
491.2965508126298
 30
0.0
 10
158.444183175779
 20
491.2583513519401
 30
0.0
 10
157.8990441388796
 20
491.2380015828778
 30
0.0
 10
155.208508582598
 20
491.1301004850971
 30
0.0
 10
153.1673859384165
 20
491.0243032522345
 30
0.0
 10
150.7544884714864
 20
490.8678208779323
 30
0.0
 10
150.278910011022
 20
490.8352993582047
 30
0.0
 10
149.3419516280285
 20
490.7677718502125
 30
0.0
 10
148.8793179961778
 20
490.7326633670152
 30
0.0
 10
147.5234732072693
 20
490.624364433404
 30
0.0
 10
146.6637201894664
 20
490.5483790971754
 30
0.0
 10
144.2122403287362
 20
490.309463876835
 30
0.0
 10
142.7470190724979
 20
490.1356840141709
 30
0.0
 10
141.1304078357516
 20
489.9000265867701
 30
0.0
 10
140.8173387883163
 20
489.851853254976
 30
0.0
 10
140.2193078250781
 20
489.754613921421
 30
0.0
 10
139.933662377071
 20
489.7054593011869
 30
0.0
 10
139.1160571899016
 20
489.556421746737
 30
0.0
 10
138.6233062046884
 20
489.4549700162818
 30
0.0
 10
137.7413800048152
 20
489.247922346159
 30
0.0
 10
137.3522095122759
 20
489.1423262175529
 30
0.0
 10
136.8469929436711
 20
488.9807895642888
 30
0.0
 10
136.6917075429195
 20
488.9264190590474
 30
0.0
 10
136.407901202171
 20
488.8166071656328
 30
0.0
 10
136.2793892576554
 20
488.7611312411022
 30
0.0
 10
135.7103297529268
 20
488.483625897667
 30
0.0
 10
135.4819925754334
 20
488.259231656227
 30
0.0
 10
135.4821341671467
 20
488.032430929298
 30
0.0
  0
SPLINE
  5
7B
330
1F
100
AcDbEntity
  8
0
  6
SLD-Durchgehend
 62
     7
370
    15
100
AcDbSpline
210
0.0
220
0.0
230
1.0
 70
     8
 71
     3
 72
    34
 73
    30
 74
     0
 42
0.00000001
 43
0.00000001
 12
1.0
 22
0.0
 32
0.0
 13
1.0
 23
0.0
 33
0.0
 40
0.0
 40
0.0
 40
0.0
 40
0.0
 40
0.1250000000000001
 40
0.1250000000000001
 40
0.1875000000000002
 40
0.1875000000000002
 40
0.2500000000000003
 40
0.2500000000000003
 40
0.3750000000000006
 40
0.3750000000000006
 40
0.4375000000000006
 40
0.4375000000000006
 40
0.5000000000000007
 40
0.5000000000000007
 40
0.6250000000000007
 40
0.6250000000000007
 40
0.6562500000000006
 40
0.6562500000000006
 40
0.6875000000000004
 40
0.6875000000000004
 40
0.7500000000000006
 40
0.7500000000000006
 40
0.8125000000000006
 40
0.8125000000000006
 40
0.8437500000000006
 40
0.8437500000000006
 40
0.8750000000000004
 40
0.8750000000000004
 40
1.0
 40
1.0
 40
1.0
 40
1.0
 10
206.4826087499574
 20
488.0324309292977
 30
0.0
 10
206.482750286658
 20
488.259143537278
 30
0.0
 10
206.254603679715
 20
488.482247253518
 30
0.0
 10
205.5829511367121
 20
488.811694994095
 30
0.0
 10
205.303644693971
 20
488.9206347651307
 30
0.0
 10
204.6321591474215
 20
489.1367299604211
 30
0.0
 10
204.2381609106593
 20
489.2441567114512
 30
0.0
 10
202.9105238076687
 20
489.5567046283898
 30
0.0
 10
201.8273685358434
 20
489.7545040729426
 30
0.0
 10
199.9077069186723
 20
490.0354700946341
 30
0.0
 10
199.2170722043901
 20
490.1266111352191
 30
0.0
 10
197.737239817889
 20
490.3028342690499
 30
0.0
 10
196.958455440662
 20
490.3866960492209
 30
0.0
 10
194.5087754752091
 20
490.6258904101028
 30
0.0
 10
192.7257383025474
 20
490.7689616045005
 30
0.0
 10
190.3041266664612
 20
490.9267184868648
 30
0.0
 10
189.8089837178181
 20
490.9572680686078
 30
0.0
 10
188.8038836911393
 20
491.0159019627758
 30
0.0
 10
188.2957794480772
 20
491.043886157267
 30
0.0
 10
186.7551615765609
 20
491.1239262773031
 30
0.0
 10
185.7063875128594
 20
491.1720804669969
 30
0.0
 10
183.5661835371464
 20
491.2581534590731
 30
0.0
 10
182.4747510265506
 20
491.296071637918
 30
0.0
 10
180.8054895123373
 20
491.345243364514
 30
0.0
 10
180.243705078734
 20
491.3603468506637
 30
0.0
 10
179.1092384777252
 20
491.3879388819716
 30
0.0
 10
178.5351990006661
 20
491.4004513643702
 30
0.0
 10
175.6576303913627
 20
491.4559354051031
 30
0.0
 10
173.3319050209772
 20
491.4780961172033
 30
0.0
 10
170.9826295319635
 20
491.4781433305884
 30
0.0
  0
LINE
  5
7C
330
1F
100
AcDbEntity
  8
0
  6
SLD-Durchgehend
 62
     7
370
    15
100
AcDbLine
 10
127.9462289181
 20
482.3366088938
 30
0.0
 11
135.4823714586
 21
482.3366088938
 31
0.0
  0
LINE
  5
7D
330
1F
100
AcDbEntity
  8
0
  6
SLD-Durchgehend
 62
     7
370
    15
100
AcDbLine
 10
206.4823714586
 20
482.3366088938
 30
0.0
 11
214.018513999
 21
482.3366088938
 31
0.0
  0
SPLINE
  5
7E
330
1F
100
AcDbEntity
  8
0
  6
SLD-Durchgehend
 62
     7
370
    15
100
AcDbSpline
210
0.0
220
0.0
230
1.0
 70
     8
 71
     3
 72
     8
 73
     4
 74
     0
 42
0.00000001
 43
0.00000001
 12
1.0
 22
0.0
 32
0.0
 13
1.0
 23
0.0
 33
0.0
 40
0.0
 40
0.0
 40
0.0
 40
0.0
 40
1.0
 40
1.0
 40
1.0
 40
1.0
 10
206.482608782551
 20
488.0324817227335
 30
0.0
 10
206.4823716985381
 20
487.6630311000223
 30
0.0
 10
206.482371458552
 20
487.2928132588747
 30
0.0
 10
206.482371458552
 20
486.92184679958
 30
0.0
  0
SPLINE
  5
7F
330
1F
100
AcDbEntity
  8
0
  6
SLD-Durchgehend
 62
     7
370
    15
100
AcDbSpline
210
0.0
220
0.0
230
1.0
 70
     8
 71
     3
 72
     8
 73
     4
 74
     0
 42
0.00000001
 43
0.00000001
 12
1.0
 22
0.0
 32
0.0
 13
1.0
 23
0.0
 33
0.0
 40
0.0
 40
0.0
 40
0.0
 40
0.0
 40
1.0
 40
1.0
 40
1.0
 40
1.0
 10
135.482134134553
 20
488.0324817227337
 30
0.0
 10
135.482371218566
 20
487.6630311000224
 30
0.0
 10
135.482371458552
 20
487.2928132588748
 30
0.0
 10
135.482371458552
 20
486.92184679958
 30
0.0
  0
LINE
  5
80
330
1F
100
AcDbEntity
  8
0
  6
SLD-Durchgehend
 62
     7
370
    15
100
AcDbLine
 10
156.982371632
 20
393.4218467996
 30
0.0
 11
184.9823714586
 21
393.4218467996
 31
0.0
  0
LINE
  5
81
330
1F
100
AcDbEntity
  8
0
  6
SLD-Durchgehend
 62
     7
370
    15
100
AcDbLine
 10
170.9823714586
 20
758.4218467996
 30
0.0
 11
178.9323714586
 21
758.4218467996
 31
0.0
  0
LINE
  5
82
330
1F
100
AcDbEntity
  8
0
  6
SLD-Durchgehend
 62
     7
370
    15
100
AcDbLine
 10
163.0323714586
 20
758.4218467996
 30
0.0
 11
170.9823714586
 21
758.4218467996
 31
0.0
  0
LINE
  5
83
330
1F
100
AcDbEntity
  8
0
  6
SLD-Durchgehend
 62
     7
370
    15
100
AcDbLine
 10
170.9823714586
 20
758.4718467996
 30
0.0
 11
178.9823714586
 21
758.4718467996
 31
0.0
  0
LINE
  5
84
330
1F
100
AcDbEntity
  8
0
  6
SLD-Durchgehend
 62
     7
370
    15
100
AcDbLine
 10
162.9823714586
 20
758.4718467996
 30
0.0
 11
170.9823714586
 21
758.4718467996
 31
0.0
  0
LINE
  5
85
330
1F
100
AcDbEntity
  8
0
  6
SLD-Durchgehend
 62
     7
370
    15
100
AcDbLine
 10
170.9823714586
 20
758.3718467996
 30
0.0
 11
178.9823714586
 21
758.3718467996
 31
0.0
  0
LINE
  5
86
330
1F
100
AcDbEntity
  8
0
  6
SLD-Durchgehend
 62
     7
370
    15
100
AcDbLine
 10
162.9823714586
 20
758.3718467996
 30
0.0
 11
170.9823714586
 21
758.3718467996
 31
0.0
  0
LINE
  5
87
330
1F
100
AcDbEntity
  8
0
  6
SLD-Durchgehend
 62
     7
370
    15
100
AcDbLine
 10
170.9823714586
 20
759.9218467996
 30
0.0
 11
178.9823714586
 21
759.9218467996
 31
0.0
  0
LINE
  5
88
330
1F
100
AcDbEntity
  8
0
  6
SLD-Durchgehend
 62
     7
370
    15
100
AcDbLine
 10
162.9823714586
 20
759.9218467996
 30
0.0
 11
170.9823714586
 21
759.9218467996
 31
0.0
  0
SPLINE
  5
89
330
1F
100
AcDbEntity
  8
0
  6
SLD-Durchgehend
 62
     7
370
    15
100
AcDbSpline
210
0.0
220
0.0
230
1.0
 70
     8
 71
     3
 72
     8
 73
     4
 74
     0
 42
0.00000001
 43
0.00000001
 12
1.0
 22
0.0
 32
0.0
 13
1.0
 23
0.0
 33
0.0
 40
0.0
 40
0.0
 40
0.0
 40
0.0
 40
1.0
 40
1.0
 40
1.0
 40
1.0
 10
127.9462289181228
 20
482.3366088938311
 30
0.0
 10
127.7471175716035
 20
482.3366088938311
 30
0.0
 10
127.5558626615459
 20
482.4400480656338
 30
0.0
 10
127.4460123879546
 20
482.6060910656857
 30
0.0
  0
SPLINE
  5
8A
330
1F
100
AcDbEntity
  8
0
  6
SLD-Durchgehend
 62
     7
370
    15
100
AcDbSpline
210
0.0
220
0.0
230
1.0
 70
     8
 71
     3
 72
     8
 73
     4
 74
     0
 42
0.00000001
 43
0.00000001
 12
1.0
 22
0.0
 32
0.0
 13
1.0
 23
0.0
 33
0.0
 40
0.0
 40
0.0
 40
0.0
 40
0.0
 40
1.0
 40
1.0
 40
1.0
 40
1.0
 10
214.5187305291491
 20
482.6060910656853
 30
0.0
 10
214.4088795781565
 20
482.4400470417149
 30
0.0
 10
214.2176271886989
 20
482.3366088938311
 30
0.0
 10
214.0185139989812
 20
482.3366088938311
 30
0.0
  0
SPLINE
  5
8B
330
1F
100
AcDbEntity
  8
0
  6
SLD-Durchgehend
 62
     7
370
    15
100
AcDbSpline
210
0.0
220
0.0
230
1.0
 70
     8
 71
     3
 72
     9
 73
     5
 74
     0
 42
0.00000001
 43
0.00000001
 12
1.0
 22
0.0
 32
0.0
 13
1.0
 23
0.0
 33
0.0
 40
0.0
 40
0.0
 40
0.0
 40
0.0
 40
0.290527422356388
 40
1.0
 40
1.0
 40
1.0
 40
1.0
 10
116.0619240129668
 20
511.5173920641667
 30
0.0
 10
116.0617401391718
 20
511.5175864017645
 30
0.0
 10
116.0611072426503
 20
511.5182553148613
 30
0.0
 10
116.0628655879675
 20
511.5166197911249
 30
0.0
 10
116.0641130857521
 20
511.5154594318839
 30
0.0
  0
SPLINE
  5
8C
330
1F
100
AcDbEntity
  8
0
  6
SLD-Durchgehend
 62
     7
370
    15
100
AcDbSpline
210
0.0
220
0.0
230
1.0
 70
     8
 71
     3
 72
    13
 73
     9
 74
     0
 42
0.00000001
 43
0.00000001
 12
1.0
 22
0.0
 32
0.0
 13
1.0
 23
0.0
 33
0.0
 40
0.0
 40
0.0
 40
0.0
 40
0.0
 40
0.0707277351963756
 40
0.2212530154661256
 40
0.3597852614516263
 40
0.4993258651707788
 40
0.7486098638509174
 40
1.0
 40
1.0
 40
1.0
 40
1.0
 10
116.3265883219715
 20
509.2385718274824
 30
0.0
 10
116.3967814599601
 20
508.554181373155
 30
0.0
 10
116.6163621294372
 20
506.4132468252617
 30
0.0
 10
117.3822324577893
 20
502.9892881947704
 30
0.0
 10
118.5909969991132
 20
498.9983069634425
 30
0.0
 10
120.5146786690472
 20
494.2379159895402
 30
0.0
 10
123.4433577254618
 20
488.7276898137658
 30
0.0
 10
126.1080577218555
 20
484.6523384438893
 30
0.0
 10
127.4460123879546
 20
482.6060910656857
 30
0.0
  0
LINE
  5
8D
330
1F
100
AcDbEntity
  8
0
  6
SLD-Durchgehend
 62
     7
370
    15
100
AcDbLine
 10
225.9034277595
 20
511.5179953848
 30
0.0
 11
225.9031489797
 21
511.5177036738
 31
0.0
  0
SPLINE
  5
8E
330
1F
100
AcDbEntity
  8
0
  6
SLD-Durchgehend
 62
     7
370
    15
100
AcDbSpline
210
0.0
220
0.0
230
1.0
 70
     8
 71
     3
 72
    12
 73
     8
 74
     0
 42
0.00000001
 43
0.00000001
 12
1.0
 22
0.0
 32
0.0
 13
1.0
 23
0.0
 33
0.0
 40
0.0
 40
0.0
 40
0.0
 40
0.0
 40
0.2984706482473434
 40
0.4477273057826481
 40
0.5977680144581198
 40
0.8354546424822058
 40
0.9999999999999999
 40
0.9999999999999999
 40
0.9999999999999999
 40
0.9999999999999999
 10
214.5187305291491
 20
482.6060910656853
 30
0.0
 10
216.1045946085015
 20
485.0380536881378
 30
0.0
 10
218.4835040783449
 20
488.6861714481544
 30
0.0
 10
221.2065049012566
 20
493.8284616538689
 30
0.0
 10
223.2780901444796
 20
498.6205484985949
 30
0.0
 10
224.9311522355142
 20
503.7685512212742
 30
0.0
 10
225.3872701480751
 20
507.6581168676656
 30
0.0
 10
225.573859200389
 20
509.2492632530336
 30
0.0
  0
SPLINE
  5
8F
330
1F
100
AcDbEntity
  8
0
  6
SLD-Durchgehend
 62
     7
370
    15
100
AcDbSpline
210
0.0
220
0.0
230
1.0
 70
     8
 71
     3
 72
    20
 73
    16
 74
     0
 42
0.00000001
 43
0.00000001
 12
1.0
 22
0.0
 32
0.0
 13
1.0
 23
0.0
 33
0.0
 40
0.0
 40
0.0
 40
0.0
 40
0.0
 40
0.2499999999999999
 40
0.2499999999999999
 40
0.4999999999999999
 40
0.4999999999999999
 40
0.7499999999999998
 40
0.7499999999999998
 40
0.8749999999999996
 40
0.8749999999999996
 40
0.9374999999999997
 40
0.9374999999999997
 40
0.9687499999999998
 40
0.9687499999999998
 40
1.0
 40
1.0
 40
1.0
 40
1.0
 10
123.1738287184518
 20
513.881047919741
 30
0.0
 10
123.1737220820089
 20
513.8809636530625
 30
0.0
 10
123.2075008563686
 20
513.8822460693493
 30
0.0
 10
123.3543770187566
 20
513.8875422674053
 30
0.0
 10
123.4672988220771
 20
513.8915766776823
 30
0.0
 10
123.7932509032618
 20
513.9013340356349
 30
0.0
 10
124.0060771097636
 20
513.9071181878985
 30
0.0
 10
124.4307708985612
 20
513.9147671124691
 30
0.0
 10
124.5900439649572
 20
513.9171233240701
 30
0.0
 10
124.8611523612934
 20
513.9197761291977
 30
0.0
 10
124.956904072408
 20
513.9205109394343
 30
0.0
 10
125.1094850815861
 20
513.9212873621514
 30
0.0
 10
125.1618391560154
 20
513.9214916525759
 30
0.0
 10
125.2696996068584
 20
513.9217713701843
 30
0.0
 10
125.3255166986167
 20
513.92184679958
 30
0.0
 10
125.382371458552
 20
513.92184679958
 30
0.0
  0
SPLINE
  5
90
330
1F
100
AcDbEntity
  8
0
  6
SLD-Durchgehend
 62
     7
370
    15
100
AcDbSpline
210
0.0
220
0.0
230
1.0
 70
     8
 71
     3
 72
    11
 73
     7
 74
     0
 42
0.00000001
 43
0.00000001
 12
1.0
 22
0.0
 32
0.0
 13
1.0
 23
0.0
 33
0.0
 40
0.0
 40
0.0
 40
0.0
 40
0.0
 40
0.00000504887402
 40
0.4778296529440265
 40
0.9559851378213645
 40
1.0
 40
1.0
 40
1.0
 40
1.0
 10
216.582371458552
 20
513.92184679958
 30
0.0
 10
216.5823762126544
 20
513.9218467995795
 30
0.0
 10
217.0323084370567
 20
513.9218467619526
 30
0.0
 10
217.7028732701597
 20
513.9151346323392
 30
0.0
 10
218.2638218190603
 20
513.8988473851302
 30
0.0
 10
218.3410093032539
 20
513.8962076842066
 30
0.0
 10
218.3475156023915
 20
513.8959851781356
 30
0.0
  0
LINE
  5
91
330
1F
100
AcDbEntity
  8
0
  6
SLD-Durchgehend
 62
     7
370
    15
100
AcDbLine
 10
218.6973171658
 20
513.8842010264
 30
0.0
 11
218.7909141987
 21
513.8810479197
 31
0.0
  0
SPLINE
  5
92
330
1F
100
AcDbEntity
  8
0
  6
SLD-Durchgehend
 62
     7
370
    15
100
AcDbSpline
210
0.0
220
0.0
230
1.0
 70
    24
 71
     3
 72
    16
 73
    12
 74
     0
 42
0.00000001
 43
0.00000001
 12
1.0
 22
0.0
 32
0.0
 13
1.0
 23
0.0
 33
0.0
 40
0.0
 40
0.0
 40
0.0
 40
0.0
 40
0.1105452494534802
 40
0.2208213679767956
 40
0.3072501228246385
 40
0.3936210267421761
 40
0.4987950323110286
 40
0.604232455263604
 40
0.7430291016944706
 40
0.8825352466914966
 40
1.0
 40
1.0
 40
1.0
 40
1.0
 10
125.382371458552
 20
513.92184679958
 30
0.0
 10
125.8568245696245
 20
513.92184679958
 30
0.0
 10
126.8045756991017
 20
513.92184679958
 30
0.0
 10
128.9518287312318
 20
513.92184679958
 30
0.0
 10
131.6342172417729
 20
513.92184679958
 30
0.0
 10
134.8802121231576
 20
513.92184679958
 30
0.0
 10
138.9892996091597
 20
513.92184679958
 30
0.0
 10
144.2874182147701
 20
513.92184679958
 30
0.0
 10
150.4010212574441
 20
513.92184679958
 30
0.0
 10
156.8388151841048
 20
513.92184679958
 30
0.0
 10
161.0550674769356
 20
513.92184679958
 30
0.0
 10
162.982371458552
 20
513.92184679958
 30
0.0
  0
SPLINE
  5
93
330
1F
100
AcDbEntity
  8
0
  6
SLD-Durchgehend
 62
     7
370
    15
100
AcDbSpline
210
0.0
220
0.0
230
1.0
 70
    24
 71
     3
 72
    17
 73
    13
 74
     0
 42
0.00000001
 43
0.00000001
 12
1.0
 22
0.0
 32
0.0
 13
1.0
 23
0.0
 33
0.0
 40
0.0
 40
0.0
 40
0.0
 40
0.0
 40
0.1367022130762089
 40
0.2387301872964786
 40
0.3408364565563306
 40
0.4425189781216778
 40
0.5276136518074069
 40
0.6125989692032102
 40
0.6977355391452359
 40
0.7829327464598724
 40
0.891341508171298
 40
1.0
 40
1.0
 40
1.0
 40
1.0
 10
178.982371458552
 20
513.92184679958
 30
0.0
 10
181.2234395013591
 20
513.92184679958
 30
0.0
 10
185.1371332270431
 20
513.92184679958
 30
0.0
 10
190.6815591202664
 20
513.92184679958
 30
0.0
 10
195.5904181985267
 20
513.92184679958
 30
0.0
 10
200.0957913947399
 20
513.92184679958
 30
0.0
 10
204.1002690596006
 20
513.92184679958
 30
0.0
 10
207.5411767988147
 20
513.92184679958
 30
0.0
 10
210.487271624041
 20
513.92184679958
 30
0.0
 10
213.0946938148836
 20
513.92184679958
 30
0.0
 10
215.187326250658
 20
513.92184679958
 30
0.0
 10
216.1169998676421
 20
513.92184679958
 30
0.0
 10
216.582371458552
 20
513.92184679958
 30
0.0
  0
SPLINE
  5
94
330
1F
100
AcDbEntity
  8
0
  6
SLD-Durchgehend
 62
     8
370
     0
100
AcDbSpline
210
0.0
220
0.0
230
1.0
 70
     8
 71
     3
 72
    46
 73
    42
 74
     0
 42
0.00000001
 43
0.00000001
 12
1.0
 22
0.0
 32
0.0
 13
1.0
 23
0.0
 33
0.0
 40
0.0
 40
0.0
 40
0.0
 40
0.0
 40
0.1250000000000011
 40
0.1250000000000011
 40
0.1875000000000016
 40
0.1875000000000016
 40
0.2500000000000022
 40
0.2500000000000022
 40
0.3125000000000027
 40
0.3125000000000027
 40
0.343750000000003
 40
0.343750000000003
 40
0.3750000000000033
 40
0.3750000000000033
 40
0.4375000000000038
 40
0.4375000000000038
 40
0.4531250000000039
 40
0.4531250000000039
 40
0.468750000000004
 40
0.468750000000004
 40
0.5000000000000039
 40
0.5000000000000039
 40
0.5625000000000036
 40
0.5625000000000036
 40
0.5781250000000033
 40
0.5781250000000033
 40
0.5937500000000032
 40
0.5937500000000032
 40
0.6250000000000029
 40
0.6250000000000029
 40
0.6875000000000024
 40
0.6875000000000024
 40
0.7187500000000021
 40
0.7187500000000021
 40
0.7500000000000019
 40
0.7500000000000019
 40
0.8125000000000014
 40
0.8125000000000014
 40
0.875000000000001
 40
0.875000000000001
 40
1.0
 40
1.0
 40
1.0
 40
1.0
 10
225.8638117465151
 20
511.4820995143795
 30
0.0
 10
225.844369838394
 20
511.4670796111171
 30
0.0
 10
225.6985238148807
 20
511.4511338964738
 30
0.0
 10
225.2862456586533
 20
511.4221900112632
 30
0.0
 10
225.1167137656693
 20
511.4113888304602
 30
0.0
 10
224.6978020108328
 20
511.3855553039417
 30
0.0
 10
224.4479431742965
 20
511.3705937973532
 30
0.0
 10
223.8368950144565
 20
511.3356587383493
 30
0.0
 10
223.4763244318145
 20
511.31568909904
 30
0.0
 10
222.8096844808724
 20
511.2816688721009
 30
0.0
 10
222.5661590366845
 20
511.2696657316112
 30
0.0
 10
222.0246857606972
 20
511.2447632317447
 30
0.0
 10
221.7257663533115
 20
511.23181761564
 30
0.0
 10
220.7343861082585
 20
511.1935752047235
 30
0.0
 10
219.9478987595954
 20
511.1684272104149
 30
0.0
 10
218.7266481130522
 20
511.1494178776026
 30
0.0
 10
218.4704059511381
 20
511.1462548958028
 30
0.0
 10
217.9315086671103
 20
511.1415450828945
 30
0.0
 10
217.6481882545627
 20
511.1399989826502
 30
0.0
 10
216.7598848794716
 20
511.1382619401159
 30
0.0
 10
216.1148813645254
 20
511.1410836235244
 30
0.0
 10
214.059018225034
 20
511.1618363171037
 30
0.0
 10
212.5197488276803
 20
511.1920210841884
 30
0.0
 10
210.4161042782962
 20
511.2372521503227
 30
0.0
 10
209.9851527454964
 20
511.2466687946697
 30
0.0
 10
209.1156373469113
 20
511.2655965332661
 30
0.0
 10
208.6766070051336
 20
511.2751164373721
 30
0.0
 10
207.3481304421093
 20
511.3033476975605
 30
0.0
 10
206.4473353485945
 20
511.3215786475361
 30
0.0
 10
203.7095964613528
 20
511.3721324027013
 30
0.0
 10
201.8378505424336
 20
511.4002420717514
 30
0.0
 10
198.9870659553333
 20
511.4331400108798
 30
0.0
 10
198.0293466069461
 20
511.4425963509585
 30
0.0
 10
196.1143545596858
 20
511.4590063620917
 30
0.0
 10
195.1553276500533
 20
511.4660003390084
 30
0.0
 10
192.2745348145557
 20
511.4839815995613
 30
0.0
 10
190.3491009876733
 20
511.4919939712163
 30
0.0
 10
186.4914228246578
 20
511.5029145677902
 30
0.0
 10
184.559207010561
 20
511.5056887383656
 30
0.0
 10
178.7544987615176
 20
511.5110966716265
 30
0.0
 10
174.8738643015856
 20
511.5117765876641
 30
0.0
 10
170.982371458552
 20
511.511269938749
 30
0.0
  0
SPLINE
  5
95
330
1F
100
AcDbEntity
  8
0
  6
SLD-Durchgehend
 62
     8
370
     0
100
AcDbSpline
210
0.0
220
0.0
230
1.0
 70
     8
 71
     3
 72
    14
 73
    10
 74
     0
 42
0.00000001
 43
0.00000001
 12
1.0
 22
0.0
 32
0.0
 13
1.0
 23
0.0
 33
0.0
 40
0.0
 40
0.0
 40
0.0
 40
0.0
 40
0.25
 40
0.25
 40
0.5
 40
0.5
 40
0.75
 40
0.75
 40
1.0
 40
1.0
 40
1.0
 40
1.0
 10
170.982371458552
 20
513.2065392264632
 30
0.0
 10
170.9823714585579
 20
513.1685151728016
 30
0.0
 10
170.9823714585515
 20
513.0967652520263
 30
0.0
 10
170.9823714585717
 20
512.8901235581974
 30
0.0
 10
170.9823714585293
 20
512.7580134669283
 30
0.0
 10
170.9823714585621
 20
512.4485361562516
 30
0.0
 10
170.9823714587066
 20
512.2739634835677
 30
0.0
 10
170.9823714588281
 20
511.8991405777512
 30
0.0
 10
170.9823714584159
 20
511.706011016987
 30
0.0
 10
170.9823714584921
 20
511.5112699387525
 30
0.0
  0
SPLINE
  5
96
330
1F
100
AcDbEntity
  8
0
  6
SLD-Durchgehend
 62
     8
370
     0
100
AcDbSpline
210
0.0
220
0.0
230
1.0
 70
     8
 71
     3
 72
    20
 73
    16
 74
     0
 42
0.00000001
 43
0.00000001
 12
1.0
 22
0.0
 32
0.0
 13
1.0
 23
0.0
 33
0.0
 40
0.0
 40
0.0
 40
0.0
 40
0.0
 40
0.1194590749585246
 40
0.2389616558205362
 40
0.3581823906668076
 40
0.4320978342769224
 40
0.5057660937066417
 40
0.5548240288517818
 40
0.6038234602302245
 40
0.6274483994192047
 40
0.6868670971879995
 40
0.7464509370660878
 40
0.8400243891383676
 40
0.9337619735885796
 40
1.0
 40
1.0
 40
1.0
 40
1.0
 10
170.982371458552
 20
513.2065392264632
 30
0.0
 10
174.0745281287914
 20
513.2074960257074
 30
0.0
 10
180.2599676044735
 20
513.2094099726535
 30
0.0
 10
189.5110568976977
 20
513.2155687118055
 30
0.0
 10
197.519253600923
 20
513.2190230585758
 30
0.0
 10
204.2228478690486
 20
513.2149962692878
 30
0.0
 10
208.9604172195855
 20
513.2090323593244
 30
0.0
 10
212.7002120901786
 20
513.2088266271566
 30
0.0
 10
215.0097974182613
 20
513.2136859203249
 30
0.0
 10
217.139773286617
 20
513.2222076070016
 30
0.0
 10
219.0030155980409
 20
513.2342349423737
 30
0.0
 10
220.9929513663287
 20
513.2489557581567
 30
0.0
 10
222.4961240851448
 20
513.2502367683846
 30
0.0
 10
223.4776073045268
 20
513.2409222117408
 30
0.0
 10
223.7941184225421
 20
513.2344610895506
 30
0.0
 10
223.9251700977424
 20
513.2317858568698
 30
0.0
  0
ARC
  5
97
330
1F
100
AcDbEntity
  8
0
  6
SLD-Durchgehend
 62
     8
370
     0
100
AcDbCircle
 10
224.2719825069
 20
511.6434775862
 30
0.0
 40
1.599988503147399
100
AcDbArc
 50
354.2111884512
 51
78.8288757599
  0
SPLINE
  5
98
330
1F
100
AcDbEntity
  8
0
  6
SLD-Durchgehend
 62
     8
370
     0
100
AcDbSpline
210
0.0
220
0.0
230
1.0
 70
     8
 71
     3
 72
    46
 73
    42
 74
     0
 42
0.00000001
 43
0.00000001
 12
1.0
 22
0.0
 32
0.0
 13
1.0
 23
0.0
 33
0.0
 40
0.0
 40
0.0
 40
0.0
 40
0.0
 40
0.1249999999999991
 40
0.1249999999999991
 40
0.1874999999999986
 40
0.1874999999999986
 40
0.2499999999999982
 40
0.2499999999999982
 40
0.2812499999999979
 40
0.2812499999999979
 40
0.3124999999999976
 40
0.3124999999999976
 40
0.3749999999999971
 40
0.3749999999999971
 40
0.4062499999999968
 40
0.4062499999999968
 40
0.4218749999999967
 40
0.4218749999999967
 40
0.4374999999999965
 40
0.4374999999999965
 40
0.4999999999999964
 40
0.4999999999999964
 40
0.5312499999999966
 40
0.5312499999999966
 40
0.5468749999999967
 40
0.5468749999999967
 40
0.5624999999999968
 40
0.5624999999999968
 40
0.6249999999999973
 40
0.6249999999999973
 40
0.6562499999999977
 40
0.6562499999999977
 40
0.6874999999999979
 40
0.6874999999999979
 40
0.7499999999999982
 40
0.7499999999999982
 40
0.8124999999999987
 40
0.8124999999999987
 40
0.8749999999999991
 40
0.8749999999999991
 40
1.0
 40
1.0
 40
1.0
 40
1.0
 10
170.982371458552
 20
511.511269938749
 30
0.0
 10
167.0908786155185
 20
511.5117765876641
 30
0.0
 10
163.2102441555863
 20
511.5110966716265
 30
0.0
 10
157.4055359065429
 20
511.5056887383656
 30
0.0
 10
155.4733200924461
 20
511.5029145677902
 30
0.0
 10
151.6156419294307
 20
511.4919939712162
 30
0.0
 10
149.6902081025482
 20
511.4839815995614
 30
0.0
 10
146.8094152670506
 20
511.4660003390084
 30
0.0
 10
145.8503883574182
 20
511.4590063620917
 30
0.0
 10
143.9353963101578
 20
511.4425963509585
 30
0.0
 10
142.9776769617706
 20
511.4331400108798
 30
0.0
 10
140.1268923746704
 20
511.4002420717514
 30
0.0
 10
138.2551464557511
 20
511.3721324027013
 30
0.0
 10
135.5174075685095
 20
511.3215786475361
 30
0.0
 10
134.6166124749947
 20
511.3033476975605
 30
0.0
 10
133.2881359119704
 20
511.2751164373721
 30
0.0
 10
132.8491055701926
 20
511.2655965332661
 30
0.0
 10
131.9795901716076
 20
511.2466687946697
 30
0.0
 10
131.5486386388078
 20
511.2372521503227
 30
0.0
 10
129.4449940894237
 20
511.1920210841884
 30
0.0
 10
127.90572469207
 20
511.1618363171037
 30
0.0
 10
125.8498615525786
 20
511.1410836235244
 30
0.0
 10
125.2048580376324
 20
511.1382619401159
 30
0.0
 10
124.3165546625413
 20
511.1399989826502
 30
0.0
 10
124.0332342499937
 20
511.1415450828945
 30
0.0
 10
123.494336965966
 20
511.1462548958028
 30
0.0
 10
123.2380948040518
 20
511.1494178776026
 30
0.0
 10
122.0168441575086
 20
511.1684272104149
 30
0.0
 10
121.2303568088456
 20
511.1935752047235
 30
0.0
 10
120.2389765637926
 20
511.23181761564
 30
0.0
 10
119.9400571564068
 20
511.2447632317447
 30
0.0
 10
119.3985838804196
 20
511.2696657316112
 30
0.0
 10
119.1550584362316
 20
511.2816688721009
 30
0.0
 10
118.4884184852896
 20
511.31568909904
 30
0.0
 10
118.1278479026475
 20
511.3356587383493
 30
0.0
 10
117.5167997428076
 20
511.3705937973532
 30
0.0
 10
117.2669409062712
 20
511.3855553039417
 30
0.0
 10
116.8480291514347
 20
511.4113888304602
 30
0.0
 10
116.6784972584507
 20
511.4221900112632
 30
0.0
 10
116.2662191022233
 20
511.4511338964738
 30
0.0
 10
116.1203730787101
 20
511.4670796111171
 30
0.0
 10
116.100931170589
 20
511.4820995143796
 30
0.0
  0
ARC
  5
99
330
1F
100
AcDbEntity
  8
0
  6
SLD-Durchgehend
 62
     8
370
     0
100
AcDbCircle
 10
117.6927604102
 20
511.6434775862
 30
0.0
 40
1.599988503147427
100
AcDbArc
 50
101.1711242401
 51
185.7888115488
  0
SPLINE
  5
9A
330
1F
100
AcDbEntity
  8
0
  6
SLD-Durchgehend
 62
     8
370
     0
100
AcDbSpline
210
0.0
220
0.0
230
1.0
 70
     8
 71
     3
 72
    48
 73
    44
 74
     0
 42
0.00000001
 43
0.00000001
 12
1.0
 22
0.0
 32
0.0
 13
1.0
 23
0.0
 33
0.0
 40
0.0
 40
0.0
 40
0.0
 40
0.0
 40
0.0312499999999998
 40
0.0312499999999998
 40
0.0624999999999996
 40
0.0624999999999996
 40
0.1249999999999993
 40
0.1249999999999993
 40
0.1874999999999989
 40
0.1874999999999989
 40
0.2499999999999986
 40
0.2499999999999986
 40
0.3124999999999982
 40
0.3124999999999982
 40
0.3437499999999981
 40
0.3437499999999981
 40
0.3749999999999979
 40
0.3749999999999979
 40
0.4374999999999979
 40
0.4374999999999979
 40
0.468749999999998
 40
0.468749999999998
 40
0.4999999999999981
 40
0.4999999999999981
 40
0.5624999999999984
 40
0.5624999999999984
 40
0.5781249999999984
 40
0.5781249999999984
 40
0.5937499999999984
 40
0.5937499999999984
 40
0.6249999999999986
 40
0.6249999999999986
 40
0.6874999999999987
 40
0.6874999999999987
 40
0.7187499999999989
 40
0.7187499999999989
 40
0.749999999999999
 40
0.749999999999999
 40
0.8124999999999993
 40
0.8124999999999993
 40
0.8749999999999994
 40
0.8749999999999994
 40
1.0
 40
1.0
 40
1.0
 40
1.0
 10
117.3827787213728
 20
513.2131509798354
 30
0.0
 10
117.3870814067338
 20
513.2141244461424
 30
0.0
 10
117.3991660210204
 20
513.2150681729082
 30
0.0
 10
117.4384610096466
 20
513.2170218336946
 30
0.0
 10
117.4656776220824
 20
513.2180329192674
 30
0.0
 10
117.5698081680146
 20
513.2213683045195
 30
0.0
 10
117.6689649512584
 20
513.2241141068354
 30
0.0
 10
117.9302624053634
 20
513.230289945478
 30
0.0
 10
118.0916926744515
 20
513.2337158376333
 30
0.0
 10
118.4912018989218
 20
513.2400706025483
 30
0.0
 10
118.729843766846
 20
513.2430310224933
 30
0.0
 10
119.3140565869006
 20
513.2474481696458
 30
0.0
 10
119.6589748893407
 20
513.2489826017246
 30
0.0
 10
120.296843439547
 20
513.2489885726126
 30
0.0
 10
120.5298721237665
 20
513.2485873309464
 30
0.0
 10
121.0480854381162
 20
513.2467948841926
 30
0.0
 10
121.3342035769578
 20
513.2453938483691
 30
0.0
 10
122.2857050799005
 20
513.2397090286156
 30
0.0
 10
123.0409372953429
 20
513.2337094115163
 30
0.0
 10
124.456553506441
 20
513.2248840926993
 30
0.0
 10
124.9770618979182
 20
513.2219963191952
 30
0.0
 10
126.1302663952469
 20
513.2168872041138
 30
0.0
 10
126.7605878687687
 20
513.2146955792501
 30
0.0
 10
128.7762326756688
 20
513.2094746225314
 30
0.0
 10
130.2923604155861
 20
513.2083099201371
 30
0.0
 10
132.3646981667017
 20
513.2094343121332
 30
0.0
 10
132.7887116154062
 20
513.209768323769
 30
0.0
 10
133.6426636568847
 20
513.2105655858619
 30
0.0
 10
134.0737917473328
 20
513.2110288633296
 30
0.0
 10
135.3781539771331
 20
513.2124806327863
 30
0.0
 10
136.2623044443718
 20
513.2135016997124
 30
0.0
 10
138.948514202225
 20
513.2161292446282
 30
0.0
 10
140.7838013095611
 20
513.2172351621094
 30
0.0
 10
143.5779436059879
 20
513.2176706434051
 30
0.0
 10
144.515179426896
 20
513.2176318258042
 30
0.0
 10
146.3894443924271
 20
513.2173288591055
 30
0.0
 10
147.3280377298518
 20
513.2170549644426
 30
0.0
 10
150.1473789579866
 20
513.2159380695231
 30
0.0
 10
152.0316480620172
 20
513.2148011449761
 30
0.0
 10
155.8067473372506
 20
513.2122837265703
 30
0.0
 10
157.6975458869918
 20
513.210878165906
 30
0.0
 10
163.3776998293826
 20
513.2073871773072
 30
0.0
 10
167.1748320921797
 20
513.2069274072161
 30
0.0
 10
170.982371458552
 20
513.2065392264632
 30
0.0
  0
SPLINE
  5
9B
330
1F
100
AcDbEntity
  8
0
  6
SLD-Durchgehend
 62
     8
370
     0
100
AcDbSpline
210
0.0
220
0.0
230
1.0
 70
     8
 71
     3
 72
    48
 73
    44
 74
     0
 42
0.00000001
 43
0.00000001
 12
1.0
 22
0.0
 32
0.0
 13
1.0
 23
0.0
 33
0.0
 40
0.0
 40
0.0
 40
0.0
 40
0.0
 40
0.015625
 40
0.015625
 40
0.0312500000000001
 40
0.0312500000000001
 40
0.0625000000000001
 40
0.0625000000000001
 40
0.1250000000000002
 40
0.1250000000000002
 40
0.1875000000000004
 40
0.1875000000000004
 40
0.2500000000000006
 40
0.2500000000000006
 40
0.3125000000000007
 40
0.3125000000000007
 40
0.3750000000000008
 40
0.3750000000000008
 40
0.4062500000000008
 40
0.4062500000000008
 40
0.4375000000000009
 40
0.4375000000000009
 40
0.5000000000000009
 40
0.5000000000000009
 40
0.5156250000000009
 40
0.5156250000000009
 40
0.5312500000000009
 40
0.5312500000000009
 40
0.562500000000001
 40
0.562500000000001
 40
0.6250000000000009
 40
0.6250000000000009
 40
0.6562500000000008
 40
0.6562500000000008
 40
0.6875000000000008
 40
0.6875000000000008
 40
0.7500000000000007
 40
0.7500000000000007
 40
0.8125000000000006
 40
0.8125000000000006
 40
0.8750000000000004
 40
0.8750000000000004
 40
1.0
 40
1.0
 40
1.0
 40
1.0
 10
126.491626293062
 20
488.2713928052273
 30
0.0
 10
126.4811451874693
 20
488.3095301117728
 30
0.0
 10
126.4724020240667
 20
488.3479787871095
 30
0.0
 10
126.4588032402144
 20
488.4244955003498
 30
0.0
 10
126.4539017845414
 20
488.4627301285473
 30
0.0
 10
126.4451093418437
 20
488.5773567565851
 30
0.0
 10
126.4471248584959
 20
488.6536716411621
 30
0.0
 10
126.4787255849402
 20
488.8822541728821
 30
0.0
 10
126.5337402736259
 20
489.0341620135948
 30
0.0
 10
126.7243919845537
 20
489.3366762459223
 30
0.0
 10
126.8599416578709
 20
489.4872820366155
 30
0.0
 10
127.2292695497312
 20
489.7867841955358
 30
0.0
 10
127.4628932606308
 20
489.9356786119984
 30
0.0
 10
128.0551188804575
 20
490.2313908310893
 30
0.0
 10
128.4108055088806
 20
490.376731239442
 30
0.0
 10
129.271205052612
 20
490.6614699235682
 30
0.0
 10
129.7756804841631
 20
490.8008718744481
 30
0.0
 10
130.6776132336179
 20
491.0048154794938
 30
0.0
 10
131.0025962796145
 20
491.0719362809351
 30
0.0
 10
131.7090120044231
 20
491.2043235810688
 30
0.0
 10
132.0916125820187
 20
491.2697232188822
 30
0.0
 10
133.3158594646675
 20
491.459665527499
 30
0.0
 10
134.2387650524216
 20
491.5789961085389
 30
0.0
 10
135.5488456089097
 20
491.7180983180591
 30
0.0
 10
135.8186894444402
 20
491.7454140382582
 30
0.0
 10
136.3746255455293
 20
491.7990049607342
 30
0.0
 10
136.6615402729262
 20
491.8253505072088
 30
0.0
 10
137.5410216126195
 20
491.9022129647943
 30
0.0
 10
138.1505522476639
 20
491.9504346462737
 30
0.0
 10
140.0461025426589
 20
492.0863370370153
 30
0.0
 10
141.3991949703548
 20
492.1652371035099
 30
0.0
 10
143.5484158206865
 20
492.2671566215529
 30
0.0
 10
144.2842833846808
 20
492.298335225236
 30
0.0
 10
145.7668079221831
 20
492.354616070866
 30
0.0
 10
146.5167241096849
 20
492.3798799103445
 30
0.0
 10
148.7887260334024
 20
492.4480683825994
 30
0.0
 10
150.3329448827832
 20
492.4834075163308
 30
0.0
 10
153.464421277614
 20
492.5387450473708
 30
0.0
 10
155.0511953356976
 20
492.558694208944
 30
0.0
 10
158.2275715067991
 20
492.587641331569
 30
0.0
 10
159.8185970251383
 20
492.5966952459399
 30
0.0
 10
164.5970559479634
 20
492.6141794493014
 30
0.0
 10
167.7902741937092
 20
492.6133074452432
 30
0.0
 10
170.9823714585521
 20
492.6133074452432
 30
0.0
  0
SPLINE
  5
9C
330
1F
100
AcDbEntity
  8
0
  6
SLD-Durchgehend
 62
     8
370
     0
100
AcDbSpline
210
0.0
220
0.0
230
1.0
 70
     8
 71
     3
 72
     9
 73
     5
 74
     0
 42
0.00000001
 43
0.00000001
 12
1.0
 22
0.0
 32
0.0
 13
1.0
 23
0.0
 33
0.0
 40
0.0535990738565804
 40
0.0535990738565804
 40
0.0535990738565804
 40
0.0535990738565804
 40
0.5
 40
0.9303978674805705
 40
0.9303978674805705
 40
0.9303978674805705
 40
0.9303978674805705
 10
116.1008939505767
 20
511.4821284202822
 30
0.0
 10
116.50299215352
 20
507.5146391373245
 30
0.0
 10
118.4974834924573
 20
500.1770422440831
 30
0.0
 10
123.3279749407609
 20
492.4532577866532
 30
0.0
 10
126.4916299225483
 20
488.2713880075993
 30
0.0
  0
SPLINE
  5
9D
330
1F
100
AcDbEntity
  8
0
  6
SLD-Durchgehend
 62
     8
370
     0
100
AcDbSpline
210
0.0
220
0.0
230
1.0
 70
    24
 71
     3
 72
     9
 73
     5
 74
     0
 42
0.00000001
 43
0.00000001
 12
1.0
 22
0.0
 32
0.0
 13
1.0
 23
0.0
 33
0.0
 40
0.0570411366458443
 40
0.0570411366458443
 40
0.0570411366458443
 40
0.0570411366458443
 40
0.5
 40
0.9401470787810181
 40
0.9401470787810181
 40
0.9401470787810181
 40
0.9401470787810181
 10
170.982371458552
 20
511.5112699387681
 30
0.0
 10
170.982371458552
 20
507.8957373122913
 30
0.0
 10
170.982371458552
 20
501.235822115803
 30
0.0
 10
170.982371458552
 20
495.3917588148028
 30
0.0
 10
170.982371458552
 20
492.6133074452432
 30
0.0
  0
SPLINE
  5
9E
330
1F
100
AcDbEntity
  8
0
  6
SLD-Durchgehend
 62
     8
370
     0
100
AcDbSpline
210
0.0
220
0.0
230
1.0
 70
     8
 71
     3
 72
     9
 73
     5
 74
     0
 42
0.00000001
 43
0.00000001
 12
1.0
 22
0.0
 32
0.0
 13
1.0
 23
0.0
 33
0.0
 40
0.0535990738565804
 40
0.0535990738565804
 40
0.0535990738565804
 40
0.0535990738565804
 40
0.5
 40
0.9303978674805705
 40
0.9303978674805705
 40
0.9303978674805705
 40
0.9303978674805705
 10
225.8638489665274
 20
511.4821284202822
 30
0.0
 10
225.4617507635841
 20
507.5146391373245
 30
0.0
 10
223.4672594246467
 20
500.1770422440831
 30
0.0
 10
218.6367679763431
 20
492.4532577866532
 30
0.0
 10
215.4731129945558
 20
488.2713880075993
 30
0.0
  0
SPLINE
  5
9F
330
1F
100
AcDbEntity
  8
0
  6
SLD-Durchgehend
 62
     8
370
     0
100
AcDbSpline
210
0.0
220
0.0
230
1.0
 70
     8
 71
     3
 72
    50
 73
    46
 74
     0
 42
0.00000001
 43
0.00000001
 12
1.0
 22
0.0
 32
0.0
 13
1.0
 23
0.0
 33
0.0
 40
0.0
 40
0.0
 40
0.0
 40
0.0
 40
0.1250000000000012
 40
0.1250000000000012
 40
0.1875000000000019
 40
0.1875000000000019
 40
0.2187500000000022
 40
0.2187500000000022
 40
0.2500000000000024
 40
0.2500000000000024
 40
0.3125000000000031
 40
0.3125000000000031
 40
0.3437500000000033
 40
0.3437500000000033
 40
0.3593750000000034
 40
0.3593750000000034
 40
0.3750000000000036
 40
0.3750000000000036
 40
0.4375000000000038
 40
0.4375000000000038
 40
0.468750000000004
 40
0.468750000000004
 40
0.484375000000004
 40
0.484375000000004
 40
0.500000000000004
 40
0.500000000000004
 40
0.5625000000000034
 40
0.5625000000000034
 40
0.5937500000000032
 40
0.5937500000000032
 40
0.625000000000003
 40
0.625000000000003
 40
0.6875000000000024
 40
0.6875000000000024
 40
0.750000000000002
 40
0.750000000000002
 40
0.8125000000000014
 40
0.8125000000000014
 40
0.875000000000001
 40
0.875000000000001
 40
0.9375000000000004
 40
0.9375000000000004
 40
0.9687500000000002
 40
0.9687500000000002
 40
1.0
 40
1.0
 40
1.0
 40
1.0
 10
170.982371458552
 20
492.6133074452431
 30
0.0
 10
174.1652564758517
 20
492.6133074452431
 30
0.0
 10
177.3467845281734
 20
492.6141678454799
 30
0.0
 10
182.1082428474263
 20
492.5968773063325
 30
0.0
 10
183.6935520341684
 20
492.5879240733084
 30
0.0
 10
186.0671476542252
 20
492.5664624042021
 30
0.0
 10
186.8576144531503
 20
492.5579639131498
 30
0.0
 10
188.4367564563293
 20
492.5376504558605
 30
0.0
 10
189.2263212378509
 20
492.5258149438075
 30
0.0
 10
191.575659915655
 20
492.4845903749638
 30
0.0
 10
193.1204517598065
 20
492.4494650479126
 30
0.0
 10
195.3934792716104
 20
492.3816450350184
 30
0.0
 10
196.1437652780864
 20
492.3565120906895
 30
0.0
 10
197.2562619199222
 20
492.3145107571869
 30
0.0
 10
197.6249361461185
 20
492.2997932398605
 30
0.0
 10
198.3576272093456
 20
492.2688311806198
 30
0.0
 10
198.7220260932876
 20
492.2525644791438
 30
0.0
 10
200.5154076660053
 20
492.1679641636503
 30
0.0
 10
201.870526019189
 20
492.0893403674509
 30
0.0
 10
203.7692758386244
 20
491.9538660099414
 30
0.0
 10
204.3798984295351
 20
491.9057891262582
 30
0.0
 10
205.2610478826772
 20
491.8291481396496
 30
0.0
 10
205.5487998661549
 20
491.8028519998026
 30
0.0
 10
206.1063026145397
 20
491.7493633594873
 30
0.0
 10
206.3769157123293
 20
491.7220980016701
 30
0.0
 10
207.6907724261369
 20
491.5832441541646
 30
0.0
 10
208.6164747573394
 20
491.4641013845072
 30
0.0
 10
209.8445960784303
 20
491.2744305845881
 30
0.0
 10
210.2285105947934
 20
491.2091098266644
 30
0.0
 10
210.9376720087291
 20
491.0768158472828
 30
0.0
 10
211.2639234018196
 20
491.0097400159444
 30
0.0
 10
212.1694114902274
 20
490.8059268429367
 30
0.0
 10
212.6759271573682
 20
490.6666059492935
 30
0.0
 10
213.5399764740337
 20
490.3820185889372
 30
0.0
 10
213.8972636779472
 20
490.2367524489589
 30
0.0
 10
214.4924319103055
 20
489.941162142747
 30
0.0
 10
214.7286066633692
 20
489.7915898712288
 30
0.0
 10
215.101515298103
 20
489.4906890153785
 30
0.0
 10
215.2381707016551
 20
489.3394774722571
 30
0.0
 10
215.4303086968019
 20
489.0359115603853
 30
0.0
 10
215.4856976376989
 20
488.8835579359835
 30
0.0
 10
215.5175849054155
 20
488.6544112401831
 30
0.0
 10
215.5196485854314
 20
488.5779257575144
 30
0.0
 10
215.5079587800702
 20
488.4247817482051
 30
0.0
 10
215.4941567919312
 20
488.3479510771481
 30
0.0
 10
215.4731166240421
 20
488.2713928052273
 30
0.0
  0
LINE
  5
A0
330
1F
100
AcDbEntity
  8
0
  6
SLD-Durchgehend
 62
     8
370
     0
100
AcDbLine
 10
225.8638489665
 20
511.4821284203
 30
0.0
 11
225.8638117465
 21
511.4820995144
 31
0.0
  0
SPLINE
  5
A1
330
1F
100
AcDbEntity
  8
0
  6
SLD-Durchgehend
 62
     8
370
     0
100
AcDbSpline
210
0.0
220
0.0
230
1.0
 70
    24
 71
     3
 72
     8
 73
     4
 74
     0
 42
0.00000001
 43
0.00000001
 12
1.0
 22
0.0
 32
0.0
 13
1.0
 23
0.0
 33
0.0
 40
0.1697971195247364
 40
0.1697971195247364
 40
0.1697971195247364
 40
0.1697971195247364
 40
0.8078398438209533
 40
0.8078398438209533
 40
0.8078398438209533
 40
0.8078398438209533
 10
170.982371458552
 20
513.8810479225048
 30
0.0
 10
170.982371458552
 20
513.7819078303928
 30
0.0
 10
170.982371458552
 20
513.513780557129
 30
0.0
 10
170.982371458552
 20
513.2065392264632
 30
0.0
  0
LINE
  5
A2
330
1F
100
AcDbEntity
  8
0
  6
SLD-Durchgehend
 62
     8
370
     0
100
AcDbLine
 10
170.9823714586
 20
492.6133074452
 30
0.0
 11
170.9823714586
 21
492.4463689136
 31
0.0
  0
SPLINE
  5
A3
330
1F
100
AcDbEntity
  8
0
  6
SLD-Durchgehend
 62
     8
370
     0
100
AcDbSpline
210
0.0
220
0.0
230
1.0
 70
     8
 71
     3
 72
    46
 73
    42
 74
     0
 42
0.00000001
 43
0.00000001
 12
1.0
 22
0.0
 32
0.0
 13
1.0
 23
0.0
 33
0.0
 40
0.0
 40
0.0
 40
0.0
 40
0.0
 40
0.1250000000000003
 40
0.1250000000000003
 40
0.1875000000000004
 40
0.1875000000000004
 40
0.2187500000000004
 40
0.2187500000000004
 40
0.2500000000000004
 40
0.2500000000000004
 40
0.3125000000000006
 40
0.3125000000000006
 40
0.3437500000000007
 40
0.3437500000000007
 40
0.3593750000000007
 40
0.3593750000000007
 40
0.3750000000000007
 40
0.3750000000000007
 40
0.4375000000000004
 40
0.4375000000000004
 40
0.4687500000000002
 40
0.4687500000000002
 40
0.4843750000000002
 40
0.4843750000000002
 40
0.5000000000000001
 40
0.5000000000000001
 40
0.5625000000000002
 40
0.5625000000000002
 40
0.5937500000000003
 40
0.5937500000000003
 40
0.6250000000000003
 40
0.6250000000000003
 40
0.6875000000000004
 40
0.6875000000000004
 40
0.7500000000000003
 40
0.7500000000000003
 40
0.8125000000000002
 40
0.8125000000000002
 40
0.8750000000000001
 40
0.8750000000000001
 40
1.0
 40
1.0
 40
1.0
 40
1.0
 10
170.982371458552
 20
492.4463689135911
 30
0.0
 10
167.8248998057583
 20
492.4463689135911
 30
0.0
 10
164.6690069932238
 20
492.4436575845806
 30
0.0
 10
159.9459786637322
 20
492.4210251423804
 30
0.0
 10
158.3734738712982
 20
492.4103246405091
 30
0.0
 10
156.0190500401861
 20
492.3868322494882
 30
0.0
 10
155.234968165611
 20
492.377754580113
 30
0.0
 10
153.6685827393417
 20
492.3565453425351
 30
0.0
 10
152.8852580732175
 20
492.3443924812763
 30
0.0
 10
150.5538927188815
 20
492.3026500049579
 30
0.0
 10
149.0206386741234
 20
492.2677858070908
 30
0.0
 10
146.7643815108129
 20
492.2008663794949
 30
0.0
 10
146.0195987141306
 20
492.1761118966969
 30
0.0
 10
144.9152734847661
 20
492.1346730819155
 30
0.0
 10
144.5493096001001
 20
492.1201412792573
 30
0.0
 10
143.8220227865143
 20
492.0895219832084
 30
0.0
 10
143.4601630341654
 20
492.0734055197063
 30
0.0
 10
141.6791499534205
 20
491.9893937257295
 30
0.0
 10
140.3341235584115
 20
491.9107641087872
 30
0.0
 10
138.451817313324
 20
491.7734625684045
 30
0.0
 10
137.846892795334
 20
491.7244732094996
 30
0.0
 10
136.9746678942008
 20
491.6459561486935
 30
0.0
 10
136.6900095943712
 20
491.6189558023289
 30
0.0
 10
136.1388745416015
 20
491.5639275950202
 30
0.0
 10
135.8715281922365
 20
491.5358237248837
 30
0.0
 10
134.5743398723562
 20
491.3924676285936
 30
0.0
 10
133.6630462477549
 20
491.2687110434211
 30
0.0
 10
132.4564956104961
 20
491.0715702063966
 30
0.0
 10
132.0798833942048
 20
491.0036785980345
 30
0.0
 10
131.3852271644914
 20
490.8664055221988
 30
0.0
 10
131.0659696391473
 20
490.7968747031099
 30
0.0
 10
130.1805017470516
 20
490.585978741765
 30
0.0
 10
129.6860310841541
 20
490.4423280947337
 30
0.0
 10
128.8432139209559
 20
490.1503715337347
 30
0.0
 10
128.4950633485691
 20
490.0020212010048
 30
0.0
 10
127.9158501827802
 20
489.701744461388
 30
0.0
 10
127.6874437213266
 20
489.5512156111386
 30
0.0
 10
127.326493133181
 20
489.2495462718739
 30
0.0
 10
127.19410691901
 20
489.0984047753157
 30
0.0
 10
126.915242280649
 20
488.6442255241499
 30
0.0
 10
126.8858509170227
 20
488.3404407088182
 30
0.0
 10
126.9697963025214
 20
488.0359327611996
 30
0.0
  0
SPLINE
  5
A4
330
1F
100
AcDbEntity
  8
0
  6
SLD-Durchgehend
 62
     8
370
     0
100
AcDbSpline
210
0.0
220
0.0
230
1.0
 70
     8
 71
     3
 72
    10
 73
     6
 74
     0
 42
0.00000001
 43
0.00000001
 12
1.0
 22
0.0
 32
0.0
 13
1.0
 23
0.0
 33
0.0
 40
0.0
 40
0.0
 40
0.0
 40
0.0
 40
0.5
 40
0.5
 40
1.0
 40
1.0
 40
1.0
 40
1.0
 10
126.4916335372319
 20
488.271383264043
 30
0.0
 10
126.5479126656929
 20
488.1975280826508
 30
0.0
 10
126.6193240775131
 20
488.1387872247752
 30
0.0
 10
126.7862820844818
 20
488.0565759999063
 30
0.0
 10
126.8751985523871
 20
488.0356908190981
 30
0.0
 10
126.9697963025351
 20
488.0359327611997
 30
0.0
  0
SPLINE
  5
A5
330
1F
100
AcDbEntity
  8
0
  6
SLD-Durchgehend
 62
     8
370
     0
100
AcDbSpline
210
0.0
220
0.0
230
1.0
 70
     8
 71
     3
 72
    10
 73
     6
 74
     0
 42
0.00000001
 43
0.00000001
 12
1.0
 22
0.0
 32
0.0
 13
1.0
 23
0.0
 33
0.0
 40
0.0
 40
0.0
 40
0.0
 40
0.0
 40
0.5
 40
0.5
 40
1.0
 40
1.0
 40
1.0
 40
1.0
 10
215.4731093798721
 20
488.271383264043
 30
0.0
 10
215.4168302514118
 20
488.1975280826535
 30
0.0
 10
215.3454188395919
 20
488.1387872247807
 30
0.0
 10
215.1784608326218
 20
488.0565759999078
 30
0.0
 10
215.0895443647156
 20
488.0356908190977
 30
0.0
 10
214.9949466145665
 20
488.0359327611973
 30
0.0
  0
SPLINE
  5
A6
330
1F
100
AcDbEntity
  8
0
  6
SLD-Durchgehend
 62
     8
370
     0
100
AcDbSpline
210
0.0
220
0.0
230
1.0
 70
     8
 71
     3
 72
    46
 73
    42
 74
     0
 42
0.00000001
 43
0.00000001
 12
1.0
 22
0.0
 32
0.0
 13
1.0
 23
0.0
 33
0.0
 40
0.0
 40
0.0
 40
0.0
 40
0.0
 40
0.1249999999999997
 40
0.1249999999999997
 40
0.1874999999999996
 40
0.1874999999999996
 40
0.2499999999999993
 40
0.2499999999999993
 40
0.3124999999999991
 40
0.3124999999999991
 40
0.3749999999999989
 40
0.3749999999999989
 40
0.4062499999999988
 40
0.4062499999999988
 40
0.4374999999999987
 40
0.4374999999999987
 40
0.4999999999999987
 40
0.4999999999999987
 40
0.5156249999999988
 40
0.5156249999999988
 40
0.5312499999999987
 40
0.5312499999999987
 40
0.5624999999999987
 40
0.5624999999999987
 40
0.6249999999999984
 40
0.6249999999999984
 40
0.6406249999999986
 40
0.6406249999999986
 40
0.6562499999999987
 40
0.6562499999999987
 40
0.6874999999999988
 40
0.6874999999999988
 40
0.749999999999999
 40
0.749999999999999
 40
0.7812499999999992
 40
0.7812499999999992
 40
0.8124999999999993
 40
0.8124999999999993
 40
0.8749999999999997
 40
0.8749999999999997
 40
1.0
 40
1.0
 40
1.0
 40
1.0
 10
214.994946614582
 20
488.0359327611972
 30
0.0
 10
215.0788920000807
 20
488.3404407088159
 30
0.0
 10
215.0495006364557
 20
488.6442255241477
 30
0.0
 10
214.7706359980958
 20
489.0984047753135
 30
0.0
 10
214.638249783925
 20
489.2495462718718
 30
0.0
 10
214.2772991957802
 20
489.5512156111366
 30
0.0
 10
214.0488927343271
 20
489.7017444613861
 30
0.0
 10
213.469679568539
 20
490.0020212010029
 30
0.0
 10
213.1215289961525
 20
490.150371533733
 30
0.0
 10
212.2787118329551
 20
490.4423280947321
 30
0.0
 10
211.784241170058
 20
490.5859787417635
 30
0.0
 10
210.898773277963
 20
490.7968747031085
 30
0.0
 10
210.5795157526192
 20
490.8664055221974
 30
0.0
 10
209.8848595229063
 20
491.0036785980332
 30
0.0
 10
209.5082473066151
 20
491.0715702063953
 30
0.0
 10
208.3016966693569
 20
491.26871104342
 30
0.0
 10
207.390403044756
 20
491.3924676285926
 30
0.0
 10
206.0932147248761
 20
491.5358237248827
 30
0.0
 10
205.8258683755112
 20
491.5639275950193
 30
0.0
 10
205.2747333227417
 20
491.6189558023279
 30
0.0
 10
204.9900750229122
 20
491.6459561486928
 30
0.0
 10
204.1178501217791
 20
491.7244732094988
 30
0.0
 10
203.5129256037891
 20
491.7734625684037
 30
0.0
 10
201.6306193587015
 20
491.9107641087867
 30
0.0
 10
200.2855929636925
 20
491.989393725729
 30
0.0
 10
198.5045798829474
 20
492.0734055197059
 30
0.0
 10
198.1427201305984
 20
492.089521983208
 30
0.0
 10
197.4154333170125
 20
492.120141279257
 30
0.0
 10
197.0494694323464
 20
492.1346730819152
 30
0.0
 10
195.9451442029816
 20
492.1761118966965
 30
0.0
 10
195.2003614062991
 20
492.2008663794947
 30
0.0
 10
192.944104242988
 20
492.2677858070907
 30
0.0
 10
191.4108501982295
 20
492.3026500049577
 30
0.0
 10
189.0794848438927
 20
492.3443924812762
 30
0.0
 10
188.2961601777682
 20
492.356545342535
 30
0.0
 10
186.7297747514984
 20
492.3777545801129
 30
0.0
 10
185.9456928769231
 20
492.3868322494881
 30
0.0
 10
183.5912690458102
 20
492.4103246405091
 30
0.0
 10
182.0187642533757
 20
492.4210251423803
 30
0.0
 10
177.2957359238823
 20
492.4436575845806
 30
0.0
 10
174.1398431113468
 20
492.4463689135911
 30
0.0
 10
170.982371458552
 20
492.4463689135911
 30
0.0
  0
SPLINE
  5
A7
330
1F
100
AcDbEntity
  8
0
  6
SLD-Durchgehend
 62
     8
370
     0
100
AcDbSpline
210
0.0
220
0.0
230
1.0
 70
     8
 71
     3
 72
    10
 73
     6
 74
     0
 42
0.00000001
 43
0.00000001
 12
1.0
 22
0.0
 32
0.0
 13
1.0
 23
0.0
 33
0.0
 40
0.0
 40
0.0
 40
0.0
 40
0.0
 40
0.5
 40
0.5
 40
1.0
 40
1.0
 40
1.0
 40
1.0
 10
126.9697963025214
 20
488.0359327611996
 30
0.0
 10
127.2289808038451
 20
487.0862316320121
 30
0.0
 10
127.4269120161239
 20
486.1363839251477
 30
0.0
 10
127.7337071755974
 20
484.2365594808145
 30
0.0
 10
127.8455226501942
 20
483.2865881539163
 30
0.0
 10
127.9462289181228
 20
482.3366088938311
 30
0.0
  0
SPLINE
  5
A8
330
1F
100
AcDbEntity
  8
0
  6
SLD-Durchgehend
 62
     8
370
     0
100
AcDbSpline
210
0.0
220
0.0
230
1.0
 70
     8
 71
     3
 72
    10
 73
     6
 74
     0
 42
0.00000001
 43
0.00000001
 12
1.0
 22
0.0
 32
0.0
 13
1.0
 23
0.0
 33
0.0
 40
0.0
 40
0.0
 40
0.0
 40
0.0
 40
0.5
 40
0.5
 40
1.0
 40
1.0
 40
1.0
 40
1.0
 10
214.0185139989812
 20
482.3366088938311
 30
0.0
 10
214.1192203233354
 20
483.2865886861878
 30
0.0
 10
214.2310360039531
 20
484.2365614709732
 30
0.0
 10
214.5378312874931
 20
486.1363859536592
 30
0.0
 10
214.7357619979454
 20
487.0862312094811
 30
0.0
 10
214.994946614582
 20
488.0359327611972
 30
0.0
  0
SPLINE
  5
A9
330
1F
100
AcDbEntity
  8
0
  6
SLD-Durchgehend
 62
     8
370
     0
100
AcDbSpline
210
0.0
220
0.0
230
1.0
 70
    24
 71
     3
 72
    22
 73
    18
 74
     0
 42
0.00000001
 43
0.00000001
 12
1.0
 22
0.0
 32
0.0
 13
1.0
 23
0.0
 33
0.0
 40
0.0
 40
0.0
 40
0.0
 40
0.0
 40
0.1250000000000001
 40
0.1250000000000001
 40
0.2500000000000001
 40
0.2500000000000001
 40
0.3750000000000001
 40
0.3750000000000001
 40
0.5
 40
0.5
 40
0.6249999999999999
 40
0.6249999999999999
 40
0.7499999999999999
 40
0.7499999999999999
 40
0.8749999999999999
 40
0.8749999999999999
 40
1.0
 40
1.0
 40
1.0
 40
1.0
 10
206.482371458552
 20
486.92184679958
 30
0.0
 10
206.482371458552
 20
486.92184679958
 30
0.0
 10
206.2535353388323
 20
486.92184679958
 30
0.0
 10
205.3469624869011
 20
486.92184679958
 30
0.0
 10
204.66924817149
 20
486.92184679958
 30
0.0
 10
202.8909415539154
 20
486.92184679958
 30
0.0
 10
201.7903932238875
 20
486.92184679958
 30
0.0
 10
199.2086921666972
 20
486.92184679958
 30
0.0
 10
197.7276032771809
 20
486.92184679958
 30
0.0
 10
194.4417211041679
 20
486.92184679958
 30
0.0
 10
192.6370090705832
 20
486.92184679958
 30
0.0
 10
188.7732203909125
 20
486.92184679958
 30
0.0
 10
186.7142392846158
 20
486.92184679958
 30
0.0
 10
182.4210273304095
 20
486.92184679958
 30
0.0
 10
180.1869026406258
 20
486.92184679958
 30
0.0
 10
175.6292531396231
 20
486.92184679958
 30
0.0
 10
173.3058410252694
 20
486.92184679958
 30
0.0
 10
170.9823714585519
 20
486.92184679958
 30
0.0
  0
SPLINE
  5
AA
330
1F
100
AcDbEntity
  8
0
  6
SLD-Durchgehend
 62
     8
370
     0
100
AcDbSpline
210
0.0
220
0.0
230
1.0
 70
     8
 71
     3
 72
    11
 73
     7
 74
     0
 42
0.00000001
 43
0.00000001
 12
1.0
 22
0.0
 32
0.0
 13
1.0
 23
0.0
 33
0.0
 40
0.0
 40
0.0
 40
0.0
 40
0.0
 40
0.2483338475133763
 40
0.4977945673939344
 40
0.748358568791342
 40
1.0
 40
1.0
 40
1.0
 40
1.0
 10
170.9826295319014
 20
491.4781433359385
 30
0.0
 10
170.9825746653652
 20
491.1009939791895
 30
0.0
 10
170.9824646833233
 20
490.344983863107
 30
0.0
 10
170.9823945457925
 20
489.2083932884951
 30
0.0
 10
170.9823662512561
 20
488.0667768245358
 30
0.0
 10
170.9823697203058
 20
487.3040356020321
 30
0.0
 10
170.9823714585519
 20
486.92184679958
 30
0.0
  0
SPLINE
  5
AB
330
1F
100
AcDbEntity
  8
0
  6
SLD-Durchgehend
 62
     8
370
     0
100
AcDbSpline
210
0.0
220
0.0
230
1.0
 70
    24
 71
     3
 72
    31
 73
    27
 74
     0
 42
0.00000001
 43
0.00000001
 12
1.0
 22
0.0
 32
0.0
 13
1.0
 23
0.0
 33
0.0
 40
0.0
 40
0.0
 40
0.0
 40
0.0
 40
0.0009765625
 40
0.0009765625
 40
0.001953125
 40
0.00390625
 40
0.0078125
 40
0.015625
 40
0.03125
 40
0.0625000000000001
 40
0.0625000000000001
 40
0.1250000000000001
 40
0.1250000000000001
 40
0.2500000000000001
 40
0.2500000000000001
 40
0.3750000000000001
 40
0.3750000000000001
 40
0.5000000000000001
 40
0.5000000000000001
 40
0.6250000000000001
 40
0.6250000000000001
 40
0.7500000000000001
 40
0.7500000000000001
 40
0.8750000000000001
 40
0.8750000000000001
 40
1.0
 40
1.0
 40
1.0
 40
1.0
 10
170.9823714585522
 20
486.92184679958
 30
0.0
 10
170.9660089968147
 20
486.92184679958
 30
0.0
 10
170.9460569148602
 20
486.92184679958
 30
0.0
 10
170.9097428072711
 20
486.92184679958
 30
0.0
 10
170.8552721012218
 20
486.92184679958
 30
0.0
 10
170.7281773782624
 20
486.92184679958
 30
0.0
 10
170.4740055265747
 20
486.92184679958
 30
0.0
 10
169.9657580244443
 20
486.92184679958
 30
0.0
 10
168.9498542686401
 20
486.92184679958
 30
0.0
 10
168.0807997625057
 20
486.92184679958
 30
0.0
 10
166.3468662070501
 20
486.92184679958
 30
0.0
 10
165.1964737166344
 20
486.92184679958
 30
0.0
 10
161.7771077058808
 20
486.92184679958
 30
0.0
 10
159.5443413764361
 20
486.92184679958
 30
0.0
 10
155.2498207530867
 20
486.92184679958
 30
0.0
 10
153.192103053064
 20
486.92184679958
 30
0.0
 10
149.3270914093365
 20
486.92184679958
 30
0.0
 10
147.5234875594332
 20
486.92184679958
 30
0.0
 10
144.2365828102176
 20
486.92184679958
 30
0.0
 10
142.7563931288078
 20
486.92184679958
 30
0.0
 10
140.1738808317135
 20
486.92184679958
 30
0.0
 10
139.0740243689821
 20
486.92184679958
 30
0.0
 10
137.2951635767207
 20
486.92184679958
 30
0.0
 10
136.6178302987386
 20
486.92184679958
 30
0.0
 10
135.7109940138483
 20
486.92184679958
 30
0.0
 10
135.4823714585521
 20
486.92184679958
 30
0.0
 10
135.482371458552
 20
486.92184679958
 30
0.0
  0
LINE
  5
AC
330
1F
100
AcDbEntity
  8
0
  6
SLD-Durchgehend
 62
     8
370
     0
100
AcDbLine
 10
206.4823714586
 20
414.9218467996
 30
0.0
 11
135.4823714586
 21
414.9218467996
 31
0.0
  0
SPLINE
  5
AD
330
1F
100
AcDbEntity
  8
0
  6
SLD-Durchgehend
 62
     8
370
     0
100
AcDbSpline
210
0.0
220
0.0
230
1.0
 70
     8
 71
     3
 72
    10
 73
     6
 74
     0
 42
0.00000001
 43
0.00000001
 12
1.0
 22
0.0
 32
0.0
 13
1.0
 23
0.0
 33
0.0
 40
0.0
 40
0.0
 40
0.0
 40
0.0
 40
0.5
 40
0.5
 40
1.0
 40
1.0
 40
1.0
 40
1.0
 10
127.4460123879546
 20
482.6060910656857
 30
0.0
 10
127.352741096313
 20
483.5443612897164
 30
0.0
 10
127.2469937753965
 20
484.4854283522221
 30
0.0
 10
126.9480001729637
 20
486.3736582053069
 30
0.0
 10
126.7519083749706
 20
487.3206546274795
 30
0.0
 10
126.4916335520348
 20
488.2713832099715
 30
0.0
  0
SPLINE
  5
AE
330
1F
100
AcDbEntity
  8
0
  6
SLD-Durchgehend
 62
     8
370
     0
100
AcDbSpline
210
0.0
220
0.0
230
1.0
 70
     8
 71
     3
 72
    10
 73
     6
 74
     0
 42
0.00000001
 43
0.00000001
 12
1.0
 22
0.0
 32
0.0
 13
1.0
 23
0.0
 33
0.0
 40
0.0
 40
0.0
 40
0.0
 40
0.0
 40
0.5
 40
0.5
 40
1.0
 40
1.0
 40
1.0
 40
1.0
 10
215.4731093650693
 20
488.2713832099715
 30
0.0
 10
215.2128339576064
 20
487.3206524958812
 30
0.0
 10
215.016742983008
 20
486.3736594401043
 30
0.0
 10
214.7177493504747
 20
484.4854299443653
 30
0.0
 10
214.6120018509788
 20
483.5443615933924
 30
0.0
 10
214.5187305291495
 20
482.606091065686
 30
0.0
  0
ARC
  5
AF
330
1F
100
AcDbEntity
  8
0
  6
SLD-Durchgehend
 62
     8
370
     0
100
AcDbCircle
 10
117.692738979
 20
511.6434643322
 30
0.0
 40
1.599993249773143
100
AcDbArc
 50
101.1709496339
 51
147.4305646757
  0
SPLINE
  5
B0
330
1F
100
AcDbEntity
  8
0
  6
SLD-Durchgehend
 62
     8
370
     0
100
AcDbSpline
210
0.0
220
0.0
230
1.0
 70
     8
 71
     3
 72
     8
 73
     4
 74
     0
 42
0.00000001
 43
0.00000001
 12
1.0
 22
0.0
 32
0.0
 13
1.0
 23
0.0
 33
0.0
 40
0.0
 40
0.0
 40
0.0
 40
0.0
 40
1.0
 40
1.0
 40
1.0
 40
1.0
 10
116.1008937884524
 20
511.4821300199576
 30
0.0
 10
116.0648936208019
 20
511.8373489840784
 30
0.0
 10
116.1521552772139
 20
512.2038850449057
 30
0.0
 10
116.3443575120866
 20
512.5047763441097
 30
0.0
  0
SPLINE
  5
B1
330
1F
100
AcDbEntity
  8
0
  6
SLD-Durchgehend
 62
     8
370
     0
100
AcDbSpline
210
0.0
220
0.0
230
1.0
 70
     8
 71
     3
 72
    10
 73
     6
 74
     0
 42
0.00000001
 43
0.00000001
 12
1.0
 22
0.0
 32
0.0
 13
1.0
 23
0.0
 33
0.0
 40
0.0
 40
0.0
 40
0.0
 40
0.0
 40
0.3786940218033567
 40
0.7670157669284627
 40
1.0
 40
1.0
 40
1.0
 40
1.0
 10
116.1008937884524
 20
511.4821300199576
 30
0.0
 10
116.0904008026359
 20
511.491424437097
 30
0.0
 10
116.0691480626929
 20
511.510249567888
 30
0.0
 10
116.0617555192602
 20
511.5174567212712
 30
0.0
 10
116.0618780609279
 20
511.5174096976193
 30
0.0
 10
116.0619240129668
 20
511.5173920641667
 30
0.0
  0
ARC
  5
B2
330
1F
100
AcDbEntity
  8
0
  6
SLD-Durchgehend
 62
     8
370
     0
100
AcDbCircle
 10
224.2720073707
 20
511.6434639888
 30
0.0
 40
1.599996509996887
100
AcDbArc
 50
354.2127473581
 51
78.8290387432
  0
SPLINE
  5
B3
330
1F
100
AcDbEntity
  8
0
  6
SLD-Durchgehend
 62
     8
370
     0
100
AcDbSpline
210
0.0
220
0.0
230
1.0
 70
     8
 71
     3
 72
    10
 73
     6
 74
     0
 42
0.00000001
 43
0.00000001
 12
1.0
 22
0.0
 32
0.0
 13
1.0
 23
0.0
 33
0.0
 40
0.0
 40
0.0
 40
0.0
 40
0.0
 40
0.2334507952279675
 40
0.621536331087755
 40
0.9999999999999999
 40
0.9999999999999999
 40
0.9999999999999999
 40
0.9999999999999999
 10
225.9031489796502
 20
511.5177036738271
 30
0.0
 10
225.9030634840586
 20
511.5175972432073
 30
0.0
 10
225.9028358617183
 20
511.5173138837231
 30
0.0
 10
225.8956403011378
 20
511.5102924482135
 30
0.0
 10
225.8743571360764
 20
511.4914386104269
 30
0.0
 10
225.8638491286517
 20
511.4821300199576
 30
0.0
  0
SPLINE
  5
B4
330
1F
100
AcDbEntity
  8
0
  6
SLD-Durchgehend
 62
     7
370
    15
100
AcDbSpline
210
0.0
220
0.0
230
1.0
 70
     8
 71
     3
 72
     9
 73
     5
 74
     0
 42
0.00000001
 43
0.00000001
 12
1.0
 22
0.0
 32
0.0
 13
1.0
 23
0.0
 33
0.0
 40
0.0
 40
0.0
 40
0.0
 40
0.0
 40
0.4737804769875756
 40
1.0
 40
1.0
 40
1.0
 40
1.0
 10
494.120032956747
 20
513.2006358407656
 30
0.0
 10
493.2548454380556
 20
513.3678285400794
 30
0.0
 10
491.4287095782738
 20
513.7207191876146
 30
0.0
 10
489.3310236078929
 20
513.818811077907
 30
0.0
 10
488.2271802971291
 20
513.8704289456281
 30
0.0
  0
LINE
  5
B5
330
1F
100
AcDbEntity
  8
0
  6
SLD-Durchgehend
 62
     7
370
    15
100
AcDbLine
 10
476.4668424431
 20
414.9218467996
 30
0.0
 11
476.4668424431
 21
486.9957370409
 31
0.0
  0
LINE
  5
B6
330
1F
100
AcDbEntity
  8
0
  6
SLD-Durchgehend
 62
     7
370
    15
100
AcDbLine
 10
405.4668424431
 20
484.5884271005
 30
0.0
 11
405.4668424431
 21
414.9218467996
 31
0.0
  0
SPLINE
  5
B7
330
1F
100
AcDbEntity
  8
0
  6
SLD-Durchgehend
 62
     7
370
    15
100
AcDbSpline
210
0.0
220
0.0
230
1.0
 70
     8
 71
     3
 72
    17
 73
    13
 74
     0
 42
0.00000001
 43
0.00000001
 12
1.0
 22
0.0
 32
0.0
 13
1.0
 23
0.0
 33
0.0
 40
0.0
 40
0.0
 40
0.0
 40
0.0
 40
0.1227299661200632
 40
0.2485720543254503
 40
0.3741406599941636
 40
0.4370387633262465
 40
0.4999999999999965
 40
0.5629612366737464
 40
0.62585934000583
 40
0.7514279456745446
 40
0.8772700338799345
 40
1.0
 40
1.0
 40
1.0
 40
1.0
 10
454.9668424431279
 20
393.4218467995799
 30
0.0
 10
456.4332100178387
 20
393.4237646079457
 30
0.0
 10
459.403128546827
 20
393.4276488554555
 30
0.0
 10
463.861034454537
 20
393.9144553715686
 30
0.0
 10
467.4757939894621
 20
395.0865713829855
 30
0.0
 10
470.0668695699838
 20
396.6285223350233
 30
0.0
 10
471.7995878943749
 20
398.0891013483328
 30
0.0
 10
473.2601669076844
 20
399.8218196727239
 30
0.0
 10
474.8021178597222
 20
402.4128952532455
 30
0.0
 10
475.9742338711392
 20
406.0276547881708
 30
0.0
 10
476.4610403872525
 20
410.4855606958808
 30
0.0
 10
476.4649246347622
 20
413.4554792248692
 30
0.0
 10
476.4668424431279
 20
414.92184679958
 30
0.0
  0
SPLINE
  5
B8
330
1F
100
AcDbEntity
  8
0
  6
SLD-Durchgehend
 62
     7
370
    15
100
AcDbSpline
210
0.0
220
0.0
230
1.0
 70
     8
 71
     3
 72
    17
 73
    13
 74
     0
 42
0.00000001
 43
0.00000001
 12
1.0
 22
0.0
 32
0.0
 13
1.0
 23
0.0
 33
0.0
 40
0.0
 40
0.0
 40
0.0
 40
0.0
 40
0.1227299661200655
 40
0.2485720543254555
 40
0.3741406599941701
 40
0.4370387633262537
 40
0.5000000000000036
 40
0.5629612366737535
 40
0.6258593400058365
 40
0.7514279456745498
 40
0.8772700338799369
 40
1.0
 40
1.0
 40
1.0
 40
1.0
 10
405.4668424431279
 20
414.92184679958
 30
0.0
 10
405.4687602514937
 20
413.4554792248691
 30
0.0
 10
405.4726444990034
 20
410.4855606958808
 30
0.0
 10
405.9594510151167
 20
406.0276547881707
 30
0.0
 10
407.1315670265337
 20
402.4128952532456
 30
0.0
 10
408.6735179785715
 20
399.8218196727239
 30
0.0
 10
410.1340969918811
 20
398.0891013483329
 30
0.0
 10
411.8668153162721
 20
396.6285223350233
 30
0.0
 10
414.4578908967937
 20
395.0865713829856
 30
0.0
 10
418.0726504317189
 20
393.9144553715686
 30
0.0
 10
422.5305563394289
 20
393.4276488554555
 30
0.0
 10
425.5004748684172
 20
393.4237646079457
 30
0.0
 10
426.9668424431279
 20
393.4218467995799
 30
0.0
  0
LINE
  5
B9
330
1F
100
AcDbEntity
  8
0
  6
SLD-Durchgehend
 62
     7
370
    15
100
AcDbLine
 10
432.9668424431
 20
759.9218467996
 30
0.0
 11
432.9668424431
 21
758.4718467996
 31
0.0
  0
LINE
  5
BA
330
1F
100
AcDbEntity
  8
0
  6
SLD-Durchgehend
 62
     7
370
    15
100
AcDbLine
 10
448.9668424431
 20
758.4718467996
 30
0.0
 11
448.9668424431
 21
759.9218467996
 31
0.0
  0
LINE
  5
BB
330
1F
100
AcDbEntity
  8
0
  6
SLD-Durchgehend
 62
     7
370
    15
100
AcDbLine
 10
432.9668424431
 20
758.4718467996
 30
0.0
 11
433.0168424431
 21
758.4218467996
 31
0.0
  0
LINE
  5
BC
330
1F
100
AcDbEntity
  8
0
  6
SLD-Durchgehend
 62
     7
370
    15
100
AcDbLine
 10
448.9168424431
 20
758.4218467996
 30
0.0
 11
448.9668424431
 21
758.4718467996
 31
0.0
  0
LINE
  5
BD
330
1F
100
AcDbEntity
  8
0
  6
SLD-Durchgehend
 62
     7
370
    15
100
AcDbLine
 10
448.9668424431
 20
758.3718467996
 30
0.0
 11
448.9168424431
 21
758.4218467996
 31
0.0
  0
LINE
  5
BE
330
1F
100
AcDbEntity
  8
0
  6
SLD-Durchgehend
 62
     7
370
    15
100
AcDbLine
 10
433.0168424431
 20
758.4218467996
 30
0.0
 11
432.9668424431
 21
758.3718467996
 31
0.0
  0
LINE
  5
BF
330
1F
100
AcDbEntity
  8
0
  6
SLD-Durchgehend
 62
     7
370
    15
100
AcDbLine
 10
432.9668424431
 20
758.3718467996
 30
0.0
 11
432.9668424431
 21
513.8917695614
 31
0.0
  0
LINE
  5
C0
330
1F
100
AcDbEntity
  8
0
  6
SLD-Durchgehend
 62
     7
370
    15
100
AcDbLine
 10
448.9668424431
 20
513.8827293667
 30
0.0
 11
448.9668424431
 21
758.3718467996
 31
0.0
  0
SPLINE
  5
C1
330
1F
100
AcDbEntity
  8
0
  6
SLD-Durchgehend
 62
     7
370
    15
100
AcDbSpline
210
0.0
220
0.0
230
1.0
 70
     8
 71
     3
 72
     9
 73
     5
 74
     0
 42
0.00000001
 43
0.00000001
 12
1.0
 22
0.0
 32
0.0
 13
1.0
 23
0.0
 33
0.0
 40
0.0
 40
0.0
 40
0.0
 40
0.0
 40
0.3298732536781545
 40
0.9999999999999999
 40
0.9999999999999999
 40
0.9999999999999999
 40
0.9999999999999999
 10
494.0517651140568
 20
513.212540449193
 30
0.0
 10
494.1849318822418
 20
513.2116302350257
 30
0.0
 10
494.5886225928411
 20
513.2088709504909
 30
0.0
 10
494.5953486261312
 20
513.2074748145192
 30
0.0
 10
494.5998559209355
 20
513.2065392264632
 30
0.0
  0
SPLINE
  5
C2
330
1F
100
AcDbEntity
  8
0
  6
SLD-Durchgehend
 62
     7
370
    15
100
AcDbSpline
210
0.0
220
0.0
230
1.0
 70
     8
 71
     3
 72
    14
 73
    10
 74
     0
 42
0.00000001
 43
0.00000001
 12
1.0
 22
0.0
 32
0.0
 13
1.0
 23
0.0
 33
0.0
 40
0.0
 40
0.0
 40
0.0
 40
0.0
 40
0.25
 40
0.25
 40
0.5
 40
0.5
 40
0.75
 40
0.75
 40
1.0
 40
1.0
 40
1.0
 40
1.0
 10
494.5998559209356
 20
513.2065392264632
 30
0.0
 10
494.7917144918394
 20
513.1685151728016
 30
0.0
 10
494.9723406565466
 20
513.0967652520263
 30
0.0
 10
495.3026047533938
 20
512.8901235581974
 30
0.0
 10
495.446891363209
 20
512.7580134669283
 30
0.0
 10
495.681357966131
 20
512.4485361562516
 30
0.0
 10
495.7695123168845
 20
512.2739634835677
 30
0.0
 10
495.8792294142495
 20
511.8991405777512
 30
0.0
 10
495.8992108829211
 20
511.706011016987
 30
0.0
 10
495.8838523517231
 20
511.5112699387525
 30
0.0
  0
SPLINE
  5
C3
330
1F
100
AcDbEntity
  8
0
  6
SLD-Durchgehend
 62
     7
370
    15
100
AcDbSpline
210
0.0
220
0.0
230
1.0
 70
    24
 71
     3
 72
    12
 73
     8
 74
     0
 42
0.00000001
 43
0.00000001
 12
1.0
 22
0.0
 32
0.0
 13
1.0
 23
0.0
 33
0.0
 40
0.0
 40
0.0
 40
0.0
 40
0.0
 40
0.2500000000000013
 40
0.2500000000000013
 40
0.5000000000000027
 40
0.5000000000000027
 40
1.0
 40
1.0
 40
1.0
 40
1.0
 10
382.2559632993311
 20
511.5154594318839
 30
0.0
 10
382.2559632993311
 20
511.7101596007228
 30
0.0
 10
382.2559632993311
 20
511.9029007949324
 30
0.0
 10
382.2559632993311
 20
512.2753677320516
 30
0.0
 10
382.2559632993311
 20
512.4490998769115
 30
0.0
 10
382.2559632993311
 20
512.9105235374174
 30
0.0
 10
382.2559632993311
 20
513.1262726934543
 30
0.0
 10
382.2559632993311
 20
513.2004991325751
 30
0.0
  0
SPLINE
  5
C4
330
1F
100
AcDbEntity
  8
0
  6
SLD-Durchgehend
 62
     7
370
    15
100
AcDbSpline
210
0.0
220
0.0
230
1.0
 70
    24
 71
     3
 72
    18
 73
    14
 74
     0
 42
0.00000001
 43
0.00000001
 12
1.0
 22
0.0
 32
0.0
 13
1.0
 23
0.0
 33
0.0
 40
0.0
 40
0.0
 40
0.0
 40
0.0
 40
0.2499999999999997
 40
0.2499999999999997
 40
0.3749999999999995
 40
0.3749999999999995
 40
0.4999999999999993
 40
0.4999999999999993
 40
0.6249999999999994
 40
0.6249999999999994
 40
0.7499999999999997
 40
0.7499999999999997
 40
1.0
 40
1.0
 40
1.0
 40
1.0
 10
382.2559632993311
 20
511.5154594318839
 30
0.0
 10
382.2559632993311
 20
508.8912515394708
 30
0.0
 10
382.2559632993311
 20
506.2993326080395
 30
0.0
 10
382.2559632993311
 20
502.465833530773
 30
0.0
 10
382.2559632993311
 20
501.1996640264901
 30
0.0
 10
382.2559632993312
 20
498.7098076092486
 30
0.0
 10
382.2559632993311
 20
497.4832071071766
 30
0.0
 10
382.2559632993311
 20
495.0636530652361
 30
0.0
 10
382.2559632993312
 20
493.8718829834189
 30
0.0
 10
382.2559632993311
 20
491.5357719099447
 30
0.0
 10
382.2559632993311
 20
490.3886541277448
 30
0.0
 10
382.2559632993311
 20
486.9939362259408
 30
0.0
 10
382.2559632993312
 20
484.7931323402503
 30
0.0
 10
382.2559632993311
 20
482.6060910656857
 30
0.0
  0
SPLINE
  5
C5
330
1F
100
AcDbEntity
  8
0
  6
SLD-Durchgehend
 62
     7
370
    15
100
AcDbSpline
210
0.0
220
0.0
230
1.0
 70
     8
 71
     3
 72
     9
 73
     5
 74
     0
 42
0.00000001
 43
0.00000001
 12
1.0
 22
0.0
 32
0.0
 13
1.0
 23
0.0
 33
0.0
 40
0.0570411366458443
 40
0.0570411366458443
 40
0.0570411366458443
 40
0.0570411366458443
 40
0.5
 40
0.9401470787810181
 40
0.9401470787810181
 40
0.9401470787810181
 40
0.9401470787810181
 10
495.8838523517243
 20
511.5112699387681
 30
0.0
 10
495.5987082457879
 20
507.8957373122913
 30
0.0
 10
493.9329672961744
 20
501.235822115803
 30
0.0
 10
489.6824081150112
 20
495.3917588148028
 30
0.0
 10
486.8237426138608
 20
492.6133074452432
 30
0.0
  0
SPLINE
  5
C6
330
1F
100
AcDbEntity
  8
0
  6
SLD-Durchgehend
 62
     7
370
    15
100
AcDbSpline
210
0.0
220
0.0
230
1.0
 70
     8
 71
     3
 72
    20
 73
    16
 74
     0
 42
0.00000001
 43
0.00000001
 12
1.0
 22
0.0
 32
0.0
 13
1.0
 23
0.0
 33
0.0
 40
0.0
 40
0.0
 40
0.0
 40
0.0
 40
0.2499999999999999
 40
0.2499999999999999
 40
0.4999999999999999
 40
0.4999999999999999
 40
0.7499999999999998
 40
0.7499999999999998
 40
0.8749999999999996
 40
0.8749999999999996
 40
0.9374999999999997
 40
0.9374999999999997
 40
0.9687499999999998
 40
0.9687499999999998
 40
1.0
 40
1.0
 40
1.0
 40
1.0
 10
440.966779697607
 20
513.881047919741
 30
0.0
 10
439.0533216225444
 20
513.8809636530625
 30
0.0
 10
437.1424585525907
 20
513.8822460693493
 30
0.0
 10
433.3292635039134
 20
513.8875422674053
 30
0.0
 10
431.426558402622
 20
513.8915766776823
 30
0.0
 10
427.6310138674016
 20
513.9013340356349
 30
0.0
 10
425.7381544399623
 20
513.9071181878985
 30
0.0
 10
422.9092527059152
 20
513.9147671124691
 30
0.0
 10
421.9680297311257
 20
513.9171233240701
 30
0.0
 10
420.559365859809
 20
513.9197761291977
 30
0.0
 10
420.0903412178117
 20
513.9205109394343
 30
0.0
 10
419.3876857465976
 20
513.9212873621514
 30
0.0
 10
419.1536143186362
 20
513.9214916525759
 30
0.0
 10
418.6857817900014
 20
513.9217713701843
 30
0.0
 10
418.4507497843231
 20
513.92184679958
 30
0.0
 10
418.2184232308082
 20
513.92184679958
 30
0.0
  0
LINE
  5
C7
330
1F
100
AcDbEntity
  8
0
  6
SLD-Durchgehend
 62
     7
370
    15
100
AcDbLine
 10
382.2559632993
 20
513.9218467996
 30
0.0
 11
418.2184232308
 21
513.9218467996
 31
0.0
  0
LINE
  5
C8
330
1F
100
AcDbEntity
  8
0
  6
SLD-Durchgehend
 62
     7
370
    15
100
AcDbLine
 10
440.9668424431
 20
513.8810479225
 30
0.0
 11
440.9667796976
 21
513.8810479197
 31
0.0
  0
SPLINE
  5
C9
330
1F
100
AcDbEntity
  8
0
  6
SLD-Durchgehend
 62
     7
370
    15
100
AcDbSpline
210
0.0
220
0.0
230
1.0
 70
    24
 71
     3
 72
    12
 73
     8
 74
     0
 42
0.00000001
 43
0.00000001
 12
1.0
 22
0.0
 32
0.0
 13
1.0
 23
0.0
 33
0.0
 40
0.0
 40
0.0
 40
0.0
 40
0.0
 40
0.25
 40
0.25
 40
0.5
 40
0.5
 40
1.0
 40
1.0
 40
1.0
 40
1.0
 10
382.2559632993311
 20
513.2004991325751
 30
0.0
 10
382.2559632993311
 20
513.328485571819
 30
0.0
 10
382.2559632993311
 20
513.4432690097665
 30
0.0
 10
382.2559632993311
 20
513.6325903727384
 30
0.0
 10
382.2559632993311
 20
513.707683546708
 30
0.0
 10
382.2559632993311
 20
513.8788611589401
 30
0.0
 10
382.2559632993311
 20
513.92184679958
 30
0.0
 10
382.2559632993311
 20
513.92184679958
 30
0.0
  0
SPLINE
  5
CA
330
1F
100
AcDbEntity
  8
0
  6
SLD-Durchgehend
 62
     7
370
    15
100
AcDbSpline
210
0.0
220
0.0
230
1.0
 70
     8
 71
     3
 72
    47
 73
    43
 74
     0
 42
0.00000001
 43
0.00000001
 12
1.0
 22
0.0
 32
0.0
 13
1.0
 23
0.0
 33
0.0
 40
0.0
 40
0.0
 40
0.0
 40
0.0
 40
0.1250000000000009
 40
0.1250000000000009
 40
0.1875000000000013
 40
0.1875000000000013
 40
0.2187500000000015
 40
0.2187500000000015
 40
0.2500000000000016
 40
0.2500000000000016
 40
0.3125000000000021
 40
0.3125000000000021
 40
0.3750000000000024
 40
0.3750000000000024
 40
0.3906250000000026
 40
0.3906250000000026
 40
0.4062500000000027
 40
0.4062500000000027
 40
0.4375000000000027
 40
0.4375000000000027
 40
0.5000000000000027
 40
0.5000000000000027
 40
0.5156250000000026
 40
0.5156250000000026
 40
0.5312500000000024
 40
0.5312500000000024
 40
0.5625000000000021
 40
0.5937500000000018
 40
0.5937500000000018
 40
0.6250000000000017
 40
0.6250000000000017
 40
0.6875000000000013
 40
0.6875000000000013
 40
0.7500000000000009
 40
0.7500000000000009
 40
0.7812500000000008
 40
0.7812500000000008
 40
0.8125000000000007
 40
0.8125000000000007
 40
0.8750000000000004
 40
0.8750000000000004
 40
1.0
 40
1.0
 40
1.0
 40
1.0
 10
488.7753851797191
 20
513.8810479225048
 30
0.0
 10
488.7751973280683
 20
513.881195387725
 30
0.0
 10
488.6767398129274
 20
513.8815505708093
 30
0.0
 10
488.3205563894851
 20
513.8835331921589
 30
0.0
 10
488.1667665192714
 20
513.8843798217684
 30
0.0
 10
487.8660732126825
 20
513.8858301005888
 30
0.0
 10
487.754085810651
 20
513.8863429715005
 30
0.0
 10
487.502489049795
 20
513.8874122613827
 30
0.0
 10
487.3626535965655
 20
513.8879694547325
 30
0.0
 10
486.8962228729999
 20
513.8896813519489
 30
0.0
 10
486.5230852396415
 20
513.8908979921533
 30
0.0
 10
485.605873429769
 20
513.893238026699
 30
0.0
 10
485.0623661757678
 20
513.8943416931061
 30
0.0
 10
484.2335817302205
 20
513.8955038904256
 30
0.0
 10
484.0602759309037
 20
513.8957259024339
 30
0.0
 10
483.6971191890396
 20
513.8961475936459
 30
0.0
 10
483.5068516606357
 20
513.8963474338841
 30
0.0
 10
482.9144786620614
 20
513.8969094491964
 30
0.0
 10
482.4897430656094
 20
513.8972369401206
 30
0.0
 10
481.1189568686029
 20
513.8980725877933
 30
0.0
 10
480.0762983805758
 20
513.8984499095255
 30
0.0
 10
478.5886134894647
 20
513.8984564340645
 30
0.0
 10
478.2814527682891
 20
513.8984327127263
 30
0.0
 10
477.6563138798439
 20
513.8983444934082
 30
0.0
 10
477.3374613395883
 20
513.8982800652872
 30
0.0
 10
476.362774106878
 20
513.8980368336133
 30
0.0
 10
475.0148515065631
 20
513.8975812383406
 30
0.0
 10
473.5777861829241
 20
513.8969312471014
 30
0.0
 10
472.0998300923806
 20
513.8961889908859
 30
0.0
 10
471.3372870973984
 20
513.8957672122376
 30
0.0
 10
469.0241550182693
 20
513.8943723790338
 30
0.0
 10
467.445800406283
 20
513.8932671234609
 30
0.0
 10
464.2378336961499
 20
513.8909219881853
 30
0.0
 10
462.6080437122374
 20
513.8897016406212
 30
0.0
 10
460.1352900961273
 20
513.8879852970465
 30
0.0
 10
459.3066565401316
 20
513.8874271738181
 30
0.0
 10
457.6495807955912
 20
513.886355927769
 30
0.0
 10
456.8200079017407
 20
513.8858420554916
 30
0.0
 10
454.328646484556
 20
513.8843887526392
 30
0.0
 10
452.6642415931982
 20
513.8835400434074
 30
0.0
 10
447.6631479522818
 20
513.8815521870571
 30
0.0
 10
444.3186743299866
 20
513.8811955846461
 30
0.0
 10
440.966842443128
 20
513.8810479225048
 30
0.0
  0
SPLINE
  5
CB
330
1F
100
AcDbEntity
  8
0
  6
SLD-Durchgehend
 62
     7
370
    15
100
AcDbSpline
210
0.0
220
0.0
230
1.0
 70
     8
 71
     3
 72
     8
 73
     4
 74
     0
 42
0.00000001
 43
0.00000001
 12
1.0
 22
0.0
 32
0.0
 13
1.0
 23
0.0
 33
0.0
 40
0.1697971195247364
 40
0.1697971195247364
 40
0.1697971195247364
 40
0.1697971195247364
 40
0.8078398438209533
 40
0.8078398438209533
 40
0.8078398438209533
 40
0.8078398438209533
 10
488.7753851797191
 20
513.8810479225048
 30
0.0
 10
491.3136477232451
 20
513.7819078303928
 30
0.0
 10
493.0496034636672
 20
513.513780557129
 30
0.0
 10
494.5998559209356
 20
513.2065392264632
 30
0.0
  0
LINE
  5
CC
330
1F
100
AcDbEntity
  8
0
  6
SLD-Durchgehend
 62
     7
370
    15
100
AcDbLine
 10
440.2847194357
 20
513.8815331562
 30
0.0
 11
440.9668424431
 21
513.8814018804
 31
0.0
  0
ARC
  5
CD
330
1F
100
AcDbEntity
  8
0
  6
SLD-Durchgehend
 62
     7
370
    15
100
AcDbCircle
 10
486.4055580046
 20
493.0435650804
 30
0.0
 40
0.5999999999999921
100
AcDbArc
 50
275.5412451251
 51
314.1847568284
  0
SPLINE
  5
CE
330
1F
100
AcDbEntity
  8
0
  6
SLD-Durchgehend
 62
     7
370
    15
100
AcDbSpline
210
0.0
220
0.0
230
1.0
 70
    24
 71
     3
 72
    46
 73
    42
 74
     0
 42
0.00000001
 43
0.00000001
 12
1.0
 22
0.0
 32
0.0
 13
1.0
 23
0.0
 33
0.0
 40
0.0
 40
0.0
 40
0.0
 40
0.0
 40
0.1250000000000003
 40
0.1250000000000003
 40
0.1875000000000004
 40
0.1875000000000004
 40
0.2187500000000004
 40
0.2187500000000004
 40
0.2500000000000004
 40
0.2500000000000004
 40
0.3125000000000006
 40
0.3125000000000006
 40
0.3437500000000007
 40
0.3437500000000007
 40
0.3593750000000007
 40
0.3593750000000007
 40
0.3750000000000007
 40
0.3750000000000007
 40
0.4375000000000004
 40
0.4375000000000004
 40
0.4687500000000002
 40
0.4687500000000002
 40
0.4843750000000002
 40
0.4843750000000002
 40
0.5000000000000001
 40
0.5000000000000001
 40
0.5625000000000002
 40
0.5625000000000002
 40
0.5937500000000003
 40
0.5937500000000003
 40
0.6250000000000003
 40
0.6250000000000003
 40
0.6875000000000004
 40
0.6875000000000004
 40
0.7500000000000003
 40
0.7500000000000003
 40
0.8125000000000002
 40
0.8125000000000002
 40
0.8750000000000001
 40
0.8750000000000001
 40
1.0
 40
1.0
 40
1.0
 40
1.0
 10
486.4634953706594
 20
492.4463689135911
 30
0.0
 10
486.4634953706594
 20
492.4463689135911
 30
0.0
 10
486.435548030242
 20
492.4436575845806
 30
0.0
 10
486.2022614891341
 20
492.4210251423804
 30
0.0
 10
486.0919648164396
 20
492.4103246405091
 30
0.0
 10
485.8498142524337
 20
492.3868322494882
 30
0.0
 10
485.7562451152136
 20
492.377754580113
 30
0.0
 10
485.5376284219606
 20
492.3565453425351
 30
0.0
 10
485.4123613852641
 20
492.3443924812763
 30
0.0
 10
484.9820959357193
 20
492.3026500049579
 30
0.0
 10
484.622729144592
 20
492.2677858070908
 30
0.0
 10
483.9329493294657
 20
492.2008663794949
 30
0.0
 10
483.6777896070743
 20
492.1761118966969
 30
0.0
 10
483.2506541842869
 20
492.1346730819155
 30
0.0
 10
483.100865931291
 20
492.1201412792573
 30
0.0
 10
482.7852539613945
 20
492.0895219832084
 30
0.0
 10
482.6191316316875
 20
492.0734055197063
 30
0.0
 10
481.7531702539594
 20
491.9893937257295
 30
0.0
 10
480.9426862945724
 20
491.9107641087872
 30
0.0
 10
479.5274346323251
 20
491.7734625684045
 30
0.0
 10
479.0224710941943
 20
491.7244732094996
 30
0.0
 10
478.213147320327
 20
491.6459561486935
 30
0.0
 10
477.9348380969383
 20
491.6189558023289
 30
0.0
 10
477.3676284236387
 20
491.5639275950202
 30
0.0
 10
477.0779445000984
 20
491.5358237248837
 30
0.0
 10
475.600284795756
 20
491.3924676285936
 30
0.0
 10
474.3246493411863
 20
491.2687110434211
 30
0.0
 10
472.2925971404762
 20
491.0715702063966
 30
0.0
 10
471.5927964585672
 20
491.0036785980345
 30
0.0
 10
470.1778381979638
 20
490.8664055221988
 30
0.0
 10
469.461141160053
 20
490.7968747031099
 30
0.0
 10
467.2873064090189
 20
490.585978741765
 30
0.0
 10
465.806610588513
 20
490.4423280947337
 30
0.0
 10
462.7972342398884
 20
490.1503715337347
 30
0.0
 10
461.2680958601906
 20
490.0020212010048
 30
0.0
 10
458.1729582987914
 20
489.701744461388
 30
0.0
 10
456.6213645953441
 20
489.5512156111386
 30
0.0
 10
453.5118726504395
 20
489.2495462718739
 30
0.0
 10
451.9539640236158
 20
489.0984047753157
 30
0.0
 10
447.2724583509312
 20
488.6442255241499
 30
0.0
 10
444.1411608894106
 20
488.3404407088182
 30
0.0
 10
441.0024096573914
 20
488.0359327611996
 30
0.0
  0
SPLINE
  5
CF
330
1F
100
AcDbEntity
  8
0
  6
SLD-Durchgehend
 62
     7
370
    15
100
AcDbSpline
210
0.0
220
0.0
230
1.0
 70
    24
 71
     3
 72
    10
 73
     6
 74
     0
 42
0.00000001
 43
0.00000001
 12
1.0
 22
0.0
 32
0.0
 13
1.0
 23
0.0
 33
0.0
 40
0.0
 40
0.0
 40
0.0
 40
0.0
 40
0.5
 40
0.5
 40
1.0
 40
1.0
 40
1.0
 40
1.0
 10
441.0024096573914
 20
488.0359327611996
 30
0.0
 10
431.2132543575083
 20
487.0862316320121
 30
0.0
 10
421.422588191101
 20
486.1363839251477
 30
0.0
 10
401.8399258602659
 20
484.2365594808145
 30
0.0
 10
392.047985465924
 20
483.2865881539163
 30
0.0
 10
382.255963299331
 20
482.3366088938311
 30
0.0
  0
SPLINE
  5
D0
330
1F
100
AcDbEntity
  8
0
  6
SLD-Durchgehend
 62
     7
370
    15
100
AcDbSpline
210
0.0
220
0.0
230
1.0
 70
    24
 71
     3
 72
     8
 73
     4
 74
     0
 42
0.00000001
 43
0.00000001
 12
1.0
 22
0.0
 32
0.0
 13
1.0
 23
0.0
 33
0.0
 40
0.0
 40
0.0
 40
0.0
 40
0.0
 40
1.0
 40
1.0
 40
1.0
 40
1.0
 10
382.2559632993311
 20
482.3366088938311
 30
0.0
 10
382.2559632993311
 20
482.3366088938311
 30
0.0
 10
382.2559632993311
 20
482.4400480656338
 30
0.0
 10
382.2559632993311
 20
482.6060910656857
 30
0.0
  0
SPLINE
  5
D1
330
1F
100
AcDbEntity
  8
0
  6
SLD-Durchgehend
 62
     7
370
    15
100
AcDbSpline
210
0.0
220
0.0
230
1.0
 70
     8
 71
     3
 72
    11
 73
     7
 74
     0
 42
0.00000001
 43
0.00000001
 12
1.0
 22
0.0
 32
0.0
 13
1.0
 23
0.0
 33
0.0
 40
0.0
 40
0.0
 40
0.0
 40
0.0
 40
0.2483338475133763
 40
0.4977945673939344
 40
0.748358568791342
 40
1.0
 40
1.0
 40
1.0
 40
1.0
 10
476.4833970997573
 20
491.4781433359385
 30
0.0
 10
476.4798645360517
 20
491.1009939791895
 30
0.0
 10
476.4727833788141
 20
490.344983863107
 30
0.0
 10
476.4684758301046
 20
489.2083932884951
 30
0.0
 10
476.4668231290382
 20
488.0667768245358
 30
0.0
 10
476.4668359958965
 20
487.3040356020321
 30
0.0
 10
476.4668424431279
 20
486.92184679958
 30
0.0
  0
LINE
  5
D2
330
1F
100
AcDbEntity
  8
0
  6
SLD-Durchgehend
 62
     7
370
    15
100
AcDbLine
 10
432.9668424431
 20
758.4718467996
 30
0.0
 11
448.9668424431
 21
758.4718467996
 31
0.0
  0
LINE
  5
D3
330
1F
100
AcDbEntity
  8
0
  6
SLD-Durchgehend
 62
     7
370
    15
100
AcDbLine
 10
432.9668424431
 20
759.9218467996
 30
0.0
 11
448.9668424431
 21
759.9218467996
 31
0.0
  0
LINE
  5
D4
330
1F
100
AcDbEntity
  8
0
  6
SLD-Durchgehend
 62
     7
370
    15
100
AcDbLine
 10
433.0168424431
 20
758.4218467996
 30
0.0
 11
448.9168424431
 21
758.4218467996
 31
0.0
  0
LINE
  5
D5
330
1F
100
AcDbEntity
  8
0
  6
SLD-Durchgehend
 62
     7
370
    15
100
AcDbLine
 10
432.9668424431
 20
758.3718467996
 30
0.0
 11
448.9668424431
 21
758.3718467996
 31
0.0
  0
SPLINE
  5
D6
330
1F
100
AcDbEntity
  8
0
  6
SLD-Durchgehend
 62
     8
370
     0
100
AcDbSpline
210
0.0
220
0.0
230
1.0
 70
     8
 71
     3
 72
    46
 73
    42
 74
     0
 42
0.00000001
 43
0.00000001
 12
1.0
 22
0.0
 32
0.0
 13
1.0
 23
0.0
 33
0.0
 40
0.0
 40
0.0
 40
0.0
 40
0.0
 40
0.1249999999999991
 40
0.1249999999999991
 40
0.1874999999999986
 40
0.1874999999999986
 40
0.2499999999999982
 40
0.2499999999999982
 40
0.2812499999999979
 40
0.2812499999999979
 40
0.3124999999999976
 40
0.3124999999999976
 40
0.3749999999999971
 40
0.3749999999999971
 40
0.4062499999999968
 40
0.4062499999999968
 40
0.4218749999999967
 40
0.4218749999999967
 40
0.4374999999999965
 40
0.4374999999999965
 40
0.4999999999999964
 40
0.4999999999999964
 40
0.5312499999999966
 40
0.5312499999999966
 40
0.5468749999999967
 40
0.5468749999999967
 40
0.5624999999999968
 40
0.5624999999999968
 40
0.6249999999999973
 40
0.6249999999999973
 40
0.6562499999999977
 40
0.6562499999999977
 40
0.6874999999999979
 40
0.6874999999999979
 40
0.7499999999999982
 40
0.7499999999999982
 40
0.8124999999999987
 40
0.8124999999999987
 40
0.8749999999999991
 40
0.8749999999999991
 40
1.0
 40
1.0
 40
1.0
 40
1.0
 10
495.8838523517228
 20
511.511269938749
 30
0.0
 10
495.8838923093077
 20
511.5117765876641
 30
0.0
 10
495.7585586651609
 20
511.5110966716265
 30
0.0
 10
495.3830914617319
 20
511.5056887383656
 30
0.0
 10
495.226933512862
 20
511.5029145677902
 30
0.0
 10
494.836789547533
 20
511.4919939712162
 30
0.0
 10
494.6024697944574
 20
511.4839815995614
 30
0.0
 10
494.1661999609026
 20
511.4660003390084
 30
0.0
 10
494.0065175485793
 20
511.4590063620917
 30
0.0
 10
493.651867913611
 20
511.4425963509585
 30
0.0
 10
493.4565620330097
 20
511.4331400108798
 30
0.0
 10
492.8066097566818
 20
511.4002420717514
 30
0.0
 10
492.2898621707077
 20
511.3721324027013
 30
0.0
 10
491.3117821924711
 20
511.3215786475361
 30
0.0
 10
490.9515269465624
 20
511.3033476975605
 30
0.0
 10
490.34507718089
 20
511.2751164373721
 30
0.0
 10
490.1318875646123
 20
511.2655965332661
 30
0.0
 10
489.6806335492754
 20
511.2466687946697
 30
0.0
 10
489.4421764672882
 20
511.2372521503227
 30
0.0
 10
488.1971042543177
 20
511.1920210841884
 30
0.0
 10
487.0203572840776
 20
511.1618363171037
 30
0.0
 10
484.9366530960726
 20
511.1410836235244
 30
0.0
 10
484.1864613337135
 20
511.1382619401159
 30
0.0
 10
483.0063165748617
 20
511.1399989826502
 30
0.0
 10
482.6035778056767
 20
511.1415450828945
 30
0.0
 10
481.7869042301345
 20
511.1462548958028
 30
0.0
 10
481.3721094745354
 20
511.1494178776026
 30
0.0
 10
479.2688099319748
 20
511.1684272104149
 30
0.0
 10
477.4929903790988
 20
511.1935752047235
 30
0.0
 10
474.7370357740254
 20
511.23181761564
 30
0.0
 10
473.8017527016204
 20
511.2447632317447
 30
0.0
 10
471.9252330886483
 20
511.2696657316112
 30
0.0
 10
470.9814524700898
 20
511.2816688721009
 30
0.0
 10
468.1371288496427
 20
511.31568909904
 30
0.0
 10
466.2238857394791
 20
511.3356587383493
 30
0.0
 10
462.3750293808578
 20
511.3705937973532
 30
0.0
 10
460.4373637057514
 20
511.3855553039417
 30
0.0
 10
456.5557930456122
 20
511.4113888304602
 30
0.0
 10
454.6126325191031
 20
511.4221900112632
 30
0.0
 10
448.7774288510058
 20
511.4511338964738
 30
0.0
 10
444.8796353469228
 20
511.4670796111171
 30
0.0
 10
440.9743502177639
 20
511.4820995143796
 30
0.0
  0
ARC
  5
D7
330
1F
100
AcDbEntity
  8
0
  6
SLD-Durchgehend
 62
     8
370
     0
100
AcDbCircle
 10
295.039542085
 20
511.714705031
 30
0.0
 40
145.9349935076828
100
AcDbArc
 50
359.9086763242
 51
0.5883176839
  0
SPLINE
  5
D8
330
1F
100
AcDbEntity
  8
0
  6
SLD-Durchgehend
 62
     8
370
     0
100
AcDbSpline
210
0.0
220
0.0
230
1.0
 70
     8
 71
     3
 72
    21
 73
    17
 74
     0
 42
0.00000001
 43
0.00000001
 12
1.0
 22
0.0
 32
0.0
 13
1.0
 23
0.0
 33
0.0
 40
0.0
 40
0.0
 40
0.0
 40
0.0
 40
0.0000007734546327
 40
0.121929383412754
 40
0.2438378115136036
 40
0.3376577336963609
 40
0.4313133793296896
 40
0.4909495567872105
 40
0.550420447077008
 40
0.5740661380693964
 40
0.6231086098365946
 40
0.6722096367593489
 40
0.7459426053180451
 40
0.8199229751801301
 40
0.9392484317880846
 40
1.0
 40
1.0
 40
1.0
 40
1.0
 10
440.966842443128
 20
513.2131509798354
 30
0.0
 10
440.9668624429141
 20
513.2131510002458
 30
0.0
 10
444.1196803146039
 20
513.2163685405242
 30
0.0
 10
450.4256741725297
 20
513.2246153049929
 30
0.0
 10
459.129970357021
 20
513.238923580288
 30
0.0
 10
467.0539234966905
 20
513.2502265122795
 30
0.0
 10
473.2806198629913
 20
513.2489574239471
 30
0.0
 10
478.4242000046546
 20
513.2342345761969
 30
0.0
 10
481.63874331667
 20
513.2222076356528
 30
0.0
 10
484.3156107777821
 20
513.2136859177755
 30
0.0
 10
486.4869088659573
 20
513.2088265412867
 30
0.0
 10
488.923068880383
 20
513.2090327578323
 30
0.0
 10
490.8722261274141
 20
513.2149939224823
 30
0.0
 10
492.5499920851315
 20
513.2190339892514
 30
0.0
 10
493.6344628766927
 20
513.216164152327
 30
0.0
 10
493.9464961963628
 20
513.2134545667625
 30
0.0
 10
494.0517651140568
 20
513.212540449193
 30
0.0
  0
SPLINE
  5
D9
330
1F
100
AcDbEntity
  8
0
  6
SLD-Durchgehend
 62
     8
370
     0
100
AcDbSpline
210
0.0
220
0.0
230
1.0
 70
     8
 71
     3
 72
     8
 73
     4
 74
     0
 42
0.00000001
 43
0.00000001
 12
1.0
 22
0.0
 32
0.0
 13
1.0
 23
0.0
 33
0.0
 40
0.0
 40
0.0
 40
0.0
 40
0.0
 40
1.0
 40
1.0
 40
1.0
 40
1.0
 10
382.255963299331
 20
513.2004991325751
 30
0.0
 10
401.8249137035008
 20
513.2017277767104
 30
0.0
 10
421.3938928956136
 20
513.2016441115168
 30
0.0
 10
440.9627907313014
 20
513.2131461193812
 30
0.0
  0
ARC
  5
DA
330
1F
100
AcDbEntity
  8
0
  6
SLD-Durchgehend
 62
     8
370
     0
100
AcDbCircle
 10
386.7974390076
 20
512.5491318277
 30
0.0
 40
54.16942159529975
100
AcDbArc
 50
359.9530829008
 51
0.7023521425
  0
SPLINE
  5
DB
330
1F
100
AcDbEntity
  8
0
  6
SLD-Durchgehend
 62
     8
370
     0
100
AcDbSpline
210
0.0
220
0.0
230
1.0
 70
     8
 71
     3
 72
     8
 73
     4
 74
     0
 42
0.00000001
 43
0.00000001
 12
1.0
 22
0.0
 32
0.0
 13
1.0
 23
0.0
 33
0.0
 40
0.0
 40
0.0
 40
0.0
 40
0.0
 40
1.0
 40
1.0
 40
1.0
 40
1.0
 10
440.9668424431234
 20
511.4821300199576
 30
0.0
 10
440.9671100958413
 20
511.8373489840784
 30
0.0
 10
440.9670803830625
 20
512.2038850449057
 30
0.0
 10
440.966842443128
 20
512.5047763441097
 30
0.0
  0
SPLINE
  5
DC
330
1F
100
AcDbEntity
  8
0
  6
SLD-Durchgehend
 62
     8
370
     0
100
AcDbSpline
210
0.0
220
0.0
230
1.0
 70
     8
 71
     3
 72
     8
 73
     4
 74
     0
 42
0.00000001
 43
0.00000001
 12
1.0
 22
0.0
 32
0.0
 13
1.0
 23
0.0
 33
0.0
 40
0.0
 40
0.0
 40
0.0
 40
0.0
 40
1.0
 40
1.0
 40
1.0
 40
1.0
 10
440.966842443128
 20
511.4821300199576
 30
0.0
 10
421.3966460925612
 20
511.5271881056142
 30
0.0
 10
401.826276170371
 20
511.5189918508519
 30
0.0
 10
382.2559632993309
 20
511.5154594318839
 30
0.0
  0
SPLINE
  5
DD
330
1F
100
AcDbEntity
  8
0
  6
SLD-Durchgehend
 62
     8
370
     0
100
AcDbSpline
210
0.0
220
0.0
230
1.0
 70
     8
 71
     3
 72
    10
 73
     6
 74
     0
 42
0.00000001
 43
0.00000001
 12
1.0
 22
0.0
 32
0.0
 13
1.0
 23
0.0
 33
0.0
 40
0.0
 40
0.0
 40
0.0
 40
0.0
 40
0.5
 40
0.5
 40
1.0
 40
1.0
 40
1.0
 40
1.0
 10
382.255963299331
 20
482.6060910656857
 30
0.0
 10
392.0426664449994
 20
483.5443612897164
 30
0.0
 10
401.8290172184826
 20
484.4854283522221
 30
0.0
 10
421.3998717872669
 20
486.3736582053069
 30
0.0
 10
431.1843590734346
 20
487.3206546274795
 30
0.0
 10
440.966842443128
 20
488.2713832099715
 30
0.0
  0
SPLINE
  5
DE
330
1F
100
AcDbEntity
  8
0
  6
SLD-Durchgehend
 62
     8
370
     0
100
AcDbSpline
210
0.0
220
0.0
230
1.0
 70
    24
 71
     3
 72
     9
 73
     5
 74
     0
 42
0.00000001
 43
0.00000001
 12
1.0
 22
0.0
 32
0.0
 13
1.0
 23
0.0
 33
0.0
 40
0.0535990738565804
 40
0.0535990738565804
 40
0.0535990738565804
 40
0.0535990738565804
 40
0.5
 40
0.9303978674805705
 40
0.9303978674805705
 40
0.9303978674805705
 40
0.9303978674805705
 10
440.966842443128
 20
511.4821284202822
 30
0.0
 10
440.966842443128
 20
507.5146391373245
 30
0.0
 10
440.966842443128
 20
500.1770422440831
 30
0.0
 10
440.966842443128
 20
492.4532577866532
 30
0.0
 10
440.966842443128
 20
488.2713880075993
 30
0.0
  0
LINE
  5
DF
330
1F
100
AcDbEntity
  8
0
  6
SLD-Durchgehend
 62
     8
370
     0
100
AcDbLine
 10
440.962790714
 20
513.2131468476
 30
0.0
 11
440.9668424431
 21
513.2131509798
 31
0.0
  0
LINE
  5
E0
330
1F
100
AcDbEntity
  8
0
  6
SLD-Durchgehend
 62
     8
370
     0
100
AcDbLine
 10
440.9743502178
 20
511.4820995144
 30
0.0
 11
440.9668424431
 21
511.4821284203
 31
0.0
  0
SPLINE
  5
E1
330
1F
100
AcDbEntity
  8
0
  6
SLD-Durchgehend
 62
     8
370
     0
100
AcDbSpline
210
0.0
220
0.0
230
1.0
 70
     8
 71
     3
 72
    48
 73
    44
 74
     0
 42
0.00000001
 43
0.00000001
 12
1.0
 22
0.0
 32
0.0
 13
1.0
 23
0.0
 33
0.0
 40
0.0
 40
0.0
 40
0.0
 40
0.0
 40
0.015625
 40
0.015625
 40
0.0312500000000001
 40
0.0312500000000001
 40
0.0625000000000001
 40
0.0625000000000001
 40
0.1250000000000002
 40
0.1250000000000002
 40
0.1875000000000004
 40
0.1875000000000004
 40
0.2500000000000006
 40
0.2500000000000006
 40
0.3125000000000007
 40
0.3125000000000007
 40
0.3750000000000008
 40
0.3750000000000008
 40
0.4062500000000008
 40
0.4062500000000008
 40
0.4375000000000009
 40
0.4375000000000009
 40
0.5000000000000009
 40
0.5000000000000009
 40
0.5156250000000009
 40
0.5156250000000009
 40
0.5312500000000009
 40
0.5312500000000009
 40
0.562500000000001
 40
0.562500000000001
 40
0.6250000000000009
 40
0.6250000000000009
 40
0.6562500000000008
 40
0.6562500000000008
 40
0.6875000000000008
 40
0.6875000000000008
 40
0.7500000000000007
 40
0.7500000000000007
 40
0.8125000000000006
 40
0.8125000000000006
 40
0.8750000000000004
 40
0.8750000000000004
 40
1.0
 40
1.0
 40
1.0
 40
1.0
 10
440.966842443128
 20
488.2713928052273
 30
0.0
 10
441.3606420785449
 20
488.3095301117728
 30
0.0
 10
441.7577605403568
 20
488.3479787871095
 30
0.0
 10
442.5483074522508
 20
488.4244955003498
 30
0.0
 10
442.943455622818
 20
488.4627301285473
 30
0.0
 10
444.1285102014675
 20
488.5773567565851
 30
0.0
 10
444.9180270272609
 20
488.6536716411621
 30
0.0
 10
447.2848947333352
 20
488.8822541728821
 30
0.0
 10
448.8605710011065
 20
489.0341620135948
 30
0.0
 10
452.0066297327734
 20
489.3366762459223
 30
0.0
 10
453.577018125287
 20
489.4872820366155
 30
0.0
 10
456.711356938148
 20
489.7867841955358
 30
0.0
 10
458.275317930728
 20
489.9356786119984
 30
0.0
 10
461.3950393088085
 20
490.2313908310893
 30
0.0
 10
462.9352936359858
 20
490.376731239442
 30
0.0
 10
465.9663968181755
 20
490.6614699235682
 30
0.0
 10
467.4573713832269
 20
490.8008718744481
 30
0.0
 10
469.6457214019789
 20
491.0048154794938
 30
0.0
 10
470.3671074655591
 20
491.0719362809351
 30
0.0
 10
471.7911634321082
 20
491.2043235810688
 30
0.0
 10
472.4952658819785
 20
491.2697232188822
 30
0.0
 10
474.5397341199596
 20
491.459665527499
 30
0.0
 10
475.8232148151905
 20
491.5789961085389
 30
0.0
 10
477.3109873532645
 20
491.7180983180591
 30
0.0
 10
477.6027091222749
 20
491.7454140382582
 30
0.0
 10
478.1740446622093
 20
491.7990049607342
 30
0.0
 10
478.4544045786225
 20
491.8253505072088
 30
0.0
 10
479.2707050146876
 20
491.9022129647943
 30
0.0
 10
479.7805628990911
 20
491.9504346462737
 30
0.0
 10
481.2110660454837
 20
492.0863370370153
 30
0.0
 10
482.0324718571359
 20
492.1652371035099
 30
0.0
 10
483.0877232492496
 20
492.2671566215529
 30
0.0
 10
483.4094615209087
 20
492.298335225236
 30
0.0
 10
483.9897336385762
 20
492.354616070866
 30
0.0
 10
484.2499600921461
 20
492.3798799103445
 30
0.0
 10
484.9537474052289
 20
492.4480683825994
 30
0.0
 10
485.3208339776386
 20
492.4834075163308
 30
0.0
 10
485.9063567883417
 20
492.5387450473708
 30
0.0
 10
486.1242828152788
 20
492.558694208944
 30
0.0
 10
486.4533251115892
 20
492.587641331569
 30
0.0
 10
486.5648695598853
 20
492.5966952459399
 30
0.0
 10
486.7989633395652
 20
492.6141794493014
 30
0.0
 10
486.8237426138609
 20
492.6133074452432
 30
0.0
 10
486.8237426138608
 20
492.6133074452432
 30
0.0
  0
SPLINE
  5
E2
330
1F
100
AcDbEntity
  8
0
  6
SLD-Durchgehend
 62
     8
370
     0
100
AcDbSpline
210
0.0
220
0.0
230
1.0
 70
    24
 71
     3
 72
     8
 73
     4
 74
     0
 42
0.00000001
 43
0.00000001
 12
1.0
 22
0.0
 32
0.0
 13
1.0
 23
0.0
 33
0.0
 40
0.1697971195247339
 40
0.1697971195247339
 40
0.1697971195247339
 40
0.1697971195247339
 40
0.8032587855161577
 40
0.8032587855161577
 40
0.8032587855161577
 40
0.8032587855161577
 10
440.966842443128
 20
513.8810479225048
 30
0.0
 10
440.966842443128
 20
513.7826196425099
 30
0.0
 10
440.966842443128
 20
513.5176220790707
 30
0.0
 10
440.966842443128
 20
513.2131509798354
 30
0.0
  0
SPLINE
  5
E3
330
1F
100
AcDbEntity
  8
0
  6
SLD-Durchgehend
 62
     8
370
     0
100
AcDbSpline
210
0.0
220
0.0
230
1.0
 70
     8
 71
     3
 72
    10
 73
     6
 74
     0
 42
0.00000001
 43
0.00000001
 12
1.0
 22
0.0
 32
0.0
 13
1.0
 23
0.0
 33
0.0
 40
0.0
 40
0.0
 40
0.0
 40
0.0
 40
0.5
 40
0.5
 40
1.0
 40
1.0
 40
1.0
 40
1.0
 10
440.9668429994931
 20
488.271383264043
 30
0.0
 10
440.9755057376181
 20
488.1975280826508
 30
0.0
 10
440.9831048317366
 20
488.1387872247752
 30
0.0
 10
440.9955234865065
 20
488.0565759999063
 30
0.0
 10
440.9999158109475
 20
488.0356908190981
 30
0.0
 10
441.0024096573921
 20
488.0359327611997
 30
0.0
  0
SPLINE
  5
E4
330
1F
100
AcDbEntity
  8
0
  6
SLD-Durchgehend
 62
     8
370
     0
100
AcDbSpline
210
0.0
220
0.0
230
1.0
 70
    24
 71
     3
 72
    31
 73
    27
 74
     0
 42
0.00000001
 43
0.00000001
 12
1.0
 22
0.0
 32
0.0
 13
1.0
 23
0.0
 33
0.0
 40
0.0
 40
0.0
 40
0.0
 40
0.0
 40
0.0009765625
 40
0.0009765625
 40
0.001953125
 40
0.00390625
 40
0.0078125
 40
0.015625
 40
0.03125
 40
0.0625000000000001
 40
0.0625000000000001
 40
0.1250000000000001
 40
0.1250000000000001
 40
0.2500000000000001
 40
0.2500000000000001
 40
0.3750000000000001
 40
0.3750000000000001
 40
0.5000000000000001
 40
0.5000000000000001
 40
0.6250000000000001
 40
0.6250000000000001
 40
0.7500000000000001
 40
0.7500000000000001
 40
0.8750000000000001
 40
0.8750000000000001
 40
1.0
 40
1.0
 40
1.0
 40
1.0
 10
476.4668424431279
 20
486.92184679958
 30
0.0
 10
476.4668424431279
 20
486.92184679958
 30
0.0
 10
476.4668284759099
 20
486.92184679958
 30
0.0
 10
476.4667726119164
 20
486.92184679958
 30
0.0
 10
476.4666469215853
 20
486.92184679958
 30
0.0
 10
476.4660604347889
 20
486.92184679958
 30
0.0
 10
476.4637150293658
 20
486.92184679958
 30
0.0
 10
476.4543376957017
 20
486.92184679958
 30
0.0
 10
476.4168619263496
 20
486.92184679958
 30
0.0
 10
476.3527299306845
 20
486.92184679958
 30
0.0
 10
476.1819807759011
 20
486.92184679958
 30
0.0
 10
476.0115108166091
 20
486.92184679958
 30
0.0
 10
475.3313836029415
 20
486.92184679958
 30
0.0
 10
474.6540503249593
 20
486.92184679958
 30
0.0
 10
472.875189532698
 20
486.92184679958
 30
0.0
 10
471.7753330699665
 20
486.92184679958
 30
0.0
 10
469.1928207728723
 20
486.92184679958
 30
0.0
 10
467.7126310914625
 20
486.92184679958
 30
0.0
 10
464.425726342247
 20
486.92184679958
 30
0.0
 10
462.6221224923436
 20
486.92184679958
 30
0.0
 10
458.757110848616
 20
486.92184679958
 30
0.0
 10
456.6993931485934
 20
486.92184679958
 30
0.0
 10
452.404872525244
 20
486.92184679958
 30
0.0
 10
450.1721061957994
 20
486.92184679958
 30
0.0
 10
445.6129515147945
 20
486.92184679958
 30
0.0
 10
443.2909817223433
 20
486.92184679958
 30
0.0
 10
440.966842443128
 20
486.92184679958
 30
0.0
  0
SPLINE
  5
E5
330
1F
100
AcDbEntity
  8
0
  6
SLD-Durchgehend
 62
     8
370
     0
100
AcDbSpline
210
0.0
220
0.0
230
1.0
 70
     8
 71
     3
 72
     8
 73
     4
 74
     0
 42
0.00000001
 43
0.00000001
 12
1.0
 22
0.0
 32
0.0
 13
1.0
 23
0.0
 33
0.0
 40
0.0
 40
0.0
 40
0.0
 40
0.0
 40
1.0
 40
1.0
 40
1.0
 40
1.0
 10
440.96631409262
 20
488.0324817227337
 30
0.0
 10
440.9664849006105
 20
487.6630311000224
 30
0.0
 10
440.9666440619687
 20
487.2928132588748
 30
0.0
 10
440.966842443128
 20
486.92184679958
 30
0.0
  0
SPLINE
  5
E6
330
1F
100
AcDbEntity
  8
0
  6
SLD-Durchgehend
 62
     8
370
     0
100
AcDbSpline
210
0.0
220
0.0
230
1.0
 70
    24
 71
     3
 72
    10
 73
     6
 74
     0
 42
0.00000001
 43
0.00000001
 12
1.0
 22
0.0
 32
0.0
 13
1.0
 23
0.0
 33
0.0
 40
0.0
 40
0.0
 40
0.0
 40
0.0
 40
0.5
 40
0.5
 40
1.0
 40
1.0
 40
1.0
 40
1.0
 10
440.966842443128
 20
486.92184679958
 30
0.0
 10
439.024119876218
 20
486.92184679958
 30
0.0
 10
437.081420801137
 20
486.92184679958
 30
0.0
 10
433.2482203958656
 20
486.92184679958
 30
0.0
 10
431.3577654175783
 20
486.92184679958
 30
0.0
 10
429.5188298112514
 20
486.92184679958
 30
0.0
  0
LINE
  5
E7
330
1F
100
AcDbEntity
  8
0
  6
SLD-Durchgehend
 62
     8
370
     0
100
AcDbLine
 10
476.4668424431
 20
414.9218467996
 30
0.0
 11
405.4668424431
 21
414.9218467996
 31
0.0
  0
LINE
  5
E8
330
1F
100
AcDbEntity
  8
0
  6
SLD-Durchgehend
 62
     7
370
    15
100
AcDbLine
 10
426.9668424431
 20
393.4218467996
 30
0.0
 11
454.9668424431
 21
393.4218467996
 31
0.0
  0
SPLINE
  5
E9
330
1F
100
AcDbEntity
  8
0
  6
SLD-Durchgehend
 62
     7
370
    15
100
AcDbSpline
210
0.0
220
0.0
230
1.0
 70
     8
 71
     3
 72
    19
 73
    15
 74
     0
 42
0.00000001
 43
0.00000001
 12
1.0
 22
0.0
 32
0.0
 13
1.0
 23
0.0
 33
0.0
 40
0.0
 40
0.0
 40
0.0
 40
0.0
 40
0.0050521194670711
 40
0.0989615130229769
 40
0.1858456080070408
 40
0.2675552533063332
 40
0.3457851932446935
 40
0.4294096978488224
 40
0.510632910341545
 40
0.5983134629418654
 40
0.691870001621664
 40
0.7939042069601552
 40
0.9077885489136122
 40
1.0
 40
1.0
 40
1.0
 40
1.0
 10
206.7555530507331
 20
197.0537841021142
 30
0.0
 10
206.8047618705437
 20
197.0711376479869
 30
0.0
 10
207.7686700469582
 20
197.4110609548436
 30
0.0
 10
209.499963021495
 20
198.2568371845348
 30
0.0
 10
211.8597947415869
 20
199.5941555412011
 30
0.0
 10
213.9239456415655
 20
201.1006031104162
 30
0.0
 10
215.7851739121239
 20
202.8006698750671
 30
0.0
 10
217.4152853100262
 20
204.7185856426813
 30
0.0
 10
218.8778954365729
 20
206.8831751052951
 30
0.0
 10
220.1607436770459
 20
209.2760315881198
 30
0.0
 10
221.2989782181204
 20
211.9752632941675
 30
0.0
 10
222.2919161631897
 20
215.0159391405677
 30
0.0
 10
223.090614489179
 20
218.0991889965855
 30
0.0
 10
223.4904930122802
 20
220.1901266268407
 30
0.0
 10
223.6694067995516
 20
221.1256546653955
 30
0.0
  0
SPLINE
  5
EA
330
1F
100
AcDbEntity
  8
0
  6
SLD-Durchgehend
 62
     7
370
    15
100
AcDbSpline
210
0.0
220
0.0
230
1.0
 70
     8
 71
     3
 72
    19
 73
    15
 74
     0
 42
0.00000001
 43
0.00000001
 12
1.0
 22
0.0
 32
0.0
 13
1.0
 23
0.0
 33
0.0
 40
0.0
 40
0.0
 40
0.0
 40
0.0
 40
0.0788755483200265
 40
0.2012749733769155
 40
0.30725918671832
 40
0.402771832977576
 40
0.4908888847170996
 40
0.5740621823908894
 40
0.6519918019981291
 40
0.7334533057110179
 40
0.8152578638364083
 40
0.90145444771999
 40
0.9935766133327896
 40
1.0
 40
1.0
 40
1.0
 40
1.0
 10
118.3131808970705
 20
221.0908276126083
 30
0.0
 10
118.4604499949405
 20
220.2882435127777
 30
0.0
 10
118.8362519308302
 20
218.2402058538736
 30
0.0
 10
119.6292921542389
 20
215.1590580618564
 30
0.0
 10
120.6643179615072
 20
211.9699708433894
 30
0.0
 10
121.8349624128885
 20
209.207859903779
 30
0.0
 10
123.1496768307635
 20
206.7763338123965
 30
0.0
 10
124.6078159191669
 20
204.6447273278733
 30
0.0
 10
126.2445147788949
 20
202.7356458837521
 30
0.0
 10
128.0952683469483
 20
201.0538531136822
 30
0.0
 10
130.1917008846127
 20
199.5389428483587
 30
0.0
 10
132.5383503705587
 20
198.2196354547853
 30
0.0
 10
134.2646860951238
 20
197.3843060875161
 30
0.0
 10
135.2261629880306
 20
197.0456819465323
 30
0.0
 10
135.2888338819658
 20
197.0236097804927
 30
0.0
  0
SPLINE
  5
EB
330
1F
100
AcDbEntity
  8
0
  6
SLD-Durchgehend
 62
     7
370
    15
100
AcDbSpline
210
0.0
220
0.0
230
1.0
 70
     8
 71
     3
 72
    10
 73
     6
 74
     0
 42
0.00000001
 43
0.00000001
 12
1.0
 22
0.0
 32
0.0
 13
1.0
 23
0.0
 33
0.0
 40
0.0
 40
0.0
 40
0.0
 40
0.0
 40
0.0447756258978724
 40
0.365176463014055
 40
1.0
 40
1.0
 40
1.0
 40
1.0
 10
225.8712366990297
 20
247.2791318630284
 30
0.0
 10
225.8735126710546
 20
248.1553993013597
 30
0.0
 10
225.8920748105522
 20
255.3019715126352
 30
0.0
 10
225.911804576807
 20
274.8722666441128
 30
0.0
 10
225.9068250267057
 20
293.5662720284274
 30
0.0
 10
225.9035157145759
 20
305.9899443511315
 30
0.0
  0
LINE
  5
EC
330
1F
100
AcDbEntity
  8
0
  6
SLD-Durchgehend
 62
     7
370
    15
100
AcDbLine
 10
116.1111802356
 20
247.2789974313
 30
0.0
 11
116.1113129555
 21
247.2716906158
 31
0.0
  0
LINE
  5
ED
330
1F
100
AcDbEntity
  8
0
  6
SLD-Durchgehend
 62
     7
370
    15
100
AcDbLine
 10
153.2816012283
 20
273.9376985888
 30
0.0
 11
162.3221174207
 21
258.2790652169
 31
0.0
  0
LINE
  5
EE
330
1F
100
AcDbEntity
  8
0
  6
SLD-Durchgehend
 62
     7
370
    15
100
AcDbLine
 10
165.7862190358
 20
260.2790652169
 30
0.0
 11
156.7449426984
 21
275.9390151987
 31
0.0
  0
LINE
  5
EF
330
1F
100
AcDbEntity
  8
0
  6
SLD-Durchgehend
 62
     7
370
    15
100
AcDbLine
 10
185.2190400737
 20
275.9376985888
 30
0.0
 11
176.1785238813
 21
260.2790652169
 31
0.0
  0
LINE
  5
F0
330
1F
100
AcDbEntity
  8
0
  6
SLD-Durchgehend
 62
     7
370
    15
100
AcDbLine
 10
179.6426254964
 20
258.2790652169
 30
0.0
 11
188.6839018339
 21
273.9390151987
 31
0.0
  0
LINE
  5
F1
330
1F
100
AcDbEntity
  8
0
  6
SLD-Durchgehend
 62
     7
370
    15
100
AcDbLine
 10
142.3237380867
 20
261.515733832
 30
0.0
 11
157.9823714586
 21
252.4752176396
 31
0.0
  0
LINE
  5
F2
330
1F
100
AcDbEntity
  8
0
  6
SLD-Durchgehend
 62
     7
370
    15
100
AcDbLine
 10
159.9823714586
 20
255.9393192547
 30
0.0
 11
144.3224214768
 21
264.9805955922
 31
0.0
  0
LINE
  5
F3
330
1F
100
AcDbEntity
  8
0
  6
SLD-Durchgehend
 62
     7
370
    15
100
AcDbLine
 10
197.6410048304
 20
264.9798354471
 30
0.0
 11
181.9823714586
 21
255.9393192547
 31
0.0
  0
LINE
  5
F4
330
1F
100
AcDbEntity
  8
0
  6
SLD-Durchgehend
 62
     7
370
    15
100
AcDbLine
 10
183.9823714586
 20
252.4752176396
 30
0.0
 11
199.6423214403
 21
261.5164939771
 31
0.0
  0
LINE
  5
F5
330
1F
100
AcDbEntity
  8
0
  6
SLD-Durchgehend
 62
     7
370
    15
100
AcDbLine
 10
144.3237380867
 20
229.5782949867
 30
0.0
 11
159.9823714586
 21
238.618811179
 31
0.0
  0
LINE
  5
F6
330
1F
100
AcDbEntity
  8
0
  6
SLD-Durchgehend
 62
     7
370
    15
100
AcDbLine
 10
157.9823714586
 20
242.0829127942
 30
0.0
 11
142.3224214768
 21
233.0416364567
 31
0.0
  0
LINE
  5
F7
330
1F
100
AcDbEntity
  8
0
  6
SLD-Durchgehend
 62
     7
370
    15
100
AcDbLine
 10
199.6410048304
 20
233.0423966018
 30
0.0
 11
183.9823714586
 21
242.0829127942
 31
0.0
  0
LINE
  5
F8
330
1F
100
AcDbEntity
  8
0
  6
SLD-Durchgehend
 62
     7
370
    15
100
AcDbLine
 10
181.9823714586
 20
238.618811179
 30
0.0
 11
197.6423214403
 21
229.5775348416
 31
0.0
  0
LINE
  5
F9
330
1F
100
AcDbEntity
  8
0
  6
SLD-Durchgehend
 62
     7
370
    15
100
AcDbLine
 10
188.6831416888
 20
220.620431845
 30
0.0
 11
179.6426254964
 21
236.2790652169
 31
0.0
  0
LINE
  5
FA
330
1F
100
AcDbEntity
  8
0
  6
SLD-Durchgehend
 62
     7
370
    15
100
AcDbLine
 10
176.1785238813
 20
234.2790652169
 30
0.0
 11
185.2198002187
 21
218.6191152351
 31
0.0
  0
LINE
  5
FB
330
1F
100
AcDbEntity
  8
0
  6
SLD-Durchgehend
 62
     7
370
    15
100
AcDbLine
 10
156.7457028434
 20
218.620431845
 30
0.0
 11
165.7862190358
 21
234.2790652169
 31
0.0
  0
LINE
  5
FC
330
1F
100
AcDbEntity
  8
0
  6
SLD-Durchgehend
 62
     7
370
    15
100
AcDbLine
 10
162.3221174207
 20
236.2790652169
 30
0.0
 11
153.2808410832
 21
220.6191152351
 31
0.0
  0
LINE
  5
FD
330
1F
100
AcDbEntity
  8
0
  6
SLD-Durchgehend
 62
     7
370
    15
100
AcDbLine
 10
168.9823714586
 20
279.2790652169
 30
0.0
 11
168.9823714586
 21
261.1354716774
 31
0.0
  0
LINE
  5
FE
330
1F
100
AcDbEntity
  8
0
  6
SLD-Durchgehend
 62
     7
370
    15
100
AcDbLine
 10
172.9823714586
 20
261.1354716774
 30
0.0
 11
172.9823714586
 21
279.2790652169
 31
0.0
  0
LINE
  5
FF
330
1F
100
AcDbEntity
  8
0
  6
SLD-Durchgehend
 62
     7
370
    15
100
AcDbLine
 10
202.9823714586
 20
249.2790652169
 30
0.0
 11
184.8387779191
 21
249.2790652169
 31
0.0
  0
LINE
  5
100
330
1F
100
AcDbEntity
  8
0
  6
SLD-Durchgehend
 62
     7
370
    15
100
AcDbLine
 10
184.8387779191
 20
245.2790652169
 30
0.0
 11
202.9823714586
 21
245.2790652169
 31
0.0
  0
LINE
  5
101
330
1F
100
AcDbEntity
  8
0
  6
SLD-Durchgehend
 62
     7
370
    15
100
AcDbLine
 10
138.9823714586
 20
245.2790652169
 30
0.0
 11
157.125964998
 21
245.2790652169
 31
0.0
  0
LINE
  5
102
330
1F
100
AcDbEntity
  8
0
  6
SLD-Durchgehend
 62
     7
370
    15
100
AcDbLine
 10
157.125964998
 20
249.2790652169
 30
0.0
 11
138.9823714586
 21
249.2790652169
 31
0.0
  0
LINE
  5
103
330
1F
100
AcDbEntity
  8
0
  6
SLD-Durchgehend
 62
     7
370
    15
100
AcDbLine
 10
172.9823714586
 20
215.2790652169
 30
0.0
 11
172.9823714586
 21
233.4226587563
 31
0.0
  0
LINE
  5
104
330
1F
100
AcDbEntity
  8
0
  6
SLD-Durchgehend
 62
     7
370
    15
100
AcDbLine
 10
168.9823714586
 20
233.4226587563
 30
0.0
 11
168.9823714586
 21
215.2790652169
 31
0.0
  0
LINE
  5
105
330
1F
100
AcDbEntity
  8
0
  6
SLD-Durchgehend
 62
     7
370
    15
100
AcDbLine
 10
160.784502381
 20
277.6106241329
 30
0.0
 11
165.1186681534
 21
261.4352972619
 31
0.0
  0
LINE
  5
106
330
1F
100
AcDbEntity
  8
0
  6
SLD-Durchgehend
 62
     7
370
    15
100
AcDbLine
 10
168.9823714586
 20
262.4705734423
 30
0.0
 11
164.6478122061
 21
278.6473688009
 31
0.0
  0
LINE
  5
107
330
1F
100
AcDbEntity
  8
0
  6
SLD-Durchgehend
 62
     7
370
    15
100
AcDbLine
 10
177.3165372309
 20
278.6459003133
 30
0.0
 11
172.9823714586
 21
262.4705734423
 31
0.0
  0
LINE
  5
108
330
1F
100
AcDbEntity
  8
0
  6
SLD-Durchgehend
 62
     7
370
    15
100
AcDbLine
 10
176.8460747637
 20
261.4352972619
 30
0.0
 11
181.1806340162
 21
277.6120926205
 31
0.0
  0
LINE
  5
109
330
1F
100
AcDbEntity
  8
0
  6
SLD-Durchgehend
 62
     7
370
    15
100
AcDbLine
 10
192.1513374775
 20
271.2764583605
 30
0.0
 11
180.3101763788
 21
259.4352972619
 31
0.0
  0
LINE
  5
10A
330
1F
100
AcDbEntity
  8
0
  6
SLD-Durchgehend
 62
     7
370
    15
100
AcDbLine
 10
183.1386035036
 20
256.6068701372
 30
0.0
 11
194.9808396097
 21
268.4491062433
 31
0.0
  0
LINE
  5
10B
330
1F
100
AcDbEntity
  8
0
  6
SLD-Durchgehend
 62
     7
370
    15
100
AcDbLine
 10
146.9849783149
 20
268.4480312358
 30
0.0
 11
158.8261394135
 21
256.6068701372
 31
0.0
  0
LINE
  5
10C
330
1F
100
AcDbEntity
  8
0
  6
SLD-Durchgehend
 62
     7
370
    15
100
AcDbLine
 10
161.6545665383
 20
259.4352972619
 30
0.0
 11
149.8123304322
 21
271.277533368
 31
0.0
  0
LINE
  5
10D
330
1F
100
AcDbEntity
  8
0
  6
SLD-Durchgehend
 62
     7
370
    15
100
AcDbLine
 10
139.6155363621
 20
253.6132309893
 30
0.0
 11
155.7908632331
 21
249.2790652169
 31
0.0
  0
LINE
  5
10E
330
1F
100
AcDbEntity
  8
0
  6
SLD-Durchgehend
 62
     7
370
    15
100
AcDbLine
 10
156.8261394135
 20
253.142768522
 30
0.0
 11
140.649344055
 21
257.4773277745
 31
0.0
  0
LINE
  5
10F
330
1F
100
AcDbEntity
  8
0
  6
SLD-Durchgehend
 62
     7
370
    15
100
AcDbLine
 10
201.3139303746
 20
257.4769342944
 30
0.0
 11
185.1386035036
 21
253.142768522
 31
0.0
  0
LINE
  5
110
330
1F
100
AcDbEntity
  8
0
  6
SLD-Durchgehend
 62
     7
370
    15
100
AcDbLine
 10
186.173879684
 20
249.2790652169
 30
0.0
 11
202.3506750425
 21
253.6136244693
 31
0.0
  0
LINE
  5
111
330
1F
100
AcDbEntity
  8
0
  6
SLD-Durchgehend
 62
     7
370
    15
100
AcDbLine
 10
202.349206555
 20
240.9448994445
 30
0.0
 11
186.173879684
 21
245.2790652169
 31
0.0
  0
LINE
  5
112
330
1F
100
AcDbEntity
  8
0
  6
SLD-Durchgehend
 62
     7
370
    15
100
AcDbLine
 10
185.1386035036
 20
241.4153619117
 30
0.0
 11
201.3153988621
 21
237.0808026593
 31
0.0
  0
LINE
  5
113
330
1F
100
AcDbEntity
  8
0
  6
SLD-Durchgehend
 62
     7
370
    15
100
AcDbLine
 10
140.6508125425
 20
237.0811961393
 30
0.0
 11
156.8261394135
 21
241.4153619117
 31
0.0
  0
LINE
  5
114
330
1F
100
AcDbEntity
  8
0
  6
SLD-Durchgehend
 62
     7
370
    15
100
AcDbLine
 10
155.7908632331
 20
245.2790652169
 30
0.0
 11
139.6140678746
 21
240.9445059644
 31
0.0
  0
LINE
  5
115
330
1F
100
AcDbEntity
  8
0
  6
SLD-Durchgehend
 62
     7
370
    15
100
AcDbLine
 10
194.9797646022
 20
226.110099198
 30
0.0
 11
183.1386035036
 21
237.9512602966
 31
0.0
  0
LINE
  5
116
330
1F
100
AcDbEntity
  8
0
  6
SLD-Durchgehend
 62
     7
370
    15
100
AcDbLine
 10
180.3101763788
 20
235.1228331719
 30
0.0
 11
192.1524124849
 21
223.2805970658
 31
0.0
  0
LINE
  5
117
330
1F
100
AcDbEntity
  8
0
  6
SLD-Durchgehend
 62
     7
370
    15
100
AcDbLine
 10
149.8134054397
 20
223.2816720732
 30
0.0
 11
161.6545665383
 21
235.1228331719
 31
0.0
  0
LINE
  5
118
330
1F
100
AcDbEntity
  8
0
  6
SLD-Durchgehend
 62
     7
370
    15
100
AcDbLine
 10
158.8261394135
 20
237.9512602966
 30
0.0
 11
146.9839033074
 21
226.1090241905
 31
0.0
  0
LINE
  5
119
330
1F
100
AcDbEntity
  8
0
  6
SLD-Durchgehend
 62
     7
370
    15
100
AcDbLine
 10
164.6482056862
 20
215.9122301204
 30
0.0
 11
168.9823714586
 21
232.0875569914
 31
0.0
  0
LINE
  5
11A
330
1F
100
AcDbEntity
  8
0
  6
SLD-Durchgehend
 62
     7
370
    15
100
AcDbLine
 10
165.1186681534
 20
233.1228331719
 30
0.0
 11
160.784108901
 21
216.9460378133
 31
0.0
  0
LINE
  5
11B
330
1F
100
AcDbEntity
  8
0
  6
SLD-Durchgehend
 62
     7
370
    15
100
AcDbLine
 10
181.1802405361
 20
216.9475063009
 30
0.0
 11
176.8460747637
 21
233.1228331719
 31
0.0
  0
LINE
  5
11C
330
1F
100
AcDbEntity
  8
0
  6
SLD-Durchgehend
 62
     7
370
    15
100
AcDbLine
 10
172.9823714586
 20
232.0875569914
 30
0.0
 11
177.316930711
 21
215.9107616329
 31
0.0
  0
LINE
  5
11D
330
1F
100
AcDbEntity
  8
0
  6
SLD-Durchgehend
 62
     7
370
    15
100
AcDbLine
 10
157.8202683482
 20
266.0764965384
 30
0.0
 11
153.5109942219
 21
271.21208946
 31
0.0
  0
LINE
  5
11E
330
1F
100
AcDbEntity
  8
0
  6
SLD-Durchgehend
 62
     7
370
    15
100
AcDbLine
 10
188.4537486952
 20
271.21208946
 30
0.0
 11
184.1444745689
 21
266.0764965384
 31
0.0
  0
LINE
  5
11F
330
1F
100
AcDbEntity
  8
0
  6
SLD-Durchgehend
 62
     7
370
    15
100
AcDbLine
 10
141.5200758563
 20
250.4432096214
 30
0.0
 11
148.122266853
 21
249.2790652169
 31
0.0
  0
LINE
  5
120
330
1F
100
AcDbEntity
  8
0
  6
SLD-Durchgehend
 62
     7
370
    15
100
AcDbLine
 10
193.8424760641
 20
249.2790652169
 30
0.0
 11
200.4446670608
 21
250.4432096214
 31
0.0
  0
LINE
  5
121
330
1F
100
AcDbEntity
  8
0
  6
SLD-Durchgehend
 62
     7
370
    15
100
AcDbLine
 10
182.9732898241
 20
220.1818965693
 30
0.0
 11
180.6803729537
 21
226.4816338953
 31
0.0
  0
LINE
  5
122
330
1F
100
AcDbEntity
  8
0
  6
SLD-Durchgehend
 62
     7
370
    15
100
AcDbLine
 10
161.2843699634
 20
226.4816338953
 30
0.0
 11
158.991453093
 21
220.1818965693
 31
0.0
  0
CIRCLE
  5
123
330
1F
100
AcDbEntity
  8
0
  6
SLD-Durchgehend
 62
     7
370
    15
100
AcDbCircle
 10
170.9823714586
 20
247.2790652169
 30
0.0
 40
8.000000000000028
  0
SPLINE
  5
124
330
1F
100
AcDbEntity
  8
0
  6
SLD-Durchgehend
 62
     7
370
    15
100
AcDbSpline
210
0.0
220
0.0
230
1.0
 70
     8
 71
     3
 72
    14
 73
    10
 74
     0
 42
0.00000001
 43
0.00000001
 12
1.0
 22
0.0
 32
0.0
 13
1.0
 23
0.0
 33
0.0
 40
0.0
 40
0.0
 40
0.0
 40
0.0
 40
0.25
 40
0.25
 40
0.5000000000000001
 40
0.5000000000000001
 40
0.7500000000000002
 40
0.7500000000000002
 40
1.0
 40
1.0
 40
1.0
 40
1.0
 10
217.232371458552
 20
247.2790652168932
 30
0.0
 10
217.232371458552
 20
249.1622544787191
 30
0.0
 10
217.2003008916944
 20
251.0424220400632
 30
0.0
 10
217.0609145167777
 20
254.7956682934722
 30
0.0
 10
216.9537770535992
 20
256.6687637403588
 30
0.0
 10
216.6439786065189
 20
260.4059582809037
 30
0.0
 10
216.4415740009324
 20
262.2700813972553
 30
0.0
 10
215.9010635576078
 20
265.985553774526
 30
0.0
 10
215.5637745948119
 20
267.8369796984661
 30
0.0
 10
215.123481286405
 20
269.6787159306169
 30
0.0
  0
SPLINE
  5
125
330
1F
100
AcDbEntity
  8
0
  6
SLD-Durchgehend
 62
     7
370
    15
100
AcDbSpline
210
0.0
220
0.0
230
1.0
 70
     8
 71
     3
 72
    14
 73
    10
 74
     0
 42
0.00000001
 43
0.00000001
 12
1.0
 22
0.0
 32
0.0
 13
1.0
 23
0.0
 33
0.0
 40
0.0
 40
0.0
 40
0.0
 40
0.0
 40
0.25
 40
0.25
 40
0.5
 40
0.5
 40
0.75
 40
0.75
 40
1.0
 40
1.0
 40
1.0
 40
1.0
 10
126.8412616306991
 20
269.6787159306169
 30
0.0
 10
126.4009683222922
 20
267.8369796984662
 30
0.0
 10
126.0636793594963
 20
265.985553774526
 30
0.0
 10
125.5231689161717
 20
262.2700813972552
 30
0.0
 10
125.3207643105852
 20
260.4059582809037
 30
0.0
 10
125.0109658635049
 20
256.6687637403588
 30
0.0
 10
124.9038284003263
 20
254.7956682934721
 30
0.0
 10
124.7644420254097
 20
251.0424220400632
 30
0.0
 10
124.732371458552
 20
249.1622544787191
 30
0.0
 10
124.732371458552
 20
247.2790652168932
 30
0.0
  0
SPLINE
  5
126
330
1F
100
AcDbEntity
  8
0
  6
SLD-Durchgehend
 62
     7
370
    15
100
AcDbSpline
210
0.0
220
0.0
230
1.0
 70
     8
 71
     3
 72
    32
 73
    28
 74
     0
 42
0.00000001
 43
0.00000001
 12
1.0
 22
0.0
 32
0.0
 13
1.0
 23
0.0
 33
0.0
 40
0.0
 40
0.0
 40
0.0
 40
0.0
 40
0.1249999999999998
 40
0.1249999999999998
 40
0.2499999999999996
 40
0.2499999999999996
 40
0.3749999999999994
 40
0.3749999999999994
 40
0.4374999999999993
 40
0.4374999999999993
 40
0.4687499999999993
 40
0.4687499999999993
 40
0.4999999999999993
 40
0.4999999999999993
 40
0.6249999999999992
 40
0.6249999999999992
 40
0.6562499999999994
 40
0.6562499999999994
 40
0.6874999999999997
 40
0.6874999999999997
 40
0.7499999999999997
 40
0.7499999999999997
 40
0.8124999999999997
 40
0.8124999999999997
 40
0.8749999999999997
 40
0.8749999999999997
 40
1.0
 40
1.0
 40
1.0
 40
1.0
 10
170.982371458552
 20
293.5290652168932
 30
0.0
 10
168.6862938189321
 20
293.5290652168932
 30
0.0
 10
166.3961757919585
 20
293.4816124566107
 30
0.0
 10
161.8305160612265
 20
293.2706445654871
 30
0.0
 10
159.5548737101108
 20
293.1079308281608
 30
0.0
 10
155.0238013943478
 20
292.6215644491273
 30
0.0
 10
152.7682982334591
 20
292.298494624443
 30
0.0
 10
149.4091121453712
 20
291.6222458829229
 30
0.0
 10
148.2934608050276
 20
291.3643641395121
 30
0.0
 10
146.6279724579639
 20
290.9139326702223
 30
0.0
 10
146.0741464446153
 20
290.7531449709282
 30
0.0
 10
144.9695756715634
 20
290.4070354290525
 30
0.0
 10
144.4172597662713
 20
290.2211310494695
 30
0.0
 10
141.685573469409
 20
289.228123230662
 30
0.0
 10
139.6074207191795
 20
288.237134702987
 30
0.0
 10
137.205521508716
 20
286.6393457244508
 30
0.0
 10
136.7349518416626
 20
286.3017975061889
 30
0.0
 10
135.8151733325425
 20
285.5875284487803
 30
0.0
 10
135.3651290879334
 20
285.2097390631346
 30
0.0
 10
134.0741430054279
 20
284.0364141607471
 30
0.0
 10
133.2842947389209
 20
283.1944474260595
 30
0.0
 10
131.838615510118
 20
281.3974275130622
 30
0.0
 10
131.1825783931385
 20
280.4425482921391
 30
0.0
 10
129.9934430689289
 20
278.4290515743427
 30
0.0
 10
129.467737198148
 20
277.382235463188
 30
0.0
 10
128.0731904030676
 20
274.1711226075197
 30
0.0
 10
127.3841232117147
 20
271.9494927598555
 30
0.0
 10
126.8412616306991
 20
269.6787159306169
 30
0.0
  0
SPLINE
  5
127
330
1F
100
AcDbEntity
  8
0
  6
SLD-Durchgehend
 62
     7
370
    15
100
AcDbSpline
210
0.0
220
0.0
230
1.0
 70
     8
 71
     3
 72
    14
 73
    10
 74
     0
 42
0.00000001
 43
0.00000001
 12
1.0
 22
0.0
 32
0.0
 13
1.0
 23
0.0
 33
0.0
 40
0.0
 40
0.0
 40
0.0
 40
0.0
 40
0.25
 40
0.25
 40
0.5
 40
0.5
 40
0.75
 40
0.75
 40
1.0
 40
1.0
 40
1.0
 40
1.0
 10
225.8638117465151
 20
247.2715574422572
 30
0.0
 10
225.8528359864404
 20
245.0668627006751
 30
0.0
 10
225.8008605768789
 20
242.8645989440103
 30
0.0
 10
225.6170398822723
 20
238.46480721179
 30
0.0
 10
225.4852925568596
 20
236.2672728596372
 30
0.0
 10
225.1358141473651
 20
231.8773141799551
 30
0.0
 10
224.9192264299551
 20
229.6832539097357
 30
0.0
 10
224.3701680863358
 20
225.3089527707771
 30
0.0
 10
224.0386660873523
 20
223.1333818480387
 30
0.0
 10
223.6208439652742
 20
220.9753444940492
 30
0.0
  0
SPLINE
  5
128
330
1F
100
AcDbEntity
  8
0
  6
SLD-Durchgehend
 62
     7
370
    15
100
AcDbSpline
210
0.0
220
0.0
230
1.0
 70
     8
 71
     3
 72
    12
 73
     8
 74
     0
 42
0.00000001
 43
0.00000001
 12
1.0
 22
0.0
 32
0.0
 13
1.0
 23
0.0
 33
0.0
 40
0.0
 40
0.0
 40
0.0
 40
0.0
 40
0.0601490723077954
 40
0.2254076268507411
 40
0.4179195849091167
 40
0.6105496510079612
 40
1.0
 40
1.0
 40
1.0
 40
1.0
 10
206.6973947463242
 20
197.1745708311961
 30
0.0
 10
206.0339843698559
 20
196.8766469220368
 30
0.0
 10
203.5478652519639
 20
195.760182132654
 30
0.0
 10
198.5839556445395
 20
194.663413750428
 30
0.0
 10
192.0402016207662
 20
193.5424725333391
 30
0.0
 10
182.7175532415085
 20
192.6216769649231
 30
0.0
 10
175.6865669506747
 20
192.4661279208356
 30
0.0
 10
170.982371458552
 20
192.3620553082983
 30
0.0
  0
SPLINE
  5
129
330
1F
100
AcDbEntity
  8
0
  6
SLD-Durchgehend
 62
     7
370
    15
100
AcDbSpline
210
0.0
220
0.0
230
1.0
 70
     8
 71
     3
 72
    12
 73
     8
 74
     0
 42
0.00000001
 43
0.00000001
 12
1.0
 22
0.0
 32
0.0
 13
1.0
 23
0.0
 33
0.0
 40
0.0
 40
0.0
 40
0.0
 40
0.0
 40
0.3865105330269805
 40
0.5815237356616701
 40
0.7764149041311591
 40
0.938605068764045
 40
1.0
 40
1.0
 40
1.0
 40
1.0
 10
170.982371458552
 20
192.3620553082983
 30
0.0
 10
166.3246875822522
 20
192.4644925418706
 30
0.0
 10
159.3169775825666
 20
192.6186142996176
 30
0.0
 10
149.9935119966702
 20
193.5318376906552
 30
0.0
 10
143.4445549778264
 20
194.6519005281456
 30
0.0
 10
138.4856806561265
 20
195.7430738065763
 30
0.0
 10
136.0239250639041
 20
196.8448077208698
 30
0.0
 10
135.3479438912016
 20
197.147336284527
 30
0.0
  0
SPLINE
  5
12A
330
1F
100
AcDbEntity
  8
0
  6
SLD-Durchgehend
 62
     7
370
    15
100
AcDbSpline
210
0.0
220
0.0
230
1.0
 70
     8
 71
     3
 72
    14
 73
    10
 74
     0
 42
0.00000001
 43
0.00000001
 12
1.0
 22
0.0
 32
0.0
 13
1.0
 23
0.0
 33
0.0
 40
0.0
 40
0.0
 40
0.0
 40
0.0
 40
0.25
 40
0.25
 40
0.5
 40
0.5
 40
0.75
 40
0.75
 40
1.0
 40
1.0
 40
1.0
 40
1.0
 10
118.3571668830204
 20
220.9069744557167
 30
0.0
 10
117.9363726815673
 20
223.0703302267546
 30
0.0
 10
117.6027632847773
 20
225.251395057346
 30
0.0
 10
117.0503974590323
 20
229.6368683980592
 30
0.0
 10
116.8326219783274
 20
231.8367729312833
 30
0.0
 10
116.4813009179768
 20
236.2382680259679
 30
0.0
 10
116.3488876172906
 20
238.4415857955037
 30
0.0
 10
116.1641555010077
 20
242.8529693144903
 30
0.0
 10
116.1119359106575
 20
245.0610415056351
 30
0.0
 10
116.100931170589
 20
247.2715574422572
 30
0.0
  0
LINE
  5
12B
330
1F
100
AcDbEntity
  8
0
  6
SLD-Durchgehend
 62
     7
370
    15
100
AcDbLine
 10
116.1009311706
 20
247.2715574423
 30
0.0
 11
116.0927742026
 21
247.2716870613
 31
0.0
  0
SPLINE
  5
12C
330
1F
100
AcDbEntity
  8
0
  6
SLD-Durchgehend
 62
     7
370
    15
100
AcDbSpline
210
0.0
220
0.0
230
1.0
 70
     8
 71
     3
 72
    40
 73
    36
 74
     0
 42
0.00000001
 43
0.00000001
 12
1.0
 22
0.0
 32
0.0
 13
1.0
 23
0.0
 33
0.0
 40
0.0
 40
0.0
 40
0.0
 40
0.0
 40
0.1249999999999999
 40
0.1249999999999999
 40
0.1874999999999999
 40
0.1874999999999999
 40
0.2499999999999999
 40
0.2499999999999999
 40
0.3124999999999999
 40
0.3124999999999999
 40
0.34375
 40
0.34375
 40
0.3750000000000001
 40
0.3750000000000001
 40
0.4375000000000003
 40
0.4375000000000003
 40
0.4687500000000002
 40
0.4687500000000002
 40
0.5000000000000002
 40
0.5000000000000002
 40
0.5312500000000002
 40
0.5312500000000002
 40
0.5625000000000002
 40
0.5625000000000002
 40
0.6250000000000001
 40
0.6250000000000001
 40
0.6875000000000001
 40
0.6875000000000001
 40
0.75
 40
0.75
 40
0.8125
 40
0.8125
 40
0.875
 40
0.875
 40
1.0
 40
1.0
 40
1.0
 40
1.0
 10
126.182371458552
 20
247.2790652168932
 30
0.0
 10
126.182371458552
 20
250.4307671689373
 30
0.0
 10
126.2709328576429
 20
253.5794056639783
 30
0.0
 10
126.589929014967
 20
258.295923974338
 30
0.0
 10
126.7276112614616
 20
259.8651196552058
 30
0.0
 10
127.0842822344451
 20
262.9877744161573
 30
0.0
 10
127.303189510503
 20
264.5422564148117
 30
0.0
 10
127.8528311506849
 20
267.6323526985347
 30
0.0
 10
128.1833706805799
 20
269.1679998495176
 30
0.0
 10
128.800533475779
 20
271.4509955950291
 30
0.0
 10
129.0273508696213
 20
272.2106743506912
 30
0.0
 10
129.526059551512
 20
273.7083794938001
 30
0.0
 10
129.7978458887752
 20
274.4465970484654
 30
0.0
 10
130.6922896783143
 20
276.6237556026505
 30
0.0
 10
131.3939110481002
 20
278.0252597934253
 30
0.0
 10
132.663258850522
 20
280.0246762719009
 30
0.0
 10
133.1250912977493
 20
280.6764945576311
 30
0.0
 10
134.1098847288324
 20
281.914121934902
 30
0.0
 10
134.6342979147945
 20
282.5028262843477
 30
0.0
 10
135.7490258136433
 20
283.6182590288068
 30
0.0
 10
136.3400881791914
 20
284.1456005679989
 30
0.0
 10
137.5844666358253
 20
285.1363058087874
 30
0.0
 10
138.229106392438
 20
285.5930117626547
 30
0.0
 10
140.2228288609443
 20
286.8601835526653
 30
0.0
 10
141.6334832606372
 20
287.5683726010486
 30
0.0
 10
144.5690456347197
 20
288.7728988887292
 30
0.0
 10
146.064003160339
 20
289.2594514529848
 30
0.0
 10
149.0904348986801
 20
290.0770771907742
 30
0.0
 10
150.6221333570258
 20
290.4071956084956
 30
0.0
 10
153.7114580433715
 20
290.9570385020922
 30
0.0
 10
155.2696066579435
 20
291.17668949168
 30
0.0
 10
158.4029599834802
 20
291.5345331661048
 30
0.0
 10
159.9717883960271
 20
291.6719692805807
 30
0.0
 10
164.6831405332266
 20
291.9904445423857
 30
0.0
 10
167.8304577668226
 20
292.0790652168931
 30
0.0
 10
170.9823714585521
 20
292.0790652168931
 30
0.0
  0
SPLINE
  5
12D
330
1F
100
AcDbEntity
  8
0
  6
SLD-Durchgehend
 62
     7
370
    15
100
AcDbSpline
210
0.0
220
0.0
230
1.0
 70
     8
 71
     3
 72
    40
 73
    36
 74
     0
 42
0.00000001
 43
0.00000001
 12
1.0
 22
0.0
 32
0.0
 13
1.0
 23
0.0
 33
0.0
 40
0.0
 40
0.0
 40
0.0
 40
0.0
 40
0.1250000000000005
 40
0.1250000000000005
 40
0.1875000000000007
 40
0.1875000000000007
 40
0.2500000000000009
 40
0.2500000000000009
 40
0.3125000000000011
 40
0.3125000000000011
 40
0.3437500000000012
 40
0.3437500000000012
 40
0.3750000000000013
 40
0.3750000000000013
 40
0.4375000000000013
 40
0.4375000000000013
 40
0.4687500000000012
 40
0.4687500000000012
 40
0.5000000000000011
 40
0.5000000000000011
 40
0.531250000000001
 40
0.531250000000001
 40
0.5625000000000009
 40
0.5625000000000009
 40
0.6250000000000008
 40
0.6250000000000008
 40
0.6875000000000008
 40
0.6875000000000008
 40
0.7500000000000007
 40
0.7500000000000007
 40
0.8125000000000006
 40
0.8125000000000006
 40
0.8750000000000003
 40
0.8750000000000003
 40
1.0
 40
1.0
 40
1.0
 40
1.0
 10
215.7823714585521
 20
247.2790652168932
 30
0.0
 10
215.7823714585521
 20
244.127363264849
 30
0.0
 10
215.6938100594612
 20
240.9787247698079
 30
0.0
 10
215.374813902137
 20
236.2622064594483
 30
0.0
 10
215.2371316556424
 20
234.6930107785805
 30
0.0
 10
214.880460682659
 20
231.5703560176291
 30
0.0
 10
214.6615534066011
 20
230.0158740189746
 30
0.0
 10
214.1119117664191
 20
226.9257777352516
 30
0.0
 10
213.7813722365242
 20
225.3901305842687
 30
0.0
 10
213.1642094413251
 20
223.1071348387572
 30
0.0
 10
212.9373920474827
 20
222.3474560830951
 30
0.0
 10
212.4386833655921
 20
220.8497509399863
 30
0.0
 10
212.1668970283289
 20
220.1115333853209
 30
0.0
 10
211.2724532387898
 20
217.9343748311358
 30
0.0
 10
210.5708318690039
 20
216.532870640361
 30
0.0
 10
209.3014840665821
 20
214.5334541618854
 30
0.0
 10
208.8396516193548
 20
213.8816358761552
 30
0.0
 10
207.8548581882717
 20
212.6440084988843
 30
0.0
 10
207.3304450023095
 20
212.0553041494386
 30
0.0
 10
206.2157171034608
 20
210.9398714049795
 30
0.0
 10
205.6246547379127
 20
210.4125298657874
 30
0.0
 10
204.3802762812788
 20
209.4218246249989
 30
0.0
 10
203.735636524666
 20
208.9651186711316
 30
0.0
 10
201.7419140561598
 20
207.697946881121
 30
0.0
 10
200.3312596564669
 20
206.9897578327377
 30
0.0
 10
197.3956972823844
 20
205.7852315450572
 30
0.0
 10
195.9007397567651
 20
205.2986789808015
 30
0.0
 10
192.874308018424
 20
204.4810532430121
 30
0.0
 10
191.3426095600783
 20
204.1509348252907
 30
0.0
 10
188.2532848737326
 20
203.601091931694
 30
0.0
 10
186.6951362591606
 20
203.3814409421063
 30
0.0
 10
183.5617829336238
 20
203.0235972676814
 30
0.0
 10
181.992954521077
 20
202.8861611532056
 30
0.0
 10
177.2816023838775
 20
202.5676858914006
 30
0.0
 10
174.1342851502814
 20
202.4790652168932
 30
0.0
 10
170.982371458552
 20
202.4790652168932
 30
0.0
  0
SPLINE
  5
12E
330
1F
100
AcDbEntity
  8
0
  6
SLD-Durchgehend
 62
     7
370
    15
100
AcDbSpline
210
0.0
220
0.0
230
1.0
 70
     8
 71
     3
 72
    40
 73
    36
 74
     0
 42
0.00000001
 43
0.00000001
 12
1.0
 22
0.0
 32
0.0
 13
1.0
 23
0.0
 33
0.0
 40
0.0
 40
0.0
 40
0.0
 40
0.0
 40
0.1249999999999994
 40
0.1249999999999994
 40
0.1874999999999992
 40
0.1874999999999992
 40
0.2499999999999989
 40
0.2499999999999989
 40
0.3124999999999986
 40
0.3124999999999986
 40
0.3437499999999986
 40
0.3437499999999986
 40
0.3749999999999986
 40
0.3749999999999986
 40
0.4374999999999984
 40
0.4374999999999984
 40
0.4687499999999986
 40
0.4687499999999986
 40
0.4999999999999987
 40
0.4999999999999987
 40
0.5312499999999988
 40
0.5312499999999988
 40
0.5624999999999988
 40
0.5624999999999988
 40
0.624999999999999
 40
0.624999999999999
 40
0.6874999999999991
 40
0.6874999999999991
 40
0.7499999999999993
 40
0.7499999999999993
 40
0.8124999999999994
 40
0.8124999999999994
 40
0.8749999999999997
 40
0.8749999999999997
 40
1.0
 40
1.0
 40
1.0
 40
1.0
 10
170.982371458552
 20
292.0790652168931
 30
0.0
 10
174.1340670118706
 20
292.0790652168932
 30
0.0
 10
177.2827002287811
 20
291.990493363401
 30
0.0
 10
181.9992138378912
 20
291.6714845173574
 30
0.0
 10
183.5683954865765
 20
291.533800504598
 30
0.0
 10
186.6910399924674
 20
291.1771347633145
 30
0.0
 10
188.2455203507144
 20
290.9582344984683
 30
0.0
 10
191.3356238457482
 20
290.4086239971247
 30
0.0
 10
192.871280207739
 20
290.0781107918529
 30
0.0
 10
195.1543005296759
 20
289.4610022773065
 30
0.0
 10
195.9139878486269
 20
289.2342049891265
 30
0.0
 10
197.4116850747994
 20
288.7355444050847
 30
0.0
 10
198.1499005465624
 20
288.4637816545186
 30
0.0
 10
200.3270523416491
 20
287.5693919720748
 30
0.0
 10
201.7285449042276
 20
286.8677709047016
 30
0.0
 10
203.7279330865562
 20
285.5983579385821
 30
0.0
 10
204.3797343862808
 20
285.1364994593007
 30
0.0
 10
205.6173263869333
 20
284.1516712641734
 30
0.0
 10
206.2060191319712
 20
283.6272440994452
 30
0.0
 10
207.321464265208
 20
282.5125197869053
 30
0.0
 10
207.8488056497636
 20
281.9214291188587
 30
0.0
 10
208.8394653944248
 20
280.6770259860749
 30
0.0
 10
209.2961452176738
 20
280.0323699100309
 30
0.0
 10
210.5632588282879
 20
278.0386048550731
 30
0.0
 10
211.2714524010736
 20
276.6279200387027
 30
0.0
 10
212.476030660374
 20
273.6923946338963
 30
0.0
 10
212.9626325132869
 20
272.1974547152279
 30
0.0
 10
213.7803348211723
 20
269.171044477969
 30
0.0
 10
214.1104810548133
 20
267.6393499844372
 30
0.0
 10
214.6603573398855
 20
264.5500219421068
 30
0.0
 10
214.8800168859492
 20
262.9918590555928
 30
0.0
 10
215.2378647484179
 20
259.8585020673005
 30
0.0
 10
215.3752981378324
 20
258.2896711842941
 30
0.0
 10
215.6937611896851
 20
253.5783105398156
 30
0.0
 10
215.782371458552
 20
250.4309862800415
 30
0.0
 10
215.782371458552
 20
247.2790652168931
 30
0.0
  0
SPLINE
  5
12F
330
1F
100
AcDbEntity
  8
0
  6
SLD-Durchgehend
 62
     7
370
    15
100
AcDbSpline
210
0.0
220
0.0
230
1.0
 70
     8
 71
     3
 72
    40
 73
    36
 74
     0
 42
0.00000001
 43
0.00000001
 12
1.0
 22
0.0
 32
0.0
 13
1.0
 23
0.0
 33
0.0
 40
0.0
 40
0.0
 40
0.0
 40
0.0
 40
0.1249999999999996
 40
0.1249999999999996
 40
0.1874999999999994
 40
0.1874999999999994
 40
0.2499999999999992
 40
0.2499999999999992
 40
0.312499999999999
 40
0.312499999999999
 40
0.3437499999999989
 40
0.3437499999999989
 40
0.3749999999999988
 40
0.3749999999999988
 40
0.4374999999999986
 40
0.4374999999999986
 40
0.4687499999999986
 40
0.4687499999999986
 40
0.4999999999999987
 40
0.4999999999999987
 40
0.5312499999999987
 40
0.5312499999999987
 40
0.5624999999999987
 40
0.5624999999999987
 40
0.6249999999999988
 40
0.6249999999999988
 40
0.687499999999999
 40
0.687499999999999
 40
0.7499999999999991
 40
0.7499999999999991
 40
0.8124999999999992
 40
0.8124999999999992
 40
0.8749999999999994
 40
0.8749999999999994
 40
1.0
 40
1.0
 40
1.0
 40
1.0
 10
170.982371458552
 20
202.4790652168932
 30
0.0
 10
167.8306759052334
 20
202.4790652168932
 30
0.0
 10
164.682042688323
 20
202.5676370703853
 30
0.0
 10
159.9655290792128
 20
202.8866459164289
 30
0.0
 10
158.3963474305275
 20
203.0243299291882
 30
0.0
 10
155.2737029246366
 20
203.3809956704718
 30
0.0
 10
153.7192225663897
 20
203.599895935318
 30
0.0
 10
150.6291190713559
 20
204.1495064366615
 30
0.0
 10
149.093462709365
 20
204.4800196419334
 30
0.0
 10
146.8104423874282
 20
205.0971281564797
 30
0.0
 10
146.0507550684771
 20
205.3239254446597
 30
0.0
 10
144.5530578423047
 20
205.8225860287015
 30
0.0
 10
143.8148423705417
 20
206.0943487792676
 30
0.0
 10
141.637690575455
 20
206.9887384617115
 30
0.0
 10
140.2361980128765
 20
207.6903595290847
 30
0.0
 10
138.2368098305479
 20
208.9597724952041
 30
0.0
 10
137.5850085308233
 20
209.4216309744856
 30
0.0
 10
136.3474165301708
 20
210.4064591696128
 30
0.0
 10
135.7587237851329
 20
210.9308863343411
 30
0.0
 10
134.643278651896
 20
212.045610646881
 30
0.0
 10
134.1159372673405
 20
212.6367013149276
 30
0.0
 10
133.1252775226793
 20
213.8811044477113
 30
0.0
 10
132.6685976994302
 20
214.5257605237554
 30
0.0
 10
131.4014840888161
 20
216.5195255787131
 30
0.0
 10
130.6932905160305
 20
217.9302103950835
 30
0.0
 10
129.4887122567301
 20
220.86573579989
 30
0.0
 10
129.0021104038171
 20
222.3606757185584
 30
0.0
 10
128.1844080959317
 20
225.3870859558172
 30
0.0
 10
127.8542618622908
 20
226.9187804493491
 30
0.0
 10
127.3043855772186
 20
230.0081084916795
 30
0.0
 10
127.0847260311549
 20
231.5662713781934
 30
0.0
 10
126.7268781686862
 20
234.6996283664858
 30
0.0
 10
126.5894447792717
 20
236.2684592494921
 30
0.0
 10
126.270981727419
 20
240.9798198939708
 30
0.0
 10
126.182371458552
 20
244.1271441537448
 30
0.0
 10
126.182371458552
 20
247.2790652168932
 30
0.0
  0
SPLINE
  5
130
330
1F
100
AcDbEntity
  8
0
  6
SLD-Durchgehend
 62
     7
370
    15
100
AcDbSpline
210
0.0
220
0.0
230
1.0
 70
     8
 71
     3
 72
    44
 73
    40
 74
     0
 42
0.00000001
 43
0.00000001
 12
1.0
 22
0.0
 32
0.0
 13
1.0
 23
0.0
 33
0.0
 40
0.0
 40
0.0
 40
0.0
 40
0.0
 40
0.1250000000000008
 40
0.1250000000000008
 40
0.1875000000000011
 40
0.1875000000000011
 40
0.2500000000000015
 40
0.2500000000000015
 40
0.3125000000000018
 40
0.3125000000000018
 40
0.3750000000000022
 40
0.3750000000000022
 40
0.4062500000000023
 40
0.4062500000000023
 40
0.4375000000000024
 40
0.4375000000000024
 40
0.4687500000000025
 40
0.4687500000000025
 40
0.4843750000000026
 40
0.4843750000000026
 40
0.5000000000000026
 40
0.5000000000000026
 40
0.5625000000000023
 40
0.5625000000000023
 40
0.5937500000000022
 40
0.5937500000000022
 40
0.6250000000000021
 40
0.6250000000000021
 40
0.6875000000000017
 40
0.6875000000000017
 40
0.7500000000000013
 40
0.7500000000000013
 40
0.7812500000000012
 40
0.7812500000000012
 40
0.812500000000001
 40
0.812500000000001
 40
0.8750000000000007
 40
0.8750000000000007
 40
1.0
 40
1.0
 40
1.0
 40
1.0
 10
124.7323714585638
 20
247.279003038727
 30
0.0
 10
124.7323726880114
 20
244.0285003573364
 30
0.0
 10
124.8257561263939
 20
240.7849076181847
 30
0.0
 10
125.1615472824884
 20
235.9340011159719
 30
0.0
 10
125.306432504901
 20
234.3194708578668
 30
0.0
 10
125.6839199643689
 20
231.096901104238
 30
0.0
 10
125.9166939734503
 20
229.4869504299707
 30
0.0
 10
126.5034965445023
 20
226.2842673507347
 30
0.0
 10
126.8558256863837
 20
224.7004308735306
 30
0.0
 10
127.7249252297553
 20
221.5816065264183
 30
0.0
 10
128.2410607428731
 20
220.0464300424975
 30
0.0
 10
129.1912161100399
 20
217.7959331798575
 30
0.0
 10
129.5389789622249
 20
217.0524318148853
 30
0.0
 10
130.2927206230536
 20
215.6107856697723
 30
0.0
 10
130.6994695905137
 20
214.9101006006297
 30
0.0
 10
131.578696627865
 20
213.5530321847405
 30
0.0
 10
132.0511771702446
 20
212.8966505045007
 30
0.0
 10
132.8138154464191
 20
211.9484185980421
 30
0.0
 10
133.0770156590287
 20
211.6383988804007
 30
0.0
 10
133.6221710723081
 20
211.0310003892792
 30
0.0
 10
133.9050785870925
 20
210.7327204644539
 30
0.0
 10
135.3525040740171
 20
209.2896707453506
 30
0.0
 10
136.6189594190122
 20
208.2843296603787
 30
0.0
 10
138.6587824475173
 20
206.9688691949716
 30
0.0
 10
139.3620677549918
 20
206.5624572384879
 30
0.0
 10
140.8115034897217
 20
205.8085296345627
 30
0.0
 10
141.5524611618123
 20
205.4639969833192
 30
0.0
 10
143.7950253755761
 20
204.5216707854401
 30
0.0
 10
145.3254926771112
 20
204.0089356807955
 30
0.0
 10
148.4359623065797
 20
203.1449472855554
 30
0.0
 10
150.0161499149145
 20
202.7942979504134
 30
0.0
 10
152.4133480390573
 20
202.3560707732083
 30
0.0
 10
153.2164059868835
 20
202.2248791147438
 30
0.0
 10
154.8222445973436
 20
201.988786985953
 30
0.0
 10
155.6261037955499
 20
201.8836934013274
 30
0.0
 10
158.0400793098208
 20
201.6014577615924
 30
0.0
 10
159.6525675686558
 20
201.4570028218606
 30
0.0
 10
164.4971842196994
 20
201.1221949109987
 30
0.0
 10
167.7363678711448
 20
201.0290664446273
 30
0.0
 10
170.9823092803859
 20
201.0290652169049
 30
0.0
  0
SPLINE
  5
131
330
1F
100
AcDbEntity
  8
0
  6
SLD-Durchgehend
 62
     7
370
    15
100
AcDbSpline
210
0.0
220
0.0
230
1.0
 70
     8
 71
     3
 72
    44
 73
    40
 74
     0
 42
0.00000001
 43
0.00000001
 12
1.0
 22
0.0
 32
0.0
 13
1.0
 23
0.0
 33
0.0
 40
0.0
 40
0.0
 40
0.0
 40
0.0
 40
0.1249999999999991
 40
0.1249999999999991
 40
0.1874999999999986
 40
0.1874999999999986
 40
0.2499999999999982
 40
0.2499999999999982
 40
0.3124999999999977
 40
0.3124999999999977
 40
0.3749999999999972
 40
0.3749999999999972
 40
0.4062499999999971
 40
0.4062499999999971
 40
0.4374999999999969
 40
0.4374999999999969
 40
0.4687499999999967
 40
0.4687499999999967
 40
0.4843749999999966
 40
0.4843749999999966
 40
0.4999999999999966
 40
0.4999999999999966
 40
0.5624999999999969
 40
0.5624999999999969
 40
0.593749999999997
 40
0.593749999999997
 40
0.6249999999999972
 40
0.6249999999999972
 40
0.6874999999999978
 40
0.6874999999999978
 40
0.7499999999999982
 40
0.7499999999999982
 40
0.7812499999999984
 40
0.7812499999999984
 40
0.8124999999999987
 40
0.8124999999999987
 40
0.8749999999999991
 40
0.8749999999999991
 40
1.0
 40
1.0
 40
1.0
 40
1.0
 10
170.9824336367182
 20
201.0290652169049
 30
0.0
 10
174.2329363181087
 20
201.0290664463525
 30
0.0
 10
177.4765290572605
 20
201.1224498847349
 30
0.0
 10
182.3274355594733
 20
201.4582410408294
 30
0.0
 10
183.9419658175783
 20
201.6031262632421
 30
0.0
 10
187.1645355712071
 20
201.98061372271
 30
0.0
 10
188.7744862454744
 20
202.2133877317914
 30
0.0
 10
191.9771693247104
 20
202.8001903028435
 30
0.0
 10
193.5610058019145
 20
203.1525194447248
 30
0.0
 10
196.6798301490269
 20
204.0216189880965
 30
0.0
 10
198.2150066329477
 20
204.5377545012142
 30
0.0
 10
200.4655034955877
 20
205.4879098683809
 30
0.0
 10
201.2090048605599
 20
205.8356727205659
 30
0.0
 10
202.6506510056729
 20
206.5894143813946
 30
0.0
 10
203.3513360748155
 20
206.9961633488547
 30
0.0
 10
204.7084044907047
 20
207.875390386206
 30
0.0
 10
205.3647861709445
 20
208.3478709285856
 30
0.0
 10
206.3130180774031
 20
209.1105092047601
 30
0.0
 10
206.6230377950445
 20
209.3737094173698
 30
0.0
 10
207.230436286166
 20
209.9188648306491
 30
0.0
 10
207.5287162109912
 20
210.2017723454335
 30
0.0
 10
208.9717659300945
 20
211.6491978323583
 30
0.0
 10
209.9771070150664
 20
212.9156531773533
 30
0.0
 10
211.2925674804735
 20
214.9554762058584
 30
0.0
 10
211.6989794369572
 20
215.6587615133329
 30
0.0
 10
212.4529070408824
 20
217.1081972480629
 30
0.0
 10
212.797439692126
 20
217.8491549201535
 30
0.0
 10
213.739765890005
 20
220.0917191339172
 30
0.0
 10
214.2525009946497
 20
221.6221864354523
 30
0.0
 10
215.1164893898899
 20
224.7326560649208
 30
0.0
 10
215.4671387250319
 20
226.3128436732556
 30
0.0
 10
215.905365902237
 20
228.7100417973984
 30
0.0
 10
216.0365575607014
 20
229.5130997452246
 30
0.0
 10
216.2726496894922
 20
231.1189383556847
 30
0.0
 10
216.3777432741178
 20
231.9227975538911
 30
0.0
 10
216.6599789138527
 20
234.336773068162
 30
0.0
 10
216.8044338535845
 20
235.949261326997
 30
0.0
 10
217.1392417644464
 20
240.7938779780405
 30
0.0
 10
217.2323702308179
 20
244.0330616294859
 30
0.0
 10
217.2323714585403
 20
247.279003038727
 30
0.0
  0
SPLINE
  5
132
330
1F
100
AcDbEntity
  8
0
  6
SLD-Durchgehend
 62
     7
370
    15
100
AcDbSpline
210
0.0
220
0.0
230
1.0
 70
     8
 71
     3
 72
    30
 73
    26
 74
     0
 42
0.00000001
 43
0.00000001
 12
1.0
 22
0.0
 32
0.0
 13
1.0
 23
0.0
 33
0.0
 40
0.0
 40
0.0
 40
0.0
 40
0.0
 40
0.1249999999999992
 40
0.1249999999999992
 40
0.1874999999999988
 40
0.1874999999999988
 40
0.2499999999999982
 40
0.2499999999999982
 40
0.3124999999999977
 40
0.3124999999999977
 40
0.3437499999999975
 40
0.3437499999999975
 40
0.3749999999999974
 40
0.3749999999999974
 40
0.4374999999999974
 40
0.4374999999999974
 40
0.4999999999999976
 40
0.4999999999999976
 40
0.6249999999999982
 40
0.6249999999999982
 40
0.7499999999999987
 40
0.7499999999999987
 40
0.8749999999999993
 40
0.8749999999999993
 40
1.0
 40
1.0
 40
1.0
 40
1.0
 10
215.123481286405
 20
269.678715930617
 30
0.0
 10
214.5851756027749
 20
271.9304355515706
 30
0.0
 10
213.9038956145953
 20
274.1278258262802
 30
0.0
 10
212.538631129957
 20
277.2934424634906
 30
0.0
 10
212.0245245556899
 20
278.3277121526692
 30
0.0
 10
210.8515604564811
 20
280.3351498524533
 30
0.0
 10
210.2042012167522
 20
281.288546643067
 30
0.0
 10
208.7765551506843
 20
283.0854601546095
 30
0.0
 10
207.9961036485343
 20
283.9288407518782
 30
0.0
 10
206.7190204263245
 20
285.1059547715219
 30
0.0
 10
206.2740937223193
 20
285.4848552006925
 30
0.0
 10
205.3640043496529
 20
286.2020620419361
 30
0.0
 10
204.8975462978767
 20
286.5417752748384
 30
0.0
 10
203.4663942221002
 20
287.5083195418478
 30
0.0
 10
202.469963267425
 20
288.0826229861668
 30
0.0
 10
200.404611078097
 20
289.1112516787627
 30
0.0
 10
199.330704323141
 20
289.5669493675394
 30
0.0
 10
196.0821413888803
 20
290.7645305596026
 30
0.0
 10
193.8658483973817
 20
291.350777036032
 30
0.0
 10
189.3728889985412
 20
292.2700756476113
 30
0.0
 10
187.0937115777354
 20
292.6019770281191
 30
0.0
 10
182.5057735402215
 20
293.1006574124888
 30
0.0
 10
180.2029636827372
 20
293.266625813058
 30
0.0
 10
175.5954968027156
 20
293.4811933857565
 30
0.0
 10
173.2897466320132
 20
293.5290652168932
 30
0.0
 10
170.982371458552
 20
293.5290652168932
 30
0.0
  0
SPLINE
  5
133
330
1F
100
AcDbEntity
  8
0
  6
SLD-Durchgehend
 62
     7
370
    15
100
AcDbSpline
210
0.0
220
0.0
230
1.0
 70
    24
 71
     3
 72
    12
 73
     8
 74
     0
 42
0.00000001
 43
0.00000001
 12
1.0
 22
0.0
 32
0.0
 13
1.0
 23
0.0
 33
0.0
 40
0.0
 40
0.0
 40
0.0
 40
0.0
 40
0.5
 40
0.5
 40
0.75
 40
0.75
 40
1.0
 40
1.0
 40
1.0
 40
1.0
 10
216.5823714585519
 20
305.9899443606899
 30
0.0
 10
217.9286036108753
 20
305.9899443606899
 30
0.0
 10
219.273239319337
 20
305.9899443606899
 30
0.0
 10
221.2858516406378
 20
305.9899443606899
 30
0.0
 10
221.9541806179372
 20
305.98994436069
 30
0.0
 10
223.2853195647242
 20
305.98994436069
 30
0.0
 10
223.9480516342336
 20
305.9899443606899
 30
0.0
 10
224.6089218611647
 20
305.9899443606899
 30
0.0
  0
SPLINE
  5
134
330
1F
100
AcDbEntity
  8
0
  6
SLD-Durchgehend
 62
     7
370
    15
100
AcDbSpline
210
0.0
220
0.0
230
1.0
 70
    24
 71
     3
 72
    12
 73
     8
 74
     0
 42
0.00000001
 43
0.00000001
 12
1.0
 22
0.0
 32
0.0
 13
1.0
 23
0.0
 33
0.0
 40
0.0
 40
0.0
 40
0.0
 40
0.0
 40
0.25
 40
0.25
 40
0.5
 40
0.5
 40
1.0
 40
1.0
 40
1.0
 40
1.0
 10
117.3558210559395
 20
305.9899443606899
 30
0.0
 10
118.0166909891599
 20
305.9899443606899
 30
0.0
 10
118.6794298181387
 20
305.9899443606899
 30
0.0
 10
120.0106042617523
 20
305.9899443606899
 30
0.0
 10
120.6789968905888
 20
305.9899443606899
 30
0.0
 10
122.691617679914
 20
305.9899443606899
 30
0.0
 10
124.0361523352983
 20
305.9899443606899
 30
0.0
 10
125.3823714585521
 20
305.9899443606899
 30
0.0
  0
LINE
  5
135
330
1F
100
AcDbEntity
  8
0
  6
SLD-Durchgehend
 62
     7
370
    15
100
AcDbLine
 10
216.5823714586
 20
305.9899443607
 30
0.0
 11
125.3823714586
 21
305.9899443607
 31
0.0
  0
LINE
  5
136
330
1F
100
AcDbEntity
  8
0
  6
SLD-Durchgehend
 62
     7
370
    15
100
AcDbLine
 10
124.7323714586
 20
247.2790652169
 30
0.0
 11
124.7323714586
 21
247.2790030387
 31
0.0
  0
LINE
  5
137
330
1F
100
AcDbEntity
  8
0
  6
SLD-Durchgehend
 62
     7
370
    15
100
AcDbLine
 10
217.2323714585
 20
247.2790030387
 30
0.0
 11
217.2323714586
 21
247.2790652169
 31
0.0
  0
SPLINE
  5
138
330
1F
100
AcDbEntity
  8
0
  6
SLD-Durchgehend
 62
     7
370
    15
100
AcDbSpline
210
0.0
220
0.0
230
1.0
 70
     8
 71
     3
 72
     8
 73
     4
 74
     0
 42
0.00000001
 43
0.00000001
 12
1.0
 22
0.0
 32
0.0
 13
1.0
 23
0.0
 33
0.0
 40
0.0
 40
0.0
 40
0.0
 40
0.0
 40
1.0
 40
1.0
 40
1.0
 40
1.0
 10
116.1008937884524
 20
247.2790652168932
 30
0.0
 10
116.0490196989554
 20
266.8492615674599
 30
0.0
 10
116.0603822265066
 20
286.4196314896501
 30
0.0
 10
116.0641130857521
 20
305.9899443606902
 30
0.0
  0
SPLINE
  5
139
330
1F
100
AcDbEntity
  8
0
  6
SLD-Durchgehend
 62
     7
370
    15
100
AcDbSpline
210
0.0
220
0.0
230
1.0
 70
    24
 71
     3
 72
    12
 73
     8
 74
     0
 42
0.00000001
 43
0.00000001
 12
1.0
 22
0.0
 32
0.0
 13
1.0
 23
0.0
 33
0.0
 40
0.0
 40
0.0
 40
0.0
 40
0.0
 40
0.2500000000000013
 40
0.2500000000000013
 40
0.5000000000000027
 40
0.5000000000000027
 40
1.0
 40
1.0
 40
1.0
 40
1.0
 10
116.0641130857521
 20
305.9899443606899
 30
0.0
 10
116.050177672764
 20
305.9899443606899
 30
0.0
 10
116.0715869398077
 20
305.9899443606899
 30
0.0
 10
116.1832455651315
 20
305.9899443606899
 30
0.0
 10
116.2721871604955
 20
305.9899443606899
 30
0.0
 10
116.6257907930876
 20
305.9899443606899
 30
0.0
 10
116.9725459046444
 20
305.9899443606899
 30
0.0
 10
117.3558210559395
 20
305.9899443606899
 30
0.0
  0
LINE
  5
13A
330
1F
100
AcDbEntity
  8
0
  6
SLD-Durchgehend
 62
     7
370
    15
100
AcDbLine
 10
225.8638489665
 20
247.2790652169
 30
0.0
 11
225.8719933656
 21
247.2791386296
 31
0.0
  0
SPLINE
  5
13B
330
1F
100
AcDbEntity
  8
0
  6
SLD-Durchgehend
 62
     7
370
    15
100
AcDbSpline
210
0.0
220
0.0
230
1.0
 70
    24
 71
     3
 72
    12
 73
     8
 74
     0
 42
0.00000001
 43
0.00000001
 12
1.0
 22
0.0
 32
0.0
 13
1.0
 23
0.0
 33
0.0
 40
0.0
 40
0.0
 40
0.0
 40
0.0
 40
0.2499999999999986
 40
0.2499999999999986
 40
0.4999999999999972
 40
0.4999999999999972
 40
1.0
 40
1.0
 40
1.0
 40
1.0
 10
224.6089218611647
 20
305.9899443606899
 30
0.0
 10
224.80055943685
 20
305.9899443606899
 30
0.0
 10
224.9811250336683
 20
305.9899443606899
 30
0.0
 10
225.3118073144379
 20
305.9899443606899
 30
0.0
 10
225.4564757707297
 20
305.9899443606899
 30
0.0
 10
225.8102202987659
 20
305.9899443606899
 30
0.0
 10
225.9285006573366
 20
305.9899443606899
 30
0.0
 10
225.9006298313519
 20
305.9899443606899
 30
0.0
  0
LINE
  5
13C
330
1F
100
AcDbEntity
  8
0
  6
SLD-Durchgehend
 62
     7
370
    15
100
AcDbLine
 10
225.8638489665
 20
247.2790652169
 30
0.0
 11
225.8638117465
 21
247.2715574423
 31
0.0
  0
SPLINE
  5
13D
330
1F
100
AcDbEntity
  8
0
  6
SLD-Durchgehend
 62
     7
370
    15
100
AcDbSpline
210
0.0
220
0.0
230
1.0
 70
     8
 71
     3
 72
    10
 73
     6
 74
     0
 42
0.00000001
 43
0.00000001
 12
1.0
 22
0.0
 32
0.0
 13
1.0
 23
0.0
 33
0.0
 40
0.0
 40
0.0
 40
0.0
 40
0.0
 40
0.3333333333333333
 40
0.6666666666666667
 40
1.0
 40
1.0
 40
1.0
 40
1.0
 10
170.9823714585187
 20
284.8467315308301
 30
0.0
 10
170.9823714584959
 20
282.8267993943344
 30
0.0
 10
170.9948197415317
 20
280.0852063717376
 30
0.0
 10
170.9823714585519
 20
279.2790652168931
 30
0.0
 10
170.9823714585519
 20
279.2790652168932
 30
0.0
 10
170.9823714585519
 20
279.2790652168932
 30
0.0
  0
SPLINE
  5
13E
330
1F
100
AcDbEntity
  8
0
  6
SLD-Durchgehend
 62
     7
370
    15
100
AcDbSpline
210
0.0
220
0.0
230
1.0
 70
     8
 71
     3
 72
    29
 73
    25
 74
     0
 42
0.00000001
 43
0.00000001
 12
1.0
 22
0.0
 32
0.0
 13
1.0
 23
0.0
 33
0.0
 40
0.0
 40
0.0
 40
0.0
 40
0.0
 40
0.0625
 40
0.125
 40
0.1875
 40
0.25
 40
0.28125
 40
0.3125
 40
0.375
 40
0.40625
 40
0.4375
 40
0.46875
 40
0.5
 40
0.53125
 40
0.5625
 40
0.59375
 40
0.625
 40
0.6875
 40
0.71875
 40
0.75
 40
0.8125
 40
0.875
 40
0.9375
 40
1.0
 40
1.0
 40
1.0
 40
1.0
 10
170.9823714585522
 20
279.2790652168932
 30
0.0
 10
169.9351739073555
 20
279.2790652168932
 30
0.0
 10
167.840792783766
 20
279.1759562714489
 30
0.0
 10
164.729416859657
 20
278.7148605009967
 30
0.0
 10
161.678390521688
 20
277.9502268623055
 30
0.0
 10
159.2103529103472
 20
277.0674600966903
 30
0.0
 10
157.295129232565
 20
276.2183291382709
 30
0.0
 10
155.423834109002
 20
275.2762988090261
 30
0.0
 10
153.6251182368063
 20
274.1984879132326
 30
0.0
 10
151.9123544560548
 20
272.9920334302691
 30
0.0
 10
150.6736877306815
 20
272.025277146959
 30
0.0
 10
149.4838571799669
 20
270.9990118150589
 30
0.0
 10
148.3457928683791
 20
269.9156438070662
 30
0.0
 10
147.2624248603864
 20
268.7775794954784
 30
0.0
 10
146.2361595284862
 20
267.5877489447638
 30
0.0
 10
145.2694032451761
 20
266.3490822193905
 30
0.0
 10
144.0629487622127
 20
264.636318438639
 30
0.0
 10
142.9851378664192
 20
262.8376025664433
 30
0.0
 10
142.0431075371744
 20
260.9663074428803
 30
0.0
 10
141.1939765787549
 20
259.051083765098
 30
0.0
 10
140.3112098131398
 20
256.5830461537574
 30
0.0
 10
139.5465761744485
 20
253.5320198157883
 30
0.0
 10
139.0854804039963
 20
250.4206438916793
 30
0.0
 10
138.9823714585521
 20
248.3262627680897
 30
0.0
 10
138.982371458552
 20
247.2790652168932
 30
0.0
  0
SPLINE
  5
13F
330
1F
100
AcDbEntity
  8
0
  6
SLD-Durchgehend
 62
     7
370
    15
100
AcDbSpline
210
0.0
220
0.0
230
1.0
 70
     8
 71
     3
 72
    22
 73
    18
 74
     0
 42
0.00000001
 43
0.00000001
 12
1.0
 22
0.0
 32
0.0
 13
1.0
 23
0.0
 33
0.0
 40
0.0
 40
0.0
 40
0.0
 40
0.0
 40
0.125
 40
0.125
 40
0.25
 40
0.25
 40
0.3749999999999999
 40
0.3749999999999999
 40
0.4999999999999999
 40
0.4999999999999999
 40
0.6249999999999999
 40
0.6249999999999999
 40
0.7499999999999999
 40
0.7499999999999999
 40
0.875
 40
0.875
 40
1.0
 40
1.0
 40
1.0
 40
1.0
 10
202.982371458552
 20
247.2790652168932
 30
0.0
 10
202.982371458552
 20
249.3734603192864
 30
0.0
 10
202.7760966464103
 20
251.4678036336334
 30
0.0
 10
201.9589042165005
 20
255.5761074091851
 30
0.0
 10
201.3480068054257
 20
257.5899662844831
 30
0.0
 10
199.7450261924007
 20
261.459903820669
 30
0.0
 10
198.7529826273052
 20
263.3158867897253
 30
0.0
 10
196.4258154771617
 20
266.7987385573157
 30
0.0
 10
195.0907494359076
 20
268.4255212354766
 30
0.0
 10
192.1288274771354
 20
271.3874431942488
 30
0.0
 10
190.5020447989745
 20
272.722509235503
 30
0.0
 10
187.019193031384
 20
275.0496763856464
 30
0.0
 10
185.1632100623278
 20
276.0417199507419
 30
0.0
 10
181.2932725261418
 20
277.6447005637668
 30
0.0
 10
179.2794136508439
 20
278.2555979748417
 30
0.0
 10
175.1711098752922
 20
279.0727904047514
 30
0.0
 10
173.0767665609451
 20
279.2790652168932
 30
0.0
 10
170.9823714585519
 20
279.2790652168932
 30
0.0
  0
SPLINE
  5
140
330
1F
100
AcDbEntity
  8
0
  6
SLD-Durchgehend
 62
     7
370
    15
100
AcDbSpline
210
0.0
220
0.0
230
1.0
 70
     8
 71
     3
 72
    22
 73
    18
 74
     0
 42
0.00000001
 43
0.00000001
 12
1.0
 22
0.0
 32
0.0
 13
1.0
 23
0.0
 33
0.0
 40
0.0
 40
0.0
 40
0.0
 40
0.0
 40
0.1250000000000001
 40
0.1250000000000001
 40
0.2500000000000001
 40
0.2500000000000001
 40
0.3750000000000001
 40
0.3750000000000001
 40
0.5
 40
0.5
 40
0.625
 40
0.625
 40
0.7500000000000001
 40
0.7500000000000001
 40
0.875
 40
0.875
 40
1.0
 40
1.0
 40
1.0
 40
1.0
 10
138.982371458552
 20
247.2790652168931
 30
0.0
 10
138.982371458552
 20
245.1846701145
 30
0.0
 10
139.1886462706938
 20
243.0903268001529
 30
0.0
 10
140.0058387006035
 20
238.9820230246012
 30
0.0
 10
140.6167361116784
 20
236.9681641493032
 30
0.0
 10
142.2197167247033
 20
233.0982266131173
 30
0.0
 10
143.2117602897989
 20
231.242243644061
 30
0.0
 10
145.5389274399423
 20
227.7593918764706
 30
0.0
 10
146.8739934811964
 20
226.1326091983097
 30
0.0
 10
149.8359154399687
 20
223.1706872395375
 30
0.0
 10
151.4626981181296
 20
221.8356211982834
 30
0.0
 10
154.94554988572
 20
219.50845404814
 30
0.0
 10
156.8015328547763
 20
218.5164104830444
 30
0.0
 10
160.6714703909622
 20
216.9134298700195
 30
0.0
 10
162.6853292662602
 20
216.3025324589447
 30
0.0
 10
166.7936330418119
 20
215.4853400290349
 30
0.0
 10
168.8879763561589
 20
215.2790652168931
 30
0.0
 10
170.9823714585521
 20
215.2790652168932
 30
0.0
  0
SPLINE
  5
141
330
1F
100
AcDbEntity
  8
0
  6
SLD-Durchgehend
 62
     7
370
    15
100
AcDbSpline
210
0.0
220
0.0
230
1.0
 70
     8
 71
     3
 72
    10
 73
     6
 74
     0
 42
0.00000001
 43
0.00000001
 12
1.0
 22
0.0
 32
0.0
 13
1.0
 23
0.0
 33
0.0
 40
0.0
 40
0.0
 40
0.0
 40
0.0
 40
0.3333333333333333
 40
0.6666666666666667
 40
1.0
 40
1.0
 40
1.0
 40
1.0
 10
170.9823714585853
 20
209.7113989029561
 30
0.0
 10
170.9823714586082
 20
211.7313310394519
 30
0.0
 10
170.9699231755724
 20
214.4729240620487
 30
0.0
 10
170.9823714585522
 20
215.2790652168932
 30
0.0
 10
170.9823714585522
 20
215.2790652168932
 30
0.0
 10
170.9823714585522
 20
215.2790652168932
 30
0.0
  0
SPLINE
  5
142
330
1F
100
AcDbEntity
  8
0
  6
SLD-Durchgehend
 62
     7
370
    15
100
AcDbSpline
210
0.0
220
0.0
230
1.0
 70
     8
 71
     3
 72
    29
 73
    25
 74
     0
 42
0.00000001
 43
0.00000001
 12
1.0
 22
0.0
 32
0.0
 13
1.0
 23
0.0
 33
0.0
 40
0.0
 40
0.0
 40
0.0
 40
0.0
 40
0.0625
 40
0.125
 40
0.1875
 40
0.25
 40
0.28125
 40
0.3125
 40
0.375
 40
0.40625
 40
0.4375
 40
0.46875
 40
0.5
 40
0.53125
 40
0.5625
 40
0.59375
 40
0.625
 40
0.6875
 40
0.71875
 40
0.75
 40
0.8125
 40
0.875
 40
0.9375
 40
1.0
 40
1.0
 40
1.0
 40
1.0
 10
170.9823714585519
 20
215.2790652168932
 30
0.0
 10
172.0295690097485
 20
215.2790652168932
 30
0.0
 10
174.1239501333381
 20
215.3821741623374
 30
0.0
 10
177.2353260574471
 20
215.8432699327896
 30
0.0
 10
180.2863523954161
 20
216.6079035714808
 30
0.0
 10
182.7543900067568
 20
217.490670337096
 30
0.0
 10
184.6696136845391
 20
218.3398012955155
 30
0.0
 10
186.5409088081021
 20
219.2818316247603
 30
0.0
 10
188.3396246802978
 20
220.3596425205537
 30
0.0
 10
190.0523884610493
 20
221.5660970035172
 30
0.0
 10
191.2910551864225
 20
222.5328532868272
 30
0.0
 10
192.4808857371372
 20
223.5591186187274
 30
0.0
 10
193.618950048725
 20
224.6424866267201
 30
0.0
 10
194.7023180567177
 20
225.7805509383079
 30
0.0
 10
195.7285833886178
 20
226.9703814890225
 30
0.0
 10
196.6953396719279
 20
228.2090482143958
 30
0.0
 10
197.9017941548914
 20
229.9218119951473
 30
0.0
 10
198.9796050506849
 20
231.720527867343
 30
0.0
 10
199.9216353799297
 20
233.591822990906
 30
0.0
 10
200.7707663383491
 20
235.5070466686882
 30
0.0
 10
201.6535331039643
 20
237.9750842800289
 30
0.0
 10
202.4181667426556
 20
241.026110617998
 30
0.0
 10
202.8792625131078
 20
244.137486542107
 30
0.0
 10
202.982371458552
 20
246.2318676656965
 30
0.0
 10
202.982371458552
 20
247.2790652168932
 30
0.0
  0
CIRCLE
  5
143
330
1F
100
AcDbEntity
  8
0
  6
SLD-Durchgehend
 62
     7
370
    15
100
AcDbCircle
 10
170.9823714586
 20
247.2790652169
 30
0.0
 40
8.5
  0
CIRCLE
  5
144
330
1F
100
AcDbEntity
  8
0
  6
SLD-Durchgehend
 62
     7
370
    15
100
AcDbCircle
 10
170.9823714586
 20
247.2790652169
 30
0.0
 40
14.0
  0
LWPOLYLINE
  5
145
330
1F
100
AcDbEntity
  8
0
  6
SLD-Durchgehend
 62
     7
370
    15
100
AcDbPolyline
 90
        6
 70
   128
 43
0.0
 10
153.5109942219
 20
271.21208946
 10
153.2061027676
 20
271.338600096
 10
152.7143816289
 20
271.2501334611
 10
152.1106908916
 20
270.9601577986
 10
151.4869369981
 20
270.5128192743
 10
151.0209658466
 20
270.0688979535
  0
LWPOLYLINE
  5
146
330
1F
100
AcDbEntity
  8
0
  6
SLD-Durchgehend
 62
     7
370
    15
100
AcDbPolyline
 90
        6
 70
   128
 43
0.0
 10
190.9437770705
 20
270.0688979535
 10
190.477805919
 20
270.5128192743
 10
189.8540520255
 20
270.9601577986
 10
189.2503612882
 20
271.2501334611
 10
188.7586401495
 20
271.338600096
 10
188.4537486952
 20
271.21208946
  0
LWPOLYLINE
  5
147
330
1F
100
AcDbEntity
  8
0
  6
SLD-Durchgehend
 62
     7
370
    15
100
AcDbPolyline
 90
        6
 70
   128
 43
0.0
 10
141.2650945547
 20
253.1712332037
 10
141.1136329893
 20
252.5457296887
 10
141.03810341
 20
251.7818737091
 10
141.0888224884
 20
251.1140743633
 10
141.2580687045
 20
250.6439980482
 10
141.5200758563
 20
250.4432096214
  0
LWPOLYLINE
  5
148
330
1F
100
AcDbEntity
  8
0
  6
SLD-Durchgehend
 62
     7
370
    15
100
AcDbPolyline
 90
        6
 70
   128
 43
0.0
 10
200.4446670608
 20
250.4432096214
 10
200.7066742126
 20
250.6439980482
 10
200.8759204287
 20
251.1140743633
 10
200.9266395071
 20
251.7818737091
 10
200.8511099278
 20
252.5457296887
 10
200.6996483624
 20
253.1712332037
  0
LWPOLYLINE
  5
149
330
1F
100
AcDbEntity
  8
0
  6
SLD-Durchgehend
 62
     7
370
    15
100
AcDbPolyline
 90
        6
 70
   128
 43
0.0
 10
180.7382427505
 20
218.5970644934
 10
181.3556754673
 20
218.7786466876
 10
182.0549589402
 20
219.095164143
 10
182.6079305991
 20
219.4729878262
 10
182.9304055216
 20
219.8545975065
 10
182.9732898241
 20
220.1818965693
  0
LWPOLYLINE
  5
14A
330
1F
100
AcDbEntity
  8
0
  6
SLD-Durchgehend
 62
     7
370
    15
100
AcDbPolyline
 90
        6
 70
   128
 43
0.0
 10
158.991453093
 20
220.1818965693
 10
159.0343373955
 20
219.8545975065
 10
159.356812318
 20
219.4729878262
 10
159.9097839769
 20
219.095164143
 10
160.6090674498
 20
218.7786466876
 10
161.2265001666
 20
218.5970644934
  0
LWPOLYLINE
  5
14B
330
1F
100
AcDbEntity
  8
0
  6
SLD-Durchgehend
 62
     7
370
    15
100
AcDbPolyline
 90
        3
 70
   128
 43
0.0
 10
172.785936065
 20
215.3299313521
 10
170.9823714586
 20
215.2790652169
 10
169.2275898909
 20
215.3272148534
  0
LINE
  5
14C
330
1F
100
AcDbEntity
  8
0
  6
SLD-Durchgehend
 62
     8
370
     0
100
AcDbLine
 10
216.5823714586
 20
270.0274844292
 30
0.0
 11
215.1234812864
 21
269.6787159306
 31
0.0
  0
SPLINE
  5
14D
330
1F
100
AcDbEntity
  8
0
  6
SLD-Durchgehend
 62
     8
370
     0
100
AcDbSpline
210
0.0
220
0.0
230
1.0
 70
     8
 71
     3
 72
    21
 73
    17
 74
     0
 42
0.00000001
 43
0.00000001
 12
1.0
 22
0.0
 32
0.0
 13
1.0
 23
0.0
 33
0.0
 40
0.0
 40
0.0
 40
0.0
 40
0.0
 40
0.0156249999999998
 40
0.0156249999999998
 40
0.0312499999999996
 40
0.0624999999999997
 40
0.0624999999999997
 40
0.1249999999999995
 40
0.1249999999999995
 40
0.2499999999999996
 40
0.2499999999999996
 40
0.4999999999999997
 40
0.4999999999999997
 40
0.7499999999999998
 40
0.7499999999999998
 40
1.0
 40
1.0
 40
1.0
 40
1.0
 10
216.5823714585528
 20
270.027484429206
 30
0.0
 10
216.6106674421439
 20
269.9118580865078
 30
0.0
 10
216.6391335034828
 20
269.7937995192135
 30
0.0
 10
216.6946709506168
 20
269.5599951978487
 30
0.0
 10
216.7767631513352
 20
269.2091709510598
 30
0.0
 10
216.8553066170967
 20
268.8580024339013
 30
0.0
 10
217.0079095781687
 20
268.155230364746
 30
0.0
 10
217.1036722646161
 20
267.6861361870825
 30
0.0
 10
217.3748055645128
 20
266.2772860663793
 30
0.0
 10
217.5340846956512
 20
265.3359686606773
 30
0.0
 10
217.9587808632807
 20
262.5068582444289
 30
0.0
 10
218.171588541788
 20
260.6139585119681
 30
0.0
 10
218.4975028483265
 20
256.818476277779
 30
0.0
 10
218.6104041255836
 20
254.9158739493348
 30
0.0
 10
218.7572508401363
 20
251.1029988579869
 30
0.0
 10
218.7910208419534
 20
249.1927090999254
 30
0.0
 10
218.7909141986523
 20
247.2791279624141
 30
0.0
  0
LWPOLYLINE
  5
14E
330
1F
100
AcDbEntity
  8
0
  6
SLD-Durchgehend
 62
     8
370
     0
100
AcDbPolyline
 90
        9
 70
   128
 43
0.0
 10
218.7909141987
 20
247.2791279624
 10
218.4901503008
 20
247.2791271861
 10
218.1991616714
 20
247.279123909
 10
217.9296916777
 20
247.2791182632
 10
217.6926152636
 20
247.2791104767
 10
217.4975000724
 20
247.2791008636
 10
217.3522203269
 20
247.2790898119
 10
217.2626390514
 20
247.2790777677
 10
217.2323714586
 20
247.2790652169
  0
LWPOLYLINE
  5
14F
330
1F
100
AcDbEntity
  8
0
  6
SLD-Durchgehend
 62
     8
370
     0
100
AcDbPolyline
 90
        9
 70
   128
 43
0.0
 10
123.1738287185
 20
247.2791279624
 10
123.4745926163
 20
247.2791271861
 10
123.7655812457
 20
247.279123909
 10
124.0350512394
 20
247.2791182632
 10
124.2721276535
 20
247.2791104767
 10
124.4672428447
 20
247.2791008636
 10
124.6125225902
 20
247.2790898119
 10
124.7021038657
 20
247.2790777677
 10
124.7323714586
 20
247.2790652169
  0
SPLINE
  5
150
330
1F
100
AcDbEntity
  8
0
  6
SLD-Durchgehend
 62
     8
370
     0
100
AcDbSpline
210
0.0
220
0.0
230
1.0
 70
     8
 71
     3
 72
    20
 73
    16
 74
     0
 42
0.00000001
 43
0.00000001
 12
1.0
 22
0.0
 32
0.0
 13
1.0
 23
0.0
 33
0.0
 40
0.0
 40
0.0
 40
0.0
 40
0.0
 40
0.2499999999999999
 40
0.2499999999999999
 40
0.4999999999999999
 40
0.4999999999999999
 40
0.7499999999999998
 40
0.7499999999999998
 40
0.8749999999999996
 40
0.8749999999999996
 40
0.9374999999999997
 40
0.9374999999999997
 40
0.9687499999999998
 40
0.9687499999999998
 40
1.0
 40
1.0
 40
1.0
 40
1.0
 10
123.1738287184518
 20
247.2791279624141
 30
0.0
 10
123.1737220820089
 20
249.1925860374767
 30
0.0
 10
123.2075008563686
 20
251.1034491074304
 30
0.0
 10
123.3543770187566
 20
254.9166441561077
 30
0.0
 10
123.4672988220771
 20
256.819349257399
 30
0.0
 10
123.7932509032618
 20
260.6148937926195
 30
0.0
 10
124.0060771097636
 20
262.5077532200588
 30
0.0
 10
124.4307708985612
 20
265.3366549541059
 30
0.0
 10
124.5900439649572
 20
266.2778779288954
 30
0.0
 10
124.8611523612934
 20
267.686541800212
 30
0.0
 10
124.956904072408
 20
268.1555664422094
 30
0.0
 10
125.1094850815861
 20
268.8582219134234
 30
0.0
 10
125.1618391560154
 20
269.0922933413848
 30
0.0
 10
125.2696996068584
 20
269.5601258700196
 30
0.0
 10
125.3255166986167
 20
269.795157875698
 30
0.0
 10
125.382371458552
 20
270.0274844292128
 30
0.0
  0
LINE
  5
151
330
1F
100
AcDbEntity
  8
0
  6
SLD-Durchgehend
 62
     8
370
     0
100
AcDbLine
 10
125.3823714586
 20
270.0274844292
 30
0.0
 11
126.8412616307
 21
269.6787159306
 31
0.0
  0
SPLINE
  5
152
330
1F
100
AcDbEntity
  8
0
  6
SLD-Durchgehend
 62
     8
370
     0
100
AcDbSpline
210
0.0
220
0.0
230
1.0
 70
     8
 71
     3
 72
    32
 73
    28
 74
     0
 42
0.00000001
 43
0.00000001
 12
1.0
 22
0.0
 32
0.0
 13
1.0
 23
0.0
 33
0.0
 40
0.0
 40
0.0
 40
0.0
 40
0.0
 40
0.1249999999999998
 40
0.1249999999999998
 40
0.1874999999999998
 40
0.1874999999999998
 40
0.2499999999999998
 40
0.2499999999999998
 40
0.3124999999999997
 40
0.3124999999999997
 40
0.3437499999999999
 40
0.3437499999999999
 40
0.375
 40
0.375
 40
0.5
 40
0.5
 40
0.53125
 40
0.53125
 40
0.5624999999999999
 40
0.5624999999999999
 40
0.6249999999999999
 40
0.6249999999999999
 40
0.75
 40
0.75
 40
0.875
 40
0.875
 40
1.0
 40
1.0
 40
1.0
 40
1.0
 10
125.382371458552
 20
270.0274844292128
 30
0.0
 10
125.9437021379169
 20
272.3755170489788
 30
0.0
 10
126.656454364519
 20
274.6654047331239
 30
0.0
 10
128.0827334346113
 20
277.9630925925864
 30
0.0
 10
128.6187073511855
 20
279.0390719913579
 30
0.0
 10
129.8419203558701
 20
281.13294590058
 30
0.0
 10
130.5170532716555
 20
282.1293835389822
 30
0.0
 10
132.000392572684
 20
284.0068322921694
 30
0.0
 10
132.8093039139112
 20
284.8887875526562
 30
0.0
 10
134.1293602284418
 20
286.1216474938884
 30
0.0
 10
134.5890638159746
 20
286.5192336217393
 30
0.0
 10
135.534042982672
 20
287.2764879592349
 30
0.0
 10
136.017512412487
 20
287.6350165976043
 30
0.0
 10
138.4855711155853
 20
289.334832652732
 30
0.0
 10
140.6220080855645
 20
290.3981639473971
 30
0.0
 10
143.4356368151964
 20
291.4654165420507
 30
0.0
 10
144.0069644558262
 20
291.6661796481147
 30
0.0
 10
145.1510082239257
 20
292.0402544705641
 30
0.0
 10
145.7247075665096
 20
292.2140200226192
 30
0.0
 10
147.4501793044899
 20
292.7007123860214
 30
0.0
 10
148.6063005466756
 20
292.9792316212847
 30
0.0
 10
152.088048606375
 20
293.7088940212062
 30
0.0
 10
154.4267644053756
 20
294.0564786683535
 30
0.0
 10
159.1260433072409
 20
294.5787946048785
 30
0.0
 10
161.4866900394848
 20
294.7528642282182
 30
0.0
 10
166.2234722327823
 20
294.9784584323171
 30
0.0
 10
168.5997236960492
 20
295.0290652168932
 30
0.0
 10
170.982371458552
 20
295.0290652168932
 30
0.0
  0
LINE
  5
153
330
1F
100
AcDbEntity
  8
0
  6
SLD-Durchgehend
 62
     8
370
     0
100
AcDbLine
 10
170.9823714586
 20
295.0290652169
 30
0.0
 11
170.9823714586
 21
293.5290652169
 31
0.0
  0
SPLINE
  5
154
330
1F
100
AcDbEntity
  8
0
  6
SLD-Durchgehend
 62
     8
370
     0
100
AcDbSpline
210
0.0
220
0.0
230
1.0
 70
     8
 71
     3
 72
    14
 73
    10
 74
     0
 42
0.00000001
 43
0.00000001
 12
1.0
 22
0.0
 32
0.0
 13
1.0
 23
0.0
 33
0.0
 40
0.0
 40
0.0
 40
0.0
 40
0.0
 40
0.25
 40
0.25
 40
0.5
 40
0.5
 40
0.75
 40
0.75
 40
1.0
 40
1.0
 40
1.0
 40
1.0
 10
170.982371458552
 20
193.6460517390855
 30
0.0
 10
170.9823714585579
 20
193.4541931681817
 30
0.0
 10
170.9823714585515
 20
193.2735670034745
 30
0.0
 10
170.9823714585717
 20
192.9433029066273
 30
0.0
 10
170.9823714585293
 20
192.7990162968121
 30
0.0
 10
170.9823714585621
 20
192.5645496938901
 30
0.0
 10
170.9823714587066
 20
192.4763953431367
 30
0.0
 10
170.9823714588281
 20
192.3666782457716
 30
0.0
 10
170.9823714584159
 20
192.3466967771
 30
0.0
 10
170.9823714584921
 20
192.362055308298
 30
0.0
  0
SPLINE
  5
155
330
1F
100
AcDbEntity
  8
0
  6
SLD-Durchgehend
 62
     8
370
     0
100
AcDbSpline
210
0.0
220
0.0
230
1.0
 70
     8
 71
     3
 72
    51
 73
    47
 74
     0
 42
0.00000001
 43
0.00000001
 12
1.0
 22
0.0
 32
0.0
 13
1.0
 23
0.0
 33
0.0
 40
0.0
 40
0.0
 40
0.0
 40
0.0
 40
0.1250000000000004
 40
0.1250000000000004
 40
0.1875000000000006
 40
0.1875000000000006
 40
0.2500000000000007
 40
0.2500000000000007
 40
0.2812500000000008
 40
0.2812500000000008
 40
0.3125000000000009
 40
0.3125000000000009
 40
0.375000000000001
 40
0.375000000000001
 40
0.4062500000000011
 40
0.4062500000000011
 40
0.4218750000000011
 40
0.4218750000000011
 40
0.4375000000000011
 40
0.4375000000000011
 40
0.5000000000000007
 40
0.5000000000000007
 40
0.5312500000000006
 40
0.5312500000000006
 40
0.5625000000000003
 40
0.5625000000000003
 40
0.6250000000000001
 40
0.6250000000000001
 40
0.6562500000000001
 40
0.6562500000000001
 40
0.6875000000000001
 40
0.6875000000000001
 40
0.75
 40
0.75
 40
0.8125
 40
0.8125
 40
0.8750000000000001
 40
0.8750000000000001
 40
0.9375
 40
0.9375
 40
0.96875
 40
0.96875
 40
0.9843750000000001
 40
0.9921875000000001
 40
0.9921875000000001
 40
1.0
 40
1.0
 40
1.0
 40
1.0
 10
170.982371458552
 20
193.6460517390855
 30
0.0
 10
174.7899108395871
 20
193.6455654641754
 30
0.0
 10
178.5870431169695
 20
193.7654383343747
 30
0.0
 10
184.2671970811108
 20
194.1250082470551
 30
0.0
 10
186.157995638082
 20
194.2747723149942
 30
0.0
 10
189.9330949276989
 20
194.6494499730632
 30
0.0
 10
191.8173640388844
 20
194.8747291534817
 30
0.0
 10
194.6367052776557
 20
195.2943285228378
 30
0.0
 10
195.5752986186097
 20
195.447924072516
 30
0.0
 10
197.4495635911551
 20
195.7889062440656
 30
0.0
 10
198.3867994156747
 20
195.9765834887787
 30
0.0
 10
201.180941721232
 20
196.6017121442293
 30
0.0
 10
203.0162288342129
 20
197.0983250016249
 30
0.0
 10
205.7024385992673
 20
198.0371853685145
 30
0.0
 10
206.5865890686901
 20
198.3828479133527
 30
0.0
 10
207.8909513013117
 20
198.9648942640506
 30
0.0
 10
208.3220793926263
 20
199.1695466056985
 30
0.0
 10
209.176031435664
 20
199.6029898975288
 30
0.0
 10
209.600044884772
 20
199.8325330916807
 30
0.0
 10
211.672382634405
 20
201.0341456254862
 30
0.0
 10
213.1885103709454
 20
202.1744702847002
 30
0.0
 10
215.2041551698735
 20
204.2115276134924
 30
0.0
 10
215.8344766394275
 20
204.9471618403918
 30
0.0
 10
216.9876811281053
 20
206.4924012310674
 30
0.0
 10
217.5081895135793
 20
207.2969362014311
 30
0.0
 10
218.9238057103107
 20
209.7759257359337
 30
0.0
 10
219.6790379175321
 20
211.5210680380403
 30
0.0
 10
220.6305394099085
 20
214.2277593472617
 30
0.0
 10
220.9166575450944
 20
215.1444571187111
 30
0.0
 10
221.4348708529559
 20
216.9830362735272
 30
0.0
 10
221.6678995342603
 20
217.907603270703
 30
0.0
 10
222.3057680764808
 20
220.6936928779223
 30
0.0
 10
222.6506863745943
 20
222.5673418654647
 30
0.0
 10
223.2348991868598
 20
226.3360152578148
 30
0.0
 10
223.4735410513568
 20
228.2331166782486
 30
0.0
 10
223.8730502694797
 20
232.0319247465526
 30
0.0
 10
224.0344805357896
 20
233.9335655824129
 30
0.0
 10
224.2957779840595
 20
237.740441898729
 30
0.0
 10
224.3949347643201
 20
239.64571885412
 30
0.0
 10
224.4990653054517
 20
242.5062391472837
 30
0.0
 10
224.526281916228
 20
243.4601834842277
 30
0.0
 10
224.5557531550967
 20
244.8917628233431
 30
0.0
 10
224.5676474187316
 20
245.6077183728005
 30
0.0
 10
224.5752319890181
 20
246.3239254978807
 30
0.0
 10
224.5793235332949
 20
246.8014532333151
 30
0.0
 10
224.5808948097969
 20
247.0419838082849
 30
0.0
 10
224.5819641957312
 20
247.2790652168932
 30
0.0
  0
LWPOLYLINE
  5
156
330
1F
100
AcDbEntity
  8
0
  6
SLD-Durchgehend
 62
     8
370
     0
100
AcDbPolyline
 90
        9
 70
   128
 43
0.0
 10
225.8638117465
 20
247.2715574423
 10
225.8663855574
 20
247.2718454311
 10
225.8147768505
 20
247.2723718472
 10
225.7107394461
 20
247.2731188014
 10
225.5578088508
 20
247.2740609099
 10
225.3611821101
 20
247.2751661569
 10
225.1275411971
 20
247.276396983
 10
224.8648259385
 20
247.2777115607
 10
224.5819641957
 20
247.2790652169
  0
ARC
  5
157
330
1F
100
AcDbEntity
  8
0
  6
SLD-Durchgehend
 62
     8
370
     0
100
AcDbCircle
 10
118.2883941857
 20
-23.8362643896
 30
0.0
 40
271.1168421308261
100
AcDbArc
 50
90.1913862675
 51
90.4640107659
  0
SPLINE
  5
158
330
1F
100
AcDbEntity
  8
0
  6
SLD-Durchgehend
 62
     8
370
     0
100
AcDbSpline
210
0.0
220
0.0
230
1.0
 70
     8
 71
     3
 72
    48
 73
    44
 74
     0
 42
0.00000001
 43
0.00000001
 12
1.0
 22
0.0
 32
0.0
 13
1.0
 23
0.0
 33
0.0
 40
0.0
 40
0.0
 40
0.0
 40
0.0
 40
0.0312499999999998
 40
0.0312499999999998
 40
0.0624999999999996
 40
0.0624999999999996
 40
0.1249999999999993
 40
0.1249999999999993
 40
0.1874999999999989
 40
0.1874999999999989
 40
0.2499999999999986
 40
0.2499999999999986
 40
0.3124999999999982
 40
0.3124999999999982
 40
0.3437499999999981
 40
0.3437499999999981
 40
0.3749999999999979
 40
0.3749999999999979
 40
0.4374999999999979
 40
0.4374999999999979
 40
0.468749999999998
 40
0.468749999999998
 40
0.4999999999999981
 40
0.4999999999999981
 40
0.5624999999999984
 40
0.5624999999999984
 40
0.5781249999999984
 40
0.5781249999999984
 40
0.5937499999999984
 40
0.5937499999999984
 40
0.6249999999999986
 40
0.6249999999999986
 40
0.6874999999999987
 40
0.6874999999999987
 40
0.7187499999999989
 40
0.7187499999999989
 40
0.749999999999999
 40
0.749999999999999
 40
0.8124999999999993
 40
0.8124999999999993
 40
0.8749999999999994
 40
0.8749999999999994
 40
1.0
 40
1.0
 40
1.0
 40
1.0
 10
117.3827787213728
 20
247.2790652168932
 30
0.0
 10
117.3870814067338
 20
246.3251657192791
 30
0.0
 10
117.3991660210204
 20
245.3689555907952
 30
0.0
 10
117.4384610096466
 20
243.4601831462032
 30
0.0
 10
117.4656776220824
 20
242.5062388130359
 30
0.0
 10
117.5698081680146
 20
239.6457185311918
 30
0.0
 10
117.6689649512584
 20
237.7404415833344
 30
0.0
 10
117.9302624053634
 20
233.933565282078
 30
0.0
 10
118.0916926744515
 20
232.0319244537394
 30
0.0
 10
118.4912018989218
 20
228.2331164005249
 30
0.0
 10
118.729843766846
 20
226.3360149883065
 30
0.0
 10
119.3140565869006
 20
222.5673416125012
 30
0.0
 10
119.6589748893407
 20
220.6936926333186
 30
0.0
 10
120.296843439547
 20
217.9076030389416
 30
0.0
 10
120.5298721237665
 20
216.9830360460978
 30
0.0
 10
121.0480854381162
 20
215.144456900079
 30
0.0
 10
121.3342035769578
 20
214.2277591329913
 30
0.0
 10
122.2857050799005
 20
211.5210678411753
 30
0.0
 10
123.0409372953429
 20
209.7759255512496
 30
0.0
 10
124.456553506441
 20
207.2969360360162
 30
0.0
 10
124.9770618979182
 20
206.4924010711226
 30
0.0
 10
126.1302663952469
 20
204.9471616968513
 30
0.0
 10
126.7605878687687
 20
204.2115274787381
 30
0.0
 10
128.7762326756688
 20
202.1744701776644
 30
0.0
 10
130.2923604155861
 20
201.0341455344818
 30
0.0
 10
132.3646981667017
 20
199.8325330172567
 30
0.0
 10
132.7887116154062
 20
199.602989826579
 30
0.0
 10
133.6426636568847
 20
199.1695465414445
 30
0.0
 10
134.0737917473328
 20
198.9648942028923
 30
0.0
 10
135.3781539771331
 20
198.3828478608359
 30
0.0
 10
136.2623044443718
 20
198.0371853208774
 30
0.0
 10
138.948514202225
 20
197.09832496674
 30
0.0
 10
140.7838013095611
 20
196.6017121153926
 30
0.0
 10
143.5779436059879
 20
195.9765834670866
 30
0.0
 10
144.515179426896
 20
195.7889062245046
 30
0.0
 10
146.3894443924271
 20
195.4479240566227
 30
0.0
 10
147.3280377298518
 20
195.2943285085213
 30
0.0
 10
150.1473789579866
 20
194.8747291433338
 30
0.0
 10
152.0316480620172
 20
194.6494499649566
 30
0.0
 10
155.8067473372506
 20
194.2747723101149
 30
0.0
 10
157.6975458869918
 20
194.1250082433475
 30
0.0
 10
163.3776998293826
 20
193.7654383334816
 30
0.0
 10
167.1748320921797
 20
193.6455654641773
 30
0.0
 10
170.982371458552
 20
193.6460517390856
 30
0.0
  0
SPLINE
  5
159
330
1F
100
AcDbEntity
  8
0
  6
SLD-Durchgehend
 62
     8
370
     0
100
AcDbSpline
210
0.0
220
0.0
230
1.0
 70
     8
 71
     3
 72
    12
 73
     8
 74
     0
 42
0.00000001
 43
0.00000001
 12
1.0
 22
0.0
 32
0.0
 13
1.0
 23
0.0
 33
0.0
 40
0.0
 40
0.0
 40
0.0
 40
0.0
 40
0.5000000000000094
 40
0.5000000000000094
 40
0.7500000000000047
 40
0.7500000000000047
 40
1.0
 40
1.0
 40
1.0
 40
1.0
 10
170.9823714585514
 20
291.5477474956257
 30
0.0
 10
170.9823714586071
 20
291.6843372140162
 30
0.0
 10
170.9823714587087
 20
291.8215135907639
 30
0.0
 10
170.9823714587702
 20
291.9695026763279
 30
0.0
 10
170.9823714587079
 20
292.0106514712994
 30
0.0
 10
170.9823714586434
 20
292.0646813125133
 30
0.0
 10
170.9823714586084
 20
292.0790652168709
 30
0.0
 10
170.9823714585711
 20
292.0790652168931
 30
0.0
  0
SPLINE
  5
15A
330
1F
100
AcDbEntity
  8
0
  6
SLD-Durchgehend
 62
     8
370
     0
100
AcDbSpline
210
0.0
220
0.0
230
1.0
 70
     8
 71
     3
 72
    42
 73
    38
 74
     0
 42
0.00000001
 43
0.00000001
 12
1.0
 22
0.0
 32
0.0
 13
1.0
 23
0.0
 33
0.0
 40
0.0
 40
0.0
 40
0.0
 40
0.0
 40
0.1250000000000001
 40
0.1250000000000001
 40
0.1875000000000001
 40
0.1875000000000001
 40
0.2500000000000001
 40
0.2500000000000001
 40
0.3125000000000001
 40
0.3125000000000001
 40
0.3750000000000002
 40
0.3750000000000002
 40
0.4062500000000003
 40
0.4062500000000003
 40
0.4375000000000004
 40
0.4375000000000004
 40
0.4687500000000006
 40
0.4687500000000006
 40
0.5000000000000007
 40
0.5000000000000007
 40
0.5312500000000008
 40
0.5312500000000008
 40
0.5625000000000009
 40
0.5625000000000009
 40
0.625000000000001
 40
0.625000000000001
 40
0.656250000000001
 40
0.656250000000001
 40
0.687500000000001
 40
0.687500000000001
 40
0.7500000000000008
 40
0.7500000000000008
 40
0.8125000000000006
 40
0.8125000000000006
 40
0.8750000000000004
 40
0.8750000000000004
 40
1.0
 40
1.0
 40
1.0
 40
1.0
 10
170.9823714585514
 20
291.5477474956257
 30
0.0
 10
167.8648451545356
 20
291.5480438440135
 30
0.0
 10
164.7518104212727
 20
291.4613659859596
 30
0.0
 10
160.0916177060778
 20
291.1501184608268
 30
0.0
 10
158.5397967422392
 20
291.0158406858093
 30
0.0
 10
155.4403350226176
 20
290.6663411461832
 30
0.0
 10
153.8983463540888
 20
290.4517569517643
 30
0.0
 10
150.841180223642
 20
289.9145562166594
 30
0.0
 10
149.3252238168709
 20
289.5920279660247
 30
0.0
 10
146.3294560806409
 20
288.792597015089
 30
0.0
 10
144.8494192796458
 20
288.3166572640822
 30
0.0
 10
142.6694234156881
 20
287.4316551368725
 30
0.0
 10
141.954704631301
 20
287.1096666860458
 30
0.0
 10
140.5629605811397
 20
286.4066179004213
 30
0.0
 10
139.8845218657447
 20
286.0250503838847
 30
0.0
 10
138.5673938136308
 20
285.1934145588874
 30
0.0
 10
137.9287095067488
 20
284.7433375825754
 30
0.0
 10
136.6963110809419
 20
283.7656857053306
 30
0.0
 10
136.1108427704104
 20
283.244344086312
 30
0.0
 10
135.0081642008525
 20
282.1409455149239
 30
0.0
 10
134.4899626420973
 20
281.5580865912286
 30
0.0
 10
133.5178227410085
 20
280.33194158321
 30
0.0
 10
133.0626219617269
 20
279.6859854951463
 30
0.0
 10
131.8133629476363
 20
277.7050806576166
 30
0.0
 10
131.1247638441979
 20
276.3162083043161
 30
0.0
 10
130.2478829229088
 20
274.1590563458755
 30
0.0
 10
129.9816424382023
 20
273.4276746948086
 30
0.0
 10
129.4933575103394
 20
271.9439933327745
 30
0.0
 10
129.271601583021
 20
271.1921122584399
 30
0.0
 10
128.6683223754281
 20
268.9326578571935
 30
0.0
 10
128.345426900032
 20
267.4130228214815
 30
0.0
 10
127.8084640029358
 20
264.3554541066873
 30
0.0
 10
127.5946351060654
 20
262.8174803286296
 30
0.0
 10
127.2462471941488
 20
259.728204087411
 30
0.0
 10
127.1117596998796
 20
258.1758371936935
 30
0.0
 10
126.8001882467526
 20
253.5106463720514
 30
0.0
 10
126.713532231024
 20
250.3963504793299
 30
0.0
 10
126.7136891799769
 20
247.2790652168925
 30
0.0
  0
SPLINE
  5
15B
330
1F
100
AcDbEntity
  8
0
  6
SLD-Durchgehend
 62
     8
370
     0
100
AcDbSpline
210
0.0
220
0.0
230
1.0
 70
     8
 71
     3
 72
    18
 73
    14
 74
     0
 42
0.00000001
 43
0.00000001
 12
1.0
 22
0.0
 32
0.0
 13
1.0
 23
0.0
 33
0.0
 40
0.0
 40
0.0
 40
0.0
 40
0.0
 40
0.2499999999999723
 40
0.2499999999999723
 40
0.3749999999999584
 40
0.3749999999999584
 40
0.4374999999999628
 40
0.4374999999999628
 40
0.499999999999967
 40
0.499999999999967
 40
0.7499999999999835
 40
0.7499999999999835
 40
1.0
 40
1.0
 40
1.0
 40
1.0
 10
126.7136891799769
 20
247.2790652168937
 30
0.0
 10
126.6462504122398
 20
247.2790652168566
 30
0.0
 10
126.5791035326438
 20
247.2790652168173
 30
0.0
 10
126.4844797406605
 20
247.2790652168001
 30
0.0
 10
126.4544309735671
 20
247.2790652167146
 30
0.0
 10
126.4115656777483
 20
247.2790652167091
 30
0.0
 10
126.3976479058912
 20
247.2790652169381
 30
0.0
 10
126.3705827542293
 20
247.2790652169183
 30
0.0
 10
126.3555588788287
 20
247.2790652165969
 30
0.0
 10
126.2902391332172
 20
247.2790652166443
 30
0.0
 10
126.2519031445009
 20
247.2790652166875
 30
0.0
 10
126.1980387585855
 20
247.2790652167829
 30
0.0
 10
126.1823714585161
 20
247.279065216835
 30
0.0
 10
126.182371458552
 20
247.2790652168932
 30
0.0
  0
SPLINE
  5
15C
330
1F
100
AcDbEntity
  8
0
  6
SLD-Durchgehend
 62
     8
370
     0
100
AcDbSpline
210
0.0
220
0.0
230
1.0
 70
     8
 71
     3
 72
    42
 73
    38
 74
     0
 42
0.00000001
 43
0.00000001
 12
1.0
 22
0.0
 32
0.0
 13
1.0
 23
0.0
 33
0.0
 40
0.0
 40
0.0
 40
0.0
 40
0.0
 40
0.1249999999999997
 40
0.1249999999999997
 40
0.1874999999999996
 40
0.1874999999999996
 40
0.2499999999999994
 40
0.2499999999999994
 40
0.3124999999999993
 40
0.3124999999999993
 40
0.3749999999999991
 40
0.3749999999999991
 40
0.4062499999999989
 40
0.4062499999999989
 40
0.4374999999999988
 40
0.4374999999999988
 40
0.4687499999999987
 40
0.4687499999999987
 40
0.4999999999999986
 40
0.4999999999999986
 40
0.5312499999999984
 40
0.5312499999999984
 40
0.5624999999999984
 40
0.5624999999999984
 40
0.6249999999999987
 40
0.6249999999999987
 40
0.6562499999999987
 40
0.6562499999999987
 40
0.6874999999999987
 40
0.6874999999999987
 40
0.7499999999999988
 40
0.7499999999999988
 40
0.8124999999999991
 40
0.8124999999999991
 40
0.8749999999999993
 40
0.8749999999999993
 40
1.0
 40
1.0
 40
1.0
 40
1.0
 10
170.9823714585514
 20
203.0103829381606
 30
0.0
 10
174.0998977625674
 20
203.0100865897728
 30
0.0
 10
177.2129324958304
 20
203.0967644478266
 30
0.0
 10
181.8731252110254
 20
203.4080119729594
 30
0.0
 10
183.424946174864
 20
203.5422897479769
 30
0.0
 10
186.5244078944858
 20
203.891789287603
 30
0.0
 10
188.0663965630146
 20
204.1063734820219
 30
0.0
 10
191.1235626934616
 20
204.6435742171267
 30
0.0
 10
192.6395191002326
 20
204.9661024677615
 30
0.0
 10
195.6352868364627
 20
205.7655334186972
 30
0.0
 10
197.1153236374579
 20
206.241473169704
 30
0.0
 10
199.2953195014156
 20
207.1264752969137
 30
0.0
 10
200.0100382858028
 20
207.4484637477403
 30
0.0
 10
201.4017823359642
 20
208.1515125333649
 30
0.0
 10
202.0802210513591
 20
208.5330800499016
 30
0.0
 10
203.3973491034731
 20
209.3647158748988
 30
0.0
 10
204.0360334103551
 20
209.8147928512107
 30
0.0
 10
205.2684318361621
 20
210.7924447284556
 30
0.0
 10
205.8539001466936
 20
211.3137863474742
 30
0.0
 10
206.9565787162516
 20
212.4171849188624
 30
0.0
 10
207.4747802750068
 20
213.0000438425577
 30
0.0
 10
208.4469201760956
 20
214.2261888505764
 30
0.0
 10
208.9021209553773
 20
214.87214493864
 30
0.0
 10
210.151379969468
 20
216.8530497761698
 30
0.0
 10
210.8399790729062
 20
218.2419221294705
 30
0.0
 10
211.7168599941953
 20
220.3990740879111
 30
0.0
 10
211.983100478902
 20
221.130455738978
 30
0.0
 10
212.4713854067648
 20
222.6141371010121
 30
0.0
 10
212.6931413340833
 20
223.3660181753467
 30
0.0
 10
213.2964205416762
 20
225.6254725765932
 30
0.0
 10
213.6193160170722
 20
227.1451076123053
 30
0.0
 10
214.1562789141684
 20
230.2026763270997
 30
0.0
 10
214.3701078110388
 20
231.7406501051574
 30
0.0
 10
214.7184957229553
 20
234.829926346376
 30
0.0
 10
214.8529832172245
 20
236.3822932400936
 30
0.0
 10
215.1645546703515
 20
241.0474840617359
 30
0.0
 10
215.25121068608
 20
244.1617799544563
 30
0.0
 10
215.2510537371272
 20
247.2790652168937
 30
0.0
  0
SPLINE
  5
15D
330
1F
100
AcDbEntity
  8
0
  6
SLD-Durchgehend
 62
     8
370
     0
100
AcDbSpline
210
0.0
220
0.0
230
1.0
 70
     8
 71
     3
 72
    18
 73
    14
 74
     0
 42
0.00000001
 43
0.00000001
 12
1.0
 22
0.0
 32
0.0
 13
1.0
 23
0.0
 33
0.0
 40
0.0
 40
0.0
 40
0.0
 40
0.0
 40
0.2499999999999628
 40
0.2499999999999628
 40
0.3749999999999564
 40
0.3749999999999564
 40
0.4374999999999644
 40
0.4374999999999644
 40
0.4999999999999724
 40
0.4999999999999724
 40
0.7499999999999861
 40
0.7499999999999861
 40
1.0
 40
1.0
 40
1.0
 40
1.0
 10
215.2510537371271
 20
247.2790652168937
 30
0.0
 10
215.3184925048495
 20
247.2790652169384
 30
0.0
 10
215.3856393844295
 20
247.2790652169281
 30
0.0
 10
215.4802631763968
 20
247.2790652169869
 30
0.0
 10
215.5103119434857
 20
247.2790652169975
 30
0.0
 10
215.5531772392992
 20
247.2790652170149
 30
0.0
 10
215.5670950111547
 20
247.2790652170583
 30
0.0
 10
215.594160162814
 20
247.2790652170813
 30
0.0
 10
215.6091840382143
 20
247.2790652169807
 30
0.0
 10
215.6745037838187
 20
247.2790652169672
 30
0.0
 10
215.7128397725391
 20
247.2790652169548
 30
0.0
 10
215.7667041584751
 20
247.2790652169273
 30
0.0
 10
215.7823714585611
 20
247.279065216912
 30
0.0
 10
215.782371458552
 20
247.2790652168953
 30
0.0
  0
SPLINE
  5
15E
330
1F
100
AcDbEntity
  8
0
  6
SLD-Durchgehend
 62
     8
370
     0
100
AcDbSpline
210
0.0
220
0.0
230
1.0
 70
    24
 71
     3
 72
    12
 73
     8
 74
     0
 42
0.00000001
 43
0.00000001
 12
1.0
 22
0.0
 32
0.0
 13
1.0
 23
0.0
 33
0.0
 40
0.0
 40
0.0
 40
0.0
 40
0.0
 40
0.4999999999999905
 40
0.4999999999999905
 40
0.7499999999999952
 40
0.7499999999999952
 40
1.0
 40
1.0
 40
1.0
 40
1.0
 10
170.9823714585514
 20
203.0103829381606
 30
0.0
 10
170.9823714585197
 20
202.8737932199102
 30
0.0
 10
170.9823714586385
 20
202.7366168434284
 30
0.0
 10
170.9823714586367
 20
202.5886277576395
 30
0.0
 10
170.982371458555
 20
202.5474789624614
 30
0.0
 10
170.9823714585518
 20
202.4934491213569
 30
0.0
 10
170.9823714585502
 20
202.4790652169154
 30
0.0
 10
170.9823714585484
 20
202.4790652168932
 30
0.0
  0
SPLINE
  5
15F
330
1F
100
AcDbEntity
  8
0
  6
SLD-Durchgehend
 62
     8
370
     0
100
AcDbSpline
210
0.0
220
0.0
230
1.0
 70
     8
 71
     3
 72
    42
 73
    38
 74
     0
 42
0.00000001
 43
0.00000001
 12
1.0
 22
0.0
 32
0.0
 13
1.0
 23
0.0
 33
0.0
 40
0.0
 40
0.0
 40
0.0
 40
0.0
 40
0.1250000000000007
 40
0.1250000000000007
 40
0.1875000000000011
 40
0.1875000000000011
 40
0.2500000000000015
 40
0.2500000000000015
 40
0.3125000000000019
 40
0.3125000000000019
 40
0.3750000000000022
 40
0.3750000000000022
 40
0.4062500000000024
 40
0.4062500000000024
 40
0.4375000000000025
 40
0.4375000000000025
 40
0.4687500000000026
 40
0.4687500000000026
 40
0.5000000000000026
 40
0.5000000000000026
 40
0.5312500000000026
 40
0.5312500000000026
 40
0.5625000000000024
 40
0.5625000000000024
 40
0.6250000000000026
 40
0.6250000000000026
 40
0.6562500000000023
 40
0.6562500000000023
 40
0.6875000000000022
 40
0.6875000000000022
 40
0.7500000000000018
 40
0.7500000000000018
 40
0.8125000000000014
 40
0.8125000000000014
 40
0.875000000000001
 40
0.875000000000001
 40
1.0
 40
1.0
 40
1.0
 40
1.0
 10
215.2510537371271
 20
247.2790652168937
 30
0.0
 10
215.2512106985223
 20
250.3965976055161
 30
0.0
 10
215.1645060811334
 20
253.5096436497514
 30
0.0
 10
214.853439835333
 20
258.1698635295829
 30
0.0
 10
214.7192049817037
 20
259.7216924543618
 30
0.0
 10
214.369717247658
 20
262.8211657768161
 30
0.0
 10
214.1551104166247
 20
264.3631676090311
 30
0.0
 10
213.6178449639228
 20
267.420334200989
 30
0.0
 10
213.2952747062203
 20
268.9362854089989
 30
0.0
 10
212.4957575614385
 20
271.9320331484985
 30
0.0
 10
212.0197694168628
 20
273.4120542256903
 30
0.0
 10
211.134727806458
 20
275.5920242003016
 30
0.0
 10
210.8127259348869
 20
276.3067500605742
 30
0.0
 10
210.109678686981
 20
277.6985076306541
 30
0.0
 10
209.7281231693281
 20
278.3769581080464
 30
0.0
 10
208.896524596637
 20
279.6941139216103
 30
0.0
 10
208.4464730497892
 20
280.3328143296662
 30
0.0
 10
207.4688648138791
 20
281.5652368612605
 30
0.0
 10
206.9475230920418
 20
282.1507321269524
 30
0.0
 10
205.844108992442
 20
283.2534040616649
 30
0.0
 10
205.2612608910086
 20
283.7716188538589
 30
0.0
 10
204.0351500165253
 20
284.7437922655749
 30
0.0
 10
203.3892098182906
 20
285.1990189346459
 30
0.0
 10
201.408332510566
 20
286.4483404491702
 30
0.0
 10
200.0194709716862
 20
287.1369372649909
 30
0.0
 10
197.8623257852742
 20
288.0137644724211
 30
0.0
 10
197.1309462887
 20
288.2799817729421
 30
0.0
 10
195.6472723782004
 20
288.7682183837965
 30
0.0
 10
194.8953802563625
 20
288.9899540737765
 30
0.0
 10
192.6358999511091
 20
289.5931720193566
 30
0.0
 10
191.1162529429131
 20
289.9160269237659
 30
0.0
 10
188.0586706248237
 20
290.4529273755317
 30
0.0
 10
186.520695377373
 20
290.6667352768289
 30
0.0
 10
183.431430284425
 20
291.0151340046427
 30
0.0
 10
181.8790827195551
 20
291.1496628992052
 30
0.0
 10
177.2139211054778
 20
291.4614150557323
 30
0.0
 10
174.0996420264494
 20
291.5480438197036
 30
0.0
 10
170.9823714585514
 20
291.5477474956259
 30
0.0
  0
SPLINE
  5
160
330
1F
100
AcDbEntity
  8
0
  6
SLD-Durchgehend
 62
     8
370
     0
100
AcDbSpline
210
0.0
220
0.0
230
1.0
 70
     8
 71
     3
 72
    42
 73
    38
 74
     0
 42
0.00000001
 43
0.00000001
 12
1.0
 22
0.0
 32
0.0
 13
1.0
 23
0.0
 33
0.0
 40
0.0
 40
0.0
 40
0.0
 40
0.0
 40
0.1249999999999999
 40
0.1249999999999999
 40
0.1874999999999999
 40
0.1874999999999999
 40
0.2499999999999999
 40
0.2499999999999999
 40
0.3124999999999999
 40
0.3124999999999999
 40
0.3749999999999998
 40
0.3749999999999998
 40
0.4062499999999998
 40
0.4062499999999998
 40
0.4374999999999997
 40
0.4374999999999997
 40
0.4687499999999997
 40
0.4687499999999997
 40
0.4999999999999998
 40
0.4999999999999998
 40
0.5312499999999999
 40
0.5312499999999999
 40
0.5625
 40
0.5625
 40
0.6250000000000001
 40
0.6250000000000001
 40
0.6562500000000001
 40
0.6562500000000001
 40
0.6875000000000001
 40
0.6875000000000001
 40
0.7500000000000001
 40
0.7500000000000001
 40
0.8125000000000001
 40
0.8125000000000001
 40
0.875
 40
0.875
 40
1.0
 40
1.0
 40
1.0
 40
1.0
 10
126.7136891799769
 20
247.2790652168937
 30
0.0
 10
126.7135322185818
 20
244.1615328282714
 30
0.0
 10
126.8002368359706
 20
241.048486784036
 30
0.0
 10
127.111303081771
 20
236.3882669042045
 30
0.0
 10
127.2455379354003
 20
234.8364379794257
 30
0.0
 10
127.5950256694459
 20
231.7369646569713
 30
0.0
 10
127.8096325004792
 20
230.1949628247563
 30
0.0
 10
128.3468979531809
 20
227.1377962327983
 30
0.0
 10
128.6694682108835
 20
225.6218450247885
 30
0.0
 10
129.4689853556653
 20
222.6260972852889
 30
0.0
 10
129.9449735002408
 20
221.1460762080971
 30
0.0
 10
130.8300151106456
 20
218.9661062334857
 30
0.0
 10
131.1520169822167
 20
218.2513803732131
 30
0.0
 10
131.8550642301226
 20
216.8596228031333
 30
0.0
 10
132.2366197477754
 20
216.1811723257408
 30
0.0
 10
133.0682183204665
 20
214.8640165121769
 30
0.0
 10
133.5182698673142
 20
214.225316104121
 30
0.0
 10
134.4958781032242
 20
212.9928935725267
 30
0.0
 10
135.0172198250615
 20
212.4073983068347
 30
0.0
 10
136.1206339246611
 20
211.3047263721222
 30
0.0
 10
136.7034820260946
 20
210.7865115799282
 30
0.0
 10
137.9295929005778
 20
209.8143381682121
 30
0.0
 10
138.5755330988125
 20
209.3591114991411
 30
0.0
 10
140.556410406537
 20
208.1097899846167
 30
0.0
 10
141.9452719454168
 20
207.4211931687959
 30
0.0
 10
144.1024171318288
 20
206.5443659613656
 30
0.0
 10
144.833796628403
 20
206.2781486608446
 30
0.0
 10
146.3174705389025
 20
205.7899120499901
 30
0.0
 10
147.0693626607404
 20
205.5681763600101
 30
0.0
 10
149.3288429659938
 20
204.9649584144298
 30
0.0
 10
150.8484899741898
 20
204.6421035100207
 30
0.0
 10
153.9060722922792
 20
204.1052030582549
 30
0.0
 10
155.44404753973
 20
203.8913951569575
 30
0.0
 10
158.5333126326778
 20
203.5429964291438
 30
0.0
 10
160.0856601975478
 20
203.4084675345812
 30
0.0
 10
164.7508218116251
 20
203.096715378054
 30
0.0
 10
167.8651008906547
 20
203.0100866140827
 30
0.0
 10
170.9823714585526
 20
203.0103829381605
 30
0.0
  0
SPLINE
  5
161
330
1F
100
AcDbEntity
  8
0
  6
SLD-Durchgehend
 62
     8
370
     0
100
AcDbSpline
210
0.0
220
0.0
230
1.0
 70
     8
 71
     3
 72
    14
 73
    10
 74
     0
 42
0.00000001
 43
0.00000001
 12
1.0
 22
0.0
 32
0.0
 13
1.0
 23
0.0
 33
0.0
 40
0.0
 40
0.0
 40
0.0
 40
0.0
 40
0.25
 40
0.25
 40
0.5
 40
0.5
 40
0.75
 40
0.75
 40
1.0
 40
1.0
 40
1.0
 40
1.0
 10
170.9824335207469
 20
199.470522476831
 30
0.0
 10
170.982433850349
 20
199.6715985017082
 30
0.0
 10
170.9824324634669
 20
199.8741886594307
 30
0.0
 10
170.982426476044
 20
200.2503613486922
 30
0.0
 10
170.9824218781011
 20
200.4237806615393
 30
0.0
 10
170.9824102008323
 20
200.7138621621626
 30
0.0
 10
170.982403126573
 20
200.83039848561
 30
0.0
 10
170.9823876254682
 20
200.9880342114932
 30
0.0
 10
170.9823792053485
 20
201.0290652168931
 30
0.0
 10
170.9823707814047
 20
201.0290652168931
 30
0.0
  0
SPLINE
  5
162
330
1F
100
AcDbEntity
  8
0
  6
SLD-Durchgehend
 62
     8
370
     0
100
AcDbSpline
210
0.0
220
0.0
230
1.0
 70
     8
 71
     3
 72
    47
 73
    43
 74
     0
 42
0.00000001
 43
0.00000001
 12
1.0
 22
0.0
 32
0.0
 13
1.0
 23
0.0
 33
0.0
 40
0.0
 40
0.0
 40
0.0
 40
0.0
 40
0.1250000000000009
 40
0.1250000000000009
 40
0.1875000000000013
 40
0.1875000000000013
 40
0.2187500000000015
 40
0.2187500000000015
 40
0.2500000000000016
 40
0.2500000000000016
 40
0.3125000000000021
 40
0.3125000000000021
 40
0.3750000000000024
 40
0.3750000000000024
 40
0.3906250000000026
 40
0.3906250000000026
 40
0.4062500000000027
 40
0.4062500000000027
 40
0.4375000000000027
 40
0.4375000000000027
 40
0.5000000000000027
 40
0.5000000000000027
 40
0.5156250000000026
 40
0.5156250000000026
 40
0.5312500000000024
 40
0.5312500000000024
 40
0.5625000000000021
 40
0.5937500000000018
 40
0.5937500000000018
 40
0.6250000000000017
 40
0.6250000000000017
 40
0.6875000000000013
 40
0.6875000000000013
 40
0.7500000000000009
 40
0.7500000000000009
 40
0.7812500000000008
 40
0.7812500000000008
 40
0.8125000000000007
 40
0.8125000000000007
 40
0.8750000000000004
 40
0.8750000000000004
 40
1.0
 40
1.0
 40
1.0
 40
1.0
 10
170.982371458552
 20
199.470522480302
 30
0.0
 10
167.6350095477584
 20
199.4707103319529
 30
0.0
 10
164.2948444048327
 20
199.5691678470937
 30
0.0
 10
159.2998663185539
 20
199.9253512705359
 30
0.0
 10
157.6374414294674
 20
200.0791411407496
 30
0.0
 10
155.1489311722572
 20
200.3798344473386
 30
0.0
 10
154.3202887261474
 20
200.4918218493702
 30
0.0
 10
152.6650267195294
 20
200.7434186102261
 30
0.0
 10
151.8372554107175
 20
200.8832540634556
 30
0.0
 10
149.3694081878723
 20
201.3496847870211
 30
0.0
 10
147.7433667422171
 20
201.7228224203796
 30
0.0
 10
144.544034965827
 20
202.6400342302522
 30
0.0
 10
142.9705696688092
 20
203.1835414842533
 30
0.0
 10
141.0498429968789
 20
204.0123259298006
 30
0.0
 10
140.6680272561927
 20
204.1856317291173
 30
0.0
 10
139.9095016063981
 20
204.5487884709815
 30
0.0
 10
139.5320990504158
 20
204.7390559993854
 30
0.0
 10
138.418084991844
 20
205.3314289979597
 30
0.0
 10
137.6971487169319
 20
205.7561645944116
 30
0.0
 10
135.6047488461276
 20
207.1269507914182
 30
0.0
 10
134.3037149717712
 20
208.1696092794453
 30
0.0
 10
132.8118272067358
 20
209.6572941705564
 30
0.0
 10
132.5199082463127
 20
209.964454891732
 30
0.0
 10
131.9565285057333
 20
210.5895937801772
 30
0.0
 10
131.6841421694908
 20
210.9084463204328
 30
0.0
 10
130.893828116027
 20
211.8831335531432
 30
0.0
 10
129.911653694167
 20
213.231056153458
 30
0.0
 10
129.0614750323809
 20
214.668121477097
 30
0.0
 10
128.2718443077486
 20
216.1460775676405
 30
0.0
 10
127.9061673148184
 20
216.9086205626227
 30
0.0
 10
126.9034839549484
 20
219.2217526417518
 30
0.0
 10
126.3564266658591
 20
220.800107253738
 30
0.0
 10
125.4338905744684
 20
224.0080739638711
 30
0.0
 10
125.059007177781
 20
225.6378639477837
 30
0.0
 10
124.5906381633453
 20
228.1106175638937
 30
0.0
 10
124.4503870603177
 20
228.9392511198895
 30
0.0
 10
124.1980271410144
 20
230.5963268644298
 30
0.0
 10
124.0857060398061
 20
231.4258997582804
 30
0.0
 10
123.7841286010827
 20
233.9172611754651
 30
0.0
 10
123.6299050538102
 20
235.5816660668229
 30
0.0
 10
123.2727312525521
 20
240.5827597077393
 30
0.0
 10
123.1740168244637
 20
243.9272333300345
 30
0.0
 10
123.1738287219608
 20
247.2790652168932
 30
0.0
  0
LWPOLYLINE
  5
163
330
1F
100
AcDbEntity
  8
0
  6
SLD-Durchgehend
 62
     8
370
     0
100
AcDbPolyline
 90
        9
 70
   128
 43
0.0
 10
123.173828722
 20
247.2790652169
 10
123.4745926194
 20
247.2790645541
 10
123.7655812482
 20
247.2790613859
 10
124.0350512413
 20
247.27905584
 10
124.2721276548
 20
247.2790481404
 10
124.4672428455
 20
247.2790385977
 10
124.6125225906
 20
247.2790275971
 10
124.7021038658
 20
247.2790155825
 10
124.7323714586
 20
247.2790030387
  0
LWPOLYLINE
  5
164
330
1F
100
AcDbEntity
  8
0
  6
SLD-Durchgehend
 62
     8
370
     0
100
AcDbPolyline
 90
        9
 70
   128
 43
0.0
 10
218.7909141951
 20
247.2790652169
 10
218.4901502978
 20
247.2790645541
 10
218.199161669
 20
247.2790613859
 10
217.9296916758
 20
247.27905584
 10
217.6926152623
 20
247.2790481404
 10
217.4975000716
 20
247.2790385977
 10
217.3522203265
 20
247.2790275971
 10
217.2626390513
 20
247.2790155825
 10
217.2323714585
 20
247.2790030387
  0
SPLINE
  5
165
330
1F
100
AcDbEntity
  8
0
  6
SLD-Durchgehend
 62
     8
370
     0
100
AcDbSpline
210
0.0
220
0.0
230
1.0
 70
     8
 71
     3
 72
    47
 73
    43
 74
     0
 42
0.00000001
 43
0.00000001
 12
1.0
 22
0.0
 32
0.0
 13
1.0
 23
0.0
 33
0.0
 40
0.0
 40
0.0
 40
0.0
 40
0.0
 40
0.1249999999999988
 40
0.1249999999999988
 40
0.1874999999999982
 40
0.1874999999999982
 40
0.2187499999999979
 40
0.2187499999999979
 40
0.2499999999999976
 40
0.2499999999999976
 40
0.3124999999999968
 40
0.3124999999999968
 40
0.3749999999999961
 40
0.3749999999999961
 40
0.3906249999999959
 40
0.3906249999999959
 40
0.4062499999999958
 40
0.4062499999999958
 40
0.4374999999999958
 40
0.4374999999999958
 40
0.499999999999996
 40
0.499999999999996
 40
0.5156249999999962
 40
0.5156249999999962
 40
0.5312499999999963
 40
0.5312499999999963
 40
0.5624999999999964
 40
0.5937499999999967
 40
0.5937499999999967
 40
0.6249999999999969
 40
0.6249999999999969
 40
0.6874999999999973
 40
0.6874999999999973
 40
0.7499999999999979
 40
0.7499999999999979
 40
0.7812499999999981
 40
0.7812499999999981
 40
0.8124999999999983
 40
0.8124999999999983
 40
0.8749999999999989
 40
0.8749999999999989
 40
1.0
 40
1.0
 40
1.0
 40
1.0
 10
218.7909141951432
 20
247.2790652168932
 30
0.0
 10
218.7907263434923
 20
243.9317033060996
 30
0.0
 10
218.6922688283514
 20
240.5915381631737
 30
0.0
 10
218.3360854049091
 20
235.596560076895
 30
0.0
 10
218.1822955346954
 20
233.9341351878085
 30
0.0
 10
217.8816022281065
 20
231.4456249305983
 30
0.0
 10
217.769614826075
 20
230.6169824844885
 30
0.0
 10
217.5180180652192
 20
228.9617204778704
 30
0.0
 10
217.3781826119896
 20
228.1339491690586
 30
0.0
 10
216.9117518884241
 20
225.6661019462133
 30
0.0
 10
216.5386142550657
 20
224.0400605005581
 30
0.0
 10
215.6214024451931
 20
220.8407287241681
 30
0.0
 10
215.0778951911919
 20
219.2672634271503
 30
0.0
 10
214.2491107456446
 20
217.3465367552201
 30
0.0
 10
214.0758049463278
 20
216.9647210145337
 30
0.0
 10
213.7126482044636
 20
216.2061953647392
 30
0.0
 10
213.5223806760597
 20
215.8287928087569
 30
0.0
 10
212.9300076774854
 20
214.7147787501852
 30
0.0
 10
212.5052720810335
 20
213.993842475273
 30
0.0
 10
211.134485884027
 20
211.9014426044687
 30
0.0
 10
210.0918273959998
 20
210.6004087301123
 30
0.0
 10
208.6041425048887
 20
209.1085209650769
 30
0.0
 10
208.2969817837131
 20
208.8166020046538
 30
0.0
 10
207.671842895268
 20
208.2532222640744
 30
0.0
 10
207.3529903550123
 20
207.9808359278318
 30
0.0
 10
206.378303122302
 20
207.1905218743681
 30
0.0
 10
205.0303805219871
 20
206.2083474525079
 30
0.0
 10
203.5933151983482
 20
205.358168790722
 30
0.0
 10
202.1153591078046
 20
204.5685380660896
 30
0.0
 10
201.3528161128225
 20
204.2028610731595
 30
0.0
 10
199.0396840336933
 20
203.2001777132895
 30
0.0
 10
197.4613294217071
 20
202.6531204242002
 30
0.0
 10
194.2533627115739
 20
201.7305843328095
 30
0.0
 10
192.6235727276614
 20
201.3557009361222
 30
0.0
 10
190.1508191115513
 20
200.8873319216864
 30
0.0
 10
189.3221855555555
 20
200.7470808186588
 30
0.0
 10
187.6651098110152
 20
200.4947208993554
 30
0.0
 10
186.8355369171646
 20
200.3823997981472
 30
0.0
 10
184.3441754999799
 20
200.0808223594237
 30
0.0
 10
182.6797706086221
 20
199.9265988121512
 30
0.0
 10
177.6786769677058
 20
199.5694250108931
 30
0.0
 10
174.3342033454107
 20
199.4707105828049
 30
0.0
 10
170.982371458552
 20
199.470522480302
 30
0.0
  0
SPLINE
  5
166
330
1F
100
AcDbEntity
  8
0
  6
SLD-Durchgehend
 62
     8
370
     0
100
AcDbSpline
210
0.0
220
0.0
230
1.0
 70
     8
 71
     3
 72
    32
 73
    28
 74
     0
 42
0.00000001
 43
0.00000001
 12
1.0
 22
0.0
 32
0.0
 13
1.0
 23
0.0
 33
0.0
 40
0.0
 40
0.0
 40
0.0
 40
0.0
 40
0.1249999999999996
 40
0.1249999999999996
 40
0.2499999999999992
 40
0.2499999999999992
 40
0.3749999999999988
 40
0.3749999999999988
 40
0.4999999999999984
 40
0.4999999999999984
 40
0.5312499999999984
 40
0.5312499999999984
 40
0.5624999999999984
 40
0.5624999999999984
 40
0.6249999999999987
 40
0.6249999999999987
 40
0.6562499999999988
 40
0.6562499999999988
 40
0.6874999999999988
 40
0.6874999999999988
 40
0.749999999999999
 40
0.749999999999999
 40
0.8124999999999992
 40
0.8124999999999992
 40
0.8749999999999994
 40
0.8749999999999994
 40
1.0
 40
1.0
 40
1.0
 40
1.0
 10
170.982371458552
 20
295.0290652168932
 30
0.0
 10
173.373130956815
 20
295.0290652168932
 30
0.0
 10
175.7612288578382
 20
294.9781564701556
 30
0.0
 10
180.5308034104115
 20
294.7496934018124
 30
0.0
 10
182.9123343814266
 20
294.5731780562928
 30
0.0
 10
187.6659557031361
 20
294.0395752855415
 30
0.0
 10
190.0253471784833
 20
293.6839528908546
 30
0.0
 10
194.6744919021039
 20
292.6967990698869
 30
0.0
 10
196.9663420707757
 20
292.0664010261098
 30
0.0
 10
199.7633594579845
 20
290.9949312428625
 30
0.0
 10
200.320859730303
 20
290.7654382496409
 30
0.0
 10
201.4184539830219
 20
290.2775570777287
 30
0.0
 10
201.9585597710659
 20
290.0192474641196
 30
0.0
 10
203.5505287577141
 20
289.1974514314759
 30
0.0
 10
204.5741563538211
 20
288.5872842668126
 30
0.0
 10
206.0444069293672
 20
287.5642562545248
 30
0.0
 10
206.5236167270838
 20
287.2052698363549
 30
0.0
 10
207.4587315841631
 20
286.4487682467101
 30
0.0
 10
207.9145041374179
 20
286.0510163502132
 30
0.0
 10
209.2226742355823
 20
284.8185444684455
 30
0.0
 10
210.0236718676323
 20
283.9380783207519
 30
0.0
 10
211.4919601786341
 20
282.0665600580607
 30
0.0
 10
212.1593338185282
 20
281.0755765581638
 30
0.0
 10
213.3706577834406
 20
278.9915289533819
 30
0.0
 10
213.9022200585063
 20
277.9200024673597
 30
0.0
 10
215.3166139702511
 20
274.6386872432955
 30
0.0
 10
216.0243687165466
 20
272.3615963677052
 30
0.0
 10
216.582371458552
 20
270.0274844292128
 30
0.0
  0
SPLINE
  5
167
330
1F
100
AcDbEntity
  8
0
  6
SLD-Durchgehend
 62
     8
370
     0
100
AcDbSpline
210
0.0
220
0.0
230
1.0
 70
     8
 71
     3
 72
    17
 73
    13
 74
     0
 42
0.00000001
 43
0.00000001
 12
1.0
 22
0.0
 32
0.0
 13
1.0
 23
0.0
 33
0.0
 40
0.0
 40
0.0
 40
0.0
 40
0.0
 40
0.0144912457210396
 40
0.0144912457210396
 40
0.0144912457210396
 40
0.0293516359699533
 40
0.0293516359699533
 40
0.0293516359699533
 40
0.0442058586120097
 40
0.0442058586120097
 40
0.0442058586120097
 40
0.0587068469849115
 40
0.0587068469849115
 40
0.0587068469849115
 40
0.0587068469849115
 10
224.5819861456466
 20
247.2831169287197
 30
0.0
 10
224.5931887933901
 20
252.1135183441304
 30
0.0
 10
224.600913339113
 20
256.9439290160474
 30
0.0
 10
224.6059124305936
 20
261.7743414062041
 30
0.0
 10
224.6110388674467
 20
266.7278022876483
 30
0.0
 10
224.6133689337271
 20
271.6812664334064
 30
0.0
 10
224.6141783619432
 20
276.6347301110083
 30
0.0
 10
224.6149874542588
 20
281.5861381762225
 30
0.0
 10
224.6143012579463
 20
286.5375465205079
 30
0.0
 10
224.613134244399
 20
291.48895456013
 30
0.0
 10
224.6119949824867
 20
296.3226178928432
 30
0.0
 10
224.6103920105131
 20
301.1562811125177
 30
0.0
 10
224.6089218611646
 20
305.9899443606902
 30
0.0
  0
LWPOLYLINE
  5
168
330
1F
100
AcDbEntity
  8
0
  6
SLD-Durchgehend
 62
     8
370
     0
100
AcDbPolyline
 90
        3
 70
   128
 43
0.0
 10
224.5819641957
 20
247.2790652169
 10
224.5819644669
 20
247.2791252162
 10
224.5819861456
 20
247.2831169287
  0
SPLINE
  5
169
330
1F
100
AcDbEntity
  8
0
  6
SLD-Durchgehend
 62
     8
370
     0
100
AcDbSpline
210
0.0
220
0.0
230
1.0
 70
    24
 71
     3
 72
     8
 73
     4
 74
     0
 42
0.00000001
 43
0.00000001
 12
1.0
 22
0.0
 32
0.0
 13
1.0
 23
0.0
 33
0.0
 40
0.1697971195247364
 40
0.1697971195247364
 40
0.1697971195247364
 40
0.1697971195247364
 40
0.8032587855161578
 40
0.8032587855161578
 40
0.8032587855161578
 40
0.8032587855161578
 10
218.7909141951432
 20
247.2790652168932
 30
0.0
 10
221.3109523655011
 20
247.2790652168932
 30
0.0
 10
223.0401632767465
 20
247.2790652168932
 30
0.0
 10
224.5819641957312
 20
247.2790652168932
 30
0.0
  0
LINE
  5
16A
330
1F
100
AcDbEntity
  8
0
  6
SLD-Durchgehend
 62
     8
370
     0
100
AcDbLine
 10
218.7909141987
 20
247.2791279624
 30
0.0
 11
218.7909141951
 21
247.2790652169
 31
0.0
  0
LINE
  5
16B
330
1F
100
AcDbEntity
  8
0
  6
SLD-Durchgehend
 62
     8
370
     0
100
AcDbLine
 10
216.5823714586
 20
305.9899443607
 30
0.0
 11
216.5823714586
 21
270.0274844292
 31
0.0
  0
LINE
  5
16C
330
1F
100
AcDbEntity
  8
0
  6
SLD-Durchgehend
 62
     8
370
     0
100
AcDbLine
 10
117.3827604589
 20
247.283116946
 30
0.0
 11
117.3827787214
 21
247.2790652169
 31
0.0
  0
SPLINE
  5
16D
330
1F
100
AcDbEntity
  8
0
  6
SLD-Durchgehend
 62
     8
370
     0
100
AcDbSpline
210
0.0
220
0.0
230
1.0
 70
     8
 71
     3
 72
     8
 73
     4
 74
     0
 42
0.00000001
 43
0.00000001
 12
1.0
 22
0.0
 32
0.0
 13
1.0
 23
0.0
 33
0.0
 40
0.0
 40
0.0
 40
0.0
 40
0.0
 40
1.0
 40
1.0
 40
1.0
 40
1.0
 10
117.3558210559394
 20
305.9899443606901
 30
0.0
 10
117.3498691974402
 20
286.4209939565203
 30
0.0
 10
117.3373726614574
 20
266.8520147644075
 30
0.0
 10
117.3827567714574
 20
247.2831169287197
 30
0.0
  0
LINE
  5
16E
330
1F
100
AcDbEntity
  8
0
  6
SLD-Durchgehend
 62
     8
370
     0
100
AcDbLine
 10
125.3823714586
 20
305.9899443607
 30
0.0
 11
125.3823714586
 21
270.0274844292
 31
0.0
  0
LINE
  5
16F
330
1F
100
AcDbEntity
  8
0
  6
SLD-Durchgehend
 62
     8
370
     0
100
AcDbLine
 10
123.173828722
 20
247.2790652169
 30
0.0
 11
123.1738287185
 21
247.2791279624
 31
0.0
  0
SPLINE
  5
170
330
1F
100
AcDbEntity
  8
0
  6
SLD-Durchgehend
 62
     8
370
     0
100
AcDbSpline
210
0.0
220
0.0
230
1.0
 70
    24
 71
     3
 72
     8
 73
     4
 74
     0
 42
0.00000001
 43
0.00000001
 12
1.0
 22
0.0
 32
0.0
 13
1.0
 23
0.0
 33
0.0
 40
0.1697971195247339
 40
0.1697971195247339
 40
0.1697971195247339
 40
0.1697971195247339
 40
0.8032587855161577
 40
0.8032587855161577
 40
0.8032587855161577
 40
0.8032587855161577
 10
123.1738287219608
 20
247.2790652168932
 30
0.0
 10
120.653790551603
 20
247.2790652168932
 30
0.0
 10
118.9245796403575
 20
247.2790652168932
 30
0.0
 10
117.3827787213728
 20
247.2790652168932
 30
0.0
  0
SPLINE
  5
171
330
1F
100
AcDbEntity
  8
0
  6
SLD-Durchgehend
 62
     8
370
     0
100
AcDbSpline
210
0.0
220
0.0
230
1.0
 70
     8
 71
     3
 72
    29
 73
    25
 74
     0
 42
0.00000001
 43
0.00000001
 12
1.0
 22
0.0
 32
0.0
 13
1.0
 23
0.0
 33
0.0
 40
0.0
 40
0.0
 40
0.0
 40
0.0
 40
0.0625
 40
0.125
 40
0.1875
 40
0.25
 40
0.28125
 40
0.3125
 40
0.375
 40
0.40625
 40
0.4375
 40
0.46875
 40
0.5
 40
0.53125
 40
0.5625
 40
0.59375
 40
0.625
 40
0.6875
 40
0.71875
 40
0.75
 40
0.8125
 40
0.875
 40
0.9375
 40
1.0
 40
1.0
 40
1.0
 40
1.0
 10
208.550037772489
 20
247.2790652168599
 30
0.0
 10
208.5430294539488
 20
248.5776944333293
 30
0.0
 10
208.4927033800879
 20
251.1748961579077
 30
0.0
 10
208.2451176757508
 20
255.0640241484413
 30
0.0
 10
207.7925296963593
 20
258.9352046334602
 30
0.0
 10
207.2198896272482
 20
262.132506368313
 30
0.0
 10
206.6101826319328
 20
264.6583463432052
 30
0.0
 10
205.8814792467674
 20
267.1518040599123
 30
0.0
 10
204.9473816320779
 20
269.5801164150544
 30
0.0
 10
203.7717107277569
 20
271.8993135736652
 30
0.0
 10
202.7515154626395
 20
273.559714273485
 30
0.0
 10
201.5752226685846
 20
275.116678233294
 30
0.0
 10
200.2523363842919
 20
276.5486288184099
 30
0.0
 10
198.8206633356502
 20
277.8717051319741
 30
0.0
 10
197.2638100595061
 20
279.048283157692
 30
0.0
 10
195.603123411694
 20
280.0679558426273
 30
0.0
 10
193.2834455328249
 20
281.242680137497
 30
0.0
 10
190.8551473519334
 20
282.1766972587995
 30
0.0
 10
188.3624441023024
 20
282.9078269821072
 30
0.0
 10
185.8373825741245
 20
283.5204652289593
 30
0.0
 10
182.6402184552752
 20
284.0955292483103
 30
0.0
 10
178.7672275199241
 20
284.5331225680043
 30
0.0
 10
174.8777360121774
 20
284.7713841545152
 30
0.0
 10
172.2809598932888
 20
284.834280206473
 30
0.0
 10
170.9823714585187
 20
284.8467315308301
 30
0.0
  0
SPLINE
  5
172
330
1F
100
AcDbEntity
  8
0
  6
SLD-Durchgehend
 62
     8
370
     0
100
AcDbSpline
210
0.0
220
0.0
230
1.0
 70
    24
 71
     3
 72
     8
 73
     4
 74
     0
 42
0.00000001
 43
0.00000001
 12
1.0
 22
0.0
 32
0.0
 13
1.0
 23
0.0
 33
0.0
 40
0.0499268575859293
 40
0.0499268575859293
 40
0.0499268575859293
 40
0.0499268575859293
 40
0.3999999999998203
 40
0.3999999999998203
 40
0.3999999999998203
 40
0.3999999999998203
 10
170.9823714585514
 20
291.5477474956257
 30
0.0
 10
170.9823714585487
 20
288.5607634080284
 30
0.0
 10
170.9823714585367
 20
286.4325709812729
 30
0.0
 10
170.9823714585187
 20
284.8467315308326
 30
0.0
  0
SPLINE
  5
173
330
1F
100
AcDbEntity
  8
0
  6
SLD-Durchgehend
 62
     8
370
     0
100
AcDbSpline
210
0.0
220
0.0
230
1.0
 70
    24
 71
     3
 72
     8
 73
     4
 74
     0
 42
0.00000001
 43
0.00000001
 12
1.0
 22
0.0
 32
0.0
 13
1.0
 23
0.0
 33
0.0
 40
0.0499268575920835
 40
0.0499268575920835
 40
0.0499268575920835
 40
0.0499268575920835
 40
0.3999999999998203
 40
0.3999999999998203
 40
0.3999999999998203
 40
0.3999999999998203
 10
215.2510537371271
 20
247.2790652168937
 30
0.0
 10
212.2640696496124
 20
247.2790652168965
 30
0.0
 10
210.1358772229039
 20
247.2790652169085
 30
0.0
 10
208.5500377724914
 20
247.2790652169265
 30
0.0
  0
SPLINE
  5
174
330
1F
100
AcDbEntity
  8
0
  6
SLD-Durchgehend
 62
     8
370
     0
100
AcDbSpline
210
0.0
220
0.0
230
1.0
 70
     8
 71
     3
 72
    29
 73
    25
 74
     0
 42
0.00000001
 43
0.00000001
 12
1.0
 22
0.0
 32
0.0
 13
1.0
 23
0.0
 33
0.0
 40
0.0
 40
0.0
 40
0.0
 40
0.0
 40
0.0625
 40
0.125
 40
0.1875
 40
0.25
 40
0.28125
 40
0.3125
 40
0.375
 40
0.40625
 40
0.4375
 40
0.46875
 40
0.5
 40
0.53125
 40
0.5625
 40
0.59375
 40
0.625
 40
0.6875
 40
0.71875
 40
0.75
 40
0.8125
 40
0.875
 40
0.9375
 40
1.0
 40
1.0
 40
1.0
 40
1.0
 10
133.414705144615
 20
247.2790652169265
 30
0.0
 10
133.4217134631552
 20
245.980436000457
 30
0.0
 10
133.4720395370162
 20
243.3832342758786
 30
0.0
 10
133.7196252413532
 20
239.494106285345
 30
0.0
 10
134.1722132207448
 20
235.6229258003261
 30
0.0
 10
134.7448532898559
 20
232.4256240654733
 30
0.0
 10
135.3545602851712
 20
229.8997840905811
 30
0.0
 10
136.0832636703367
 20
227.4063263738741
 30
0.0
 10
137.0173612850261
 20
224.9780140187319
 30
0.0
 10
138.1930321893472
 20
222.6588168601211
 30
0.0
 10
139.2132274544646
 20
220.9984161603012
 30
0.0
 10
140.3895202485195
 20
219.4414522004923
 30
0.0
 10
141.7124065328122
 20
218.0095016153764
 30
0.0
 10
143.1440795814539
 20
216.6864253018122
 30
0.0
 10
144.7009328575979
 20
215.5098472760943
 30
0.0
 10
146.3616195054101
 20
214.490174591159
 30
0.0
 10
148.6812973842792
 20
213.3154502962894
 30
0.0
 10
151.1095955651707
 20
212.3814331749868
 30
0.0
 10
153.6022988148016
 20
211.6503034516791
 30
0.0
 10
156.1273603429796
 20
211.0376652048269
 30
0.0
 10
159.3245244618288
 20
210.462601185476
 30
0.0
 10
163.19751539718
 20
210.025007865782
 30
0.0
 10
167.0870069049267
 20
209.7867462792711
 30
0.0
 10
169.6837830238153
 20
209.7238502273134
 30
0.0
 10
170.9823714585853
 20
209.7113989029561
 30
0.0
  0
SPLINE
  5
175
330
1F
100
AcDbEntity
  8
0
  6
SLD-Durchgehend
 62
     8
370
     0
100
AcDbSpline
210
0.0
220
0.0
230
1.0
 70
    24
 71
     3
 72
     8
 73
     4
 74
     0
 42
0.00000001
 43
0.00000001
 12
1.0
 22
0.0
 32
0.0
 13
1.0
 23
0.0
 33
0.0
 40
0.0499268575859295
 40
0.0499268575859295
 40
0.0499268575859295
 40
0.0499268575859295
 40
0.3999999999998203
 40
0.3999999999998203
 40
0.3999999999998203
 40
0.3999999999998203
 10
170.9823714585514
 20
203.0103829381605
 30
0.0
 10
170.9823714585487
 20
205.9973670257579
 30
0.0
 10
170.9823714585367
 20
208.1255594525134
 30
0.0
 10
170.9823714585187
 20
209.7113989029538
 30
0.0
  0
SPLINE
  5
176
330
1F
100
AcDbEntity
  8
0
  6
SLD-Durchgehend
 62
     8
370
     0
100
AcDbSpline
210
0.0
220
0.0
230
1.0
 70
    24
 71
     3
 72
     8
 73
     4
 74
     0
 42
0.00000001
 43
0.00000001
 12
1.0
 22
0.0
 32
0.0
 13
1.0
 23
0.0
 33
0.0
 40
0.0499268575920823
 40
0.0499268575920823
 40
0.0499268575920823
 40
0.0499268575920823
 40
0.3999999999998203
 40
0.3999999999998203
 40
0.3999999999998203
 40
0.3999999999998203
 10
126.7136891799769
 20
247.2790652168937
 30
0.0
 10
129.7006732674916
 20
247.2790652168965
 30
0.0
 10
131.8288656942001
 20
247.2790652169085
 30
0.0
 10
133.4147051446126
 20
247.2790652169265
 30
0.0
  0
SPLINE
  5
177
330
1F
100
AcDbEntity
  8
0
  6
SLD-Durchgehend
 62
     8
370
     0
100
AcDbSpline
210
0.0
220
0.0
230
1.0
 70
     8
 71
     3
 72
    16
 73
    12
 74
     0
 42
0.00000001
 43
0.00000001
 12
1.0
 22
0.0
 32
0.0
 13
1.0
 23
0.0
 33
0.0
 40
0.0
 40
0.0
 40
0.0
 40
0.0
 40
0.0625
 40
0.125
 40
0.25
 40
0.375
 40
0.5
 40
0.625
 40
0.75
 40
0.875
 40
1.0
 40
1.0
 40
1.0
 40
1.0
 10
133.4147051446151
 20
247.2790652168599
 30
0.0
 10
133.423857341903
 20
248.9749514304781
 30
0.0
 10
133.5061600124904
 20
252.3637432976778
 30
0.0
 10
134.0725076941888
 20
258.8939482738065
 30
0.0
 10
135.5132919205538
 20
266.2068442057087
 30
0.0
 10
138.3587729078439
 20
272.6647776736592
 30
0.0
 10
141.60729594687
 20
276.6539030613406
 30
0.0
 10
145.5965312563505
 20
279.9037576312703
 30
0.0
 10
152.0553715485449
 20
282.7440581971128
 30
0.0
 10
160.8271439799607
 20
284.4922107619578
 30
0.0
 10
167.5933079747448
 20
284.8142359936956
 30
0.0
 10
170.9823714585853
 20
284.8467315308301
 30
0.0
  0
SPLINE
  5
178
330
1F
100
AcDbEntity
  8
0
  6
SLD-Durchgehend
 62
     8
370
     0
100
AcDbSpline
210
0.0
220
0.0
230
1.0
 70
     8
 71
     3
 72
    16
 73
    12
 74
     0
 42
0.00000001
 43
0.00000001
 12
1.0
 22
0.0
 32
0.0
 13
1.0
 23
0.0
 33
0.0
 40
0.0
 40
0.0
 40
0.0
 40
0.0
 40
0.0625
 40
0.125
 40
0.25
 40
0.375
 40
0.5
 40
0.625
 40
0.75
 40
0.875
 40
1.0
 40
1.0
 40
1.0
 40
1.0
 10
208.550037772489
 20
247.2790652169265
 30
0.0
 10
208.5408855752011
 20
245.5831790033081
 30
0.0
 10
208.4585829046137
 20
242.1943871361086
 30
0.0
 10
207.8922352229152
 20
235.6641821599799
 30
0.0
 10
206.4514509965503
 20
228.3512862280776
 30
0.0
 10
203.6059700092601
 20
221.8933527601271
 30
0.0
 10
200.3574469702341
 20
217.9042273724457
 30
0.0
 10
196.3682116607535
 20
214.6543728025161
 30
0.0
 10
189.9093713685592
 20
211.8140722366734
 30
0.0
 10
181.1375989371434
 20
210.0659196718285
 30
0.0
 10
174.3714349423593
 20
209.7438944400907
 30
0.0
 10
170.9823714585187
 20
209.7113989029562
 30
0.0
  0
SPLINE
  5
179
330
1F
100
AcDbEntity
  8
0
  6
SLD-Durchgehend
 62
     8
370
     0
100
AcDbSpline
210
0.0
220
0.0
230
1.0
 70
    24
 71
     3
 72
     8
 73
     4
 74
     0
 42
0.00000001
 43
0.00000001
 12
1.0
 22
0.0
 32
0.0
 13
1.0
 23
0.0
 33
0.0
 40
0.1697971195247364
 40
0.1697971195247364
 40
0.1697971195247364
 40
0.1697971195247364
 40
0.8078398438209533
 40
0.8078398438209533
 40
0.8078398438209533
 40
0.8078398438209533
 10
170.982371458552
 20
199.470522480302
 30
0.0
 10
170.982371458552
 20
196.932259936776
 30
0.0
 10
170.982371458552
 20
195.1963041963539
 30
0.0
 10
170.982371458552
 20
193.6460517390855
 30
0.0
  0
LWPOLYLINE
  5
17A
330
1F
100
AcDbEntity
  8
0
  6
SLD-Durchgehend
 62
     8
370
     0
100
AcDbPolyline
 90
        9
 70
   128
 43
0.0
 10
116.344361169
 20
247.2790652181
 10
116.4380011498
 20
247.2793556294
 10
116.5444101803
 20
247.2797167305
 10
116.6625053578
 20
247.2801448467
 10
116.7910848518
 20
247.2806356209
 10
116.9288401351
 20
247.2811840589
 10
117.0743693005
 20
247.2817845791
 10
117.2261913273
 20
247.2824310703
 10
117.3827611541
 20
247.2831169532
  0
SPLINE
  5
17B
330
1F
100
AcDbEntity
  8
0
  6
SLD-Durchgehend
 62
     8
370
     0
100
AcDbSpline
210
0.0
220
0.0
230
1.0
 70
     8
 71
     3
 72
     8
 73
     4
 74
     0
 42
0.00000001
 43
0.00000001
 12
1.0
 22
0.0
 32
0.0
 13
1.0
 23
0.0
 33
0.0
 40
0.0
 40
0.0
 40
0.0
 40
0.0
 40
1.0
 40
1.0
 40
1.0
 40
1.0
 10
116.1008937884524
 20
247.2790652168976
 30
0.0
 10
116.0648936208019
 20
247.2787975641798
 30
0.0
 10
116.1521552772139
 20
247.2788272769585
 30
0.0
 10
116.3443575120866
 20
247.2790652168931
 30
0.0
  0
ARC
  5
17C
330
1F
100
AcDbEntity
  8
0
  6
SLD-Durchgehend
 62
     8
370
     0
100
AcDbCircle
 10
223.8151154715
 20
-210.534626313
 30
0.0
 40
457.818385517183
100
AcDbArc
 50
89.7425817256
 51
89.9040264109
  0
LINE
  5
17D
330
1F
100
AcDbEntity
  8
0
  6
SLD-Durchgehend
 62
     8
370
     0
100
AcDbLine
 10
124.7323714586
 20
247.2790652169
 30
0.0
 11
125.2323714586
 21
247.2790652169
 31
0.0
  0
SPLINE
  5
17E
330
1F
100
AcDbEntity
  8
0
  6
SLD-Durchgehend
 62
     8
370
     0
100
AcDbSpline
210
0.0
220
0.0
230
1.0
 70
     8
 71
     3
 72
    44
 73
    40
 74
     0
 42
0.00000001
 43
0.00000001
 12
1.0
 22
0.0
 32
0.0
 13
1.0
 23
0.0
 33
0.0
 40
0.0
 40
0.0
 40
0.0
 40
0.0
 40
0.1249999999999998
 40
0.1249999999999998
 40
0.1874999999999997
 40
0.1874999999999997
 40
0.2499999999999996
 40
0.2499999999999996
 40
0.3124999999999994
 40
0.3124999999999994
 40
0.3437499999999994
 40
0.3437499999999994
 40
0.3749999999999994
 40
0.3749999999999994
 40
0.4374999999999994
 40
0.4374999999999994
 40
0.4687499999999994
 40
0.4687499999999994
 40
0.4999999999999993
 40
0.4999999999999993
 40
0.5624999999999992
 40
0.5624999999999992
 40
0.5781249999999992
 40
0.5781249999999992
 40
0.5937499999999992
 40
0.5937499999999992
 40
0.6249999999999993
 40
0.6249999999999993
 40
0.6874999999999996
 40
0.6874999999999996
 40
0.7187499999999997
 40
0.7187499999999997
 40
0.7499999999999997
 40
0.7499999999999997
 40
0.8124999999999998
 40
0.8124999999999998
 40
0.8749999999999999
 40
0.8749999999999999
 40
1.0
 40
1.0
 40
1.0
 40
1.0
 10
125.232371458552
 20
247.2790652168932
 30
0.0
 10
125.232371458552
 20
244.0783176181094
 30
0.0
 10
125.3233566590775
 20
240.8885768914513
 30
0.0
 10
125.6477215451526
 20
236.126695312526
 30
0.0
 10
125.7874624429963
 20
234.543226572247
 30
0.0
 10
126.150064897523
 20
231.3863445562873
 30
0.0
 10
126.3728002443873
 20
229.8129160124604
 30
0.0
 10
126.9330149100318
 20
226.6799399979787
 30
0.0
 10
127.270182334213
 20
225.120354796089
 30
0.0
 10
127.9009948059427
 20
222.7961062023928
 30
0.0
 10
128.1323548159664
 20
222.0236100951947
 30
0.0
 10
128.6463029520627
 20
220.4860227239551
 30
0.0
 10
128.9263517580543
 20
219.7286447551852
 30
0.0
 10
129.84718812234
 20
217.4964304172779
 30
0.0
 10
130.5687685801077
 20
216.0615645503463
 30
0.0
 10
131.8667429112417
 20
214.0159308901217
 30
0.0
 10
132.3386503585479
 20
213.3482210152487
 30
0.0
 10
133.3406427464438
 20
212.0821814399344
 30
0.0
 10
133.8716849538214
 20
211.4814202345871
 30
0.0
 10
135.5558283713925
 20
209.7768558315819
 30
0.0
 10
136.8004066020844
 20
208.7712659626945
 30
0.0
 10
138.4974367117099
 20
207.6659917270454
 30
0.0
 10
138.8443528199409
 20
207.4522955160861
 30
0.0
 10
139.5435230358743
 20
207.0442607209768
 30
0.0
 10
139.8967509872607
 20
206.8492497271066
 30
0.0
 10
140.9665329817833
 20
206.2891829375867
 30
0.0
 10
141.6932019880992
 20
205.9491349260093
 30
0.0
 10
143.9072803006648
 20
205.0132272388254
 30
0.0
 10
145.4283454843807
 20
204.5005768543933
 30
0.0
 10
147.7584215184672
 20
203.851456763082
 30
0.0
 10
148.5439717965715
 20
203.655158182259
 30
0.0
 10
150.1213995371924
 20
203.2987394497945
 30
0.0
 10
150.913531890942
 20
203.1384790013479
 30
0.0
 10
153.2984920139312
 20
202.7026584387401
 30
0.0
 10
154.9000022320917
 20
202.4717494639318
 30
0.0
 10
158.1041236159379
 20
202.0976213413062
 30
0.0
 10
159.7090818946852
 20
201.9540924758183
 30
0.0
 10
164.530477882142
 20
201.6214838218178
 30
0.0
 10
167.7533491020986
 20
201.5290652168931
 30
0.0
 10
170.982371458552
 20
201.5290652168931
 30
0.0
  0
LINE
  5
17F
330
1F
100
AcDbEntity
  8
0
  6
SLD-Durchgehend
 62
     8
370
     0
100
AcDbLine
 10
170.9823714586
 20
201.0290652169
 30
0.0
 11
170.9823714586
 21
201.5290652169
 31
0.0
  0
SPLINE
  5
180
330
1F
100
AcDbEntity
  8
0
  6
SLD-Durchgehend
 62
     8
370
     0
100
AcDbSpline
210
0.0
220
0.0
230
1.0
 70
     8
 71
     3
 72
    10
 73
     6
 74
     0
 42
0.00000001
 43
0.00000001
 12
1.0
 22
0.0
 32
0.0
 13
1.0
 23
0.0
 33
0.0
 40
0.0
 40
0.0
 40
0.0
 40
0.0
 40
0.3333333333333333
 40
0.6666666666666667
 40
1.0
 40
1.0
 40
1.0
 40
1.0
 10
138.982371458552
 20
247.2790652168932
 30
0.0
 10
138.9823714585521
 20
247.2790652168932
 30
0.0
 10
138.9823714585521
 20
247.2790652168932
 30
0.0
 10
138.1761996034873
 20
247.2860717691743
 30
0.0
 10
135.4346372811108
 20
247.279065216837
 30
0.0
 10
133.414705144615
 20
247.2790652168599
 30
0.0
  0
SPLINE
  5
181
330
1F
100
AcDbEntity
  8
0
  6
SLD-Durchgehend
 62
     8
370
     0
100
AcDbSpline
210
0.0
220
0.0
230
1.0
 70
     8
 71
     3
 72
    10
 73
     6
 74
     0
 42
0.00000001
 43
0.00000001
 12
1.0
 22
0.0
 32
0.0
 13
1.0
 23
0.0
 33
0.0
 40
0.0
 40
0.0
 40
0.0
 40
0.0
 40
0.3333333333333333
 40
0.6666666666666667
 40
1.0
 40
1.0
 40
1.0
 40
1.0
 10
202.982371458552
 20
247.2790652168932
 30
0.0
 10
202.982371458552
 20
247.2790652168932
 30
0.0
 10
202.982371458552
 20
247.2790652168932
 30
0.0
 10
203.7885433136168
 20
247.272058664612
 30
0.0
 10
206.5301056359932
 20
247.2790652169493
 30
0.0
 10
208.550037772489
 20
247.2790652169265
 30
0.0
  0
SPLINE
  5
182
330
1F
100
AcDbEntity
  8
0
  6
SLD-Durchgehend
 62
     8
370
     0
100
AcDbSpline
210
0.0
220
0.0
230
1.0
 70
     8
 71
     3
 72
    42
 73
    38
 74
     0
 42
0.00000001
 43
0.00000001
 12
1.0
 22
0.0
 32
0.0
 13
1.0
 23
0.0
 33
0.0
 40
0.0
 40
0.0
 40
0.0
 40
0.0
 40
0.1250000000000004
 40
0.1250000000000004
 40
0.1875000000000006
 40
0.1875000000000006
 40
0.2500000000000008
 40
0.2500000000000008
 40
0.3125000000000011
 40
0.3125000000000011
 40
0.3750000000000012
 40
0.3750000000000012
 40
0.4062500000000013
 40
0.4062500000000013
 40
0.4218750000000013
 40
0.4218750000000013
 40
0.4375000000000012
 40
0.4375000000000012
 40
0.500000000000001
 40
0.500000000000001
 40
0.5156250000000009
 40
0.5156250000000009
 40
0.5312500000000009
 40
0.5312500000000009
 40
0.5625000000000009
 40
0.5625000000000009
 40
0.6250000000000009
 40
0.6250000000000009
 40
0.6875000000000008
 40
0.6875000000000008
 40
0.7500000000000006
 40
0.7500000000000006
 40
0.8125000000000004
 40
0.8125000000000004
 40
0.8750000000000003
 40
0.8750000000000003
 40
1.0
 40
1.0
 40
1.0
 40
1.0
 10
216.732371458552
 20
247.2790652168932
 30
0.0
 10
216.732371458552
 20
250.4881301922767
 30
0.0
 10
216.6409685869538
 20
253.6877908935331
 30
0.0
 10
216.3141287966344
 20
258.4677604089292
 30
0.0
 10
216.1732475670674
 20
260.0577978848225
 30
0.0
 10
215.8071610836708
 20
263.2291968921252
 30
0.0
 10
215.5821009905154
 20
264.8105733588504
 30
0.0
 10
215.0149356510995
 20
267.9612837307729
 30
0.0
 10
214.6725997698529
 20
269.5327057143652
 30
0.0
 10
213.8188474622383
 20
272.6493898907063
 30
0.0
 10
213.3129172533755
 20
274.1753474587797
 30
0.0
 10
212.3892971228802
 20
276.3968042344227
 30
0.0
 10
212.0537417174054
 20
277.1259498740105
 30
0.0
 10
211.5010786275662
 20
278.1994602899177
 30
0.0
 10
211.3086449450967
 20
278.5539327793668
 30
0.0
 10
210.9060148124474
 20
279.255601234531
 30
0.0
 10
210.6953544432547
 20
279.603445487287
 30
0.0
 10
209.6053618890806
 20
281.3059753025668
 30
0.0
 10
208.6097529855718
 20
282.5617620597303
 30
0.0
 10
207.1940494426821
 20
283.9843693056446
 30
0.0
 10
206.9023641917226
 20
284.2615474033891
 30
0.0
 10
206.3018377883136
 20
284.8011594723633
 30
0.0
 10
205.9921747656481
 20
285.0642432488929
 30
0.0
 10
205.043455999962
 20
285.8265878509687
 30
0.0
 10
204.3883465280424
 20
286.2963768471084
 30
0.0
 10
202.3623337415811
 20
287.6026628968568
 30
0.0
 10
200.9307085599108
 20
288.3360153188415
 30
0.0
 10
197.9410858904177
 20
289.5880590270129
 30
0.0
 10
196.4157878437377
 20
290.0952167359269
 30
0.0
 10
193.3296132186036
 20
290.9465447204158
 30
0.0
 10
191.7673645534412
 20
291.2904175275212
 30
0.0
 10
188.6158816769451
 20
291.862973997753
 30
0.0
 10
187.0266050598811
 20
292.0914766499128
 30
0.0
 10
183.8281758137114
 20
292.4636402097559
 30
0.0
 10
182.2257138947299
 20
292.6064661624518
 30
0.0
 10
177.4148179649673
 20
292.9372546024721
 30
0.0
 10
174.2009499898947
 20
293.0290652168932
 30
0.0
 10
170.982371458552
 20
293.0290652168932
 30
0.0
  0
LINE
  5
183
330
1F
100
AcDbEntity
  8
0
  6
SLD-Durchgehend
 62
     8
370
     0
100
AcDbLine
 10
170.9823714586
 20
293.0290652169
 30
0.0
 11
170.9823714586
 21
293.5290652169
 31
0.0
  0
LINE
  5
184
330
1F
100
AcDbEntity
  8
0
  6
SLD-Durchgehend
 62
     8
370
     0
100
AcDbLine
 10
216.7323714586
 20
247.2790652169
 30
0.0
 11
217.2323714586
 21
247.2790652169
 31
0.0
  0
SPLINE
  5
185
330
1F
100
AcDbEntity
  8
0
  6
SLD-Durchgehend
 62
     8
370
     0
100
AcDbSpline
210
0.0
220
0.0
230
1.0
 70
     8
 71
     3
 72
    42
 73
    38
 74
     0
 42
0.00000001
 43
0.00000001
 12
1.0
 22
0.0
 32
0.0
 13
1.0
 23
0.0
 33
0.0
 40
0.0
 40
0.0
 40
0.0
 40
0.0
 40
0.1249999999999998
 40
0.1249999999999998
 40
0.1874999999999997
 40
0.1874999999999997
 40
0.2499999999999997
 40
0.2499999999999997
 40
0.3124999999999997
 40
0.3124999999999997
 40
0.3749999999999997
 40
0.3749999999999997
 40
0.4062499999999997
 40
0.4062499999999997
 40
0.4218749999999996
 40
0.4218749999999996
 40
0.4374999999999995
 40
0.4374999999999995
 40
0.4999999999999992
 40
0.4999999999999992
 40
0.5156249999999992
 40
0.5156249999999992
 40
0.5312499999999991
 40
0.5312499999999991
 40
0.5624999999999993
 40
0.5624999999999993
 40
0.6249999999999994
 40
0.6249999999999994
 40
0.6874999999999996
 40
0.6874999999999996
 40
0.7499999999999997
 40
0.7499999999999997
 40
0.8124999999999998
 40
0.8124999999999998
 40
0.8749999999999999
 40
0.8749999999999999
 40
1.0
 40
1.0
 40
1.0
 40
1.0
 10
170.982371458552
 20
293.0290652168932
 30
0.0
 10
167.7733064831685
 20
293.0290652168932
 30
0.0
 10
164.5736457819121
 20
292.937662345295
 30
0.0
 10
159.793676266516
 20
292.6108225549756
 30
0.0
 10
158.2036387906226
 20
292.4699413254086
 30
0.0
 10
155.0322397833201
 20
292.1038548420119
 30
0.0
 10
153.4508633165948
 20
291.8787947488565
 30
0.0
 10
150.3001529446723
 20
291.3116294094406
 30
0.0
 10
148.72873096108
 20
290.9692935281939
 30
0.0
 10
145.6120467847389
 20
290.1155412205793
 30
0.0
 10
144.0860892166655
 20
289.6096110117165
 30
0.0
 10
141.8646324410224
 20
288.6859908812213
 30
0.0
 10
141.1354868014347
 20
288.3504354757466
 30
0.0
 10
140.0619763855275
 20
287.7977723859074
 30
0.0
 10
139.7075038960784
 20
287.6053387034378
 30
0.0
 10
139.0058354409142
 20
287.2027085707886
 30
0.0
 10
138.6579911881581
 20
286.9920482015959
 30
0.0
 10
136.9554613728783
 20
285.9020556474217
 30
0.0
 10
135.6996746157149
 20
284.906446743913
 30
0.0
 10
134.2770673698006
 20
283.4907432010232
 30
0.0
 10
133.9998892720561
 20
283.1990579500637
 30
0.0
 10
133.4602772030819
 20
282.5985315466547
 30
0.0
 10
133.1971934265524
 20
282.2888685239892
 30
0.0
 10
132.4348488244765
 20
281.3401497583031
 30
0.0
 10
131.9650598283368
 20
280.6850402863835
 30
0.0
 10
130.6587737785885
 20
278.6590274999222
 30
0.0
 10
129.9254213566038
 20
277.227402318252
 30
0.0
 10
128.6733776484322
 20
274.2377796487589
 30
0.0
 10
128.1662199395182
 20
272.7124816020789
 30
0.0
 10
127.3148919550293
 20
269.6263069769448
 30
0.0
 10
126.9710191479239
 20
268.0640583117823
 30
0.0
 10
126.3984626776922
 20
264.9125754352862
 30
0.0
 10
126.1699600255323
 20
263.3232988182223
 30
0.0
 10
125.7977964656894
 20
260.1248695720525
 30
0.0
 10
125.6549705129935
 20
258.522407653071
 30
0.0
 10
125.3241820729731
 20
253.7115117233084
 30
0.0
 10
125.232371458552
 20
250.4976437482358
 30
0.0
 10
125.232371458552
 20
247.2790652168931
 30
0.0
  0
SPLINE
  5
186
330
1F
100
AcDbEntity
  8
0
  6
SLD-Durchgehend
 62
     8
370
     0
100
AcDbSpline
210
0.0
220
0.0
230
1.0
 70
     8
 71
     3
 72
    42
 73
    38
 74
     0
 42
0.00000001
 43
0.00000001
 12
1.0
 22
0.0
 32
0.0
 13
1.0
 23
0.0
 33
0.0
 40
0.0
 40
0.0
 40
0.0
 40
0.0
 40
0.1249999999999989
 40
0.1249999999999989
 40
0.1874999999999984
 40
0.1874999999999984
 40
0.2499999999999978
 40
0.2499999999999978
 40
0.3124999999999973
 40
0.3124999999999973
 40
0.3749999999999968
 40
0.3749999999999968
 40
0.4062499999999966
 40
0.4062499999999966
 40
0.4218749999999964
 40
0.4218749999999964
 40
0.4374999999999962
 40
0.4374999999999962
 40
0.4999999999999958
 40
0.4999999999999958
 40
0.5156249999999959
 40
0.5156249999999959
 40
0.531249999999996
 40
0.531249999999996
 40
0.5624999999999961
 40
0.5624999999999961
 40
0.6249999999999966
 40
0.6249999999999966
 40
0.6874999999999971
 40
0.6874999999999971
 40
0.7499999999999977
 40
0.7499999999999977
 40
0.8124999999999983
 40
0.8124999999999983
 40
0.8749999999999989
 40
0.8749999999999989
 40
1.0
 40
1.0
 40
1.0
 40
1.0
 10
170.982371458552
 20
201.5290652168931
 30
0.0
 10
174.1914364339356
 20
201.5290652168931
 30
0.0
 10
177.391097135192
 20
201.6204680884913
 30
0.0
 10
182.171066650588
 20
201.9473078788107
 30
0.0
 10
183.7611041264814
 20
202.0881891083777
 30
0.0
 10
186.932503133784
 20
202.4542755917744
 30
0.0
 10
188.5138796005093
 20
202.6793356849298
 30
0.0
 10
191.6645899724318
 20
203.2465010243457
 30
0.0
 10
193.2360119560241
 20
203.5888369055924
 30
0.0
 10
196.3526961323651
 20
204.442589213207
 30
0.0
 10
197.8786537004385
 20
204.9485194220697
 30
0.0
 10
200.1001104760816
 20
205.872139552565
 30
0.0
 10
200.8292561156693
 20
206.2076949580398
 30
0.0
 10
201.9027665315765
 20
206.7603580478789
 30
0.0
 10
202.2572390210257
 20
206.9527917303485
 30
0.0
 10
202.9589074761898
 20
207.3554218629978
 30
0.0
 10
203.3067517289459
 20
207.5660822321904
 30
0.0
 10
205.0092815442257
 20
208.6560747863645
 30
0.0
 10
206.2650683013892
 20
209.6516836898733
 30
0.0
 10
207.6876755473035
 20
211.0673872327631
 30
0.0
 10
207.964853645048
 20
211.3590724837226
 30
0.0
 10
208.5044657140221
 20
211.9595988871316
 30
0.0
 10
208.7675494905517
 20
212.2692619097971
 30
0.0
 10
209.5298940926275
 20
213.2179806754832
 30
0.0
 10
209.9996830887672
 20
213.8730901474028
 30
0.0
 10
211.3059691385156
 20
215.8991029338641
 30
0.0
 10
212.0393215605003
 20
217.3307281155343
 30
0.0
 10
213.2913652686718
 20
220.3203507850274
 30
0.0
 10
213.7985229775859
 20
221.8456488317074
 30
0.0
 10
214.6498509620748
 20
224.9318234568415
 30
0.0
 10
214.9937237691801
 20
226.494072122004
 30
0.0
 10
215.5662802394119
 20
229.6455549985
 30
0.0
 10
215.7947828915717
 20
231.234831615564
 30
0.0
 10
216.1669464514146
 20
234.4332608617338
 30
0.0
 10
216.3097724041106
 20
236.0357227807153
 30
0.0
 10
216.640560844131
 20
240.8466187104779
 30
0.0
 10
216.732371458552
 20
244.0604866855505
 30
0.0
 10
216.732371458552
 20
247.2790652168932
 30
0.0
  0
CIRCLE
  5
187
330
1F
100
AcDbEntity
  8
0
  6
SLD-Durchgehend
 62
     8
370
     0
100
AcDbCircle
 10
170.9823714586
 20
247.2790652169
 30
0.0
 40
10.5
  0
ENDSEC
  0
SECTION
  2
OBJECTS
  0
DICTIONARY
  5
C
330
0
100
AcDbDictionary
281
     1
  3
ACAD_GROUP
350
D
  3
ACAD_LAYOUT
350
1A
  3
ACAD_MLINESTYLE
350
17
  3
ACAD_PLOTSETTINGS
350
19
  3
ACAD_PLOTSTYLENAME
350
E
  0
DICTIONARY
  5
D
102
{ACAD_REACTORS
330
C
102
}
330
C
100
AcDbDictionary
281
     1
  0
DICTIONARY
  5
1A
102
{ACAD_REACTORS
330
C
102
}
330
C
100
AcDbDictionary
281
     1
  3
Layout1
350
1E
  3
Layout2
350
26
  3
Model
350
22
  0
DICTIONARY
  5
17
102
{ACAD_REACTORS
330
C
102
}
330
C
100
AcDbDictionary
281
     1
  3
Standard
350
18
  0
DICTIONARY
  5
19
102
{ACAD_REACTORS
330
C
102
}
330
C
100
AcDbDictionary
281
     1
  0
ACDBDICTIONARYWDFLT
  5
E
102
{ACAD_REACTORS
330
C
102
}
330
C
100
AcDbDictionary
281
     1
  3
Normal
350
F
100
AcDbDictionaryWithDefault
340
F
  0
LAYOUT
  5
1E
102
{ACAD_REACTORS
330
1A
102
}
330
1A
100
AcDbPlotSettings
  1

  2
none_device
  4

  6

 40
0.0
 41
0.0
 42
0.0
 43
0.0
 44
0.0
 45
0.0
 46
0.0
 47
0.0
 48
0.0
 49
0.0
140
0.0
141
0.0
142
1.0
143
1.0
 70
   688
 72
     0
 73
     0
 74
     5
  7

 75
    16
147
1.0
148
0.0
149
0.0
100
AcDbLayout
  1
Layout1
 70
     1
 71
     1
 10
0.0
 20
0.0
 11
420.0
 21
297.0
 12
0.0
 22
0.0
 32
0.0
 14
1.0000000000E+20
 24
1.0000000000E+20
 34
1.0000000000E+20
 15
-1.0000000000E+20
 25
-1.0000000000E+20
 35
-1.0000000000E+20
146
0.0
 13
0.0
 23
0.0
 33
0.0
 16
1.0
 26
0.0
 36
0.0
 17
0.0
 27
1.0
 37
0.0
 76
     0
330
1B
  0
LAYOUT
  5
26
102
{ACAD_REACTORS
330
1A
102
}
330
1A
100
AcDbPlotSettings
  1

  2
none_device
  4

  6

 40
0.0
 41
0.0
 42
0.0
 43
0.0
 44
0.0
 45
0.0
 46
0.0
 47
0.0
 48
0.0
 49
0.0
140
0.0
141
0.0
142
1.0
143
1.0
 70
   688
 72
     0
 73
     0
 74
     5
  7

 75
    16
147
1.0
148
0.0
149
0.0
100
AcDbLayout
  1
Layout2
 70
     1
 71
     2
 10
0.0
 20
0.0
 11
0.0
 21
0.0
 12
0.0
 22
0.0
 32
0.0
 14
0.0
 24
0.0
 34
0.0
 15
0.0
 25
0.0
 35
0.0
146
0.0
 13
0.0
 23
0.0
 33
0.0
 16
1.0
 26
0.0
 36
0.0
 17
0.0
 27
1.0
 37
0.0
 76
     0
330
23
  0
LAYOUT
  5
22
102
{ACAD_REACTORS
330
1A
102
}
330
1A
100
AcDbPlotSettings
  1

  2
none_device
  4

  6

 40
0.0
 41
0.0
 42
0.0
 43
0.0
 44
0.0
 45
0.0
 46
0.0
 47
0.0
 48
0.0
 49
0.0
140
0.0
141
0.0
142
1.0
143
1.0
 70
  1712
 72
     0
 73
     0
 74
     0
  7

 75
     0
147
1.0
148
0.0
149
0.0
100
AcDbLayout
  1
Model
 70
     1
 71
     0
 10
0.0
 20
0.0
 11
594.0
 21
841.0
 12
0.0
 22
0.0
 32
0.0
 14
0.0
 24
0.0
 34
0.0
 15
594.0
 25
841.0
 35
0.0
146
0.0
 13
0.0
 23
0.0
 33
0.0
 16
1.0
 26
0.0
 36
0.0
 17
0.0
 27
1.0
 37
0.0
 76
     0
330
1F
331
29
  0
MLINESTYLE
  5
18
102
{ACAD_REACTORS
330
17
102
}
330
17
100
AcDbMlineStyle
  2
Standard
 70
     0
  3

 62
   256
 51
90.0
 52
90.0
 71
     2
 49
0.5
 62
   256
  6
BYLAYER
 49
-0.5
 62
   256
  6
BYLAYER
  0
ACDBPLACEHOLDER
  5
F
102
{ACAD_REACTORS
330
E
102
}
330
E
  0
ENDSEC
  0
EOF
