  0
SECTION
  2
HEADER
  9
$ACADVER
  1
AC1015
  9
$ACADMAINTVER
 70
     6
  9
$DWGCODEPAGE
  3
ANSI_1252
  9
$INSBASE
 10
0.0
 20
0.0
 30
0.0
  9
$EXTMIN
 10
0.0
 20
0.0
 30
0.0
  9
$EXTMAX
 10
594.0
 20
841.0
 30
0.0
  9
$LIMMIN
 10
0.0
 20
0.0
  9
$LIMMAX
 10
594.0
 20
841.0
  9
$ORTHOMODE
 70
     0
  9
$REGENMODE
 70
     1
  9
$FILLMODE
 70
     1
  9
$QTEXTMODE
 70
     0
  9
$MIRRTEXT
 70
     1
  9
$LTSCALE
 40
1.0
  9
$ATTMODE
 70
     1
  9
$TEXTSIZE
 40
10.0
  9
$TRACEWID
 40
1.0
  9
$TEXTSTYLE
  7
Standard
  9
$CLAYER
  8
0
  9
$CELTYPE
  6
ByLayer
  9
$CECOLOR
 62
   256
  9
$CELTSCALE
 40
1.0
  9
$DISPSILH
 70
     0
  9
$DIMSCALE
 40
1.0
  9
$DIMASZ
 40
2.5
  9
$DIMEXO
 40
0.0
  9
$DIMDLI
 40
3.75
  9
$DIMRND
 40
0.0
  9
$DIMDLE
 40
0.0
  9
$DIMEXE
 40
1.0
  9
$DIMTP
 40
0.0
  9
$DIMTM
 40
0.0
  9
$DIMTXT
 40
3.5
  9
$DIMCEN
 40
2.5
  9
$DIMTSZ
 40
0.0
  9
$DIMTOL
 70
     0
  9
$DIMLIM
 70
     0
  9
$DIMTIH
 70
     1
  9
$DIMTOH
 70
     1
  9
$DIMSE1
 70
     0
  9
$DIMSE2
 70
     0
  9
$DIMTAD
 70
     1
  9
$DIMZIN
 70
     0
  9
$DIMBLK
  1

  9
$DIMASO
 70
     1
  9
$DIMSHO
 70
     1
  9
$DIMPOST
  1

  9
$DIMAPOST
  1

  9
$DIMALT
 70
     0
  9
$DIMALTD
 70
     3
  9
$DIMALTF
 40
0.0393700787
  9
$DIMLFAC
 40
1.0
  9
$DIMTOFL
 70
     1
  9
$DIMTVP
 40
0.0
  9
$DIMTIX
 70
     0
  9
$DIMSOXD
 70
     0
  9
$DIMSAH
 70
     0
  9
$DIMBLK1
  1

  9
$DIMBLK2
  1

  9
$DIMSTYLE
  2
ISO-25
  9
$DIMCLRD
 70
     0
  9
$DIMCLRE
 70
     0
  9
$DIMCLRT
 70
     0
  9
$DIMTFAC
 40
1.0
  9
$DIMGAP
 40
1.5
  9
$DIMJUST
 70
     0
  9
$DIMSD1
 70
     0
  9
$DIMSD2
 70
     0
  9
$DIMTOLJ
 70
     0
  9
$DIMTZIN
 70
     0
  9
$DIMALTZ
 70
     0
  9
$DIMALTTZ
 70
     0
  9
$DIMUPT
 70
     0
  9
$DIMDEC
 70
     2
  9
$DIMTDEC
 70
     2
  9
$DIMALTU
 70
     2
  9
$DIMALTTD
 70
     3
  9
$DIMTXSTY
  7
Standard
  9
$DIMAUNIT
 70
     0
  9
$DIMADEC
 70
     2
  9
$DIMALTRND
 40
0.0
  9
$DIMAZIN
 70
     0
  9
$DIMDSEP
 70
    44
  9
$DIMATFIT
 70
     3
  9
$DIMFRAC
 70
     0
  9
$DIMLDRBLK
  1

  9
$DIMLUNIT
 70
     2
  9
$DIMLWD
 70
    -2
  9
$DIMLWE
 70
    -2
  9
$DIMTMOVE
 70
     0
  9
$LUNITS
 70
     2
  9
$LUPREC
 70
     2
  9
$SKETCHINC
 40
1.0
  9
$FILLETRAD
 40
10.0
  9
$AUNITS
 70
     0
  9
$AUPREC
 70
     2
  9
$MENU
  1
.
  9
$ELEVATION
 40
0.0
  9
$PELEVATION
 40
0.0
  9
$THICKNESS
 40
0.0
  9
$LIMCHECK
 70
     0
  9
$CHAMFERA
 40
0.0
  9
$CHAMFERB
 40
0.0
  9
$CHAMFERC
 40
0.0
  9
$CHAMFERD
 40
0.0
  9
$SKPOLY
 70
     0
  9
$TDCREATE
 40
2458961.590685104
  9
$TDUCREATE
 40
2458961.507351771
  9
$TDUPDATE
 40
2458961.590686192
  9
$TDUUPDATE
 40
2458961.507352859
  9
$TDINDWG
 40
0.0000000116
  9
$TDUSRTIMER
 40
0.0000000116
  9
$USRTIMER
 70
     1
  9
$ANGBASE
 50
0.0
  9
$ANGDIR
 70
     0
  9
$PDMODE
 70
     0
  9
$PDSIZE
 40
-1.0
  9
$PLINEWID
 40
0.0
  9
$SPLFRAME
 70
     0
  9
$SPLINETYPE
 70
     6
  9
$SPLINESEGS
 70
     8
  9
$HANDSEED
  5
1B4
  9
$SURFTAB1
 70
     6
  9
$SURFTAB2
 70
     6
  9
$SURFTYPE
 70
     6
  9
$SURFU
 70
     6
  9
$SURFV
 70
     6
  9
$UCSBASE
  2

  9
$UCSNAME
  2

  9
$UCSORG
 10
0.0
 20
0.0
 30
0.0
  9
$UCSXDIR
 10
1.0
 20
0.0
 30
0.0
  9
$UCSYDIR
 10
0.0
 20
1.0
 30
0.0
  9
$UCSORTHOREF
  2

  9
$UCSORTHOVIEW
 70
     0
  9
$UCSORGTOP
 10
0.0
 20
0.0
 30
0.0
  9
$UCSORGBOTTOM
 10
0.0
 20
0.0
 30
0.0
  9
$UCSORGLEFT
 10
0.0
 20
0.0
 30
0.0
  9
$UCSORGRIGHT
 10
0.0
 20
0.0
 30
0.0
  9
$UCSORGFRONT
 10
0.0
 20
0.0
 30
0.0
  9
$UCSORGBACK
 10
0.0
 20
0.0
 30
0.0
  9
$PUCSBASE
  2

  9
$PUCSNAME
  2

  9
$PUCSORG
 10
0.0
 20
0.0
 30
0.0
  9
$PUCSXDIR
 10
1.0
 20
0.0
 30
0.0
  9
$PUCSYDIR
 10
0.0
 20
1.0
 30
0.0
  9
$PUCSORTHOREF
  2

  9
$PUCSORTHOVIEW
 70
     0
  9
$PUCSORGTOP
 10
0.0
 20
0.0
 30
0.0
  9
$PUCSORGBOTTOM
 10
0.0
 20
0.0
 30
0.0
  9
$PUCSORGLEFT
 10
0.0
 20
0.0
 30
0.0
  9
$PUCSORGRIGHT
 10
0.0
 20
0.0
 30
0.0
  9
$PUCSORGFRONT
 10
0.0
 20
0.0
 30
0.0
  9
$PUCSORGBACK
 10
0.0
 20
0.0
 30
0.0
  9
$USERI1
 70
     0
  9
$USERI2
 70
     0
  9
$USERI3
 70
     0
  9
$USERI4
 70
     0
  9
$USERI5
 70
     0
  9
$USERR1
 40
0.0
  9
$USERR2
 40
0.0
  9
$USERR3
 40
0.0
  9
$USERR4
 40
0.0
  9
$USERR5
 40
0.0
  9
$WORLDVIEW
 70
     1
  9
$SHADEDGE
 70
     3
  9
$SHADEDIF
 70
    70
  9
$TILEMODE
 70
     1
  9
$MAXACTVP
 70
    64
  9
$PINSBASE
 10
0.0
 20
0.0
 30
0.0
  9
$PLIMCHECK
 70
     0
  9
$PEXTMIN
 10
1.0000000000E+20
 20
1.0000000000E+20
 30
1.0000000000E+20
  9
$PEXTMAX
 10
-1.0000000000E+20
 20
-1.0000000000E+20
 30
-1.0000000000E+20
  9
$PLIMMIN
 10
0.0
 20
0.0
  9
$PLIMMAX
 10
420.0
 20
297.0
  9
$UNITMODE
 70
     0
  9
$VISRETAIN
 70
     1
  9
$PLINEGEN
 70
     0
  9
$PSLTSCALE
 70
     1
  9
$TREEDEPTH
 70
  3020
  9
$CMLSTYLE
  2
Standard
  9
$CMLJUST
 70
     0
  9
$CMLSCALE
 40
20.0
  9
$PROXYGRAPHICS
 70
     1
  9
$MEASUREMENT
 70
     1
  9
$CELWEIGHT
370
    -1
  9
$ENDCAPS
280
     0
  9
$JOINSTYLE
280
     0
  9
$LWDISPLAY
290
     1
  9
$INSUNITS
 70
     4
  9
$HYPERLINKBASE
  1

  9
$STYLESHEET
  1

  9
$XEDIT
290
     1
  9
$CEPSNTYPE
380
     0
  9
$PSTYLEMODE
290
     1
  9
$FINGERPRINTGUID
  2
{0c3de490-2939-4205-9b0d-104149568ede}
  9
$VERSIONGUID
  2
{FAEB1C32-E019-11D5-929B-00C0DF256EC4}
  9
$EXTNAMES
290
     1
  9
$PSVPSCALE
 40
0.0
  9
$OLESTARTUP
290
     0
  0
ENDSEC
  0
SECTION
  2
CLASSES
  0
CLASS
  1
ACDBDICTIONARYWDFLT
  2
AcDbDictionaryWithDefault
  3
ObjectDBX Classes
 90
        0
280
     0
281
     0
  0
CLASS
  1
VISUALSTYLE
  2
AcDbVisualStyle
  3
ObjectDBX Classes
 90
     4095
280
     0
281
     0
  0
CLASS
  1
MATERIAL
  2
AcDbMaterial
  3
ObjectDBX Classes
 90
     1153
280
     0
281
     0
  0
CLASS
  1
SCALE
  2
AcDbScale
  3
ObjectDBX Classes
 90
     1153
280
     0
281
     0
  0
CLASS
  1
TABLESTYLE
  2
AcDbTableStyle
  3
ObjectDBX Classes
 90
     4095
280
     0
281
     0
  0
CLASS
  1
MLEADERSTYLE
  2
AcDbMLeaderStyle
  3
ACDB_MLEADERSTYLE_CLASS
 90
     4095
280
     0
281
     0
  0
CLASS
  1
SUN
  2
AcDbSun
  3
SCENEOE
 90
     1153
280
     0
281
     0
  0
CLASS
  1
ACDBPLACEHOLDER
  2
AcDbPlaceHolder
  3
ObjectDBX Classes
 90
        0
280
     0
281
     0
  0
CLASS
  1
LAYOUT
  2
AcDbLayout
  3
ObjectDBX Classes
 90
        0
280
     0
281
     0
  0
ENDSEC
  0
SECTION
  2
TABLES
  0
TABLE
  2
VPORT
  5
8
330
0
100
AcDbSymbolTable
 70
     1
  0
VPORT
  5
29
330
8
100
AcDbSymbolTableRecord
100
AcDbViewportTableRecord
  2
*Active
 70
     0
 10
0.0
 20
0.0
 11
1.0
 21
1.0
 12
297.0
 22
420.5
 13
0.0
 23
0.0
 14
10.0
 24
10.0
 15
10.0
 25
10.0
 16
0.0
 26
0.0
 36
1.0
 17
0.0
 27
0.0
 37
0.0
 40
841.0
 41
0.7063020214
 42
50.0
 43
0.0
 44
0.0
 50
0.0
 51
0.0
 71
     0
 72
  2000
 73
     1
 74
     3
 75
     0
 76
     0
 77
     0
 78
     0
281
     0
 65
     1
110
0.0
120
0.0
130
0.0
111
1.0
121
0.0
131
0.0
112
0.0
122
1.0
132
0.0
 79
     0
146
0.0
  0
ENDTAB
  0
TABLE
  2
LTYPE
  5
5
330
0
100
AcDbSymbolTable
 70
     6
  0
LTYPE
  5
14
330
5
100
AcDbSymbolTableRecord
100
AcDbLinetypeTableRecord
  2
ByBlock
 70
     0
  3

 72
    65
 73
     0
 40
0.0
  0
LTYPE
  5
15
330
5
100
AcDbSymbolTableRecord
100
AcDbLinetypeTableRecord
  2
ByLayer
 70
     0
  3

 72
    65
 73
     0
 40
0.0
  0
LTYPE
  5
16
330
5
100
AcDbSymbolTableRecord
100
AcDbLinetypeTableRecord
  2
Continuous
 70
     0
  3
Solid line
 72
    65
 73
     0
 40
0.0
  0
LTYPE
  5
6E
330
5
100
AcDbSymbolTableRecord
100
AcDbLinetypeTableRecord
  2
HIDDEN
 70
     0
  3
Hidden __ __ __ __ __ __ __ __ __ __ __ __ __ __
 72
    65
 73
     2
 40
1.905
 49
1.27
 74
     0
 49
-0.635
 74
     0
  0
LTYPE
  5
6F
330
5
100
AcDbSymbolTableRecord
100
AcDbLinetypeTableRecord
  2
PHANTOM
 70
     0
  3
Phantom ______  __  __  ______  __  __  ______
 72
    65
 73
     6
 40
12.7
 49
6.35
 74
     0
 49
-1.27
 74
     0
 49
1.27
 74
     0
 49
-1.27
 74
     0
 49
1.27
 74
     0
 49
-1.27
 74
     0
  0
LTYPE
  5
70
330
5
100
AcDbSymbolTableRecord
100
AcDbLinetypeTableRecord
  2
CENTER
 70
     0
  3
Center ____ _ ____ _ ____ _ ____ _ ____ _ ____
 72
    65
 73
     4
 40
10.16
 49
6.35
 74
     0
 49
-1.27
 74
     0
 49
1.27
 74
     0
 49
-1.27
 74
     0
  0
LTYPE
  5
71
330
5
100
AcDbSymbolTableRecord
100
AcDbLinetypeTableRecord
  2
CENTERX2
 70
     0
  3
Center (2x) ________  __  ________  __  _____
 72
    65
 73
     4
 40
20.32
 49
12.7
 74
     0
 49
-2.54
 74
     0
 49
2.54
 74
     0
 49
-2.54
 74
     0
  0
LTYPE
  5
72
330
5
100
AcDbSymbolTableRecord
100
AcDbLinetypeTableRecord
  2
DOT2
 70
     0
  3
Dot (.5x) ........................................
 72
    65
 73
     2
 40
0.635
 49
0.0
 74
     0
 49
-0.635
 74
     0
  0
ENDTAB
  0
TABLE
  2
LAYER
  5
2
330
0
100
AcDbSymbolTable
 70
     1
  0
LAYER
  5
10
330
2
100
AcDbSymbolTableRecord
100
AcDbLayerTableRecord
  2
0
 70
     0
 62
     7
  6
Continuous
370
    -3
390
F
  0
ENDTAB
  0
TABLE
  2
STYLE
  5
3
330
0
100
AcDbSymbolTable
 70
     3
  0
STYLE
  5
11
330
3
100
AcDbSymbolTableRecord
100
AcDbTextStyleTableRecord
  2
Standard
 70
     0
 40
0.0
 41
1.0
 50
0.0
 71
     0
 42
10.0
  3
txt
  4

  0
STYLE
  5
76
330
3
100
AcDbSymbolTableRecord
100
AcDbTextStyleTableRecord
  2
SLDTEXTSTYLE0
 70
     0
 40
0.0
 41
0.96
 50
0.0
 71
     0
 42
10.0
  3
ISOCP3
  4

  0
STYLE
  5
8D
330
3
100
AcDbSymbolTableRecord
100
AcDbTextStyleTableRecord
  2
SLDTEXTSTYLE1
 70
     0
 40
0.0
 41
0.605
 50
0.0
 71
     0
 42
10.0
  3
TXT
  4

  0
ENDTAB
  0
TABLE
  2
VIEW
  5
6
330
0
100
AcDbSymbolTable
 70
     0
  0
ENDTAB
  0
TABLE
  2
UCS
  5
7
330
0
100
AcDbSymbolTable
 70
     0
  0
ENDTAB
  0
TABLE
  2
APPID
  5
9
330
0
100
AcDbSymbolTable
 70
     1
  0
APPID
  5
12
330
9
100
AcDbSymbolTableRecord
100
AcDbRegAppTableRecord
  2
ACAD
 70
     0
  0
ENDTAB
  0
TABLE
  2
DIMSTYLE
  5
A
330
0
100
AcDbSymbolTable
 70
     2
100
AcDbDimStyleTable
  0
DIMSTYLE
105
27
330
A
100
AcDbSymbolTableRecord
100
AcDbDimStyleTableRecord
  2
ISO-25
 70
     0
 41
2.5
 42
0.625
 43
3.75
 44
1.25
 73
     0
 74
     0
 77
     1
 78
     8
140
2.5
141
2.5
143
0.0393700787
147
0.625
171
     3
172
     1
178
     0
271
     2
272
     2
274
     3
278
    44
283
     0
284
     8
340
11
  0
DIMSTYLE
105
77
102
{ACAD_REACTORS
330
75
330
82
102
}
330
A
100
AcDbSymbolTableRecord
100
AcDbDimStyleTableRecord
  2
SLDDIMSTYLE0
 70
     0
 41
2.5
 44
0.0
 45
0.000000001
 73
     0
 74
     0
 77
     1
 78
    12
 79
     3
140
6.0
147
1.5
173
     1
178
     0
271
     2
272
     2
276
     2
284
    12
340
76
  0
ENDTAB
  0
TABLE
  2
BLOCK_RECORD
  5
1
330
0
100
AcDbSymbolTable
 70
     3
  0
BLOCK_RECORD
  5
1F
330
1
100
AcDbSymbolTableRecord
100
AcDbBlockTableRecord
  2
*Model_Space
340
22
  0
BLOCK_RECORD
  5
1B
330
1
100
AcDbSymbolTableRecord
100
AcDbBlockTableRecord
  2
*Paper_Space
340
1E
  0
BLOCK_RECORD
  5
23
330
1
100
AcDbSymbolTableRecord
100
AcDbBlockTableRecord
  2
*Paper_Space0
340
26
  0
BLOCK_RECORD
  5
78
330
1
100
AcDbSymbolTableRecord
100
AcDbBlockTableRecord
  2
_D
340
0
  0
BLOCK_RECORD
  5
83
330
1
100
AcDbSymbolTableRecord
100
AcDbBlockTableRecord
  2
_D_1
340
0
  0
ENDTAB
  0
ENDSEC
  0
SECTION
  2
BLOCKS
  0
BLOCK
  5
20
330
1F
100
AcDbEntity
  8
0
100
AcDbBlockBegin
  2
*Model_Space
 70
     0
 10
0.0
 20
0.0
 30
0.0
  3
*Model_Space
  1

  0
ENDBLK
  5
21
330
1F
100
AcDbEntity
  8
0
100
AcDbBlockEnd
  0
BLOCK
  5
1C
330
1B
100
AcDbEntity
 67
     1
  8
0
100
AcDbBlockBegin
  2
*Paper_Space
 70
     0
 10
0.0
 20
0.0
 30
0.0
  3
*Paper_Space
  1

  0
ENDBLK
  5
1D
330
1B
100
AcDbEntity
 67
     1
  8
0
100
AcDbBlockEnd
  0
BLOCK
  5
24
330
23
100
AcDbEntity
  8
0
100
AcDbBlockBegin
  2
*Paper_Space0
 70
     0
 10
0.0
 20
0.0
 30
0.0
  3
*Paper_Space0
  1

  0
ENDBLK
  5
25
330
23
100
AcDbEntity
  8
0
100
AcDbBlockEnd
  0
BLOCK
  5
79
330
78
100
AcDbEntity
  8
0
100
AcDbBlockBegin
  2
_D
 70
     0
 10
0.0
 20
0.0
 30
0.0
  3
_D
  1

  0
SOLID
  5
7B
330
78
100
AcDbEntity
  8
0
  6
Continuous
 62
     7
370
    18
100
AcDbTrace
 10
42.7614395004
 20
152.0299240879
 30
0.0
 11
42.4614395004
 21
149.5299240879
 31
0.0
 12
43.0614395004
 22
149.5299240879
 32
0.0
 13
43.0614395004
 23
149.5299240879
 33
0.0
  0
SOLID
  5
7C
330
78
100
AcDbEntity
  8
0
  6
Continuous
 62
     7
370
    18
100
AcDbTrace
 10
42.7614395004
 20
52.0299240879
 30
0.0
 11
43.0614395004
 21
54.5299240879
 31
0.0
 12
42.4614395004
 22
54.5299240879
 32
0.0
 13
42.4614395004
 23
54.5299240879
 33
0.0
  0
LINE
  5
7D
330
78
100
AcDbEntity
  8
0
  6
Continuous
 62
     7
370
     0
100
AcDbLine
 10
56.6850079902
 20
152.0299240879
 30
0.0
 11
41.7614395004
 21
152.0299240879
 31
0.0
  0
LINE
  5
7E
330
78
100
AcDbEntity
  8
0
  6
Continuous
 62
     7
370
     0
100
AcDbLine
 10
56.6850079902
 20
52.0299240879
 30
0.0
 11
41.7614395004
 21
52.0299240879
 31
0.0
  0
LINE
  5
7F
330
78
100
AcDbEntity
  8
0
  6
Continuous
 62
     7
370
     0
100
AcDbLine
 10
42.7614395004
 20
152.0299240879
 30
0.0
 11
42.7614395004
 21
52.0299240879
 31
0.0
  0
MTEXT
  5
80
330
78
100
AcDbEntity
  8
0
  6
Continuous
 62
     7
370
    18
100
AcDbMText
 10
35.0270332946
 20
94.3680541463
 30
0.0
 40
6.0
 41
0.0
 71
     1
 72
     1
  1
100
  7
SLDTEXTSTYLE0
 11
-7.044195017643634E-15
 21
1.0
 31
0.0
 73
     1
 44
1.0
  0
MTEXT
  5
81
330
78
100
AcDbEntity
  8
0
  6
Continuous
 62
     7
370
    18
100
AcDbMText
 10
35.0270332946
 20
105.7430548466
 30
0.0
 40
6.0
 41
0.0
 71
     1
 72
     1
  1
mm
  7
SLDTEXTSTYLE0
 11
-7.044195017643634E-15
 21
1.0
 31
0.0
 73
     1
 44
1.0
  0
ENDBLK
  5
7A
330
78
100
AcDbEntity
  8
0
100
AcDbBlockEnd
  0
BLOCK
  5
84
330
83
100
AcDbEntity
  8
0
100
AcDbBlockBegin
  2
_D_1
 70
     0
 10
0.0
 20
0.0
 30
0.0
  3
_D_1
  1

  0
SOLID
  5
86
330
83
100
AcDbEntity
  8
0
  6
Continuous
 62
     7
370
    18
100
AcDbTrace
 10
56.6850079902
 20
38.4602342313
 30
0.0
 11
59.1850079902
 21
38.1602342313
 31
0.0
 12
59.1850079902
 22
38.7602342313
 32
0.0
 13
59.1850079902
 23
38.7602342313
 33
0.0
  0
SOLID
  5
87
330
83
100
AcDbEntity
  8
0
  6
Continuous
 62
     7
370
    18
100
AcDbTrace
 10
156.6850079902
 20
38.4602342313
 30
0.0
 11
154.1850079902
 21
38.7602342313
 31
0.0
 12
154.1850079902
 22
38.1602342313
 32
0.0
 13
154.1850079902
 23
38.1602342313
 33
0.0
  0
LINE
  5
88
330
83
100
AcDbEntity
  8
0
  6
Continuous
 62
     7
370
     0
100
AcDbLine
 10
56.6850079902
 20
52.0299240879
 30
0.0
 11
56.6850079902
 21
37.4602342313
 31
0.0
  0
LINE
  5
89
330
83
100
AcDbEntity
  8
0
  6
Continuous
 62
     7
370
     0
100
AcDbLine
 10
156.6850079902
 20
52.0299240879
 30
0.0
 11
156.6850079902
 21
37.4602342313
 31
0.0
  0
LINE
  5
8A
330
83
100
AcDbEntity
  8
0
  6
Continuous
 62
     7
370
     0
100
AcDbLine
 10
56.6850079902
 20
38.4602342313
 30
0.0
 11
156.6850079902
 21
38.4602342313
 31
0.0
  0
MTEXT
  5
8B
330
83
100
AcDbEntity
  8
0
  6
Continuous
 62
     7
370
    18
100
AcDbMText
 10
93.9626484861
 20
46.1946404371
 30
0.0
 40
6.0
 41
0.0
 71
     1
 72
     1
  1
100
  7
SLDTEXTSTYLE0
 73
     1
 44
1.0
  0
MTEXT
  5
8C
330
83
100
AcDbEntity
  8
0
  6
Continuous
 62
     7
370
    18
100
AcDbMText
 10
105.3376491864
 20
46.1946404371
 30
0.0
 40
6.0
 41
0.0
 71
     1
 72
     1
  1
mm
  7
SLDTEXTSTYLE0
 73
     1
 44
1.0
  0
ENDBLK
  5
85
330
83
100
AcDbEntity
  8
0
100
AcDbBlockEnd
  0
ENDSEC
  0
SECTION
  2
ENTITIES
  0
LINE
  5
73
330
1F
100
AcDbEntity
  8
0
  6
Continuous
 62
     7
370
    18
100
AcDbLine
 10
56.6850079902
 20
152.0299240879
 30
0.0
 11
56.6850079902
 21
52.0299240879
 31
0.0
  0
LINE
  5
74
330
1F
100
AcDbEntity
  8
0
  6
Continuous
 62
     7
370
    18
100
AcDbLine
 10
56.6850079902
 20
52.0299240879
 30
0.0
 11
156.6850079902
 21
52.0299240879
 31
0.0
  0
DIMENSION
  5
75
330
1F
100
AcDbEntity
  8
0
  6
Continuous
 62
     7
370
    18
100
AcDbDimension
  2
_D
 10
42.7614395004
 20
52.0299240879
 30
0.0
 11
42.7614395004
 21
105.4472211621
 31
0.0
 70
   160
  1
<>mm
 71
     2
 42
-1.0
  3
SLDDIMSTYLE0
100
AcDbAlignedDimension
 13
56.6850079902
 23
152.0299240879
 33
0.0
 14
56.6850079902
 24
52.0299240879
 34
0.0
 50
90.0
100
AcDbRotatedDimension
  0
DIMENSION
  5
82
330
1F
100
AcDbEntity
  8
0
  6
Continuous
 62
     7
370
    18
100
AcDbDimension
  2
_D_1
 10
156.6850079902
 20
38.4602342313
 30
0.0
 11
105.0418155019
 21
38.4602342313
 31
0.0
 70
   160
  1
<>mm
 71
     2
 42
-1.0
  3
SLDDIMSTYLE0
100
AcDbAlignedDimension
 13
56.6850079902
 23
52.0299240879
 33
0.0
 14
156.6850079902
 24
52.0299240879
 34
0.0
100
AcDbRotatedDimension
  0
MTEXT
  5
8E
330
1F
100
AcDbEntity
  8
0
  6
Continuous
 62
     7
370
     0
100
AcDbMText
 10
412.8252631579
 20
48.4342449499
 30
0.0
 40
10.0
 41
0.0
 71
     1
 72
     1
  1
KLUDI GmbH & Co KG
  7
SLDTEXTSTYLE1
 73
     1
 44
1.0
  0
MTEXT
  5
8F
330
1F
100
AcDbEntity
  8
0
  6
Continuous
 62
     7
370
     0
100
AcDbMText
 10
210.0873490389
 20
48.4342449499
 30
0.0
 40
10.0
 41
0.0
 71
     1
 72
     1
  1
20 830 05 15
  7
SLDTEXTSTYLE1
 73
     1
 44
1.0
  0
CIRCLE
  5
90
330
1F
100
AcDbEntity
  8
0
  6
Continuous
 62
     7
370
    25
100
AcDbCircle
 10
189.4981943126
 20
301.8728571429
 30
0.0
 40
22.90000000000004
  0
LINE
  5
91
330
1F
100
AcDbEntity
  8
0
  6
Continuous
 62
     7
370
    25
100
AcDbLine
 10
184.4981943126
 20
332.5728571429
 30
0.0
 11
194.4981943126
 21
332.5728571429
 31
0.0
  0
LINE
  5
92
330
1F
100
AcDbEntity
  8
0
  6
Continuous
 62
     7
370
    25
100
AcDbLine
 10
183.4981943126
 20
323.9728571429
 30
0.0
 11
183.4981943126
 21
331.5728571429
 31
0.0
  0
LINE
  5
93
330
1F
100
AcDbEntity
  8
0
  6
Continuous
 62
     7
370
    25
100
AcDbLine
 10
195.4981943126
 20
331.5728571429
 30
0.0
 11
195.4981943126
 21
323.9728571429
 31
0.0
  0
ARC
  5
94
330
1F
100
AcDbEntity
  8
0
  6
Continuous
 62
     7
370
    25
100
AcDbCircle
 10
194.4981943126
 20
331.5728571429
 30
0.0
 40
1.0
100
AcDbArc
 50
0.0
 51
90.0
  0
ARC
  5
95
330
1F
100
AcDbEntity
  8
0
  6
Continuous
 62
     7
370
    25
100
AcDbCircle
 10
184.4981943126
 20
331.5728571429
 30
0.0
 40
1.0
100
AcDbArc
 50
90.0
 51
180.0
  0
ARC
  5
96
330
1F
100
AcDbEntity
  8
0
  6
Continuous
 62
     7
370
    25
100
AcDbCircle
 10
186.2481943126
 20
398.8728571429
 30
0.0
 40
1.0
100
AcDbArc
 50
90.0
 51
180.0
  0
LINE
  5
97
330
1F
100
AcDbEntity
  8
0
  6
Continuous
 62
     7
370
    25
100
AcDbLine
 10
193.7481943126
 20
398.8728571429
 30
0.0
 11
193.7481943126
 21
382.0976832303
 31
0.0
  0
LINE
  5
98
330
1F
100
AcDbEntity
  8
0
  6
Continuous
 62
     7
370
    25
100
AcDbLine
 10
186.2481943126
 20
399.8728571429
 30
0.0
 11
192.7481943126
 21
399.8728571429
 31
0.0
  0
LINE
  5
99
330
1F
100
AcDbEntity
  8
0
  6
Continuous
 62
     7
370
    25
100
AcDbLine
 10
185.2481943126
 20
382.0976832303
 30
0.0
 11
185.2481943126
 21
398.8728571429
 31
0.0
  0
ARC
  5
9A
330
1F
100
AcDbEntity
  8
0
  6
Continuous
 62
     7
370
    25
100
AcDbCircle
 10
192.7481943126
 20
398.8728571429
 30
0.0
 40
1.0
100
AcDbArc
 50
0.0
 51
90.0
  0
SPLINE
  5
9B
330
1F
100
AcDbEntity
  8
0
  6
Continuous
 62
     7
370
    25
100
AcDbSpline
210
0.0
220
0.0
230
1.0
 70
     8
 71
     3
 72
    20
 73
    16
 74
     0
 42
0.000000001
 43
0.00000001
 40
0.0
 40
0.0
 40
0.0
 40
0.0
 40
0.1250000000000001
 40
0.1250000000000001
 40
0.2500000000000001
 40
0.2500000000000001
 40
0.3750000000000002
 40
0.3750000000000002
 40
0.5000000000000002
 40
0.5000000000000002
 40
0.7500000000000001
 40
0.7500000000000001
 40
0.875
 40
0.875
 40
1.0
 40
1.0
 40
1.0
 40
1.0
 10
182.2925823932049
 20
376.8761548925328
 30
0.0
 10
182.4787373599058
 20
376.9879042196665
 30
0.0
 10
182.6791165830602
 20
377.102976973636
 30
0.0
 10
183.1032301938869
 20
377.3744668771614
 30
0.0
 10
183.3261642032204
 20
377.5303450859544
 30
0.0
 10
183.762188397804
 20
377.8859915785077
 30
0.0
 10
183.9744782047153
 20
378.0852209215052
 30
0.0
 10
184.353521472481
 20
378.5152096037265
 30
0.0
 10
184.5194745549967
 20
378.7454300021873
 30
0.0
 10
184.9277672256844
 20
379.466739770943
 30
0.0
 10
185.0842397236527
 20
379.9937711664755
 30
0.0
 10
185.2046723364235
 20
380.7900911318712
 30
0.0
 10
185.226199509159
 20
381.0558433496644
 30
0.0
 10
185.2479718495364
 20
381.5807229378339
 30
0.0
 10
185.2481943125795
 20
381.8395755651256
 30
0.0
 10
185.2481943125795
 20
382.097683230295
 30
0.0
  0
ARC
  5
9C
330
1F
100
AcDbEntity
  8
0
  6
Continuous
 62
     7
370
    25
100
AcDbCircle
 10
189.4981943126
 20
364.8728571429
 30
0.0
 40
13.99999999999997
100
AcDbArc
 50
120.9765069015
 51
59.0234930985
  0
SPLINE
  5
9D
330
1F
100
AcDbEntity
  8
0
  6
Continuous
 62
     7
370
    25
100
AcDbSpline
210
0.0
220
0.0
230
1.0
 70
     8
 71
     3
 72
    20
 73
    16
 74
     0
 42
0.000000001
 43
0.00000001
 40
0.0
 40
0.0
 40
0.0
 40
0.0
 40
0.1250000000000006
 40
0.1250000000000006
 40
0.2500000000000011
 40
0.2500000000000011
 40
0.499999999999999
 40
0.499999999999999
 40
0.6249999999999993
 40
0.6249999999999993
 40
0.7499999999999997
 40
0.7499999999999997
 40
0.875
 40
0.875
 40
1.0
 40
1.0
 40
1.0
 40
1.0
 10
193.7481943125795
 20
382.097683230295
 30
0.0
 10
193.7481943125795
 20
381.8395755651256
 30
0.0
 10
193.7484167756226
 20
381.5807229378338
 30
0.0
 10
193.7701891159999
 20
381.0558433496643
 30
0.0
 10
193.7917162887354
 20
380.7900911318712
 30
0.0
 10
193.9121489015062
 20
379.9937711664755
 30
0.0
 10
194.0686213994744
 20
379.466739770943
 30
0.0
 10
194.476914070162
 20
378.7454300021872
 30
0.0
 10
194.6428671526776
 20
378.5152096037264
 30
0.0
 10
195.0219104204433
 20
378.0852209215051
 30
0.0
 10
195.2342002273546
 20
377.8859915785076
 30
0.0
 10
195.6702244219381
 20
377.5303450859543
 30
0.0
 10
195.8931584312716
 20
377.3744668771613
 30
0.0
 10
196.3172720420984
 20
377.102976973636
 30
0.0
 10
196.5176512652528
 20
376.9879042196665
 30
0.0
 10
196.7038062319537
 20
376.8761548925329
 30
0.0
  0
CIRCLE
  5
9E
330
1F
100
AcDbEntity
  8
0
  6
Continuous
 62
     7
370
    25
100
AcDbCircle
 10
189.4981943123
 20
333.8728571429
 30
0.0
 40
85.25000000000006
  0
CIRCLE
  5
9F
330
1F
100
AcDbEntity
  8
0
  6
Continuous
 62
     8
370
    18
100
AcDbCircle
 10
189.4981943126
 20
301.8728571429
 30
0.0
 40
22.60000000000002
  0
LINE
  5
A0
330
1F
100
AcDbEntity
  8
0
  6
Continuous
 62
     8
370
    18
100
AcDbLine
 10
194.4981943126
 20
331.5728571429
 30
0.0
 11
184.4981943126
 21
331.5728571429
 31
0.0
  0
LINE
  5
A1
330
1F
100
AcDbEntity
  8
0
  6
Continuous
 62
     8
370
    18
100
AcDbLine
 10
184.4981943126
 20
331.5728571429
 30
0.0
 11
184.4981943126
 21
332.5728571429
 31
0.0
  0
LINE
  5
A2
330
1F
100
AcDbEntity
  8
0
  6
Continuous
 62
     8
370
    18
100
AcDbLine
 10
194.4981943126
 20
331.5728571429
 30
0.0
 11
194.4981943126
 21
332.5728571429
 31
0.0
  0
LINE
  5
A3
330
1F
100
AcDbEntity
  8
0
  6
Continuous
 62
     8
370
    18
100
AcDbLine
 10
183.4981943126
 20
331.5728571429
 30
0.0
 11
184.4981943126
 21
331.5728571429
 31
0.0
  0
LINE
  5
A4
330
1F
100
AcDbEntity
  8
0
  6
Continuous
 62
     8
370
    18
100
AcDbLine
 10
184.4981943126
 20
331.5728571429
 30
0.0
 11
184.4981943126
 21
324.2203402226
 31
0.0
  0
LINE
  5
A5
330
1F
100
AcDbEntity
  8
0
  6
Continuous
 62
     8
370
    18
100
AcDbLine
 10
194.4981943126
 20
331.5728571429
 30
0.0
 11
195.4981943126
 21
331.5728571429
 31
0.0
  0
LINE
  5
A6
330
1F
100
AcDbEntity
  8
0
  6
Continuous
 62
     8
370
    18
100
AcDbLine
 10
194.4981943126
 20
324.2203402226
 30
0.0
 11
194.4981943126
 21
331.5728571429
 31
0.0
  0
LINE
  5
A7
330
1F
100
AcDbEntity
  8
0
  6
Continuous
 62
     8
370
    18
100
AcDbLine
 10
186.2481943126
 20
398.8728571429
 30
0.0
 11
185.2481943126
 21
398.8728571429
 31
0.0
  0
LINE
  5
A8
330
1F
100
AcDbEntity
  8
0
  6
Continuous
 62
     8
370
    18
100
AcDbLine
 10
186.2481943126
 20
398.8728571429
 30
0.0
 11
186.2481943126
 21
399.8728571429
 31
0.0
  0
LINE
  5
A9
330
1F
100
AcDbEntity
  8
0
  6
Continuous
 62
     8
370
    18
100
AcDbLine
 10
193.7481943126
 20
382.0976832303
 30
0.0
 11
192.7481943126
 21
382.0976832303
 31
0.0
  0
LINE
  5
AA
330
1F
100
AcDbEntity
  8
0
  6
Continuous
 62
     8
370
    18
100
AcDbLine
 10
192.7481943126
 20
382.0976832303
 30
0.0
 11
192.7481943126
 21
398.8728571429
 31
0.0
  0
LINE
  5
AB
330
1F
100
AcDbEntity
  8
0
  6
Continuous
 62
     8
370
    18
100
AcDbLine
 10
193.7481943126
 20
398.8728571429
 30
0.0
 11
192.7481943126
 21
398.8728571429
 31
0.0
  0
LINE
  5
AC
330
1F
100
AcDbEntity
  8
0
  6
Continuous
 62
     8
370
    18
100
AcDbLine
 10
192.7481943126
 20
398.8728571429
 30
0.0
 11
186.2481943126
 21
398.8728571429
 31
0.0
  0
LINE
  5
AD
330
1F
100
AcDbEntity
  8
0
  6
Continuous
 62
     8
370
    18
100
AcDbLine
 10
192.7481943126
 20
399.8728571429
 30
0.0
 11
192.7481943126
 21
398.8728571429
 31
0.0
  0
LINE
  5
AE
330
1F
100
AcDbEntity
  8
0
  6
Continuous
 62
     8
370
    18
100
AcDbLine
 10
186.2481943126
 20
398.8728571429
 30
0.0
 11
186.2481943126
 21
382.0976832303
 31
0.0
  0
LINE
  5
AF
330
1F
100
AcDbEntity
  8
0
  6
Continuous
 62
     8
370
    18
100
AcDbLine
 10
186.2481943126
 20
382.0976832303
 30
0.0
 11
185.2481943126
 21
382.0976832303
 31
0.0
  0
SPLINE
  5
B0
330
1F
100
AcDbEntity
  8
0
  6
Continuous
 62
     8
370
    18
100
AcDbSpline
210
0.0
220
0.0
230
1.0
 70
     8
 71
     3
 72
    22
 73
    18
 74
     0
 42
0.000000001
 43
0.00000001
 40
0.0
 40
0.0
 40
0.0
 40
0.0
 40
0.125
 40
0.125
 40
0.2500000000000001
 40
0.2500000000000001
 40
0.3750000000000001
 40
0.3750000000000001
 40
0.5000000000000001
 40
0.5000000000000001
 40
0.6250000000000001
 40
0.6250000000000001
 40
0.7500000000000002
 40
0.7500000000000002
 40
0.8750000000000001
 40
0.8750000000000001
 40
1.0
 40
1.0
 40
1.0
 40
1.0
 10
186.2481943125795
 20
382.097683230295
 30
0.0
 10
186.2481943125795
 20
381.7876503651626
 30
0.0
 10
186.2471676477087
 20
381.4777254162818
 30
0.0
 10
186.2152876243859
 20
380.8610107041669
 30
0.0
 10
186.185037893739
 20
380.5541574915523
 30
0.0
 10
186.0811591596104
 20
379.9450108098694
 30
0.0
 10
186.0066457903681
 20
379.6397305741695
 30
0.0
 10
185.8063679588428
 20
379.0513517877133
 30
0.0
 10
185.6814855233401
 20
378.7693527313257
 30
0.0
 10
185.3783449594296
 20
378.2316511067808
 30
0.0
 10
185.1975916619888
 20
377.9736495826618
 30
0.0
 10
184.7972307356669
 20
377.4976146857058
 30
0.0
 10
184.578590451548
 20
377.2789065385676
 30
0.0
 10
184.1118025008566
 20
376.8723554916226
 30
0.0
 10
183.8625176957736
 20
376.6841442900135
 30
0.0
 10
183.344619564377
 20
376.3360597594278
 30
0.0
 10
183.0747330824622
 20
376.1793359145178
 30
0.0
 10
182.8072689588747
 20
376.0187764818418
 30
0.0
  0
SPLINE
  5
B1
330
1F
100
AcDbEntity
  8
0
  6
Continuous
 62
     8
370
    18
100
AcDbSpline
210
0.0
220
0.0
230
1.0
 70
     8
 71
     3
 72
    22
 73
    18
 74
     0
 42
0.000000001
 43
0.00000001
 40
0.0
 40
0.0
 40
0.0
 40
0.0
 40
0.125
 40
0.125
 40
0.25
 40
0.25
 40
0.375
 40
0.375
 40
0.5
 40
0.5
 40
0.625
 40
0.625
 40
0.75
 40
0.75
 40
0.875
 40
0.875
 40
1.0
 40
1.0
 40
1.0
 40
1.0
 10
196.1891196662841
 20
376.0187764818418
 30
0.0
 10
195.9218392493527
 20
376.1792256349179
 30
0.0
 10
195.6518527325846
 20
376.3360705518076
 30
0.0
 10
195.1363795279277
 20
376.6823915430248
 30
0.0
 10
194.8887326366479
 20
376.8689904569733
 30
0.0
 10
194.4196280646579
 20
377.2770695184283
 30
0.0
 10
194.1960176481622
 20
377.5008273183124
 30
0.0
 10
193.7943896210309
 20
377.9794210136014
 30
0.0
 10
193.616621329252
 20
378.23361045025
 30
0.0
 10
193.3120751629391
 20
378.7749403126377
 30
0.0
 10
193.1840706477486
 20
379.0659672395622
 30
0.0
 10
192.9853014188882
 20
379.6557963543045
 30
0.0
 10
192.9132292442575
 20
379.954752706603
 30
0.0
 10
192.8108971315379
 20
380.5588529391831
 30
0.0
 10
192.7808857383598
 20
380.8640336000515
 30
0.0
 10
192.7492354723645
 20
381.4785935913216
 30
0.0
 10
192.7481943125795
 20
381.7880613734882
 30
0.0
 10
192.7481943125795
 20
382.097683230295
 30
0.0
  0
ARC
  5
B2
330
1F
100
AcDbEntity
  8
0
  6
Continuous
 62
     8
370
    18
100
AcDbCircle
 10
189.4981943126
 20
364.8728571429
 30
0.0
 40
12.99999999999997
100
AcDbArc
 50
120.9765069015
 51
59.0234930985
  0
LINE
  5
B3
330
1F
100
AcDbEntity
  8
0
  6
Continuous
 62
     8
370
    18
100
AcDbLine
 10
182.8072689589
 20
376.0187764818
 30
0.0
 11
182.2925823932
 21
376.8761548925
 31
0.0
  0
LINE
  5
B4
330
1F
100
AcDbEntity
  8
0
  6
Continuous
 62
     8
370
    18
100
AcDbLine
 10
196.703806232
 20
376.8761548925
 30
0.0
 11
196.1891196663
 21
376.0187764818
 31
0.0
  0
CIRCLE
  5
B5
330
1F
100
AcDbEntity
  8
0
  6
Continuous
 62
     8
370
    18
100
AcDbCircle
 10
189.4981943123
 20
333.8728571429
 30
0.0
 40
83.89473357063696
  0
CIRCLE
  5
B6
330
1F
100
AcDbEntity
  8
0
  6
Continuous
 62
     8
370
    18
100
AcDbCircle
 10
189.4981943123
 20
333.8728571429
 30
0.0
 40
84.88240593367374
  0
LINE
  5
B7
330
1F
100
AcDbEntity
  8
0
  6
Continuous
 62
     7
370
    25
100
AcDbLine
 10
351.1446228838
 20
248.6228571429
 30
0.0
 11
365.1824739235
 21
248.9904512092
 31
0.0
  0
LINE
  5
B8
330
1F
100
AcDbEntity
  8
0
  6
Continuous
 62
     7
370
    25
100
AcDbLine
 10
365.1824739235
 20
418.7552630765
 30
0.0
 11
351.1446228838
 21
419.1228571429
 31
0.0
  0
ARC
  5
B9
330
1F
100
AcDbEntity
  8
0
  6
Continuous
 62
     7
370
    25
100
AcDbCircle
 10
365.1562969752
 20
417.7556057516
 30
0.0
 40
0.9999999999992495
100
AcDbArc
 50
0.686704177
 51
88.5
  0
ARC
  5
BA
330
1F
100
AcDbEntity
  8
0
  6
Continuous
 62
     7
370
    25
100
AcDbCircle
 10
365.1562969752
 20
249.9901085342
 30
0.0
 40
0.9999999999992196
100
AcDbArc
 50
271.5
 51
359.313295823
  0
LINE
  5
BB
330
1F
100
AcDbEntity
  8
0
  6
Continuous
 62
     7
370
    25
100
AcDbLine
 10
351.0946228838
 20
249.6228571429
 30
0.0
 11
351.1446228838
 21
249.6228571429
 31
0.0
  0
LINE
  5
BC
330
1F
100
AcDbEntity
  8
0
  6
Continuous
 62
     7
370
    25
100
AcDbLine
 10
351.1446228838
 20
418.1228571429
 30
0.0
 11
351.0946228838
 21
418.1228571429
 31
0.0
  0
ARC
  5
BD
330
1F
100
AcDbEntity
  8
0
  6
Continuous
 62
     7
370
    25
100
AcDbCircle
 10
-6633.3410191982
 20
333.8728571429
 30
0.0
 40
7000.0
100
AcDbArc
 50
359.9249507537
 51
0.0
  0
ARC
  5
BE
330
1F
100
AcDbEntity
  8
0
  6
Continuous
 62
     7
370
    25
100
AcDbCircle
 10
-6633.3410191982
 20
333.8728571429
 30
0.0
 40
7000.000000000001
100
AcDbArc
 50
359.313295823
 51
359.5512089403
  0
ARC
  5
BF
330
1F
100
AcDbEntity
  8
0
  6
Continuous
 62
     7
370
    25
100
AcDbCircle
 10
-6633.3410191982
 20
333.8728571429
 30
0.0
 40
7000.0
100
AcDbArc
 50
0.3679869497
 51
0.686704177
  0
ARC
  5
C0
330
1F
100
AcDbEntity
  8
0
  6
Continuous
 62
     7
370
    25
100
AcDbCircle
 10
-6633.3410191982
 20
333.8728571429
 30
0.0
 40
7000.0
100
AcDbArc
 50
0.0
 51
0.1394985499
  0
LINE
  5
C1
330
1F
100
AcDbEntity
  8
0
  6
Continuous
 62
     7
370
    25
100
AcDbLine
 10
378.1446228838
 20
324.7728571429
 30
0.0
 11
366.6527505719
 21
324.7728571429
 31
0.0
  0
LINE
  5
C2
330
1F
100
AcDbEntity
  8
0
  6
Continuous
 62
     7
370
    25
100
AcDbLine
 10
366.4440128508
 20
278.9728571429
 30
0.0
 11
378.1446228838
 21
278.9728571429
 31
0.0
  0
ARC
  5
C3
330
1F
100
AcDbEntity
  8
0
  6
Continuous
 62
     7
370
    25
100
AcDbCircle
 10
381.3446228838
 20
279.2728571429
 30
0.0
 40
0.3000000000000609
100
AcDbArc
 50
244.4712206348
 51
270.0
  0
LINE
  5
C4
330
1F
100
AcDbEntity
  8
0
  6
Continuous
 62
     7
370
    25
100
AcDbLine
 10
381.3446228838
 20
278.9728571429
 30
0.0
 11
426.1446228838
 21
278.9728571429
 31
0.0
  0
ARC
  5
C5
330
1F
100
AcDbEntity
  8
0
  6
Continuous
 62
     7
370
    25
100
AcDbCircle
 10
378.1446228838
 20
279.9728571429
 30
0.0
 40
1.0
100
AcDbArc
 50
270.0
 51
0.0
  0
ARC
  5
C6
330
1F
100
AcDbEntity
  8
0
  6
Continuous
 62
     7
370
    25
100
AcDbCircle
 10
378.1446228838
 20
323.7728571429
 30
0.0
 40
1.0
100
AcDbArc
 50
0.0
 51
90.0
  0
ARC
  5
C7
330
1F
100
AcDbEntity
  8
0
  6
Continuous
 62
     7
370
    25
100
AcDbCircle
 10
427.0446228838
 20
279.2728571429
 30
0.0
 40
0.3000000000000114
100
AcDbArc
 50
180.0
 51
270.0
  0
ARC
  5
C8
330
1F
100
AcDbEntity
  8
0
  6
Continuous
 62
     7
370
    25
100
AcDbCircle
 10
427.0446228838
 20
324.4728571429
 30
0.0
 40
0.3000000000000114
100
AcDbArc
 50
90.0
 51
180.0
  0
LINE
  5
C9
330
1F
100
AcDbEntity
  8
0
  6
Continuous
 62
     7
370
    25
100
AcDbLine
 10
429.0446228838
 20
324.7728571429
 30
0.0
 11
427.0446228838
 21
324.7728571429
 31
0.0
  0
LINE
  5
CA
330
1F
100
AcDbEntity
  8
0
  6
Continuous
 62
     7
370
    25
100
AcDbLine
 10
427.0446228838
 20
278.9728571429
 30
0.0
 11
429.0446228838
 21
278.9728571429
 31
0.0
  0
ARC
  5
CB
330
1F
100
AcDbEntity
  8
0
  6
Continuous
 62
     7
370
    25
100
AcDbCircle
 10
429.0446228838
 20
324.4728571429
 30
0.0
 40
0.3000000000000682
100
AcDbArc
 50
0.0
 51
90.0
  0
ARC
  5
CC
330
1F
100
AcDbEntity
  8
0
  6
Continuous
 62
     7
370
    25
100
AcDbCircle
 10
429.0446228838
 20
279.2728571429
 30
0.0
 40
0.3000000000000114
100
AcDbArc
 50
270.0
 51
0.0
  0
LINE
  5
CD
330
1F
100
AcDbEntity
  8
0
  6
Continuous
 62
     7
370
    25
100
AcDbLine
 10
381.2153335619
 20
324.743567821
 30
0.0
 11
381.0739122057
 21
324.6021464647
 31
0.0
  0
LINE
  5
CE
330
1F
100
AcDbEntity
  8
0
  6
Continuous
 62
     7
370
    25
100
AcDbLine
 10
381.0739122057
 20
279.143567821
 30
0.0
 11
381.2153335619
 21
279.0021464647
 31
0.0
  0
ARC
  5
CF
330
1F
100
AcDbEntity
  8
0
  6
Continuous
 62
     7
370
    25
100
AcDbCircle
 10
381.3446228838
 20
324.4728571429
 30
0.0
 40
0.3000000000000119
100
AcDbArc
 50
90.0
 51
115.5287793652
  0
LINE
  5
D0
330
1F
100
AcDbEntity
  8
0
  6
Continuous
 62
     7
370
    25
100
AcDbLine
 10
408.4446228838
 20
324.7728571429
 30
0.0
 11
381.3446228838
 21
324.7728571429
 31
0.0
  0
LINE
  5
D1
330
1F
100
AcDbEntity
  8
0
  6
Continuous
 62
     7
370
    25
100
AcDbLine
 10
426.4446228838
 20
324.7728571429
 30
0.0
 11
421.2446228838
 21
324.7728571429
 31
0.0
  0
ARC
  5
D2
330
1F
100
AcDbEntity
  8
0
  6
Continuous
 62
     7
370
    25
100
AcDbCircle
 10
426.4446228838
 20
324.4728571429
 30
0.0
 40
0.3000000000000114
100
AcDbArc
 50
0.0
 51
90.0
  0
ARC
  5
D3
330
1F
100
AcDbEntity
  8
0
  6
Continuous
 62
     7
370
    25
100
AcDbCircle
 10
381.3446228838
 20
279.2728571429
 30
0.0
 40
0.3000000000000682
100
AcDbArc
 50
180.0
 51
205.5287793652
  0
ARC
  5
D4
330
1F
100
AcDbEntity
  8
0
  6
Continuous
 62
     7
370
    25
100
AcDbCircle
 10
381.3446228838
 20
324.4728571429
 30
0.0
 40
0.3000000000000682
100
AcDbArc
 50
154.4712206348
 51
180.0
  0
LINE
  5
D5
330
1F
100
AcDbEntity
  8
0
  6
Continuous
 62
     7
370
    25
100
AcDbLine
 10
381.0346228838
 20
280.1324858356
 30
0.0
 11
381.0446228838
 21
280.1324858356
 31
0.0
  0
LINE
  5
D6
330
1F
100
AcDbEntity
  8
0
  6
Continuous
 62
     7
370
    25
100
AcDbLine
 10
381.0446228838
 20
323.6132284502
 30
0.0
 11
381.0346228838
 21
323.6132284502
 31
0.0
  0
LINE
  5
D7
330
1F
100
AcDbEntity
  8
0
  6
Continuous
 62
     7
370
    25
100
AcDbLine
 10
381.0346228838
 20
322.2728571454
 30
0.0
 11
379.1446228838
 21
322.2728571454
 31
0.0
  0
LINE
  5
D8
330
1F
100
AcDbEntity
  8
0
  6
Continuous
 62
     7
370
    25
100
AcDbLine
 10
379.1446228838
 20
281.4728571424
 30
0.0
 11
381.0346228838
 21
281.4728571424
 31
0.0
  0
LINE
  5
D9
330
1F
100
AcDbEntity
  8
0
  6
Continuous
 62
     7
370
    25
100
AcDbLine
 10
374.6446228838
 20
378.8728571429
 30
0.0
 11
366.5145232734
 21
378.8728571429
 31
0.0
  0
LINE
  5
DA
330
1F
100
AcDbEntity
  8
0
  6
Continuous
 62
     7
370
    25
100
AcDbLine
 10
366.6381474376
 20
350.8728571429
 30
0.0
 11
374.6446228838
 21
350.8728571429
 31
0.0
  0
ARC
  5
DB
330
1F
100
AcDbEntity
  8
0
  6
Continuous
 62
     7
370
    25
100
AcDbCircle
 10
374.6446228838
 20
351.3728571429
 30
0.0
 40
0.5
100
AcDbArc
 50
270.0
 51
0.0
  0
ARC
  5
DC
330
1F
100
AcDbEntity
  8
0
  6
Continuous
 62
     7
370
    25
100
AcDbCircle
 10
374.6446228838
 20
378.3728571429
 30
0.0
 40
0.5
100
AcDbArc
 50
0.0
 51
90.0
  0
ARC
  5
DD
330
1F
100
AcDbEntity
  8
0
  6
Continuous
 62
     7
370
    25
100
AcDbCircle
 10
376.0446228838
 20
378.4728571429
 30
0.0
 40
0.4000000000000341
100
AcDbArc
 50
90.0
 51
180.0
  0
ARC
  5
DE
330
1F
100
AcDbEntity
  8
0
  6
Continuous
 62
     7
370
    25
100
AcDbCircle
 10
376.0446228838
 20
351.2728571429
 30
0.0
 40
0.4000000000000341
100
AcDbArc
 50
180.0
 51
270.0
  0
LINE
  5
DF
330
1F
100
AcDbEntity
  8
0
  6
Continuous
 62
     7
370
    25
100
AcDbLine
 10
376.0446228838
 20
350.8728571429
 30
0.0
 11
398.3446228838
 21
350.8728571429
 31
0.0
  0
LINE
  5
E0
330
1F
100
AcDbEntity
  8
0
  6
Continuous
 62
     7
370
    25
100
AcDbLine
 10
386.4782656818
 20
378.8728571429
 30
0.0
 11
376.0446228838
 21
378.8728571429
 31
0.0
  0
ARC
  5
E1
330
1F
100
AcDbEntity
  8
0
  6
Continuous
 62
     7
370
    25
100
AcDbCircle
 10
398.3446228838
 20
351.8728571429
 30
0.0
 40
1.0
100
AcDbArc
 50
270.0
 51
0.0
  0
LINE
  5
E2
330
1F
100
AcDbEntity
  8
0
  6
Continuous
 62
     7
370
    25
100
AcDbLine
 10
375.6446228838
 20
376.8728571429
 30
0.0
 11
375.1446228838
 21
376.8728571429
 31
0.0
  0
LINE
  5
E3
330
1F
100
AcDbEntity
  8
0
  6
Continuous
 62
     7
370
    25
100
AcDbLine
 10
375.1446228838
 20
352.8728571429
 30
0.0
 11
375.6446228838
 21
352.8728571429
 31
0.0
  0
LINE
  5
E4
330
1F
100
AcDbEntity
  8
0
  6
Continuous
 62
     7
370
    25
100
AcDbLine
 10
390.8627603609
 20
382.7099949173
 30
0.0
 11
390.7729679676
 21
381.7332277542
 31
0.0
  0
SPLINE
  5
E5
330
1F
100
AcDbEntity
  8
0
  6
Continuous
 62
     7
370
    25
100
AcDbSpline
210
0.0
220
0.0
230
1.0
 70
     8
 71
     3
 72
    12
 73
     8
 74
     0
 42
0.000000001
 43
0.00000001
 40
0.0
 40
0.0
 40
0.0
 40
0.0
 40
0.1314101446629083
 40
0.394582278781315
 40
0.6619601168757185
 40
0.8719934373711282
 40
0.9999999999999999
 40
0.9999999999999999
 40
0.9999999999999999
 40
0.9999999999999999
 10
409.7809099338138
 20
323.8583326814194
 30
0.0
 10
409.7033222576624
 20
323.8582819072388
 30
0.0
 10
409.4703514916711
 20
323.8581294487514
 30
0.0
 10
409.1092468774336
 20
323.9092513339095
 30
0.0
 10
408.8023007540982
 20
323.9833495485048
 30
0.0
 10
408.6419453674338
 20
324.0636147695129
 30
0.0
 10
408.6336491817689
 20
324.0724117570715
 30
0.0
 10
408.6305076405991
 20
324.0757429383761
 30
0.0
  0
SPLINE
  5
E6
330
1F
100
AcDbEntity
  8
0
  6
Continuous
 62
     7
370
    25
100
AcDbSpline
210
0.0
220
0.0
230
1.0
 70
     8
 71
     3
 72
    10
 73
     6
 74
     0
 42
0.000000001
 43
0.00000001
 40
0.0
 40
0.0
 40
0.0
 40
0.0
 40
0.0112505700544199
 40
0.5164624118149814
 40
1.0
 40
1.0
 40
1.0
 40
1.0
 10
421.0639514434304
 20
324.0792882236863
 30
0.0
 10
421.0640839159369
 20
324.0796167200838
 30
0.0
 10
421.0701651251428
 20
324.0946964930132
 30
0.0
 10
421.0406907453186
 20
324.0521541278114
 30
0.0
 10
420.9667382469353
 20
324.0246509362377
 30
0.0
 10
420.9305725495144
 20
324.0112007874758
 30
0.0
  0
LINE
  5
E7
330
1F
100
AcDbEntity
  8
0
  6
Continuous
 62
     7
370
    25
100
AcDbLine
 10
419.8446228838
 20
323.8519755823
 30
0.0
 11
409.8446228838
 21
323.8519755823
 31
0.0
  0
LINE
  5
E8
330
1F
100
AcDbEntity
  8
0
  6
Continuous
 62
     7
370
    25
100
AcDbLine
 10
408.8446228838
 20
324.3103795953
 30
0.0
 11
408.6446228838
 21
324.3103795953
 31
0.0
  0
LINE
  5
E9
330
1F
100
AcDbEntity
  8
0
  6
Continuous
 62
     7
370
    25
100
AcDbLine
 10
421.0446228838
 20
324.3103795953
 30
0.0
 11
420.8446228838
 21
324.3103795953
 31
0.0
  0
ARC
  5
EA
330
1F
100
AcDbEntity
  8
0
  6
Continuous
 62
     7
370
    25
100
AcDbCircle
 10
408.4446228838
 20
324.5728571429
 30
0.0
 40
0.2000000000000455
100
AcDbArc
 50
0.0
 51
90.0
  0
ARC
  5
EB
330
1F
100
AcDbEntity
  8
0
  6
Continuous
 62
     7
370
    25
100
AcDbCircle
 10
421.2446228838
 20
324.5728571429
 30
0.0
 40
0.2000000000000455
100
AcDbArc
 50
90.0
 51
180.0
  0
SPLINE
  5
EC
330
1F
100
AcDbEntity
  8
0
  6
Continuous
 62
     7
370
    25
100
AcDbSpline
210
0.0
220
0.0
230
1.0
 70
     8
 71
     3
 72
     9
 73
     5
 74
     0
 42
0.000000001
 43
0.00000001
 40
0.0
 40
0.0
 40
0.0
 40
0.0
 40
0.5006426855848866
 40
0.9999999999999999
 40
0.9999999999999999
 40
0.9999999999999999
 40
0.9999999999999999
 10
390.8240256513998
 20
381.9848888629706
 30
0.0
 10
390.7842828688836
 20
381.8519955070536
 30
0.0
 10
390.7048993411491
 20
381.5865499912327
 30
0.0
 10
390.5935379653822
 20
381.3520164617628
 30
0.0
 10
390.5379288478496
 20
381.2349004283465
 30
0.0
  0
SPLINE
  5
ED
330
1F
100
AcDbEntity
  8
0
  6
Continuous
 62
     7
370
    25
100
AcDbSpline
210
0.0
220
0.0
230
1.0
 70
     8
 71
     3
 72
    11
 73
     7
 74
     0
 42
0.000000001
 43
0.00000001
 40
0.0
 40
0.0
 40
0.0
 40
0.0
 40
0.2465998217618069
 40
0.4856354408418354
 40
0.7506985523680253
 40
1.0
 40
1.0
 40
1.0
 40
1.0
 10
390.5349622765169
 20
381.2268793064188
 30
0.0
 10
390.3564432488661
 20
380.8494935409896
 30
0.0
 10
390.004881086037
 20
380.1062979407161
 30
0.0
 10
388.9784073138071
 20
379.3135087531205
 30
0.0
 10
387.7582005082933
 20
378.9188004502559
 30
0.0
 10
386.8949207454079
 20
378.9055992283004
 30
0.0
 10
386.4765075970546
 20
378.8992008797256
 30
0.0
  0
LINE
  5
EE
330
1F
100
AcDbEntity
  8
0
  6
Continuous
 62
     7
370
    25
100
AcDbLine
 10
351.1446228838
 20
419.1228571429
 30
0.0
 11
351.1446228838
 21
248.6228571429
 31
0.0
  0
LINE
  5
EF
330
1F
100
AcDbEntity
  8
0
  6
Continuous
 62
     7
370
    25
100
AcDbLine
 10
351.0946228838
 20
249.6228571429
 30
0.0
 11
351.0946228838
 21
418.1228571429
 31
0.0
  0
SPLINE
  5
F0
330
1F
100
AcDbEntity
  8
0
  6
Continuous
 62
     7
370
    25
100
AcDbSpline
210
0.0
220
0.0
230
1.0
 70
     8
 71
     3
 72
    12
 73
     8
 74
     0
 42
0.000000001
 43
0.00000001
 40
0.0
 40
0.0
 40
0.0
 40
0.0
 40
0.2117066123899756
 40
0.4295526933618229
 40
0.6412593187020115
 40
0.8591055151272963
 40
1.0
 40
1.0
 40
1.0
 40
1.0
 10
366.6201763760534
 20
354.9738322238322
 30
0.0
 10
366.622488177063
 20
354.4518153698523
 30
0.0
 10
366.6271788210585
 20
353.3926432302769
 30
0.0
 10
366.632436588728
 20
352.2054101062698
 30
0.0
 10
366.6361648981408
 20
351.3635367291621
 30
0.0
 10
366.6381525412147
 20
350.9147154453906
 30
0.0
 10
366.6381487730802
 20
350.9155663113335
 30
0.0
 10
366.638147293155
 20
350.9159004867559
 30
0.0
  0
SPLINE
  5
F1
330
1F
100
AcDbEntity
  8
0
  6
Continuous
 62
     7
370
    25
100
AcDbSpline
210
0.0
220
0.0
230
1.0
 70
     8
 71
     3
 72
    21
 73
    17
 74
     0
 42
0.000000001
 43
0.00000001
 40
0.0
 40
0.0
 40
0.0
 40
0.0
 40
0.0514906929463456
 40
0.122066179611814
 40
0.1946883525056008
 40
0.2652639972115435
 40
0.3378863109995665
 40
0.4084624889054658
 40
0.4810853425096818
 40
0.5516621950972186
 40
0.6242857508619197
 40
0.694863123929655
 40
0.7674872364737557
 40
0.8380647477118921
 40
0.9106890276377445
 40
1.0
 40
1.0
 40
1.0
 40
1.0
 10
366.5145235146706
 20
378.8306176626198
 30
0.0
 10
366.514537005866
 20
378.8275713275154
 30
0.0
 10
366.514568988708
 20
378.8203495469035
 30
0.0
 10
366.5166697922119
 20
378.345984322087
 30
0.0
 10
366.5204282658954
 20
377.4973138071347
 30
0.0
 10
366.5258796508829
 20
376.2663798816232
 30
0.0
 10
366.5326907924863
 20
374.7284087603233
 30
0.0
 10
366.5408131568998
 20
372.894358595973
 30
0.0
 10
366.5498649367617
 20
370.8504415751657
 30
0.0
 10
366.5597542109588
 20
368.6174129551421
 30
0.0
 10
366.5700233249131
 20
366.2986119779221
 30
0.0
 10
366.5805641604197
 20
363.9184517740994
 30
0.0
 10
366.590897422135
 20
361.585159001054
 30
0.0
 10
366.6008836896281
 20
359.3302156230922
 30
0.0
 10
366.6109980282823
 20
357.046350136865
 30
0.0
 10
366.6169137313501
 20
355.7105541001857
 30
0.0
 10
366.6201763760534
 20
354.9738322238322
 30
0.0
  0
SPLINE
  5
F2
330
1F
100
AcDbEntity
  8
0
  6
Continuous
 62
     7
370
    25
100
AcDbSpline
210
0.0
220
0.0
230
1.0
 70
     8
 71
     3
 72
    12
 73
     8
 74
     0
 42
0.000000001
 43
0.00000001
 40
0.0
 40
0.0
 40
0.0
 40
0.0
 40
0.2117220186074391
 40
0.4295839501157736
 40
0.6413059825234529
 40
0.8591680370610987
 40
1.0
 40
1.0
 40
1.0
 40
1.0
 10
366.4743529776588
 20
285.6799594726542
 30
0.0
 10
366.4704497121324
 20
284.826143114504
 30
0.0
 10
366.4625299868518
 20
283.0937498272113
 30
0.0
 10
366.4536529898197
 20
281.1519630377742
 30
0.0
 10
366.4473586510466
 20
279.7751175099625
 30
0.0
 10
366.4440035745494
 20
279.0412170374004
 30
0.0
 10
366.4440104112082
 20
279.0427125122609
 30
0.0
 10
366.4440130954461
 20
279.0432996719286
 30
0.0
  0
SPLINE
  5
F3
330
1F
100
AcDbEntity
  8
0
  6
Continuous
 62
     7
370
    25
100
AcDbSpline
210
0.0
220
0.0
230
1.0
 70
     8
 71
     3
 72
    22
 73
    18
 74
     0
 42
0.000000001
 43
0.00000001
 40
0.0
 40
0.0
 40
0.0
 40
0.0
 40
0.051507296389606
 40
0.1220722510381657
 40
0.1946835859804727
 40
0.2652487090739863
 40
0.33786019419836
 40
0.4084258853838019
 40
0.4810379456519991
 40
0.551604355623501
 40
0.6242171639543155
 40
0.6947841284056062
 40
0.7673975298886108
 40
0.8379646414998467
 40
0.9105782212633805
 40
0.9550408975315895
 40
1.0
 40
1.0
 40
1.0
 40
1.0
 10
366.6527501658248
 20
324.703812375787
 30
0.0
 10
366.6527271688279
 20
324.6987817844849
 30
0.0
 10
366.6526726659636
 20
324.6868592871426
 30
0.0
 10
366.6491244243966
 20
323.9106822164019
 30
0.0
 10
366.6427774588892
 20
322.5222859171965
 30
0.0
 10
366.6335722221409
 20
320.5086461159133
 30
0.0
 10
366.622071169953
 20
317.9928018740061
 30
0.0
 10
366.6083562384545
 20
314.9926790985722
 30
0.0
 10
366.5930721844646
 20
311.649319874282
 30
0.0
 10
366.576373873967
 20
307.9966030260986
 30
0.0
 10
366.5590352868294
 20
304.203836443909
 30
0.0
 10
366.5412343551861
 20
300.3099431859183
 30
0.0
 10
366.5237976790456
 20
296.4957392769394
 30
0.0
 10
366.5068962955087
 20
292.7986376440983
 30
0.0
 10
366.4932444781188
 20
289.8123710333534
 30
0.0
 10
366.4824001429516
 20
287.4402310059203
 30
0.0
 10
366.4770452752963
 20
286.2688842328334
 30
0.0
 10
366.4743529776588
 20
285.6799594726542
 30
0.0
  0
LINE
  5
F4
330
1F
100
AcDbEntity
  8
0
  6
Continuous
 62
     7
370
    25
100
AcDbLine
 10
381.2153335619
 20
279.0021464647
 30
0.0
 11
381.2153335619
 21
304.0968894709
 31
0.0
  0
LINE
  5
F5
330
1F
100
AcDbEntity
  8
0
  6
Continuous
 62
     7
370
    25
100
AcDbLine
 10
426.1446228838
 20
278.9728571429
 30
0.0
 11
426.1446228838
 21
279.0220365887
 31
0.0
  0
LINE
  5
F6
330
1F
100
AcDbEntity
  8
0
  6
Continuous
 62
     7
370
    25
100
AcDbLine
 10
426.4446228838
 20
279.0220365887
 30
0.0
 11
426.1446228838
 21
279.0220365887
 31
0.0
  0
LINE
  5
F7
330
1F
100
AcDbEntity
  8
0
  6
Continuous
 62
     7
370
    25
100
AcDbLine
 10
379.1446228838
 20
323.7728571429
 30
0.0
 11
379.1446228838
 21
279.9728571429
 31
0.0
  0
LINE
  5
F8
330
1F
100
AcDbEntity
  8
0
  6
Continuous
 62
     7
370
    25
100
AcDbLine
 10
426.7446228838
 20
304.0705645653
 30
0.0
 11
426.7446228838
 21
279.3226908464
 31
0.0
  0
SPLINE
  5
F9
330
1F
100
AcDbEntity
  8
0
  6
Continuous
 62
     7
370
    25
100
AcDbSpline
210
0.0
220
0.0
230
1.0
 70
     8
 71
     3
 72
    10
 73
     6
 74
     0
 42
0.000000001
 43
0.00000001
 40
0.0
 40
0.0
 40
0.0
 40
0.0
 40
0.5
 40
0.5
 40
1.0
 40
1.0
 40
1.0
 40
1.0
 10
426.7446228837744
 20
279.3226908463527
 30
0.0
 10
426.7446228837744
 20
279.2433726657154
 30
0.0
 10
426.7122274816539
 20
279.1657880966904
 30
0.0
 10
426.6016672267069
 20
279.0547867487092
 30
0.0
 10
426.5239459784202
 20
279.0220365886613
 30
0.0
 10
426.4446228837747
 20
279.0220365886612
 30
0.0
  0
LINE
  5
FA
330
1F
100
AcDbEntity
  8
0
  6
Continuous
 62
     7
370
    25
100
AcDbLine
 10
426.7446228838
 20
279.2728571429
 30
0.0
 11
426.7446228838
 21
279.3226908464
 31
0.0
  0
LINE
  5
FB
330
1F
100
AcDbEntity
  8
0
  6
Continuous
 62
     7
370
    25
100
AcDbLine
 10
426.7446228838
 20
324.4728571429
 30
0.0
 11
426.7446228838
 21
304.0705645653
 31
0.0
  0
LINE
  5
FC
330
1F
100
AcDbEntity
  8
0
  6
Continuous
 62
     7
370
    25
100
AcDbLine
 10
429.3446228838
 20
324.4728571429
 30
0.0
 11
429.3446228838
 21
279.2728571429
 31
0.0
  0
LINE
  5
FD
330
1F
100
AcDbEntity
  8
0
  6
Continuous
 62
     7
370
    25
100
AcDbLine
 10
381.0739122057
 20
304.0831371362
 30
0.0
 11
381.0739122057
 21
279.143567821
 31
0.0
  0
SPLINE
  5
FE
330
1F
100
AcDbEntity
  8
0
  6
Continuous
 62
     7
370
    25
100
AcDbSpline
210
0.0
220
0.0
230
1.0
 70
     8
 71
     3
 72
    11
 73
     7
 74
     0
 42
0.000000001
 43
0.00000001
 40
0.0
 40
0.0
 40
0.0
 40
0.0
 40
0.0140704208450244
 40
0.3477788005855946
 40
0.6740691637520159
 40
1.0
 40
1.0
 40
1.0
 40
1.0
 10
421.0149033587809
 20
324.0224583569677
 30
0.0
 10
421.0123309440009
 20
324.0209752324083
 30
0.0
 10
420.9487485297499
 20
323.9843168206895
 30
0.0
 10
420.7033078638588
 20
323.9239735081331
 30
0.0
 10
420.3062742563852
 20
323.8568437951367
 30
0.0
 10
419.9984501135345
 20
323.8481877334659
 30
0.0
 10
419.8446228837745
 20
323.843862088391
 30
0.0
  0
LINE
  5
FF
330
1F
100
AcDbEntity
  8
0
  6
Continuous
 62
     7
370
    25
100
AcDbLine
 10
381.0446228838
 20
279.2728571429
 30
0.0
 11
381.0446228838
 21
304.0705645653
 31
0.0
  0
LINE
  5
100
330
1F
100
AcDbEntity
  8
0
  6
Continuous
 62
     7
370
    25
100
AcDbLine
 10
381.0446228838
 20
304.0705645653
 30
0.0
 11
381.0446228838
 21
324.4728571429
 31
0.0
  0
LINE
  5
101
330
1F
100
AcDbEntity
  8
0
  6
Continuous
 62
     7
370
    25
100
AcDbLine
 10
381.0346228838
 20
280.1324858356
 30
0.0
 11
381.0346228838
 21
323.6132284502
 31
0.0
  0
LINE
  5
102
330
1F
100
AcDbEntity
  8
0
  6
Continuous
 62
     7
370
    25
100
AcDbLine
 10
375.1446228838
 20
369.1150951061
 30
0.0
 11
375.1446228838
 21
351.3728571429
 31
0.0
  0
LINE
  5
103
330
1F
100
AcDbEntity
  8
0
  6
Continuous
 62
     7
370
    25
100
AcDbLine
 10
375.1446228838
 20
378.3728571429
 30
0.0
 11
375.1446228838
 21
369.1150951061
 31
0.0
  0
LINE
  5
104
330
1F
100
AcDbEntity
  8
0
  6
Continuous
 62
     7
370
    25
100
AcDbLine
 10
375.6446228838
 20
351.2728571429
 30
0.0
 11
375.6446228838
 21
378.4728571428
 31
0.0
  0
LINE
  5
105
330
1F
100
AcDbEntity
  8
0
  6
Continuous
 62
     7
370
    25
100
AcDbLine
 10
399.3446228838
 20
376.0187764818
 30
0.0
 11
399.3446228838
 21
351.8728571429
 31
0.0
  0
SPLINE
  5
106
330
1F
100
AcDbEntity
  8
0
  6
Continuous
 62
     7
370
    25
100
AcDbSpline
210
0.0
220
0.0
230
1.0
 70
    24
 71
     3
 72
    22
 73
    18
 74
     0
 42
0.000000001
 43
0.00000001
 40
0.0
 40
0.0
 40
0.0
 40
0.0
 40
0.125
 40
0.125
 40
0.2500000000000001
 40
0.2500000000000001
 40
0.3750000000000001
 40
0.3750000000000001
 40
0.5000000000000001
 40
0.5000000000000001
 40
0.6250000000000001
 40
0.6250000000000001
 40
0.7500000000000002
 40
0.7500000000000002
 40
0.8750000000000001
 40
0.8750000000000001
 40
1.0
 40
1.0
 40
1.0
 40
1.0
 10
399.3446228837747
 20
382.097683230295
 30
0.0
 10
399.3446228837747
 20
381.7876503651626
 30
0.0
 10
399.3446228837747
 20
381.4777254162818
 30
0.0
 10
399.3446228837747
 20
380.8610107041669
 30
0.0
 10
399.3446228837747
 20
380.5541574915523
 30
0.0
 10
399.3446228837748
 20
379.9450108098694
 30
0.0
 10
399.3446228837747
 20
379.6397305741695
 30
0.0
 10
399.3446228837746
 20
379.0513517877133
 30
0.0
 10
399.3446228837748
 20
378.7693527313257
 30
0.0
 10
399.3446228837749
 20
378.2316511067808
 30
0.0
 10
399.3446228837748
 20
377.9736495826618
 30
0.0
 10
399.3446228837748
 20
377.4976146857058
 30
0.0
 10
399.3446228837747
 20
377.2789065385676
 30
0.0
 10
399.3446228837748
 20
376.8723554916226
 30
0.0
 10
399.3446228837749
 20
376.6841442900135
 30
0.0
 10
399.3446228837748
 20
376.3360597594278
 30
0.0
 10
399.3446228837748
 20
376.1793359145178
 30
0.0
 10
399.3446228837747
 20
376.0187764818418
 30
0.0
  0
LINE
  5
107
330
1F
100
AcDbEntity
  8
0
  6
Continuous
 62
     7
370
    25
100
AcDbLine
 10
409.8446228838
 20
323.8519755823
 30
0.0
 11
409.8446228838
 21
323.8438620884
 31
0.0
  0
LINE
  5
108
330
1F
100
AcDbEntity
  8
0
  6
Continuous
 62
     7
370
    25
100
AcDbLine
 10
419.8446228838
 20
323.8519755823
 30
0.0
 11
419.8446228838
 21
323.8438620884
 31
0.0
  0
LINE
  5
109
330
1F
100
AcDbEntity
  8
0
  6
Continuous
 62
     7
370
    25
100
AcDbLine
 10
408.8446228838
 20
323.9830192129
 30
0.0
 11
408.8446228838
 21
331.5728571429
 31
0.0
  0
ARC
  5
10A
330
1F
100
AcDbEntity
  8
0
  6
Continuous
 62
     7
370
    25
100
AcDbCircle
 10
409.8446228838
 20
331.5728571429
 30
0.0
 40
1.0
100
AcDbArc
 50
90.0
 51
180.0
  0
LINE
  5
10B
330
1F
100
AcDbEntity
  8
0
  6
Continuous
 62
     7
370
    25
100
AcDbLine
 10
409.8446228838
 20
332.5728571429
 30
0.0
 11
419.8446228838
 21
332.5728571429
 31
0.0
  0
LINE
  5
10C
330
1F
100
AcDbEntity
  8
0
  6
Continuous
 62
     7
370
    25
100
AcDbLine
 10
420.8446228838
 20
331.5728571429
 30
0.0
 11
420.8446228838
 21
323.9707352806
 31
0.0
  0
ARC
  5
10D
330
1F
100
AcDbEntity
  8
0
  6
Continuous
 62
     7
370
    25
100
AcDbCircle
 10
419.8446228838
 20
331.5728571429
 30
0.0
 40
1.0
100
AcDbArc
 50
0.0
 51
90.0
  0
LINE
  5
10E
330
1F
100
AcDbEntity
  8
0
  6
Continuous
 62
     7
370
    25
100
AcDbLine
 10
408.6446228838
 20
324.5728571429
 30
0.0
 11
408.6446228838
 21
324.0153502274
 31
0.0
  0
LINE
  5
10F
330
1F
100
AcDbEntity
  8
0
  6
Continuous
 62
     7
370
    25
100
AcDbLine
 10
421.0446228838
 20
324.0153502274
 30
0.0
 11
421.0446228838
 21
324.5728571429
 31
0.0
  0
LINE
  5
110
330
1F
100
AcDbEntity
  8
0
  6
Continuous
 62
     7
370
    25
100
AcDbLine
 10
390.8446228838
 20
382.8236632317
 30
0.0
 11
390.8446228838
 21
398.8728571429
 31
0.0
  0
LINE
  5
111
330
1F
100
AcDbEntity
  8
0
  6
Continuous
 62
     7
370
    25
100
AcDbLine
 10
399.3446228838
 20
398.8728571429
 30
0.0
 11
399.3446228838
 21
382.0976832303
 31
0.0
  0
ARC
  5
112
330
1F
100
AcDbEntity
  8
0
  6
Continuous
 62
     7
370
    25
100
AcDbCircle
 10
391.8446228838
 20
398.8728571429
 30
0.0
 40
1.0
100
AcDbArc
 50
90.0
 51
180.0
  0
LINE
  5
113
330
1F
100
AcDbEntity
  8
0
  6
Continuous
 62
     7
370
    25
100
AcDbLine
 10
391.8446228838
 20
399.8728571429
 30
0.0
 11
398.3446228838
 21
399.8728571429
 31
0.0
  0
ARC
  5
114
330
1F
100
AcDbEntity
  8
0
  6
Continuous
 62
     7
370
    25
100
AcDbCircle
 10
398.3446228838
 20
398.8728571429
 30
0.0
 40
1.0
100
AcDbArc
 50
360.0
 51
90.0
  0
LINE
  5
115
330
1F
100
AcDbEntity
  8
0
  6
Continuous
 62
     8
370
    18
100
AcDbLine
 10
366.156225153
 20
417.7675907135
 30
0.0
 11
366.156225153
 21
249.9781235722
 31
0.0
  0
ARC
  5
116
330
1F
100
AcDbEntity
  8
0
  6
Continuous
 62
     8
370
    18
100
AcDbCircle
 10
381.3421067447
 20
301.2780939725
 30
0.0
 40
2.821644822069119
100
AcDbArc
 50
89.9489077557
 51
92.5750988231
  0
LINE
  5
117
330
1F
100
AcDbEntity
  8
0
  6
Continuous
 62
     8
370
    18
100
AcDbLine
 10
381.3446228838
 20
304.0997376727
 30
0.0
 11
381.3446228838
 21
278.9728571429
 31
0.0
  0
ARC
  5
118
330
1F
100
AcDbEntity
  8
0
  6
Continuous
 62
     8
370
    18
100
AcDbCircle
 10
426.5189136586
 20
303.3065995834
 30
0.0
 40
0.7966097840102377
100
AcDbArc
 50
73.5405164015
 51
95.3511044033
  0
LINE
  5
119
330
1F
100
AcDbEntity
  8
0
  6
Continuous
 62
     8
370
    18
100
AcDbLine
 10
408.4446228838
 20
324.2104382722
 30
0.0
 11
408.4446228838
 21
324.7728571429
 31
0.0
  0
SPLINE
  5
11A
330
1F
100
AcDbEntity
  8
0
  6
Continuous
 62
     8
370
    18
100
AcDbSpline
210
0.0
220
0.0
230
1.0
 70
     8
 71
     3
 72
    18
 73
    14
 74
     0
 42
0.000000001
 43
0.00000001
 40
0.0
 40
0.0
 40
0.0
 40
0.0
 40
0.2500000000000582
 40
0.2500000000000582
 40
0.375000000000053
 40
0.375000000000053
 40
0.5000000000000477
 40
0.5000000000000477
 40
0.6250000000000425
 40
0.6250000000000425
 40
0.7500000000000373
 40
0.7500000000000373
 40
1.0
 40
1.0
 40
1.0
 40
1.0
 10
409.8446228837745
 20
323.8438620883911
 30
0.0
 10
409.6557312426632
 20
323.8438620883911
 30
0.0
 10
409.4687111651624
 20
323.8554648732556
 30
0.0
 10
409.2136585194168
 20
323.8868838129708
 30
0.0
 10
409.1312130685635
 20
323.8998920203113
 30
0.0
 10
408.9791807945388
 20
323.9293972025366
 30
0.0
 10
408.9093332030385
 20
323.9458472580269
 30
0.0
 10
408.7815866717272
 20
323.9817085074008
 30
0.0
 10
408.7235693722187
 20
324.0012531414193
 30
0.0
 10
408.6243744638507
 20
324.0413339137194
 30
0.0
 10
408.5824439867459
 20
324.0620499135095
 30
0.0
 10
408.4797784846365
 20
324.1258416992116
 30
0.0
 10
408.4446228837745
 20
324.168879676508
 30
0.0
 10
408.4446228837745
 20
324.2104382722198
 30
0.0
  0
LINE
  5
11B
330
1F
100
AcDbEntity
  8
0
  6
Continuous
 62
     8
370
    18
100
AcDbLine
 10
419.8446228838
 20
323.8438620884
 30
0.0
 11
409.8446228838
 21
323.8438620884
 31
0.0
  0
SPLINE
  5
11C
330
1F
100
AcDbEntity
  8
0
  6
Continuous
 62
     8
370
    18
100
AcDbSpline
210
0.0
220
0.0
230
1.0
 70
     8
 71
     3
 72
     9
 73
     5
 74
     0
 42
0.000000001
 43
0.00000001
 40
0.0
 40
0.0
 40
0.0
 40
0.0
 40
0.4400426436389849
 40
1.0
 40
1.0
 40
1.0
 40
1.0
 10
421.2446228837745
 20
324.2104382722198
 30
0.0
 10
421.2370782876058
 20
324.1827510223465
 30
0.0
 10
421.2199331397939
 20
324.1198315524414
 30
0.0
 10
421.0885002001838
 20
324.0574111310904
 30
0.0
 10
421.0149033587809
 20
324.0224583569677
 30
0.0
  0
LINE
  5
11D
330
1F
100
AcDbEntity
  8
0
  6
Continuous
 62
     8
370
    18
100
AcDbLine
 10
421.2446228838
 20
324.7728571429
 30
0.0
 11
421.2446228838
 21
324.2104382722
 31
0.0
  0
ARC
  5
11E
330
1F
100
AcDbEntity
  8
0
  6
Continuous
 62
     8
370
    18
100
AcDbCircle
 10
381.0730727356
 20
304.0446899918
 30
0.0
 40
0.0384563079762329
100
AcDbArc
 50
88.7491801892
 51
137.714105039
  0
SPLINE
  5
11F
330
1F
100
AcDbEntity
  8
0
  6
Continuous
 62
     8
370
    18
100
AcDbSpline
210
0.0
220
0.0
230
1.0
 70
     8
 71
     3
 72
     9
 73
     5
 74
     0
 42
0.000000001
 43
0.00000001
 40
0.0
 40
0.0
 40
0.0
 40
0.0
 40
0.9964450710798708
 40
0.9999999999999999
 40
0.9999999999999999
 40
0.9999999999999999
 40
0.9999999999999999
 10
386.601465616022
 20
378.4903959459454
 30
0.0
 10
386.5192797873642
 20
378.7444637098999
 30
0.0
 10
386.4368007515969
 20
378.9994378889373
 30
0.0
 10
386.478118799086
 20
378.871950659787
 30
0.0
 10
386.478265681808
 20
378.8714974517492
 30
0.0
  0
SPLINE
  5
120
330
1F
100
AcDbEntity
  8
0
  6
Continuous
 62
     8
370
    18
100
AcDbSpline
210
0.0
220
0.0
230
1.0
 70
     8
 71
     3
 72
    24
 73
    20
 74
     0
 42
0.000000001
 43
0.00000001
 40
0.0
 40
0.0
 40
0.0
 40
0.0
 40
0.0313965838690735
 40
0.0626701743565698
 40
0.0938672300040238
 40
0.1250345515700928
 40
0.1562190736299133
 40
0.2311805427854308
 40
0.305756782566028
 40
0.3750735274567404
 40
0.4436596408143706
 40
0.5712783485516815
 40
0.6888029567245587
 40
0.743910997630873
 40
0.7987361782876886
 40
0.8504303133125479
 40
0.9018091679882949
 40
0.9510036401246029
 40
1.0
 40
1.0
 40
1.0
 40
1.0
 10
391.8446228837747
 20
376.876154892533
 30
0.0
 10
391.7668916653406
 20
376.8765935134762
 30
0.0
 10
391.6117337337474
 20
376.8774690371035
 30
0.0
 10
391.3796781965914
 20
376.8845867919466
 30
0.0
 10
391.1488778407991
 20
376.8959356280062
 30
0.0
 10
390.919329164528
 20
376.9118980421047
 30
0.0
 10
390.5844431541932
 20
376.9418100242813
 30
0.0
 10
390.1491680242121
 20
376.9957289374275
 30
0.0
 10
389.637106980088
 20
377.0847136254487
 30
0.0
 10
389.1587152572449
 20
377.1912891072171
 30
0.0
 10
388.5904967720555
 20
377.3467454037886
 30
0.0
 10
387.9775518517181
 20
377.5622236835655
 30
0.0
 10
387.4877615194166
 20
377.7898052936243
 30
0.0
 10
387.1807618454723
 20
377.9632001690496
 30
0.0
 10
386.9938380495256
 20
378.0848091697907
 30
0.0
 10
386.8423121787127
 20
378.1999546444119
 30
0.0
 10
386.7280722998772
 20
378.3056993477189
 30
0.0
 10
386.6445453742362
 20
378.4036962688408
 30
0.0
 10
386.6160144269885
 20
378.4615393171007
 30
0.0
 10
386.6017777357384
 20
378.4904024884454
 30
0.0
  0
LINE
  5
121
330
1F
100
AcDbEntity
  8
0
  6
Continuous
 62
     8
370
    18
100
AcDbLine
 10
398.3446228838
 20
376.8761548925
 30
0.0
 11
391.8446228838
 21
376.8761548925
 31
0.0
  0
ARC
  5
122
330
1F
100
AcDbEntity
  8
0
  6
Continuous
 62
     8
370
    18
100
AcDbCircle
 10
398.410848449
 20
375.9415345495
 30
0.0
 40
0.9369637192365046
100
AcDbArc
 50
4.7287476393
 51
94.0531045291
  0
LINE
  5
123
330
1F
100
AcDbEntity
  8
0
  6
Continuous
 62
     8
370
    18
100
AcDbLine
 10
391.8446228838
 20
382.0976832303
 30
0.0
 11
398.3446228838
 21
382.0976832303
 31
0.0
  0
LINE
  5
124
330
1F
100
AcDbEntity
  8
0
  6
Continuous
 62
     8
370
    18
100
AcDbLine
 10
399.3446228838
 20
382.0976832303
 30
0.0
 11
398.3446228838
 21
382.0976832303
 31
0.0
  0
SPLINE
  5
125
330
1F
100
AcDbEntity
  8
0
  6
Continuous
 62
     8
370
    18
100
AcDbSpline
210
0.0
220
0.0
230
1.0
 70
     8
 71
     3
 72
    21
 73
    17
 74
     0
 42
0.000000001
 43
0.00000001
 40
0.0
 40
0.0
 40
0.0
 40
0.0
 40
0.0976305872777073
 40
0.1396035318486576
 40
0.1821109838017738
 40
0.2282618793814394
 40
0.2733259297410375
 40
0.3170756311557296
 40
0.405313158822465
 40
0.4993749307112588
 40
0.5539569672091345
 40
0.6243381685151207
 40
0.697370091308658
 40
0.7499365360898774
 40
0.8745856750407609
 40
1.0
 40
1.0
 40
1.0
 40
1.0
 10
390.8446228837748
 20
382.8236631933148
 30
0.0
 10
390.8444090568159
 20
382.5933930874784
 30
0.0
 10
390.8441033022414
 20
382.2641261953057
 30
0.0
 10
390.8121209131893
 20
381.8357778303084
 30
0.0
 10
390.772471890057
 20
381.5302149586672
 30
0.0
 10
390.7119136996579
 20
381.2205859200374
 30
0.0
 10
390.6295025126979
 20
380.9130060460215
 30
0.0
 10
390.4946907142943
 20
380.5177207805722
 30
0.0
 10
390.2709731554983
 20
380.0319848103002
 30
0.0
 10
389.9493693266573
 20
379.5696215977455
 30
0.0
 10
389.576926277676
 20
379.2094553059285
 30
0.0
 10
389.1891461747799
 20
378.9446321648557
 30
0.0
 10
388.7650737443992
 20
378.7556459217104
 30
0.0
 10
388.1986190838352
 20
378.5878592364031
 30
0.0
 10
387.4871341994531
 20
378.4919471266555
 30
0.0
 10
386.8974965937211
 20
378.4909219857203
 30
0.0
 10
386.6017756549755
 20
378.4904078468038
 30
0.0
  0
SPLINE
  5
126
330
1F
100
AcDbEntity
  8
0
  6
Continuous
 62
     8
370
    18
100
AcDbSpline
210
0.0
220
0.0
230
1.0
 70
     8
 71
     3
 72
    18
 73
    14
 74
     0
 42
0.000000001
 43
0.00000001
 40
0.0
 40
0.0
 40
0.0
 40
0.0
 40
0.0549552946371361
 40
0.1173358414242825
 40
0.1871605233606531
 40
0.2644423350809086
 40
0.3586071205259203
 40
0.4017025639375885
 40
0.53604937297185
 40
0.6676320445141423
 40
0.7815711105316893
 40
0.8881240084018306
 40
1.0
 40
1.0
 40
1.0
 40
1.0
 10
390.8446228837747
 20
382.8236632317029
 30
0.0
 10
390.8453079371939
 20
382.8076122604998
 30
0.0
 10
390.8467706046202
 20
382.7733416006074
 30
0.0
 10
390.8594467114972
 20
382.7161122986232
 30
0.0
 10
390.8829027031158
 20
382.6506924558726
 30
0.0
 10
390.9222533568773
 20
382.5735998630623
 30
0.0
 10
390.9693109381789
 20
382.5045310061793
 30
0.0
 10
391.0404586495955
 20
382.4174434335448
 30
0.0
 10
391.1390826227739
 20
382.3212050181877
 30
0.0
 10
391.2938902834498
 20
382.2175228358838
 30
0.0
 10
391.4665077425075
 20
382.144565976874
 30
0.0
 10
391.6508566024434
 20
382.1044397383216
 30
0.0
 10
391.7789932303701
 20
382.0999716949183
 30
0.0
 10
391.8446228837747
 20
382.0976832302951
 30
0.0
  0
ARC
  5
127
330
1F
100
AcDbEntity
  8
0
  6
Continuous
 62
     8
370
    18
100
AcDbCircle
 10
408.4470487022
 20
324.0128633313
 30
0.0
 40
0.1975898323773836
100
AcDbArc
 50
0.7211525517
 51
90.7034403054
  0
ARC
  5
128
330
1F
100
AcDbEntity
  8
0
  6
Continuous
 62
     8
370
    18
100
AcDbCircle
 10
421.2428006801
 20
324.0113446071
 30
0.0
 40
0.1991020037749716
100
AcDbArc
 50
89.4756153341
 51
159.234942312
  0
LINE
  5
129
330
1F
100
AcDbEntity
  8
0
  6
Continuous
 62
     8
370
    18
100
AcDbLine
 10
390.8447437949
 20
382.823663689
 30
0.0
 11
390.7571148948
 21
382.0236356781
 31
0.0
  0
LINE
  5
12A
330
1F
100
AcDbEntity
  8
0
  6
Continuous
 62
     7
370
    25
100
AcDbLine
 10
104.2481943123
 20
192.1616649177
 30
0.0
 11
104.6157883787
 21
178.123813878
 31
0.0
  0
LINE
  5
12B
330
1F
100
AcDbEntity
  8
0
  6
Continuous
 62
     7
370
    25
100
AcDbLine
 10
274.380600246
 20
178.123813878
 30
0.0
 11
274.7481943123
 21
192.1616649177
 31
0.0
  0
ARC
  5
12C
330
1F
100
AcDbEntity
  8
0
  6
Continuous
 62
     7
370
    25
100
AcDbCircle
 10
273.380942921
 20
178.1499908263
 30
0.0
 40
0.9999999999991735
100
AcDbArc
 50
270.686704177
 51
358.5
  0
ARC
  5
12D
330
1F
100
AcDbEntity
  8
0
  6
Continuous
 62
     7
370
    25
100
AcDbCircle
 10
105.6154457036
 20
178.1499908263
 30
0.0
 40
0.999999999999177
100
AcDbArc
 50
181.5
 51
269.313295823
  0
LINE
  5
12E
330
1F
100
AcDbEntity
  8
0
  6
Continuous
 62
     7
370
    25
100
AcDbLine
 10
105.2481943123
 20
192.2116649177
 30
0.0
 11
105.2481943123
 21
192.1616649177
 31
0.0
  0
LINE
  5
12F
330
1F
100
AcDbEntity
  8
0
  6
Continuous
 62
     7
370
    25
100
AcDbLine
 10
273.7481943123
 20
192.1616649177
 30
0.0
 11
273.7481943123
 21
192.2116649177
 31
0.0
  0
ARC
  5
130
330
1F
100
AcDbEntity
  8
0
  6
Continuous
 62
     7
370
    25
100
AcDbCircle
 10
189.4981943123
 20
7176.6473069996
 30
0.0
 40
7000.000000000002
100
AcDbArc
 50
269.313295823
 51
269.8854083646
  0
ARC
  5
131
330
1F
100
AcDbEntity
  8
0
  6
Continuous
 62
     7
370
    25
100
AcDbCircle
 10
189.4981943123
 20
7176.6473069996
 30
0.0
 40
7000.000000000002
100
AcDbArc
 50
270.1145916354
 51
270.686704177
  0
LINE
  5
132
330
1F
100
AcDbEntity
  8
0
  6
Continuous
 62
     7
370
    25
100
AcDbLine
 10
175.4981943126
 20
167.2616649177
 30
0.0
 11
175.4981943126
 21
144.9616649177
 31
0.0
  0
LINE
  5
133
330
1F
100
AcDbEntity
  8
0
  6
Continuous
 62
     7
370
    25
100
AcDbLine
 10
203.4981943126
 20
144.9616649177
 30
0.0
 11
203.4981943126
 21
167.2616649177
 31
0.0
  0
LINE
  5
134
330
1F
100
AcDbEntity
  8
0
  6
Continuous
 62
     7
370
    25
100
AcDbLine
 10
203.4981943126
 20
168.6616649177
 30
0.0
 11
203.4981943126
 21
176.7299525368
 31
0.0
  0
LINE
  5
135
330
1F
100
AcDbEntity
  8
0
  6
Continuous
 62
     7
370
    25
100
AcDbLine
 10
175.4981943126
 20
176.7299468945
 30
0.0
 11
175.4981943126
 21
168.6616649177
 31
0.0
  0
ARC
  5
136
330
1F
100
AcDbEntity
  8
0
  6
Continuous
 62
     7
370
    25
100
AcDbCircle
 10
203.0981943126
 20
167.2616649177
 30
0.0
 40
0.4000000000000057
100
AcDbArc
 50
0.0
 51
90.0
  0
ARC
  5
137
330
1F
100
AcDbEntity
  8
0
  6
Continuous
 62
     7
370
    25
100
AcDbCircle
 10
175.8981943126
 20
167.2616649177
 30
0.0
 40
0.4000000000000057
100
AcDbArc
 50
90.0
 51
180.0
  0
ARC
  5
138
330
1F
100
AcDbEntity
  8
0
  6
Continuous
 62
     7
370
    25
100
AcDbCircle
 10
175.9981943126
 20
168.6616649177
 30
0.0
 40
0.5
100
AcDbArc
 50
180.0
 51
270.0
  0
ARC
  5
139
330
1F
100
AcDbEntity
  8
0
  6
Continuous
 62
     7
370
    25
100
AcDbCircle
 10
202.9981943126
 20
168.6616649177
 30
0.0
 40
0.5
100
AcDbArc
 50
270.0
 51
0.0
  0
ARC
  5
13A
330
1F
100
AcDbEntity
  8
0
  6
Continuous
 62
     7
370
    25
100
AcDbCircle
 10
176.4981943126
 20
144.9616649177
 30
0.0
 40
1.0
100
AcDbArc
 50
180.0
 51
270.0
  0
ARC
  5
13B
330
1F
100
AcDbEntity
  8
0
  6
Continuous
 62
     7
370
    25
100
AcDbCircle
 10
202.4981943126
 20
144.9616649177
 30
0.0
 40
1.0
100
AcDbArc
 50
270.0
 51
0.0
  0
LINE
  5
13C
330
1F
100
AcDbEntity
  8
0
  6
Continuous
 62
     7
370
    25
100
AcDbLine
 10
201.4981943126
 20
167.6616649177
 30
0.0
 11
201.4981943126
 21
168.1616649177
 31
0.0
  0
LINE
  5
13D
330
1F
100
AcDbEntity
  8
0
  6
Continuous
 62
     7
370
    25
100
AcDbLine
 10
177.4981943126
 20
168.1616649177
 30
0.0
 11
177.4981943126
 21
167.6616649177
 31
0.0
  0
LINE
  5
13E
330
1F
100
AcDbEntity
  8
0
  6
Continuous
 62
     7
370
    25
100
AcDbLine
 10
212.3981943126
 20
165.1616649177
 30
0.0
 11
212.3981943126
 21
176.684764957
 31
0.0
  0
LINE
  5
13F
330
1F
100
AcDbEntity
  8
0
  6
Continuous
 62
     7
370
    25
100
AcDbLine
 10
166.5981943126
 20
176.684764957
 30
0.0
 11
166.5981943126
 21
165.1616649177
 31
0.0
  0
ARC
  5
140
330
1F
100
AcDbEntity
  8
0
  6
Continuous
 62
     7
370
    25
100
AcDbCircle
 10
167.5981943126
 20
165.1616649177
 30
0.0
 40
1.0
100
AcDbArc
 50
180.0
 51
270.0
  0
ARC
  5
141
330
1F
100
AcDbEntity
  8
0
  6
Continuous
 62
     7
370
    25
100
AcDbCircle
 10
211.3981943126
 20
165.1616649177
 30
0.0
 40
1.0
100
AcDbArc
 50
270.0
 51
0.0
  0
ARC
  5
142
330
1F
100
AcDbEntity
  8
0
  6
Continuous
 62
     7
370
    25
100
AcDbCircle
 10
166.8981943126
 20
116.2616649177
 30
0.0
 40
0.3000000000000256
100
AcDbArc
 50
90.0
 51
180.0
  0
ARC
  5
143
330
1F
100
AcDbEntity
  8
0
  6
Continuous
 62
     7
370
    25
100
AcDbCircle
 10
212.0981943126
 20
116.2616649177
 30
0.0
 40
0.3000000000000256
100
AcDbArc
 50
0.0
 51
90.0
  0
LINE
  5
144
330
1F
100
AcDbEntity
  8
0
  6
Continuous
 62
     7
370
    25
100
AcDbLine
 10
212.3981943126
 20
114.2616649177
 30
0.0
 11
212.3981943126
 21
116.2616649177
 31
0.0
  0
LINE
  5
145
330
1F
100
AcDbEntity
  8
0
  6
Continuous
 62
     7
370
    25
100
AcDbLine
 10
166.5981943126
 20
116.2616649177
 30
0.0
 11
166.5981943126
 21
114.2616649177
 31
0.0
  0
ARC
  5
146
330
1F
100
AcDbEntity
  8
0
  6
Continuous
 62
     7
370
    25
100
AcDbCircle
 10
212.0981943126
 20
114.2616649177
 30
0.0
 40
0.3000000000000256
100
AcDbArc
 50
270.0
 51
0.0
  0
ARC
  5
147
330
1F
100
AcDbEntity
  8
0
  6
Continuous
 62
     7
370
    25
100
AcDbCircle
 10
166.8981943126
 20
114.2616649177
 30
0.0
 40
0.3000000000000256
100
AcDbArc
 50
180.0
 51
270.0
  0
LINE
  5
148
330
1F
100
AcDbEntity
  8
0
  6
Continuous
 62
     7
370
    25
100
AcDbLine
 10
212.3689049907
 20
162.0909542396
 30
0.0
 11
212.2274836345
 21
162.2323755958
 31
0.0
  0
LINE
  5
149
330
1F
100
AcDbEntity
  8
0
  6
Continuous
 62
     7
370
    25
100
AcDbLine
 10
166.7689049907
 20
162.2323755958
 30
0.0
 11
166.6274836345
 21
162.0909542396
 31
0.0
  0
LINE
  5
14A
330
1F
100
AcDbEntity
  8
0
  6
Continuous
 62
     7
370
    25
100
AcDbLine
 10
167.7578230053
 20
162.2716649177
 30
0.0
 11
167.7578230053
 21
162.2616649177
 31
0.0
  0
LINE
  5
14B
330
1F
100
AcDbEntity
  8
0
  6
Continuous
 62
     7
370
    25
100
AcDbLine
 10
211.2385656199
 20
162.2616649177
 30
0.0
 11
211.2385656199
 21
162.2716649177
 31
0.0
  0
LINE
  5
14C
330
1F
100
AcDbEntity
  8
0
  6
Continuous
 62
     7
370
    25
100
AcDbLine
 10
209.8981943123
 20
162.2716649177
 30
0.0
 11
209.8981943123
 21
164.1616649177
 31
0.0
  0
LINE
  5
14D
330
1F
100
AcDbEntity
  8
0
  6
Continuous
 62
     7
370
    25
100
AcDbLine
 10
169.0981943093
 20
164.1616649177
 30
0.0
 11
169.0981943093
 21
162.2716649177
 31
0.0
  0
ARC
  5
14E
330
1F
100
AcDbEntity
  8
0
  6
Continuous
 62
     7
370
    25
100
AcDbCircle
 10
212.0981943126
 20
161.9616649177
 30
0.0
 40
0.2999999999999863
100
AcDbArc
 50
0.0
 51
25.5287793652
  0
ARC
  5
14F
330
1F
100
AcDbEntity
  8
0
  6
Continuous
 62
     7
370
    25
100
AcDbCircle
 10
166.8981943126
 20
161.9616649177
 30
0.0
 40
0.3000000000000398
100
AcDbArc
 50
154.4712206348
 51
180.0
  0
LINE
  5
150
330
1F
100
AcDbEntity
  8
0
  6
Continuous
 62
     7
370
    25
100
AcDbLine
 10
166.5981943126
 20
161.9616649177
 30
0.0
 11
166.5981943126
 21
116.8616649177
 31
0.0
  0
LINE
  5
151
330
1F
100
AcDbEntity
  8
0
  6
Continuous
 62
     7
370
    25
100
AcDbLine
 10
212.3981943126
 20
116.8616649177
 30
0.0
 11
212.3981943126
 21
161.9616649177
 31
0.0
  0
ARC
  5
152
330
1F
100
AcDbEntity
  8
0
  6
Continuous
 62
     7
370
    25
100
AcDbCircle
 10
166.8981943126
 20
116.8616649177
 30
0.0
 40
0.3000000000000398
100
AcDbArc
 50
180.0
 51
270.0
  0
ARC
  5
153
330
1F
100
AcDbEntity
  8
0
  6
Continuous
 62
     7
370
    25
100
AcDbCircle
 10
212.0981943126
 20
116.8616649177
 30
0.0
 40
0.3000000000000114
100
AcDbArc
 50
270.0
 51
0.0
  0
ARC
  5
154
330
1F
100
AcDbEntity
  8
0
  6
Continuous
 62
     7
370
    25
100
AcDbCircle
 10
212.0981943126
 20
161.9616649177
 30
0.0
 40
0.3000000000000114
100
AcDbArc
 50
64.4712206348
 51
90.0
  0
ARC
  5
155
330
1F
100
AcDbEntity
  8
0
  6
Continuous
 62
     7
370
    25
100
AcDbCircle
 10
166.8981943126
 20
161.9616649177
 30
0.0
 40
0.3000000000000114
100
AcDbArc
 50
90.0
 51
115.5287793652
  0
LINE
  5
156
330
1F
100
AcDbEntity
  8
0
  6
Continuous
 62
     7
370
    25
100
AcDbLine
 10
189.4981943123
 20
192.1616649177
 30
0.0
 11
104.2481943123
 21
192.1616649177
 31
0.0
  0
LINE
  5
157
330
1F
100
AcDbEntity
  8
0
  6
Continuous
 62
     7
370
    25
100
AcDbLine
 10
274.7481943123
 20
192.1616649177
 30
0.0
 11
189.4981943123
 21
192.1616649177
 31
0.0
  0
LINE
  5
158
330
1F
100
AcDbEntity
  8
0
  6
Continuous
 62
     7
370
    25
100
AcDbLine
 10
105.2481943123
 20
192.2116649177
 30
0.0
 11
273.7481943123
 21
192.2116649177
 31
0.0
  0
SPLINE
  5
159
330
1F
100
AcDbEntity
  8
0
  6
Continuous
 62
     7
370
    25
100
AcDbSpline
210
0.0
220
0.0
230
1.0
 70
     8
 71
     3
 72
    27
 73
    23
 74
     0
 42
0.000000001
 43
0.00000001
 40
0.0
 40
0.0
 40
0.0
 40
0.0
 40
0.0016923019806453
 40
0.054619369349264
 40
0.1090813243868467
 40
0.1620083895885608
 40
0.2164703604982078
 40
0.2693971079019884
 40
0.3238587623475883
 40
0.3767850156013369
 40
0.4312461599404736
 40
0.4841719592657056
 40
0.5386326234231332
 40
0.5915582079830463
 40
0.6460186323317082
 40
0.698944335408473
 40
0.7534048654157731
 40
0.8063309683469453
 40
0.8607919031702648
 40
0.9137185120550156
 40
0.9681799734387017
 40
1.0
 40
1.0
 40
1.0
 40
1.0
 10
203.4920379940118
 20
176.7299525367557
 30
0.0
 10
203.4940827335696
 20
176.730061921418
 30
0.0
 10
203.5600770929739
 20
176.7335923322625
 30
0.0
 10
203.324376072718
 20
176.740692539696
 30
0.0
 10
202.7621649153209
 20
176.750788248799
 30
0.0
 10
201.7686781468129
 20
176.7603928284435
 30
0.0
 10
200.4499711016933
 20
176.7690475588789
 30
0.0
 10
198.8035149802434
 20
176.7766669847604
 30
0.0
 10
196.9098641005701
 20
176.7828972741154
 30
0.0
 10
194.7873775540704
 20
176.787674499373
 30
0.0
 10
192.5346515979261
 20
176.7907773836409
 30
0.0
 10
190.1748170479186
 20
176.7921739892262
 30
0.0
 10
187.8171664556032
 20
176.7917996583947
 30
0.0
 10
185.4859950794919
 20
176.7896582640383
 30
0.0
 10
183.2892127267373
 20
176.7858489710599
 30
0.0
 10
181.2495696987079
 20
176.7804110379845
 30
0.0
 10
179.4610819120053
 20
176.773596259183
 30
0.0
 10
177.9437561053231
 20
176.7654748204574
 30
0.0
 10
176.7619913128212
 20
176.756422930412
 30
0.0
 10
175.949867068605
 20
176.7465331660676
 30
0.0
 10
175.5274772630615
 20
176.7376178953257
 30
0.0
 10
175.5399586076605
 20
176.7320136880889
 30
0.0
 10
175.5445616427508
 20
176.7299468945346
 30
0.0
  0
LINE
  5
15A
330
1F
100
AcDbEntity
  8
0
  6
Continuous
 62
     7
370
    25
100
AcDbLine
 10
186.2481943126
 20
152.4616649177
 30
0.0
 11
192.7481943126
 21
152.4616649177
 31
0.0
  0
LINE
  5
15B
330
1F
100
AcDbEntity
  8
0
  6
Continuous
 62
     7
370
    25
100
AcDbLine
 10
185.2481943126
 20
144.9616649177
 30
0.0
 11
185.2481943126
 21
151.4616649177
 31
0.0
  0
ARC
  5
15C
330
1F
100
AcDbEntity
  8
0
  6
Continuous
 62
     7
370
    25
100
AcDbCircle
 10
186.2481943126
 20
151.4616649177
 30
0.0
 40
1.0
100
AcDbArc
 50
90.0
 51
180.0
  0
LINE
  5
15D
330
1F
100
AcDbEntity
  8
0
  6
Continuous
 62
     7
370
    25
100
AcDbLine
 10
193.7481943126
 20
151.4616649177
 30
0.0
 11
193.7481943126
 21
144.9616649177
 31
0.0
  0
ARC
  5
15E
330
1F
100
AcDbEntity
  8
0
  6
Continuous
 62
     7
370
    25
100
AcDbCircle
 10
192.7481943126
 20
151.4616649177
 30
0.0
 40
1.0
100
AcDbArc
 50
0.0
 51
90.0
  0
LINE
  5
15F
330
1F
100
AcDbEntity
  8
0
  6
Continuous
 62
     7
370
    25
100
AcDbLine
 10
192.7481943126
 20
143.9616649177
 30
0.0
 11
186.2481943126
 21
143.9616649177
 31
0.0
  0
ARC
  5
160
330
1F
100
AcDbEntity
  8
0
  6
Continuous
 62
     7
370
    25
100
AcDbCircle
 10
186.2481943126
 20
144.9616649177
 30
0.0
 40
1.0
100
AcDbArc
 50
180.0
 51
270.0
  0
ARC
  5
161
330
1F
100
AcDbEntity
  8
0
  6
Continuous
 62
     7
370
    25
100
AcDbCircle
 10
192.7481943126
 20
144.9616649177
 30
0.0
 40
1.0
100
AcDbArc
 50
270.0
 51
0.0
  0
SPLINE
  5
162
330
1F
100
AcDbEntity
  8
0
  6
Continuous
 62
     7
370
    25
100
AcDbSpline
210
0.0
220
0.0
230
1.0
 70
    24
 71
     3
 72
    22
 73
    18
 74
     0
 42
0.000000001
 43
0.00000001
 40
0.0
 40
0.0
 40
0.0
 40
0.0
 40
0.125
 40
0.125
 40
0.2500000000000001
 40
0.2500000000000001
 40
0.3750000000000001
 40
0.3750000000000001
 40
0.5000000000000001
 40
0.5000000000000001
 40
0.6250000000000001
 40
0.6250000000000001
 40
0.7500000000000002
 40
0.7500000000000002
 40
0.8750000000000001
 40
0.8750000000000001
 40
1.0
 40
1.0
 40
1.0
 40
1.0
 10
186.2481943125795
 20
143.9616649176837
 30
0.0
 10
186.2481943125795
 20
143.9616649176837
 30
0.0
 10
186.2471676477087
 20
143.9616649176838
 30
0.0
 10
186.2152876243859
 20
143.9616649176838
 30
0.0
 10
186.185037893739
 20
143.9616649176837
 30
0.0
 10
186.0811591596104
 20
143.9616649176837
 30
0.0
 10
186.0066457903681
 20
143.9616649176838
 30
0.0
 10
185.8063679588428
 20
143.9616649176838
 30
0.0
 10
185.6814855233401
 20
143.9616649176836
 30
0.0
 10
185.3783449594296
 20
143.9616649176835
 30
0.0
 10
185.1975916619888
 20
143.9616649176836
 30
0.0
 10
184.7972307356669
 20
143.9616649176836
 30
0.0
 10
184.578590451548
 20
143.9616649176837
 30
0.0
 10
184.1118025008566
 20
143.9616649176836
 30
0.0
 10
183.8625176957736
 20
143.9616649176835
 30
0.0
 10
183.344619564377
 20
143.9616649176836
 30
0.0
 10
183.0747330824622
 20
143.9616649176837
 30
0.0
 10
182.8072689588747
 20
143.9616649176837
 30
0.0
  0
SPLINE
  5
163
330
1F
100
AcDbEntity
  8
0
  6
Continuous
 62
     7
370
    25
100
AcDbSpline
210
0.0
220
0.0
230
1.0
 70
    24
 71
     3
 72
    22
 73
    18
 74
     0
 42
0.000000001
 43
0.00000001
 40
0.0
 40
0.0
 40
0.0
 40
0.0
 40
0.125
 40
0.125
 40
0.25
 40
0.25
 40
0.375
 40
0.375
 40
0.5
 40
0.5
 40
0.625
 40
0.625
 40
0.75
 40
0.75
 40
0.875
 40
0.875
 40
1.0
 40
1.0
 40
1.0
 40
1.0
 10
196.1891196662841
 20
143.9616649176837
 30
0.0
 10
195.9218392493527
 20
143.9616649176837
 30
0.0
 10
195.6518527325846
 20
143.9616649176839
 30
0.0
 10
195.1363795279277
 20
143.9616649176839
 30
0.0
 10
194.8887326366479
 20
143.9616649176839
 30
0.0
 10
194.4196280646579
 20
143.9616649176839
 30
0.0
 10
194.1960176481622
 20
143.9616649176837
 30
0.0
 10
193.7943896210309
 20
143.9616649176836
 30
0.0
 10
193.616621329252
 20
143.9616649176837
 30
0.0
 10
193.3120751629391
 20
143.9616649176838
 30
0.0
 10
193.1840706477486
 20
143.9616649176838
 30
0.0
 10
192.9853014188882
 20
143.9616649176838
 30
0.0
 10
192.9132292442575
 20
143.9616649176838
 30
0.0
 10
192.8108971315379
 20
143.9616649176838
 30
0.0
 10
192.7808857383598
 20
143.9616649176838
 30
0.0
 10
192.7492354723645
 20
143.9616649176838
 30
0.0
 10
192.7481943125795
 20
143.9616649176836
 30
0.0
 10
192.7481943125795
 20
143.9616649176837
 30
0.0
  0
LINE
  5
164
330
1F
100
AcDbEntity
  8
0
  6
Continuous
 62
     7
370
    25
100
AcDbLine
 10
175.8981943126
 20
167.6616649177
 30
0.0
 11
203.0981943126
 21
167.6616649177
 31
0.0
  0
LINE
  5
165
330
1F
100
AcDbEntity
  8
0
  6
Continuous
 62
     7
370
    25
100
AcDbLine
 10
176.682055383
 20
168.1616649177
 30
0.0
 11
175.9981943126
 21
168.1616649177
 31
0.0
  0
LINE
  5
166
330
1F
100
AcDbEntity
  8
0
  6
Continuous
 62
     7
370
    25
100
AcDbLine
 10
202.9981943126
 20
168.1616649177
 30
0.0
 11
176.682055383
 21
168.1616649177
 31
0.0
  0
LINE
  5
167
330
1F
100
AcDbEntity
  8
0
  6
Continuous
 62
     7
370
    25
100
AcDbLine
 10
182.8072689589
 20
143.9616649177
 30
0.0
 11
176.4981943126
 21
143.9616649177
 31
0.0
  0
LINE
  5
168
330
1F
100
AcDbEntity
  8
0
  6
Continuous
 62
     7
370
    25
100
AcDbLine
 10
202.4981943126
 20
143.9616649177
 30
0.0
 11
196.1891196663
 21
143.9616649177
 31
0.0
  0
LINE
  5
169
330
1F
100
AcDbEntity
  8
0
  6
Continuous
 62
     7
370
    25
100
AcDbLine
 10
184.4981943126
 20
134.4616649177
 30
0.0
 11
194.4981943126
 21
134.4616649177
 31
0.0
  0
ARC
  5
16A
330
1F
100
AcDbEntity
  8
0
  6
Continuous
 62
     7
370
    25
100
AcDbCircle
 10
184.4981943126
 20
133.4616649177
 30
0.0
 40
1.0
100
AcDbArc
 50
90.0
 51
180.0
  0
LINE
  5
16B
330
1F
100
AcDbEntity
  8
0
  6
Continuous
 62
     7
370
    25
100
AcDbLine
 10
183.4981943126
 20
123.4616649177
 30
0.0
 11
183.4981943126
 21
133.4616649177
 31
0.0
  0
ARC
  5
16C
330
1F
100
AcDbEntity
  8
0
  6
Continuous
 62
     7
370
    25
100
AcDbCircle
 10
194.4981943126
 20
133.4616649177
 30
0.0
 40
1.0
100
AcDbArc
 50
0.0
 51
90.0
  0
LINE
  5
16D
330
1F
100
AcDbEntity
  8
0
  6
Continuous
 62
     7
370
    25
100
AcDbLine
 10
195.4981943126
 20
133.4616649177
 30
0.0
 11
195.4981943126
 21
123.4616649177
 31
0.0
  0
LINE
  5
16E
330
1F
100
AcDbEntity
  8
0
  6
Continuous
 62
     7
370
    25
100
AcDbLine
 10
194.4981943126
 20
122.4616649177
 30
0.0
 11
184.4981943126
 21
122.4616649177
 31
0.0
  0
ARC
  5
16F
330
1F
100
AcDbEntity
  8
0
  6
Continuous
 62
     7
370
    25
100
AcDbCircle
 10
184.4981943126
 20
123.4616649177
 30
0.0
 40
1.0
100
AcDbArc
 50
180.0
 51
270.0
  0
ARC
  5
170
330
1F
100
AcDbEntity
  8
0
  6
Continuous
 62
     7
370
    25
100
AcDbCircle
 10
194.4981943126
 20
123.4616649177
 30
0.0
 40
1.0
100
AcDbArc
 50
270.0
 51
0.0
  0
LINE
  5
171
330
1F
100
AcDbEntity
  8
0
  6
Continuous
 62
     7
370
    25
100
AcDbLine
 10
211.3981943126
 20
164.1616649177
 30
0.0
 11
203.4981943126
 21
164.1616649177
 31
0.0
  0
LINE
  5
172
330
1F
100
AcDbEntity
  8
0
  6
Continuous
 62
     7
370
    25
100
AcDbLine
 10
175.4981943126
 20
164.1616649177
 30
0.0
 11
167.5981943126
 21
164.1616649177
 31
0.0
  0
LINE
  5
173
330
1F
100
AcDbEntity
  8
0
  6
Continuous
 62
     7
370
    25
100
AcDbLine
 10
166.7358770508
 20
162.0909542396
 30
0.0
 11
175.4981943126
 21
162.0909542396
 31
0.0
  0
LINE
  5
174
330
1F
100
AcDbEntity
  8
0
  6
Continuous
 62
     7
370
    25
100
AcDbLine
 10
203.4981943126
 20
162.0909542396
 30
0.0
 11
212.2605115744
 21
162.0909542396
 31
0.0
  0
LINE
  5
175
330
1F
100
AcDbEntity
  8
0
  6
Continuous
 62
     7
370
    25
100
AcDbLine
 10
194.4981943126
 20
134.6616649177
 30
0.0
 11
184.4981943126
 21
134.6616649177
 31
0.0
  0
LINE
  5
176
330
1F
100
AcDbEntity
  8
0
  6
Continuous
 62
     7
370
    25
100
AcDbLine
 10
184.4981943126
 20
122.2616649177
 30
0.0
 11
194.4981943126
 21
122.2616649177
 31
0.0
  0
LINE
  5
177
330
1F
100
AcDbEntity
  8
0
  6
Continuous
 62
     7
370
    25
100
AcDbLine
 10
211.9910839021
 20
116.5616649177
 30
0.0
 11
167.0053047231
 21
116.5616649177
 31
0.0
  0
LINE
  5
178
330
1F
100
AcDbEntity
  8
0
  6
Continuous
 62
     7
370
    25
100
AcDbLine
 10
167.0053047231
 20
116.5616649177
 30
0.0
 11
166.8981943126
 21
116.5616649177
 31
0.0
  0
LINE
  5
179
330
1F
100
AcDbEntity
  8
0
  6
Continuous
 62
     7
370
    25
100
AcDbLine
 10
212.0981943126
 20
116.5616649177
 30
0.0
 11
211.9910839021
 21
116.5616649177
 31
0.0
  0
LINE
  5
17A
330
1F
100
AcDbEntity
  8
0
  6
Continuous
 62
     7
370
    25
100
AcDbLine
 10
212.0981943126
 20
113.9616649177
 30
0.0
 11
166.8981943126
 21
113.9616649177
 31
0.0
  0
LINE
  5
17B
330
1F
100
AcDbEntity
  8
0
  6
Continuous
 62
     7
370
    25
100
AcDbLine
 10
212.2605115744
 20
162.0909542396
 30
0.0
 11
212.3689049907
 21
162.0909542396
 31
0.0
  0
LINE
  5
17C
330
1F
100
AcDbEntity
  8
0
  6
Continuous
 62
     7
370
    25
100
AcDbLine
 10
166.6274836345
 20
162.0909542396
 30
0.0
 11
166.7358770508
 21
162.0909542396
 31
0.0
  0
LINE
  5
17D
330
1F
100
AcDbEntity
  8
0
  6
Continuous
 62
     7
370
    25
100
AcDbLine
 10
166.8766281548
 20
162.2323755958
 30
0.0
 11
166.7689049907
 21
162.2323755958
 31
0.0
  0
LINE
  5
17E
330
1F
100
AcDbEntity
  8
0
  6
Continuous
 62
     7
370
    25
100
AcDbLine
 10
212.2274836345
 20
162.2323755958
 30
0.0
 11
212.1197604703
 21
162.2323755958
 31
0.0
  0
LINE
  5
17F
330
1F
100
AcDbEntity
  8
0
  6
Continuous
 62
     7
370
    25
100
AcDbLine
 10
212.1197604703
 20
162.2323755958
 30
0.0
 11
203.4981943126
 21
162.2323755958
 31
0.0
  0
LINE
  5
180
330
1F
100
AcDbEntity
  8
0
  6
Continuous
 62
     7
370
    25
100
AcDbLine
 10
175.4981943126
 20
162.2323755958
 30
0.0
 11
166.8766281548
 21
162.2323755958
 31
0.0
  0
LINE
  5
181
330
1F
100
AcDbEntity
  8
0
  6
Continuous
 62
     7
370
    25
100
AcDbLine
 10
167.0053047231
 20
162.2616649177
 30
0.0
 11
175.4981943126
 21
162.2616649177
 31
0.0
  0
LINE
  5
182
330
1F
100
AcDbEntity
  8
0
  6
Continuous
 62
     7
370
    25
100
AcDbLine
 10
203.4981943126
 20
162.2616649177
 30
0.0
 11
211.9910839021
 21
162.2616649177
 31
0.0
  0
SPLINE
  5
183
330
1F
100
AcDbEntity
  8
0
  6
Continuous
 62
     7
370
    25
100
AcDbSpline
210
0.0
220
0.0
230
1.0
 70
     8
 71
     3
 72
    14
 73
    10
 74
     0
 42
0.000000001
 43
0.00000001
 40
0.0
 40
0.0
 40
0.0
 40
0.0
 40
0.25
 40
0.25
 40
0.5
 40
0.5
 40
0.75
 40
0.75
 40
1.0
 40
1.0
 40
1.0
 40
1.0
 10
184.4981943125792
 20
134.6616649176839
 30
0.0
 10
184.3416328353204
 20
134.6616649176839
 30
0.0
 10
184.1888562509967
 20
134.6314660400898
 30
0.0
 10
183.9012149993447
 20
134.5141573888666
 30
0.0
 10
183.7692909320744
 20
134.42763431079
 30
0.0
 10
183.5463009603698
 20
134.2088570298937
 30
0.0
 10
183.455129335233
 20
134.0757319901419
 30
0.0
 10
183.3315642640131
 20
133.7842129702681
 30
0.0
 10
183.2981943125793
 20
133.6237608118184
 30
0.0
 10
183.2981943125793
 20
133.4616649176839
 30
0.0
  0
SPLINE
  5
184
330
1F
100
AcDbEntity
  8
0
  6
Continuous
 62
     7
370
    25
100
AcDbSpline
210
0.0
220
0.0
230
1.0
 70
     8
 71
     3
 72
    14
 73
    10
 74
     0
 42
0.000000001
 43
0.00000001
 40
0.0
 40
0.0
 40
0.0
 40
0.0
 40
0.25
 40
0.25
 40
0.5
 40
0.5
 40
0.75
 40
0.75
 40
1.0
 40
1.0
 40
1.0
 40
1.0
 10
194.4981943125792
 20
122.2616649176839
 30
0.0
 10
194.6547557898382
 20
122.2616649176839
 30
0.0
 10
194.8075323741618
 20
122.2918637952779
 30
0.0
 10
195.0951736258138
 20
122.4091724465014
 30
0.0
 10
195.2270976930842
 20
122.4956955245778
 30
0.0
 10
195.4500876647887
 20
122.7144728054739
 30
0.0
 10
195.5412592899256
 20
122.8475978452259
 30
0.0
 10
195.6648243611455
 20
123.1391168650996
 30
0.0
 10
195.6981943125793
 20
123.2995690235494
 30
0.0
 10
195.6981943125793
 20
123.4616649176839
 30
0.0
  0
SPLINE
  5
185
330
1F
100
AcDbEntity
  8
0
  6
Continuous
 62
     7
370
    25
100
AcDbSpline
210
0.0
220
0.0
230
1.0
 70
     8
 71
     3
 72
    14
 73
    10
 74
     0
 42
0.000000001
 43
0.00000001
 40
0.0
 40
0.0
 40
0.0
 40
0.0
 40
0.25
 40
0.25
 40
0.5
 40
0.5
 40
0.75
 40
0.75
 40
1.0
 40
1.0
 40
1.0
 40
1.0
 10
195.6981943125793
 20
133.4616649176839
 30
0.0
 10
195.6981943125793
 20
133.6236649161388
 30
0.0
 10
195.6653636467381
 20
133.7826050364343
 30
0.0
 10
195.5414883623461
 20
134.0755251136125
 30
0.0
 10
195.4502835043866
 20
134.2085251465001
 30
0.0
 10
195.2279956670068
 20
134.4268923590777
 30
0.0
 10
195.0950043745042
 20
134.5140857070567
 30
0.0
 10
194.809573093565
 20
134.630773562195
 30
0.0
 10
194.654669104868
 20
134.6616649176839
 30
0.0
 10
194.4981943125793
 20
134.6616649176839
 30
0.0
  0
SPLINE
  5
186
330
1F
100
AcDbEntity
  8
0
  6
Continuous
 62
     7
370
    25
100
AcDbSpline
210
0.0
220
0.0
230
1.0
 70
     8
 71
     3
 72
    14
 73
    10
 74
     0
 42
0.000000001
 43
0.00000001
 40
0.0
 40
0.0
 40
0.0
 40
0.0
 40
0.25
 40
0.25
 40
0.5
 40
0.5
 40
0.75
 40
0.75
 40
1.0
 40
1.0
 40
1.0
 40
1.0
 10
183.2981943125793
 20
123.4616649176839
 30
0.0
 10
183.2981943125793
 20
123.2996649192291
 30
0.0
 10
183.3310249784204
 20
123.1407247989334
 30
0.0
 10
183.4549002628124
 20
122.8478047217555
 30
0.0
 10
183.5461051207718
 20
122.7148046888676
 30
0.0
 10
183.7683929581517
 20
122.4964374762901
 30
0.0
 10
183.9013842506543
 20
122.4092441283111
 30
0.0
 10
184.1868155315935
 20
122.2925562731727
 30
0.0
 10
184.3417195202906
 20
122.2616649176839
 30
0.0
 10
184.4981943125793
 20
122.2616649176839
 30
0.0
  0
LINE
  5
187
330
1F
100
AcDbEntity
  8
0
  6
Continuous
 62
     7
370
    25
100
AcDbLine
 10
183.2981943126
 20
133.4616649177
 30
0.0
 11
183.2981943126
 21
123.4616649177
 31
0.0
  0
LINE
  5
188
330
1F
100
AcDbEntity
  8
0
  6
Continuous
 62
     7
370
    25
100
AcDbLine
 10
195.6981943126
 20
123.4616649177
 30
0.0
 11
195.6981943126
 21
133.4616649177
 31
0.0
  0
LINE
  5
189
330
1F
100
AcDbEntity
  8
0
  6
Continuous
 62
     7
370
    25
100
AcDbLine
 10
167.7578230053
 20
162.2716649177
 30
0.0
 11
175.4981943126
 21
162.2716649177
 31
0.0
  0
LINE
  5
18A
330
1F
100
AcDbEntity
  8
0
  6
Continuous
 62
     7
370
    25
100
AcDbLine
 10
203.4981943126
 20
162.2716649177
 30
0.0
 11
211.2385656199
 21
162.2716649177
 31
0.0
  0
LINE
  5
18B
330
1F
100
AcDbEntity
  8
0
  6
Continuous
 62
     7
370
    25
100
AcDbLine
 10
211.9910839021
 20
162.2616649177
 30
0.0
 11
212.0981943126
 21
162.2616649177
 31
0.0
  0
LINE
  5
18C
330
1F
100
AcDbEntity
  8
0
  6
Continuous
 62
     7
370
    25
100
AcDbLine
 10
166.8981943126
 20
162.2616649177
 30
0.0
 11
167.0053047231
 21
162.2616649177
 31
0.0
  0
LINE
  5
18D
330
1F
100
AcDbEntity
  8
0
  6
Continuous
 62
     8
370
    18
100
AcDbLine
 10
189.4981943123
 20
177.1500626485
 30
0.0
 11
105.6034607417
 21
177.1500626485
 31
0.0
  0
LINE
  5
18E
330
1F
100
AcDbEntity
  8
0
  6
Continuous
 62
     8
370
    18
100
AcDbLine
 10
273.392927883
 20
177.1500626485
 30
0.0
 11
189.4981943123
 21
177.1500626485
 31
0.0
  0
SPLINE
  5
18F
330
1F
100
AcDbEntity
  8
0
  6
Continuous
 62
     8
370
    18
100
AcDbSpline
210
0.0
220
0.0
230
1.0
 70
     8
 71
     3
 72
    21
 73
    17
 74
     0
 42
0.000000001
 43
0.00000001
 40
0.0
 40
0.0
 40
0.0
 40
0.0
 40
0.0562903888062159
 40
0.1123394979409529
 40
0.1681509031315663
 40
0.2237282259876212
 40
0.2790751340721251
 40
0.3341953409438856
 40
0.3890926061698405
 40
0.4437707353061939
 40
0.4982335798472377
 40
0.5972270017546444
 40
0.6968778182255302
 40
0.7972087959017883
 40
0.8982422415728957
 40
1.0
 40
1.0
 40
1.0
 40
1.0
 10
186.2481731814521
 20
156.7048221806723
 30
0.0
 10
186.367914077704
 20
156.7136496031246
 30
0.0
 10
186.6068826201713
 20
156.7312666107069
 30
0.0
 10
186.9674120846284
 20
156.7539417568608
 30
0.0
 10
187.3281370349417
 20
156.7737922247028
 30
0.0
 10
187.6890149757489
 20
156.7905562969343
 30
0.0
 10
188.0497266534059
 20
156.8043036561868
 30
0.0
 10
188.4100327484128
 20
156.8150157081818
 30
0.0
 10
188.7696781135691
 20
156.8226975113599
 30
0.0
 10
189.1284210249576
 20
156.8273472806028
 30
0.0
 10
189.5839319206663
 20
156.8294106250076
 30
0.0
 10
190.1379429904541
 20
156.8252682437949
 30
0.0
 10
190.7908267628403
 20
156.8104675394731
 30
0.0
 10
191.4448766803325
 20
156.7854985312524
 30
0.0
 10
192.0992922277974
 20
156.7512190184747
 30
0.0
 10
192.5313825430547
 20
156.720116361381
 30
0.0
 10
192.7481993528082
 20
156.7045094878922
 30
0.0
  0
SPLINE
  5
190
330
1F
100
AcDbEntity
  8
0
  6
Continuous
 62
     8
370
    18
100
AcDbSpline
210
0.0
220
0.0
230
1.0
 70
     8
 71
     3
 72
    24
 73
    20
 74
     0
 42
0.000000001
 43
0.00000001
 40
0.0
 40
0.0
 40
0.0
 40
0.0
 40
0.0244089536966062
 40
0.048825873379702
 40
0.0732959274442412
 40
0.0978639912248558
 40
0.1492801989866233
 40
0.2009201502152604
 40
0.255566943421881
 40
0.3106742111738023
 40
0.4284870256972916
 40
0.5562087767167079
 40
0.625051082592619
 40
0.6947395797015556
 40
0.7691911508143688
 40
0.8444284465249394
 40
0.8961754682160553
 40
0.9479613563691398
 40
1.0
 40
1.0
 40
1.0
 40
1.0
 10
192.7481942216569
 20
156.7045096053931
 30
0.0
 10
192.8066050254963
 20
156.6981741851183
 30
0.0
 10
192.9234456958387
 20
156.6855012769719
 30
0.0
 10
193.0969190900671
 20
156.656647074766
 30
0.0
 10
193.2689312572313
 20
156.6205940917873
 30
0.0
 10
193.501038519299
 20
156.5607314460195
 30
0.0
 10
193.7892366884168
 20
156.4648018623043
 30
0.0
 10
194.1310337083522
 20
156.3138434336275
 30
0.0
 10
194.4635540896369
 20
156.1272226025125
 30
0.0
 10
194.9039444128559
 20
155.8204527012635
 30
0.0
 10
195.4227113277173
 20
155.3306674258529
 30
0.0
 10
195.8581765108732
 20
154.7163638895708
 30
0.0
 10
196.1525573174208
 20
154.1465919668557
 30
0.0
 10
196.3463560771304
 20
153.6671033393526
 30
0.0
 10
196.5024298984533
 20
153.1537025656911
 30
0.0
 10
196.604650588513
 20
152.668424509481
 30
0.0
 10
196.6650294347473
 20
152.2312453944403
 30
0.0
 10
196.6977904797925
 20
151.8475932518063
 30
0.0
 10
196.701797729419
 20
151.5905163092521
 30
0.0
 10
196.7038062319537
 20
151.4616649176837
 30
0.0
  0
SPLINE
  5
191
330
1F
100
AcDbEntity
  8
0
  6
Continuous
 62
     8
370
    18
100
AcDbSpline
210
0.0
220
0.0
230
1.0
 70
     8
 71
     3
 72
    24
 73
    20
 74
     0
 42
0.000000001
 43
0.00000001
 40
0.0
 40
0.0
 40
0.0
 40
0.0
 40
0.0313965838690735
 40
0.0626701743565698
 40
0.0938672300040238
 40
0.1250345515700928
 40
0.1562190736299133
 40
0.2311805427854308
 40
0.305756782566028
 40
0.3750735274567404
 40
0.4436596408143706
 40
0.5712783485516815
 40
0.6888029567245587
 40
0.743910997630873
 40
0.7987361782876886
 40
0.8504303133125479
 40
0.9018091679882949
 40
0.9510036401246029
 40
1.0
 40
1.0
 40
1.0
 40
1.0
 10
182.2925823932052
 20
151.4616649176837
 30
0.0
 10
182.2933127960196
 20
151.5393961361179
 30
0.0
 10
182.294770740359
 20
151.6945540677111
 30
0.0
 10
182.3066398066208
 20
151.926609604867
 30
0.0
 10
182.3256206334098
 20
152.1574099606593
 30
0.0
 10
182.352431977562
 20
152.3869586369304
 30
0.0
 10
182.402970367456
 20
152.7218446472652
 30
0.0
 10
182.4950386845809
 20
153.1571197772463
 30
0.0
 10
182.651002382553
 20
153.6691808213704
 30
0.0
 10
182.8442556997025
 20
154.1475725442135
 30
0.0
 10
183.1378241208484
 20
154.7157910294029
 30
0.0
 10
183.5724317300218
 20
155.3287359497403
 30
0.0
 10
184.0899267974329
 20
155.8185262820418
 30
0.0
 10
184.5298545304042
 20
156.1255259559861
 30
0.0
 10
184.8627944622372
 20
156.3124497519328
 30
0.0
 10
185.2048822894146
 20
156.4639756227457
 30
0.0
 10
185.5486559640041
 20
156.5782155015813
 30
0.0
 10
185.8966211380365
 20
156.6617424272222
 30
0.0
 10
186.1311652247169
 20
156.6902733744699
 30
0.0
 10
186.2482006570704
 20
156.70451006572
 30
0.0
  0
LINE
  5
192
330
1F
100
AcDbEntity
  8
0
  6
Continuous
 62
     8
370
    18
100
AcDbLine
 10
182.2925823932
 20
144.9616649177
 30
0.0
 11
182.2925823932
 21
151.4616649177
 31
0.0
  0
LINE
  5
193
330
1F
100
AcDbEntity
  8
0
  6
Continuous
 62
     8
370
    18
100
AcDbLine
 10
196.703806232
 20
151.4616649177
 30
0.0
 11
196.703806232
 21
144.9616649177
 31
0.0
  0
LWPOLYLINE
  5
194
330
1F
100
AcDbEntity
  8
0
  6
Continuous
 62
     8
370
    18
100
AcDbPolyline
 90
        9
 70
   128
 43
0.0
 10
182.8072689589
 20
143.9616649177
 10
182.706858591
 20
143.9808796373
 10
182.6103069373
 20
144.0377853852
 10
182.5213244237
 20
144.1301953054
 10
182.4433305981
 20
144.2545581365
 10
182.3793227197
 20
144.4060946847
 10
182.3317605752
 20
144.5789814853
 10
182.3024719512
 20
144.7665745957
 10
182.2925823932
 20
144.9616649177
  0
LWPOLYLINE
  5
195
330
1F
100
AcDbEntity
  8
0
  6
Continuous
 62
     8
370
    18
100
AcDbPolyline
 90
        9
 70
   128
 43
0.0
 10
196.703806232
 20
144.9616649177
 10
196.6939166739
 20
144.7665745957
 10
196.66462805
 20
144.5789814853
 10
196.6170659055
 20
144.4060946847
 10
196.5530580271
 20
144.2545581365
 10
196.4750642015
 20
144.1301953054
 10
196.3860816878
 20
144.0377853852
 10
196.2895300341
 20
143.9808796373
 10
196.1891196663
 20
143.9616649177
  0
ARC
  5
196
330
1F
100
AcDbEntity
  8
0
  6
Continuous
 62
     8
370
    18
100
AcDbCircle
 10
211.9884791735
 20
161.9616889383
 30
0.0
 40
0.3011829099592812
100
AcDbArc
 50
359.9954304212
 51
25.4162945777
  0
LINE
  5
197
330
1F
100
AcDbEntity
  8
0
  6
Continuous
 62
     8
370
    18
100
AcDbLine
 10
212.2896620825
 20
161.9616649177
 30
0.0
 11
203.4981943126
 21
161.9616649177
 31
0.0
  0
LINE
  5
198
330
1F
100
AcDbEntity
  8
0
  6
Continuous
 62
     8
370
    18
100
AcDbLine
 10
175.4981943126
 20
161.9616649177
 30
0.0
 11
166.7067265427
 21
161.9616649177
 31
0.0
  0
ARC
  5
199
330
1F
100
AcDbEntity
  8
0
  6
Continuous
 62
     8
370
    18
100
AcDbCircle
 10
167.0079094517
 20
161.9616889383
 30
0.0
 40
0.3011829099428135
100
AcDbArc
 50
154.5837054216
 51
180.0045695795
  0
LINE
  5
19A
330
1F
100
AcDbEntity
  8
0
  6
Continuous
 62
     8
370
    18
100
AcDbLine
 10
212.2896620825
 20
161.9616649177
 30
0.0
 11
212.2896620825
 21
116.8616649177
 31
0.0
  0
LINE
  5
19B
330
1F
100
AcDbEntity
  8
0
  6
Continuous
 62
     8
370
    18
100
AcDbLine
 10
166.7067265427
 20
116.8616649177
 30
0.0
 11
166.7067265427
 21
161.9616649177
 31
0.0
  0
SPLINE
  5
19C
330
1F
100
AcDbEntity
  8
0
  6
Continuous
 62
     8
370
    18
100
AcDbSpline
210
0.0
220
0.0
230
1.0
 70
     8
 71
     3
 72
    18
 73
    14
 74
     0
 42
0.000000001
 43
0.00000001
 40
0.0
 40
0.0
 40
0.0
 40
0.0
 40
0.2499999999999559
 40
0.2499999999999559
 40
0.3749999999999677
 40
0.3749999999999677
 40
0.4999999999999796
 40
0.4999999999999796
 40
0.6249999999999913
 40
0.6249999999999913
 40
0.7500000000000032
 40
0.7500000000000032
 40
1.0
 40
1.0
 40
1.0
 40
1.0
 10
195.9545819777775
 20
123.4616649176839
 30
0.0
 10
195.9545819777775
 20
123.2727732765725
 30
0.0
 10
195.9154112352739
 20
123.0857531990718
 30
0.0
 10
195.8064475322033
 20
122.8307005533261
 30
0.0
 10
195.7609966905958
 20
122.748255102473
 30
0.0
 10
195.6562784070384
 20
122.5962228284483
 30
0.0
 10
195.5971892407271
 20
122.5263752369478
 30
0.0
 10
195.4658842423988
 20
122.3986287056367
 30
0.0
 10
195.393133770118
 20
122.3406114061281
 30
0.0
 10
195.2405682412754
 20
122.24141649776
 30
0.0
 10
195.1601151058256
 20
122.1994860206551
 30
0.0
 10
194.9060746610448
 20
122.0968205185459
 30
0.0
 10
194.7262893596459
 20
122.0616649176839
 30
0.0
 10
194.5422471760154
 20
122.0616649176839
 30
0.0
  0
LINE
  5
19D
330
1F
100
AcDbEntity
  8
0
  6
Continuous
 62
     8
370
    18
100
AcDbLine
 10
195.9545819778
 20
133.4616649177
 30
0.0
 11
195.9545819778
 21
123.4616649177
 31
0.0
  0
SPLINE
  5
19E
330
1F
100
AcDbEntity
  8
0
  6
Continuous
 62
     8
370
    18
100
AcDbSpline
210
0.0
220
0.0
230
1.0
 70
     8
 71
     3
 72
    16
 73
    12
 74
     0
 42
0.000000001
 43
0.00000001
 40
0.0
 40
0.0
 40
0.0
 40
0.0
 40
0.249999999999983
 40
0.249999999999983
 40
0.499999999999966
 40
0.499999999999966
 40
0.749999999999949
 40
0.749999999999949
 40
0.8749999999999745
 40
0.8749999999999745
 40
1.0
 40
1.0
 40
1.0
 40
1.0
 10
194.5422471760154
 20
134.8616649176839
 30
0.0
 10
194.7261880773974
 20
134.861664917684
 30
0.0
 10
194.9084856421953
 20
134.8256979542753
 30
0.0
 10
195.244584820801
 20
134.6895429641676
 30
0.0
 10
195.4012838085176
 20
134.5877117415753
 30
0.0
 10
195.6630649471177
 20
134.3327024894423
 30
0.0
 10
195.7703922014149
 20
134.1774109565311
 30
0.0
 10
195.8796298555866
 20
133.9211354865016
 30
0.0
 10
195.90783199908
 20
133.8307647548556
 30
0.0
 10
195.9450513616259
 20
133.6487182282625
 30
0.0
 10
195.9545819777775
 20
133.5560538937583
 30
0.0
 10
195.9545819777775
 20
133.4616649176839
 30
0.0
  0
LINE
  5
19F
330
1F
100
AcDbEntity
  8
0
  6
Continuous
 62
     8
370
    18
100
AcDbLine
 10
184.4541414491
 20
134.8616649177
 30
0.0
 11
194.542247176
 21
134.8616649177
 31
0.0
  0
SPLINE
  5
1A0
330
1F
100
AcDbEntity
  8
0
  6
Continuous
 62
     8
370
    18
100
AcDbSpline
210
0.0
220
0.0
230
1.0
 70
     8
 71
     3
 72
    18
 73
    14
 74
     0
 42
0.000000001
 43
0.00000001
 40
0.0
 40
0.0
 40
0.0
 40
0.0
 40
0.2500000000000582
 40
0.2500000000000582
 40
0.375000000000053
 40
0.375000000000053
 40
0.5000000000000477
 40
0.5000000000000477
 40
0.6250000000000425
 40
0.6250000000000425
 40
0.7500000000000373
 40
0.7500000000000373
 40
1.0
 40
1.0
 40
1.0
 40
1.0
 10
183.041806647381
 20
133.4616649176839
 30
0.0
 10
183.041806647381
 20
133.6505565587952
 30
0.0
 10
183.0809773898847
 20
133.837576636296
 30
0.0
 10
183.1899410929552
 20
134.0926292820417
 30
0.0
 10
183.2353919345627
 20
134.1750747328949
 30
0.0
 10
183.3401102181202
 20
134.3271070069196
 30
0.0
 10
183.3991993844315
 20
134.3969545984199
 30
0.0
 10
183.5305043827597
 20
134.5247011297313
 30
0.0
 10
183.6032548550405
 20
134.5827184292398
 30
0.0
 10
183.7558203838831
 20
134.6819133376077
 30
0.0
 10
183.836273519333
 20
134.7238438147125
 30
0.0
 10
184.0903139641137
 20
134.8265093168219
 30
0.0
 10
184.2700992655126
 20
134.861664917684
 30
0.0
 10
184.4541414491431
 20
134.8616649176839
 30
0.0
  0
LINE
  5
1A1
330
1F
100
AcDbEntity
  8
0
  6
Continuous
 62
     8
370
    18
100
AcDbLine
 10
183.0418066474
 20
123.4616649177
 30
0.0
 11
183.0418066474
 21
133.4616649177
 31
0.0
  0
SPLINE
  5
1A2
330
1F
100
AcDbEntity
  8
0
  6
Continuous
 62
     8
370
    18
100
AcDbSpline
210
0.0
220
0.0
230
1.0
 70
     8
 71
     3
 72
    16
 73
    12
 74
     0
 42
0.000000001
 43
0.00000001
 40
0.0
 40
0.0
 40
0.0
 40
0.0
 40
0.25
 40
0.25
 40
0.5
 40
0.5
 40
0.75
 40
0.75
 40
0.875
 40
0.875
 40
1.0
 40
1.0
 40
1.0
 40
1.0
 10
184.4541414491431
 20
122.0616649176839
 30
0.0
 10
184.2702005477611
 20
122.061664917684
 30
0.0
 10
184.0879029829632
 20
122.0976318810925
 30
0.0
 10
183.7518038043575
 20
122.2337868712004
 30
0.0
 10
183.5951048166409
 20
122.3356180937925
 30
0.0
 10
183.3333236780408
 20
122.5906273459254
 30
0.0
 10
183.2259964237437
 20
122.7459188788366
 30
0.0
 10
183.1167587695719
 20
123.0021943488664
 30
0.0
 10
183.0885566260785
 20
123.0925650805121
 30
0.0
 10
183.0513372635326
 20
123.2746116071054
 30
0.0
 10
183.041806647381
 20
123.3672759416095
 30
0.0
 10
183.041806647381
 20
123.4616649176839
 30
0.0
  0
LINE
  5
1A3
330
1F
100
AcDbEntity
  8
0
  6
Continuous
 62
     8
370
    18
100
AcDbLine
 10
194.542247176
 20
122.0616649177
 30
0.0
 11
184.4541414491
 21
122.0616649177
 31
0.0
  0
ARC
  5
1A4
330
1F
100
AcDbEntity
  8
0
  6
Continuous
 62
     8
370
    18
100
AcDbCircle
 10
184.7141810967
 20
134.8140907362
 30
0.0
 40
0.2643556715113198
100
AcDbArc
 50
169.6324081516
 51
215.2113175309
  0
ARC
  5
1A5
330
1F
100
AcDbEntity
  8
0
  6
Continuous
 62
     8
370
    18
100
AcDbCircle
 10
194.2822075284
 20
134.8140907362
 30
0.0
 40
0.2643556715108991
100
AcDbArc
 50
324.788682469
 51
10.3675918484
  0
ARC
  5
1A6
330
1F
100
AcDbEntity
  8
0
  6
Continuous
 62
     8
370
    18
100
AcDbCircle
 10
184.7141810967
 20
122.1092390992
 30
0.0
 40
0.2643556715112106
100
AcDbArc
 50
144.788682469
 51
190.3675918484
  0
ARC
  5
1A7
330
1F
100
AcDbEntity
  8
0
  6
Continuous
 62
     8
370
    18
100
AcDbCircle
 10
194.2822075284
 20
122.1092390992
 30
0.0
 40
0.2643556715108783
100
AcDbArc
 50
349.6324081516
 51
35.211317531
  0
ARC
  5
1A8
330
1F
100
AcDbEntity
  8
0
  6
Continuous
 62
     8
370
    18
100
AcDbCircle
 10
167.0060173256
 20
116.8609556925
 30
0.0
 40
0.2992916231797507
100
AcDbArc
 50
179.8642272507
 51
269.8635807041
  0
ARC
  5
1A9
330
1F
100
AcDbEntity
  8
0
  6
Continuous
 62
     8
370
    18
100
AcDbCircle
 10
211.9903712996
 20
116.8609556925
 30
0.0
 40
0.2992916231798082
100
AcDbArc
 50
270.136419296
 51
0.1357727493
  0
ARC
  5
1AA
330
1F
100
AcDbEntity
  8
0
  6
Continuous
 62
     8
370
    18
100
AcDbCircle
 10
167.0053288581
 20
161.9642573014
 30
0.0
 40
0.2974076172328645
100
AcDbArc
 50
90.0046496219
 51
115.6416869804
  0
ARC
  5
1AB
330
1F
100
AcDbEntity
  8
0
  6
Continuous
 62
     8
370
    18
100
AcDbCircle
 10
211.9910597671
 20
161.9642573014
 30
0.0
 40
0.2974076172180259
100
AcDbArc
 50
64.358313019
 51
89.9953503788
  0
LINE
  5
1AC
330
1F
100
AcDbEntity
  8
0
  6
Continuous
 62
     8
370
    18
100
AcDbLine
 10
183.2981943126
 20
133.4616649177
 30
0.0
 11
183.0418066474
 21
133.4616649177
 31
0.0
  0
LINE
  5
1AD
330
1F
100
AcDbEntity
  8
0
  6
Continuous
 62
     8
370
    18
100
AcDbLine
 10
195.9545819778
 20
123.4616649177
 30
0.0
 11
195.6981943126
 21
123.4616649177
 31
0.0
  0
LINE
  5
1AE
330
1F
100
AcDbEntity
  8
0
  6
Continuous
 62
     8
370
    18
100
AcDbLine
 10
195.9545819778
 20
133.4616649177
 30
0.0
 11
195.6981943126
 21
133.4616649177
 31
0.0
  0
LINE
  5
1AF
330
1F
100
AcDbEntity
  8
0
  6
Continuous
 62
     8
370
    18
100
AcDbLine
 10
183.2981943126
 20
123.4616649177
 30
0.0
 11
183.0418066474
 21
123.4616649177
 31
0.0
  0
LINE
  5
1B0
330
1F
100
AcDbEntity
  8
0
  6
Continuous
 62
     8
370
    18
100
AcDbLine
 10
166.7067265427
 20
161.9616649177
 30
0.0
 11
166.5981943126
 21
161.9616649177
 31
0.0
  0
LINE
  5
1B1
330
1F
100
AcDbEntity
  8
0
  6
Continuous
 62
     8
370
    18
100
AcDbLine
 10
212.3981943126
 20
161.9616649177
 30
0.0
 11
212.2896620825
 21
161.9616649177
 31
0.0
  0
LINE
  5
1B2
330
1F
100
AcDbEntity
  8
0
  6
Continuous
 62
     8
370
    18
100
AcDbLine
 10
212.2896620825
 20
116.8616649177
 30
0.0
 11
212.3981943126
 21
116.8616649177
 31
0.0
  0
LINE
  5
1B3
330
1F
100
AcDbEntity
  8
0
  6
Continuous
 62
     8
370
    18
100
AcDbLine
 10
166.5981943126
 20
116.8616649177
 30
0.0
 11
166.7067265427
 21
116.8616649177
 31
0.0
  0
ENDSEC
  0
SECTION
  2
OBJECTS
  0
DICTIONARY
  5
C
330
0
100
AcDbDictionary
281
     1
  3
ACAD_GROUP
350
D
  3
ACAD_LAYOUT
350
1A
  3
ACAD_MLINESTYLE
350
17
  3
ACAD_PLOTSETTINGS
350
19
  3
ACAD_PLOTSTYLENAME
350
E
  3
ACAD_SCALELIST
350
47
  0
DICTIONARY
  5
D
102
{ACAD_REACTORS
330
C
102
}
330
C
100
AcDbDictionary
281
     1
  0
DICTIONARY
  5
1A
102
{ACAD_REACTORS
330
C
102
}
330
C
100
AcDbDictionary
281
     1
  3
Layout1
350
1E
  3
Layout2
350
26
  3
Model
350
22
  0
DICTIONARY
  5
17
102
{ACAD_REACTORS
330
C
102
}
330
C
100
AcDbDictionary
281
     1
  3
Standard
350
18
  0
DICTIONARY
  5
19
102
{ACAD_REACTORS
330
C
102
}
330
C
100
AcDbDictionary
281
     1
  0
ACDBDICTIONARYWDFLT
  5
E
102
{ACAD_REACTORS
330
C
102
}
330
C
100
AcDbDictionary
281
     1
  3
Normal
350
F
100
AcDbDictionaryWithDefault
340
F
  0
DICTIONARY
  5
47
102
{ACAD_REACTORS
330
C
102
}
330
C
100
AcDbDictionary
281
     1
  3
A0
350
48
  3
A1
350
49
  3
A2
350
4A
  3
A3
350
4B
  3
A4
350
4C
  3
A5
350
4D
  3
A6
350
4E
  3
A7
350
4F
  3
A8
350
50
  3
A9
350
51
  3
B0
350
52
  3
B1
350
53
  3
B2
350
54
  3
B3
350
55
  3
B4
350
56
  3
B5
350
57
  3
B6
350
58
  3
B7
350
59
  3
B8
350
5A
  3
B9
350
5B
  3
C0
350
5C
  3
C1
350
5D
  3
C2
350
5E
  3
C3
350
5F
  3
C4
350
60
  3
C5
350
61
  3
C6
350
62
  3
C7
350
63
  3
C8
350
64
  3
C9
350
65
  3
D0
350
66
  3
D1
350
67
  3
D2
350
68
  0
LAYOUT
  5
1E
102
{ACAD_REACTORS
330
1A
102
}
330
1A
100
AcDbPlotSettings
  1

  2
none_device
  4

  6

 40
0.0
 41
0.0
 42
0.0
 43
0.0
 44
0.0
 45
0.0
 46
0.0
 47
0.0
 48
0.0
 49
0.0
140
0.0
141
0.0
142
1.0
143
1.0
 70
   688
 72
     1
 73
     0
 74
     5
  7

 75
    16
147
1.0
148
0.0
149
0.0
100
AcDbLayout
  1
Layout1
 70
     1
 71
     1
 10
0.0
 20
0.0
 11
420.0
 21
297.0
 12
0.0
 22
0.0
 32
0.0
 14
1.0000000000E+20
 24
1.0000000000E+20
 34
1.0000000000E+20
 15
-1.0000000000E+20
 25
-1.0000000000E+20
 35
-1.0000000000E+20
146
0.0
 13
0.0
 23
0.0
 33
0.0
 16
1.0
 26
0.0
 36
0.0
 17
0.0
 27
1.0
 37
0.0
 76
     0
330
1B
  0
LAYOUT
  5
26
102
{ACAD_REACTORS
330
1A
102
}
330
1A
100
AcDbPlotSettings
  1

  2
none_device
  4

  6

 40
0.0
 41
0.0
 42
0.0
 43
0.0
 44
0.0
 45
0.0
 46
0.0
 47
0.0
 48
0.0
 49
0.0
140
0.0
141
0.0
142
1.0
143
1.0
 70
   688
 72
     1
 73
     0
 74
     5
  7

 75
    16
147
1.0
148
0.0
149
0.0
100
AcDbLayout
  1
Layout2
 70
     1
 71
     2
 10
0.0
 20
0.0
 11
0.0
 21
0.0
 12
0.0
 22
0.0
 32
0.0
 14
0.0
 24
0.0
 34
0.0
 15
0.0
 25
0.0
 35
0.0
146
0.0
 13
0.0
 23
0.0
 33
0.0
 16
1.0
 26
0.0
 36
0.0
 17
0.0
 27
1.0
 37
0.0
 76
     0
330
23
  0
LAYOUT
  5
22
102
{ACAD_REACTORS
330
1A
102
}
330
1A
100
AcDbPlotSettings
  1

  2
none_device
  4
Letter_(8.50_x_11.00_Inches)
  6

 40
6.35
 41
6.35
 42
6.35000508
 43
6.35000508
 44
215.9
 45
279.4
 46
0.0
 47
0.0
 48
0.0
 49
0.0
140
0.0
141
0.0
142
1.0
143
1.0
 70
  1712
 72
     1
 73
     0
 74
     0
  7

 75
     0
147
1.0
148
0.0
149
0.0
100
AcDbLayout
  1
Model
 70
     1
 71
     0
 10
0.0
 20
0.0
 11
594.0
 21
841.0
 12
0.0
 22
0.0
 32
0.0
 14
0.0
 24
0.0
 34
0.0
 15
594.0
 25
841.0
 35
0.0
146
0.0
 13
0.0
 23
0.0
 33
0.0
 16
1.0
 26
0.0
 36
0.0
 17
0.0
 27
1.0
 37
0.0
 76
     0
330
1F
331
29
  0
MLINESTYLE
  5
18
102
{ACAD_REACTORS
330
17
102
}
330
17
100
AcDbMlineStyle
  2
Standard
 70
     0
  3

 62
   256
 51
90.0
 52
90.0
 71
     2
 49
0.5
 62
   256
  6
BYLAYER
 49
-0.5
 62
   256
  6
BYLAYER
  0
ACDBPLACEHOLDER
  5
F
102
{ACAD_REACTORS
330
E
102
}
330
E
  0
SCALE
  5
48
102
{ACAD_REACTORS
330
47
102
}
330
47
100
AcDbScale
 70
     0
300
1:1
140
1.0
141
1.0
290
     1
  0
SCALE
  5
49
102
{ACAD_REACTORS
330
47
102
}
330
47
100
AcDbScale
 70
     0
300
1:2
140
1.0
141
2.0
290
     0
  0
SCALE
  5
4A
102
{ACAD_REACTORS
330
47
102
}
330
47
100
AcDbScale
 70
     0
300
1:4
140
1.0
141
4.0
290
     0
  0
SCALE
  5
4B
102
{ACAD_REACTORS
330
47
102
}
330
47
100
AcDbScale
 70
     0
300
1:5
140
1.0
141
5.0
290
     0
  0
SCALE
  5
4C
102
{ACAD_REACTORS
330
47
102
}
330
47
100
AcDbScale
 70
     0
300
1:8
140
1.0
141
8.0
290
     0
  0
SCALE
  5
4D
102
{ACAD_REACTORS
330
47
102
}
330
47
100
AcDbScale
 70
     0
300
1:10
140
1.0
141
10.0
290
     0
  0
SCALE
  5
4E
102
{ACAD_REACTORS
330
47
102
}
330
47
100
AcDbScale
 70
     0
300
1:16
140
1.0
141
16.0
290
     0
  0
SCALE
  5
4F
102
{ACAD_REACTORS
330
47
102
}
330
47
100
AcDbScale
 70
     0
300
1:20
140
1.0
141
20.0
290
     0
  0
SCALE
  5
50
102
{ACAD_REACTORS
330
47
102
}
330
47
100
AcDbScale
 70
     0
300
1:30
140
1.0
141
30.0
290
     0
  0
SCALE
  5
51
102
{ACAD_REACTORS
330
47
102
}
330
47
100
AcDbScale
 70
     0
300
1:40
140
1.0
141
40.0
290
     0
  0
SCALE
  5
52
102
{ACAD_REACTORS
330
47
102
}
330
47
100
AcDbScale
 70
     0
300
1:50
140
1.0
141
50.0
290
     0
  0
SCALE
  5
53
102
{ACAD_REACTORS
330
47
102
}
330
47
100
AcDbScale
 70
     0
300
1:100
140
1.0
141
100.0
290
     0
  0
SCALE
  5
54
102
{ACAD_REACTORS
330
47
102
}
330
47
100
AcDbScale
 70
     0
300
2:1
140
2.0
141
1.0
290
     0
  0
SCALE
  5
55
102
{ACAD_REACTORS
330
47
102
}
330
47
100
AcDbScale
 70
     0
300
4:1
140
4.0
141
1.0
290
     0
  0
SCALE
  5
56
102
{ACAD_REACTORS
330
47
102
}
330
47
100
AcDbScale
 70
     0
300
8:1
140
8.0
141
1.0
290
     0
  0
SCALE
  5
57
102
{ACAD_REACTORS
330
47
102
}
330
47
100
AcDbScale
 70
     0
300
10:1
140
10.0
141
1.0
290
     0
  0
SCALE
  5
58
102
{ACAD_REACTORS
330
47
102
}
330
47
100
AcDbScale
 70
     0
300
100:1
140
100.0
141
1.0
290
     0
  0
SCALE
  5
59
102
{ACAD_REACTORS
330
47
102
}
330
47
100
AcDbScale
 70
     0
300
1/128" = 1'-0"
140
0.0078125
141
12.0
290
     0
  0
SCALE
  5
5A
102
{ACAD_REACTORS
330
47
102
}
330
47
100
AcDbScale
 70
     0
300
1/64" = 1'-0"
140
0.015625
141
12.0
290
     0
  0
SCALE
  5
5B
102
{ACAD_REACTORS
330
47
102
}
330
47
100
AcDbScale
 70
     0
300
1/32" = 1'-0"
140
0.03125
141
12.0
290
     0
  0
SCALE
  5
5C
102
{ACAD_REACTORS
330
47
102
}
330
47
100
AcDbScale
 70
     0
300
1/16" = 1'-0"
140
0.0625
141
12.0
290
     0
  0
SCALE
  5
5D
102
{ACAD_REACTORS
330
47
102
}
330
47
100
AcDbScale
 70
     0
300
3/32" = 1'-0"
140
0.09375
141
12.0
290
     0
  0
SCALE
  5
5E
102
{ACAD_REACTORS
330
47
102
}
330
47
100
AcDbScale
 70
     0
300
1/8" = 1'-0"
140
0.125
141
12.0
290
     0
  0
SCALE
  5
5F
102
{ACAD_REACTORS
330
47
102
}
330
47
100
AcDbScale
 70
     0
300
3/16" = 1'-0"
140
0.1875
141
12.0
290
     0
  0
SCALE
  5
60
102
{ACAD_REACTORS
330
47
102
}
330
47
100
AcDbScale
 70
     0
300
1/4" = 1'-0"
140
0.25
141
12.0
290
     0
  0
SCALE
  5
61
102
{ACAD_REACTORS
330
47
102
}
330
47
100
AcDbScale
 70
     0
300
3/8" = 1'-0"
140
0.375
141
12.0
290
     0
  0
SCALE
  5
62
102
{ACAD_REACTORS
330
47
102
}
330
47
100
AcDbScale
 70
     0
300
1/2" = 1'-0"
140
0.5
141
12.0
290
     0
  0
SCALE
  5
63
102
{ACAD_REACTORS
330
47
102
}
330
47
100
AcDbScale
 70
     0
300
3/4" = 1'-0"
140
0.75
141
12.0
290
     0
  0
SCALE
  5
64
102
{ACAD_REACTORS
330
47
102
}
330
47
100
AcDbScale
 70
     0
300
1" = 1'-0"
140
1.0
141
12.0
290
     0
  0
SCALE
  5
65
102
{ACAD_REACTORS
330
47
102
}
330
47
100
AcDbScale
 70
     0
300
1-1/2" = 1'-0"
140
1.5
141
12.0
290
     0
  0
SCALE
  5
66
102
{ACAD_REACTORS
330
47
102
}
330
47
100
AcDbScale
 70
     0
300
3" = 1'-0"
140
3.0
141
12.0
290
     0
  0
SCALE
  5
67
102
{ACAD_REACTORS
330
47
102
}
330
47
100
AcDbScale
 70
     0
300
6" = 1'-0"
140
6.0
141
12.0
290
     0
  0
SCALE
  5
68
102
{ACAD_REACTORS
330
47
102
}
330
47
100
AcDbScale
 70
     0
300
1'-0" = 1'-0"
140
12.0
141
12.0
290
     0
  0
ENDSEC
  0
EOF
