  0
SECTION
  2
HEADER
  9
$ACADVER
  1
AC1024
  9
$ACADMAINTVER
 70
     6
  9
$DWGCODEPAGE
  3
ANSI_1252
  9
$INSBASE
 10
0.0
 20
0.0
 30
0.0
  9
$EXTMIN
 10
0.0
 20
0.0
 30
0.0
  9
$EXTMAX
 10
594.0
 20
841.0
 30
0.0
  9
$LIMMIN
 10
0.0
 20
0.0
  9
$LIMMAX
 10
594.0
 20
841.0
  9
$ORTHOMODE
 70
     0
  9
$REGENMODE
 70
     1
  9
$FILLMODE
 70
     1
  9
$QTEXTMODE
 70
     0
  9
$MIRRTEXT
 70
     1
  9
$LTSCALE
 40
1.0
  9
$ATTMODE
 70
     1
  9
$TEXTSIZE
 40
10.0
  9
$TRACEWID
 40
1.0
  9
$TEXTSTYLE
  7
Standard
  9
$CLAYER
  8
0
  9
$CELTYPE
  6
ByLayer
  9
$CECOLOR
 62
   256
  9
$CELTSCALE
 40
1.0
  9
$DISPSILH
 70
     0
  9
$DIMSCALE
 40
1.0
  9
$DIMASZ
 40
2.5
  9
$DIMEXO
 40
0.0
  9
$DIMDLI
 40
3.75
  9
$DIMRND
 40
0.0
  9
$DIMDLE
 40
0.0
  9
$DIMEXE
 40
1.0
  9
$DIMTP
 40
0.0
  9
$DIMTM
 40
0.0
  9
$DIMTXT
 40
3.5
  9
$DIMCEN
 40
2.5
  9
$DIMTSZ
 40
0.0
  9
$DIMTOL
 70
     0
  9
$DIMLIM
 70
     0
  9
$DIMTIH
 70
     1
  9
$DIMTOH
 70
     1
  9
$DIMSE1
 70
     0
  9
$DIMSE2
 70
     0
  9
$DIMTAD
 70
     1
  9
$DIMZIN
 70
     0
  9
$DIMBLK
  1

  9
$DIMASO
 70
     1
  9
$DIMSHO
 70
     1
  9
$DIMPOST
  1

  9
$DIMAPOST
  1

  9
$DIMALT
 70
     0
  9
$DIMALTD
 70
     3
  9
$DIMALTF
 40
0.0393700787
  9
$DIMLFAC
 40
1.0
  9
$DIMTOFL
 70
     1
  9
$DIMTVP
 40
0.0
  9
$DIMTIX
 70
     0
  9
$DIMSOXD
 70
     0
  9
$DIMSAH
 70
     0
  9
$DIMBLK1
  1

  9
$DIMBLK2
  1

  9
$DIMSTYLE
  2
ISO-25
  9
$DIMCLRD
 70
     0
  9
$DIMCLRE
 70
     0
  9
$DIMCLRT
 70
     0
  9
$DIMTFAC
 40
1.0
  9
$DIMGAP
 40
1.5
  9
$DIMJUST
 70
     0
  9
$DIMSD1
 70
     0
  9
$DIMSD2
 70
     0
  9
$DIMTOLJ
 70
     0
  9
$DIMTZIN
 70
     0
  9
$DIMALTZ
 70
     0
  9
$DIMALTTZ
 70
     0
  9
$DIMUPT
 70
     0
  9
$DIMDEC
 70
     2
  9
$DIMTDEC
 70
     2
  9
$DIMALTU
 70
     2
  9
$DIMALTTD
 70
     3
  9
$DIMTXSTY
  7
Standard
  9
$DIMAUNIT
 70
     0
  9
$DIMADEC
 70
     2
  9
$DIMALTRND
 40
0.0
  9
$DIMAZIN
 70
     0
  9
$DIMDSEP
 70
    44
  9
$DIMATFIT
 70
     3
  9
$DIMFRAC
 70
     0
  9
$DIMLDRBLK
  1

  9
$DIMLUNIT
 70
     2
  9
$DIMLWD
 70
    -2
  9
$DIMLWE
 70
    -2
  9
$DIMTMOVE
 70
     0
  9
$DIMFXL
 40
1.0
  9
$DIMFXLON
 70
     0
  9
$DIMJOGANG
 40
0.7853981634
  9
$DIMTFILL
 70
     0
  9
$DIMTFILLCLR
 70
     0
  9
$DIMARCSYM
 70
     0
  9
$DIMLTYPE
  6

  9
$DIMLTEX1
  6

  9
$DIMLTEX2
  6

  9
$DIMTXTDIRECTION
 70
     0
  9
$LUNITS
 70
     2
  9
$LUPREC
 70
     2
  9
$SKETCHINC
 40
1.0
  9
$FILLETRAD
 40
10.0
  9
$AUNITS
 70
     0
  9
$AUPREC
 70
     2
  9
$MENU
  1
.
  9
$ELEVATION
 40
0.0
  9
$PELEVATION
 40
0.0
  9
$THICKNESS
 40
0.0
  9
$LIMCHECK
 70
     0
  9
$CHAMFERA
 40
10.0
  9
$CHAMFERB
 40
10.0
  9
$CHAMFERC
 40
20.0
  9
$CHAMFERD
 40
0.0
  9
$SKPOLY
 70
     0
  9
$TDCREATE
 40
2456344.605077199
  9
$TDUCREATE
 40
2456344.563410532
  9
$TDUPDATE
 40
2456344.605079907
  9
$TDUUPDATE
 40
2456344.563413241
  9
$TDINDWG
 40
0.0000000116
  9
$TDUSRTIMER
 40
0.0000000116
  9
$USRTIMER
 70
     1
  9
$ANGBASE
 50
0.0
  9
$ANGDIR
 70
     0
  9
$PDMODE
 70
     0
  9
$PDSIZE
 40
-1.0
  9
$PLINEWID
 40
0.0
  9
$SPLFRAME
 70
     0
  9
$SPLINETYPE
 70
     6
  9
$SPLINESEGS
 70
     8
  9
$HANDSEED
  5
11B
  9
$SURFTAB1
 70
     6
  9
$SURFTAB2
 70
     6
  9
$SURFTYPE
 70
     6
  9
$SURFU
 70
     6
  9
$SURFV
 70
     6
  9
$UCSBASE
  2

  9
$UCSNAME
  2

  9
$UCSORG
 10
0.0
 20
0.0
 30
0.0
  9
$UCSXDIR
 10
1.0
 20
0.0
 30
0.0
  9
$UCSYDIR
 10
0.0
 20
1.0
 30
0.0
  9
$UCSORTHOREF
  2

  9
$UCSORTHOVIEW
 70
     0
  9
$UCSORGTOP
 10
0.0
 20
0.0
 30
0.0
  9
$UCSORGBOTTOM
 10
0.0
 20
0.0
 30
0.0
  9
$UCSORGLEFT
 10
0.0
 20
0.0
 30
0.0
  9
$UCSORGRIGHT
 10
0.0
 20
0.0
 30
0.0
  9
$UCSORGFRONT
 10
0.0
 20
0.0
 30
0.0
  9
$UCSORGBACK
 10
0.0
 20
0.0
 30
0.0
  9
$PUCSBASE
  2

  9
$PUCSNAME
  2

  9
$PUCSORG
 10
0.0
 20
0.0
 30
0.0
  9
$PUCSXDIR
 10
1.0
 20
0.0
 30
0.0
  9
$PUCSYDIR
 10
0.0
 20
1.0
 30
0.0
  9
$PUCSORTHOREF
  2

  9
$PUCSORTHOVIEW
 70
     0
  9
$PUCSORGTOP
 10
0.0
 20
0.0
 30
0.0
  9
$PUCSORGBOTTOM
 10
0.0
 20
0.0
 30
0.0
  9
$PUCSORGLEFT
 10
0.0
 20
0.0
 30
0.0
  9
$PUCSORGRIGHT
 10
0.0
 20
0.0
 30
0.0
  9
$PUCSORGFRONT
 10
0.0
 20
0.0
 30
0.0
  9
$PUCSORGBACK
 10
0.0
 20
0.0
 30
0.0
  9
$USERI1
 70
     0
  9
$USERI2
 70
     0
  9
$USERI3
 70
     0
  9
$USERI4
 70
     0
  9
$USERI5
 70
     0
  9
$USERR1
 40
0.0
  9
$USERR2
 40
0.0
  9
$USERR3
 40
0.0
  9
$USERR4
 40
0.0
  9
$USERR5
 40
0.0
  9
$WORLDVIEW
 70
     1
  9
$SHADEDGE
 70
     3
  9
$SHADEDIF
 70
    70
  9
$TILEMODE
 70
     1
  9
$MAXACTVP
 70
    64
  9
$PINSBASE
 10
0.0
 20
0.0
 30
0.0
  9
$PLIMCHECK
 70
     0
  9
$PEXTMIN
 10
1.0000000000E+20
 20
1.0000000000E+20
 30
1.0000000000E+20
  9
$PEXTMAX
 10
-1.0000000000E+20
 20
-1.0000000000E+20
 30
-1.0000000000E+20
  9
$PLIMMIN
 10
0.0
 20
0.0
  9
$PLIMMAX
 10
420.0
 20
297.0
  9
$UNITMODE
 70
     0
  9
$VISRETAIN
 70
     1
  9
$PLINEGEN
 70
     0
  9
$PSLTSCALE
 70
     1
  9
$TREEDEPTH
 70
  3020
  9
$CMLSTYLE
  2
Standard
  9
$CMLJUST
 70
     0
  9
$CMLSCALE
 40
20.0
  9
$PROXYGRAPHICS
 70
     1
  9
$MEASUREMENT
 70
     1
  9
$CELWEIGHT
370
    -1
  9
$ENDCAPS
280
     0
  9
$JOINSTYLE
280
     0
  9
$LWDISPLAY
290
     1
  9
$INSUNITS
 70
     4
  9
$HYPERLINKBASE
  1

  9
$STYLESHEET
  1

  9
$XEDIT
290
     1
  9
$CEPSNTYPE
380
     0
  9
$PSTYLEMODE
290
     1
  9
$FINGERPRINTGUID
  2
{A5A0AE8D-0DB9-4978-99DD-80F69DDBEE94}
  9
$VERSIONGUID
  2
{FAEB1C32-E019-11D5-929B-00C0DF256EC4}
  9
$EXTNAMES
290
     1
  9
$PSVPSCALE
 40
0.0
  9
$OLESTARTUP
290
     0
  9
$SORTENTS
280
   127
  9
$INDEXCTL
280
     0
  9
$HIDETEXT
280
     1
  9
$XCLIPFRAME
280
     2
  9
$HALOGAP
280
     0
  9
$OBSCOLOR
 70
   257
  9
$OBSLTYPE
280
     0
  9
$INTERSECTIONDISPLAY
280
     0
  9
$INTERSECTIONCOLOR
 70
   257
  9
$DIMASSOC
280
     2
  9
$PROJECTNAME
  1

  9
$CAMERADISPLAY
290
     0
  9
$LENSLENGTH
 40
50.0
  9
$CAMERAHEIGHT
 40
0.0
  9
$STEPSPERSEC
 40
2.0
  9
$STEPSIZE
 40
6.0
  9
$3DDWFPREC
 40
2.0
  9
$PSOLWIDTH
 40
5.0
  9
$PSOLHEIGHT
 40
80.0
  9
$LOFTANG1
 40
1.5707963268
  9
$LOFTANG2
 40
1.5707963268
  9
$LOFTMAG1
 40
0.0
  9
$LOFTMAG2
 40
0.0
  9
$LOFTPARAM
 70
     7
  9
$LOFTNORMALS
280
     1
  9
$LATITUDE
 40
37.795
  9
$LONGITUDE
 40
-122.394
  9
$NORTHDIRECTION
 40
0.0
  9
$TIMEZONE
 70
 -8000
  9
$LIGHTGLYPHDISPLAY
280
     1
  9
$TILEMODELIGHTSYNCH
280
     1
  9
$SOLIDHIST
280
     1
  9
$SHOWHIST
280
     1
  9
$DWFFRAME
280
     2
  9
$DGNFRAME
280
     2
  9
$REALWORLDSCALE
290
     1
  9
$INTERFERECOLOR
 62
   256
  9
$CSHADOW
280
     0
  9
$SHADOWPLANELOCATION
 40
0.0
  0
ENDSEC
  0
SECTION
  2
CLASSES
  0
CLASS
  1
ACDBDICTIONARYWDFLT
  2
AcDbDictionaryWithDefault
  3
ObjectDBX Classes
 90
        0
 91
        4
280
     0
281
     0
  0
CLASS
  1
VISUALSTYLE
  2
AcDbVisualStyle
  3
ObjectDBX Classes
 90
     4095
 91
        4
280
     0
281
     0
  0
CLASS
  1
MATERIAL
  2
AcDbMaterial
  3
ObjectDBX Classes
 90
     1153
 91
        4
280
     0
281
     0
  0
ENDSEC
  0
SECTION
  2
TABLES
  0
TABLE
  2
VPORT
  5
8
330
0
100
AcDbSymbolTable
 70
     1
  0
VPORT
  5
29
330
8
100
AcDbSymbolTableRecord
100
AcDbViewportTableRecord
  2
*Active
 70
     0
 10
0.0
 20
0.0
 11
1.0
 21
1.0
 12
297.0
 22
420.5
 13
0.0
 23
0.0
 14
10.0
 24
10.0
 15
10.0
 25
10.0
 16
0.0
 26
0.0
 36
1.0
 17
0.0
 27
0.0
 37
0.0
 40
841.0
 41
0.7063020214
 42
50.0
 43
0.0
 44
0.0
 50
0.0
 51
0.0
 71
     0
 72
  2000
 73
     1
 74
     3
 75
     0
 76
     0
 77
     0
 78
     0
281
     0
 65
     1
110
0.0
120
0.0
130
0.0
111
1.0
121
0.0
131
0.0
112
0.0
122
1.0
132
0.0
 79
     0
146
0.0
 60
     3
 61
     5
292
     1
282
     1
141
0.0
142
0.0
 63
   250
  0
ENDTAB
  0
TABLE
  2
LTYPE
  5
5
330
0
100
AcDbSymbolTable
 70
     6
  0
LTYPE
  5
14
330
5
100
AcDbSymbolTableRecord
100
AcDbLinetypeTableRecord
  2
ByBlock
 70
     0
  3

 72
    65
 73
     0
 40
0.0
  0
LTYPE
  5
15
330
5
100
AcDbSymbolTableRecord
100
AcDbLinetypeTableRecord
  2
ByLayer
 70
     0
  3

 72
    65
 73
     0
 40
0.0
  0
LTYPE
  5
16
330
5
100
AcDbSymbolTableRecord
100
AcDbLinetypeTableRecord
  2
Continuous
 70
     0
  3
Solid line
 72
    65
 73
     0
 40
0.0
  0
LTYPE
  5
3F
330
5
100
AcDbSymbolTableRecord
100
AcDbLinetypeTableRecord
  2
HIDDEN
 70
     0
  3
Hidden __ __ __ __ __ __ __ __ __ __ __ __ __ __
 72
    65
 73
     2
 40
1.905
 49
1.27
 74
     0
 49
-0.635
 74
     0
  0
LTYPE
  5
40
330
5
100
AcDbSymbolTableRecord
100
AcDbLinetypeTableRecord
  2
PHANTOM
 70
     0
  3
Phantom ______  __  __  ______  __  __  ______
 72
    65
 73
     6
 40
12.7
 49
6.35
 74
     0
 49
-1.27
 74
     0
 49
1.27
 74
     0
 49
-1.27
 74
     0
 49
1.27
 74
     0
 49
-1.27
 74
     0
  0
LTYPE
  5
41
330
5
100
AcDbSymbolTableRecord
100
AcDbLinetypeTableRecord
  2
CENTER
 70
     0
  3
Center ____ _ ____ _ ____ _ ____ _ ____ _ ____
 72
    65
 73
     4
 40
10.16
 49
6.35
 74
     0
 49
-1.27
 74
     0
 49
1.27
 74
     0
 49
-1.27
 74
     0
  0
LTYPE
  5
42
330
5
100
AcDbSymbolTableRecord
100
AcDbLinetypeTableRecord
  2
CENTERX2
 70
     0
  3
Center (2x) ________  __  ________  __  _____
 72
    65
 73
     4
 40
20.32
 49
12.7
 74
     0
 49
-2.54
 74
     0
 49
2.54
 74
     0
 49
-2.54
 74
     0
  0
LTYPE
  5
43
330
5
100
AcDbSymbolTableRecord
100
AcDbLinetypeTableRecord
  2
DOT2
 70
     0
  3
Dot (.5x) ........................................
 72
    65
 73
     2
 40
0.635
 49
0.0
 74
     0
 49
-0.635
 74
     0
  0
ENDTAB
  0
TABLE
  2
LAYER
  5
2
330
0
100
AcDbSymbolTable
 70
     1
  0
LAYER
  5
10
330
2
100
AcDbSymbolTableRecord
100
AcDbLayerTableRecord
  2
0
 70
     0
 62
     7
  6
Continuous
370
    -3
390
F
347
3E
  0
ENDTAB
  0
TABLE
  2
STYLE
  5
3
330
0
100
AcDbSymbolTable
 70
     3
  0
STYLE
  5
11
330
3
100
AcDbSymbolTableRecord
100
AcDbTextStyleTableRecord
  2
Standard
 70
     0
 40
0.0
 41
1.0
 50
0.0
 71
     0
 42
10.0
  3
txt
  4

  0
STYLE
  5
47
330
3
100
AcDbSymbolTableRecord
100
AcDbTextStyleTableRecord
  2
SLDTEXTSTYLE0
 70
     0
 40
0.0
 41
0.96
 50
0.0
 71
     0
 42
0.2
  3
ISOCP3
  4

  0
STYLE
  5
5E
330
3
100
AcDbSymbolTableRecord
100
AcDbTextStyleTableRecord
  2
SLDTEXTSTYLE1
 70
     0
 40
0.0
 41
0.605
 50
0.0
 71
     0
 42
0.2
  3
TXT
  4

  0
ENDTAB
  0
TABLE
  2
VIEW
  5
6
330
0
100
AcDbSymbolTable
 70
     0
  0
ENDTAB
  0
TABLE
  2
UCS
  5
7
330
0
100
AcDbSymbolTable
 70
     0
  0
ENDTAB
  0
TABLE
  2
APPID
  5
9
330
0
100
AcDbSymbolTable
 70
     1
  0
APPID
  5
12
330
9
100
AcDbSymbolTableRecord
100
AcDbRegAppTableRecord
  2
ACAD
 70
     0
  0
ENDTAB
  0
TABLE
  2
DIMSTYLE
  5
A
330
0
100
AcDbSymbolTable
 70
     2
100
AcDbDimStyleTable
  0
DIMSTYLE
105
27
330
A
100
AcDbSymbolTableRecord
100
AcDbDimStyleTableRecord
  2
ISO-25
 70
     0
 41
2.5
 42
0.625
 43
3.75
 44
1.25
 73
     0
 74
     0
 77
     1
 78
     8
140
2.5
141
2.5
143
0.0393700787
147
0.625
171
     3
172
     1
178
     0
271
     2
272
     2
274
     3
278
    44
283
     0
284
     8
340
11
  0
DIMSTYLE
105
48
102
{ACAD_REACTORS
330
46
330
53
102
}
330
A
100
AcDbSymbolTableRecord
100
AcDbDimStyleTableRecord
  2
SLDDIMSTYLE0
 70
     0
 41
2.5
 44
0.0
 45
0.000000001
 73
     0
 74
     0
 77
     1
 78
    12
 79
     3
140
6.0
147
1.5
173
     1
178
     0
271
     2
272
     2
276
     2
284
    12
340
47
  0
ENDTAB
  0
TABLE
  2
BLOCK_RECORD
  5
1
330
0
100
AcDbSymbolTable
 70
     3
  0
BLOCK_RECORD
  5
1F
330
1
100
AcDbSymbolTableRecord
100
AcDbBlockTableRecord
  2
*Model_Space
340
22
 70
     0
280
     1
281
     0
  0
BLOCK_RECORD
  5
1B
330
1
100
AcDbSymbolTableRecord
100
AcDbBlockTableRecord
  2
*Paper_Space
340
1E
 70
     0
280
     1
281
     0
  0
BLOCK_RECORD
  5
23
330
1
100
AcDbSymbolTableRecord
100
AcDbBlockTableRecord
  2
*Paper_Space0
340
26
 70
     0
280
     1
281
     0
  0
BLOCK_RECORD
  5
49
330
1
100
AcDbSymbolTableRecord
100
AcDbBlockTableRecord
  2
_D
340
0
 70
     0
280
     1
281
     0
  0
BLOCK_RECORD
  5
54
330
1
100
AcDbSymbolTableRecord
100
AcDbBlockTableRecord
  2
_D_1
340
0
 70
     0
280
     1
281
     0
  0
ENDTAB
  0
ENDSEC
  0
SECTION
  2
BLOCKS
  0
BLOCK
  5
20
330
1F
100
AcDbEntity
  8
0
100
AcDbBlockBegin
  2
*Model_Space
 70
     0
 10
0.0
 20
0.0
 30
0.0
  3
*Model_Space
  1

  0
ENDBLK
  5
21
330
1F
100
AcDbEntity
  8
0
100
AcDbBlockEnd
  0
BLOCK
  5
1C
330
1B
100
AcDbEntity
 67
     1
  8
0
100
AcDbBlockBegin
  2
*Paper_Space
 70
     0
 10
0.0
 20
0.0
 30
0.0
  3
*Paper_Space
  1

  0
ENDBLK
  5
1D
330
1B
100
AcDbEntity
 67
     1
  8
0
100
AcDbBlockEnd
  0
BLOCK
  5
24
330
23
100
AcDbEntity
  8
0
100
AcDbBlockBegin
  2
*Paper_Space0
 70
     0
 10
0.0
 20
0.0
 30
0.0
  3
*Paper_Space0
  1

  0
ENDBLK
  5
25
330
23
100
AcDbEntity
  8
0
100
AcDbBlockEnd
  0
BLOCK
  5
4A
330
49
100
AcDbEntity
  8
0
100
AcDbBlockBegin
  2
_D
 70
     0
 10
0.0
 20
0.0
 30
0.0
  3
_D
  1

  0
SOLID
  5
4C
330
49
100
AcDbEntity
  8
0
  6
Continuous
 62
     7
370
     0
100
AcDbTrace
 10
42.7614395004
 20
152.0299240879
 30
0.0
 11
42.4614395004
 21
149.5299240879
 31
0.0
 12
43.0614395004
 22
149.5299240879
 32
0.0
 13
43.0614395004
 23
149.5299240879
 33
0.0
  0
SOLID
  5
4D
330
49
100
AcDbEntity
  8
0
  6
Continuous
 62
     7
370
     0
100
AcDbTrace
 10
42.7614395004
 20
52.0299240879
 30
0.0
 11
43.0614395004
 21
54.5299240879
 31
0.0
 12
42.4614395004
 22
54.5299240879
 32
0.0
 13
42.4614395004
 23
54.5299240879
 33
0.0
  0
LINE
  5
4E
330
49
100
AcDbEntity
  8
0
  6
Continuous
 62
     7
370
     0
100
AcDbLine
 10
56.6850079902
 20
152.0299240879
 30
0.0
 11
41.7614395004
 21
152.0299240879
 31
0.0
  0
LINE
  5
4F
330
49
100
AcDbEntity
  8
0
  6
Continuous
 62
     7
370
     0
100
AcDbLine
 10
56.6850079902
 20
52.0299240879
 30
0.0
 11
41.7614395004
 21
52.0299240879
 31
0.0
  0
LINE
  5
50
330
49
100
AcDbEntity
  8
0
  6
Continuous
 62
     7
370
     0
100
AcDbLine
 10
42.7614395004
 20
152.0299240879
 30
0.0
 11
42.7614395004
 21
52.0299240879
 31
0.0
  0
MTEXT
  5
51
330
49
100
AcDbEntity
  8
0
  6
Continuous
 62
     7
370
     0
100
AcDbMText
 10
35.0270329453
 20
91.6722208134
 30
0.1
 40
6.0
 41
0.0
 46
0.0
 71
     1
 72
     1
  1
100
  7
SLDTEXTSTYLE0
 11
-7.044195017643634E-15
 21
1.0
 31
0.0
 73
     1
 44
1.0
  0
MTEXT
  5
52
330
49
100
AcDbEntity
  8
0
  6
Continuous
 62
     7
370
     0
100
AcDbMText
 10
35.0270329453
 20
108.4388881795
 30
0.1
 40
6.0
 41
0.0
 46
0.0
 71
     1
 72
     1
  1
mm
  7
SLDTEXTSTYLE0
 11
-7.044195017643634E-15
 21
1.0
 31
0.0
 73
     1
 44
1.0
  0
ENDBLK
  5
4B
330
49
100
AcDbEntity
  8
0
100
AcDbBlockEnd
  0
BLOCK
  5
55
330
54
100
AcDbEntity
  8
0
100
AcDbBlockBegin
  2
_D_1
 70
     0
 10
0.0
 20
0.0
 30
0.0
  3
_D_1
  1

  0
SOLID
  5
57
330
54
100
AcDbEntity
  8
0
  6
Continuous
 62
     7
370
     0
100
AcDbTrace
 10
56.6850079902
 20
38.4602342313
 30
0.0
 11
59.1850079902
 21
38.1602342313
 31
0.0
 12
59.1850079902
 22
38.7602342313
 32
0.0
 13
59.1850079902
 23
38.7602342313
 33
0.0
  0
SOLID
  5
58
330
54
100
AcDbEntity
  8
0
  6
Continuous
 62
     7
370
     0
100
AcDbTrace
 10
156.6850079902
 20
38.4602342313
 30
0.0
 11
154.1850079902
 21
38.7602342313
 31
0.0
 12
154.1850079902
 22
38.1602342313
 32
0.0
 13
154.1850079902
 23
38.1602342313
 33
0.0
  0
LINE
  5
59
330
54
100
AcDbEntity
  8
0
  6
Continuous
 62
     7
370
     0
100
AcDbLine
 10
56.6850079902
 20
52.0299240879
 30
0.0
 11
56.6850079902
 21
37.4602342313
 31
0.0
  0
LINE
  5
5A
330
54
100
AcDbEntity
  8
0
  6
Continuous
 62
     7
370
     0
100
AcDbLine
 10
156.6850079902
 20
52.0299240879
 30
0.0
 11
156.6850079902
 21
37.4602342313
 31
0.0
  0
LINE
  5
5B
330
54
100
AcDbEntity
  8
0
  6
Continuous
 62
     7
370
     0
100
AcDbLine
 10
56.6850079902
 20
38.4602342313
 30
0.0
 11
156.6850079902
 21
38.4602342313
 31
0.0
  0
MTEXT
  5
5C
330
54
100
AcDbEntity
  8
0
  6
Continuous
 62
     7
370
     0
100
AcDbMText
 10
91.2668151533
 20
46.1946407863
 30
0.1
 40
6.0
 41
0.0
 46
0.0
 71
     1
 72
     1
  1
100
  7
SLDTEXTSTYLE0
 73
     1
 44
1.0
  0
MTEXT
  5
5D
330
54
100
AcDbEntity
  8
0
  6
Continuous
 62
     7
370
     0
100
AcDbMText
 10
108.0334825193
 20
46.1946407863
 30
0.1
 40
6.0
 41
0.0
 46
0.0
 71
     1
 72
     1
  1
mm
  7
SLDTEXTSTYLE0
 73
     1
 44
1.0
  0
ENDBLK
  5
56
330
54
100
AcDbEntity
  8
0
100
AcDbBlockEnd
  0
ENDSEC
  0
SECTION
  2
ENTITIES
  0
LINE
  5
44
330
1F
100
AcDbEntity
  8
0
  6
Continuous
 62
     7
370
     0
100
AcDbLine
 10
56.6850079902
 20
152.0299240879
 30
0.0
 11
56.6850079902
 21
52.0299240879
 31
0.0
  0
LINE
  5
45
330
1F
100
AcDbEntity
  8
0
  6
Continuous
 62
     7
370
     0
100
AcDbLine
 10
56.6850079902
 20
52.0299240879
 30
0.0
 11
156.6850079902
 21
52.0299240879
 31
0.0
  0
DIMENSION
  5
46
330
1F
100
AcDbEntity
  8
0
  6
Continuous
 62
     7
370
     0
100
AcDbDimension
280
     0
  2
_D
 10
42.7614395004
 20
52.0299240879
 30
0.0
 11
42.7614395004
 21
105.4472211621
 31
0.0
 70
   160
  1
<>mm
 71
     2
 42
-1.0
 73
     0
 74
     0
 75
     0
  3
SLDDIMSTYLE0
100
AcDbAlignedDimension
 13
56.6850079902
 23
152.0299240879
 33
0.0
 14
56.6850079902
 24
52.0299240879
 34
0.0
 50
90.0
100
AcDbRotatedDimension
  0
DIMENSION
  5
53
330
1F
100
AcDbEntity
  8
0
  6
Continuous
 62
     7
370
     0
100
AcDbDimension
280
     0
  2
_D_1
 10
156.6850079902
 20
38.4602342313
 30
0.0
 11
105.0418155019
 21
38.4602342313
 31
0.0
 70
   160
  1
<>mm
 71
     2
 42
-1.0
 73
     0
 74
     0
 75
     0
  3
SLDDIMSTYLE0
100
AcDbAlignedDimension
 13
56.6850079902
 23
52.0299240879
 33
0.0
 14
156.6850079902
 24
52.0299240879
 34
0.0
100
AcDbRotatedDimension
  0
MTEXT
  5
5F
330
1F
100
AcDbEntity
  8
0
  6
Continuous
 62
     7
370
     0
100
AcDbMText
 10
273.1843136116
 20
46.559894999
 30
0.0
 40
10.0
 41
0.0
 46
0.0
 71
     1
 72
     1
  1
32 126 05 75
  7
SLDTEXTSTYLE1
 73
     1
 44
1.0
  0
MTEXT
  5
60
330
1F
100
AcDbEntity
  8
0
  6
Continuous
 62
     7
370
     0
100
AcDbMText
 10
412.8252631579
 20
48.4342449499
 30
0.0
 40
10.0
 41
0.0
 46
0.0
 71
     1
 72
     1
  1
KLUDI GmbH & Co KG
  7
SLDTEXTSTYLE1
 73
     1
 44
1.0
  0
LINE
  5
61
330
1F
100
AcDbEntity
  8
0
  6
Continuous
 62
     7
370
    15
100
AcDbLine
 10
198.8589430407
 20
400.6537727173
 30
0.0
 11
198.2554776773
 21
400.5069143232
 31
0.0
  0
LINE
  5
62
330
1F
100
AcDbEntity
  8
0
  6
Continuous
 62
     7
370
    15
100
AcDbLine
 10
240.2226591662
 20
400.5069664773
 30
0.0
 11
239.6149786369
 21
400.6547934469
 31
0.0
  0
LINE
  5
63
330
1F
100
AcDbEntity
  8
0
  6
Continuous
 62
     7
370
    15
100
AcDbLine
 10
231.2750688002
 20
379.4762871321
 30
0.0
 11
231.2750688002
 21
384.9996409472
 31
0.0
  0
LINE
  5
64
330
1F
100
AcDbEntity
  8
0
  6
Continuous
 62
     7
370
    15
100
AcDbLine
 10
207.2030689747
 20
385.015153056
 30
0.0
 11
207.2030689747
 21
379.4762871321
 31
0.0
  0
LINE
  5
65
330
1F
100
AcDbEntity
  8
0
  6
Continuous
 62
     7
370
    15
100
AcDbLine
 10
229.4971432716
 20
378.0653483327
 30
0.0
 11
230.4296961234
 21
378.5550004896
 31
0.0
  0
LINE
  5
66
330
1F
100
AcDbEntity
  8
0
  6
Continuous
 62
     7
370
    15
100
AcDbLine
 10
208.0484425828
 20
378.5550004896
 30
0.0
 11
208.9809945033
 21
378.0653483327
 31
0.0
  0
LINE
  5
67
330
1F
100
AcDbEntity
  8
0
  6
Continuous
 62
     7
370
    15
100
AcDbLine
 10
234.5821794302
 20
438.5263702925
 30
0.0
 11
234.6984196634
 21
438.9988414105
 31
0.0
  0
LINE
  5
68
330
1F
100
AcDbEntity
  8
0
  6
Continuous
 62
     7
370
    15
100
AcDbLine
 10
203.7693524913
 20
438.9962486084
 30
0.0
 11
203.85919718
 21
438.6285773572
 31
0.0
  0
LWPOLYLINE
  5
69
330
1F
100
AcDbEntity
  8
0
  6
Continuous
 62
     7
370
    15
100
AcDbPolyline
 90
       14
 70
   128
 43
0.0
 10
216.4150087342
 20
442.1959749516
 10
216.4150089671
 20
442.1959749516
 10
216.4149933674
 20
442.1959749516
 10
216.41476985
 20
442.1959600504
 10
216.4135512144
 20
442.195915347
 10
216.4080252119
 20
442.1956620272
 10
216.3846201443
 20
442.1945742425
 10
216.2883979913
 20
442.189999586
 10
215.8983032864
 20
442.1697489079
 10
215.2446752593
 20
442.1298734005
 10
214.3275139101
 20
442.0612386521
 10
212.6946889043
 20
441.9019452389
 10
210.5933569551
 20
441.6253945883
 10
208.0235148028
 20
441.1745748576
  0
ARC
  5
6A
330
1F
100
AcDbEntity
  8
0
  6
Continuous
 62
     7
370
    15
100
AcDbCircle
 10
219.2379401943
 20
353.0696900604
 30
0.0
 40
89.83819889106204
100
AcDbArc
 50
75.7316050519
 51
104.2759120427
  0
LINE
  5
6B
330
1F
100
AcDbEntity
  8
0
  6
Continuous
 62
     7
370
    15
100
AcDbLine
 10
243.1572081701
 20
300.6633336545
 30
0.0
 11
242.3207482502
 21
399.0704870876
 31
0.0
  0
LINE
  5
6C
330
1F
100
AcDbEntity
  8
0
  6
Continuous
 62
     7
370
    15
100
AcDbLine
 10
196.1573960439
 20
399.0710980352
 30
0.0
 11
195.3209286735
 21
300.6633336545
 31
0.0
  0
LINE
  5
6D
330
1F
100
AcDbEntity
  8
0
  6
Continuous
 62
     7
370
    15
100
AcDbLine
 10
223.2510687031
 20
415.7005555089
 30
0.0
 11
223.2510687031
 21
415.7026565727
 31
0.0
  0
LINE
  5
6E
330
1F
100
AcDbEntity
  8
0
  6
Continuous
 62
     7
370
    15
100
AcDbLine
 10
215.2270690717
 20
415.7026565727
 30
0.0
 11
215.2270690717
 21
415.7006002124
 31
0.0
  0
LINE
  5
6F
330
1F
100
AcDbEntity
  8
0
  6
Continuous
 62
     7
370
    15
100
AcDbLine
 10
242.3080692247
 20
406.3841409143
 30
0.0
 11
242.3080692247
 21
438.9790377673
 31
0.0
  0
LINE
  5
70
330
1F
100
AcDbEntity
  8
0
  6
Continuous
 62
     7
370
    15
100
AcDbLine
 10
196.1700694815
 20
438.9790377673
 30
0.0
 11
196.1700694815
 21
406.3818461355
 31
0.0
  0
ARC
  5
71
330
1F
100
AcDbEntity
  8
0
  6
Continuous
 62
     7
370
    15
100
AcDbCircle
 10
230.7735689247
 20
402.3765918885
 30
0.0
 40
10.03
100
AcDbArc
 50
0.0
 51
9.0468459803
  0
ARC
  5
72
330
1F
100
AcDbEntity
  8
0
  6
Continuous
 62
     7
370
    15
100
AcDbCircle
 10
207.7045689247
 20
402.3765918885
 30
0.0
 40
10.03
100
AcDbArc
 50
170.9531540197
 51
180.0
  0
ARC
  5
73
330
1F
100
AcDbEntity
  8
0
  6
Continuous
 62
     7
370
    15
100
AcDbCircle
 10
219.2390689247
 20
400.5400379311
 30
0.0
 40
21.70979540437912
100
AcDbArc
 50
166.5022774951
 51
170.9531540197
  0
ARC
  5
74
330
1F
100
AcDbEntity
  8
0
  6
Continuous
 62
     7
370
    15
100
AcDbCircle
 10
219.2390689247
 20
400.5400379311
 30
0.0
 40
21.70979540437909
100
AcDbArc
 50
9.0468459803
 51
13.4977225049
  0
LINE
  5
75
330
1F
100
AcDbEntity
  8
0
  6
Continuous
 62
     7
370
    15
100
AcDbLine
 10
197.6745689467
 20
402.3765928205
 30
0.0
 11
197.6745689467
 21
400.6212956365
 31
0.0
  0
LINE
  5
76
330
1F
100
AcDbEntity
  8
0
  6
Continuous
 62
     7
370
    15
100
AcDbLine
 10
240.8035697595
 20
400.6214968022
 30
0.0
 11
240.8035697595
 21
402.3765928205
 31
0.0
  0
ARC
  5
77
330
1F
100
AcDbEntity
  8
0
  6
Continuous
 62
     7
370
    15
100
AcDbCircle
 10
241.1129861723
 20
439.0084816777
 30
0.0
 40
1.170608468969469
100
AcDbArc
 50
358.6389586485
 51
77.4932327079
  0
ARC
  5
78
330
1F
100
AcDbEntity
  8
0
  6
Continuous
 62
     7
370
    15
100
AcDbCircle
 10
197.3106787306
 20
439.0485519455
 30
0.0
 40
1.119501106158819
100
AcDbArc
 50
101.731950029
 51
183.5118701995
  0
LWPOLYLINE
  5
79
330
1F
100
AcDbEntity
  8
0
  6
Continuous
 62
     7
370
    15
100
AcDbPolyline
 90
        6
 70
   128
 43
0.0
 10
196.189388837
 20
406.3954657968
 10
196.1829757497
 20
406.2457091268
 10
196.3365061388
 20
405.9412486013
 10
196.6236328886
 20
405.7436890062
 10
197.0231143937
 20
405.6385911163
 10
197.4637603567
 20
405.6182361301
  0
LWPOLYLINE
  5
7A
330
1F
100
AcDbEntity
  8
0
  6
Continuous
 62
     7
370
    15
100
AcDbPolyline
 90
        7
 70
   128
 43
0.0
 10
240.9032659785
 20
405.6078574713
 10
240.9106290147
 20
405.6074178871
 10
241.5270434872
 20
405.6501022633
 10
241.9493014172
 20
405.7908139285
 10
242.2027645812
 20
406.0211709794
 10
242.3080487356
 20
406.381942993
 10
242.3053981916
 20
406.3947728928
  0
LINE
  5
7B
330
1F
100
AcDbEntity
  8
0
  6
Continuous
 62
     7
370
    15
100
AcDbLine
 10
239.1714679257
 20
405.6072465237
 30
0.0
 11
240.9411652193
 21
405.6072465237
 31
0.0
  0
LINE
  5
7C
330
1F
100
AcDbEntity
  8
0
  6
Continuous
 62
     7
370
    15
100
AcDbLine
 10
197.5328309641
 20
405.6072465237
 30
0.0
 11
199.3162298754
 21
405.6072465237
 31
0.0
  0
ARC
  5
7D
330
1F
100
AcDbEntity
  8
0
  6
Continuous
 62
     7
370
    15
100
AcDbCircle
 10
240.8163027735
 20
399.057639782
 30
0.0
 40
1.504500000000008
100
AcDbArc
 50
0.4561547115
 51
75.6404918701
  0
ARC
  5
7E
330
1F
100
AcDbEntity
  8
0
  6
Continuous
 62
     7
370
    15
100
AcDbCircle
 10
197.6618350551
 20
399.0576373381
 30
0.0
 40
1.504499999999991
100
AcDbArc
 50
104.3699974858
 51
179.0235328303
  0
LINE
  5
7F
330
1F
100
AcDbEntity
  8
0
  6
Continuous
 62
     7
370
    15
100
AcDbLine
 10
198.0686636821
 20
400.5069366749
 30
0.0
 11
197.5198837177
 21
400.5067876633
 31
0.0
  0
LWPOLYLINE
  5
80
330
1F
100
AcDbEntity
  8
0
  6
Continuous
 62
     7
370
    15
100
AcDbPolyline
 90
        3
 70
   128
 43
0.0
 10
240.9582680271
 20
400.5067951139
 10
240.6396644369
 20
400.5077860411
 10
240.4089367197
 20
400.5071750935
  0
LWPOLYLINE
  5
81
330
1F
100
AcDbEntity
  8
0
  6
Continuous
 62
     7
370
    15
100
AcDbPolyline
 90
       33
 70
   128
 43
0.0
 10
231.2750688002
 20
384.9996409472
 10
231.2366433621
 20
385.1651332434
 10
230.9260808111
 20
385.3740549739
 10
230.6509886116
 20
385.4292265233
 10
230.3144067705
 20
385.4600272234
 10
229.4282011867
 20
385.4837498721
 10
228.8766477436
 20
385.4871100839
 10
228.2381953851
 20
385.489524072
 10
227.5297140882
 20
385.4928917345
 10
226.7420787544
 20
385.498069888
 10
225.8894273259
 20
385.504909521
 10
225.0355032452
 20
385.5123004969
 10
224.1338535391
 20
385.5199894961
 10
223.1753102683
 20
385.5274624284
 10
222.1792163041
 20
385.5340487417
 10
220.2224688085
 20
385.5425424036
 10
219.2158698713
 20
385.5443677958
 10
218.1946095957
 20
385.5443752464
 10
217.2196239412
 20
385.5426541623
 10
216.2519427661
 20
385.5393312033
 10
215.2951347821
 20
385.5345777329
 10
214.3531918705
 20
385.5286992248
 10
212.6262669631
 20
385.5162567552
 10
211.8173713975
 20
385.5107731279
 10
211.0503103763
 20
385.5066529568
 10
210.3585984737
 20
385.5042762216
 10
209.1412825689
 20
385.5012587365
 10
208.6271058947
 20
385.4956782516
 10
208.1917870969
 20
385.4812390264
 10
207.8302355663
 20
385.4506394919
 10
207.5428992689
 20
385.3935456928
 10
207.3401801467
 20
385.2992362436
 10
207.2156334475
 20
385.0149742421
  0
LINE
  5
82
330
1F
100
AcDbEntity
  8
0
  6
Continuous
 62
     7
370
    15
100
AcDbLine
 10
197.5197756842
 20
400.5072645005
 30
0.0
 11
197.2827950672
 21
400.5072645005
 31
0.0
  0
LINE
  5
83
330
1F
100
AcDbEntity
  8
0
  6
Continuous
 62
     7
370
    15
100
AcDbLine
 10
240.9583741978
 20
400.5072645005
 30
0.0
 11
241.1953548149
 21
400.5072645005
 31
0.0
  0
LWPOLYLINE
  5
84
330
1F
100
AcDbEntity
  8
0
  6
Continuous
 62
     7
370
    15
100
AcDbPolyline
 90
       12
 70
   128
 43
0.0
 10
230.4296961234
 20
378.5550004896
 10
230.7727860466
 20
378.7609196361
 10
231.1488364071
 20
379.1148147639
 10
231.2750688002
 20
379.4762871321
 10
231.1488364071
 20
379.8377669509
 10
230.7727860466
 20
380.1916546281
 10
230.1548060209
 20
380.5305442866
 10
229.3078594089
 20
380.8473206218
 10
228.2497111887
 20
381.135337716
 10
227.0025575713
 20
381.3885531481
 10
225.5925575451
 20
381.6016546544
 10
224.0492880524
 20
381.7701793369
  0
LINE
  5
85
330
1F
100
AcDbEntity
  8
0
  6
Continuous
 62
     7
370
    15
100
AcDbLine
 10
224.0492880524
 20
385.1280815061
 30
0.0
 11
224.0492880524
 21
381.7701793369
 31
0.0
  0
ARC
  5
86
330
1F
100
AcDbEntity
  8
0
  6
Continuous
 62
     7
370
    15
100
AcDbCircle
 10
219.2390688874
 20
330.1423649296
 30
0.0
 40
55.19571754988609
100
AcDbArc
 50
85.0004215926
 51
94.9995784074
  0
LINE
  5
87
330
1F
100
AcDbEntity
  8
0
  6
Continuous
 62
     7
370
    15
100
AcDbLine
 10
214.4288497225
 20
381.7701793369
 30
0.0
 11
214.4288497225
 21
385.1280815061
 31
0.0
  0
LWPOLYLINE
  5
88
330
1F
100
AcDbEntity
  8
0
  6
Continuous
 62
     7
370
    15
100
AcDbPolyline
 90
       12
 70
   128
 43
0.0
 10
214.4288497225
 20
381.7701793369
 10
212.8855802298
 20
381.6016546544
 10
211.4755802036
 20
381.3885531481
 10
210.2284265861
 20
381.135337716
 10
209.170278366
 20
380.8473206218
 10
208.323331754
 20
380.5305442866
 10
207.7053517283
 20
380.1916546281
 10
207.3293013678
 20
379.8377669509
 10
207.2030689747
 20
379.4762871321
 10
207.3293013678
 20
379.1148147639
 10
207.7053517283
 20
378.7609196361
 10
208.0484425828
 20
378.5550004896
  0
LWPOLYLINE
  5
89
330
1F
100
AcDbEntity
  8
0
  6
Continuous
 62
     7
370
    15
100
AcDbPolyline
 90
       22
 70
   128
 43
0.0
 10
219.2390689247
 20
376.6159719881
 10
220.8834523049
 20
376.6415945347
 10
222.4911027302
 20
376.7178810295
 10
224.0261083648
 20
376.8431401905
 10
225.4541793086
 20
377.0145631488
 10
226.7434147366
 20
377.2283203062
 10
227.8650153608
 20
377.4796432909
 10
228.7939267412
 20
377.7629143651
 10
229.5093985454
 20
378.0718079861
 10
229.9954483465
 20
378.3994249161
 10
230.241218786
 20
378.7384412344
 10
230.241218786
 20
379.0812797006
 10
229.9954483465
 20
379.4202960189
 10
229.5093985454
 20
379.7479129489
 10
228.7939267412
 20
380.0568065699
 10
227.8650153608
 20
380.3400776442
 10
226.7434147366
 20
380.5914006289
 10
225.4541793086
 20
380.8051577862
 10
224.0261083648
 20
380.9765807446
 10
222.4911027302
 20
381.1018399056
 10
220.8834523049
 20
381.1781264003
 10
219.2390689247
 20
381.203748947
  0
LWPOLYLINE
  5
8A
330
1F
100
AcDbEntity
  8
0
  6
Continuous
 62
     7
370
    15
100
AcDbPolyline
 90
        3
 70
   128
 43
0.0
 10
224.0492880524
 20
381.7701793369
 10
221.6755733539
 20
381.353878146
 10
219.2390689247
 20
381.203748947
  0
ARC
  5
8B
330
1F
100
AcDbEntity
  8
0
  6
Continuous
 62
     7
370
    15
100
AcDbCircle
 10
219.3363891707
 20
402.7380063135
 30
0.0
 40
21.53447727617879
100
AcDbArc
 50
256.8269914319
 51
269.7410636781
  0
LINE
  5
8C
330
1F
100
AcDbEntity
  8
0
  6
Continuous
 62
     7
370
    15
100
AcDbLine
 10
214.4288497225
 20
385.1280815061
 30
0.0
 11
217.1040912804
 21
385.1280815061
 31
0.0
  0
LINE
  5
8D
330
1F
100
AcDbEntity
  8
0
  6
Continuous
 62
     7
370
    15
100
AcDbLine
 10
221.4174770929
 20
385.1280815061
 30
0.0
 11
217.1040912804
 21
385.1280815061
 31
0.0
  0
LINE
  5
8E
330
1F
100
AcDbEntity
  8
0
  6
Continuous
 62
     7
370
    15
100
AcDbLine
 10
221.4174770929
 20
385.1280815061
 30
0.0
 11
224.0492880524
 21
385.1280815061
 31
0.0
  0
LWPOLYLINE
  5
8F
330
1F
100
AcDbEntity
  8
0
  6
Continuous
 62
     7
370
    15
100
AcDbPolyline
 90
       22
 70
   128
 43
0.0
 10
219.2390689247
 20
381.203748947
 10
217.5946855864
 20
381.1781264003
 10
215.9870350447
 20
381.1018399056
 10
214.4520294101
 20
380.9765807446
 10
213.0239589319
 20
380.8051577862
 10
211.7347230383
 20
380.5914006289
 10
210.6131224141
 20
380.3400776442
 10
209.6842110336
 20
380.0568065699
 10
208.9687392295
 20
379.7479129489
 10
208.4826894284
 20
379.4202960189
 10
208.2369189889
 20
379.0812797006
 10
208.2369189889
 20
378.7384412344
 10
208.4826894284
 20
378.3994249161
 10
208.9687392295
 20
378.0718079861
 10
209.6842110336
 20
377.7629143651
 10
210.6131224141
 20
377.4796432909
 10
211.7347230383
 20
377.2283203062
 10
213.0239589319
 20
377.0145631488
 10
214.4520294101
 20
376.8431401905
 10
215.9870350447
 20
376.7178810295
 10
217.5946855864
 20
376.6415945347
 10
219.2390689247
 20
376.6159719881
  0
LWPOLYLINE
  5
90
330
1F
100
AcDbEntity
  8
0
  6
Continuous
 62
     7
370
    15
100
AcDbPolyline
 90
        3
 70
   128
 43
0.0
 10
217.1040912804
 20
385.1280815061
 10
219.4870813114
 20
385.1966342982
 10
221.4174770929
 20
385.1280815061
  0
LINE
  5
91
330
1F
100
AcDbEntity
  8
0
  6
Continuous
 62
     7
370
    15
100
AcDbLine
 10
203.7323668778
 20
438.9871290978
 30
0.0
 11
203.7388591275
 21
438.9883956965
 31
0.0
  0
LINE
  5
92
330
1F
100
AcDbEntity
  8
0
  6
Continuous
 62
     7
370
    15
100
AcDbLine
 10
234.7350020141
 20
438.9893493708
 30
0.0
 11
234.7457895235
 21
438.9872632082
 31
0.0
  0
LINE
  5
93
330
1F
100
AcDbEntity
  8
0
  6
Continuous
 62
     7
370
    15
100
AcDbLine
 10
234.7459003509
 20
438.9872632082
 30
0.0
 11
234.4688365415
 21
438.2072917279
 31
0.0
  0
LINE
  5
94
330
1F
100
AcDbEntity
  8
0
  6
Continuous
 62
     7
370
    15
100
AcDbLine
 10
203.7322644324
 20
438.9871290978
 30
0.0
 11
203.901129979
 21
438.5101280268
 31
0.0
  0
LINE
  5
95
330
1F
100
AcDbEntity
  8
0
  6
Continuous
 62
     7
370
    15
100
AcDbLine
 10
197.0827618793
 20
440.1456943806
 30
0.0
 11
197.0826072798
 21
440.1445469912
 31
0.0
  0
LWPOLYLINE
  5
96
330
1F
100
AcDbEntity
  8
0
  6
Continuous
 62
     7
370
    15
100
AcDbPolyline
 90
        3
 70
   128
 43
0.0
 10
217.1796636835
 20
419.1457337793
 10
218.6175852844
 20
419.6171394642
 10
219.2390689247
 20
419.6612916049
  0
ARC
  5
97
330
1F
100
AcDbEntity
  8
0
  6
Continuous
 62
     7
370
    15
100
AcDbCircle
 10
218.9660596594
 20
415.4940052666
 30
0.0
 40
3.690823878358174
100
AcDbArc
 50
176.8077402875
 51
238.5590496491
  0
ARC
  5
98
330
1F
100
AcDbEntity
  8
0
  6
Continuous
 62
     7
370
    15
100
AcDbCircle
 10
219.2573564058
 20
415.6845801456
 30
0.0
 40
3.988031550042038
100
AcDbArc
 50
303.1351273361
 51
0.2424697687
  0
LWPOLYLINE
  5
99
330
1F
100
AcDbEntity
  8
0
  6
Continuous
 62
     7
370
    15
100
AcDbPolyline
 90
        3
 70
   128
 43
0.0
 10
219.2390689247
 20
419.6612916049
 10
219.912039262
 20
419.6094504651
 10
221.2984740913
 20
419.1457337793
  0
CIRCLE
  5
9A
330
1F
100
AcDbEntity
  8
0
  6
Continuous
 62
     7
370
    15
100
AcDbCircle
 10
219.2390478107
 20
415.7050677896
 30
0.0
 40
3.792741679656261
  0
CIRCLE
  5
9B
330
1F
100
AcDbEntity
  8
0
  6
Continuous
 62
     7
370
    15
100
AcDbCircle
 10
219.2390517143
 20
415.7055870386
 30
0.0
 40
3.580374001090858
  0
ARC
  5
9C
330
1F
100
AcDbEntity
  8
0
  6
Continuous
 62
     7
370
    15
100
AcDbCircle
 10
219.2390688874
 20
415.7026424561
 30
0.0
 40
4.011985500215313
100
AcDbArc
 50
120.8847749061
 51
59.1152250939
  0
LINE
  5
9D
330
1F
100
AcDbEntity
  8
0
  6
Continuous
 62
     7
370
    15
100
AcDbLine
 10
219.2390689247
 20
300.6633336545
 30
0.0
 11
243.1572081701
 21
300.6633336545
 31
0.0
  0
LINE
  5
9E
330
1F
100
AcDbEntity
  8
0
  6
Continuous
 62
     7
370
    15
100
AcDbLine
 10
195.3209286735
 20
300.6633336545
 30
0.0
 11
219.2390689247
 21
300.6633336545
 31
0.0
  0
ARC
  5
9F
330
1F
100
AcDbEntity
  8
0
  6
Continuous
 62
     7
370
    15
100
AcDbCircle
 10
219.2390649293
 20
415.7037152634
 30
0.0
 40
4.014053396855168
100
AcDbArc
 50
236.7956026311
 51
303.2043973689
  0
LWPOLYLINE
  5
A0
330
1F
100
AcDbEntity
  8
0
  6
Continuous
 62
     7
370
    15
100
AcDbPolyline
 90
       26
 70
   128
 43
0.0
 10
240.8887876377
 20
405.6076488551
 10
240.0725374178
 20
405.616194671
 10
239.0461044565
 20
405.6243679579
 10
237.8198394731
 20
405.63209421
 10
236.4061197445
 20
405.6392840203
 10
234.8192047507
 20
405.6458703335
 10
233.0751057894
 20
405.6517860945
 10
231.1914174066
 20
405.6569716986
 10
229.1871441708
 20
405.6613749918
 10
227.082507889
 20
405.664958721
 10
224.8987403878
 20
405.6676707324
 10
222.6578739651
 20
405.6694961246
 10
220.3825160109
 20
405.670412546
 10
218.0956218804
 20
405.670412546
 10
215.8202638098
 20
405.6694961246
 10
213.5793973871
 20
405.6676707324
 10
211.3956298858
 20
405.664958721
 10
209.2909936041
 20
405.6613749918
 10
207.2867203683
 20
405.6569716986
 10
205.4030319855
 20
405.6517860945
 10
203.6589330242
 20
405.6458703335
 10
202.072017099
 20
405.6392840203
 10
200.6582973704
 20
405.63209421
 10
199.4320342497
 20
405.6243679579
 10
198.4055994258
 20
405.616194671
 10
197.5893492058
 20
405.6076488551
  0
LWPOLYLINE
  5
A1
330
1F
100
AcDbEntity
  8
0
  6
Continuous
 62
     7
370
    15
100
AcDbPolyline
 90
       24
 70
   128
 43
0.0
 10
239.1023582027
 20
405.6076488551
 10
238.2281219766
 20
405.6159339007
 10
237.1388005272
 20
405.6237942632
 10
235.846732016
 20
405.6311479863
 10
234.3665521771
 20
405.6379131135
 10
232.7150266797
 20
405.644015139
 10
230.9108611376
 20
405.6493721064
 10
228.974491562
 20
405.6539393123
 10
226.9278505996
 20
405.6576497015
 10
224.794120732
 20
405.6604734715
 10
222.5974695471
 20
405.6623733696
 10
220.3627784916
 20
405.6633270439
 10
218.1153593997
 20
405.6633270439
 10
215.8806684606
 20
405.6623733696
 10
213.6840175085
 20
405.6604734715
 10
211.5502871752
 20
405.6576497015
 10
209.5036462129
 20
405.6539393123
 10
207.5672766373
 20
405.6493721064
 10
205.7631110952
 20
405.644015139
 10
204.1115855977
 20
405.6379131135
 10
202.6314048276
 20
405.6311479863
 10
201.339338179
 20
405.6237942632
 10
200.2500167296
 20
405.6159339007
 10
199.3757805035
 20
405.6076488551
  0
LINE
  5
A2
330
1F
100
AcDbEntity
  8
0
  6
Continuous
 62
     7
370
    15
100
AcDbLine
 10
239.1714679257
 20
405.6079096254
 30
0.0
 11
239.1023582027
 21
405.6076488551
 31
0.0
  0
LINE
  5
A3
330
1F
100
AcDbEntity
  8
0
  6
Continuous
 62
     7
370
    15
100
AcDbLine
 10
199.3757805035
 20
405.6076488551
 30
0.0
 11
199.3162298754
 21
405.611113375
 31
0.0
  0
LINE
  5
A4
330
1F
100
AcDbEntity
  8
0
  6
Continuous
 62
     7
370
    15
100
AcDbLine
 10
197.5893492058
 20
405.6076488551
 30
0.0
 11
197.4635163501
 21
405.6134081539
 31
0.0
  0
LINE
  5
A5
330
1F
100
AcDbEntity
  8
0
  6
Continuous
 62
     7
370
    15
100
AcDbLine
 10
240.9411652193
 20
405.6119627412
 30
0.0
 11
240.8887876377
 21
405.6076488551
 31
0.0
  0
LWPOLYLINE
  5
A6
330
1F
100
AcDbEntity
  8
0
  6
Continuous
 62
     7
370
    15
100
AcDbPolyline
 90
       16
 70
   128
 43
0.0
 10
200.0213360593
 20
398.7974158581
 10
200.1007536606
 20
398.7967453059
 10
200.1811007217
 20
398.7977362331
 10
200.2607474283
 20
398.8012454566
 10
200.3392355696
 20
398.8054699358
 10
200.4321852878
 20
398.7843400892
 10
200.771680306
 20
398.727976447
 10
201.6871238307
 20
398.6482999381
 10
202.9624974534
 20
398.5730192717
 10
204.6356771321
 20
398.5054052528
 10
206.6508012072
 20
398.4518877324
 10
208.9030176581
 20
398.4103730973
 10
211.3146346242
 20
398.3795723971
 10
213.8614735745
 20
398.3588970359
 10
216.5206200157
 20
398.3422896918
 10
219.2390267182
 20
398.3323580678
  0
ARC
  5
A7
330
1F
100
AcDbEntity
  8
0
  6
Continuous
 62
     7
370
    15
100
AcDbCircle
 10
196.4769338765
 20
375.9313509336
 30
0.0
 40
23.13910710366543
100
AcDbArc
 50
81.1885223806
 51
90.1135683778
  0
LWPOLYLINE
  5
A8
330
1F
100
AcDbEntity
  8
0
  6
Continuous
 62
     7
370
    15
100
AcDbPolyline
 90
       62
 70
   128
 43
0.0
 10
219.0350367314
 20
400.5075476225
 10
216.936666257
 20
400.5068770703
 10
214.8688819439
 20
400.5075997766
 10
213.8683653616
 20
400.5076742824
 10
212.8912487247
 20
400.5074656662
 10
211.9237633601
 20
400.5071229394
 10
210.9819354669
 20
400.506899422
 10
209.1816758916
 20
400.5073017534
 10
207.5203361169
 20
400.5077413376
 10
206.0165174485
 20
400.5071378406
 10
204.713586922
 20
400.5068845209
 10
204.1259568364
 20
400.5073017534
 10
203.6183320165
 20
400.5077264365
 10
202.7137113914
 20
400.5074954685
 10
202.3520546213
 20
400.5069739278
 10
202.055514063
 20
400.5066759046
 10
201.8297037289
 20
400.5069441255
 10
201.6724387363
 20
400.5072421487
 10
201.5102302835
 20
400.5073017534
 10
201.4745736674
 20
400.5079574045
 10
201.4480905787
 20
400.5078605469
 10
201.3973837898
 20
400.5065343436
 10
201.3474462733
 20
400.5070931371
 10
201.2497114197
 20
400.5072645005
 10
201.1501269594
 20
400.5070931371
 10
201.1076176718
 20
400.5074135121
 10
201.0554412559
 20
400.5076146778
 10
201.0058669553
 20
400.5075178202
 10
200.9609809325
 20
400.5073017534
 10
200.873129274
 20
400.5070335325
 10
200.7915789441
 20
400.5073166545
 10
200.7534673617
 20
400.5075029191
 10
200.7169148133
 20
400.5075699743
 10
200.6794868216
 20
400.5074209627
 10
200.6436998204
 20
400.507219797
 10
200.5762366757
 20
400.507078236
 10
200.5142515705
 20
400.5071974453
 10
200.4578897909
 20
400.507309204
 10
200.4074996517
 20
400.5073762592
 10
200.3936415718
 20
400.5073762592
 10
200.3790905879
 20
400.5073241051
 10
200.3657875762
 20
400.5072346982
 10
200.3547216014
 20
400.5071750935
 10
200.3421953127
 20
400.5071750935
 10
200.3295479522
 20
400.5072719511
 10
200.3119310543
 20
400.5074209627
 10
200.2921441749
 20
400.5074284132
 10
200.2690976665
 20
400.5072346982
 10
200.2423500822
 20
400.5071005877
 10
200.1730671332
 20
400.5072495993
 10
200.0630071566
 20
400.5075550731
 10
199.9838149354
 20
400.5074731167
 10
199.8899543837
 20
400.5072048958
 10
199.7746491984
 20
400.5070037302
 10
199.6253283874
 20
400.5069664773
 10
199.3817968473
 20
400.5072570499
 10
199.0792157308
 20
400.5076146778
 10
198.7405253754
 20
400.5074135121
 10
198.5473374084
 20
400.5071005877
 10
198.356235604
 20
400.5068696197
 10
198.1514806107
 20
400.5069590267
 10
198.0686636821
 20
400.5069366749
  0
LWPOLYLINE
  5
A9
330
1F
100
AcDbEntity
  8
0
  6
Continuous
 62
     7
370
    15
100
AcDbPolyline
 90
        3
 70
   128
 43
0.0
 10
219.2385012524
 20
400.5078754481
 10
219.1339061178
 20
400.5077934917
 10
219.0350367314
 20
400.5075476225
  0
LWPOLYLINE
  5
AA
330
1F
100
AcDbEntity
  8
0
  6
Continuous
 62
     7
370
    15
100
AcDbPolyline
 90
       51
 70
   128
 43
0.0
 10
240.4089367197
 20
400.5071750935
 10
240.3319033042
 20
400.5069739278
 10
240.0364877835
 20
400.5069515761
 10
239.7520451055
 20
400.5073837098
 10
239.2460650012
 20
400.5074880179
 10
238.8497779325
 20
400.5069590267
 10
238.5823337541
 20
400.5071825441
 10
238.4863088087
 20
400.5074656662
 10
238.4116614417
 20
400.507540172
 10
238.3358908997
 20
400.5073762592
 10
238.2735314027
 20
400.5071452912
 10
238.2322570488
 20
400.5071154889
 10
238.1989473656
 20
400.5073241051
 10
238.171015139
 20
400.5074433144
 10
238.1458638415
 20
400.5072421487
 10
238.1207777367
 20
400.5071899947
 10
238.0927654163
 20
400.507361358
 10
238.0633076832
 20
400.5073837098
 10
238.0303705291
 20
400.5073390063
 10
237.9944661812
 20
400.5072645005
 10
237.955985795
 20
400.5071676429
 10
237.8936095343
 20
400.5070558842
 10
237.8260700211
 20
400.5072645005
 10
237.6758923933
 20
400.5072346982
 10
237.5935262248
 20
400.5070111807
 10
237.5074887828
 20
400.5073539074
 10
237.4161856428
 20
400.5076072272
 10
237.3226529167
 20
400.5070633348
 10
237.2750604705
 20
400.5068323668
 10
237.2265106246
 20
400.5073166545
 10
237.1771915064
 20
400.5079872068
 10
237.1267790154
 20
400.5069739278
 10
237.0752079592
 20
400.5065715965
 10
237.0260974572
 20
400.5078977998
 10
236.9624247954
 20
400.5072421487
 10
236.7924751893
 20
400.5073390063
 10
236.6271691576
 20
400.5069664773
 10
236.3937908963
 20
400.5067504104
 10
236.1026426957
 20
400.5070335325
 10
235.7370743707
 20
400.5075252708
 10
234.8473865718
 20
400.5076891836
 10
233.7415173829
 20
400.506847268
 10
232.4366515682
 20
400.5071378406
 10
230.9478402317
 20
400.5077562388
 10
229.3065341369
 20
400.5073166545
 10
227.4974959151
 20
400.5068919714
 10
225.5704060376
 20
400.5074656662
 10
223.5912873589
 20
400.5076221283
 10
221.5315750514
 20
400.506899422
 10
220.4894178726
 20
400.5070931371
 10
219.4431065732
 20
400.5075550731
  0
ARC
  5
AB
330
1F
100
AcDbEntity
  8
0
  6
Continuous
 62
     7
370
    15
100
AcDbCircle
 10
242.0016001837
 20
375.9261523066
 30
0.0
 40
23.14430494031683
100
AcDbArc
 50
89.8874358635
 51
98.8104733781
  0
LWPOLYLINE
  5
AC
330
1F
100
AcDbEntity
  8
0
  6
Continuous
 62
     7
370
    15
100
AcDbPolyline
 90
       16
 70
   128
 43
0.0
 10
219.2391498026
 20
398.3323580678
 10
221.9467777473
 20
398.3422226366
 10
224.5893671357
 20
398.3586958703
 10
227.1385064528
 20
398.3794159349
 10
229.5604964898
 20
398.4099782165
 10
231.8169290379
 20
398.4517536219
 10
233.8340265856
 20
398.5052115377
 10
235.5085743771
 20
398.5726094898
 10
236.7882637486
 20
398.6481360253
 10
237.7063857571
 20
398.7280435022
 10
238.0462477163
 20
398.7843996938
 10
238.139389287
 20
398.8054773863
 10
238.2173894153
 20
398.8012305554
 10
238.2970621989
 20
398.797773486
 10
238.3774502382
 20
398.7967453059
 10
238.4568436251
 20
398.7973339017
  0
LWPOLYLINE
  5
AD
330
1F
100
AcDbEntity
  8
0
  6
Continuous
 62
     7
370
    15
100
AcDbPolyline
 90
       12
 70
   128
 43
0.0
 10
219.4431065878
 20
400.5075550731
 10
219.340891083
 20
400.5077934917
 10
219.2897797254
 20
400.5078605469
 10
219.2641987499
 20
400.5078754481
 10
219.2513648675
 20
400.5078754481
 10
219.2447598236
 20
400.5078754481
 10
219.2401190111
 20
400.5078754481
 10
219.238872088
 20
400.5078754481
 10
219.2385610514
 20
400.5078754481
 10
219.2385281845
 20
400.5078754481
 10
219.2385096027
 20
400.5078754481
 10
219.2384995164
 20
400.5078754481
  0
LWPOLYLINE
  5
AE
330
1F
100
AcDbEntity
  8
0
  6
Continuous
 62
     7
370
    15
100
AcDbPolyline
 90
        8
 70
   128
 43
0.0
 10
238.4566368715
 20
398.7971997913
 10
237.7085371122
 20
395.2626369055
 10
236.753177102
 20
392.0317522343
 10
235.5920432315
 20
389.2089880165
 10
234.5508525327
 20
387.3297355231
 10
233.3763513893
 20
385.7019103225
 10
232.10950775
 20
384.3561790045
 10
231.2750688002
 20
383.681394821
  0
LWPOLYLINE
  5
AF
330
1F
100
AcDbEntity
  8
0
  6
Continuous
 62
     7
370
    15
100
AcDbPolyline
 90
        9
 70
   128
 43
0.0
 10
200.0214869336
 20
398.7972742971
 10
200.760362874
 20
395.2995768841
 10
201.7051095322
 20
392.0889503416
 10
202.8553748683
 20
389.2724297102
 10
203.8970321596
 20
387.3777843174
 10
205.0731258646
 20
385.7367492374
 10
205.914209801
 20
384.7984454688
 10
206.8233184696
 20
383.9527598675
 10
207.2030689747
 20
383.660272425
  0
ARC
  5
B0
330
1F
100
AcDbEntity
  8
0
  6
Continuous
 62
     7
370
    15
100
AcDbCircle
 10
215.4589517475
 20
579.7309132563
 30
0.0
 40
141.229659845536
100
AcDbArc
 50
265.2397747735
 51
271.5337470733
  0
ARC
  5
B1
330
1F
100
AcDbEntity
  8
0
  6
Continuous
 62
     7
370
    15
100
AcDbCircle
 10
201.2090971431
 20
635.6854899094
 30
0.0
 40
196.7143191719813
100
AcDbArc
 50
268.8844843967
 51
270.7349149439
  0
LWPOLYLINE
  5
B2
330
1F
100
AcDbEntity
  8
0
  6
Continuous
 62
     7
370
    15
100
AcDbPolyline
 90
       60
 70
   128
 43
0.0
 10
219.2377132621
 20
440.460585719
 10
218.6052858892
 20
440.4602280911
 10
217.9699364065
 20
440.4597512539
 10
216.7075290058
 20
440.4590061959
 10
216.0776154783
 20
440.4587677773
 10
215.4592326556
 20
440.4583505448
 10
214.8492431447
 20
440.4577395972
 10
214.2495063313
 20
440.4569200333
 10
213.655845932
 20
440.455876952
 10
213.0728207708
 20
440.4547295626
 10
211.9487595924
 20
440.4523304757
 10
210.8679080561
 20
440.4496631678
 10
209.8487701446
 20
440.4467276391
 10
208.9094763801
 20
440.4433599766
 10
208.0462288291
 20
440.439515477
 10
207.2765391499
 20
440.4353431519
 10
206.6002620563
 20
440.4311261233
 10
206.0113933117
 20
440.4268047865
 10
205.5371219472
 20
440.4228261765
 10
205.1620317802
 20
440.417789584
 10
205.0183026299
 20
440.414645439
 10
204.9068857164
 20
440.4115608986
 10
204.8284767375
 20
440.4093704279
 10
204.7788111672
 20
440.4077611025
 10
204.7246920124
 20
440.4028735217
 10
204.6896854595
 20
440.3967640456
 10
204.6602528722
 20
440.3911016043
 10
204.6031721116
 20
440.3818926867
 10
204.5465951965
 20
440.3718791064
 10
204.4877151207
 20
440.3610161599
 10
204.4577032507
 20
440.3560093697
 10
204.4282511056
 20
440.35113669
 10
204.3992730037
 20
440.3462491091
 10
204.3706637055
 20
440.3412274178
 10
204.3432939977
 20
440.336161023
 10
204.3177161545
 20
440.3311393317
 10
204.2703621269
 20
440.3209767397
 10
204.248916562
 20
440.3160146531
 10
204.2274579585
 20
440.3109482583
 10
204.1832611144
 20
440.3009942826
 10
204.1312271908
 20
440.2910850104
 10
204.0637510077
 20
440.2807138022
 10
203.9762150676
 20
440.270715123
 10
203.8605466664
 20
440.2609548625
 10
203.7036178813
 20
440.2506134566
 10
203.6039831296
 20
440.2453384455
 10
203.4861410216
 20
440.2400932368
 10
203.3453380868
 20
440.2350119408
 10
203.1729689047
 20
440.2299157437
 10
202.9611973271
 20
440.225043064
 10
202.6979869411
 20
440.2204386052
 10
202.3748925135
 20
440.2159086522
 10
201.9903214828
 20
440.211453205
 10
201.5440186665
 20
440.2061483916
 10
201.0541597561
 20
440.2006945666
 10
200.5475538031
 20
440.1957026776
 10
200.0444384471
 20
440.191023713
 10
199.5598526851
 20
440.1866576727
 10
199.093649368
 20
440.1824704464
 10
198.2347948656
 20
440.1726803835
  0
ARC
  5
B3
330
1F
100
AcDbEntity
  8
0
  6
Continuous
 62
     7
370
    15
100
AcDbCircle
 10
237.2675439132
 20
636.1364019207
 30
0.0
 40
197.1651750159897
100
AcDbArc
 50
269.2672009209
 51
271.1133997385
  0
LWPOLYLINE
  5
B4
330
1F
100
AcDbEntity
  8
0
  6
Continuous
 62
     7
370
    15
100
AcDbPolyline
 90
       12
 70
   128
 43
0.0
 10
219.2390600956
 20
438.5518512782
 10
222.665516631
 20
438.5622522887
 10
225.9563125849
 20
438.5947964247
 10
228.9522711367
 20
438.6472634133
 10
231.4756281853
 20
438.7325129565
 10
232.5125506327
 20
438.7882582005
 10
233.3709683449
 20
438.851349717
 10
234.0178203017
 20
438.9148286637
 10
234.4324432493
 20
438.9591447171
 10
234.627758357
 20
438.9980218466
 10
234.6924331219
 20
438.997589713
 10
234.7350020141
 20
438.9893493708
  0
LWPOLYLINE
  5
B5
330
1F
100
AcDbEntity
  8
0
  6
Continuous
 62
     7
370
    15
100
AcDbPolyline
 90
       53
 70
   128
 43
0.0
 10
240.2431147352
 20
440.1725611743
 10
239.3774541274
 20
440.182425743
 10
238.9119697914
 20
440.1868960913
 10
238.4257244126
 20
440.1915005501
 10
237.9227580682
 20
440.1961497124
 10
237.4121139005
 20
440.2009627875
 10
236.9240226403
 20
440.2060738858
 10
236.4783587114
 20
440.2112296875
 10
236.0906807885
 20
440.2157894429
 10
235.7680482969
 20
440.220513111
 10
235.5064993904
 20
440.2253112849
 10
235.2944055752
 20
440.2303925808
 10
235.1239847199
 20
440.2355036791
 10
234.9855045036
 20
440.2405104693
 10
234.7731368796
 20
440.2506879624
 10
234.6151678071
 20
440.2610740717
 10
234.4986491085
 20
440.2710280474
 10
234.4101585627
 20
440.2813247498
 10
234.3428081081
 20
440.2918151673
 10
234.2471575544
 20
440.3117976244
 10
234.2254856781
 20
440.3169087227
 10
234.2030054138
 20
440.3220496233
 10
234.179960768
 20
440.3270415123
 10
234.1553505689
 20
440.332093006
 10
234.1295566589
 20
440.3371146973
 10
234.10228474
 20
440.3421959933
 10
234.0733941824
 20
440.3473368939
 10
234.0437194512
 20
440.3524181899
 10
233.9849986315
 20
440.3622529562
 10
233.9290363893
 20
440.3723261412
 10
233.8732743815
 20
440.3818628844
 10
233.8170848966
 20
440.3913400229
 10
233.7528934882
 20
440.4030523356
 10
233.6974844516
 20
440.4076865967
 10
233.6464107216
 20
440.4092363175
 10
233.5652236075
 20
440.4115608986
 10
233.4506159828
 20
440.4148093518
 10
233.3043974072
 20
440.4180280026
 10
232.9226240695
 20
440.4229900893
 10
232.441660221
 20
440.4270134028
 10
231.8538149998
 20
440.4313049372
 10
230.399691704
 20
440.4395899828
 10
229.51909827
 20
440.4434791859
 10
228.5779977397
 20
440.4468915518
 10
227.5761842907
 20
440.4498121794
 10
226.4994794682
 20
440.4524198826
 10
225.3913816244
 20
440.4547295626
 10
224.2209354595
 20
440.456890231
 10
223.0064323817
 20
440.4584846552
 10
221.7597088025
 20
440.4591254052
 10
220.5032960924
 20
440.4598704632
 10
219.8678627324
 20
440.4602876957
 10
219.238135241
 20
440.460585719
  0
LWPOLYLINE
  5
B6
330
1F
100
AcDbEntity
  8
0
  6
Continuous
 62
     7
370
    15
100
AcDbPolyline
 90
       10
 70
   128
 43
0.0
 10
234.4688365415
 20
438.2072917279
 10
233.919458668
 20
436.6607002076
 10
232.4512435303
 20
434.8740211781
 10
230.3893372596
 20
433.6265257653
 10
229.2971315042
 20
433.2267723139
 10
228.0639765964
 20
432.9018226918
 10
225.990642532
 20
432.5554153975
 10
223.4758434065
 20
432.3416582402
 10
221.4852079928
 20
432.266675597
 10
219.239252842
 20
432.2429976519
  0
LWPOLYLINE
  5
B7
330
1F
100
AcDbEntity
  8
0
  6
Continuous
 62
     7
370
    15
100
AcDbPolyline
 90
       14
 70
   128
 43
0.0
 10
203.901129979
 20
438.5101280268
 10
204.5508662418
 20
436.6747520026
 10
205.1977619708
 20
435.7182166632
 10
206.0028158308
 20
434.8945698794
 10
206.9216642708
 20
434.2266104277
 10
207.9949408949
 20
433.6672059353
 10
208.6978873417
 20
433.388181692
 10
209.4625255272
 20
433.1424019393
 10
210.2889299572
 20
432.9299560841
 10
211.9356861517
 20
432.6286248024
 10
213.873898349
 20
432.416894203
 10
215.7261012767
 20
432.3070577439
 10
217.3994811897
 20
432.2582862433
 10
219.2388973732
 20
432.2429976519
  0
ARC
  5
B8
330
1F
100
AcDbEntity
  8
0
  6
Continuous
 62
     7
370
     0
100
AcDbCircle
 10
198.134319204
 20
419.8583400922
 30
0.0
 40
20.3145887684232
100
AcDbArc
 50
89.7166147497
 51
92.9671649333
  0
ARC
  5
B9
330
1F
100
AcDbEntity
  8
0
  6
Continuous
 62
     7
370
     0
100
AcDbCircle
 10
240.2621187987
 20
417.4005943219
 30
0.0
 40
22.77197478218841
100
AcDbArc
 50
87.2238405416
 51
90.0478154736
  0
LINE
  5
BA
330
1F
100
AcDbEntity
  8
0
  6
Continuous
 62
     7
370
    15
100
AcDbLine
 10
196.4310893968
 20
399.0704274829
 30
0.0
 11
196.2153969512
 21
399.0704274829
 31
0.0
  0
LINE
  5
BB
330
1F
100
AcDbEntity
  8
0
  6
Continuous
 62
     7
370
    15
100
AcDbLine
 10
242.3136310831
 20
399.0704274829
 30
0.0
 11
242.0470474467
 21
399.0704274829
 31
0.0
  0
LWPOLYLINE
  5
BC
330
1F
100
AcDbEntity
  8
0
  6
Continuous
 62
     7
370
     0
100
AcDbPolyline
 90
        5
 70
   128
 43
0.0
 10
241.1749085591
 20
405.9089205321
 10
241.8354323313
 20
405.9598228987
 10
242.1218810782
 20
406.0660458263
 10
242.3063015745
 20
406.3428497966
 10
242.301579769
 20
406.3841409143
  0
ARC
  5
BD
330
1F
100
AcDbEntity
  8
0
  6
Continuous
 62
     7
370
    15
100
AcDbCircle
 10
197.2210287408
 20
421.0576810803
 30
0.0
 40
17.95154643938846
100
AcDbArc
 50
89.4938875169
 51
93.3233597478
  0
ARC
  5
BE
330
1F
100
AcDbEntity
  8
0
  6
Continuous
 62
     7
370
    15
100
AcDbCircle
 10
241.2609161826
 20
421.1483607064
 30
0.0
 40
17.86090456639496
100
AcDbArc
 50
86.6661325571
 51
90.5208914191
  0
LINE
  5
BF
330
1F
100
AcDbEntity
  8
0
  6
Continuous
 62
     7
370
     0
100
AcDbLine
 10
197.5893492058
 20
405.6076488551
 30
0.0
 11
199.3757805035
 21
405.6076488551
 31
0.0
  0
LINE
  5
C0
330
1F
100
AcDbEntity
  8
0
  6
Continuous
 62
     7
370
     0
100
AcDbLine
 10
239.1023582027
 20
405.6076488551
 30
0.0
 11
240.8887876377
 21
405.6076488551
 31
0.0
  0
ARC
  5
C1
330
1F
100
AcDbEntity
  8
0
  6
Continuous
 62
     7
370
    15
100
AcDbCircle
 10
330.8959809632
 20
438.89155177
 30
0.0
 40
1.203600000000012
100
AcDbArc
 50
104.6119260549
 51
180.375379086
  0
LINE
  5
C2
330
1F
100
AcDbEntity
  8
0
  6
Continuous
 62
     7
370
    15
100
AcDbLine
 10
375.9624155502
 20
405.9726304468
 30
0.0
 11
375.9395404052
 21
411.6914800461
 31
0.0
  0
LINE
  5
C3
330
1F
100
AcDbEntity
  8
0
  6
Continuous
 62
     7
370
    15
100
AcDbLine
 10
329.6923896562
 20
438.8867399748
 30
0.0
 11
329.798621897
 21
412.3288027104
 31
0.0
  0
LINE
  5
C4
330
1F
100
AcDbEntity
  8
0
  6
Continuous
 62
     7
370
    15
100
AcDbLine
 10
376.7136836689
 20
300.6633336545
 30
0.0
 11
376.3479253541
 21
343.6938493606
 31
0.0
  0
LINE
  5
C5
330
1F
100
AcDbEntity
  8
0
  6
Continuous
 62
     7
370
    15
100
AcDbLine
 10
329.7138659548
 20
399.0705988463
 30
0.0
 11
328.8774041723
 21
300.6633336545
 31
0.0
  0
ARC
  5
C6
330
1F
100
AcDbEntity
  8
0
  6
Continuous
 62
     7
370
    15
100
AcDbCircle
 10
331.2183103276
 20
399.0576426654
 30
0.0
 40
1.504499999999982
100
AcDbArc
 50
105.5454277371
 51
179.4079868417
  0
LWPOLYLINE
  5
C7
330
1F
100
AcDbEntity
  8
0
  6
Continuous
 62
     7
370
    15
100
AcDbPolyline
 90
       19
 70
   128
 43
0.0
 10
431.7261090766
 20
440.437295204
 10
427.3832252513
 20
441.3895688113
 10
422.7848610174
 20
441.9995478447
 10
418.3435922753
 20
442.2752044257
 10
413.6712586771
 20
442.3483989295
 10
408.7575337182
 20
442.3280737456
 10
403.6021417271
 20
442.2936073597
 10
397.4526299428
 20
442.2689012345
 10
391.7060157548
 20
442.2557882126
 10
386.3786420118
 20
442.2456256207
 10
381.467073996
 20
442.240663534
 10
375.3538800668
 20
442.2699592169
 10
369.1218102615
 20
442.3993012961
 10
362.6546411108
 20
442.6464370545
 10
355.6000276733
 20
442.8686580714
 10
349.6287016462
 20
442.8171894606
 10
343.3220748122
 20
442.3797956761
 10
336.7725869905
 20
441.4339742716
 10
330.5977748971
 20
440.0339207705
  0
LINE
  5
C8
330
1F
100
AcDbEntity
  8
0
  6
Continuous
 62
     7
370
    15
100
AcDbLine
 10
331.2512206178
 20
400.5743048247
 30
0.0
 11
330.824956138
 21
400.4696912225
 31
0.0
  0
LWPOLYLINE
  5
C9
330
1F
100
AcDbEntity
  8
0
  6
Continuous
 62
     7
370
    15
100
AcDbPolyline
 90
       17
 70
   128
 43
0.0
 10
479.8894038688
 20
400.52548117
 10
474.7974684726
 20
401.7579264101
 10
468.7930083166
 20
402.6201821025
 10
462.9998913299
 20
402.9890901502
 10
457.4151968848
 20
403.0710390862
 10
452.0362129699
 20
403.0577472504
 10
446.8616580855
 20
403.0395976361
 10
439.1427224766
 20
403.03810752
 10
431.9281464707
 20
403.056920236
 10
425.218190838
 20
403.0772826727
 10
418.5890144001
 20
403.0945605691
 10
412.5392174612
 20
403.1075692829
 10
407.0011785518
 20
403.11728484
 10
401.4785325419
 20
403.1240872201
 10
395.8713038157
 20
403.1285277661
 10
383.6968781691
 20
403.1527794059
 10
374.3079191338
 20
403.2364419755
  0
ARC
  5
CA
330
1F
100
AcDbEntity
  8
0
  6
Continuous
 62
     7
370
    15
100
AcDbCircle
 10
330.0995199166
 20
412.3300061413
 30
0.0
 40
0.3009000000000044
100
AcDbArc
 50
191.8872821869
 51
254.2291818957
  0
ARC
  5
CB
330
1F
100
AcDbEntity
  8
0
  6
Continuous
 62
     7
370
    15
100
AcDbCircle
 10
375.661518517
 20
405.971428092
 30
0.0
 40
0.3008999999999605
100
AcDbArc
 50
270.2291818958
 51
0.2291818958
  0
ARC
  5
CC
330
1F
100
AcDbEntity
  8
0
  6
Continuous
 62
     7
370
    15
100
AcDbCircle
 10
352.795544152
 20
400.5400379311
 30
0.0
 40
21.70979540437911
100
AcDbArc
 50
151.2479889688
 51
170.9531540197
  0
ARC
  5
CD
330
1F
100
AcDbEntity
  8
0
  6
Continuous
 62
     7
370
    15
100
AcDbCircle
 10
352.795544152
 20
400.5400379311
 30
0.0
 40
21.70979540437916
100
AcDbArc
 50
9.0468459803
 51
13.6503009553
  0
LINE
  5
CE
330
1F
100
AcDbEntity
  8
0
  6
Continuous
 62
     7
370
    15
100
AcDbLine
 10
331.2310444455
 20
402.3765928205
 30
0.0
 11
331.2310444455
 21
400.6212285813
 31
0.0
  0
ARC
  5
CF
330
1F
100
AcDbEntity
  8
0
  6
Continuous
 62
     7
370
    15
100
AcDbCircle
 10
364.330044152
 20
402.3765918885
 30
0.0
 40
10.03
100
AcDbArc
 50
4.8259164974
 51
9.0468459803
  0
ARC
  5
D0
330
1F
100
AcDbEntity
  8
0
  6
Continuous
 62
     7
370
    15
100
AcDbCircle
 10
341.261044152
 20
402.3765918885
 30
0.0
 40
10.02999999999997
100
AcDbArc
 50
170.9531540197
 51
180.0
  0
ARC
  5
D1
330
1F
100
AcDbEntity
  8
0
  6
Continuous
 62
     7
370
    15
100
AcDbCircle
 10
453.4756603723
 20
412.2737331967
 30
0.0
 40
30.86981323229229
100
AcDbArc
 50
300.1105203112
 51
333.165763372
  0
LINE
  5
D2
330
1F
100
AcDbEntity
  8
0
  6
Continuous
 62
     7
370
    15
100
AcDbLine
 10
445.4248881232
 20
380.2749670204
 30
0.0
 11
446.5041270744
 21
380.3301534709
 31
0.0
  0
LWPOLYLINE
  5
D3
330
1F
100
AcDbEntity
  8
0
  6
Continuous
 62
     7
370
    15
100
AcDbPolyline
 90
       10
 70
   128
 43
0.0
 10
412.5597549866
 20
432.2327158507
 10
415.9686899077
 20
432.5553259905
 10
418.8545083891
 20
432.9595050868
 10
421.1405029784
 20
433.3847693261
 10
422.8125101219
 20
433.7657324132
 10
424.7032663118
 20
434.281267887
 10
427.222210754
 20
435.1498267706
 10
430.0166478645
 20
436.5184090193
 10
431.3258489858
 20
437.4598643836
 10
432.43887632
 20
438.6239877995
  0
LINE
  5
D4
330
1F
100
AcDbEntity
  8
0
  6
Continuous
 62
     7
370
    15
100
AcDbLine
 10
469.0224414955
 20
385.3366158064
 30
0.0
 11
468.978252102
 21
385.544524258
 31
0.0
  0
LINE
  5
D5
330
1F
100
AcDbEntity
  8
0
  6
Continuous
 62
     7
370
    15
100
AcDbLine
 10
375.939236794
 20
411.6896844562
 30
0.0
 11
376.1902952831
 21
411.6906902846
 31
0.0
  0
LINE
  5
D6
330
1F
100
AcDbEntity
  8
0
  6
Continuous
 62
     7
370
    15
100
AcDbLine
 10
376.1902952831
 20
411.6906902846
 30
0.0
 11
376.7917638909
 21
411.9123301562
 31
0.0
  0
LINE
  5
D7
330
1F
100
AcDbEntity
  8
0
  6
Continuous
 62
     7
370
    15
100
AcDbLine
 10
376.7614214014
 20
419.4977960642
 30
0.0
 11
376.3065709065
 21
419.6612916049
 31
0.0
  0
ARC
  5
D8
330
1F
100
AcDbEntity
  8
0
  6
Continuous
 62
     7
370
    15
100
AcDbCircle
 10
376.6935665897
 20
419.3090235
 30
0.0
 40
0.2006000000000213
100
AcDbArc
 50
0.2291818957
 51
70.2291818957
  0
ARC
  5
D9
330
1F
100
AcDbEntity
  8
0
  6
Continuous
 62
     7
370
    15
100
AcDbCircle
 10
376.7224004434
 20
412.1005600689
 30
0.0
 40
0.2006000000000306
100
AcDbArc
 50
290.2291818958
 51
0.2291818958
  0
LWPOLYLINE
  5
DA
330
1F
100
AcDbEntity
  8
0
  6
Continuous
 62
     7
370
    15
100
AcDbPolyline
 90
       13
 70
   128
 43
0.0
 10
376.9229984175
 20
412.1013588365
 10
376.9225066792
 20
412.2241742071
 10
376.9210668545
 20
412.5842384156
 10
376.9187758009
 20
413.1570167001
 10
376.9157899808
 20
413.903475469
 10
376.9123124223
 20
414.7727496084
 10
376.908581544
 20
415.7055921014
 10
376.9048506658
 20
416.6384345945
 10
376.9013731073
 20
417.5077087339
 10
376.8983872871
 20
418.2541675027
 10
376.8960962336
 20
418.8269532379
 10
376.8946564089
 20
419.1870174464
 10
376.8941646706
 20
419.3098253664
  0
LWPOLYLINE
  5
DB
330
1F
100
AcDbEntity
  8
0
  6
Continuous
 62
     7
370
    15
100
AcDbPolyline
 90
       18
 70
   128
 43
0.0
 10
445.4155227433
 20
380.2712864336
 10
433.7662196051
 20
379.8109746631
 10
422.1054351221
 20
379.41466338
 10
415.9814005982
 20
379.2474425491
 10
409.9009519707
 20
379.0411806758
 10
403.9731620144
 20
378.5687766131
 10
399.6897598993
 20
377.8768337425
 10
395.6061153005
 20
376.8210939225
 10
391.7897826325
 20
375.3534040507
 10
388.3090166639
 20
373.4330243524
 10
385.2310141813
 20
371.0342354234
 10
382.6120233427
 20
368.1583783682
 10
380.4826623093
 20
364.835419422
 10
378.8426162939
 20
361.1200346704
 10
377.6629584174
 20
357.082039779
 10
376.8933506947
 20
352.7922972199
 10
376.4749950062
 20
348.3137681242
 10
376.3480892669
 20
343.6938568111
  0
ARC
  5
DC
330
1F
100
AcDbEntity
  8
0
  6
Continuous
 62
     7
370
    15
100
AcDbCircle
 10
479.7139174726
 20
399.057610913
 30
0.0
 40
1.504507332833947
100
AcDbArc
 50
331.1784592861
 51
74.4860061145
  0
LWPOLYLINE
  5
DD
330
1F
100
AcDbEntity
  8
0
  6
Continuous
 62
     7
370
    15
100
AcDbPolyline
 90
        3
 70
   128
 43
0.0
 10
480.1151117574
 20
400.5078754481
 10
480.1151266586
 20
400.5077934917
 10
480.1151266586
 20
400.5075476225
  0
LWPOLYLINE
  5
DE
330
1F
100
AcDbEntity
  8
0
  6
Continuous
 62
     7
370
    15
100
AcDbPolyline
 90
        8
 70
   128
 43
0.0
 10
375.8319540213
 20
412.3450673278
 10
375.8672604601
 20
412.1174297389
 10
375.8973365914
 20
411.9338474329
 10
375.9145120423
 20
411.8327281531
 10
375.9275412451
 20
411.7576710042
 10
375.9360591214
 20
411.7093241867
 10
375.9394882511
 20
411.6900197323
 10
375.9392293434
 20
411.6914725956
  0
ARC
  5
DF
330
1F
100
AcDbEntity
  8
0
  6
Continuous
 62
     7
370
    15
100
AcDbCircle
 10
359.7423271822
 20
455.7576425627
 30
0.0
 40
50.15039467949341
100
AcDbArc
 50
254.2292438836
 51
270.2291171901
  0
LINE
  5
E0
330
1F
100
AcDbEntity
  8
0
  6
Continuous
 62
     7
370
    15
100
AcDbLine
 10
328.8774041723
 20
300.6633336545
 30
0.0
 11
376.7136836689
 21
300.6633336545
 31
0.0
  0
ARC
  5
E1
330
1F
100
AcDbEntity
  8
0
  6
Continuous
 62
     7
370
    15
100
AcDbCircle
 10
431.4351147836
 20
439.2936051867
 30
0.0
 40
1.203618197246526
100
AcDbArc
 50
321.9665415075
 51
75.7546503606
  0
LWPOLYLINE
  5
E2
330
1F
100
AcDbEntity
  8
0
  6
Continuous
 62
     7
370
    15
100
AcDbPolyline
 90
       19
 70
   128
 43
0.0
 10
412.6965848993
 20
432.2429827508
 10
409.4170777391
 20
432.0334724244
 10
406.2126314532
 20
431.8868002947
 10
402.6628619324
 20
431.7671588715
 10
398.9438338469
 20
431.6657713707
 10
395.749743868
 20
431.5673641022
 10
392.8040338944
 20
431.4276508149
 10
390.0999946784
 20
431.2107495125
 10
387.6680730175
 20
430.8891973551
 10
385.5543693792
 20
430.4608187731
 10
383.6782088767
 20
429.9018762167
 10
382.0631688725
 20
429.2113117035
 10
380.67275456
 20
428.3707670029
 10
379.4981388639
 20
427.3713014182
 10
378.5266800116
 20
426.2065968569
 10
377.7311815213
 20
424.8493394907
 10
377.1119693558
 20
423.3192286547
 10
376.6341096054
 20
421.5542159136
 10
376.3065709065
 20
419.6612916049
  0
ARC
  5
E3
330
1F
100
AcDbEntity
  8
0
  6
Continuous
 62
     7
370
    15
100
AcDbCircle
 10
390.7075243635
 20
415.3019845201
 30
0.0
 40
15.04629584744181
100
AcDbArc
 50
163.1584314324
 51
165.1990672803
  0
ARC
  5
E4
330
1F
100
AcDbEntity
  8
0
  6
Continuous
 62
     7
370
    15
100
AcDbCircle
 10
392.6111685252
 20
414.9429766413
 30
0.0
 40
16.9790590328762
100
AcDbArc
 50
165.6688432081
 51
188.8011825696
  0
LWPOLYLINE
  5
E5
330
1F
100
AcDbEntity
  8
0
  6
Continuous
 62
     7
370
    15
100
AcDbPolyline
 90
       27
 70
   128
 43
0.0
 10
371.2324405353
 20
402.3765928205
 10
370.2414481233
 20
402.1403870638
 10
369.1229967665
 20
401.8939665612
 10
367.8629024218
 20
401.6442529019
 10
366.4814595397
 20
401.4056778606
 10
363.7110691782
 20
401.0324931797
 10
362.0895928036
 20
400.8727378305
 10
360.1453670565
 20
400.7338813599
 10
358.4561164755
 20
400.6588614639
 10
356.7146063581
 20
400.6236723717
 10
354.9328135125
 20
400.6217277702
 10
353.1056732611
 20
400.6212360319
 10
350.4385136332
 20
400.621429747
 10
347.7664863024
 20
400.6213254388
 10
346.0517044443
 20
400.6212658342
 10
344.272196133
 20
400.6212583836
 10
341.0659663643
 20
400.6214222964
 10
339.6519774835
 20
400.6213477906
 10
338.2775446664
 20
400.6213254388
 10
335.8109405528
 20
400.6213179883
 10
334.7340150069
 20
400.6212956365
 10
333.0279512595
 20
400.6212583836
 10
332.3702307682
 20
400.6212434824
 10
331.8523520868
 20
400.6212285813
 10
331.4976429831
 20
400.6212285813
 10
331.2894271951
 20
400.6212285813
 10
331.2397038828
 20
400.6212285813
  0
LWPOLYLINE
  5
E6
330
1F
100
AcDbEntity
  8
0
  6
Continuous
 62
     7
370
    15
100
AcDbPolyline
 90
        8
 70
   128
 43
0.0
 10
374.3077626716
 20
403.2189778145
 10
374.3156155835
 20
403.2214663085
 10
374.191272844
 20
403.1831628736
 10
373.9306608479
 20
403.1047976669
 10
373.5299071561
 20
402.9878608044
 10
372.9790317159
 20
402.8327322658
 10
372.2825626175
 20
402.6445902046
 10
371.2324405353
 20
402.3765928205
  0
LWPOLYLINE
  5
E7
330
1F
100
AcDbEntity
  8
0
  6
Continuous
 62
     7
370
    15
100
AcDbPolyline
 90
       15
 70
   128
 43
0.0
 10
346.1119968708
 20
407.4950671848
 10
344.014901508
 20
408.0873361882
 10
342.0020191263
 20
408.6558154877
 10
340.0926215838
 20
409.1950661596
 10
338.3049870174
 20
409.699932402
 10
336.6562294107
 20
410.1655787881
 10
335.1621309559
 20
410.5875424202
 10
333.836996768
 20
410.9617925342
 10
332.693513323
 20
411.2847379502
 10
331.742623661
 20
411.5532866772
 10
330.9934361171
 20
411.7648757156
 10
330.4531181495
 20
411.9174710568
 10
330.1268441867
 20
412.0096198376
 10
330.0177378844
 20
412.040435439
 10
330.0177378844
 20
412.040435439
  0
LWPOLYLINE
  5
E8
330
1F
100
AcDbEntity
  8
0
  6
Continuous
 62
     7
370
    15
100
AcDbPolyline
 90
       14
 70
   128
 43
0.0
 10
375.6627215337
 20
405.6705317553
 10
375.6339920949
 20
405.670412546
 10
375.4045812677
 20
405.6694961246
 10
374.9480748813
 20
405.6676707324
 10
374.2690773945
 20
405.664958721
 10
373.3744396161
 20
405.6613749918
 10
372.2731879245
 20
405.6569716986
 10
370.9764311354
 20
405.6517860945
 10
369.497254331
 20
405.6458703335
 10
367.8505772989
 20
405.6392840203
 10
366.0530157651
 20
405.63209421
 10
364.1227044429
 20
405.6243679579
 10
362.079116356
 20
405.616194671
 10
359.9428705204
 20
405.6076488551
  0
LWPOLYLINE
  5
E9
330
1F
100
AcDbEntity
  8
0
  6
Continuous
 62
     7
370
    15
100
AcDbPolyline
 90
       33
 70
   128
 43
0.0
 10
468.9765459191
 20
385.54429329
 10
468.9782595526
 20
385.5443677958
 10
468.9318647872
 20
385.5443752464
 10
468.5943758379
 20
385.5393312033
 10
468.3010017763
 20
385.5345777329
 10
467.9221695553
 20
385.5286992248
 10
467.4788823615
 20
385.5224556383
 10
466.9606870304
 20
385.5162567552
 10
466.3676431667
 20
385.5107731279
 10
465.6994452964
 20
385.5066529568
 10
464.9850463759
 20
385.504268771
 10
464.2109310519
 20
385.5030170735
 10
463.3786937486
 20
385.5012587365
 10
462.4896606695
 20
385.4956782516
 10
461.5708699714
 20
385.4812390264
 10
460.6135374199
 20
385.4506394919
 10
459.6087744724
 20
385.3935456928
 10
458.5775321614
 20
385.2992362436
 10
457.6026162397
 20
385.1685083564
 10
456.6208532344
 20
384.9889344629
 10
455.622482885
 20
384.7516558226
 10
454.6366369616
 20
384.4605392869
 10
453.0613234531
 20
383.8810107764
 10
451.5761768709
 20
383.2244656142
 10
450.0870218765
 20
382.4953443464
 10
449.3961965929
 20
382.1450776514
 10
448.7406200062
 20
381.8110234197
 10
448.1062924753
 20
381.4897543844
 10
447.5261306654
 20
381.2005377468
 10
446.9983166348
 20
380.943708783
 10
446.5391597043
 20
380.7272396143
 10
446.1219048392
 20
380.5383599456
 10
445.8034819256
 20
380.4012692626
  0
LWPOLYLINE
  5
EA
330
1F
100
AcDbEntity
  8
0
  6
Continuous
 62
     7
370
    15
100
AcDbPolyline
 90
        5
 70
   128
 43
0.0
 10
468.0413639437
 20
385.1280815061
 10
468.4671646248
 20
385.2185837086
 10
468.7745606791
 20
385.2839253005
 10
468.9603111039
 20
385.323405927
 10
469.0224414955
 20
385.3366158064
  0
LINE
  5
EB
330
1F
100
AcDbEntity
  8
0
  6
Continuous
 62
     7
370
    15
100
AcDbLine
 10
468.7551072131
 20
381.7701793369
 30
0.0
 11
468.0413639437
 21
385.1280815061
 31
0.0
  0
LWPOLYLINE
  5
EC
330
1F
100
AcDbEntity
  8
0
  6
Continuous
 62
     7
370
    15
100
AcDbPolyline
 90
       17
 70
   128
 43
0.0
 10
468.7551072131
 20
381.7701793369
 10
467.9622685801
 20
381.6016546544
 10
466.9596886526
 20
381.3885531481
 10
465.7684078704
 20
381.135337716
 10
464.4134005796
 20
380.8473206218
 10
462.9230907451
 20
380.5305442866
 10
461.3287484537
 20
380.1916546281
 10
459.6638119112
 20
379.8377669509
 10
457.9632019888
 20
379.4762871321
 10
456.2625920664
 20
379.1148147639
 10
454.5976555239
 20
378.7609196361
 10
453.0033132325
 20
378.4220299777
 10
451.5130108486
 20
378.1052536424
 10
450.1580035578
 20
377.8172439989
 10
448.966715325
 20
377.5640285667
 10
447.9641353976
 20
377.3509196099
 10
447.1712967645
 20
377.1824023779
  0
LINE
  5
ED
330
1F
100
AcDbEntity
  8
0
  6
Continuous
 62
     7
370
    15
100
AcDbLine
 10
447.1712967645
 20
377.1824023779
 30
0.0
 11
446.4575534951
 21
380.5402970966
 31
0.0
  0
LWPOLYLINE
  5
EE
330
1F
100
AcDbEntity
  8
0
  6
Continuous
 62
     7
370
    15
100
AcDbPolyline
 90
        9
 70
   128
 43
0.0
 10
445.8034819256
 20
380.4012692626
 10
445.8664542328
 20
380.414657956
 10
445.9348654639
 20
380.4291940387
 10
446.0086858164
 20
380.4448849615
 10
446.087870587
 20
380.4617232736
 10
446.1723974239
 20
380.4796866234
 10
446.262214173
 20
380.4987750109
 10
446.3572835814
 20
380.5189884361
 10
446.4575534951
 20
380.5402970966
  0
LWPOLYLINE
  5
EF
330
1F
100
AcDbEntity
  8
0
  6
Continuous
 62
     7
370
    15
100
AcDbPolyline
 90
        6
 70
   128
 43
0.0
 10
468.875501145
 20
381.203748947
 10
468.867506672
 20
381.2413818296
 10
468.8513463627
 20
381.3174150046
 10
468.826878656
 20
381.4325115736
 10
468.7945431362
 20
381.5846226271
 10
468.7551072131
 20
381.7701793369
  0
LWPOLYLINE
  5
F0
330
1F
100
AcDbEntity
  8
0
  6
Continuous
 62
     7
370
    15
100
AcDbPolyline
 90
       22
 70
   128
 43
0.0
 10
468.875501145
 20
381.203748947
 10
468.7549656521
 20
381.1781264003
 10
468.396048833
 20
381.1018399056
 10
467.8067675124
 20
380.9765807446
 10
467.0002868663
 20
380.8051577862
 10
465.9946223985
 20
380.5914006289
 10
464.8122450601
 20
380.3400776442
 10
463.4795522581
 20
380.0568065699
 10
462.0263239633
 20
379.7479129489
 10
460.4850223552
 20
379.4202960189
 10
458.8900840174
 20
379.0812797006
 10
457.2771227251
 20
378.7384412344
 10
455.6821769368
 20
378.3994249161
 10
454.1408753287
 20
378.0718079861
 10
452.6876470338
 20
377.7629143651
 10
451.3549616824
 20
377.4796432909
 10
450.1725768935
 20
377.2283203062
 10
449.1669124256
 20
377.0145631488
 10
448.3604317795
 20
376.8431401905
 10
447.7711504589
 20
376.7178810295
 10
447.4122336398
 20
376.6415945347
 10
447.2916981469
 20
376.6159719881
  0
LWPOLYLINE
  5
F1
330
1F
100
AcDbEntity
  8
0
  6
Continuous
 62
     7
370
    15
100
AcDbPolyline
 90
        7
 70
   128
 43
0.0
 10
447.2916981469
 20
376.6159719881
 10
447.2896939408
 20
376.6253969725
 10
447.2836962234
 20
376.6536048707
 10
447.2675359141
 20
376.7296305951
 10
447.243075658
 20
376.8447346147
 10
447.2107401382
 20
376.9968456682
 10
447.1712967645
 20
377.1824023779
  0
LWPOLYLINE
  5
F2
330
1F
100
AcDbEntity
  8
0
  6
Continuous
 62
     7
370
    15
100
AcDbPolyline
 90
       12
 70
   128
 43
0.0
 10
376.1902952831
 20
411.6906902846
 10
376.1901723485
 20
411.7214611825
 10
376.1892000477
 20
411.9647971447
 10
376.1873113256
 20
412.4365977105
 10
376.1846272539
 20
413.1080291327
 10
376.1813061576
 20
413.9380461629
 10
376.1775547903
 20
414.8759252485
 10
376.1736022573
 20
415.864326721
 10
376.1696869772
 20
416.8428561743
 10
376.1660510938
 20
417.7516854461
 10
376.1629181247
 20
418.5352779087
 10
376.1604761969
 20
419.1457337793
  0
LWPOLYLINE
  5
F3
330
1F
100
AcDbEntity
  8
0
  6
Continuous
 62
     7
370
     0
100
AcDbPolyline
 90
       62
 70
   128
 43
0.0
 10
480.1151266586
 20
400.5075476225
 10
479.9687972556
 20
400.5068770703
 10
479.5721879493
 20
400.5075997766
 10
479.2885592471
 20
400.5076742824
 10
478.9499005567
 20
400.5074656662
 10
478.5498490821
 20
400.5071229394
 10
478.0926814567
 20
400.506899422
 10
477.0079067241
 20
400.5073017534
 10
475.7166391503
 20
400.5077413376
 10
474.2356425415
 20
400.5071378406
 10
472.6062974225
 20
400.5068845209
 10
471.719492067
 20
400.5073017534
 10
470.848735262
 20
400.5077264365
 10
468.9342713248
 20
400.5074954685
 10
467.9420030009
 20
400.5069739278
 10
466.925468136
 20
400.5066759046
 10
465.8972209584
 20
400.5069441255
 10
464.8712089549
 20
400.5072421487
 10
462.7701675783
 20
400.5073017534
 10
461.703207184
 20
400.5079574045
 10
460.6434067975
 20
400.5078605469
 10
458.4823435437
 20
400.5065343436
 10
456.3354140412
 20
400.5070931371
 10
452.1763658415
 20
400.5072645005
 10
447.8838106881
 20
400.5070931371
 10
446.0031276833
 20
400.5074135121
 10
443.6445122849
 20
400.5076146778
 10
441.3569083701
 20
400.5075178202
 10
439.2408540736
 20
400.5073017534
 10
434.9621346484
 20
400.5070335325
 10
430.7895040404
 20
400.5073166545
 10
428.7582000982
 20
400.5075029191
 10
426.7507305633
 20
400.5075699743
 10
424.6286785494
 20
400.5074209627
 10
422.5264823328
 20
400.507219797
 10
418.3267539631
 20
400.507078236
 10
414.1189975928
 20
400.5071974453
 10
409.897811551
 20
400.507309204
 10
405.6660941135
 20
400.5073762592
 10
404.4024868201
 20
400.5073762592
 10
403.021618564
 20
400.5073241051
 10
401.7086027454
 20
400.5072346982
 10
400.5609488379
 20
400.5071750935
 10
399.1874901842
 20
400.5071750935
 10
397.7295009683
 20
400.5072719511
 10
395.6949932765
 20
400.5074209627
 10
393.5920072984
 20
400.5074284132
 10
391.4741648625
 20
400.5072346982
 10
389.3629646193
 20
400.5071005877
 10
385.245345373
 20
400.5072495993
 10
381.0403457176
 20
400.5075550731
 10
378.9029045295
 20
400.5074731167
 10
376.888330866
 20
400.5072048958
 10
374.8895207684
 20
400.5070037302
 10
372.7830721329
 20
400.5069664773
 10
370.0142594318
 20
400.5072570499
 10
367.1980927031
 20
400.5076146778
 10
364.4830601554
 20
400.5074135121
 10
363.0574493002
 20
400.5071005877
 10
361.705472533
 20
400.5068696197
 10
360.3041743192
 20
400.5069590267
 10
356.1698606502
 20
400.5067876633
  0
LWPOLYLINE
  5
F4
330
1F
100
AcDbEntity
  8
0
  6
Continuous
 62
     7
370
     0
100
AcDbPolyline
 90
        3
 70
   128
 43
0.0
 10
445.4155227433
 20
380.2712864336
 10
445.4908779155
 20
380.3009248432
 10
445.7132106911
 20
380.3918442782
  0
LWPOLYLINE
  5
F5
330
1F
100
AcDbEntity
  8
0
  6
Continuous
 62
     7
370
     0
100
AcDbPolyline
 90
       21
 70
   128
 43
0.0
 10
360.1328687075
 20
439.0085271653
 10
356.3950928658
 20
438.9935813006
 10
354.461166615
 20
438.9858475979
 10
352.4819862944
 20
438.9779201802
 10
350.5654820039
 20
438.9702460822
 10
348.6509307552
 20
438.9625719841
 10
346.7502471324
 20
438.9549723919
 10
344.8623789738
 20
438.9474026021
 10
341.3681460809
 20
438.9334253129
 10
339.7169605162
 20
438.9268240984
 10
338.13330422
 20
438.9204762038
 10
336.7011321973
 20
438.9147541579
 10
335.3712799292
 20
438.9094344433
 10
334.1543132703
 20
438.9045766648
 10
333.0534136187
 20
438.9001659211
 10
332.1256747733
 20
438.8964555319
 10
331.3355332505
 20
438.8933113869
 10
330.6894524287
 20
438.8907185849
 10
330.1954286437
 20
438.8887516316
 10
329.7128806155
 20
438.8868144806
 10
329.7129476707
 20
438.8868144806
  0
LWPOLYLINE
  5
F6
330
1F
100
AcDbEntity
  8
0
  6
Continuous
 62
     7
370
     0
100
AcDbPolyline
 90
       30
 70
   128
 43
0.0
 10
359.8392823044
 20
440.1726803835
 10
358.5822263997
 20
440.1670179423
 10
357.3104681711
 20
440.1626220997
 10
356.0302195403
 20
440.1577196177
 10
354.7456453818
 20
440.1524297055
 10
353.4295311695
 20
440.1470056828
 10
352.1088165146
 20
440.1416561659
 10
350.8048628721
 20
440.1365152653
 10
349.4833163715
 20
440.1312551554
 10
346.9156723734
 20
440.1209733542
 10
345.6504212956
 20
440.1159963664
 10
344.4213353362
 20
440.111153489
 10
342.0609876778
 20
440.1015869435
 10
340.9387896102
 20
440.0971612986
 10
339.8568395789
 20
440.0929293688
 10
338.8081684973
 20
440.0887421425
 10
337.8259221356
 20
440.0848231371
 10
336.9016515355
 20
440.0811276492
 10
336.0038286339
 20
440.0775215682
 10
335.171704952
 20
440.0741092022
 10
334.3907369565
 20
440.0708905514
 10
333.6843120198
 20
440.068074232
 10
333.0414871018
 20
440.0655410346
 10
332.4780760597
 20
440.0631717499
 10
331.9784214984
 20
440.061055785
 10
331.5577319156
 20
440.059386855
 10
331.2105777006
 20
440.0580606516
 10
330.7487329732
 20
440.0562129076
 10
330.5904565643
 20
440.0555870589
 10
330.5928183984
 20
440.05560196
  0
LWPOLYLINE
  5
F7
330
1F
100
AcDbEntity
  8
0
  6
Continuous
 62
     7
370
     0
100
AcDbPolyline
 90
       17
 70
   128
 43
0.0
 10
356.1698729902
 20
400.5072645005
 10
353.8133065015
 20
400.5072645005
 10
351.4449223442
 20
400.5072645005
 10
349.0922204949
 20
400.5072645005
 10
346.7825188566
 20
400.5072645005
 10
344.5426363762
 20
400.5072645005
 10
342.3985800039
 20
400.5072645005
 10
340.3752463203
 20
400.5072645005
 10
338.496127006
 20
400.5072645005
 10
336.7830420177
 20
400.5072645005
 10
335.2558834742
 20
400.5072645005
 10
333.9323828261
 20
400.5072645005
 10
332.8279068958
 20
400.5072719511
 10
331.9552799951
 20
400.5072719511
 10
331.3246349137
 20
400.5072719511
 10
330.9432955723
 20
400.5072719511
 10
330.8157043796
 20
400.5072719511
  0
LWPOLYLINE
  5
F8
330
1F
100
AcDbEntity
  8
0
  6
Continuous
 62
     7
370
     0
100
AcDbPolyline
 90
       12
 70
   128
 43
0.0
 10
412.5399438928
 20
438.9871290978
 10
414.9250721823
 20
438.9975301083
 10
417.3564723026
 20
438.9980814513
 10
419.8175629865
 20
438.9594427403
 10
421.6202384125
 20
438.915409809
 10
423.3419409286
 20
438.8518265542
 10
424.9666741382
 20
438.7888393458
 10
426.4576619755
 20
438.7329897936
 10
428.9903899919
 20
438.6477253493
 10
430.8688378226
 20
438.5950795468
 10
432.0116153251
 20
438.562282091
 10
432.3833396922
 20
438.5518512782
  0
LWPOLYLINE
  5
F9
330
1F
100
AcDbEntity
  8
0
  6
Continuous
 62
     7
370
     0
100
AcDbPolyline
 90
       11
 70
   128
 43
0.0
 10
412.5399140905
 20
438.9873526152
 10
406.8119710575
 20
438.9643750247
 10
394.1166399311
 20
438.933067685
 10
387.7694009136
 20
438.9233968314
 10
381.4242145311
 20
438.9234862383
 10
375.3656519841
 20
438.9331272896
 10
372.3381830643
 20
438.9476559218
 10
369.3554567437
 20
438.9719746169
 10
367.0539230372
 20
438.9896622952
 10
364.771615554
 20
439.0016130265
 10
360.1329269152
 20
439.0084526595
  0
LWPOLYLINE
  5
FA
330
1F
100
AcDbEntity
  8
0
  6
Continuous
 62
     7
370
     0
100
AcDbPolyline
 90
       60
 70
   128
 43
0.0
 10
431.7312946807
 20
440.460585719
 10
431.7193215977
 20
440.4602280911
 10
431.6805860292
 20
440.4597512539
 10
431.5188711773
 20
440.4590061959
 10
431.3942155134
 20
440.4587677773
 10
431.2433114539
 20
440.4583505448
 10
431.0659354817
 20
440.4577395972
 10
430.8631157767
 20
440.4569200333
 10
430.6334814321
 20
440.455876952
 10
430.3782543432
 20
440.4547295626
 10
429.7959840189
 20
440.4523304757
 10
429.1106349121
 20
440.4496631678
 10
428.3307677399
 20
440.4467276391
 10
427.4719095122
 20
440.4433599766
 10
426.531109799
 20
440.439515477
 10
425.5289098512
 20
440.4353431519
 10
424.4673958312
 20
440.4311261233
 10
423.3341327201
 20
440.4268047865
 10
422.1804028641
 20
440.4228261765
 10
420.9672993313
 20
440.417789584
 10
420.3473737727
 20
440.414645439
 10
419.7237303745
 20
440.4115608986
 10
419.0920850526
 20
440.4093704279
 10
418.4619298469
 20
440.4077611025
 10
417.199548174
 20
440.4028735217
 10
415.9278681766
 20
440.3967640456
 10
414.6550780426
 20
440.3911016043
 10
412.0885467421
 20
440.3818926867
 10
409.5538480471
 20
440.3718791064
 10
407.0078579973
 20
440.3610161599
 10
405.7295805107
 20
440.3560093697
 10
404.4693259786
 20
440.35113669
 10
403.2099468898
 20
440.3462491091
 10
401.9320754598
 20
440.3412274178
 10
400.6594976674
 20
440.336161023
 10
399.4043840359
 20
440.3311393317
 10
396.8650287281
 20
440.3209767397
 10
395.6339320432
 20
440.3160146531
 10
394.3677393984
 20
440.3109482583
 10
391.8444289159
 20
440.3009942826
 10
389.343481351
 20
440.2910850104
 10
386.8080674003
 20
440.2807138022
 10
384.2968715619
 20
440.270715123
 10
381.7901386212
 20
440.2609548625
 10
379.2754112076
 20
440.2506134566
 10
378.0065549802
 20
440.2453384455
 10
376.7388927083
 20
440.2400932368
 10
375.4735922705
 20
440.2350119408
 10
374.2049297582
 20
440.2299157437
 10
372.9495870214
 20
440.225043064
 10
371.7065023522
 20
440.2204386052
 10
370.481869046
 20
440.2159086522
 10
369.2792745571
 20
440.211453205
 10
368.0917814638
 20
440.2061483916
 10
366.9166935872
 20
440.2006945666
 10
365.7486902814
 20
440.1957026776
 10
364.5791773017
 20
440.191023713
 10
363.4096605967
 20
440.1866576727
 10
362.2255547236
 20
440.1824704464
 10
359.8392823044
 20
440.1726803835
  0
LWPOLYLINE
  5
FB
330
1F
100
AcDbEntity
  8
0
  6
Continuous
 62
     7
370
    15
100
AcDbPolyline
 90
       18
 70
   128
 43
0.0
 10
203.5021616325
 20
169.8753768428
 10
203.5967262641
 20
165.407651089
 10
203.7791667685
 20
157.1392314358
 10
203.8436571315
 20
155.1486002131
 10
204.0033696399
 20
153.4022288247
 10
204.3790186003
 20
151.5500219388
 10
204.8818787739
 20
150.0026630087
 10
205.6098684848
 20
148.4287055059
 10
206.4845750288
 20
147.0108451171
 10
207.5548751459
 20
145.6473963185
 10
208.793377708
 20
144.3912582322
 10
210.1840639666
 20
143.2666675969
 10
211.7049682133
 20
142.2982411309
 10
213.3271519274
 20
141.5091948433
 10
215.0188113742
 20
140.9172536655
 10
216.7520122316
 20
140.5341895147
 10
218.4372397901
 20
140.3662757798
 10
219.2393971746
 20
140.367728643
  0
LWPOLYLINE
  5
FC
330
1F
100
AcDbEntity
  8
0
  6
Continuous
 62
     7
370
    15
100
AcDbPolyline
 90
       19
 70
   128
 43
0.0
 10
219.2394043007
 20
140.3690995498
 10
220.122343017
 20
140.3702394886
 10
221.7585558251
 20
140.5393080636
 10
223.4841359027
 20
140.9243466182
 10
225.0878202908
 20
141.4830284043
 10
226.67343283
 20
142.2429056688
 10
228.1838322238
 20
143.188056521
 10
229.5904766948
 20
144.3064780755
 10
230.8629930199
 20
145.5793427153
 10
231.9732738838
 20
146.981802754
 10
232.9002071351
 20
148.4880121274
 10
233.6250387312
 20
150.0774444862
 10
234.1281866834
 20
151.6610653921
 10
234.4662893743
 20
153.3437343164
 10
234.6334394247
 20
155.1238121314
 10
234.6920140267
 20
156.8802343531
 10
234.7858661965
 20
161.2321818097
 10
234.9840628163
 20
169.8371628149
 10
234.9963506863
 20
170.48687952
  0
LINE
  5
FD
330
1F
100
AcDbEntity
  8
0
  6
Continuous
 62
     7
370
    15
100
AcDbLine
 10
242.3080692247
 20
220.0870139236
 30
0.0
 11
242.3080692247
 21
220.2173882247
 31
0.0
  0
LINE
  5
FE
330
1F
100
AcDbEntity
  8
0
  6
Continuous
 62
     7
370
    15
100
AcDbLine
 10
196.1700694815
 20
220.2173882319
 30
0.0
 11
196.1700694815
 21
220.0869994699
 31
0.0
  0
LWPOLYLINE
  5
FF
330
1F
100
AcDbEntity
  8
0
  6
Continuous
 62
     7
370
    15
100
AcDbPolyline
 90
        7
 70
   128
 43
0.0
 10
241.304299067
 20
211.7458302377
 10
241.4207590923
 20
212.47369422
 10
241.5386459038
 20
213.162199579
 10
241.6083777503
 20
213.5439631379
 10
241.6598314599
 20
213.8149947709
 10
241.6889688179
 20
213.9613851755
 10
241.6866349236
 20
213.9500966145
  0
LWPOLYLINE
  5
100
330
1F
100
AcDbEntity
  8
0
  6
Continuous
 62
     7
370
    15
100
AcDbPolyline
 90
        6
 70
   128
 43
0.0
 10
196.7915037826
 20
213.9500961489
 10
196.7891680256
 20
213.9613842441
 10
196.846869047
 20
213.6658555678
 10
196.9563776807
 20
213.0672088674
 10
197.0573796139
 20
212.4736914261
 10
197.174690868
 20
211.7404965533
  0
LWPOLYLINE
  5
101
330
1F
100
AcDbEntity
  8
0
  6
Continuous
 62
     7
370
    15
100
AcDbPolyline
 90
       21
 70
   128
 43
0.0
 10
219.2387691532
 20
91.7929531856
 10
220.9641681698
 20
91.8720634504
 10
223.0073201649
 20
92.1733053251
 10
224.9817608104
 20
92.6748784109
 10
226.8569396988
 20
93.3675290866
 10
228.6085339442
 20
94.2392470165
 10
230.2126076252
 20
95.2684329672
 10
231.70213608
 20
96.4564131422
 10
233.1029318452
 20
97.8271411581
 10
234.3709415004
 20
99.3500845356
 10
235.4799771861
 20
101.0013343616
 10
236.4050431356
 20
102.7485625668
 10
237.060101907
 20
104.3619485422
 10
237.5666482553
 20
106.1449544354
 10
237.8827708021
 20
107.9046325608
 10
238.0785422579
 20
109.8796622677
 10
238.168968092
 20
112.1692927404
 10
238.2008416758
 20
115.0625841542
 10
238.3358983502
 20
121.0284428521
 10
238.5194322274
 20
129.0758745594
 10
238.8094758794
 20
144.322742693
  0
LWPOLYLINE
  5
102
330
1F
100
AcDbEntity
  8
0
  6
Continuous
 62
     7
370
    15
100
AcDbPolyline
 90
       20
 70
   128
 43
0.0
 10
199.6461751119
 20
145.0803177281
 10
199.7108703659
 20
141.0583751126
 10
200.2675274566
 20
115.6617896481
 10
200.3197355375
 20
111.6955401226
 10
200.4509383992
 20
109.2063085957
 10
200.6978450522
 20
107.2319196387
 10
201.0763159201
 20
105.4773973151
 10
201.6108876274
 20
103.8370774908
 10
202.3399027244
 20
102.1968470736
 10
203.2957339839
 20
100.5206080003
 10
204.4353570968
 20
98.9246414824
 10
205.7455416948
 20
97.4369915052
 10
207.2062298835
 20
96.0876168533
 10
208.7894596339
 20
94.9058802648
 10
210.4712438018
 20
93.9125688596
 10
212.1953323663
 20
93.1310774608
 10
214.0119948604
 20
92.5226630493
 10
215.9263586805
 20
92.087698154
 10
217.9175184288
 20
91.837179832
 10
219.2397376742
 20
91.800567679
  0
LWPOLYLINE
  5
103
330
1F
100
AcDbEntity
  8
0
  6
Continuous
 62
     7
370
    15
100
AcDbPolyline
 90
       10
 70
   128
 43
0.0
 10
203.5255452797
 20
169.8753060623
 10
203.3389603898
 20
178.8619542344
 10
203.2041235075
 20
185.2091932519
 10
202.9480079368
 20
191.5543796344
 10
202.4291215644
 20
197.6129421814
 10
201.9199041829
 20
200.6404111011
 10
201.0601798252
 20
203.6231374218
 10
200.128792058
 20
205.9246711283
 10
199.1438960836
 20
208.2069786115
 10
197.3794253722
 20
212.8456672503
  0
LWPOLYLINE
  5
104
330
1F
100
AcDbEntity
  8
0
  6
Continuous
 62
     7
370
    15
100
AcDbPolyline
 90
       10
 70
   128
 43
0.0
 10
241.098713334
 20
212.8456667847
 10
239.3349150375
 20
208.2085758297
 10
238.3502947346
 20
205.9268625303
 10
237.4179570184
 20
203.6231374218
 10
236.579872872
 20
200.7378870471
 10
236.064899917
 20
197.7362120374
 10
235.5301307694
 20
191.5543796344
 10
235.2741120563
 20
185.2127062006
 10
235.1392155693
 20
178.8641335292
 10
234.9652892158
 20
170.4869726522
  0
ARC
  5
105
330
1F
100
AcDbEntity
  8
0
  6
Continuous
 62
     7
370
    15
100
AcDbCircle
 10
219.2390694316
 20
220.2173181782
 30
0.0
 40
23.0689584582406
100
AcDbArc
 50
341.3645294416
 51
198.6354693378
  0
ARC
  5
106
330
1F
100
AcDbEntity
  8
0
  6
Continuous
 62
     7
370
    15
100
AcDbCircle
 10
218.0725744762
 20
219.8952617408
 30
0.0
 40
21.90179793318186
100
AcDbArc
 50
179.4985091405
 51
198.5053478377
  0
ARC
  5
107
330
1F
100
AcDbEntity
  8
0
  6
Continuous
 62
     7
370
    15
100
AcDbCircle
 10
220.919113979
 20
219.790489921
 30
0.0
 40
21.38164262659768
100
AcDbArc
 50
341.324110403
 51
0.7939437454
  0
LWPOLYLINE
  5
108
330
1F
100
AcDbEntity
  8
0
  6
Continuous
 62
     7
370
    15
100
AcDbPolyline
 90
        3
 70
   128
 43
0.0
 10
197.3032301471
 20
212.9437806866
 10
198.1302669451
 20
210.7793027385
 10
198.3085369871
 20
210.3849872796
  0
LINE
  5
109
330
1F
100
AcDbEntity
  8
0
  6
Continuous
 62
     7
370
    15
100
AcDbLine
 10
240.4696086601
 20
211.0604904442
 30
0.0
 11
241.1749085591
 21
212.9437806866
 31
0.0
  0
LWPOLYLINE
  5
10A
330
1F
100
AcDbEntity
  8
0
  6
Continuous
 62
     7
370
    15
100
AcDbPolyline
 90
        9
 70
   128
 43
0.0
 10
241.9991811917
 20
216.3238036296
 10
241.3093282089
 20
211.782711543
 10
240.6456994072
 20
206.9148421137
 10
240.1136869744
 20
202.023868434
 10
239.7468278364
 20
197.1123544349
 10
239.4179796979
 20
188.3913883789
 10
239.2849235043
 20
179.658957742
 10
239.0996871695
 20
162.1892982943
 10
238.7707477615
 20
144.3239422365
  0
LWPOLYLINE
  5
10B
330
1F
100
AcDbEntity
  8
0
  6
Continuous
 62
     7
370
    15
100
AcDbPolyline
 90
        9
 70
   128
 43
0.0
 10
199.6934397325
 20
145.0816662832
 10
199.3784515367
 20
162.1891604586
 10
199.1932822571
 20
179.6526731773
 10
199.0603322343
 20
188.3836099728
 10
198.7313052819
 20
197.1124401166
 10
198.3660647825
 20
202.0062962397
 10
197.8354623721
 20
206.890521556
 10
197.1707495109
 20
211.7694252952
 10
196.4310689077
 20
216.6390360648
  0
ARC
  5
10C
330
1F
100
AcDbEntity
  8
0
  6
Continuous
 62
     7
370
    15
100
AcDbCircle
 10
219.2390689247
 20
220.1830500136
 30
0.0
 40
23.91813980000001
100
AcDbArc
 50
336.3581678115
 51
202.9148451167
  0
ARC
  5
10D
330
1F
100
AcDbEntity
  8
0
  6
Continuous
 62
     7
370
     0
100
AcDbCircle
 10
215.1640974237
 20
218.4981430114
 30
0.0
 40
18.66113885670258
100
AcDbArc
 50
197.6323985909
 51
204.009715345
  0
ARC
  5
10E
330
1F
100
AcDbEntity
  8
0
  6
Continuous
 62
     7
370
     0
100
AcDbCircle
 10
224.5024474492
 20
218.0642848278
 30
0.0
 40
17.39722583906653
100
AcDbArc
 50
335.8156531668
 51
342.5437818474
  0
ARC
  5
10F
330
1F
100
AcDbEntity
  8
0
  6
Continuous
 62
     7
370
     0
100
AcDbCircle
 10
219.2390687293
 20
220.2222067423
 30
0.0
 40
22.16634657400214
100
AcDbArc
 50
341.3634290907
 51
198.634727784
  0
LWPOLYLINE
  5
110
330
1F
100
AcDbEntity
  8
0
  6
Continuous
 62
     7
370
     0
100
AcDbPolyline
 90
       60
 70
   128
 43
0.0
 10
219.2377132621
 20
141.2472994848
 10
218.6052858892
 20
141.2592725678
 10
217.9699364065
 20
141.2980081363
 10
216.7075290058
 20
141.4597229882
 10
216.0776154783
 20
141.5843786521
 10
215.4592326556
 20
141.7352827115
 10
214.8492431447
 20
141.9126586838
 10
214.2495063313
 20
142.1154783888
 10
213.655845932
 20
142.3451127334
 10
213.0728207708
 20
142.6003398223
 10
211.9487595924
 20
143.1826101466
 10
210.8679080561
 20
143.8679592534
 10
209.8487701446
 20
144.6478264256
 10
208.9094763801
 20
145.5066846533
 10
208.0462288291
 20
146.4474843665
 10
207.2765391499
 20
147.4496843143
 10
206.6002620563
 20
148.5111983343
 10
206.0113933117
 20
149.6444614454
 10
205.5371219472
 20
150.7981913014
 10
205.1620317802
 20
152.0112948342
 10
205.0183026299
 20
152.6312203927
 10
204.9068857164
 20
153.254863791
 10
204.8284767375
 20
153.8865091129
 10
204.7788111672
 20
154.5166643186
 10
204.7246920124
 20
155.7790459915
 10
204.6896854595
 20
157.0507259889
 10
204.6602528722
 20
158.3235161229
 10
204.6031721116
 20
160.8900474234
 10
204.5465951965
 20
163.4247461184
 10
204.4877151207
 20
165.9707361682
 10
204.4577032507
 20
167.2490136548
 10
204.4282511056
 20
168.5092681869
 10
204.3992730037
 20
169.7686472757
 10
204.3706637055
 20
171.0465187056
 10
204.3432939977
 20
172.3190964981
 10
204.3177161545
 20
173.5742101295
 10
204.2703621269
 20
176.1135654374
 10
204.248916562
 20
177.3446621223
 10
204.2274579585
 20
178.6108547671
 10
204.1832611144
 20
181.1341652496
 10
204.1312271908
 20
183.6351128145
 10
204.0637510077
 20
186.1705267652
 10
203.9762150676
 20
188.6817226036
 10
203.8605466664
 20
191.1884555443
 10
203.7036178813
 20
193.7031829579
 10
203.6039831296
 20
194.9720391853
 10
203.4861410216
 20
196.2397014572
 10
203.3453380868
 20
197.505001895
 10
203.1729689047
 20
198.7736644073
 10
202.9611973271
 20
200.0290071441
 10
202.6979869411
 20
201.2720918132
 10
202.3748925135
 20
202.4967251195
 10
201.9903214828
 20
203.6993196084
 10
201.5440186665
 20
204.8868127017
 10
201.0541597561
 20
206.0619005783
 10
200.5475538031
 20
207.2299038841
 10
200.0444384471
 20
208.3994168638
 10
199.5598526851
 20
209.5689335688
 10
199.093649368
 20
210.7530394419
 10
198.2347948656
 20
213.1393118611
  0
LWPOLYLINE
  5
111
330
1F
100
AcDbEntity
  8
0
  6
Continuous
 62
     7
370
     0
100
AcDbPolyline
 90
       53
 70
   128
 43
0.0
 10
240.2431147352
 20
213.1386361866
 10
239.3774541274
 20
210.7346327825
 10
238.9119697914
 20
209.5533646493
 10
238.4257244126
 20
208.3806060104
 10
237.9227580682
 20
207.211881861
 10
237.4121139005
 20
206.0342989712
 10
236.9240226403
 20
204.8613680376
 10
236.4783587114
 20
203.6721436156
 10
236.0906807885
 20
202.4534800871
 10
235.7680482969
 20
201.22072006
 10
235.5064993904
 20
199.9732581748
 10
235.2944055752
 20
198.7018445356
 10
235.1239847199
 20
197.4325785263
 10
234.9855045036
 20
196.1755407824
 10
234.7731368796
 20
193.6839772238
 10
234.6151678071
 20
191.1429883762
 10
234.4986491085
 20
188.5991180165
 10
234.4101585627
 20
186.0300386174
 10
234.3428081081
 20
183.4579305573
 10
234.2471575544
 20
178.4009681864
 10
234.2254856781
 20
177.1276341601
 10
234.2030054138
 20
175.8460374399
 10
234.179960768
 20
174.5893480106
 10
234.1553505689
 20
173.3192661627
 10
234.1295566589
 20
172.0683434828
 10
234.10228474
 20
170.8114268108
 10
234.0733941824
 20
169.5289956255
 10
234.0437194512
 20
168.2440349682
 10
233.9849986315
 20
165.7395521028
 10
233.9290363893
 20
163.3141012712
 10
233.8732743815
 20
160.814252667
 10
233.8170848966
 20
158.2871312125
 10
233.7528934882
 20
155.7614775224
 10
233.6974844516
 20
154.4877262636
 10
233.6464107216
 20
153.8531826659
 10
233.5652236075
 20
153.2155843301
 10
233.4506159828
 20
152.5878058596
 10
233.3043974072
 20
151.9674556179
 10
232.9226240695
 20
150.7473708911
 10
232.441660221
 20
149.590765111
 10
231.8538149998
 20
148.4697060509
 10
230.399691704
 20
146.4091809316
 10
229.51909827
 20
145.4574139638
 10
228.5779977397
 20
144.6050079389
 10
227.5761842907
 20
143.8443707152
 10
226.4994794682
 20
143.1654440089
 10
225.3913816244
 20
142.5938354655
 10
224.2209354595
 20
142.1126918717
 10
223.0064323817
 20
141.7322950287
 10
221.7597088025
 20
141.4578230901
 10
220.5032960924
 20
141.2975909038
 10
219.8678627324
 20
141.2590714021
 10
219.238135241
 20
141.2472994848
  0
LWPOLYLINE
  5
112
330
1F
100
AcDbEntity
  8
0
  6
Continuous
 62
     7
370
     0
100
AcDbPolyline
 90
       49
 70
   128
 43
0.0
 10
239.9027479992
 20
209.7014281748
 10
239.7520451055
 20
208.6043869926
 10
239.2460650012
 20
204.4202731772
 10
238.8497779325
 20
200.1564996167
 10
238.5823337541
 20
195.9758074804
 10
238.4863088087
 20
193.8804173692
 10
238.4116614417
 20
191.8316753431
 10
238.3358908997
 20
189.1212267651
 10
238.2735314027
 20
186.0639685615
 10
238.2322570488
 20
183.3552950843
 10
238.1989473656
 20
180.6151727064
 10
238.171015139
 20
177.8148943408
 10
238.1458638415
 20
174.9293962343
 10
238.1207777367
 20
172.1381852253
 10
238.0927654163
 20
169.35363131
 10
238.0633076832
 20
166.6620606406
 10
238.0303705291
 20
163.8897592051
 10
237.9944661812
 20
161.0928671284
 10
237.955985795
 20
158.2994358464
 10
237.8936095343
 20
154.114712946
 10
237.8260700211
 20
149.9531762524
 10
237.6758923933
 20
141.6300730629
 10
237.5935262248
 20
137.4451787992
 10
237.5074887828
 20
133.2779200597
 10
237.4161856428
 20
129.035805337
 10
237.3226529167
 20
124.8594345375
 10
237.2750604705
 20
122.7963315173
 10
237.2265106246
 20
120.7189680858
 10
237.1771915064
 20
118.6233879848
 10
237.1267790154
 20
116.4748342557
 10
237.0752079592
 20
114.2590911909
 10
237.0260974572
 20
112.1687264963
 10
236.9624247954
 20
110.0823553129
 10
236.7924751893
 20
108.0026374979
 10
236.6271691576
 20
106.9683777018
 10
236.3937908963
 20
105.9419931694
 10
236.1026426957
 20
104.9657361432
 10
235.7370743707
 20
103.9764480515
 10
234.8473865718
 20
102.1071793361
 10
233.7415173829
 20
100.3397824092
 10
232.4366515682
 20
98.7153174205
 10
230.9478402317
 20
97.2532378359
 10
229.3065341369
 20
95.9776015802
 10
227.4974959151
 20
94.8866130634
 10
225.5704060376
 20
94.0224351211
 10
223.5912873589
 20
93.401861362
 10
221.5315750514
 20
93.00851541
 10
220.4894178726
 20
92.9047884269
 10
219.4431065732
 20
92.8634675069
  0
LWPOLYLINE
  5
113
330
1F
100
AcDbEntity
  8
0
  6
Continuous
 62
     7
370
     0
100
AcDbPolyline
 90
        7
 70
   128
 43
0.0
 10
219.2385017612
 20
92.8622605129
 10
219.238717171
 20
92.5484569593
 10
219.2389077165
 20
92.2708930297
 10
219.2390637593
 20
92.0435907169
 10
219.2391774065
 20
91.8780537172
 10
219.2392429093
 20
91.7826564832
 10
219.2392583589
 20
91.760170631
  0
LWPOLYLINE
  5
114
330
1F
100
AcDbEntity
  8
0
  6
Continuous
 62
     7
370
     0
100
AcDbPolyline
 90
       12
 70
   128
 43
0.0
 10
219.4431065878
 20
92.8634675069
 10
219.340891083
 20
92.8634675069
 10
219.2897797254
 20
92.8634675069
 10
219.2641987499
 20
92.8634675069
 10
219.2513648675
 20
92.8634675069
 10
219.2447598236
 20
92.8634675069
 10
219.2401190111
 20
92.8634675069
 10
219.238872088
 20
92.8634675069
 10
219.2385610514
 20
92.8634824081
 10
219.2385281845
 20
92.8634824081
 10
219.2385096027
 20
92.8634824081
 10
219.2384995164
 20
92.8634824081
  0
LWPOLYLINE
  5
115
330
1F
100
AcDbEntity
  8
0
  6
Continuous
 62
     7
370
     0
100
AcDbPolyline
 90
       59
 70
   128
 43
0.0
 10
219.0350367314
 20
92.8634675069
 10
216.936666257
 20
93.0097969099
 10
214.8688819439
 20
93.4064062162
 10
213.8683653616
 20
93.6900349184
 10
212.8912487247
 20
94.0286936088
 10
211.9237633601
 20
94.4287450834
 10
210.9819354669
 20
94.8859127088
 10
209.1816758916
 20
95.9706874414
 10
207.5203361169
 20
97.2619550152
 10
206.0165174485
 20
98.742951624
 10
204.713586922
 20
100.372296743
 10
204.1259568364
 20
101.2591020985
 10
203.6183320165
 20
102.1298589035
 10
202.7137113914
 20
104.0443228407
 10
202.3520546213
 20
105.0365911646
 10
202.055514063
 20
106.0531260295
 10
201.8297037289
 20
107.0813732071
 10
201.6724387363
 20
108.1073852106
 10
201.5102302835
 20
110.2084265871
 10
201.4745736674
 20
111.2753869815
 10
201.4480905787
 20
112.335187368
 10
201.3973837898
 20
114.4962506218
 10
201.3474462733
 20
116.6431801243
 10
201.2497114197
 20
120.802228324
 10
201.1501269594
 20
125.0947834773
 10
201.1076176718
 20
126.9754664822
 10
201.0554412559
 20
129.3340818806
 10
201.0058669553
 20
131.6216857954
 10
200.9609809325
 20
133.7377400918
 10
200.873129274
 20
138.016459517
 10
200.7915789441
 20
142.1890901251
 10
200.7534673617
 20
144.2203940673
 10
200.7169148133
 20
146.2278636022
 10
200.6794868216
 20
148.3499156161
 10
200.6436998204
 20
150.4521118327
 10
200.5762366757
 20
154.6518402024
 10
200.5142515705
 20
158.8595965727
 10
200.4578897909
 20
163.0807826145
 10
200.4074996517
 20
167.312500052
 10
200.3936415718
 20
168.5761073454
 10
200.3790905879
 20
169.9569756015
 10
200.3657875762
 20
171.2699914201
 10
200.3547216014
 20
172.4176453276
 10
200.3421953127
 20
173.7911039813
 10
200.3295479522
 20
175.2490931972
 10
200.3119310543
 20
177.283600889
 10
200.2921441749
 20
179.3865868671
 10
200.2690976665
 20
181.504429303
 10
200.2423500822
 20
183.6156295462
 10
200.1730671332
 20
187.7332487925
 10
200.0630071566
 20
191.9382484479
 10
199.9838149354
 20
194.075689636
 10
199.8899543837
 20
196.0902632995
 10
199.7746491984
 20
198.0890733971
 10
199.6253283874
 20
200.1955220325
 10
199.3817968473
 20
202.9643347336
 10
199.0792157308
 20
205.7805014624
 10
198.7405253754
 20
208.4955340101
 10
198.5780393884
 20
209.6945838852
  0
LWPOLYLINE
  5
116
330
1F
100
AcDbEntity
  8
0
  6
Continuous
 62
     7
370
     0
100
AcDbPolyline
 90
        3
 70
   128
 43
0.0
 10
219.2385012524
 20
92.8634824081
 10
219.1339061178
 20
92.8634675069
 10
219.0350367314
 20
92.8634675069
  0
ARC
  5
117
330
1F
100
AcDbEntity
  8
0
  6
Continuous
 62
     7
370
     0
100
AcDbCircle
 10
230.981879243
 20
220.7035705743
 30
0.0
 40
11.3503288764629
100
AcDbArc
 50
355.937590389
 51
9.0648255071
  0
LWPOLYLINE
  5
118
330
1F
100
AcDbEntity
  8
0
  6
Continuous
 62
     7
370
     0
100
AcDbPolyline
 90
        3
 70
   128
 43
0.0
 10
242.2580925927
 20
218.5977485346
 10
242.2506680891
 20
218.385770087
 10
242.0470474467
 20
216.6390390916
  0
ENDSEC
  0
SECTION
  2
OBJECTS
  0
DICTIONARY
  5
C
330
0
100
AcDbDictionary
281
     1
  3
ACAD_GROUP
350
D
  3
ACAD_LAYOUT
350
1A
  3
ACAD_MATERIAL
350
3B
  3
ACAD_MLEADERSTYLE
350
11A
  3
ACAD_MLINESTYLE
350
17
  3
ACAD_PLOTSETTINGS
350
19
  3
ACAD_PLOTSTYLENAME
350
E
  3
ACAD_TABLESTYLE
350
119
  3
ACAD_VISUALSTYLE
350
2A
  0
DICTIONARY
  5
D
102
{ACAD_REACTORS
330
C
102
}
330
C
100
AcDbDictionary
281
     1
  0
DICTIONARY
  5
1A
102
{ACAD_REACTORS
330
C
102
}
330
C
100
AcDbDictionary
281
     1
  3
Layout1
350
1E
  3
Layout2
350
26
  3
Model
350
22
  0
DICTIONARY
  5
3B
102
{ACAD_REACTORS
330
C
102
}
330
C
100
AcDbDictionary
281
     1
  3
ByBlock
350
3D
  3
ByLayer
350
3C
  3
Global
350
3E
  0
DICTIONARY
  5
11A
102
{ACAD_REACTORS
330
C
102
}
330
C
100
AcDbDictionary
281
     1
  0
DICTIONARY
  5
17
102
{ACAD_REACTORS
330
C
102
}
330
C
100
AcDbDictionary
281
     1
  3
Standard
350
18
  0
DICTIONARY
  5
19
102
{ACAD_REACTORS
330
C
102
}
330
C
100
AcDbDictionary
281
     1
  0
ACDBDICTIONARYWDFLT
  5
E
102
{ACAD_REACTORS
330
C
102
}
330
C
100
AcDbDictionary
281
     1
  3
Normal
350
F
100
AcDbDictionaryWithDefault
340
F
  0
DICTIONARY
  5
119
102
{ACAD_REACTORS
330
C
102
}
330
C
100
AcDbDictionary
281
     1
  0
DICTIONARY
  5
2A
102
{ACAD_REACTORS
330
C
102
}
330
C
100
AcDbDictionary
281
     1
  3
2dWireframe
350
2F
  3
3D Hidden
350
31
  3
3dWireframe
350
30
  3
Basic
350
32
  3
Brighten
350
36
  3
ColorChange
350
3A
  3
Conceptual
350
34
  3
Dim
350
35
  3
Facepattern
350
39
  3
Flat
350
2B
  3
FlatWithEdges
350
2C
  3
Gouraud
350
2D
  3
GouraudWithEdges
350
2E
  3
Linepattern
350
38
  3
Realistic
350
33
  3
Thicken
350
37
  0
LAYOUT
  5
1E
102
{ACAD_REACTORS
330
1A
102
}
330
1A
100
AcDbPlotSettings
  1

  2
none_device
  4

  6

 40
0.0
 41
0.0
 42
0.0
 43
0.0
 44
0.0
 45
0.0
 46
0.0
 47
0.0
 48
0.0
 49
0.0
140
0.0
141
0.0
142
1.0
143
1.0
 70
   688
 72
     0
 73
     0
 74
     5
  7

 75
    16
 76
     0
 77
     2
 78
   300
147
1.0
148
0.0
149
0.0
100
AcDbLayout
  1
Layout1
 70
     1
 71
     1
 10
0.0
 20
0.0
 11
420.0
 21
297.0
 12
0.0
 22
0.0
 32
0.0
 14
1.0000000000E+20
 24
1.0000000000E+20
 34
1.0000000000E+20
 15
-1.0000000000E+20
 25
-1.0000000000E+20
 35
-1.0000000000E+20
146
0.0
 13
0.0
 23
0.0
 33
0.0
 16
1.0
 26
0.0
 36
0.0
 17
0.0
 27
1.0
 37
0.0
 76
     0
330
1B
  0
LAYOUT
  5
26
102
{ACAD_REACTORS
330
1A
102
}
330
1A
100
AcDbPlotSettings
  1

  2
none_device
  4

  6

 40
0.0
 41
0.0
 42
0.0
 43
0.0
 44
0.0
 45
0.0
 46
0.0
 47
0.0
 48
0.0
 49
0.0
140
0.0
141
0.0
142
1.0
143
1.0
 70
   688
 72
     0
 73
     0
 74
     5
  7

 75
    16
 76
     0
 77
     2
 78
   300
147
1.0
148
0.0
149
0.0
100
AcDbLayout
  1
Layout2
 70
     1
 71
     2
 10
0.0
 20
0.0
 11
0.0
 21
0.0
 12
0.0
 22
0.0
 32
0.0
 14
0.0
 24
0.0
 34
0.0
 15
0.0
 25
0.0
 35
0.0
146
0.0
 13
0.0
 23
0.0
 33
0.0
 16
1.0
 26
0.0
 36
0.0
 17
0.0
 27
1.0
 37
0.0
 76
     0
330
23
  0
LAYOUT
  5
22
102
{ACAD_REACTORS
330
1A
102
}
330
1A
100
AcDbPlotSettings
  1

  2
none_device
  4

  6

 40
0.0
 41
0.0
 42
0.0
 43
0.0
 44
0.0
 45
0.0
 46
0.0
 47
0.0
 48
0.0
 49
0.0
140
0.0
141
0.0
142
1.0
143
1.0
 70
  1712
 72
     0
 73
     0
 74
     0
  7

 75
     0
 76
     0
 77
     2
 78
   300
147
1.0
148
0.0
149
0.0
100
AcDbLayout
  1
Model
 70
     1
 71
     0
 10
0.0
 20
0.0
 11
594.0
 21
841.0
 12
0.0
 22
0.0
 32
0.0
 14
0.0
 24
0.0
 34
0.0
 15
594.0
 25
841.0
 35
0.0
146
0.0
 13
0.0
 23
0.0
 33
0.0
 16
1.0
 26
0.0
 36
0.0
 17
0.0
 27
1.0
 37
0.0
 76
     0
330
1F
331
29
  0
MATERIAL
  5
3D
102
{ACAD_REACTORS
330
3B
102
}
330
3B
100
AcDbMaterial
  1
ByBlock
 72
     1
 94
      127
  0
MATERIAL
  5
3C
102
{ACAD_REACTORS
330
3B
102
}
330
3B
100
AcDbMaterial
  1
ByLayer
 72
     1
 94
      127
  0
MATERIAL
  5
3E
102
{ACAD_REACTORS
330
3B
102
}
330
3B
100
AcDbMaterial
  1
Global
 72
     1
 94
      127
  0
MLINESTYLE
  5
18
102
{ACAD_REACTORS
330
17
102
}
330
17
100
AcDbMlineStyle
  2
Standard
 70
     0
  3

 62
   256
 51
90.0
 52
90.0
 71
     2
 49
0.5
 62
   256
  6
BYLAYER
 49
-0.5
 62
   256
  6
BYLAYER
  0
ACDBPLACEHOLDER
  5
F
102
{ACAD_REACTORS
330
E
102
}
330
E
  0
VISUALSTYLE
  5
2F
102
{ACAD_REACTORS
330
2A
102
}
330
2A
100
AcDbVisualStyle
  2
2dWireframe
 70
     4
177
     2
291
     0
 71
     0
176
     1
 72
     2
176
     1
 73
     0
176
     1
 90
        0
176
     1
 40
-0.6
176
     1
 41
-30.0
176
     1
 62
     5
 63
     7
421
 16777215
176
     1
 74
     1
176
     1
 91
        4
176
     1
 64
     7
176
     1
 65
   257
176
     1
 75
     1
176
     1
175
     1
176
     1
 42
1.0
176
     1
 92
        0
176
     1
 66
   257
176
     1
 43
1.0
176
     1
 76
     1
176
     1
 77
     6
176
     1
 78
     2
176
     1
 67
     7
176
     1
 79
     5
176
     1
170
     0
176
     1
171
     0
176
     1
290
     0
176
     1
 93
        1
176
     1
 44
0.0
176
     1
173
     0
176
     1
  0
VISUALSTYLE
  5
31
102
{ACAD_REACTORS
330
2A
102
}
330
2A
100
AcDbVisualStyle
  2
3D Hidden
 70
     6
177
     2
291
     0
 71
     1
176
     1
 72
     2
176
     1
 73
     2
176
     1
 90
        0
176
     1
 40
-0.6
176
     1
 41
-30.0
176
     1
 62
     5
 63
     7
421
 16777215
176
     1
 74
     2
176
     1
 91
        2
176
     1
 64
     7
176
     1
 65
   257
176
     1
 75
     2
176
     1
175
     1
176
     1
 42
40.0
176
     1
 92
        0
176
     1
 66
   257
176
     1
 43
1.0
176
     1
 76
     1
176
     1
 77
     6
176
     1
 78
     2
176
     1
 67
     7
176
     1
 79
     3
176
     1
170
     0
176
     1
171
     0
176
     1
290
     0
176
     1
 93
        1
176
     1
 44
0.0
176
     1
173
     0
176
     1
  0
VISUALSTYLE
  5
30
102
{ACAD_REACTORS
330
2A
102
}
330
2A
100
AcDbVisualStyle
  2
3dWireframe
 70
     5
177
     2
291
     0
 71
     0
176
     1
 72
     2
176
     1
 73
     0
176
     1
 90
        0
176
     1
 40
-0.6
176
     1
 41
-30.0
176
     1
 62
     5
 63
     7
421
 16777215
176
     1
 74
     1
176
     1
 91
        4
176
     1
 64
     7
176
     1
 65
   257
176
     1
 75
     1
176
     1
175
     1
176
     1
 42
1.0
176
     1
 92
        0
176
     1
 66
   257
176
     1
 43
1.0
176
     1
 76
     1
176
     1
 77
     6
176
     1
 78
     2
176
     1
 67
     7
176
     1
 79
     5
176
     1
170
     0
176
     1
171
     0
176
     1
290
     0
176
     1
 93
        1
176
     1
 44
0.0
176
     1
173
     0
176
     1
  0
VISUALSTYLE
  5
32
102
{ACAD_REACTORS
330
2A
102
}
330
2A
100
AcDbVisualStyle
  2
Basic
 70
     7
177
     2
291
     1
 71
     1
176
     1
 72
     0
176
     1
 73
     1
176
     1
 90
        0
176
     1
 40
-0.6
176
     1
 41
-30.0
176
     1
 62
     5
 63
     7
421
 16777215
176
     1
 74
     0
176
     1
 91
        4
176
     1
 64
     7
176
     1
 65
   257
176
     1
 75
     1
176
     1
175
     1
176
     1
 42
1.0
176
     1
 92
        8
176
     1
 66
     7
176
     1
 43
1.0
176
     1
 76
     1
176
     1
 77
     6
176
     1
 78
     2
176
     1
 67
     7
176
     1
 79
     5
176
     1
170
     0
176
     1
171
     0
176
     1
290
     0
176
     1
 93
        1
176
     1
 44
0.0
176
     1
173
     0
176
     1
  0
VISUALSTYLE
  5
36
102
{ACAD_REACTORS
330
2A
102
}
330
2A
100
AcDbVisualStyle
  2
Brighten
 70
    12
177
     2
291
     1
 71
     2
176
     1
 72
     2
176
     1
 73
     0
176
     1
 90
        0
176
     1
 40
-0.6
176
     1
 41
-30.0
176
     1
 62
     5
 63
     7
421
 16777215
176
     1
 74
     1
176
     1
 91
        4
176
     1
 64
     7
176
     1
 65
   257
176
     1
 75
     1
176
     1
175
     1
176
     1
 42
1.0
176
     1
 92
        8
176
     1
 66
     7
176
     1
 43
1.0
176
     1
 76
     1
176
     1
 77
     6
176
     1
 78
     2
176
     1
 67
     7
176
     1
 79
     5
176
     1
170
     0
176
     1
171
     0
176
     1
290
     0
176
     1
 93
        1
176
     1
 44
50.0
176
     1
173
     0
176
     1
  0
VISUALSTYLE
  5
3A
102
{ACAD_REACTORS
330
2A
102
}
330
2A
100
AcDbVisualStyle
  2
ColorChange
 70
    16
177
     2
291
     1
 71
     2
176
     1
 72
     2
176
     1
 73
     3
176
     1
 90
        0
176
     1
 40
-0.6
176
     1
 41
-30.0
176
     1
 62
     5
 63
     8
421
  8421504
176
     1
 74
     1
176
     1
 91
        4
176
     1
 64
     7
176
     1
 65
   257
176
     1
 75
     1
176
     1
175
     1
176
     1
 42
1.0
176
     1
 92
        8
176
     1
 66
     8
424
  8421504
176
     1
 43
1.0
176
     1
 76
     1
176
     1
 77
     6
176
     1
 78
     2
176
     1
 67
     7
176
     1
 79
     5
176
     1
170
     0
176
     1
171
     0
176
     1
290
     0
176
     1
 93
        1
176
     1
 44
0.0
176
     1
173
     0
176
     1
  0
VISUALSTYLE
  5
34
102
{ACAD_REACTORS
330
2A
102
}
330
2A
100
AcDbVisualStyle
  2
Conceptual
 70
     9
177
     2
291
     0
 71
     3
176
     1
 72
     2
176
     1
 73
     0
176
     1
 90
        0
176
     1
 40
-0.6
176
     1
 41
-30.0
176
     1
 62
     5
 63
     7
421
 16777215
176
     1
 74
     2
176
     1
 91
        2
176
     1
 64
     7
176
     1
 65
   257
176
     1
 75
     1
176
     1
175
     1
176
     1
 42
40.0
176
     1
 92
        8
176
     1
 66
     7
176
     1
 43
1.0
176
     1
 76
     1
176
     1
 77
     6
176
     1
 78
     2
176
     1
 67
     7
176
     1
 79
     3
176
     1
170
     0
176
     1
171
     0
176
     1
290
     0
176
     1
 93
        1
176
     1
 44
0.0
176
     1
173
     0
176
     1
  0
VISUALSTYLE
  5
35
102
{ACAD_REACTORS
330
2A
102
}
330
2A
100
AcDbVisualStyle
  2
Dim
 70
    11
177
     2
291
     1
 71
     2
176
     1
 72
     2
176
     1
 73
     0
176
     1
 90
        0
176
     1
 40
-0.6
176
     1
 41
-30.0
176
     1
 62
     5
 63
     7
421
 16777215
176
     1
 74
     1
176
     1
 91
        4
176
     1
 64
     7
176
     1
 65
   257
176
     1
 75
     1
176
     1
175
     1
176
     1
 42
1.0
176
     1
 92
        8
176
     1
 66
     7
176
     1
 43
1.0
176
     1
 76
     1
176
     1
 77
     6
176
     1
 78
     2
176
     1
 67
     7
176
     1
 79
     5
176
     1
170
     0
176
     1
171
     0
176
     1
290
     0
176
     1
 93
        1
176
     1
 44
-50.0
176
     1
173
     0
176
     1
  0
VISUALSTYLE
  5
39
102
{ACAD_REACTORS
330
2A
102
}
330
2A
100
AcDbVisualStyle
  2
Facepattern
 70
    15
177
     2
291
     1
 71
     2
176
     1
 72
     2
176
     1
 73
     0
176
     1
 90
        0
176
     1
 40
-0.6
176
     1
 41
-30.0
176
     1
 62
     5
 63
     7
421
 16777215
176
     1
 74
     1
176
     1
 91
        4
176
     1
 64
     7
176
     1
 65
   257
176
     1
 75
     1
176
     1
175
     1
176
     1
 42
1.0
176
     1
 92
        8
176
     1
 66
     7
176
     1
 43
1.0
176
     1
 76
     1
176
     1
 77
     6
176
     1
 78
     2
176
     1
 67
     7
176
     1
 79
     5
176
     1
170
     0
176
     1
171
     0
176
     1
290
     0
176
     1
 93
        1
176
     1
 44
0.0
176
     1
173
     0
176
     1
  0
VISUALSTYLE
  5
2B
102
{ACAD_REACTORS
330
2A
102
}
330
2A
100
AcDbVisualStyle
  2
Flat
 70
     0
177
     2
291
     1
 71
     2
176
     1
 72
     1
176
     1
 73
     1
176
     1
 90
        2
176
     1
 40
-0.6
176
     1
 41
30.0
176
     1
 62
     5
 63
     7
421
 16777215
176
     1
 74
     0
176
     1
 91
        4
176
     1
 64
     7
176
     1
 65
   257
176
     1
 75
     1
176
     1
175
     1
176
     1
 42
1.0
176
     1
 92
        8
176
     1
 66
     7
176
     1
 43
1.0
176
     1
 76
     1
176
     1
 77
     6
176
     1
 78
     2
176
     1
 67
     7
176
     1
 79
     5
176
     1
170
     0
176
     1
171
     0
176
     1
290
     0
176
     1
 93
       13
176
     1
 44
0.0
176
     1
173
     0
176
     1
  0
VISUALSTYLE
  5
2C
102
{ACAD_REACTORS
330
2A
102
}
330
2A
100
AcDbVisualStyle
  2
FlatWithEdges
 70
     1
177
     2
291
     1
 71
     2
176
     1
 72
     1
176
     1
 73
     1
176
     1
 90
        2
176
     1
 40
-0.6
176
     1
 41
30.0
176
     1
 62
     5
 63
     7
421
 16777215
176
     1
 74
     1
176
     1
 91
        4
176
     1
 64
     7
176
     1
 65
   257
176
     1
 75
     1
176
     1
175
     1
176
     1
 42
1.0
176
     1
 92
        0
176
     1
 66
   257
176
     1
 43
1.0
176
     1
 76
     1
176
     1
 77
     6
176
     1
 78
     2
176
     1
 67
     7
176
     1
 79
     5
176
     1
170
     0
176
     1
171
     0
176
     1
290
     0
176
     1
 93
       13
176
     1
 44
0.0
176
     1
173
     0
176
     1
  0
VISUALSTYLE
  5
2D
102
{ACAD_REACTORS
330
2A
102
}
330
2A
100
AcDbVisualStyle
  2
Gouraud
 70
     2
177
     2
291
     1
 71
     2
176
     1
 72
     2
176
     1
 73
     1
176
     1
 90
        2
176
     1
 40
-0.6
176
     1
 41
30.0
176
     1
 62
     5
 63
     7
421
 16777215
176
     1
 74
     0
176
     1
 91
        4
176
     1
 64
     7
176
     1
 65
   257
176
     1
 75
     1
176
     1
175
     1
176
     1
 42
1.0
176
     1
 92
        0
176
     1
 66
     7
176
     1
 43
1.0
176
     1
 76
     1
176
     1
 77
     6
176
     1
 78
     2
176
     1
 67
     7
176
     1
 79
     5
176
     1
170
     0
176
     1
171
     0
176
     1
290
     0
176
     1
 93
       13
176
     1
 44
0.0
176
     1
173
     0
176
     1
  0
VISUALSTYLE
  5
2E
102
{ACAD_REACTORS
330
2A
102
}
330
2A
100
AcDbVisualStyle
  2
GouraudWithEdges
 70
     3
177
     2
291
     1
 71
     2
176
     1
 72
     2
176
     1
 73
     1
176
     1
 90
        2
176
     1
 40
-0.6
176
     1
 41
30.0
176
     1
 62
     5
 63
     7
421
 16777215
176
     1
 74
     1
176
     1
 91
        4
176
     1
 64
     7
176
     1
 65
   257
176
     1
 75
     1
176
     1
175
     1
176
     1
 42
1.0
176
     1
 92
        0
176
     1
 66
   257
176
     1
 43
1.0
176
     1
 76
     1
176
     1
 77
     6
176
     1
 78
     2
176
     1
 67
     7
176
     1
 79
     5
176
     1
170
     0
176
     1
171
     0
176
     1
290
     0
176
     1
 93
       13
176
     1
 44
0.0
176
     1
173
     0
176
     1
  0
VISUALSTYLE
  5
38
102
{ACAD_REACTORS
330
2A
102
}
330
2A
100
AcDbVisualStyle
  2
Linepattern
 70
    14
177
     2
291
     1
 71
     2
176
     1
 72
     2
176
     1
 73
     0
176
     1
 90
        0
176
     1
 40
-0.6
176
     1
 41
-30.0
176
     1
 62
     5
 63
     7
421
 16777215
176
     1
 74
     1
176
     1
 91
        4
176
     1
 64
     7
176
     1
 65
   257
176
     1
 75
     7
176
     1
175
     7
176
     1
 42
1.0
176
     1
 92
        8
176
     1
 66
     7
176
     1
 43
1.0
176
     1
 76
     1
176
     1
 77
     6
176
     1
 78
     2
176
     1
 67
     7
176
     1
 79
     5
176
     1
170
     0
176
     1
171
     0
176
     1
290
     0
176
     1
 93
        1
176
     1
 44
0.0
176
     1
173
     0
176
     1
  0
VISUALSTYLE
  5
33
102
{ACAD_REACTORS
330
2A
102
}
330
2A
100
AcDbVisualStyle
  2
Realistic
 70
     8
177
     2
291
     0
 71
     2
176
     1
 72
     2
176
     1
 73
     0
176
     1
 90
        0
176
     1
 40
-0.6
176
     1
 41
-30.0
176
     1
 62
     5
 63
     7
421
 16777215
176
     1
 74
     1
176
     1
 91
        0
176
     1
 64
     7
176
     1
 65
   257
176
     1
 75
     1
176
     1
175
     1
176
     1
 42
1.0
176
     1
 92
        8
176
     1
 66
     8
424
  7895160
176
     1
 43
1.0
176
     1
 76
     1
176
     1
 77
     6
176
     1
 78
     2
176
     1
 67
     7
176
     1
 79
     5
176
     1
170
     0
176
     1
171
     0
176
     1
290
     0
176
     1
 93
       13
176
     1
 44
0.0
176
     1
173
     0
176
     1
  0
VISUALSTYLE
  5
37
102
{ACAD_REACTORS
330
2A
102
}
330
2A
100
AcDbVisualStyle
  2
Thicken
 70
    13
177
     2
291
     1
 71
     2
176
     1
 72
     2
176
     1
 73
     0
176
     1
 90
        0
176
     1
 40
-0.6
176
     1
 41
-30.0
176
     1
 62
     5
 63
     7
421
 16777215
176
     1
 74
     1
176
     1
 91
        4
176
     1
 64
     7
176
     1
 65
   257
176
     1
 75
     1
176
     1
175
     1
176
     1
 42
1.0
176
     1
 92
       12
176
     1
 66
     7
176
     1
 43
1.0
176
     1
 76
     1
176
     1
 77
     6
176
     1
 78
     2
176
     1
 67
     7
176
     1
 79
     5
176
     1
170
     0
176
     1
171
     0
176
     1
290
     0
176
     1
 93
        1
176
     1
 44
0.0
176
     1
173
     0
176
     1
  0
ENDSEC
  0
EOF
