  0
SECTION
  2
HEADER
  9
$ACADVER
  1
AC1015
  9
$ACADMAINTVER
 70
     6
  9
$DWGCODEPAGE
  3
ANSI_1252
  9
$INSBASE
 10
0.0
 20
0.0
 30
0.0
  9
$EXTMIN
 10
0.0
 20
0.0
 30
0.0
  9
$EXTMAX
 10
594.0
 20
841.0
 30
0.0
  9
$LIMMIN
 10
0.0
 20
0.0
  9
$LIMMAX
 10
594.0
 20
841.0
  9
$ORTHOMODE
 70
     0
  9
$REGENMODE
 70
     1
  9
$FILLMODE
 70
     1
  9
$QTEXTMODE
 70
     0
  9
$MIRRTEXT
 70
     1
  9
$LTSCALE
 40
1.0
  9
$ATTMODE
 70
     1
  9
$TEXTSIZE
 40
10.0
  9
$TRACEWID
 40
1.0
  9
$TEXTSTYLE
  7
Standard
  9
$CLAYER
  8
0
  9
$CELTYPE
  6
ByLayer
  9
$CECOLOR
 62
   256
  9
$CELTSCALE
 40
1.0
  9
$DISPSILH
 70
     0
  9
$DIMSCALE
 40
1.0
  9
$DIMASZ
 40
2.5
  9
$DIMEXO
 40
0.0
  9
$DIMDLI
 40
3.75
  9
$DIMRND
 40
0.0
  9
$DIMDLE
 40
0.0
  9
$DIMEXE
 40
1.0
  9
$DIMTP
 40
0.0
  9
$DIMTM
 40
0.0
  9
$DIMTXT
 40
3.5
  9
$DIMCEN
 40
2.5
  9
$DIMTSZ
 40
0.0
  9
$DIMTOL
 70
     0
  9
$DIMLIM
 70
     0
  9
$DIMTIH
 70
     1
  9
$DIMTOH
 70
     1
  9
$DIMSE1
 70
     0
  9
$DIMSE2
 70
     0
  9
$DIMTAD
 70
     1
  9
$DIMZIN
 70
     0
  9
$DIMBLK
  1

  9
$DIMASO
 70
     1
  9
$DIMSHO
 70
     1
  9
$DIMPOST
  1

  9
$DIMAPOST
  1

  9
$DIMALT
 70
     0
  9
$DIMALTD
 70
     3
  9
$DIMALTF
 40
0.0393700787
  9
$DIMLFAC
 40
1.0
  9
$DIMTOFL
 70
     1
  9
$DIMTVP
 40
0.0
  9
$DIMTIX
 70
     0
  9
$DIMSOXD
 70
     0
  9
$DIMSAH
 70
     0
  9
$DIMBLK1
  1

  9
$DIMBLK2
  1

  9
$DIMSTYLE
  2
ISO-25
  9
$DIMCLRD
 70
     0
  9
$DIMCLRE
 70
     0
  9
$DIMCLRT
 70
     0
  9
$DIMTFAC
 40
1.0
  9
$DIMGAP
 40
1.5
  9
$DIMJUST
 70
     0
  9
$DIMSD1
 70
     0
  9
$DIMSD2
 70
     0
  9
$DIMTOLJ
 70
     0
  9
$DIMTZIN
 70
     0
  9
$DIMALTZ
 70
     0
  9
$DIMALTTZ
 70
     0
  9
$DIMUPT
 70
     0
  9
$DIMDEC
 70
     2
  9
$DIMTDEC
 70
     2
  9
$DIMALTU
 70
     2
  9
$DIMALTTD
 70
     3
  9
$DIMTXSTY
  7
Standard
  9
$DIMAUNIT
 70
     0
  9
$DIMADEC
 70
     2
  9
$DIMALTRND
 40
0.0
  9
$DIMAZIN
 70
     0
  9
$DIMDSEP
 70
    44
  9
$DIMATFIT
 70
     3
  9
$DIMFRAC
 70
     0
  9
$DIMLDRBLK
  1

  9
$DIMLUNIT
 70
     2
  9
$DIMLWD
 70
    -2
  9
$DIMLWE
 70
    -2
  9
$DIMTMOVE
 70
     0
  9
$LUNITS
 70
     2
  9
$LUPREC
 70
     2
  9
$SKETCHINC
 40
1.0
  9
$FILLETRAD
 40
10.0
  9
$AUNITS
 70
     0
  9
$AUPREC
 70
     2
  9
$MENU
  1
.
  9
$ELEVATION
 40
0.0
  9
$PELEVATION
 40
0.0
  9
$THICKNESS
 40
0.0
  9
$LIMCHECK
 70
     0
  9
$CHAMFERA
 40
0.0
  9
$CHAMFERB
 40
0.0
  9
$CHAMFERC
 40
0.0
  9
$CHAMFERD
 40
0.0
  9
$SKPOLY
 70
     0
  9
$TDCREATE
 40
2458914.611913137
  9
$TDUCREATE
 40
2458914.57024647
  9
$TDUPDATE
 40
2458914.611914583
  9
$TDUUPDATE
 40
2458914.570247917
  9
$TDINDWG
 40
0.0000000116
  9
$TDUSRTIMER
 40
0.0000000116
  9
$USRTIMER
 70
     1
  9
$ANGBASE
 50
0.0
  9
$ANGDIR
 70
     0
  9
$PDMODE
 70
     0
  9
$PDSIZE
 40
-1.0
  9
$PLINEWID
 40
0.0
  9
$SPLFRAME
 70
     0
  9
$SPLINETYPE
 70
     6
  9
$SPLINESEGS
 70
     8
  9
$HANDSEED
  5
151
  9
$SURFTAB1
 70
     6
  9
$SURFTAB2
 70
     6
  9
$SURFTYPE
 70
     6
  9
$SURFU
 70
     6
  9
$SURFV
 70
     6
  9
$UCSBASE
  2

  9
$UCSNAME
  2

  9
$UCSORG
 10
0.0
 20
0.0
 30
0.0
  9
$UCSXDIR
 10
1.0
 20
0.0
 30
0.0
  9
$UCSYDIR
 10
0.0
 20
1.0
 30
0.0
  9
$UCSORTHOREF
  2

  9
$UCSORTHOVIEW
 70
     0
  9
$UCSORGTOP
 10
0.0
 20
0.0
 30
0.0
  9
$UCSORGBOTTOM
 10
0.0
 20
0.0
 30
0.0
  9
$UCSORGLEFT
 10
0.0
 20
0.0
 30
0.0
  9
$UCSORGRIGHT
 10
0.0
 20
0.0
 30
0.0
  9
$UCSORGFRONT
 10
0.0
 20
0.0
 30
0.0
  9
$UCSORGBACK
 10
0.0
 20
0.0
 30
0.0
  9
$PUCSBASE
  2

  9
$PUCSNAME
  2

  9
$PUCSORG
 10
0.0
 20
0.0
 30
0.0
  9
$PUCSXDIR
 10
1.0
 20
0.0
 30
0.0
  9
$PUCSYDIR
 10
0.0
 20
1.0
 30
0.0
  9
$PUCSORTHOREF
  2

  9
$PUCSORTHOVIEW
 70
     0
  9
$PUCSORGTOP
 10
0.0
 20
0.0
 30
0.0
  9
$PUCSORGBOTTOM
 10
0.0
 20
0.0
 30
0.0
  9
$PUCSORGLEFT
 10
0.0
 20
0.0
 30
0.0
  9
$PUCSORGRIGHT
 10
0.0
 20
0.0
 30
0.0
  9
$PUCSORGFRONT
 10
0.0
 20
0.0
 30
0.0
  9
$PUCSORGBACK
 10
0.0
 20
0.0
 30
0.0
  9
$USERI1
 70
     0
  9
$USERI2
 70
     0
  9
$USERI3
 70
     0
  9
$USERI4
 70
     0
  9
$USERI5
 70
     0
  9
$USERR1
 40
0.0
  9
$USERR2
 40
0.0
  9
$USERR3
 40
0.0
  9
$USERR4
 40
0.0
  9
$USERR5
 40
0.0
  9
$WORLDVIEW
 70
     1
  9
$SHADEDGE
 70
     3
  9
$SHADEDIF
 70
    70
  9
$TILEMODE
 70
     1
  9
$MAXACTVP
 70
    64
  9
$PINSBASE
 10
0.0
 20
0.0
 30
0.0
  9
$PLIMCHECK
 70
     0
  9
$PEXTMIN
 10
1.0000000000E+20
 20
1.0000000000E+20
 30
1.0000000000E+20
  9
$PEXTMAX
 10
-1.0000000000E+20
 20
-1.0000000000E+20
 30
-1.0000000000E+20
  9
$PLIMMIN
 10
0.0
 20
0.0
  9
$PLIMMAX
 10
420.0
 20
297.0
  9
$UNITMODE
 70
     0
  9
$VISRETAIN
 70
     1
  9
$PLINEGEN
 70
     0
  9
$PSLTSCALE
 70
     1
  9
$TREEDEPTH
 70
  3020
  9
$CMLSTYLE
  2
Standard
  9
$CMLJUST
 70
     0
  9
$CMLSCALE
 40
20.0
  9
$PROXYGRAPHICS
 70
     1
  9
$MEASUREMENT
 70
     1
  9
$CELWEIGHT
370
    -1
  9
$ENDCAPS
280
     0
  9
$JOINSTYLE
280
     0
  9
$LWDISPLAY
290
     1
  9
$INSUNITS
 70
     4
  9
$HYPERLINKBASE
  1

  9
$STYLESHEET
  1

  9
$XEDIT
290
     1
  9
$CEPSNTYPE
380
     0
  9
$PSTYLEMODE
290
     1
  9
$FINGERPRINTGUID
  2
{d10adecb-f9f9-481d-b1ff-81da5233b2ce}
  9
$VERSIONGUID
  2
{FAEB1C32-E019-11D5-929B-00C0DF256EC4}
  9
$EXTNAMES
290
     1
  9
$PSVPSCALE
 40
0.0
  9
$OLESTARTUP
290
     0
  0
ENDSEC
  0
SECTION
  2
CLASSES
  0
CLASS
  1
ACDBDICTIONARYWDFLT
  2
AcDbDictionaryWithDefault
  3
ObjectDBX Classes
 90
        0
280
     0
281
     0
  0
CLASS
  1
VISUALSTYLE
  2
AcDbVisualStyle
  3
ObjectDBX Classes
 90
     4095
280
     0
281
     0
  0
CLASS
  1
MATERIAL
  2
AcDbMaterial
  3
ObjectDBX Classes
 90
     1153
280
     0
281
     0
  0
CLASS
  1
SCALE
  2
AcDbScale
  3
ObjectDBX Classes
 90
     1153
280
     0
281
     0
  0
CLASS
  1
TABLESTYLE
  2
AcDbTableStyle
  3
ObjectDBX Classes
 90
     4095
280
     0
281
     0
  0
CLASS
  1
MLEADERSTYLE
  2
AcDbMLeaderStyle
  3
ACDB_MLEADERSTYLE_CLASS
 90
     4095
280
     0
281
     0
  0
CLASS
  1
SUN
  2
AcDbSun
  3
SCENEOE
 90
     1153
280
     0
281
     0
  0
CLASS
  1
ACDBPLACEHOLDER
  2
AcDbPlaceHolder
  3
ObjectDBX Classes
 90
        0
280
     0
281
     0
  0
CLASS
  1
LAYOUT
  2
AcDbLayout
  3
ObjectDBX Classes
 90
        0
280
     0
281
     0
  0
ENDSEC
  0
SECTION
  2
TABLES
  0
TABLE
  2
VPORT
  5
8
330
0
100
AcDbSymbolTable
 70
     1
  0
VPORT
  5
29
330
8
100
AcDbSymbolTableRecord
100
AcDbViewportTableRecord
  2
*Active
 70
     0
 10
0.0
 20
0.0
 11
1.0
 21
1.0
 12
297.0
 22
420.5
 13
0.0
 23
0.0
 14
10.0
 24
10.0
 15
10.0
 25
10.0
 16
0.0
 26
0.0
 36
1.0
 17
0.0
 27
0.0
 37
0.0
 40
841.0
 41
0.7063020214
 42
50.0
 43
0.0
 44
0.0
 50
0.0
 51
0.0
 71
     0
 72
  2000
 73
     1
 74
     3
 75
     0
 76
     0
 77
     0
 78
     0
281
     0
 65
     1
110
0.0
120
0.0
130
0.0
111
1.0
121
0.0
131
0.0
112
0.0
122
1.0
132
0.0
 79
     0
146
0.0
  0
ENDTAB
  0
TABLE
  2
LTYPE
  5
5
330
0
100
AcDbSymbolTable
 70
     6
  0
LTYPE
  5
14
330
5
100
AcDbSymbolTableRecord
100
AcDbLinetypeTableRecord
  2
ByBlock
 70
     0
  3

 72
    65
 73
     0
 40
0.0
  0
LTYPE
  5
15
330
5
100
AcDbSymbolTableRecord
100
AcDbLinetypeTableRecord
  2
ByLayer
 70
     0
  3

 72
    65
 73
     0
 40
0.0
  0
LTYPE
  5
16
330
5
100
AcDbSymbolTableRecord
100
AcDbLinetypeTableRecord
  2
Continuous
 70
     0
  3
Solid line
 72
    65
 73
     0
 40
0.0
  0
LTYPE
  5
6E
330
5
100
AcDbSymbolTableRecord
100
AcDbLinetypeTableRecord
  2
HIDDEN
 70
     0
  3
Hidden __ __ __ __ __ __ __ __ __ __ __ __ __ __
 72
    65
 73
     2
 40
1.905
 49
1.27
 74
     0
 49
-0.635
 74
     0
  0
LTYPE
  5
6F
330
5
100
AcDbSymbolTableRecord
100
AcDbLinetypeTableRecord
  2
PHANTOM
 70
     0
  3
Phantom ______  __  __  ______  __  __  ______
 72
    65
 73
     6
 40
12.7
 49
6.35
 74
     0
 49
-1.27
 74
     0
 49
1.27
 74
     0
 49
-1.27
 74
     0
 49
1.27
 74
     0
 49
-1.27
 74
     0
  0
LTYPE
  5
70
330
5
100
AcDbSymbolTableRecord
100
AcDbLinetypeTableRecord
  2
CENTER
 70
     0
  3
Center ____ _ ____ _ ____ _ ____ _ ____ _ ____
 72
    65
 73
     4
 40
10.16
 49
6.35
 74
     0
 49
-1.27
 74
     0
 49
1.27
 74
     0
 49
-1.27
 74
     0
  0
LTYPE
  5
71
330
5
100
AcDbSymbolTableRecord
100
AcDbLinetypeTableRecord
  2
CENTERX2
 70
     0
  3
Center (2x) ________  __  ________  __  _____
 72
    65
 73
     4
 40
20.32
 49
12.7
 74
     0
 49
-2.54
 74
     0
 49
2.54
 74
     0
 49
-2.54
 74
     0
  0
LTYPE
  5
72
330
5
100
AcDbSymbolTableRecord
100
AcDbLinetypeTableRecord
  2
DOT2
 70
     0
  3
Dot (.5x) ........................................
 72
    65
 73
     2
 40
0.635
 49
0.0
 74
     0
 49
-0.635
 74
     0
  0
ENDTAB
  0
TABLE
  2
LAYER
  5
2
330
0
100
AcDbSymbolTable
 70
     1
  0
LAYER
  5
10
330
2
100
AcDbSymbolTableRecord
100
AcDbLayerTableRecord
  2
0
 70
     0
 62
     7
  6
Continuous
370
    -3
390
F
  0
ENDTAB
  0
TABLE
  2
STYLE
  5
3
330
0
100
AcDbSymbolTable
 70
     3
  0
STYLE
  5
11
330
3
100
AcDbSymbolTableRecord
100
AcDbTextStyleTableRecord
  2
Standard
 70
     0
 40
0.0
 41
1.0
 50
0.0
 71
     0
 42
10.0
  3
txt
  4

  0
STYLE
  5
76
330
3
100
AcDbSymbolTableRecord
100
AcDbTextStyleTableRecord
  2
SLDTEXTSTYLE0
 70
     0
 40
0.0
 41
0.96
 50
0.0
 71
     0
 42
10.0
  3
ISOCP3
  4

  0
STYLE
  5
8D
330
3
100
AcDbSymbolTableRecord
100
AcDbTextStyleTableRecord
  2
SLDTEXTSTYLE1
 70
     0
 40
0.0
 41
0.605
 50
0.0
 71
     0
 42
10.0
  3
TXT
  4

  0
ENDTAB
  0
TABLE
  2
VIEW
  5
6
330
0
100
AcDbSymbolTable
 70
     0
  0
ENDTAB
  0
TABLE
  2
UCS
  5
7
330
0
100
AcDbSymbolTable
 70
     0
  0
ENDTAB
  0
TABLE
  2
APPID
  5
9
330
0
100
AcDbSymbolTable
 70
     1
  0
APPID
  5
12
330
9
100
AcDbSymbolTableRecord
100
AcDbRegAppTableRecord
  2
ACAD
 70
     0
  0
ENDTAB
  0
TABLE
  2
DIMSTYLE
  5
A
330
0
100
AcDbSymbolTable
 70
     2
100
AcDbDimStyleTable
  0
DIMSTYLE
105
27
330
A
100
AcDbSymbolTableRecord
100
AcDbDimStyleTableRecord
  2
ISO-25
 70
     0
 41
2.5
 42
0.625
 43
3.75
 44
1.25
 73
     0
 74
     0
 77
     1
 78
     8
140
2.5
141
2.5
143
0.0393700787
147
0.625
171
     3
172
     1
178
     0
271
     2
272
     2
274
     3
278
    44
283
     0
284
     8
340
11
  0
DIMSTYLE
105
77
102
{ACAD_REACTORS
330
75
330
82
102
}
330
A
100
AcDbSymbolTableRecord
100
AcDbDimStyleTableRecord
  2
SLDDIMSTYLE0
 70
     0
 41
2.5
 44
0.0
 45
0.000000001
 73
     0
 74
     0
 77
     1
 78
    12
 79
     3
140
6.0
147
1.5
173
     1
178
     0
271
     2
272
     2
276
     2
284
    12
340
76
  0
ENDTAB
  0
TABLE
  2
BLOCK_RECORD
  5
1
330
0
100
AcDbSymbolTable
 70
     3
  0
BLOCK_RECORD
  5
1F
330
1
100
AcDbSymbolTableRecord
100
AcDbBlockTableRecord
  2
*Model_Space
340
22
  0
BLOCK_RECORD
  5
1B
330
1
100
AcDbSymbolTableRecord
100
AcDbBlockTableRecord
  2
*Paper_Space
340
1E
  0
BLOCK_RECORD
  5
23
330
1
100
AcDbSymbolTableRecord
100
AcDbBlockTableRecord
  2
*Paper_Space0
340
26
  0
BLOCK_RECORD
  5
78
330
1
100
AcDbSymbolTableRecord
100
AcDbBlockTableRecord
  2
_D
340
0
  0
BLOCK_RECORD
  5
83
330
1
100
AcDbSymbolTableRecord
100
AcDbBlockTableRecord
  2
_D_1
340
0
  0
ENDTAB
  0
ENDSEC
  0
SECTION
  2
BLOCKS
  0
BLOCK
  5
20
330
1F
100
AcDbEntity
  8
0
100
AcDbBlockBegin
  2
*Model_Space
 70
     0
 10
0.0
 20
0.0
 30
0.0
  3
*Model_Space
  1

  0
ENDBLK
  5
21
330
1F
100
AcDbEntity
  8
0
100
AcDbBlockEnd
  0
BLOCK
  5
1C
330
1B
100
AcDbEntity
 67
     1
  8
0
100
AcDbBlockBegin
  2
*Paper_Space
 70
     0
 10
0.0
 20
0.0
 30
0.0
  3
*Paper_Space
  1

  0
ENDBLK
  5
1D
330
1B
100
AcDbEntity
 67
     1
  8
0
100
AcDbBlockEnd
  0
BLOCK
  5
24
330
23
100
AcDbEntity
  8
0
100
AcDbBlockBegin
  2
*Paper_Space0
 70
     0
 10
0.0
 20
0.0
 30
0.0
  3
*Paper_Space0
  1

  0
ENDBLK
  5
25
330
23
100
AcDbEntity
  8
0
100
AcDbBlockEnd
  0
BLOCK
  5
79
330
78
100
AcDbEntity
  8
0
100
AcDbBlockBegin
  2
_D
 70
     0
 10
0.0
 20
0.0
 30
0.0
  3
_D
  1

  0
SOLID
  5
7B
330
78
100
AcDbEntity
  8
0
  6
Continuous
 62
     7
370
    18
100
AcDbTrace
 10
42.7614395004
 20
152.0299240879
 30
0.0
 11
42.4614395004
 21
149.5299240879
 31
0.0
 12
43.0614395004
 22
149.5299240879
 32
0.0
 13
43.0614395004
 23
149.5299240879
 33
0.0
  0
SOLID
  5
7C
330
78
100
AcDbEntity
  8
0
  6
Continuous
 62
     7
370
    18
100
AcDbTrace
 10
42.7614395004
 20
52.0299240879
 30
0.0
 11
43.0614395004
 21
54.5299240879
 31
0.0
 12
42.4614395004
 22
54.5299240879
 32
0.0
 13
42.4614395004
 23
54.5299240879
 33
0.0
  0
LINE
  5
7D
330
78
100
AcDbEntity
  8
0
  6
Continuous
 62
     7
370
     0
100
AcDbLine
 10
56.6850079902
 20
152.0299240879
 30
0.0
 11
41.7614395004
 21
152.0299240879
 31
0.0
  0
LINE
  5
7E
330
78
100
AcDbEntity
  8
0
  6
Continuous
 62
     7
370
     0
100
AcDbLine
 10
56.6850079902
 20
52.0299240879
 30
0.0
 11
41.7614395004
 21
52.0299240879
 31
0.0
  0
LINE
  5
7F
330
78
100
AcDbEntity
  8
0
  6
Continuous
 62
     7
370
     0
100
AcDbLine
 10
42.7614395004
 20
152.0299240879
 30
0.0
 11
42.7614395004
 21
52.0299240879
 31
0.0
  0
MTEXT
  5
80
330
78
100
AcDbEntity
  8
0
  6
Continuous
 62
     7
370
    18
100
AcDbMText
 10
35.0270332946
 20
94.3680541463
 30
0.0
 40
6.0
 41
0.0
 71
     1
 72
     1
  1
100
  7
SLDTEXTSTYLE0
 11
-7.044195017643634E-15
 21
1.0
 31
0.0
 73
     1
 44
1.0
  0
MTEXT
  5
81
330
78
100
AcDbEntity
  8
0
  6
Continuous
 62
     7
370
    18
100
AcDbMText
 10
35.0270332946
 20
105.7430548466
 30
0.0
 40
6.0
 41
0.0
 71
     1
 72
     1
  1
mm
  7
SLDTEXTSTYLE0
 11
-7.044195017643634E-15
 21
1.0
 31
0.0
 73
     1
 44
1.0
  0
ENDBLK
  5
7A
330
78
100
AcDbEntity
  8
0
100
AcDbBlockEnd
  0
BLOCK
  5
84
330
83
100
AcDbEntity
  8
0
100
AcDbBlockBegin
  2
_D_1
 70
     0
 10
0.0
 20
0.0
 30
0.0
  3
_D_1
  1

  0
SOLID
  5
86
330
83
100
AcDbEntity
  8
0
  6
Continuous
 62
     7
370
    18
100
AcDbTrace
 10
56.6850079902
 20
38.4602342313
 30
0.0
 11
59.1850079902
 21
38.1602342313
 31
0.0
 12
59.1850079902
 22
38.7602342313
 32
0.0
 13
59.1850079902
 23
38.7602342313
 33
0.0
  0
SOLID
  5
87
330
83
100
AcDbEntity
  8
0
  6
Continuous
 62
     7
370
    18
100
AcDbTrace
 10
156.6850079902
 20
38.4602342313
 30
0.0
 11
154.1850079902
 21
38.7602342313
 31
0.0
 12
154.1850079902
 22
38.1602342313
 32
0.0
 13
154.1850079902
 23
38.1602342313
 33
0.0
  0
LINE
  5
88
330
83
100
AcDbEntity
  8
0
  6
Continuous
 62
     7
370
     0
100
AcDbLine
 10
56.6850079902
 20
52.0299240879
 30
0.0
 11
56.6850079902
 21
37.4602342313
 31
0.0
  0
LINE
  5
89
330
83
100
AcDbEntity
  8
0
  6
Continuous
 62
     7
370
     0
100
AcDbLine
 10
156.6850079902
 20
52.0299240879
 30
0.0
 11
156.6850079902
 21
37.4602342313
 31
0.0
  0
LINE
  5
8A
330
83
100
AcDbEntity
  8
0
  6
Continuous
 62
     7
370
     0
100
AcDbLine
 10
56.6850079902
 20
38.4602342313
 30
0.0
 11
156.6850079902
 21
38.4602342313
 31
0.0
  0
MTEXT
  5
8B
330
83
100
AcDbEntity
  8
0
  6
Continuous
 62
     7
370
    18
100
AcDbMText
 10
93.9626484861
 20
46.1946404371
 30
0.0
 40
6.0
 41
0.0
 71
     1
 72
     1
  1
100
  7
SLDTEXTSTYLE0
 73
     1
 44
1.0
  0
MTEXT
  5
8C
330
83
100
AcDbEntity
  8
0
  6
Continuous
 62
     7
370
    18
100
AcDbMText
 10
105.3376491864
 20
46.1946404371
 30
0.0
 40
6.0
 41
0.0
 71
     1
 72
     1
  1
mm
  7
SLDTEXTSTYLE0
 73
     1
 44
1.0
  0
ENDBLK
  5
85
330
83
100
AcDbEntity
  8
0
100
AcDbBlockEnd
  0
ENDSEC
  0
SECTION
  2
ENTITIES
  0
LINE
  5
73
330
1F
100
AcDbEntity
  8
0
  6
Continuous
 62
     7
370
    18
100
AcDbLine
 10
56.6850079902
 20
152.0299240879
 30
0.0
 11
56.6850079902
 21
52.0299240879
 31
0.0
  0
LINE
  5
74
330
1F
100
AcDbEntity
  8
0
  6
Continuous
 62
     7
370
    18
100
AcDbLine
 10
56.6850079902
 20
52.0299240879
 30
0.0
 11
156.6850079902
 21
52.0299240879
 31
0.0
  0
DIMENSION
  5
75
330
1F
100
AcDbEntity
  8
0
  6
Continuous
 62
     7
370
    18
100
AcDbDimension
  2
_D
 10
42.7614395004
 20
52.0299240879
 30
0.0
 11
42.7614395004
 21
105.4472211621
 31
0.0
 70
   160
  1
<>mm
 71
     2
 42
-1.0
  3
SLDDIMSTYLE0
100
AcDbAlignedDimension
 13
56.6850079902
 23
152.0299240879
 33
0.0
 14
56.6850079902
 24
52.0299240879
 34
0.0
 50
90.0
100
AcDbRotatedDimension
  0
DIMENSION
  5
82
330
1F
100
AcDbEntity
  8
0
  6
Continuous
 62
     7
370
    18
100
AcDbDimension
  2
_D_1
 10
156.6850079902
 20
38.4602342313
 30
0.0
 11
105.0418155019
 21
38.4602342313
 31
0.0
 70
   160
  1
<>mm
 71
     2
 42
-1.0
  3
SLDDIMSTYLE0
100
AcDbAlignedDimension
 13
56.6850079902
 23
52.0299240879
 33
0.0
 14
156.6850079902
 24
52.0299240879
 34
0.0
100
AcDbRotatedDimension
  0
MTEXT
  5
8E
330
1F
100
AcDbEntity
  8
0
  6
Continuous
 62
     7
370
     0
100
AcDbMText
 10
412.8252631579
 20
48.4342449499
 30
0.0
 40
10.0
 41
0.0
 71
     1
 72
     1
  1
KLUDI GmbH & Co KG
  7
SLDTEXTSTYLE1
 73
     1
 44
1.0
  0
MTEXT
  5
8F
330
1F
100
AcDbEntity
  8
0
  6
Continuous
 62
     7
370
     0
100
AcDbMText
 10
210.0873490389
 20
48.4342449499
 30
0.0
 40
10.0
 41
0.0
 71
     1
 72
     1
  1
38 280 05 76
  7
SLDTEXTSTYLE1
 73
     1
 44
1.0
  0
SPLINE
  5
90
330
1F
100
AcDbEntity
  8
0
  6
Continuous
 62
     7
370
    25
100
AcDbSpline
210
0.0
220
0.0
230
1.0
 70
     8
 71
     3
 72
    19
 73
    15
 74
     0
 42
0.000000001
 43
0.00000001
 40
0.0
 40
0.0
 40
0.0
 40
0.0
 40
0.0666882753907249
 40
0.148786062477699
 40
0.231542702226864
 40
0.3158275377276889
 40
0.401863049442073
 40
0.4892591137495044
 40
0.5773418780437362
 40
0.6654341464883926
 40
0.7532366502714097
 40
0.8407026682504363
 40
0.9279015701109556
 40
1.0
 40
1.0
 40
1.0
 40
1.0
 10
172.4816646359018
 20
438.0734271933144
 30
0.0
 10
172.5002004982582
 20
437.7463533300993
 30
0.0
 10
172.541555263522
 20
437.0166293724467
 30
0.0
 10
172.8929750878618
 20
435.9131900948243
 30
0.0
 10
173.468294398302
 20
434.7875340557403
 30
0.0
 10
174.2701438937229
 20
433.7274377807425
 30
0.0
 10
175.2817709321084
 20
432.746083168541
 30
0.0
 10
176.4922901205851
 20
431.860773710884
 30
0.0
 10
177.878580077175
 20
431.0896473618648
 30
0.0
 10
179.4118451431837
 20
430.4481560239995
 30
0.0
 10
181.0605725999873
 20
429.9460848959866
 30
0.0
 10
182.7939129835221
 20
429.5936090528231
 30
0.0
 10
184.4797226698873
 20
429.3941552592335
 30
0.0
 10
185.5826999846811
 20
429.3714802200391
 30
0.0
 10
186.0819106853655
 20
429.3612174321717
 30
0.0
  0
SPLINE
  5
91
330
1F
100
AcDbEntity
  8
0
  6
Continuous
 62
     7
370
    25
100
AcDbSpline
210
0.0
220
0.0
230
1.0
 70
     8
 71
     3
 72
    20
 73
    16
 74
     0
 42
0.000000001
 43
0.00000001
 40
0.0
 40
0.0
 40
0.0
 40
0.0
 40
0.0451095570124181
 40
0.129914740882155
 40
0.2149474006840607
 40
0.3003136299201422
 40
0.386148197882708
 40
0.472539239880456
 40
0.5594773664295826
 40
0.6467591156779382
 40
0.7336636853469877
 40
0.8193228790568338
 40
0.9030062907301438
 40
0.9846434819366451
 40
1.0
 40
1.0
 40
1.0
 40
1.0
 10
186.0819106853655
 20
429.3612174321717
 30
0.0
 10
186.4024818658638
 20
429.3655756885202
 30
0.0
 10
187.3257212990786
 20
429.3781273911242
 30
0.0
 10
188.8433007156583
 20
429.5168993884035
 30
0.0
 10
190.5945783668454
 20
429.8250535416643
 30
0.0
 10
192.2716181528006
 20
430.2837306687226
 30
0.0
 10
193.8461684606482
 20
430.8858230447238
 30
0.0
 10
195.2911851865527
 20
431.6265270289073
 30
0.0
 10
196.5792789648661
 20
432.4987190589178
 30
0.0
 10
197.6822245248252
 20
433.4919181573942
 30
0.0
 10
198.5689127543843
 20
434.5894213506516
 30
0.0
 10
199.2221957597904
 20
435.7665341579163
 30
0.0
 10
199.5971050833961
 20
436.9896131878174
 30
0.0
 10
199.7436409889584
 20
437.9016701925532
 30
0.0
 10
199.6905606702868
 20
438.3878407448748
 30
0.0
 10
199.6821567348293
 20
438.4648136426514
 30
0.0
  0
LINE
  5
92
330
1F
100
AcDbEntity
  8
0
  6
Continuous
 62
     7
370
    25
100
AcDbLine
 10
172.4596518955
 20
442.9604716231
 30
0.0
 11
172.4596518955
 21
438.2691241433
 31
0.0
  0
LINE
  5
93
330
1F
100
AcDbEntity
  8
0
  6
Continuous
 62
     7
370
    25
100
AcDbLine
 10
199.7041694752
 20
438.2691241433
 30
0.0
 11
199.7041694752
 21
442.9604716231
 31
0.0
  0
SPLINE
  5
94
330
1F
100
AcDbEntity
  8
0
  6
Continuous
 62
     7
370
    25
100
AcDbSpline
210
0.0
220
0.0
230
1.0
 70
     8
 71
     3
 72
    16
 73
    12
 74
     0
 42
0.000000001
 43
0.00000001
 40
0.0
 40
0.0
 40
0.0
 40
0.0
 40
0.126096490950783
 40
0.2378473056896384
 40
0.3382619468353848
 40
0.4298957813483143
 40
0.5419353009764856
 40
0.6456598146236944
 40
0.7432559019113578
 40
0.8798846900766626
 40
1.0
 40
1.0
 40
1.0
 40
1.0
 10
199.7046453810385
 20
442.9604716230935
 30
0.0
 10
199.7046386109619
 20
443.9087816622359
 30
0.0
 10
199.7046258410231
 20
445.6975149256897
 30
0.0
 10
199.7046633240392
 20
448.0559339598107
 30
0.0
 10
199.7047613280901
 20
450.0021562053296
 30
0.0
 10
199.7047486380556
 20
451.737228921713
 30
0.0
 10
199.7040845411311
 20
453.2177357441495
 30
0.0
 10
199.7015790624283
 20
454.3907991664966
 30
0.0
 10
199.6939654324286
 20
455.3046738838663
 30
0.0
 10
199.6800123073161
 20
455.8946506295138
 30
0.0
 10
199.6477986001976
 20
455.9676817624524
 30
0.0
 10
199.6327277205041
 20
456.0018486906594
 30
0.0
  0
SPLINE
  5
95
330
1F
100
AcDbEntity
  8
0
  6
Continuous
 62
     7
370
    25
100
AcDbSpline
210
0.0
220
0.0
230
1.0
 70
     8
 71
     3
 72
    15
 73
    11
 74
     0
 42
0.000000001
 43
0.00000001
 40
0.0
 40
0.0
 40
0.0
 40
0.0
 40
0.1206863875456303
 40
0.2354049808217356
 40
0.3573496101369266
 40
0.4885483088863959
 40
0.5957641112440705
 40
0.7138685623019168
 40
0.8469389479125399
 40
1.0
 40
1.0
 40
1.0
 40
1.0
 10
172.6525753668598
 20
455.0503648449487
 30
0.0
 10
172.6236696469839
 20
455.0347327058083
 30
0.0
 10
172.5672875597296
 20
455.0042414176907
 30
0.0
 10
172.525669946116
 20
454.4696092262339
 30
0.0
 10
172.4946881484179
 20
453.5798392498967
 30
0.0
 10
172.4778512915118
 20
452.264571524522
 30
0.0
 10
172.4679023893547
 20
450.5850145647929
 30
0.0
 10
172.4624537300089
 20
448.5817812621978
 30
0.0
 10
172.459570541254
 20
446.0313286645846
 30
0.0
 10
172.4593134931301
 20
444.0306825682085
 30
0.0
 10
172.4591759896925
 20
442.9604716230935
 30
0.0
  0
LINE
  5
96
330
1F
100
AcDbEntity
  8
0
  6
Continuous
 62
     7
370
    25
100
AcDbLine
 10
210.081910894
 20
495.381229334
 30
0.0
 11
210.081910894
 21
520.0687132408
 31
0.0
  0
LINE
  5
97
330
1F
100
AcDbEntity
  8
0
  6
Continuous
 62
     7
370
    25
100
AcDbLine
 10
162.0819104767
 20
520.0687132408
 30
0.0
 11
162.0819104767
 21
495.3732870151
 31
0.0
  0
LINE
  5
98
330
1F
100
AcDbEntity
  8
0
  6
Continuous
 62
     7
370
    25
100
AcDbLine
 10
210.081910894
 20
336.4566741609
 30
0.0
 11
210.081910894
 21
491.0687140752
 31
0.0
  0
LINE
  5
99
330
1F
100
AcDbEntity
  8
0
  6
Continuous
 62
     7
370
    25
100
AcDbLine
 10
162.0819104767
 20
491.0687140752
 30
0.0
 11
162.0819104767
 21
336.4566741609
 31
0.0
  0
ARC
  5
9A
330
1F
100
AcDbEntity
  8
0
  6
Continuous
 62
     7
370
    25
100
AcDbCircle
 10
209.5819106854
 20
491.068706717
 30
0.0
 40
0.5
100
AcDbArc
 50
0.0
 51
90.0
  0
ARC
  5
9B
330
1F
100
AcDbEntity
  8
0
  6
Continuous
 62
     7
370
    25
100
AcDbCircle
 10
162.5819106854
 20
491.068706717
 30
0.0
 40
0.5
100
AcDbArc
 50
90.0
 51
180.0
  0
ARC
  5
9C
330
1F
100
AcDbEntity
  8
0
  6
Continuous
 62
     7
370
    25
100
AcDbCircle
 10
163.5819106854
 20
520.068706717
 30
0.0
 40
1.500000000000028
100
AcDbArc
 50
90.0
 51
180.0
  0
ARC
  5
9D
330
1F
100
AcDbEntity
  8
0
  6
Continuous
 62
     7
370
    25
100
AcDbCircle
 10
208.5819106854
 20
520.068706717
 30
0.0
 40
1.5
100
AcDbArc
 50
0.0
 51
90.0
  0
ARC
  5
9E
330
1F
100
AcDbEntity
  8
0
  6
Continuous
 62
     7
370
    25
100
AcDbCircle
 10
186.0819106854
 20
479.9304971744
 30
0.0
 40
26.60000000000003
100
AcDbArc
 50
146.6118111875
 51
154.0538205859
  0
ARC
  5
9F
330
1F
100
AcDbEntity
  8
0
  6
Continuous
 62
     7
370
    25
100
AcDbCircle
 10
186.0819106854
 20
479.9304971744
 30
0.0
 40
26.60000000000001
100
AcDbArc
 50
25.9461794141
 51
33.3881888125
  0
SPLINE
  5
A0
330
1F
100
AcDbEntity
  8
0
  6
Continuous
 62
     7
370
    25
100
AcDbSpline
210
0.0
220
0.0
230
1.0
 70
     8
 71
     3
 72
    13
 73
     9
 74
     0
 42
0.000000001
 43
0.00000001
 40
0.0
 40
0.0
 40
0.0
 40
0.0
 40
0.0826979550832472
 40
0.3683712678118811
 40
0.5851507436931117
 40
0.7854071028371438
 40
0.990761602145103
 40
1.0
 40
1.0
 40
1.0
 40
1.0
 10
208.9722195572308
 20
494.5699952174729
 30
0.0
 10
209.0144541882379
 20
494.5699461943623
 30
0.0
 10
209.2025848929694
 20
494.5697278249315
 30
0.0
 10
209.4225454141648
 20
494.5843488692825
 30
0.0
 10
209.8004728795395
 20
494.7035892241947
 30
0.0
 10
210.0730750562824
 20
495.0732724730547
 30
0.0
 10
210.1003062327026
 20
495.3261125518209
 30
0.0
 10
210.0775092768936
 20
495.4336560458064
 30
0.0
 10
210.0765278495005
 20
495.4382858802384
 30
0.0
  0
SPLINE
  5
A1
330
1F
100
AcDbEntity
  8
0
  6
Continuous
 62
     7
370
    25
100
AcDbSpline
210
0.0
220
0.0
230
1.0
 70
     8
 71
     3
 72
    12
 73
     8
 74
     0
 42
0.000000001
 43
0.00000001
 40
0.0
 40
0.0
 40
0.0
 40
0.0
 40
0.1748340284875816
 40
0.3791024975710804
 40
0.5876397249193938
 40
0.8114509576056296
 40
1.0
 40
1.0
 40
1.0
 40
1.0
 10
162.0932390845469
 20
495.3858635951585
 30
0.0
 10
162.0916916970673
 20
495.2884218481448
 30
0.0
 10
162.0883364094078
 20
495.0771334051562
 30
0.0
 10
162.3400899644437
 20
494.7191688634731
 30
0.0
 10
162.6993897003711
 20
494.5892378628715
 30
0.0
 10
162.9519990358572
 20
494.5693481441178
 30
0.0
 10
163.1550838837507
 20
494.5703136880414
 30
0.0
 10
163.2479431039742
 20
494.5707551766938
 30
0.0
  0
ELLIPSE
  5
A2
330
1F
100
AcDbEntity
  8
0
  6
Continuous
 62
     7
370
    25
100
AcDbEllipse
 10
186.0819106854
 20
438.2691205848
 30
0.0
 11
13.62225840003609
 21
0.0
 31
0.0
210
0.0
220
0.0
230
1.0
 40
0.6243407052
 41
3.141592653589779
 42
3.161532480234339
  0
ELLIPSE
  5
A3
330
1F
100
AcDbEntity
  8
0
  6
Continuous
 62
     7
370
    25
100
AcDbEllipse
 10
186.0819106854
 20
438.2691205848
 30
0.0
 11
13.62225840003609
 21
0.0
 31
0.0
210
0.0
220
0.0
230
1.0
 40
0.6243407052
 41
0.0
 42
0.0199398266445097
  0
SPLINE
  5
A4
330
1F
100
AcDbEntity
  8
0
  6
Continuous
 62
     7
370
    25
100
AcDbSpline
210
0.0
220
0.0
230
1.0
 70
     8
 71
     3
 72
    10
 73
     6
 74
     0
 42
0.000000001
 43
0.00000001
 40
0.0
 40
0.0
 40
0.0
 40
0.0
 40
0.3639529665788027
 40
0.7544301208672116
 40
1.0
 40
1.0
 40
1.0
 40
1.0
 10
181.7278449355713
 20
512.9620961476868
 30
0.0
 10
181.7585869019067
 20
512.6844244866704
 30
0.0
 10
181.8223112495777
 20
512.108844991465
 30
0.0
 10
182.150037303948
 20
511.4035966568674
 30
0.0
 10
182.4498727367823
 20
511.0254163009583
 30
0.0
 10
182.5656354825101
 20
510.8794055511063
 30
0.0
  0
SPLINE
  5
A5
330
1F
100
AcDbEntity
  8
0
  6
Continuous
 62
     7
370
    25
100
AcDbSpline
210
0.0
220
0.0
230
1.0
 70
     8
 71
     3
 72
    10
 73
     6
 74
     0
 42
0.000000001
 43
0.00000001
 40
0.0
 40
0.0
 40
0.0
 40
0.0
 40
0.246499426369045
 40
0.638247113142341
 40
1.0
 40
1.0
 40
1.0
 40
1.0
 10
189.5858076798818
 20
510.8636252214021
 30
0.0
 10
189.7025631613821
 20
511.0094875826344
 30
0.0
 10
190.0048715687842
 20
511.3871607981222
 30
0.0
 10
190.3351805416536
 20
512.0903443759337
 30
0.0
 10
190.4011033576834
 20
512.6642863547727
 30
0.0
 10
190.4327526620677
 20
512.9398338128632
 30
0.0
  0
CIRCLE
  5
A6
330
1F
100
AcDbEntity
  8
0
  6
Continuous
 62
     7
370
    25
100
AcDbCircle
 10
186.0819106854
 20
501.568706717
 30
0.0
 40
3.569682227408628
  0
CIRCLE
  5
A7
330
1F
100
AcDbEntity
  8
0
  6
Continuous
 62
     7
370
    25
100
AcDbCircle
 10
186.0819106854
 20
501.568706717
 30
0.0
 40
4.000000000000009
  0
SPLINE
  5
A8
330
1F
100
AcDbEntity
  8
0
  6
Continuous
 62
     7
370
    25
100
AcDbSpline
210
0.0
220
0.0
230
1.0
 70
    24
 71
     3
 72
    10
 73
     6
 74
     0
 42
0.000000001
 43
0.00000001
 40
0.0
 40
0.0
 40
0.0
 40
0.0
 40
0.5
 40
0.5
 40
1.0
 40
1.0
 40
1.0
 40
1.0
 10
183.9349941455706
 20
521.5687067169571
 30
0.0
 10
184.6506347264673
 20
521.5687067169571
 30
0.0
 10
185.3662752517043
 20
521.5687067169572
 30
0.0
 10
186.79755568478
 20
521.5687067169572
 30
0.0
 10
187.5131955915814
 20
521.5687067169572
 30
0.0
 10
188.2288354437262
 20
521.5687067169571
 30
0.0
  0
LINE
  5
A9
330
1F
100
AcDbEntity
  8
0
  6
Continuous
 62
     7
370
    25
100
AcDbLine
 10
210.081910894
 20
336.4566741609
 30
0.0
 11
162.0819104767
 21
336.4566741609
 31
0.0
  0
LINE
  5
AA
330
1F
100
AcDbEntity
  8
0
  6
Continuous
 62
     7
370
    25
100
AcDbLine
 10
208.936196
 20
494.5687137176
 30
0.0
 11
163.2276253707
 21
494.5687137176
 31
0.0
  0
LINE
  5
AB
330
1F
100
AcDbEntity
  8
0
  6
Continuous
 62
     7
370
    25
100
AcDbLine
 10
188.2288443788
 20
521.56870883
 30
0.0
 11
208.5819115794
 21
521.56870883
 31
0.0
  0
LINE
  5
AC
330
1F
100
AcDbEntity
  8
0
  6
Continuous
 62
     7
370
    25
100
AcDbLine
 10
163.5819097913
 20
521.56870883
 30
0.0
 11
183.9349872365
 21
521.56870883
 31
0.0
  0
LINE
  5
AD
330
1F
100
AcDbEntity
  8
0
  6
Continuous
 62
     7
370
    25
100
AcDbLine
 10
210.0007759339
 20
491.5687076379
 30
0.0
 11
162.1630454368
 21
491.5687076379
 31
0.0
  0
ELLIPSE
  5
AE
330
1F
100
AcDbEntity
  8
0
  6
Continuous
 62
     8
370
    18
100
AcDbEllipse
 10
186.0819106854
 20
438.2691205848
 30
0.0
 11
13.62225840003609
 21
0.0
 31
0.0
210
0.0
220
0.0
230
1.0
 40
0.6243407052
 41
1.57079632679488
 42
3.141592653589779
  0
LINE
  5
AF
330
1F
100
AcDbEntity
  8
0
  6
Continuous
 62
     8
370
    18
100
AcDbLine
 10
186.0819106854
 20
446.7740513016
 30
0.0
 11
186.0819106854
 21
444.4790638615
 31
0.0
  0
ELLIPSE
  5
B0
330
1F
100
AcDbEntity
  8
0
  6
Continuous
 62
     8
370
    18
100
AcDbEllipse
 10
186.0819106854
 20
437.0711673197
 30
0.0
 11
12.12225840003609
 21
0.0
 31
0.0
210
0.0
220
0.0
230
1.0
 40
0.6110989899
 41
1.570796326794897
 42
4.712388980384699
  0
LINE
  5
B1
330
1F
100
AcDbEntity
  8
0
  6
Continuous
 62
     8
370
    18
100
AcDbLine
 10
186.0819106854
 20
429.6632639696
 30
0.0
 11
186.0819106854
 21
429.3612174322
 31
0.0
  0
ELLIPSE
  5
B2
330
1F
100
AcDbEntity
  8
0
  6
Continuous
 62
     8
370
    18
100
AcDbEllipse
 10
186.0819106854
 20
438.2691205848
 30
0.0
 11
13.62225840003609
 21
0.0
 31
0.0
210
0.0
220
0.0
230
1.0
 40
0.6243407052
 41
0.0199398266445097
 42
1.570796326794897
  0
ELLIPSE
  5
B3
330
1F
100
AcDbEntity
  8
0
  6
Continuous
 62
     8
370
    18
100
AcDbEllipse
 10
186.0819106854
 20
437.0711673197
 30
0.0
 11
12.12225840003609
 21
0.0
 31
0.0
210
0.0
220
0.0
230
1.0
 40
0.6110989899
 41
4.712388980384699
 42
7.853981633974483
  0
SPLINE
  5
B4
330
1F
100
AcDbEntity
  8
0
  6
Continuous
 62
     8
370
    18
100
AcDbSpline
210
0.0
220
0.0
230
1.0
 70
     8
 71
     3
 72
    11
 73
     7
 74
     0
 42
0.000000001
 43
0.00000001
 40
0.5
 40
0.5
 40
0.5
 40
0.5
 40
0.5625000143594642
 40
0.6250000143594642
 40
0.6875000143594642
 40
0.7500000143594642
 40
0.7500000143594642
 40
0.7500000143594642
 40
0.7500000143594642
 10
172.4591763189671
 20
442.9604725753503
 30
0.0
 10
172.4591763189671
 20
444.2644651998807
 30
0.0
 10
173.1685376714852
 20
446.8724504489408
 30
0.0
 10
176.1983498239012
 20
450.1887380323213
 30
0.0
 10
180.7330915369819
 20
452.4048967937093
 30
0.0
 10
184.2987612448093
 20
452.9231616806293
 30
0.0
 10
186.0819106853655
 20
452.9231616806293
 30
0.0
  0
LINE
  5
B5
330
1F
100
AcDbEntity
  8
0
  6
Continuous
 62
     8
370
    18
100
AcDbLine
 10
186.0819106854
 20
452.9231644799
 30
0.0
 11
186.0819106854
 21
446.7740513016
 31
0.0
  0
SPLINE
  5
B6
330
1F
100
AcDbEntity
  8
0
  6
Continuous
 62
     8
370
    18
100
AcDbSpline
210
0.0
220
0.0
230
1.0
 70
     8
 71
     3
 72
    11
 73
     7
 74
     0
 42
0.000000001
 43
0.00000001
 40
0.2499999856405313
 40
0.2499999856405313
 40
0.2499999856405313
 40
0.2499999856405313
 40
0.3124999856405313
 40
0.3749999856405313
 40
0.4374999856405313
 40
0.5
 40
0.5
 40
0.5
 40
0.5
 10
186.0819106853653
 20
452.92316168063
 30
0.0
 10
187.8650601259216
 20
452.92316168063
 30
0.0
 10
191.4307298337491
 20
452.4048967937103
 30
0.0
 10
195.9654715468297
 20
450.1887380323216
 30
0.0
 10
198.9952836992459
 20
446.8724504489418
 30
0.0
 10
199.7046450517639
 20
444.2644651998812
 30
0.0
 10
199.7046450517639
 20
442.9604725753507
 30
0.0
  0
SPLINE
  5
B7
330
1F
100
AcDbEntity
  8
0
  6
Continuous
 62
     8
370
    18
100
AcDbSpline
210
0.0
220
0.0
230
1.0
 70
     8
 71
     3
 72
    17
 73
    13
 74
     0
 42
0.000000001
 43
0.00000001
 40
0.0
 40
0.0
 40
0.0
 40
0.0
 40
0.0430402979832716
 40
0.1493692140189345
 40
0.255697836922597
 40
0.3620269568711007
 40
0.4683557757937742
 40
0.5746844583966422
 40
0.6810133727131411
 40
0.787342222986473
 40
0.8936711641883561
 40
1.0
 40
1.0
 40
1.0
 40
1.0
 10
172.9417053914717
 20
455.0120688606805
 30
0.0
 10
172.8276485676622
 20
455.3572294094697
 30
0.0
 10
172.4318200319831
 20
456.5550919313095
 30
0.0
 10
172.2931089905148
 20
458.7362259800889
 30
0.0
 10
172.5337070727838
 20
461.4228336971325
 30
0.0
 10
173.3261008929809
 20
464.0150832217142
 30
0.0
 10
174.6003500703759
 20
466.4019902879168
 30
0.0
 10
176.3180692285299
 20
468.4940089329846
 30
0.0
 10
178.4104005732217
 20
470.2133714490542
 30
0.0
 10
180.7977111573387
 20
471.4813491680443
 30
0.0
 10
183.3880408765284
 20
472.297180213797
 30
0.0
 10
185.1839543790964
 20
472.3992960304393
 30
0.0
 10
186.0819106853655
 20
472.4503539134568
 30
0.0
  0
SPLINE
  5
B8
330
1F
100
AcDbEntity
  8
0
  6
Continuous
 62
     8
370
    18
100
AcDbSpline
210
0.0
220
0.0
230
1.0
 70
     8
 71
     3
 72
    22
 73
    18
 74
     0
 42
0.000000001
 43
0.00000001
 40
0.0
 40
0.0
 40
0.0
 40
0.0
 40
0.125
 40
0.125
 40
0.25
 40
0.25
 40
0.375
 40
0.375
 40
0.5
 40
0.5
 40
0.625
 40
0.625
 40
0.75
 40
0.75
 40
0.875
 40
0.875
 40
1.0
 40
1.0
 40
1.0
 40
1.0
 10
186.0819106853655
 20
472.4503586486973
 30
0.0
 10
187.0921189298745
 20
472.4503586486973
 30
0.0
 10
188.1022871817347
 20
472.3383330928735
 30
0.0
 10
190.0736118481522
 20
471.8956573100829
 30
0.0
 10
191.0346902208846
 20
471.565024607995
 30
0.0
 10
192.8611250732108
 20
470.7011852020268
 30
0.0
 10
193.726409246953
 20
470.1680126962697
 30
0.0
 10
195.3191973222064
 20
468.9249885869195
 30
0.0
 10
196.0466381675959
 20
468.2151861928105
 30
0.0
 10
197.3283767420754
 20
466.6533830631597
 30
0.0
 10
197.8826237290328
 20
465.8014441570916
 30
0.0
 10
198.7910257613679
 20
463.9967589943153
 30
0.0
 10
199.1451448444541
 20
463.0440841824209
 30
0.0
 10
199.6360658608063
 20
461.0842170071257
 30
0.0
 10
199.7728483592361
 20
460.0771022319649
 30
0.0
 10
199.822431686908
 20
458.057294250321
 30
0.0
 10
199.7352305532195
 20
457.0446810050456
 30
0.0
 10
199.5381486033327
 20
456.0538836482149
 30
0.0
  0
CIRCLE
  5
B9
330
1F
100
AcDbEntity
  8
0
  6
Continuous
 62
     8
370
    18
100
AcDbCircle
 10
186.0819106854
 20
513.568706717
 30
0.0
 40
2.828082609483829
  0
CIRCLE
  5
BA
330
1F
100
AcDbEntity
  8
0
  6
Continuous
 62
     8
370
    18
100
AcDbCircle
 10
186.0819106854
 20
513.568706717
 30
0.0
 40
4.328080324853801
  0
SPLINE
  5
BB
330
1F
100
AcDbEntity
  8
0
  6
Continuous
 62
     8
370
    18
100
AcDbSpline
210
0.0
220
0.0
230
1.0
 70
     8
 71
     3
 72
    18
 73
    14
 74
     0
 42
0.000000001
 43
0.00000001
 40
0.0
 40
0.0
 40
0.0
 40
0.0
 40
0.0940654697205106
 40
0.1594178271963409
 40
0.2440073299641975
 40
0.323661530099867
 40
0.4033509302218431
 40
0.4879477224599472
 40
0.6462469560186723
 40
0.7358494318702395
 40
0.8155015674524422
 40
0.944715500331282
 40
1.0
 40
1.0
 40
1.0
 40
1.0
 10
189.3370916999033
 20
516.6092596580094
 30
0.0
 10
189.0798861368337
 20
516.8499594128999
 30
0.0
 10
188.643985990593
 20
517.2578862753857
 30
0.0
 10
187.834415997283
 20
517.6902419700714
 30
0.0
 10
187.0104146011544
 20
517.9582125514977
 30
0.0
 10
186.0917147444481
 20
518.0528309024545
 30
0.0
 10
185.1728830938038
 20
517.961631273157
 30
0.0
 10
184.0120093285126
 20
517.5945263016914
 30
0.0
 10
182.9699437851521
 20
516.8584952499596
 30
0.0
 10
182.2283494432212
 20
515.8732576567454
 30
0.0
 10
181.7713398602657
 20
514.8551893676773
 30
0.0
 10
181.5429949414767
 20
513.8476162778846
 30
0.0
 10
181.6852258077508
 20
513.1662622111013
 30
0.0
 10
181.7278449355713
 20
512.9620961476868
 30
0.0
  0
SPLINE
  5
BC
330
1F
100
AcDbEntity
  8
0
  6
Continuous
 62
     8
370
    18
100
AcDbSpline
210
0.0
220
0.0
230
1.0
 70
     8
 71
     3
 72
    15
 73
    11
 74
     0
 42
0.000000001
 43
0.00000001
 40
0.0
 40
0.0
 40
0.0
 40
0.0
 40
0.0542046896687649
 40
0.2726514350518232
 40
0.3896609844177606
 40
0.4998101739977499
 40
0.6100140621695352
 40
0.72700517693303
 40
0.9455530057169523
 40
1.0
 40
1.0
 40
1.0
 40
1.0
 10
182.5656354825101
 20
510.8794055511063
 30
0.0
 10
182.650091775612
 20
510.7595158581594
 30
0.0
 10
183.0749098061941
 20
510.1564666196218
 30
0.0
 10
183.9989820412207
 20
509.558627391594
 30
0.0
 10
185.1494552587099
 20
509.1793962460317
 30
0.0
 10
186.0702283078954
 20
509.0848311591112
 30
0.0
 10
186.9914857963024
 20
509.1745806160425
 30
0.0
 10
188.1443434722684
 20
509.5480191639539
 30
0.0
 10
189.0724213547905
 20
510.1416749127268
 30
0.0
 10
189.5004418505156
 20
510.7435793926585
 30
0.0
 10
189.5858076798818
 20
510.8636252214021
 30
0.0
  0
SPLINE
  5
BD
330
1F
100
AcDbEntity
  8
0
  6
Continuous
 62
     8
370
    18
100
AcDbSpline
210
0.0
220
0.0
230
1.0
 70
     8
 71
     3
 72
    11
 73
     7
 74
     0
 42
0.000000001
 43
0.00000001
 40
0.0
 40
0.0
 40
0.0
 40
0.0
 40
0.1575980608915492
 40
0.5230477963120657
 40
0.7476713763703807
 40
1.0
 40
1.0
 40
1.0
 40
1.0
 10
190.4327526620677
 20
512.9398338128632
 30
0.0
 10
190.4766393435243
 20
513.1455742068418
 30
0.0
 10
190.6222936231102
 20
513.8284002459067
 30
0.0
 10
190.3947693595146
 20
514.8351995547342
 30
0.0
 10
189.9519560949317
 20
515.8619139100844
 30
0.0
 10
189.5498326368714
 20
516.3506806348325
 30
0.0
 10
189.3370916999033
 20
516.6092596580094
 30
0.0
  0
LINE
  5
BE
330
1F
100
AcDbEntity
  8
0
  6
Continuous
 62
     8
370
    18
100
AcDbLine
 10
186.0819106854
 20
472.629465871
 30
0.0
 11
186.0819106854
 21
472.4503539135
 31
0.0
  0
SPLINE
  5
BF
330
1F
100
AcDbEntity
  8
0
  6
Continuous
 62
     8
370
    18
100
AcDbSpline
210
0.0
220
0.0
230
1.0
 70
     8
 71
     3
 72
    30
 73
    26
 74
     0
 42
0.000000001
 43
0.00000001
 40
0.0
 40
0.0
 40
0.0
 40
0.0
 40
0.0146058645432535
 40
0.1149438521905341
 40
0.2153508262488994
 40
0.2509970391827425
 40
0.2878244346897187
 40
0.3258993794431618
 40
0.3451833756910698
 40
0.3658297251276373
 40
0.3878429317736415
 40
0.4112261445475955
 40
0.4359820419281302
 40
0.4370605143560076
 40
0.4451180566805275
 40
0.4671124049902729
 40
0.4889184657132817
 40
0.5164370088220047
 40
0.5496668504139659
 40
0.6165684046388369
 40
0.6768135239790037
 40
0.730441228423665
 40
0.7775066003149328
 40
0.8917114408379724
 40
1.0
 40
1.0
 40
1.0
 40
1.0
 10
199.6658883920959
 20
455.8539397646493
 30
0.0
 10
199.7008524907784
 20
455.9697893060898
 30
0.0
 10
199.976009649674
 20
456.8814910768573
 30
0.0
 10
200.0501683362993
 20
458.754551423905
 30
0.0
 10
199.8911870425461
 20
460.7560416410923
 30
0.0
 10
199.5759782010267
 20
462.1696258976772
 30
0.0
 10
199.320586069717
 20
463.0503472643613
 30
0.0
 10
199.0555282464714
 20
463.7771320903562
 30
0.0
 10
198.808286170315
 20
464.3619623596921
 30
0.0
 10
198.5967941291739
 20
464.8170778254256
 30
0.0
 10
198.3544605908911
 20
465.2915209836276
 30
0.0
 10
198.0785888050275
 20
465.7828171894244
 30
0.0
 10
197.871368938006
 20
466.1182650521158
 30
0.0
 10
197.7242176296875
 20
466.3450763130687
 30
0.0
 10
197.5876917012664
 20
466.5518881927227
 30
0.0
 10
197.3513418507403
 20
466.8906100682236
 30
0.0
 10
197.0091550846439
 20
467.3437020341
 30
0.0
 10
196.5910739004136
 20
467.8510865370365
 30
0.0
 10
195.9050397195747
 20
468.6004225323285
 30
0.0
 10
194.960755478458
 20
469.4691297269593
 30
0.0
 10
193.7863771154028
 20
470.3320807397379
 30
0.0
 10
192.6601516986495
 20
470.9995175544694
 30
0.0
 10
191.068130400686
 20
471.7577187819911
 30
0.0
 10
188.8984301548143
 20
472.466865529939
 30
0.0
 10
187.0039586599934
 20
472.5762351666635
 30
0.0
 10
186.0819106853655
 20
472.6294658710069
 30
0.0
  0
ARC
  5
C0
330
1F
100
AcDbEntity
  8
0
  6
Continuous
 62
     8
370
    18
100
AcDbCircle
 10
186.0670165621
 20
458.7340514633
 30
0.0
 40
13.89542239004277
100
AcDbArc
 50
89.938586209
 51
195.5415534104
  0
LINE
  5
C1
330
1F
100
AcDbEntity
  8
0
  6
Continuous
 62
     8
370
    18
100
AcDbLine
 10
186.0819106854
 20
472.629465871
 30
0.0
 11
186.0819106854
 21
477.5878570606
 31
0.0
  0
SPLINE
  5
C2
330
1F
100
AcDbEntity
  8
0
  6
Continuous
 62
     8
370
    18
100
AcDbSpline
210
0.0
220
0.0
230
1.0
 70
     8
 71
     3
 72
    24
 73
    20
 74
     0
 42
0.000000001
 43
0.00000001
 40
0.0
 40
0.0
 40
0.0
 40
0.0
 40
0.0773271276645767
 40
0.1564070104069693
 40
0.238146558614673
 40
0.2798364152905065
 40
0.3224520178294378
 40
0.3684196927893143
 40
0.4136455213760923
 40
0.4584975335767036
 40
0.5033530880152054
 40
0.606116442049184
 40
0.7069048205032212
 40
0.8076098960823825
 40
0.841408886620415
 40
0.875641055476722
 40
0.9105086013067509
 40
0.9705935376208826
 40
1.0
 40
1.0
 40
1.0
 40
1.0
 10
186.0819106853655
 20
477.5878570605821
 30
0.0
 10
187.1411978417522
 20
477.5259843210637
 30
0.0
 10
189.2837827572505
 20
477.4008363877831
 30
0.0
 10
192.3554999417144
 20
476.3875579244832
 30
0.0
 10
194.6931455843585
 20
475.1016057384701
 30
0.0
 10
196.3910663952148
 20
473.7897075440688
 30
0.0
 10
197.6057880015143
 20
472.6421392687224
 30
0.0
 10
198.7281101508408
 20
471.3520538279116
 30
0.0
 10
199.7303237113465
 20
469.9280380528653
 30
0.0
 10
200.5838625200079
 20
468.4122674295156
 30
0.0
 10
201.6029895020546
 20
466.1229888574753
 30
0.0
 10
202.5081485076603
 20
462.9188408906372
 30
0.0
 10
202.8633994704687
 20
458.7522861184856
 30
0.0
 10
202.59344472965
 20
455.5250195977252
 30
0.0
 10
202.1260033289642
 20
453.3066134222997
 30
0.0
 10
201.7593958975905
 20
451.9863370466165
 30
0.0
 10
201.1883201223117
 20
450.3860933151148
 30
0.0
 10
200.5408972427722
 20
448.8936595328213
 30
0.0
 10
199.9114892411696
 20
447.9345635951814
 30
0.0
 10
199.7046686641029
 20
447.6194090773171
 30
0.0
  0
SPLINE
  5
C3
330
1F
100
AcDbEntity
  8
0
  6
Continuous
 62
     8
370
    18
100
AcDbSpline
210
0.0
220
0.0
230
1.0
 70
     8
 71
     3
 72
    23
 73
    19
 74
     0
 42
0.000000001
 43
0.00000001
 40
0.0
 40
0.0
 40
0.0
 40
0.0
 40
0.0009915501506004
 40
0.0458851194901188
 40
0.0907801148263689
 40
0.1932135212877739
 40
0.2936952171068168
 40
0.3943854542555337
 40
0.4281824184649864
 40
0.4624147475880934
 40
0.4972849792297386
 40
0.5570582415708945
 40
0.6170579884318368
 40
0.6781718750520546
 40
0.7620738944197797
 40
0.8435408602394969
 40
0.9226453673788927
 40
1.0
 40
1.0
 40
1.0
 40
1.0
 10
172.4618265337399
 20
447.5459538032121
 30
0.0
 10
172.4545204605658
 20
447.5563422752235
 30
0.0
 10
172.1164235520082
 20
448.0370807222666
 30
0.0
 10
171.5757988415516
 20
449.0844191687209
 30
0.0
 10
170.5435003621436
 20
451.3636646007573
 30
0.0
 10
169.653137291026
 20
454.5738552997432
 30
0.0
 10
169.2997224596705
 20
458.7360387946049
 30
0.0
 10
169.574229550915
 20
461.9634091018347
 30
0.0
 10
170.0447097107531
 20
464.1840546761713
 30
0.0
 10
170.4149281304855
 20
465.5045582575862
 30
0.0
 10
170.9823844605603
 20
467.1060753653826
 30
0.0
 10
171.8277719543941
 20
468.9362071479025
 30
0.0
 10
173.0686448462389
 20
470.9055337606184
 30
0.0
 10
174.7574442307755
 20
472.9139201059247
 30
0.0
 10
176.9772040998125
 20
474.8289779504076
 30
0.0
 10
179.8013094508315
 20
476.3844434738554
 30
0.0
 10
182.8742761751311
 20
477.400233208839
 30
0.0
 10
185.0207012168445
 20
477.5257838389121
 30
0.0
 10
186.0819106853655
 20
477.5878570605821
 30
0.0
  0
SPLINE
  5
C4
330
1F
100
AcDbEntity
  8
0
  6
Continuous
 62
     8
370
    18
100
AcDbSpline
210
0.0
220
0.0
230
1.0
 70
     8
 71
     3
 72
    16
 73
    12
 74
     0
 42
0.000000001
 43
0.00000001
 40
0.0
 40
0.0
 40
0.0
 40
0.0
 40
0.25
 40
0.25
 40
0.5
 40
0.5
 40
0.75
 40
0.75
 40
0.875
 40
0.875
 40
1.0
 40
1.0
 40
1.0
 40
1.0
 10
188.3699852819216
 20
520.0690692994957
 30
0.0
 10
187.9930871568373
 20
520.1195696697085
 30
0.0
 10
187.6115531564291
 20
520.160545045076
 30
0.0
 10
186.8505277369104
 20
520.2161666472691
 30
0.0
 10
186.4690474747185
 20
520.2310886440423
 30
0.0
 10
185.7037556029035
 20
520.2313108715776
 30
0.0
 10
185.318981042431
 20
520.2165721927445
 30
0.0
 10
184.7450547208495
 20
520.1747539336199
 30
0.0
 10
184.55421295785
 20
520.157570936251
 30
0.0
 10
184.1733199229608
 20
520.1174221259728
 30
0.0
 10
183.9819696411419
 20
520.0942830084354
 30
0.0
 10
183.7935245529821
 20
520.0690146229119
 30
0.0
  0
SPLINE
  5
C5
330
1F
100
AcDbEntity
  8
0
  6
Continuous
 62
     8
370
    18
100
AcDbSpline
210
0.0
220
0.0
230
1.0
 70
     8
 71
     3
 72
    47
 73
    43
 74
     0
 42
0.000000001
 43
0.00000001
 40
0.0
 40
0.0
 40
0.0
 40
0.0
 40
0.0039700704854766
 40
0.0079597252982965
 40
0.042657165129516
 40
0.0776946988046184
 40
0.1128141254573249
 40
0.1480912809529847
 40
0.1838279286960406
 40
0.219613334437955
 40
0.2550269256577483
 40
0.2909602608925864
 40
0.3264844935631338
 40
0.3613266161778596
 40
0.3962443256588273
 40
0.4308301387524208
 40
0.4656625633434524
 40
0.5002981821745137
 40
0.5349216884633483
 40
0.5697709274705893
 40
0.6043501737550564
 40
0.6392851268206055
 40
0.6740964105088232
 40
0.709621264604263
 40
0.74555178836439
 40
0.7809924410352294
 40
0.794970760543147
 40
0.8088258535133626
 40
0.8226344250745888
 40
0.8364739535194818
 40
0.8504214006773786
 40
0.8642725198623478
 40
0.8779499691093521
 40
0.89154833132747
 40
0.9051435675534532
 40
0.9188116901150192
 40
0.9325460856727179
 40
0.9461104911605646
 40
0.9595536248019307
 40
0.972955201734486
 40
0.9863956761831514
 40
1.0
 40
1.0
 40
1.0
 40
1.0
 10
188.3710524213329
 20
520.0690664575942
 30
0.0
 10
188.4174490136808
 20
520.0505851252422
 30
0.0
 10
188.5104710724117
 20
520.0135312922669
 30
0.0
 10
189.0027817153753
 20
519.8008591851088
 30
0.0
 10
189.813269337579
 20
519.3398554276364
 30
0.0
 10
190.8012538790562
 20
518.4635898525579
 30
0.0
 10
191.6098102523433
 20
517.4102249017187
 30
0.0
 10
192.2026251166099
 20
516.2082611786669
 30
0.0
 10
192.5710994185961
 20
514.9061753093281
 30
0.0
 10
192.6894250503757
 20
513.5528009079351
 30
0.0
 10
192.5615131803742
 20
512.1977500243348
 30
0.0
 10
192.1812354512178
 20
510.8986161324
 30
0.0
 10
191.5861222031763
 20
509.6957957672842
 30
0.0
 10
190.7758263059797
 20
508.6458079920989
 30
0.0
 10
189.7867460266188
 20
507.7797825881722
 30
0.0
 10
188.6390500730169
 20
507.1320257075511
 30
0.0
 10
187.3833356515521
 20
506.7243387940725
 30
0.0
 10
186.0653691191067
 20
506.5930873044779
 30
0.0
 10
184.7479624663082
 20
506.7312549298978
 30
0.0
 10
183.4945182261181
 20
507.1454137587889
 30
0.0
 10
182.3499739258876
 20
507.7991399315744
 30
0.0
 10
181.3654455649889
 20
508.669899171948
 30
0.0
 10
180.5603764270248
 20
509.7237068807726
 30
0.0
 10
179.9709530637962
 20
510.9290672681486
 30
0.0
 10
179.5964488169749
 20
512.229994160422
 30
0.0
 10
179.4990192874536
 20
513.3108616775883
 30
0.0
 10
179.5284256199774
 20
514.109918547886
 30
0.0
 10
179.5847934668507
 20
514.6331215858306
 30
0.0
 10
179.678594805432
 20
515.1486822283359
 30
0.0
 10
179.8097997586628
 20
515.6566332309958
 30
0.0
 10
179.9775198712506
 20
516.1535446516261
 30
0.0
 10
180.1788252687318
 20
516.6348529528863
 30
0.0
 10
180.4122857713893
 20
517.0957626933658
 30
0.0
 10
180.677506280777
 20
517.5346972580342
 30
0.0
 10
180.9747589251413
 20
517.9518690764401
 30
0.0
 10
181.3036503425464
 20
518.3463790278807
 30
0.0
 10
181.6605083720231
 20
518.7151582844417
 30
0.0
 10
182.042357162589
 20
519.053977124041
 30
0.0
 10
182.4464266027949
 20
519.3597351302121
 30
0.0
 10
182.8727872224483
 20
519.6313205880011
 30
0.0
 10
183.3205820505261
 20
519.8722220466462
 30
0.0
 10
183.6346476111426
 20
520.0031486682285
 30
0.0
 10
183.7926317655962
 20
520.0690085847554
 30
0.0
  0
CIRCLE
  5
C6
330
1F
100
AcDbEntity
  8
0
  6
Continuous
 62
     8
370
    18
100
AcDbCircle
 10
186.0819106854
 20
501.568706717
 30
0.0
 40
3.78141863308187
  0
SPLINE
  5
C7
330
1F
100
AcDbEntity
  8
0
  6
Continuous
 62
     8
370
    18
100
AcDbSpline
210
0.0
220
0.0
230
1.0
 70
     8
 71
     3
 72
    14
 73
    10
 74
     0
 42
0.000000001
 43
0.00000001
 40
0.0
 40
0.0
 40
0.0
 40
0.0
 40
0.25
 40
0.25
 40
0.5
 40
0.5
 40
0.75
 40
0.75
 40
1.0
 40
1.0
 40
1.0
 40
1.0
 10
188.3705771624646
 20
520.0690672525792
 30
0.0
 10
188.3705726862122
 20
520.2653827810094
 30
0.0
 10
188.3668659131649
 20
520.4616117404762
 30
0.0
 10
188.3526062929337
 20
520.8243296476181
 30
0.0
 10
188.3420590524299
 20
520.9906759797663
 30
0.0
 10
188.3157189201613
 20
521.2682791037043
 30
0.0
 10
188.2999363849623
 20
521.3794267458907
 30
0.0
 10
188.2655244159899
 20
521.529666977005
 30
0.0
 10
188.2469085125139
 20
521.568700493609
 30
0.0
 10
188.2282851692525
 20
521.5687067162036
 30
0.0
  0
SPLINE
  5
C8
330
1F
100
AcDbEntity
  8
0
  6
Continuous
 62
     8
370
    18
100
AcDbSpline
210
0.0
220
0.0
230
1.0
 70
     8
 71
     3
 72
    14
 73
    10
 74
     0
 42
0.000000001
 43
0.00000001
 40
0.0
 40
0.0
 40
0.0
 40
0.0
 40
0.25
 40
0.25
 40
0.5
 40
0.5
 40
0.75
 40
0.75
 40
1.0
 40
1.0
 40
1.0
 40
1.0
 10
183.9346689118931
 20
521.5687067165122
 30
0.0
 10
183.9160230790607
 20
521.5687019353438
 30
0.0
 10
183.8973846686274
 20
521.5296675720608
 30
0.0
 10
183.8629312011455
 20
521.3794215318051
 30
0.0
 10
183.8471296922738
 20
521.2682689362564
 30
0.0
 10
183.8207581574322
 20
520.9906535021798
 30
0.0
 10
183.8101985015713
 20
520.8242998306902
 30
0.0
 10
183.795922583218
 20
520.4615674007067
 30
0.0
 10
183.7922119344615
 20
520.2653312799061
 30
0.0
 10
183.7922081636593
 20
520.069010066419
 30
0.0
  0
LINE
  5
C9
330
1F
100
AcDbEntity
  8
0
  6
Continuous
 62
     8
370
    18
100
AcDbLine
 10
183.7926883648
 20
520.0687132408
 30
0.0
 11
162.0819104767
 21
520.0687132408
 31
0.0
  0
LINE
  5
CA
330
1F
100
AcDbEntity
  8
0
  6
Continuous
 62
     8
370
    18
100
AcDbLine
 10
210.081910894
 20
520.0687132408
 30
0.0
 11
188.3709837615
 21
520.0687132408
 31
0.0
  0
SPLINE
  5
CB
330
1F
100
AcDbEntity
  8
0
  6
Continuous
 62
     8
370
    18
100
AcDbSpline
210
0.0
220
0.0
230
1.0
 70
     8
 71
     3
 72
    10
 73
     6
 74
     0
 42
0.000000001
 43
0.00000001
 40
0.0
 40
0.0
 40
0.0
 40
0.0
 40
0.4409498689753464
 40
0.8878248034493826
 40
1.0
 40
1.0
 40
1.0
 40
1.0
 10
209.4224581427029
 20
495.0687072803086
 30
0.0
 10
209.5869733234123
 20
495.0736959537411
 30
0.0
 10
209.9182142835631
 20
495.083740333661
 30
0.0
 10
210.1085815304457
 20
495.1589880960046
 30
0.0
 10
210.0607753083048
 20
495.344088371771
 30
0.0
 10
210.0511828369549
 20
495.3812293340272
 30
0.0
  0
LINE
  5
CC
330
1F
100
AcDbEntity
  8
0
  6
Continuous
 62
     8
370
    18
100
AcDbLine
 10
162.741363228
 20
495.0687072803
 30
0.0
 11
209.4224581427
 21
495.0687072803
 31
0.0
  0
SPLINE
  5
CD
330
1F
100
AcDbEntity
  8
0
  6
Continuous
 62
     8
370
    18
100
AcDbSpline
210
0.0
220
0.0
230
1.0
 70
     8
 71
     3
 72
     9
 73
     5
 74
     0
 42
0.000000001
 43
0.00000001
 40
0.0
 40
0.0
 40
0.0
 40
0.0
 40
0.4645782809984337
 40
1.0
 40
1.0
 40
1.0
 40
1.0
 10
162.1037444031886
 20
495.3732870151109
 30
0.0
 10
162.1184000937511
 20
495.2722563189793
 30
0.0
 10
162.1499463178472
 20
495.0547887784941
 30
0.0
 10
162.5351283840261
 20
495.0638537159261
 30
0.0
 10
162.7413632280281
 20
495.0687072803086
 30
0.0
  0
LINE
  5
CE
330
1F
100
AcDbEntity
  8
0
  6
Continuous
 62
     8
370
    18
100
AcDbLine
 10
210.081910894
 20
491.0687140752
 30
0.0
 11
162.0819104767
 21
491.0687140752
 31
0.0
  0
ARC
  5
CF
330
1F
100
AcDbEntity
  8
0
  6
Continuous
 62
     8
370
    18
100
AcDbCircle
 10
163.2345773091
 20
495.0619254306
 30
0.0
 40
0.4932607051670738
100
AcDbArc
 50
179.2122145433
 51
269.1924556026
  0
ARC
  5
D0
330
1F
100
AcDbEntity
  8
0
  6
Continuous
 62
     8
370
    18
100
AcDbCircle
 10
208.9292440616
 20
495.0619254306
 30
0.0
 40
0.4932607051670727
100
AcDbArc
 50
270.8075443974
 51
0.7877854567
  0
SPLINE
  5
D1
330
1F
100
AcDbEntity
  8
0
  6
Continuous
 62
     7
370
    25
100
AcDbSpline
210
0.0
220
0.0
230
1.0
 70
     8
 71
     3
 72
    15
 73
    11
 74
     0
 42
0.000000001
 43
0.00000001
 40
0.0
 40
0.0
 40
0.0
 40
0.0
 40
0.0854968294457007
 40
0.1737352403381267
 40
0.2676066174669237
 40
0.3717339388071332
 40
0.4920532733018035
 40
0.6344161307260981
 40
0.803023132874615
 40
0.9999999999999999
 40
0.9999999999999999
 40
0.9999999999999999
 40
0.9999999999999999
 10
190.5367497286848
 20
236.0609049496597
 30
0.0
 10
190.5473992316622
 20
236.2448634063301
 30
0.0
 10
190.5690397295761
 20
236.6186792178529
 30
0.0
 10
190.731202324255
 20
237.1509005628297
 30
0.0
 10
190.9566319784134
 20
237.6260319675949
 30
0.0
 10
191.2000612059232
 20
238.0133368792791
 30
0.0
 10
191.3851405580549
 20
238.2919169257362
 30
0.0
 10
191.4289991685045
 20
238.450516381642
 30
0.0
 10
191.2652560092589
 20
238.4903567131601
 30
0.0
 10
190.9274156064346
 20
238.4275439341598
 30
0.0
 10
190.7453869401565
 20
238.393700361008
 30
0.0
  0
SPLINE
  5
D2
330
1F
100
AcDbEntity
  8
0
  6
Continuous
 62
     7
370
    25
100
AcDbSpline
210
0.0
220
0.0
230
1.0
 70
     8
 71
     3
 72
    15
 73
    11
 74
     0
 42
0.000000001
 43
0.00000001
 40
0.0
 40
0.0
 40
0.0
 40
0.0
 40
0.1485099352220998
 40
0.2851187728174735
 40
0.4109977045083003
 40
0.5288714050119129
 40
0.643120372249796
 40
0.7584585513397691
 40
0.8776320171637481
 40
1.0
 40
1.0
 40
1.0
 40
1.0
 10
181.3955918817869
 20
238.3982359019464
 30
0.0
 10
181.2233761745514
 20
238.4333166431518
 30
0.0
 10
180.8927455602867
 20
238.5006668703743
 30
0.0
 10
180.6525548345715
 20
238.5346961580974
 30
0.0
 10
180.6124462626497
 20
238.4782625286591
 30
0.0
 10
180.7537757812788
 20
238.2971861780102
 30
0.0
 10
181.0189612372432
 20
237.9616992176187
 30
0.0
 10
181.3187240389661
 20
237.4592005474024
 30
0.0
 10
181.5707123224178
 20
236.8103947420088
 30
0.0
 10
181.6081205976831
 20
236.3129279699726
 30
0.0
 10
181.6270721077076
 20
236.0609049496597
 30
0.0
  0
LINE
  5
D3
330
1F
100
AcDbEntity
  8
0
  6
Continuous
 62
     7
370
    25
100
AcDbLine
 10
181.627071642
 20
236.0609068123
 30
0.0
 11
181.7538302324
 21
163.4336362181
 31
0.0
  0
LINE
  5
D4
330
1F
100
AcDbEntity
  8
0
  6
Continuous
 62
     7
370
    25
100
AcDbLine
 10
190.4099911383
 20
163.4336362181
 30
0.0
 11
190.5369248173
 21
236.1612232921
 31
0.0
  0
ARC
  5
D5
330
1F
100
AcDbEntity
  8
0
  6
Continuous
 62
     7
370
    25
100
AcDbCircle
 10
188.9099932948
 20
163.4362572727
 30
0.0
 40
1.500000000000012
100
AcDbArc
 50
270.0
 51
359.9
  0
ARC
  5
D6
330
1F
100
AcDbEntity
  8
0
  6
Continuous
 62
     7
370
    25
100
AcDbCircle
 10
183.2538280759
 20
163.4362572727
 30
0.0
 40
1.500000000000012
100
AcDbArc
 50
180.1
 51
270.0
  0
SPLINE
  5
D7
330
1F
100
AcDbEntity
  8
0
  6
Continuous
 62
     7
370
    25
100
AcDbSpline
210
0.0
220
0.0
230
1.0
 70
     8
 71
     3
 72
    11
 73
     7
 74
     0
 42
0.000000001
 43
0.00000001
 40
0.0
 40
0.0
 40
0.0
 40
0.0
 40
0.2474845598040389
 40
0.4999997025274144
 40
0.7525150114005416
 40
1.0
 40
1.0
 40
1.0
 40
1.0
 10
199.9991500682286
 20
238.2272283134406
 30
0.0
 10
200.0350223434698
 20
238.8204702696975
 30
0.0
 10
200.1074960645126
 20
240.0190129258133
 30
0.0
 10
200.6715761388974
 20
241.7456653729994
 30
0.0
 10
201.5280197397128
 20
243.3475437297142
 30
0.0
 10
202.3432672703476
 20
244.2290856377067
 30
0.0
 10
202.7467900819233
 20
244.6654221562093
 30
0.0
  0
SPLINE
  5
D8
330
1F
100
AcDbEntity
  8
0
  6
Continuous
 62
     7
370
    25
100
AcDbSpline
210
0.0
220
0.0
230
1.0
 70
     8
 71
     3
 72
    11
 73
     7
 74
     0
 42
0.000000001
 43
0.00000001
 40
0.0
 40
0.0
 40
0.0
 40
0.0
 40
0.2474847865464594
 40
0.4999999976330706
 40
0.7525153033861732
 40
1.0
 40
1.0
 40
1.0
 40
1.0
 10
169.417021975582
 20
244.6654296067899
 30
0.0
 10
169.8205464838279
 20
244.2290916495641
 30
0.0
 10
170.6357976189921
 20
243.3475466438101
 30
0.0
 10
171.4922441795901
 20
241.7456664660525
 30
0.0
 10
172.0563241957899
 20
240.0190126080416
 30
0.0
 10
172.1287986607343
 20
238.820470145884
 30
0.0
 10
172.1646713025025
 20
238.2272283134406
 30
0.0
  0
LINE
  5
D9
330
1F
100
AcDbEntity
  8
0
  6
Continuous
 62
     7
370
    25
100
AcDbLine
 10
172.1643211252
 20
238.3274479357
 30
0.0
 11
172.3621861941
 21
181.6436822114
 31
0.0
  0
LINE
  5
DA
330
1F
100
AcDbEntity
  8
0
  6
Continuous
 62
     7
370
    25
100
AcDbLine
 10
199.8016351766
 20
181.6436822114
 30
0.0
 11
199.9994993142
 21
238.3272281436
 31
0.0
  0
SPLINE
  5
DB
330
1F
100
AcDbEntity
  8
0
  6
Continuous
 62
     7
370
    25
100
AcDbSpline
210
0.0
220
0.0
230
1.0
 70
     8
 71
     3
 72
    17
 73
    13
 74
     0
 42
0.000000001
 43
0.00000001
 40
0.0
 40
0.0
 40
0.0
 40
0.0
 40
0.1200835384527358
 40
0.2275987944823678
 40
0.3241049548226279
 40
0.4112418858828347
 40
0.4907577412131139
 40
0.5645283898476082
 40
0.6687668493817213
 40
0.7716284315265314
 40
0.8799780819938642
 40
0.9999999999999999
 40
0.9999999999999999
 40
0.9999999999999999
 40
0.9999999999999999
 10
172.3615696585825
 20
181.6828052101081
 30
0.0
 10
172.3692576407508
 20
179.4454757698615
 30
0.0
 10
172.3838289591518
 20
175.204982110021
 30
0.0
 10
172.4028221199687
 20
169.168795836592
 30
0.0
 10
172.4184094248395
 20
163.754646630853
 30
0.0
 10
172.4308459370872
 20
158.8807721659297
 30
0.0
 10
172.4404949931427
 20
154.465503101978
 30
0.0
 10
172.4488010507658
 20
149.8114131019428
 30
0.0
 10
172.4549694736606
 20
144.8928492463916
 30
0.0
 10
172.4582925564094
 20
139.7291993061011
 30
0.0
 10
172.4592303514131
 20
134.7228913148655
 30
0.0
 10
172.4591947173617
 20
131.565791123982
 30
0.0
 10
172.4591759896925
 20
129.9065599737113
 30
0.0
  0
SPLINE
  5
DC
330
1F
100
AcDbEntity
  8
0
  6
Continuous
 62
     7
370
    25
100
AcDbSpline
210
0.0
220
0.0
230
1.0
 70
     8
 71
     3
 72
    17
 73
    13
 74
     0
 42
0.000000001
 43
0.00000001
 40
0.0
 40
0.0
 40
0.0
 40
0.0
 40
0.120021917252648
 40
0.2283715670397707
 40
0.3312331485388244
 40
0.4354716074185369
 40
0.5092422555899052
 40
0.5887581104209904
 40
0.6758950563973056
 40
0.7724012069464786
 40
0.8799164623011387
 40
1.0
 40
1.0
 40
1.0
 40
1.0
 10
199.7046453810385
 20
129.9065599737113
 30
0.0
 10
199.7046266533686
 20
131.5657911237438
 30
0.0
 10
199.7045910193161
 20
134.7228913141738
 30
0.0
 10
199.705528814328
 20
139.7291993085058
 30
0.0
 10
199.7088518970474
 20
144.8928492378065
 30
0.0
 10
199.715020320042
 20
149.8114131305072
 30
0.0
 10
199.7233263773871
 20
154.46550302709
 30
0.0
 10
199.7329754351241
 20
158.8807727699408
 30
0.0
 10
199.745411943274
 20
163.754645654198
 30
0.0
 10
199.760999252161
 20
169.168796329707
 30
0.0
 10
199.7799924113238
 20
175.204982014408
 30
0.0
 10
199.794563729892
 20
179.4454757368384
 30
0.0
 10
199.8022517121485
 20
181.6828052101081
 30
0.0
  0
LINE
  5
DD
330
1F
100
AcDbEntity
  8
0
  6
Continuous
 62
     7
370
    25
100
AcDbLine
 10
172.4596518955
 20
129.9065599737
 30
0.0
 11
172.4596518955
 21
124.8757044373
 31
0.0
  0
LINE
  5
DE
330
1F
100
AcDbEntity
  8
0
  6
Continuous
 62
     7
370
    25
100
AcDbLine
 10
199.7041694752
 20
124.8757044373
 30
0.0
 11
199.7041694752
 21
129.9065599737
 31
0.0
  0
SPLINE
  5
DF
330
1F
100
AcDbEntity
  8
0
  6
Continuous
 62
     7
370
    25
100
AcDbSpline
210
0.0
220
0.0
230
1.0
 70
     8
 71
     3
 72
    20
 73
    16
 74
     0
 42
0.000000001
 43
0.00000001
 40
0.0
 40
0.0
 40
0.0
 40
0.0
 40
0.0450205140269733
 40
0.1281595619403715
 40
0.2114565104824028
 40
0.2949164941627098
 40
0.3785659319414782
 40
0.4623939508763317
 40
0.5463416693036515
 40
0.6302731128189382
 40
0.714021680377713
 40
0.7974416461345228
 40
0.8804431489582024
 40
0.9630334177102866
 40
1.0
 40
1.0
 40
1.0
 40
1.0
 10
186.0819106853655
 20
113.5450849828666
 30
0.0
 10
186.4098483090692
 20
113.5509914892226
 30
0.0
 10
187.3433858997875
 20
113.5678054968708
 30
0.0
 10
188.8734623752443
 20
113.7519219786002
 30
0.0
 10
190.6310871837519
 20
114.1566925848091
 30
0.0
 10
192.3108433701153
 20
114.756304382946
 30
0.0
 10
193.882386506918
 20
115.5381181899284
 30
0.0
 10
195.3170571878877
 20
116.4908557751059
 30
0.0
 10
196.5874192480591
 20
117.5984293084208
 30
0.0
 10
197.6687151829632
 20
118.8412313578359
 30
0.0
 10
198.5380637903104
 20
120.1956075602083
 30
0.0
 10
199.1833788111992
 20
121.6351537815203
 30
0.0
 10
199.5753801413602
 20
123.130602040677
 30
0.0
 10
199.738444874276
 20
124.3767532908887
 30
0.0
 10
199.6806013373941
 20
125.1110236913471
 30
0.0
 10
199.6627163074068
 20
125.3380576667731
 30
0.0
  0
SPLINE
  5
E0
330
1F
100
AcDbEntity
  8
0
  6
Continuous
 62
     7
370
    25
100
AcDbSpline
210
0.0
220
0.0
230
1.0
 70
     8
 71
     3
 72
    19
 73
    15
 74
     0
 42
0.000000001
 43
0.00000001
 40
0.0
 40
0.0
 40
0.0
 40
0.0
 40
0.0477198142280687
 40
0.1342113670080033
 40
0.2207180952327866
 40
0.3074146302485478
 40
0.3943956650663424
 40
0.4816609633279336
 40
0.5691408127339802
 40
0.6567355684979875
 40
0.7443265431294444
 40
0.8318719581097941
 40
0.9193732216687494
 40
1.0
 40
1.0
 40
1.0
 40
1.0
 10
172.5011050633243
 20
124.4133363065665
 30
0.0
 10
172.5101821263283
 20
124.134394946511
 30
0.0
 10
172.5357112498988
 20
123.3498759400203
 30
0.0
 10
172.8442502876865
 20
122.0806863600813
 30
0.0
 10
173.3978302385427
 20
120.6392415971871
 30
0.0
 10
174.1870696366065
 20
119.2753477648962
 30
0.0
 10
175.1839506002503
 20
118.0110258769141
 30
0.0
 10
176.3757878272287
 20
116.8682415172416
 30
0.0
 10
177.7409064237037
 20
115.8671876485596
 30
0.0
 10
179.2550911296672
 20
115.0264174580216
 30
0.0
 10
180.8907272003793
 20
114.3597663457037
 30
0.0
 10
182.6181663353063
 20
113.8835896962978
 30
0.0
 10
184.3601182212409
 20
113.5960446871885
 30
0.0
 10
185.5238407785642
 20
113.5616021172101
 30
0.0
 10
186.0819106853657
 20
113.5450849828666
 30
0.0
  0
LINE
  5
E1
330
1F
100
AcDbEntity
  8
0
  6
Continuous
 62
     7
370
    25
100
AcDbLine
 10
184.0819105904
 20
303.1349802909
 30
0.0
 11
184.0819105904
 21
290.1349800227
 31
0.0
  0
LINE
  5
E2
330
1F
100
AcDbEntity
  8
0
  6
Continuous
 62
     7
370
    25
100
AcDbLine
 10
188.0819107804
 20
290.1349800227
 30
0.0
 11
188.0819107804
 21
303.1349802909
 31
0.0
  0
LINE
  5
E3
330
1F
100
AcDbEntity
  8
0
  6
Continuous
 62
     7
370
    25
100
AcDbLine
 10
188.0819107804
 20
286.3762105403
 30
0.0
 11
188.0819107804
 21
290.1349800227
 31
0.0
  0
LINE
  5
E4
330
1F
100
AcDbEntity
  8
0
  6
Continuous
 62
     7
370
    25
100
AcDbLine
 10
184.0819105904
 20
290.1349800227
 30
0.0
 11
184.0819105904
 21
286.3762105403
 31
0.0
  0
LINE
  5
E5
330
1F
100
AcDbEntity
  8
0
  6
Continuous
 62
     7
370
    25
100
AcDbLine
 10
184.0819105904
 20
286.3762105403
 30
0.0
 11
184.0819105904
 21
285.8527793137
 31
0.0
  0
LINE
  5
E6
330
1F
100
AcDbEntity
  8
0
  6
Continuous
 62
     7
370
    25
100
AcDbLine
 10
188.0819107804
 20
285.8560650197
 30
0.0
 11
188.0819107804
 21
286.3762105403
 31
0.0
  0
ARC
  5
E7
330
1F
100
AcDbEntity
  8
0
  6
Continuous
 62
     7
370
    25
100
AcDbCircle
 10
186.0819106854
 20
261.9362572727
 30
0.0
 40
23.99999999999999
100
AcDbArc
 50
275.4730792506
 51
264.5265628847
  0
SPLINE
  5
E8
330
1F
100
AcDbEntity
  8
0
  6
Continuous
 62
     7
370
    25
100
AcDbSpline
210
0.0
220
0.0
230
1.0
 70
     8
 71
     3
 72
    16
 73
    12
 74
     0
 42
0.000000001
 43
0.00000001
 40
0.0
 40
0.0
 40
0.0
 40
0.0
 40
0.25
 40
0.25
 40
0.5
 40
0.5
 40
0.75
 40
0.75
 40
0.875
 40
0.875
 40
1.0
 40
1.0
 40
1.0
 40
1.0
 10
188.3699852819216
 20
238.0456710629041
 30
0.0
 10
187.9930871568373
 20
238.0097768364177
 30
0.0
 10
187.6115531564291
 20
237.9780978543787
 30
0.0
 10
186.8505277369104
 20
237.9342163002958
 30
0.0
 10
186.4690474747185
 20
237.9217616592143
 30
0.0
 10
185.7037556029035
 20
237.9215998729582
 30
0.0
 10
185.318981042431
 20
237.9339143422685
 30
0.0
 10
184.7450547208495
 20
237.9668886050798
 30
0.0
 10
184.55421295785
 20
237.9802503654564
 30
0.0
 10
184.1733199229608
 20
238.0106003679544
 30
0.0
 10
183.9819696411419
 20
238.0277153029691
 30
0.0
 10
183.7935245529821
 20
238.0456785247343
 30
0.0
  0
LINE
  5
E9
330
1F
100
AcDbEntity
  8
0
  6
Continuous
 62
     7
370
    25
100
AcDbLine
 10
188.9099932208
 20
161.9362557826
 30
0.0
 11
183.2538281499
 21
161.9362557826
 31
0.0
  0
ELLIPSE
  5
EA
330
1F
100
AcDbEntity
  8
0
  6
Continuous
 62
     7
370
    25
100
AcDbEllipse
 10
186.0819106854
 20
124.8757037146
 30
0.0
 11
13.62225840003609
 21
0.0
 31
0.0
210
0.0
220
0.0
230
1.0
 40
0.7967557489
 41
3.141592653589818
 42
4.712388980384718
  0
LINE
  5
EB
330
1F
100
AcDbEntity
  8
0
  6
Continuous
 62
     7
370
    25
100
AcDbLine
 10
184.0819105904
 20
303.1349802909
 30
0.0
 11
188.0819107804
 21
303.1349802909
 31
0.0
  0
ARC
  5
EC
330
1F
100
AcDbEntity
  8
0
  6
Continuous
 62
     8
370
    18
100
AcDbCircle
 10
186.0819106854
 20
261.9362572727
 30
0.0
 40
22.49999999999998
100
AcDbArc
 50
275.4754523714
 51
264.524573989
  0
SPLINE
  5
ED
330
1F
100
AcDbEntity
  8
0
  6
Continuous
 62
     8
370
    18
100
AcDbSpline
210
0.0
220
0.0
230
1.0
 70
    24
 71
     3
 72
    14
 73
    10
 74
     0
 42
0.000000001
 43
0.00000001
 40
0.0
 40
0.0
 40
0.0
 40
0.0
 40
0.25
 40
0.25
 40
0.5
 40
0.5
 40
0.75
 40
0.75
 40
1.0
 40
1.0
 40
1.0
 40
1.0
 10
183.9346689118931
 20
239.5389870070393
 30
0.0
 10
183.9160230790607
 20
239.343553250138
 30
0.0
 10
183.8973846686274
 20
239.1481972901011
 30
0.0
 10
183.8629312011455
 20
238.7870779639337
 30
0.0
 10
183.8471296922738
 20
238.6214566011736
 30
0.0
 10
183.8207581574322
 20
238.3450469510559
 30
0.0
 10
183.8101985015713
 20
238.2343673565848
 30
0.0
 10
183.795922583218
 20
238.0847362630274
 30
0.0
 10
183.7922119344615
 20
238.0458436035491
 30
0.0
 10
183.7922081636593
 20
238.0458040803991
 30
0.0
  0
SPLINE
  5
EE
330
1F
100
AcDbEntity
  8
0
  6
Continuous
 62
     8
370
    18
100
AcDbSpline
210
0.0
220
0.0
230
1.0
 70
    24
 71
     3
 72
    14
 73
    10
 74
     0
 42
0.000000001
 43
0.00000001
 40
0.0
 40
0.0
 40
0.0
 40
0.0
 40
0.25
 40
0.25
 40
0.5
 40
0.5
 40
0.75
 40
0.75
 40
1.0
 40
1.0
 40
1.0
 40
1.0
 10
188.3705771624646
 20
238.0457274577108
 30
0.0
 10
188.3705726862122
 20
238.0457744307414
 30
0.0
 10
188.3668659131649
 20
238.0846726757269
 30
0.0
 10
188.3526062929337
 20
238.2343107015984
 30
0.0
 10
188.3420590524299
 20
238.3449916469389
 30
0.0
 10
188.3157189201613
 20
238.6214005084633
 30
0.0
 10
188.2999363849623
 20
238.7870197446103
 30
0.0
 10
188.2655244159899
 20
239.1481330856314
 30
0.0
 10
188.2469085125139
 20
239.3434852058711
 30
0.0
 10
188.2282851692525
 20
239.5389153979509
 30
0.0
  0
SPLINE
  5
EF
330
1F
100
AcDbEntity
  8
0
  6
Continuous
 62
     8
370
    18
100
AcDbSpline
210
0.0
220
0.0
230
1.0
 70
     8
 71
     3
 72
    10
 73
     6
 74
     0
 42
0.000000001
 43
0.00000001
 40
0.0
 40
0.0
 40
0.0
 40
0.0
 40
0.5
 40
0.5
 40
1.0
 40
1.0
 40
1.0
 40
1.0
 10
183.9349941455706
 20
239.538992676262
 30
0.0
 10
184.6506347264673
 20
239.4707256603812
 30
0.0
 10
185.3662752517043
 20
239.4128826191485
 30
0.0
 10
186.79755568478
 20
239.41282338705
 30
0.0
 10
187.5131955915814
 20
239.4708014124537
 30
0.0
 10
188.2288354437262
 20
239.5390156035592
 30
0.0
  0
SPLINE
  5
F0
330
1F
100
AcDbEntity
  8
0
  6
Continuous
 62
     8
370
    18
100
AcDbSpline
210
0.0
220
0.0
230
1.0
 70
     8
 71
     3
 72
    31
 73
    27
 74
     0
 42
0.000000001
 43
0.00000001
 40
0.0
 40
0.0
 40
0.0
 40
0.0
 40
0.0203768459921988
 40
0.039745615850337
 40
0.0581063771207356
 40
0.0754592072683488
 40
0.0918041962805252
 40
0.1071414501256803
 40
0.1214710954271946
 40
0.1347932859032497
 40
0.1471082114381271
 40
0.1584161111888339
 40
0.1687172930891491
 40
0.258083767048603
 40
0.3422361046933592
 40
0.4264257373225803
 40
0.5157994656585196
 40
0.5851240201975733
 40
0.6838473468496793
 40
0.7393113115256286
 40
0.7913242919334319
 40
0.8398943265128005
 40
0.8850316670022241
 40
0.926749468549315
 40
0.9650647797813431
 40
1.0
 40
1.0
 40
1.0
 40
1.0
 10
189.3370916764003
 20
235.7790931704581
 30
0.0
 10
189.2872898359404
 20
235.7694877119791
 30
0.0
 10
189.190149934097
 20
235.7507519928735
 30
0.0
 10
189.0394114322687
 20
235.7237851241207
 30
0.0
 10
188.8911893604093
 20
235.6985621273178
 30
0.0
 10
188.7460372260947
 20
235.6751089527228
 30
0.0
 10
188.6051637424746
 20
235.6534189664489
 30
0.0
 10
188.4694638549095
 20
235.6334932427505
 30
0.0
 10
188.3397676379157
 20
235.6153317151237
 30
0.0
 10
188.2167887756621
 20
235.5989315826062
 30
0.0
 10
188.1011510195161
 20
235.5843000840913
 30
0.0
 10
187.9933821058985
 20
235.5714100914952
 30
0.0
 10
187.6363592801569
 20
235.5316784265143
 30
0.0
 10
187.0098342926839
 20
235.4815470396486
 30
0.0
 10
186.0918078839511
 20
235.4550625370282
 30
0.0
 10
185.1730789431117
 20
235.480533148807
 30
0.0
 10
184.3446822130299
 20
235.5457004605142
 30
0.0
 10
183.5415201045727
 20
235.6511656654326
 30
0.0
 10
182.9304544957295
 20
235.7562047968366
 30
0.0
 10
182.4658906572226
 20
235.8513221235265
 30
0.0
 10
182.1706922363228
 20
235.9151627484608
 30
0.0
 10
181.949142207435
 20
235.9677676900608
 30
0.0
 10
181.7925366849388
 20
236.0088546644996
 30
0.0
 10
181.6928275451418
 20
236.0381154678642
 30
0.0
 10
181.6371496666463
 20
236.0569190584201
 30
0.0
 10
181.6303308364809
 20
236.0596163440061
 30
0.0
 10
181.6270787463085
 20
236.0609027546857
 30
0.0
  0
SPLINE
  5
F1
330
1F
100
AcDbEntity
  8
0
  6
Continuous
 62
     8
370
    18
100
AcDbSpline
210
0.0
220
0.0
230
1.0
 70
     8
 71
     3
 72
    10
 73
     6
 74
     0
 42
0.000000001
 43
0.00000001
 40
0.0
 40
0.0
 40
0.0
 40
0.0
 40
0.4330151876417792
 40
0.7000401796762533
 40
1.0
 40
1.0
 40
1.0
 40
1.0
 10
190.5359702116898
 20
236.060672119016
 30
0.0
 10
190.4905544794235
 20
236.0444551045979
 30
0.0
 10
190.4171324880403
 20
236.0182376369176
 30
0.0
 10
189.9467159739188
 20
235.9022409287488
 30
0.0
 10
189.5480195732705
 20
235.8217013135338
 30
0.0
 10
189.3370916999033
 20
235.7790923265165
 30
0.0
  0
LINE
  5
F2
330
1F
100
AcDbEntity
  8
0
  6
Continuous
 62
     8
370
    18
100
AcDbLine
 10
181.7538302324
 20
163.4336362181
 30
0.0
 11
190.4099911383
 21
163.4336362181
 31
0.0
  0
SPLINE
  5
F3
330
1F
100
AcDbEntity
  8
0
  6
Continuous
 62
     8
370
    18
100
AcDbSpline
210
0.0
220
0.0
230
1.0
 70
     8
 71
     3
 72
    28
 73
    24
 74
     0
 42
0.000000001
 43
0.00000001
 40
0.0
 40
0.0
 40
0.0
 40
0.0
 40
0.0003287584522859
 40
0.1426290509406738
 40
0.1931481167143387
 40
0.2453411959438949
 40
0.2993023458112806
 40
0.3266323030394226
 40
0.355893035087111
 40
0.3870909252108871
 40
0.4202304361687381
 40
0.4553153639947162
 40
0.4568438130229521
 40
0.4682632451915805
 40
0.4994344086184252
 40
0.5303387242598862
 40
0.5693389707064063
 40
0.6164334700897875
 40
0.7112487040255593
 40
0.7966302044990249
 40
0.8726332720102534
 40
0.9393359711903825
 40
0.9999999999999999
 40
0.9999999999999999
 40
0.9999999999999999
 40
0.9999999999999999
 10
199.9986089698127
 20
238.2267533389276
 30
0.0
 10
199.9987881831274
 20
238.2269107807153
 30
0.0
 10
200.0765383514177
 20
238.2952155577044
 30
0.0
 10
199.8764391099855
 20
238.1134215266175
 30
0.0
 10
199.5783002555338
 20
237.864489074032
 30
0.0
 10
199.3199176472888
 20
237.6546201061841
 30
0.0
 10
199.0556133221752
 20
237.4461190982623
 30
0.0
 10
198.8082687505568
 20
237.2550615611336
 30
0.0
 10
198.5967992757529
 20
237.0956704080642
 30
0.0
 10
198.3544590730349
 20
236.918569709124
 30
0.0
 10
198.0785892748074
 20
236.7232555087878
 30
0.0
 10
197.8713689351481
 20
236.5831875220427
 30
0.0
 10
197.7242176302949
 20
236.4838550899215
 30
0.0
 10
197.5876917310106
 20
236.3911832159582
 30
0.0
 10
197.3513415281578
 20
236.2371326812205
 30
0.0
 10
197.0091563688356
 20
236.0247024404183
 30
0.0
 10
196.5910671494837
 20
235.7790315238717
 30
0.0
 10
195.9050839822197
 20
235.3973496379803
 30
0.0
 10
194.9604158183396
 20
234.9290281649756
 30
0.0
 10
193.7874308039664
 20
234.4333127933617
 30
0.0
 10
192.6568678615611
 20
234.0341645368044
 30
0.0
 10
191.6073192043381
 20
233.697884413148
 30
0.0
 10
190.8791292384369
 20
233.5703211551919
 30
0.0
 10
190.5322966097942
 20
233.5095635203069
 30
0.0
  0
LWPOLYLINE
  5
F4
330
1F
100
AcDbEntity
  8
0
  6
Continuous
 62
     8
370
    18
100
AcDbPolyline
 90
       31
 70
   128
 43
0.0
 10
181.6315969384
 20
233.4682873038
 10
181.5018283135
 20
233.4937571136
 10
180.5980463444
 20
233.7130910305
 10
180.0131389803
 20
233.879594743
 10
179.3987506001
 20
234.0755990294
 10
178.7596914849
 20
234.3011057523
 10
178.1016366488
 20
234.5561111865
 10
177.4312017418
 20
234.8406190572
 10
176.756006845
 20
235.1546256391
 10
176.0847216404
 20
235.4981346575
 10
175.322096043
 20
235.9268578289
 10
174.8128479279
 20
236.2385212032
 10
174.5148843086
 20
236.4331266431
 10
174.4357284091
 20
236.4865342674
 10
174.4125608287
 20
236.5022624431
 10
174.4042757831
 20
236.5078745929
 10
174.4016904316
 20
236.5096180288
 10
174.4007581777
 20
236.5102438775
 10
174.40038658
 20
236.5104916093
 10
174.4002319804
 20
236.5105959175
 10
174.4001649252
 20
236.5106406209
 10
174.4001351229
 20
236.5106592474
 10
174.4001230157
 20
236.5106685606
 10
174.4001174278
 20
236.5106722859
 10
174.4001127712
 20
236.5106760112
 10
173.8963045112
 20
236.8574372081
 10
173.4898613698
 20
237.154069036
 10
173.1675837121
 20
237.4005696324
 10
172.4000817097
 20
238.0203424541
 10
172.1646713025
 20
238.2272283134
 10
172.1647811986
 20
238.2271314559
  0
SPLINE
  5
F5
330
1F
100
AcDbEntity
  8
0
  6
Continuous
 62
     8
370
    18
100
AcDbSpline
210
0.0
220
0.0
230
1.0
 70
    24
 71
     3
 72
    14
 73
    10
 74
     0
 42
0.000000001
 43
0.00000001
 40
0.0
 40
0.0
 40
0.0
 40
0.0
 40
0.1575800778586164
 40
0.3151608923426367
 40
0.4727412607033794
 40
0.6303214270368127
 40
0.7879019367721546
 40
0.9454823515948853
 40
1.0
 40
1.0
 40
1.0
 40
1.0
 10
172.3620492897085
 20
181.6828052101081
 30
0.0
 10
172.4131217997835
 20
181.6828052101081
 30
0.0
 10
172.5152670586778
 20
181.6828052101081
 30
0.0
 10
173.3309204996636
 20
181.6828052101081
 30
0.0
 10
174.5995116382755
 20
181.6828052101081
 30
0.0
 10
176.3166033645339
 20
181.6828052101081
 30
0.0
 10
178.4171024791051
 20
181.6828052101081
 30
0.0
 10
180.2588950149891
 20
181.6828052101081
 30
0.0
 10
181.4228075859955
 20
181.6828052101081
 30
0.0
 10
181.7219794659964
 20
181.6828052101081
 30
0.0
  0
SPLINE
  5
F6
330
1F
100
AcDbEntity
  8
0
  6
Continuous
 62
     8
370
    18
100
AcDbSpline
210
0.0
220
0.0
230
1.0
 70
    24
 71
     3
 72
    14
 73
    10
 74
     0
 42
0.000000001
 43
0.00000001
 40
0.0
 40
0.0
 40
0.0
 40
0.0
 40
0.0545176484051146
 40
0.2120980632278454
 40
0.3696785729631872
 40
0.5272587392966206
 40
0.6848391076573633
 40
0.8424199221413836
 40
1.0
 40
1.0
 40
1.0
 40
1.0
 10
190.4418419047347
 20
181.6828052101081
 30
0.0
 10
190.7410137847356
 20
181.6828052101081
 30
0.0
 10
191.904926355742
 20
181.6828052101081
 30
0.0
 10
193.746718891626
 20
181.6828052101081
 30
0.0
 10
195.8472180061972
 20
181.6828052101081
 30
0.0
 10
197.5643097324556
 20
181.6828052101081
 30
0.0
 10
198.8329008710674
 20
181.6828052101081
 30
0.0
 10
199.6485543120533
 20
181.6828052101081
 30
0.0
 10
199.7506995709475
 20
181.6828052101081
 30
0.0
 10
199.8017720810226
 20
181.6828052101081
 30
0.0
  0
SPLINE
  5
F7
330
1F
100
AcDbEntity
  8
0
  6
Continuous
 62
     8
370
    18
100
AcDbSpline
210
0.0
220
0.0
230
1.0
 70
     8
 71
     3
 72
    11
 73
     7
 74
     0
 42
0.000000001
 43
0.00000001
 40
0.2499999856405313
 40
0.2499999856405313
 40
0.2499999856405313
 40
0.2499999856405313
 40
0.3124999856405313
 40
0.3749999856405313
 40
0.4374999856405313
 40
0.5
 40
0.5
 40
0.5
 40
0.5
 10
186.0819106853653
 20
120.6162049078311
 30
0.0
 10
187.8650601259216
 20
120.6162049078311
 30
0.0
 10
191.4307298337491
 20
121.099494733499
 30
0.0
 10
195.9654715468297
 20
123.1660962117703
 30
0.0
 10
198.9952836992459
 20
126.2585844132428
 30
0.0
 10
199.7046450517639
 20
128.6905700024159
 30
0.0
 10
199.7046450517639
 20
129.9065627970029
 30
0.0
  0
SPLINE
  5
F8
330
1F
100
AcDbEntity
  8
0
  6
Continuous
 62
     8
370
    18
100
AcDbSpline
210
0.0
220
0.0
230
1.0
 70
     8
 71
     3
 72
    11
 73
     7
 74
     0
 42
0.000000001
 43
0.00000001
 40
0.5
 40
0.5
 40
0.5
 40
0.5
 40
0.5625000143594642
 40
0.6250000143594642
 40
0.6875000143594642
 40
0.7500000143594642
 40
0.7500000143594642
 40
0.7500000143594642
 40
0.7500000143594642
 10
172.4591763189671
 20
129.9065627970024
 30
0.0
 10
172.4591763189671
 20
128.6905700024155
 30
0.0
 10
173.1685376714852
 20
126.2585844132425
 30
0.0
 10
176.1983498239012
 20
123.1660962117692
 30
0.0
 10
180.7330915369819
 20
121.0994947334988
 30
0.0
 10
184.2987612448093
 20
120.6162049078303
 30
0.0
 10
186.0819106853655
 20
120.6162049078303
 30
0.0
  0
LINE
  5
F9
330
1F
100
AcDbEntity
  8
0
  6
Continuous
 62
     8
370
    18
100
AcDbLine
 10
186.0819106854
 20
120.61620751
 30
0.0
 11
186.0819106854
 21
114.0220860538
 31
0.0
  0
ELLIPSE
  5
FA
330
1F
100
AcDbEntity
  8
0
  6
Continuous
 62
     8
370
    18
100
AcDbEllipse
 10
186.0819106854
 20
124.8757037146
 30
0.0
 11
13.62225840003609
 21
0.0
 31
0.0
210
0.0
220
0.0
230
1.0
 40
0.7967557489
 41
4.7123889803847
 42
6.283185307179586
  0
LINE
  5
FB
330
1F
100
AcDbEntity
  8
0
  6
Continuous
 62
     8
370
    18
100
AcDbLine
 10
186.0819106854
 20
114.0220860538
 30
0.0
 11
186.0819106854
 21
113.5450849829
 31
0.0
  0
LINE
  5
FC
330
1F
100
AcDbEntity
  8
0
  6
Continuous
 62
     8
370
    18
100
AcDbLine
 10
184.0819105904
 20
290.1349800227
 30
0.0
 11
188.0819107804
 21
290.1349800227
 31
0.0
  0
LINE
  5
FD
330
1F
100
AcDbEntity
  8
0
  6
Continuous
 62
     8
370
    18
100
AcDbLine
 10
188.0047167118
 20
285.8591085819
 30
0.0
 11
188.0819107804
 21
286.3762105403
 31
0.0
  0
LINE
  5
FE
330
1F
100
AcDbEntity
  8
0
  6
Continuous
 62
     8
370
    18
100
AcDbLine
 10
184.0819105904
 20
286.3762105403
 30
0.0
 11
184.159104659
 21
285.8591085819
 31
0.0
  0
LINE
  5
FF
330
1F
100
AcDbEntity
  8
0
  6
Continuous
 62
     7
370
    25
100
AcDbLine
 10
352.2255428734
 20
505.543150716
 30
0.0
 11
352.2255428734
 21
506.6395781566
 31
0.0
  0
LINE
  5
100
330
1F
100
AcDbEntity
  8
0
  6
Continuous
 62
     7
370
    25
100
AcDbLine
 10
352.2255428734
 20
495.0687072803
 30
0.0
 11
352.2255428734
 21
497.608625107
 31
0.0
  0
LINE
  5
101
330
1F
100
AcDbEntity
  8
0
  6
Continuous
 62
     7
370
    25
100
AcDbLine
 10
304.2255424562
 20
520.0687132408
 30
0.0
 11
304.2255424562
 21
501.6046993066
 31
0.0
  0
ARC
  5
102
330
1F
100
AcDbEntity
  8
0
  6
Continuous
 62
     7
370
    25
100
AcDbCircle
 10
305.7255426648
 20
520.068706717
 30
0.0
 40
1.5
100
AcDbArc
 50
90.0
 51
180.0
  0
LINE
  5
103
330
1F
100
AcDbEntity
  8
0
  6
Continuous
 62
     7
370
    25
100
AcDbLine
 10
352.2255428734
 20
477.5878570606
 30
0.0
 11
352.2255428734
 21
491.0687140752
 31
0.0
  0
LINE
  5
104
330
1F
100
AcDbEntity
  8
0
  6
Continuous
 62
     7
370
    25
100
AcDbLine
 10
352.2255428734
 20
336.4566741609
 30
0.0
 11
352.2255428734
 21
439.8731447388
 31
0.0
  0
LINE
  5
105
330
1F
100
AcDbEntity
  8
0
  6
Continuous
 62
     7
370
    25
100
AcDbLine
 10
304.2255424562
 20
370.7750819255
 30
0.0
 11
304.2255424562
 21
336.4566741609
 31
0.0
  0
LINE
  5
106
330
1F
100
AcDbEntity
  8
0
  6
Continuous
 62
     7
370
    25
100
AcDbLine
 10
304.2255424562
 20
491.0687140752
 30
0.0
 11
304.2255424562
 21
380.7411387195
 31
0.0
  0
ARC
  5
107
330
1F
100
AcDbEntity
  8
0
  6
Continuous
 62
     7
370
    25
100
AcDbCircle
 10
351.7255426648
 20
491.068706717
 30
0.0
 40
0.5
100
AcDbArc
 50
0.0
 51
90.0
  0
ARC
  5
108
330
1F
100
AcDbEntity
  8
0
  6
Continuous
 62
     7
370
    25
100
AcDbCircle
 10
304.7255426648
 20
491.068706717
 30
0.0
 40
0.5
100
AcDbArc
 50
90.0
 51
180.0
  0
ARC
  5
109
330
1F
100
AcDbEntity
  8
0
  6
Continuous
 62
     7
370
    25
100
AcDbCircle
 10
328.2255426648
 20
479.9304971744
 30
0.0
 40
26.60000000000003
100
AcDbArc
 50
134.3332067934
 51
154.0538205859
  0
ARC
  5
10A
330
1F
100
AcDbEntity
  8
0
  6
Continuous
 62
     7
370
    25
100
AcDbCircle
 10
328.2255426648
 20
479.9304971744
 30
0.0
 40
26.60000000000003
100
AcDbArc
 50
25.9461794141
 51
33.3881888125
  0
ARC
  5
10B
330
1F
100
AcDbEntity
  8
0
  6
Continuous
 62
     7
370
    25
100
AcDbCircle
 10
304.7255426648
 20
501.6047046094
 30
0.0
 40
0.4999999999999702
100
AcDbArc
 50
182.5494177207
 51
254.5
  0
ARC
  5
10C
330
1F
100
AcDbEntity
  8
0
  6
Continuous
 62
     7
370
    25
100
AcDbCircle
 10
351.7255426648
 20
495.068706717
 30
0.0
 40
0.5
100
AcDbArc
 50
270.0
 51
0.0
  0
SPLINE
  5
10D
330
1F
100
AcDbEntity
  8
0
  6
Continuous
 62
     7
370
    25
100
AcDbSpline
210
0.0
220
0.0
230
1.0
 70
     8
 71
     3
 72
    23
 73
    19
 74
     0
 42
0.000000001
 43
0.00000001
 40
0.0
 40
0.0
 40
0.0
 40
0.0
 40
0.0850576675645133
 40
0.1524428571582223
 40
0.2047715864135853
 40
0.2514931228586225
 40
0.3006417428220013
 40
0.4021714175406079
 40
0.5044654787296997
 40
0.5805242337659053
 40
0.6561907641613994
 40
0.7258475628735285
 40
0.7582652393021497
 40
0.7893279092503808
 40
0.8236606143889748
 40
0.8689376414072882
 40
0.9268535165178536
 40
1.0
 40
1.0
 40
1.0
 40
1.0
 10
408.4789947273844
 20
445.0106329847878
 30
0.0
 10
409.7717699094409
 20
445.0124292104185
 30
0.0
 10
412.0887196690432
 20
445.015648458901
 30
0.0
 10
415.2008737738851
 20
444.9807773950538
 30
0.0
 10
417.7298829560826
 20
444.9238051046674
 30
0.0
 10
419.9809931612322
 20
444.8444165331547
 30
0.0
 10
422.9774591258078
 20
444.6926612021743
 30
0.0
 10
426.811298131236
 20
444.3826874042635
 30
0.0
 10
431.0252866085154
 20
443.7658239461944
 30
0.0
 10
434.7870699593441
 20
442.87736130574
 30
0.0
 10
437.980100696699
 20
441.7978483069432
 30
0.0
 10
440.4411587725114
 20
440.672216610412
 30
0.0
 10
442.2166924118657
 20
439.7005061496747
 30
0.0
 10
443.4896855584254
 20
438.9318714094609
 30
0.0
 10
444.8932460566633
 20
438.0039318802321
 30
0.0
 10
446.5824816532855
 20
436.7716883448757
 30
0.0
 10
448.6707616547138
 20
435.0892187465868
 30
0.0
 10
450.1431394648703
 20
433.7469258399961
 30
0.0
 10
450.9648800494784
 20
432.9977862168855
 30
0.0
  0
SPLINE
  5
10E
330
1F
100
AcDbEntity
  8
0
  6
Continuous
 62
     7
370
    25
100
AcDbSpline
210
0.0
220
0.0
230
1.0
 70
     8
 71
     3
 72
    29
 73
    25
 74
     0
 42
0.000000001
 43
0.00000001
 40
0.0
 40
0.0
 40
0.0
 40
0.0
 40
0.0471645363841507
 40
0.0858008839471481
 40
0.1168352092294516
 40
0.1466033204705502
 40
0.165789906820852
 40
0.1811349532616162
 40
0.198712704632965
 40
0.2184633225649153
 40
0.2403410003331927
 40
0.264325260262197
 40
0.3430591750467438
 40
0.4209087337837021
 40
0.500473621561384
 40
0.5902395621995008
 40
0.6784431678406685
 40
0.7629767800856264
 40
0.7938304911877949
 40
0.8229737396559934
 40
0.8509071142555453
 40
0.8873652402154637
 40
0.936497451247855
 40
1.0
 40
1.0
 40
1.0
 40
1.0
 10
469.5455924275034
 20
452.9231644798821
 30
0.0
 10
468.7804597827483
 20
453.6291749382658
 30
0.0
 10
467.3885441128452
 20
454.9135365804936
 30
0.0
 10
465.4464025074295
 20
456.6106682953479
 30
0.0
 10
463.7637979678283
 20
458.0202644371821
 30
0.0
 10
462.3849078097044
 20
459.1232508399684
 30
0.0
 10
461.2586234481201
 20
459.986965396851
 30
0.0
 10
460.3349972489817
 20
460.6725018079719
 30
0.0
 10
459.3904876415209
 20
461.3505832920324
 30
0.0
 10
458.3144293138994
 20
462.0923146496174
 30
0.0
 10
457.1034918552005
 20
462.8870276033271
 30
0.0
 10
454.7648495138601
 20
464.3344759100441
 30
0.0
 10
451.2425459873359
 20
466.2163961167104
 30
0.0
 10
446.402926994736
 20
468.1769285050986
 30
0.0
 10
441.1598350249725
 20
469.7143004837016
 30
0.0
 10
435.5785460833654
 20
470.8259578534639
 30
0.0
 10
429.828808723318
 20
471.5659587579038
 30
0.0
 10
425.3484278886663
 20
471.928276032086
 30
0.0
 10
422.1635906760074
 20
472.1134354170729
 30
0.0
 10
420.2248855575225
 20
472.2057825683159
 30
0.0
 10
418.1618427750842
 20
472.2858103871615
 30
0.0
 10
415.6571306993366
 20
472.3601582077534
 30
0.0
 10
412.3668028850396
 20
472.4260360870261
 30
0.0
 10
409.8806610133154
 20
472.4415866399513
 30
0.0
 10
408.4789947273844
 20
472.4503539134568
 30
0.0
  0
ARC
  5
10F
330
1F
100
AcDbEntity
  8
0
  6
Continuous
 62
     7
370
    25
100
AcDbCircle
 10
328.2255426648
 20
487.868706717
 30
0.0
 40
21.64486082191338
100
AcDbArc
 50
147.1454114806
 51
149.1835103634
  0
SPLINE
  5
110
330
1F
100
AcDbEntity
  8
0
  6
Continuous
 62
     7
370
    25
100
AcDbSpline
210
0.0
220
0.0
230
1.0
 70
     8
 71
     3
 72
    13
 73
     9
 74
     0
 42
0.000000001
 43
0.00000001
 40
0.0
 40
0.0
 40
0.0
 40
0.0
 40
0.2394823331271997
 40
0.3683761462814298
 40
0.4999985742941367
 40
0.6316232724075266
 40
0.760518669510871
 40
1.0
 40
1.0
 40
1.0
 40
1.0
 10
352.2255428733939
 20
506.6378794242448
 30
0.0
 10
352.2585621204823
 20
506.9491665673476
 30
0.0
 10
352.3093529359747
 20
507.4279941980364
 30
0.0
 10
352.6175865245341
 20
508.0041931578411
 30
0.0
 10
352.9365981527834
 20
508.4007766220119
 30
0.0
 10
353.3326270325171
 20
508.7204800364415
 30
0.0
 10
353.9082913049251
 20
509.0297181489907
 30
0.0
 10
354.3870293523979
 20
509.0813491137475
 30
0.0
 10
354.6982564630621
 20
509.1149143506593
 30
0.0
  0
SPLINE
  5
111
330
1F
100
AcDbEntity
  8
0
  6
Continuous
 62
     7
370
    25
100
AcDbSpline
210
0.0
220
0.0
230
1.0
 70
     8
 71
     3
 72
    13
 73
     9
 74
     0
 42
0.000000001
 43
0.00000001
 40
0.0
 40
0.0
 40
0.0
 40
0.0
 40
0.2602922580821875
 40
0.4003889414352692
 40
0.543449467277789
 40
0.6865134146702103
 40
0.8266083759887576
 40
1.0
 40
1.0
 40
1.0
 40
1.0
 10
354.698254600417
 20
518.0225006867951
 30
0.0
 10
354.3870035167851
 20
518.0560579353306
 30
0.0
 10
353.9082282630984
 20
518.1076766477642
 30
0.0
 10
353.3327531510703
 20
518.4169740279092
 30
0.0
 10
352.9361168496303
 20
518.7364778994565
 30
0.0
 10
352.6193362074259
 20
519.1337589126564
 30
0.0
 10
352.3516431583783
 20
519.6151249464691
 30
0.0
 10
352.3077611885619
 20
519.9887584880204
 30
0.0
 10
352.2834897639864
 20
520.1954178144043
 30
0.0
  0
LINE
  5
112
330
1F
100
AcDbEntity
  8
0
  6
Continuous
 62
     7
370
    25
100
AcDbLine
 10
354.6979509893
 20
509.1149143507
 30
0.0
 11
426.7281637194
 21
509.2406205465
 31
0.0
  0
LINE
  5
113
330
1F
100
AcDbEntity
  8
0
  6
Continuous
 62
     7
370
    25
100
AcDbLine
 10
426.7281637194
 20
517.896794491
 30
0.0
 11
354.6979975554
 21
518.0225006868
 31
0.0
  0
ARC
  5
114
330
1F
100
AcDbEntity
  8
0
  6
Continuous
 62
     7
370
    25
100
AcDbCircle
 10
426.7255426648
 20
516.3967893264
 30
0.0
 40
1.500000000000069
100
AcDbArc
 50
0.0
 51
89.9
  0
ARC
  5
115
330
1F
100
AcDbEntity
  8
0
  6
Continuous
 62
     7
370
    25
100
AcDbCircle
 10
426.7255426648
 20
510.7406241075
 30
0.0
 40
1.500000000000012
100
AcDbArc
 50
270.1
 51
0.0
  0
LINE
  5
116
330
1F
100
AcDbEntity
  8
0
  6
Continuous
 62
     7
370
    25
100
AcDbLine
 10
352.2190292033
 20
497.5687048961
 30
0.0
 11
352.5755432102
 21
497.5687048961
 31
0.0
  0
LINE
  5
117
330
1F
100
AcDbEntity
  8
0
  6
Continuous
 62
     7
370
    25
100
AcDbLine
 10
352.5755432102
 20
505.5687062074
 30
0.0
 11
352.221418977
 21
505.5687062074
 31
0.0
  0
LINE
  5
118
330
1F
100
AcDbEntity
  8
0
  6
Continuous
 62
     7
370
    25
100
AcDbLine
 10
352.5755432102
 20
497.5687048961
 30
0.0
 11
353.1760898086
 21
497.7872900297
 31
0.0
  0
LINE
  5
119
330
1F
100
AcDbEntity
  8
0
  6
Continuous
 62
     7
370
    25
100
AcDbLine
 10
353.1760898086
 20
505.3501210739
 30
0.0
 11
352.5755432102
 21
505.5687062074
 31
0.0
  0
ARC
  5
11A
330
1F
100
AcDbEntity
  8
0
  6
Continuous
 62
     7
370
    25
100
AcDbCircle
 10
353.107686006
 20
505.1621868259
 30
0.0
 40
0.2000000000000553
100
AcDbArc
 50
0.0
 51
70.0
  0
ARC
  5
11B
330
1F
100
AcDbEntity
  8
0
  6
Continuous
 62
     7
370
    25
100
AcDbCircle
 10
353.107686006
 20
497.975226608
 30
0.0
 40
0.2000000000000553
100
AcDbArc
 50
290.0
 51
0.0
  0
LINE
  5
11C
330
1F
100
AcDbEntity
  8
0
  6
Continuous
 62
     7
370
    25
100
AcDbLine
 10
353.3076856884
 20
497.9752234747
 30
0.0
 11
353.3076856884
 21
505.1621876289
 31
0.0
  0
LINE
  5
11D
330
1F
100
AcDbEntity
  8
0
  6
Continuous
 62
     7
370
    25
100
AcDbLine
 10
301.906204656
 20
377.1407127012
 30
0.0
 11
304.223417178
 21
370.7742251088
 31
0.0
  0
ARC
  5
11E
330
1F
100
AcDbEntity
  8
0
  6
Continuous
 62
     7
370
    25
100
AcDbCircle
 10
350.74847161
 20
520.0687349444
 30
0.0
 40
1.499966103984546
100
AcDbArc
 50
4.3234650483
 51
91.1836122228
  0
ARC
  5
11F
330
1F
100
AcDbEntity
  8
0
  6
Continuous
 62
     7
370
    25
100
AcDbCircle
 10
300.0268191563
 20
376.456674196
 30
0.0
 40
2.0
100
AcDbArc
 50
20.0
 51
90.0
  0
ARC
  5
120
330
1F
100
AcDbEntity
  8
0
  6
Continuous
 62
     7
370
    25
100
AcDbCircle
 10
300.0268191563
 20
376.456674196
 30
0.0
 40
6.0
100
AcDbArc
 50
45.5800056672
 51
90.0
  0
LINE
  5
121
330
1F
100
AcDbEntity
  8
0
  6
Continuous
 62
     7
370
    25
100
AcDbLine
 10
287.0268196466
 20
378.4566752245
 30
0.0
 11
300.0268199148
 21
378.4566752245
 31
0.0
  0
LINE
  5
122
330
1F
100
AcDbEntity
  8
0
  6
Continuous
 62
     7
370
    25
100
AcDbLine
 10
300.0268199148
 20
382.4566758801
 30
0.0
 11
287.0268196466
 21
382.4566758801
 31
0.0
  0
SPLINE
  5
123
330
1F
100
AcDbEntity
  8
0
  6
Continuous
 62
     7
370
    25
100
AcDbSpline
210
0.0
220
0.0
230
1.0
 70
     8
 71
     3
 72
    16
 73
    12
 74
     0
 42
0.000000001
 43
0.00000001
 40
0.0
 40
0.0
 40
0.0
 40
0.0
 40
0.2500000000000009
 40
0.2500000000000009
 40
0.5000000000000019
 40
0.5000000000000019
 40
0.6250000000000018
 40
0.6250000000000018
 40
0.7500000000000017
 40
0.7500000000000017
 40
1.0
 40
1.0
 40
1.0
 40
1.0
 10
333.6965225534791
 20
494.5687067169571
 30
0.0
 10
332.8038745003821
 20
494.5687067169572
 30
0.0
 10
331.9018338917806
 20
494.5707531732988
 30
0.0
 10
330.0812036202819
 20
494.6471971435199
 30
0.0
 10
329.1689384132327
 20
494.7207308159509
 30
0.0
 10
327.8067358061023
 20
494.906237529636
 30
0.0
 10
327.3531144254432
 20
494.9804515141363
 30
0.0
 10
326.4559368999287
 20
495.1494272708023
 30
0.0
 10
326.011187619219
 20
495.2442520728977
 30
0.0
 10
324.6866855170827
 20
495.552416776664
 30
0.0
 10
323.8170371763406
 20
495.7912934915233
 30
0.0
 10
322.9535398351331
 20
496.0307624979706
 30
0.0
  0
SPLINE
  5
124
330
1F
100
AcDbEntity
  8
0
  6
Continuous
 62
     7
370
    25
100
AcDbSpline
210
0.0
220
0.0
230
1.0
 70
     8
 71
     3
 72
    13
 73
     9
 74
     0
 42
0.000000001
 43
0.00000001
 40
0.0
 40
0.0
 40
0.0
 40
0.0
 40
0.1722092324590497
 40
0.3444403969355522
 40
0.516532862566759
 40
0.690625513610468
 40
0.8659767901195461
 40
1.0
 40
1.0
 40
1.0
 40
1.0
 10
351.9325655552262
 20
502.9910139371461
 30
0.0
 10
351.9132506641071
 20
502.5603565829696
 30
0.0
 10
351.8746184219861
 20
501.6989870274726
 30
0.0
 10
351.9099672421374
 20
500.3504656124255
 30
0.0
 10
352.0056608058408
 20
499.1428735642311
 30
0.0
 10
352.1229774463789
 20
498.2094125037762
 30
0.0
 10
352.2129314941674
 20
497.6429188519637
 30
0.0
 10
352.2171483952863
 20
497.6189908752606
 30
0.0
 10
352.2189751865977
 20
497.6086251069611
 30
0.0
  0
SPLINE
  5
125
330
1F
100
AcDbEntity
  8
0
  6
Continuous
 62
     7
370
    25
100
AcDbSpline
210
0.0
220
0.0
230
1.0
 70
     8
 71
     3
 72
    11
 73
     7
 74
     0
 42
0.000000001
 43
0.00000001
 40
0.0
 40
0.0
 40
0.0
 40
0.0
 40
0.2394882371615064
 40
0.5149703213057747
 40
0.7934687717690696
 40
1.0
 40
1.0
 40
1.0
 40
1.0
 10
352.2213575097435
 20
505.5431507159776
 30
0.0
 10
352.2174414485444
 20
505.5208122877457
 30
0.0
 10
352.2090207623434
 20
505.4727780807201
 30
0.0
 10
352.1150356673849
 20
504.8669355606417
 30
0.0
 10
352.0054446406035
 20
504.0010621080017
 30
0.0
 10
351.954330531911
 20
503.2926598040686
 30
0.0
 10
351.9325655552262
 20
502.9910139371461
 30
0.0
  0
LINE
  5
126
330
1F
100
AcDbEntity
  8
0
  6
Continuous
 62
     7
370
    25
100
AcDbLine
 10
305.7255417707
 20
521.56870883
 30
0.0
 11
350.6228801462
 21
521.56870883
 31
0.0
  0
LINE
  5
127
330
1F
100
AcDbEntity
  8
0
  6
Continuous
 62
     7
370
    25
100
AcDbLine
 10
352.2255428734
 20
336.4566741609
 30
0.0
 11
304.2255424562
 21
336.4566741609
 31
0.0
  0
SPLINE
  5
128
330
1F
100
AcDbEntity
  8
0
  6
Continuous
 62
     7
370
    25
100
AcDbSpline
210
0.0
220
0.0
230
1.0
 70
     8
 71
     3
 72
    12
 73
     8
 74
     0
 42
0.000000001
 43
0.00000001
 40
0.0
 40
0.0
 40
0.0
 40
0.0
 40
0.1254176295795214
 40
0.2518064350172355
 40
0.4296601141334472
 40
0.6875547755743577
 40
1.0
 40
1.0
 40
1.0
 40
1.0
 10
304.2256337257737
 20
380.7411387194699
 30
0.0
 10
304.226481110606
 20
380.7263383429628
 30
0.0
 10
304.2281824420252
 20
380.6966229827087
 30
0.0
 10
304.2421955863393
 20
380.4342155872092
 30
0.0
 10
304.264947753108
 20
379.9290797747624
 30
0.0
 10
304.2913274157866
 20
379.0809110585975
 30
0.0
 10
304.2986693023444
 20
378.3909433999801
 30
0.0
 10
304.3026913555973
 20
378.0129633475846
 30
0.0
  0
SPLINE
  5
129
330
1F
100
AcDbEntity
  8
0
  6
Continuous
 62
     7
370
    25
100
AcDbSpline
210
0.0
220
0.0
230
1.0
 70
     8
 71
     3
 72
    14
 73
    10
 74
     0
 42
0.000000001
 43
0.00000001
 40
0.0
 40
0.0
 40
0.0
 40
0.0
 40
0.2519832428547876
 40
0.5078455343230649
 40
0.7608032566052962
 40
0.8877098221179408
 40
0.930679498452275
 40
0.9740040488513357
 40
1.0
 40
1.0
 40
1.0
 40
1.0
 10
304.3026913555973
 20
378.0129633475846
 30
0.0
 10
304.306065995584
 20
377.345652819031
 30
0.0
 10
304.3128672250143
 20
376.0007591344616
 30
0.0
 10
304.2978575230891
 20
373.9845103034053
 30
0.0
 10
304.2687023050388
 20
372.3369520137542
 30
0.0
 10
304.2421350932885
 20
371.3272633838596
 30
0.0
 10
304.2307804988153
 20
370.9391838896714
 30
0.0
 10
304.2261266879337
 20
370.7871596755482
 30
0.0
 10
304.22585216056
 20
370.7783759276817
 30
0.0
 10
304.2257492097729
 20
370.7750819255418
 30
0.0
  0
LINE
  5
12A
330
1F
100
AcDbEntity
  8
0
  6
Continuous
 62
     7
370
    25
100
AcDbLine
 10
309.6366663131
 20
498.9571503927
 30
0.0
 11
312.4013141396
 21
498.9571503927
 31
0.0
  0
LINE
  5
12B
330
1F
100
AcDbEntity
  8
0
  6
Continuous
 62
     7
370
    25
100
AcDbLine
 10
352.1444079133
 20
491.5687076379
 30
0.0
 11
304.3066774162
 21
491.5687076379
 31
0.0
  0
LWPOLYLINE
  5
12C
330
1F
100
AcDbEntity
  8
0
  6
Continuous
 62
     7
370
    25
100
AcDbPolyline
 90
       14
 70
   128
 43
0.0
 10
322.9535397741
 20
496.0307560493
 10
320.5110611061
 20
496.7081181337
 10
318.1569668132
 20
497.3609678079
 10
315.9187034371
 20
497.9816905786
 10
313.8223652395
 20
498.5630593826
 10
311.8923947814
 20
499.0982941915
 10
310.1512928161
 20
499.5811365177
 10
308.6193603131
 20
500.0059835245
 10
307.3144544515
 20
500.3678582241
 10
306.2517911794
 20
500.6625733902
 10
305.4437589499
 20
500.8866570522
 10
304.8997808846
 20
501.0375164081
 10
304.6261955651
 20
501.1133782198
 10
304.5919228944
 20
501.1228851606
  0
LINE
  5
12D
330
1F
100
AcDbEntity
  8
0
  6
Continuous
 62
     7
370
    25
100
AcDbLine
 10
351.7255418601
 20
494.5687137176
 30
0.0
 11
333.6965226236
 21
494.5687137176
 31
0.0
  0
ARC
  5
12E
330
1F
100
AcDbEntity
  8
0
  6
Continuous
 62
     7
370
    25
100
AcDbCircle
 10
357.1839517372
 20
477.5878521279
 30
0.0
 40
4.958409072396591
100
AcDbArc
 50
180.0
 51
269.8
  0
ARC
  5
12F
330
1F
100
AcDbEntity
  8
0
  6
Continuous
 62
     7
370
    25
100
AcDbCircle
 10
357.1839517372
 20
439.873142221
 30
0.0
 40
4.958409072396591
100
AcDbArc
 50
90.2
 51
180.0
  0
LINE
  5
130
330
1F
100
AcDbEntity
  8
0
  6
Continuous
 62
     7
370
    25
100
AcDbLine
 10
408.4789947274
 20
445.0106329848
 30
0.0
 11
357.166643128
 21
444.8315210272
 31
0.0
  0
LINE
  5
131
330
1F
100
AcDbEntity
  8
0
  6
Continuous
 62
     7
370
    25
100
AcDbLine
 10
357.166643128
 20
472.629465871
 30
0.0
 11
408.4789947274
 21
472.4503539135
 31
0.0
  0
LINE
  5
132
330
1F
100
AcDbEntity
  8
0
  6
Continuous
 62
     7
370
    25
100
AcDbLine
 10
469.5455924275
 20
452.9231644799
 30
0.0
 11
476.1397138836
 21
446.7740513016
 31
0.0
  0
LINE
  5
133
330
1F
100
AcDbEntity
  8
0
  6
Continuous
 62
     7
370
    25
100
AcDbLine
 10
454.4324771168
 20
429.7641895343
 30
0.0
 11
450.9648800495
 21
432.9977862169
 31
0.0
  0
ARC
  5
134
330
1F
100
AcDbEntity
  8
0
  6
Continuous
 62
     7
370
    25
100
AcDbCircle
 10
475.1167113766
 20
445.6770204488
 30
0.0
 40
1.500000000000031
100
AcDbArc
 50
307.0
 51
47.0
  0
LWPOLYLINE
  5
135
330
1F
100
AcDbEntity
  8
0
  6
Continuous
 62
     7
370
    25
100
AcDbPolyline
 90
       22
 70
   128
 43
0.0
 10
476.0194317105
 20
444.4790638615
 10
475.9096399548
 20
444.396325164
 10
475.5826935771
 20
444.1499568154
 10
475.0458941462
 20
443.7454573442
 10
474.3112519982
 20
443.1918643047
 10
473.3951733115
 20
442.5015456606
 10
472.3181024792
 20
441.6899166633
 10
471.1041197779
 20
440.7751194765
 10
469.780345321
 20
439.7775761415
 10
468.3763430121
 20
438.7195787956
 10
466.9234648945
 20
437.6247606803
 10
465.4541805985
 20
436.5175746013
 10
464.0013024809
 20
435.4227564861
 10
462.5972852709
 20
434.3647591402
 10
461.273510814
 20
433.3672158052
 10
460.0595281127
 20
432.4524186184
 10
458.9824721816
 20
431.640789621
 10
458.0663785937
 20
430.950470977
 10
457.3317364457
 20
430.3968779375
 10
456.794951916
 20
429.9923784663
 10
456.4680055382
 20
429.7460101177
 10
456.3581988814
 20
429.6632639696
  0
ARC
  5
136
330
1F
100
AcDbEntity
  8
0
  6
Continuous
 62
     7
370
    25
100
AcDbCircle
 10
455.4554810692
 20
430.8612207207
 30
0.0
 40
1.499999999999974
100
AcDbArc
 50
227.0
 51
307.0
  0
LINE
  5
137
330
1F
100
AcDbEntity
  8
0
  6
Continuous
 62
     7
370
    25
100
AcDbLine
 10
428.2255441549
 20
516.3967840005
 30
0.0
 11
428.2255441549
 21
510.7406310369
 31
0.0
  0
LINE
  5
138
330
1F
100
AcDbEntity
  8
0
  6
Continuous
 62
     7
370
    25
100
AcDbLine
 10
352.5755432102
 20
502.9910139371
 30
0.0
 11
352.5755432102
 21
505.5687062074
 31
0.0
  0
LINE
  5
139
330
1F
100
AcDbEntity
  8
0
  6
Continuous
 62
     7
370
    25
100
AcDbLine
 10
352.5755432102
 20
497.5687048961
 30
0.0
 11
352.5755432102
 21
502.9910139371
 31
0.0
  0
LINE
  5
13A
330
1F
100
AcDbEntity
  8
0
  6
Continuous
 62
     7
370
    25
100
AcDbLine
 10
350.622807503
 20
521.56870883
 30
0.0
 11
350.6228056404
 21
521.56870883
 31
0.0
  0
LINE
  5
13B
330
1F
100
AcDbEntity
  8
0
  6
Continuous
 62
     7
370
    25
100
AcDbLine
 10
287.0268196466
 20
378.4566752245
 30
0.0
 11
287.0268196466
 21
382.4566758801
 31
0.0
  0
SPLINE
  5
13C
330
1F
100
AcDbEntity
  8
0
  6
Continuous
 62
     8
370
    18
100
AcDbSpline
210
0.0
220
0.0
230
1.0
 70
     8
 71
     3
 72
    16
 73
    12
 74
     0
 42
0.000000001
 43
0.00000001
 40
0.0
 40
0.0
 40
0.0
 40
0.0
 40
0.2500000000000001
 40
0.2500000000000001
 40
0.3750000000000001
 40
0.3750000000000001
 40
0.5000000000000001
 40
0.5000000000000001
 40
0.7500000000000001
 40
0.7500000000000001
 40
1.0
 40
1.0
 40
1.0
 40
1.0
 10
322.9778317116487
 20
496.5125777245748
 30
0.0
 10
323.849513345467
 20
496.2758752360705
 30
0.0
 10
324.7271847980352
 20
496.0396672282386
 30
0.0
 10
326.0636067190278
 20
495.7347962888384
 30
0.0
 10
326.5123121951422
 20
495.6409764805685
 30
0.0
 10
327.4173940181215
 20
495.4738676583069
 30
0.0
 10
327.874987060744
 20
495.4005193299434
 30
0.0
 10
329.2489231677868
 20
495.2174454885509
 30
0.0
 10
330.1688291979512
 20
495.1453066984688
 30
0.0
 10
332.0039656872711
 20
495.0705679158338
 30
0.0
 10
332.9130043800026
 20
495.0687067169571
 30
0.0
 10
333.8129263808983
 20
495.0687067169571
 30
0.0
  0
ARC
  5
13D
330
1F
100
AcDbEntity
  8
0
  6
Continuous
 62
     8
370
    18
100
AcDbCircle
 10
333.1887452134
 20
494.9504763308
 30
0.0
 40
0.635279931326678
100
AcDbArc
 50
323.063033184
 51
10.7257630338
  0
ARC
  5
13E
330
1F
100
AcDbEntity
  8
0
  6
Continuous
 62
     8
370
    18
100
AcDbCircle
 10
323.5535376789
 20
496.242033119
 30
0.0
 40
0.6361096493060523
100
AcDbArc
 50
154.8288986714
 51
199.3986791832
  0
LINE
  5
13F
330
1F
100
AcDbEntity
  8
0
  6
Continuous
 62
     8
370
    18
100
AcDbLine
 10
352.1161161962
 20
520.0687132408
 30
0.0
 11
304.2255424562
 21
520.0687132408
 31
0.0
  0
SPLINE
  5
140
330
1F
100
AcDbEntity
  8
0
  6
Continuous
 62
     8
370
    18
100
AcDbSpline
210
0.0
220
0.0
230
1.0
 70
     8
 71
     3
 72
    19
 73
    15
 74
     0
 42
0.000000001
 43
0.00000001
 40
0.0
 40
0.0
 40
0.0
 40
0.0
 40
0.0008811893202433
 40
0.070330752479066
 40
0.1402329484687632
 40
0.2095934671470067
 40
0.2796680649021059
 40
0.4200956544571088
 40
0.5625951851433867
 40
0.7054407802421727
 40
0.8460314356917814
 40
0.916106436064616
 40
0.9855142724333562
 40
1.0
 40
1.0
 40
1.0
 40
1.0
 10
352.2250977012032
 20
506.6395781566209
 30
0.0
 10
352.2252459593378
 20
506.6390103528479
 30
0.0
 10
352.2370789513297
 20
506.5936919794995
 30
0.0
 10
352.1947498748344
 20
506.7520291336055
 30
0.0
 10
352.0973530315914
 20
507.1397962387027
 30
0.0
 10
351.941511537541
 20
507.8009829742728
 30
0.0
 10
351.7032185875851
 20
508.9607197901209
 30
0.0
 10
351.4093454477892
 20
510.8906911955506
 30
0.0
 10
351.2595364651967
 20
513.5832529146173
 30
0.0
 10
351.409436070058
 20
516.2810147056932
 30
0.0
 10
351.7079962843698
 20
518.2006402533912
 30
0.0
 10
351.9458722362751
 20
519.3562309472309
 30
0.0
 10
352.0593958987746
 20
519.8370010366825
 30
0.0
 10
352.1077597264791
 20
520.0348492275131
 30
0.0
 10
352.1161106082314
 20
520.0690112639969
 30
0.0
  0
LINE
  5
141
330
1F
100
AcDbEntity
  8
0
  6
Continuous
 62
     8
370
    18
100
AcDbLine
 10
333.8129263038
 20
495.0687072803
 30
0.0
 11
352.2255428734
 21
495.0687072803
 31
0.0
  0
LWPOLYLINE
  5
142
330
1F
100
AcDbEntity
  8
0
  6
Continuous
 62
     8
370
    18
100
AcDbPolyline
 90
       14
 70
   128
 43
0.0
 10
304.2255424562
 20
501.6046993066
 10
304.2605452838
 20
501.595207267
 10
304.5399495068
 20
501.5193305542
 10
305.0955039116
 20
501.3684711982
 10
305.9207264933
 20
501.1443875362
 10
307.0060004147
 20
500.8496872713
 10
308.3386690023
 20
500.4877976705
 10
309.9031977954
 20
500.0629506637
 10
311.6813440474
 20
499.5801083376
 10
313.6523774492
 20
499.0448735286
 10
315.7933176162
 20
498.4635047247
 10
318.0792041721
 20
497.842781954
 10
320.4833854588
 20
497.1899322797
 10
322.9778319264
 20
496.5125850965
  0
SPLINE
  5
143
330
1F
100
AcDbEntity
  8
0
  6
Continuous
 62
     8
370
    18
100
AcDbSpline
210
0.0
220
0.0
230
1.0
 70
     8
 71
     3
 72
    14
 73
    10
 74
     0
 42
0.000000001
 43
0.00000001
 40
0.0
 40
0.0
 40
0.0
 40
0.0
 40
0.25
 40
0.25
 40
0.5
 40
0.5
 40
0.75
 40
0.75
 40
1.0
 40
1.0
 40
1.0
 40
1.0
 10
350.6228129304533
 20
521.5687067165122
 30
0.0
 10
350.8182466873545
 20
521.5687019353438
 30
0.0
 10
351.0136026473914
 20
521.5296675720608
 30
0.0
 10
351.3747219735588
 20
521.3794215318051
 30
0.0
 10
351.5403433363189
 20
521.2682689362564
 30
0.0
 10
351.8167529864366
 20
520.9906535021798
 30
0.0
 10
351.9274325809077
 20
520.8242998306902
 30
0.0
 10
352.0770636744651
 20
520.4615674007067
 30
0.0
 10
352.1159563339434
 20
520.2653312799061
 30
0.0
 10
352.1159958570934
 20
520.069010066419
 30
0.0
  0
SPLINE
  5
144
330
1F
100
AcDbEntity
  8
0
  6
Continuous
 62
     8
370
    18
100
AcDbSpline
210
0.0
220
0.0
230
1.0
 70
     8
 71
     3
 72
    51
 73
    47
 74
     0
 42
0.000000001
 43
0.00000001
 40
0.0
 40
0.0
 40
0.0
 40
0.0
 40
0.0064481236269585
 40
0.0128865905689034
 40
0.0193189808653561
 40
0.0257488847059182
 40
0.0321798964444863
 40
0.0386156085786842
 40
0.0450596057448096
 40
0.0515154587783033
 40
0.0579867188884801
 40
0.0644769119940571
 40
0.0709895332629921
 40
0.077528041896347
 40
0.0840958561914883
 40
0.0906963489150493
 40
0.0973328430108475
 40
0.1040086076625558
 40
0.1107268547254619
 40
0.1396099723023947
 40
0.1687003391313592
 40
0.1982280827363062
 40
0.2284133339390129
 40
0.292915289956679
 40
0.3563561245998271
 40
0.4050711963747768
 40
0.45257892422804
 40
0.5000728860776711
 40
0.5476629704320305
 40
0.5952793311671543
 40
0.6441236652252799
 40
0.7075121910286725
 40
0.7719665068052047
 40
0.801998116146797
 40
0.8313824877144692
 40
0.8603366484024937
 40
0.8890873639680447
 40
0.9017628260649249
 40
0.9142965034830536
 40
0.9267106640532243
 40
0.9390282238146013
 40
0.9512726411974679
 40
0.963467796725748
 40
0.975637860916173
 40
0.9878071537941837
 40
1.0
 40
1.0
 40
1.0
 40
1.0
 10
352.2255426647776
 20
439.8731422209586
 30
0.0
 10
352.2249809987936
 20
439.8739923783319
 30
0.0
 10
352.2238585079744
 20
439.875691419886
 30
0.0
 10
352.2147951401241
 20
439.8893892540023
 30
0.0
 10
352.2003737811231
 20
439.9112542048831
 30
0.0
 10
352.1801036418857
 20
439.9420831445933
 30
0.0
 10
352.1541671434121
 20
439.9816627741315
 30
0.0
 10
352.1225680953696
 20
440.030050165899
 30
0.0
 10
352.0853597224889
 20
440.0872299150557
 30
0.0
 10
352.0425835231073
 20
440.1532060112851
 30
0.0
 10
351.9942856278553
 20
440.2279772028318
 30
0.0
 10
351.9405123667231
 20
440.3115436093026
 30
0.0
 10
351.8813114292077
 20
440.4039049576731
 30
0.0
 10
351.8167314776992
 20
440.5050610255674
 30
0.0
 10
351.7468223412655
 20
440.6150116557457
 30
0.0
 10
351.6716344349021
 20
440.7337562683476
 30
0.0
 10
351.5912207124161
 20
440.8612958315952
 30
0.0
 10
351.5056291884708
 20
440.9976254287549
 30
0.0
 10
351.3154078442905
 20
441.3020208004743
 30
0.0
 10
350.9864349005709
 20
441.833084352002
 30
0.0
 10
350.4756694710818
 20
442.6863147102108
 30
0.0
 10
349.9080175466186
 20
443.6798845912691
 30
0.0
 10
349.0700070939779
 20
445.2302068633566
 30
0.0
 10
347.9553242866707
 20
447.4908939680454
 30
0.0
 10
346.8376731752073
 20
450.4026328071502
 30
0.0
 10
346.049841664301
 20
453.2614943000675
 30
0.0
 10
345.5962794585335
 20
455.974503716091
 30
0.0
 10
345.4461328605765
 20
458.7363553295951
 30
0.0
 10
345.5974602608956
 20
461.5002665138952
 30
0.0
 10
346.0539352415863
 20
464.218947644471
 30
0.0
 10
346.8447850494831
 20
467.0796333525563
 30
0.0
 10
347.9640100970302
 20
469.9894597776905
 30
0.0
 10
349.0770183904459
 20
472.244256974564
 30
0.0
 10
349.9123493864817
 20
473.7887691644873
 30
0.0
 10
350.4770175705523
 20
474.7768328581441
 30
0.0
 10
350.9853525006175
 20
475.6259914543206
 30
0.0
 10
351.3434586895722
 20
476.20429417817
 30
0.0
 10
351.5813697534127
 20
476.5843433594432
 30
0.0
 10
351.7306621509625
 20
476.8207626208822
 30
0.0
 10
351.8610807485688
 20
477.0256784156415
 30
0.0
 10
351.9723005144613
 20
477.1990821882586
 30
0.0
 10
352.0639467483702
 20
477.3409177582946
 30
0.0
 10
352.1358372189767
 20
477.4513853967682
 30
0.0
 10
352.1871580158599
 20
477.5297177189645
 30
0.0
 10
352.219517665071
 20
477.5787640793644
 30
0.0
 10
352.2235330375207
 20
477.5848208264771
 30
0.0
 10
352.2255426647776
 20
477.5878521278666
 30
0.0
  0
LINE
  5
145
330
1F
100
AcDbEntity
  8
0
  6
Continuous
 62
     8
370
    18
100
AcDbLine
 10
352.2255428734
 20
491.0687140752
 30
0.0
 11
304.2255424562
 21
491.0687140752
 31
0.0
  0
SPLINE
  5
146
330
1F
100
AcDbEntity
  8
0
  6
Continuous
 62
     8
370
    18
100
AcDbSpline
210
0.0
220
0.0
230
1.0
 70
     8
 71
     3
 72
    57
 73
    53
 74
     0
 42
0.000000001
 43
0.00000001
 40
0.0
 40
0.0
 40
0.0
 40
0.0
 40
0.0075186495534094
 40
0.0150767455764517
 40
0.0226763062499603
 40
0.0303193172236294
 40
0.0380077307991058
 40
0.0457434652208898
 40
0.0535284040725587
 40
0.0613643957752969
 40
0.0692532531852284
 40
0.0771967532856422
 40
0.085196636969869
 40
0.0932546089103018
 40
0.1013723375088272
 40
0.109551454923813
 40
0.1177935571686879
 40
0.1261002042771166
 40
0.1526112456586385
 40
0.1828202569904735
 40
0.2167580497292321
 40
0.254446542735365
 40
0.2888966954532303
 40
0.3102315225675944
 40
0.3184406509998431
 40
0.3325131135894176
 40
0.3457983800842303
 40
0.3582980377466176
 40
0.3700140280642779
 40
0.3809487447626251
 40
0.443237159332792
 40
0.4999566592683612
 40
0.5565355923503705
 40
0.6186456810145268
 40
0.6475226344558028
 40
0.6812830216711555
 40
0.6990760953282246
 40
0.7451446784323776
 40
0.7708372003165217
 40
0.7948427491933249
 40
0.8171670475925968
 40
0.8378171028148201
 40
0.8568016645317038
 40
0.8741318952751445
 40
0.8906455590854797
 40
0.90690915918112
 40
0.9229355630182711
 40
0.9387382122144782
 40
0.9543311218089013
 40
0.9697288743563163
 40
0.9849466082826125
 40
1.0
 40
1.0
 40
1.0
 40
1.0
 10
357.1666436595284
 20
472.6294732637949
 30
0.0
 10
357.1660958446429
 20
472.6286762910277
 30
0.0
 10
357.1649973407702
 20
472.6270781641888
 30
0.0
 10
357.1562336572179
 20
472.6141057818135
 30
0.0
 10
357.1422701341467
 20
472.5932562233661
 30
0.0
 10
357.1225882198315
 20
472.5636554836158
 30
0.0
 10
357.0973281110944
 20
472.5254022739122
 30
0.0
 10
357.0664520082199
 20
472.4783390278312
 30
0.0
 10
357.029970221991
 20
472.4223843254551
 30
0.0
 10
356.9878800604334
 20
472.3574433541995
 30
0.0
 10
356.9401823250655
 20
472.2834324441027
 30
0.0
 10
356.8868769558349
 20
472.200272748986
 30
0.0
 10
356.827963804107
 20
472.1078923008266
 30
0.0
 10
356.7634439506627
 20
472.006225698779
 30
0.0
 10
356.6933135851584
 20
471.8952148148079
 30
0.0
 10
356.617587413621
 20
471.7748078017407
 30
0.0
 10
356.5362102176174
 20
471.6449639255133
 30
0.0
 10
356.3862019127729
 20
471.4042314076225
 30
0.0
 10
356.1297297327947
 20
470.9954991671096
 30
0.0
 10
355.7257224691766
 20
470.3297582964266
 30
0.0
 10
355.2328188613936
 20
469.4680340488074
 30
0.0
 10
354.6829215708096
 20
468.4506362944587
 30
0.0
 10
354.1866356429761
 20
467.4566181370999
 30
0.0
 10
353.8500150814592
 20
466.7281149481569
 30
0.0
 10
353.6193482525132
 20
466.2164477362997
 30
0.0
 10
353.440284733941
 20
465.787070200386
 30
0.0
 10
353.243639955641
 20
465.2926541750529
 30
0.0
 10
353.0655329762517
 20
464.8153941327201
 30
0.0
 10
352.905321978778
 20
464.3577846688482
 30
0.0
 10
352.5371604515541
 20
463.2296869101025
 30
0.0
 10
352.0918743424797
 20
461.3829250111486
 30
0.0
 10
351.8600012798098
 20
458.7351222737927
 30
0.0
 10
352.0901653282436
 20
456.0895025162203
 30
0.0
 10
352.594349901716
 20
453.99231262761
 30
0.0
 10
353.1616380438086
 20
452.3607085024852
 30
0.0
 10
353.5602640349022
 20
451.367845364535
 30
0.0
 10
354.0774378299538
 20
450.2333820007485
 30
0.0
 10
354.5517068075729
 20
449.2630446349754
 30
0.0
 10
355.0518513883458
 20
448.3277791999142
 30
0.0
 10
355.411671403465
 20
447.6782488404514
 30
0.0
 10
355.7316460781396
 20
447.1252626959364
 30
0.0
 10
356.0110468847283
 20
446.6599638130436
 30
0.0
 10
356.2502647706393
 20
446.2734612206559
 30
0.0
 10
356.4517985831564
 20
445.951575103639
 30
0.0
 10
356.6212046770228
 20
445.6800825614033
 30
0.0
 10
356.7668420307401
 20
445.4492683576755
 30
0.0
 10
356.8900026067537
 20
445.2556794938351
 30
0.0
 10
356.990796361318
 20
445.0989106791553
 30
0.0
 10
357.0693372467604
 20
444.9781351713306
 30
0.0
 10
357.1250596604941
 20
444.8935069293856
 30
0.0
 10
357.1600623984731
 20
444.8411505354689
 30
0.0
 10
357.1644578601768
 20
444.8347192633655
 30
0.0
 10
357.1666436595284
 20
444.8315210850303
 30
0.0
  0
SPLINE
  5
147
330
1F
100
AcDbEntity
  8
0
  6
Continuous
 62
     8
370
    18
100
AcDbSpline
210
0.0
220
0.0
230
1.0
 70
    24
 71
     3
 72
    15
 73
    11
 74
     0
 42
0.000000001
 43
0.00000001
 40
0.5
 40
0.5
 40
0.5
 40
0.5
 40
0.5625
 40
0.625
 40
0.6875
 40
0.75
 40
0.8125
 40
0.875
 40
0.9375
 40
1.0
 40
1.0
 40
1.0
 40
1.0
 10
450.9648792513178
 20
432.9977834700708
 30
0.0
 10
450.9648792513178
 20
432.9977834700708
 30
0.0
 10
451.4481690769859
 20
433.5160483569904
 30
0.0
 10
453.5147705552573
 20
435.7322071183796
 30
0.0
 10
456.607258756729
 20
439.0484947017583
 30
0.0
 10
460.2552371404904
 20
442.9604725753507
 30
0.0
 10
463.9032155242501
 20
446.8724504489408
 30
0.0
 10
466.9957037257233
 20
450.1887380323213
 30
0.0
 10
469.0623052039937
 20
452.4048967937093
 30
0.0
 10
469.5455950296622
 20
452.9231616806293
 30
0.0
 10
469.5455950296622
 20
452.9231616806293
 30
0.0
  0
SPLINE
  5
148
330
1F
100
AcDbEntity
  8
0
  6
Continuous
 62
     8
370
    18
100
AcDbSpline
210
0.0
220
0.0
230
1.0
 70
    24
 71
     3
 72
    22
 73
    18
 74
     0
 42
0.000000001
 43
0.00000001
 40
0.0
 40
0.0
 40
0.0
 40
0.0
 40
0.1249999999999995
 40
0.1249999999999995
 40
0.249999999999999
 40
0.249999999999999
 40
0.3749999999999985
 40
0.3749999999999985
 40
0.499999999999998
 40
0.499999999999998
 40
0.6249999999999984
 40
0.6249999999999984
 40
0.749999999999999
 40
0.749999999999999
 40
0.8749999999999994
 40
0.8749999999999994
 40
1.0
 40
1.0
 40
1.0
 40
1.0
 10
408.4789927210599
 20
445.0106357001279
 30
0.0
 10
408.4789927210599
 20
445.0106357001279
 30
0.0
 10
408.4789927210599
 20
445.367726970785
 30
0.0
 10
408.4789927210599
 20
446.7422689680766
 30
0.0
 10
408.4789927210599
 20
447.7591788711309
 30
0.0
 10
408.4789927210599
 20
450.2990013068807
 30
0.0
 10
408.4789927210599
 20
451.8209145279034
 30
0.0
 10
408.4789927210599
 20
455.1393524598161
 30
0.0
 10
408.4789927210599
 20
456.9345715070842
 30
0.0
 10
408.4789927210599
 20
460.526422841741
 30
0.0
 10
408.4789927210599
 20
462.3216418890089
 30
0.0
 10
408.4789927210599
 20
465.6400798209218
 30
0.0
 10
408.47899272106
 20
467.1619930419445
 30
0.0
 10
408.4789927210599
 20
469.7018154776942
 30
0.0
 10
408.4789927210599
 20
470.7187253807485
 30
0.0
 10
408.47899272106
 20
472.0932673780402
 30
0.0
 10
408.47899272106
 20
472.4503586486973
 30
0.0
 10
408.4789927210599
 20
472.4503586486973
 30
0.0
  0
LWPOLYLINE
  5
149
330
1F
100
AcDbEntity
  8
0
  6
Continuous
 62
     8
370
    18
100
AcDbPolyline
 90
       23
 70
   128
 43
0.0
 10
454.4324771168
 20
429.7641895343
 10
454.5429543259
 20
429.8507578303
 10
454.8721358779
 20
430.1086969306
 10
455.4133013489
 20
430.5327616264
 10
456.1554536822
 20
431.1143166949
 10
457.0834831002
 20
431.8415231635
 10
458.1784949305
 20
432.6995767285
 10
459.418197036
 20
433.6710057785
 10
460.7773468497
 20
434.7360439231
 10
462.2282729151
 20
435.8730025221
 10
463.7414709332
 20
437.0587400724
 10
465.2860955002
 20
438.2691241433
 10
466.8307200673
 20
439.4795007636
 10
468.3439180853
 20
440.6652383138
 10
469.7948441508
 20
441.8021969129
 10
471.1540088656
 20
442.8672350575
 10
472.39369607
 20
443.8386641075
 10
473.4887079003
 20
444.6967176725
 10
474.4167373183
 20
445.4239241411
 10
475.1588896515
 20
446.0054792096
 10
475.7000551226
 20
446.4295439054
 10
476.0292366746
 20
446.6874830057
 10
476.1397138836
 20
446.7740513016
  0
LWPOLYLINE
  5
14A
330
1F
100
AcDbEntity
  8
0
  6
Continuous
 62
     8
370
    18
100
AcDbPolyline
 90
        5
 70
   128
 43
0.0
 10
352.1999072882
 20
520.1794884731
 10
352.226153821
 20
520.2140889694
 10
352.116127372
 20
520.0690261652
 10
352.1161217841
 20
520.069011264
 10
352.1161217841
 20
520.069011264
  0
SPLINE
  5
14B
330
1F
100
AcDbEntity
  8
0
  6
Continuous
 62
     8
370
    18
100
AcDbSpline
210
0.0
220
0.0
230
1.0
 70
     8
 71
     3
 72
    20
 73
    16
 74
     0
 42
0.000000001
 43
0.00000001
 40
0.0
 40
0.0
 40
0.0
 40
0.0
 40
0.0634611325104543
 40
0.1315871942285188
 40
0.2590660627533533
 40
0.3312232171614582
 40
0.3953673313895225
 40
0.4994237161914596
 40
0.6035621284299051
 40
0.6675245775377252
 40
0.739352387419562
 40
0.8667096152696161
 40
0.9349276691165541
 40
0.9991460460497427
 40
1.0
 40
1.0
 40
1.0
 40
1.0
 10
354.6979938300961
 20
518.0215023089951
 30
0.0
 10
354.6932773385991
 20
518.004533946866
 30
0.0
 10
354.6834976536466
 20
517.9693499046831
 30
0.0
 10
354.5881766272139
 20
517.5896900907128
 30
0.0
 10
354.417311428891
 20
516.8591534673717
 30
0.0
 10
354.2613115243038
 20
515.8735171520801
 30
0.0
 10
354.1495446010527
 20
514.8535289743322
 30
0.0
 10
354.0712344241045
 20
513.5763326663384
 30
0.0
 10
354.1480770938446
 20
512.299401075768
 30
0.0
 10
354.2591866034393
 20
511.2789660369558
 30
0.0
 10
354.4137700305371
 20
510.295267025543
 30
0.0
 10
354.589031697924
 20
509.5453962891651
 30
0.0
 10
354.6763521927883
 20
509.1947411718792
 30
0.0
 10
354.7059979073687
 20
509.0854422827553
 30
0.0
 10
354.6980460297141
 20
509.1157092456645
 30
0.0
 10
354.6979416760319
 20
509.1161064435548
 30
0.0
  0
LINE
  5
14C
330
1F
100
AcDbEntity
  8
0
  6
Continuous
 62
     8
370
    18
100
AcDbLine
 10
426.7281637194
 20
513.5687075187
 30
0.0
 11
426.7281637194
 21
517.896794491
 31
0.0
  0
LINE
  5
14D
330
1F
100
AcDbEntity
  8
0
  6
Continuous
 62
     8
370
    18
100
AcDbLine
 10
426.7281637194
 20
509.2406205465
 30
0.0
 11
426.7281637194
 21
513.5687075187
 31
0.0
  0
LINE
  5
14E
330
1F
100
AcDbEntity
  8
0
  6
Continuous
 62
     8
370
    18
100
AcDbLine
 10
353.1760898086
 20
497.7872900297
 30
0.0
 11
353.1760898086
 21
505.3501210739
 31
0.0
  0
LWPOLYLINE
  5
14F
330
1F
100
AcDbEntity
  8
0
  6
Continuous
 62
     8
370
    18
100
AcDbPolyline
 90
        6
 70
   128
 43
0.0
 10
301.906204656
 20
377.1407127012
 10
302.0333245995
 20
377.1869808067
 10
302.3974866274
 20
377.3195266356
 10
302.9494312259
 20
377.5204166402
 10
303.6144886764
 20
377.7624785532
 10
304.3026913556
 20
378.0129633476
  0
LINE
  5
150
330
1F
100
AcDbEntity
  8
0
  6
Continuous
 62
     8
370
    18
100
AcDbLine
 10
300.0268199148
 20
378.4566752245
 30
0.0
 11
300.0268199148
 21
382.4566758801
 31
0.0
  0
ENDSEC
  0
SECTION
  2
OBJECTS
  0
DICTIONARY
  5
C
330
0
100
AcDbDictionary
281
     1
  3
ACAD_GROUP
350
D
  3
ACAD_LAYOUT
350
1A
  3
ACAD_MLINESTYLE
350
17
  3
ACAD_PLOTSETTINGS
350
19
  3
ACAD_PLOTSTYLENAME
350
E
  3
ACAD_SCALELIST
350
47
  0
DICTIONARY
  5
D
102
{ACAD_REACTORS
330
C
102
}
330
C
100
AcDbDictionary
281
     1
  0
DICTIONARY
  5
1A
102
{ACAD_REACTORS
330
C
102
}
330
C
100
AcDbDictionary
281
     1
  3
Layout1
350
1E
  3
Layout2
350
26
  3
Model
350
22
  0
DICTIONARY
  5
17
102
{ACAD_REACTORS
330
C
102
}
330
C
100
AcDbDictionary
281
     1
  3
Standard
350
18
  0
DICTIONARY
  5
19
102
{ACAD_REACTORS
330
C
102
}
330
C
100
AcDbDictionary
281
     1
  0
ACDBDICTIONARYWDFLT
  5
E
102
{ACAD_REACTORS
330
C
102
}
330
C
100
AcDbDictionary
281
     1
  3
Normal
350
F
100
AcDbDictionaryWithDefault
340
F
  0
DICTIONARY
  5
47
102
{ACAD_REACTORS
330
C
102
}
330
C
100
AcDbDictionary
281
     1
  3
A0
350
48
  3
A1
350
49
  3
A2
350
4A
  3
A3
350
4B
  3
A4
350
4C
  3
A5
350
4D
  3
A6
350
4E
  3
A7
350
4F
  3
A8
350
50
  3
A9
350
51
  3
B0
350
52
  3
B1
350
53
  3
B2
350
54
  3
B3
350
55
  3
B4
350
56
  3
B5
350
57
  3
B6
350
58
  3
B7
350
59
  3
B8
350
5A
  3
B9
350
5B
  3
C0
350
5C
  3
C1
350
5D
  3
C2
350
5E
  3
C3
350
5F
  3
C4
350
60
  3
C5
350
61
  3
C6
350
62
  3
C7
350
63
  3
C8
350
64
  3
C9
350
65
  3
D0
350
66
  3
D1
350
67
  3
D2
350
68
  0
LAYOUT
  5
1E
102
{ACAD_REACTORS
330
1A
102
}
330
1A
100
AcDbPlotSettings
  1

  2
none_device
  4

  6

 40
0.0
 41
0.0
 42
0.0
 43
0.0
 44
0.0
 45
0.0
 46
0.0
 47
0.0
 48
0.0
 49
0.0
140
0.0
141
0.0
142
1.0
143
1.0
 70
   688
 72
     1
 73
     0
 74
     5
  7

 75
    16
147
1.0
148
0.0
149
0.0
100
AcDbLayout
  1
Layout1
 70
     1
 71
     1
 10
0.0
 20
0.0
 11
420.0
 21
297.0
 12
0.0
 22
0.0
 32
0.0
 14
1.0000000000E+20
 24
1.0000000000E+20
 34
1.0000000000E+20
 15
-1.0000000000E+20
 25
-1.0000000000E+20
 35
-1.0000000000E+20
146
0.0
 13
0.0
 23
0.0
 33
0.0
 16
1.0
 26
0.0
 36
0.0
 17
0.0
 27
1.0
 37
0.0
 76
     0
330
1B
  0
LAYOUT
  5
26
102
{ACAD_REACTORS
330
1A
102
}
330
1A
100
AcDbPlotSettings
  1

  2
none_device
  4

  6

 40
0.0
 41
0.0
 42
0.0
 43
0.0
 44
0.0
 45
0.0
 46
0.0
 47
0.0
 48
0.0
 49
0.0
140
0.0
141
0.0
142
1.0
143
1.0
 70
   688
 72
     1
 73
     0
 74
     5
  7

 75
    16
147
1.0
148
0.0
149
0.0
100
AcDbLayout
  1
Layout2
 70
     1
 71
     2
 10
0.0
 20
0.0
 11
0.0
 21
0.0
 12
0.0
 22
0.0
 32
0.0
 14
0.0
 24
0.0
 34
0.0
 15
0.0
 25
0.0
 35
0.0
146
0.0
 13
0.0
 23
0.0
 33
0.0
 16
1.0
 26
0.0
 36
0.0
 17
0.0
 27
1.0
 37
0.0
 76
     0
330
23
  0
LAYOUT
  5
22
102
{ACAD_REACTORS
330
1A
102
}
330
1A
100
AcDbPlotSettings
  1

  2
none_device
  4
Letter_(8.50_x_11.00_Inches)
  6

 40
6.35
 41
6.35
 42
6.35000508
 43
6.35000508
 44
215.9
 45
279.4
 46
0.0
 47
0.0
 48
0.0
 49
0.0
140
0.0
141
0.0
142
1.0
143
1.0
 70
  1712
 72
     1
 73
     0
 74
     0
  7

 75
     0
147
1.0
148
0.0
149
0.0
100
AcDbLayout
  1
Model
 70
     1
 71
     0
 10
0.0
 20
0.0
 11
594.0
 21
841.0
 12
0.0
 22
0.0
 32
0.0
 14
0.0
 24
0.0
 34
0.0
 15
594.0
 25
841.0
 35
0.0
146
0.0
 13
0.0
 23
0.0
 33
0.0
 16
1.0
 26
0.0
 36
0.0
 17
0.0
 27
1.0
 37
0.0
 76
     0
330
1F
331
29
  0
MLINESTYLE
  5
18
102
{ACAD_REACTORS
330
17
102
}
330
17
100
AcDbMlineStyle
  2
Standard
 70
     0
  3

 62
   256
 51
90.0
 52
90.0
 71
     2
 49
0.5
 62
   256
  6
BYLAYER
 49
-0.5
 62
   256
  6
BYLAYER
  0
ACDBPLACEHOLDER
  5
F
102
{ACAD_REACTORS
330
E
102
}
330
E
  0
SCALE
  5
48
102
{ACAD_REACTORS
330
47
102
}
330
47
100
AcDbScale
 70
     0
300
1:1
140
1.0
141
1.0
290
     1
  0
SCALE
  5
49
102
{ACAD_REACTORS
330
47
102
}
330
47
100
AcDbScale
 70
     0
300
1:2
140
1.0
141
2.0
290
     0
  0
SCALE
  5
4A
102
{ACAD_REACTORS
330
47
102
}
330
47
100
AcDbScale
 70
     0
300
1:4
140
1.0
141
4.0
290
     0
  0
SCALE
  5
4B
102
{ACAD_REACTORS
330
47
102
}
330
47
100
AcDbScale
 70
     0
300
1:5
140
1.0
141
5.0
290
     0
  0
SCALE
  5
4C
102
{ACAD_REACTORS
330
47
102
}
330
47
100
AcDbScale
 70
     0
300
1:8
140
1.0
141
8.0
290
     0
  0
SCALE
  5
4D
102
{ACAD_REACTORS
330
47
102
}
330
47
100
AcDbScale
 70
     0
300
1:10
140
1.0
141
10.0
290
     0
  0
SCALE
  5
4E
102
{ACAD_REACTORS
330
47
102
}
330
47
100
AcDbScale
 70
     0
300
1:16
140
1.0
141
16.0
290
     0
  0
SCALE
  5
4F
102
{ACAD_REACTORS
330
47
102
}
330
47
100
AcDbScale
 70
     0
300
1:20
140
1.0
141
20.0
290
     0
  0
SCALE
  5
50
102
{ACAD_REACTORS
330
47
102
}
330
47
100
AcDbScale
 70
     0
300
1:30
140
1.0
141
30.0
290
     0
  0
SCALE
  5
51
102
{ACAD_REACTORS
330
47
102
}
330
47
100
AcDbScale
 70
     0
300
1:40
140
1.0
141
40.0
290
     0
  0
SCALE
  5
52
102
{ACAD_REACTORS
330
47
102
}
330
47
100
AcDbScale
 70
     0
300
1:50
140
1.0
141
50.0
290
     0
  0
SCALE
  5
53
102
{ACAD_REACTORS
330
47
102
}
330
47
100
AcDbScale
 70
     0
300
1:100
140
1.0
141
100.0
290
     0
  0
SCALE
  5
54
102
{ACAD_REACTORS
330
47
102
}
330
47
100
AcDbScale
 70
     0
300
2:1
140
2.0
141
1.0
290
     0
  0
SCALE
  5
55
102
{ACAD_REACTORS
330
47
102
}
330
47
100
AcDbScale
 70
     0
300
4:1
140
4.0
141
1.0
290
     0
  0
SCALE
  5
56
102
{ACAD_REACTORS
330
47
102
}
330
47
100
AcDbScale
 70
     0
300
8:1
140
8.0
141
1.0
290
     0
  0
SCALE
  5
57
102
{ACAD_REACTORS
330
47
102
}
330
47
100
AcDbScale
 70
     0
300
10:1
140
10.0
141
1.0
290
     0
  0
SCALE
  5
58
102
{ACAD_REACTORS
330
47
102
}
330
47
100
AcDbScale
 70
     0
300
100:1
140
100.0
141
1.0
290
     0
  0
SCALE
  5
59
102
{ACAD_REACTORS
330
47
102
}
330
47
100
AcDbScale
 70
     0
300
1/128" = 1'-0"
140
0.0078125
141
12.0
290
     0
  0
SCALE
  5
5A
102
{ACAD_REACTORS
330
47
102
}
330
47
100
AcDbScale
 70
     0
300
1/64" = 1'-0"
140
0.015625
141
12.0
290
     0
  0
SCALE
  5
5B
102
{ACAD_REACTORS
330
47
102
}
330
47
100
AcDbScale
 70
     0
300
1/32" = 1'-0"
140
0.03125
141
12.0
290
     0
  0
SCALE
  5
5C
102
{ACAD_REACTORS
330
47
102
}
330
47
100
AcDbScale
 70
     0
300
1/16" = 1'-0"
140
0.0625
141
12.0
290
     0
  0
SCALE
  5
5D
102
{ACAD_REACTORS
330
47
102
}
330
47
100
AcDbScale
 70
     0
300
3/32" = 1'-0"
140
0.09375
141
12.0
290
     0
  0
SCALE
  5
5E
102
{ACAD_REACTORS
330
47
102
}
330
47
100
AcDbScale
 70
     0
300
1/8" = 1'-0"
140
0.125
141
12.0
290
     0
  0
SCALE
  5
5F
102
{ACAD_REACTORS
330
47
102
}
330
47
100
AcDbScale
 70
     0
300
3/16" = 1'-0"
140
0.1875
141
12.0
290
     0
  0
SCALE
  5
60
102
{ACAD_REACTORS
330
47
102
}
330
47
100
AcDbScale
 70
     0
300
1/4" = 1'-0"
140
0.25
141
12.0
290
     0
  0
SCALE
  5
61
102
{ACAD_REACTORS
330
47
102
}
330
47
100
AcDbScale
 70
     0
300
3/8" = 1'-0"
140
0.375
141
12.0
290
     0
  0
SCALE
  5
62
102
{ACAD_REACTORS
330
47
102
}
330
47
100
AcDbScale
 70
     0
300
1/2" = 1'-0"
140
0.5
141
12.0
290
     0
  0
SCALE
  5
63
102
{ACAD_REACTORS
330
47
102
}
330
47
100
AcDbScale
 70
     0
300
3/4" = 1'-0"
140
0.75
141
12.0
290
     0
  0
SCALE
  5
64
102
{ACAD_REACTORS
330
47
102
}
330
47
100
AcDbScale
 70
     0
300
1" = 1'-0"
140
1.0
141
12.0
290
     0
  0
SCALE
  5
65
102
{ACAD_REACTORS
330
47
102
}
330
47
100
AcDbScale
 70
     0
300
1-1/2" = 1'-0"
140
1.5
141
12.0
290
     0
  0
SCALE
  5
66
102
{ACAD_REACTORS
330
47
102
}
330
47
100
AcDbScale
 70
     0
300
3" = 1'-0"
140
3.0
141
12.0
290
     0
  0
SCALE
  5
67
102
{ACAD_REACTORS
330
47
102
}
330
47
100
AcDbScale
 70
     0
300
6" = 1'-0"
140
6.0
141
12.0
290
     0
  0
SCALE
  5
68
102
{ACAD_REACTORS
330
47
102
}
330
47
100
AcDbScale
 70
     0
300
1'-0" = 1'-0"
140
12.0
141
12.0
290
     0
  0
ENDSEC
  0
EOF
