  0
SECTION
  2
HEADER
  9
$ACADVER
  1
AC1014
  9
$ACADMAINTVER
 70
     9
  9
$DWGCODEPAGE
  3
ANSI_1252
  9
$INSBASE
 10
0.0
 20
0.0
 30
0.0
  9
$EXTMIN
 10
0.0
 20
0.0
 30
0.0
  9
$EXTMAX
 10
594.0
 20
841.0
 30
0.0
  9
$LIMMIN
 10
0.0
 20
0.0
  9
$LIMMAX
 10
594.0
 20
841.0
  9
$ORTHOMODE
 70
     0
  9
$REGENMODE
 70
     1
  9
$FILLMODE
 70
     1
  9
$QTEXTMODE
 70
     0
  9
$MIRRTEXT
 70
     1
  9
$DRAGMODE
 70
     2
  9
$LTSCALE
 40
1.0
  9
$OSMODE
 70
    37
  9
$ATTMODE
 70
     1
  9
$TEXTSIZE
 40
10.0
  9
$TRACEWID
 40
1.0
  9
$TEXTSTYLE
  7
STANDARD
  9
$CLAYER
  8
0
  9
$CELTYPE
  6
BYLAYER
  9
$CECOLOR
 62
   256
  9
$CELTSCALE
 40
1.0
  9
$DELOBJ
 70
     1
  9
$DISPSILH
 70
     0
  9
$DIMSCALE
 40
1.0
  9
$DIMASZ
 40
2.5
  9
$DIMEXO
 40
0.0
  9
$DIMDLI
 40
3.75
  9
$DIMRND
 40
0.0
  9
$DIMDLE
 40
0.0
  9
$DIMEXE
 40
1.0
  9
$DIMTP
 40
0.0
  9
$DIMTM
 40
0.0
  9
$DIMTXT
 40
3.5
  9
$DIMCEN
 40
2.5
  9
$DIMTSZ
 40
0.0
  9
$DIMTOL
 70
     0
  9
$DIMLIM
 70
     0
  9
$DIMTIH
 70
     1
  9
$DIMTOH
 70
     1
  9
$DIMSE1
 70
     0
  9
$DIMSE2
 70
     0
  9
$DIMTAD
 70
     1
  9
$DIMZIN
 70
     0
  9
$DIMBLK
  1

  9
$DIMASO
 70
     1
  9
$DIMSHO
 70
     1
  9
$DIMPOST
  1

  9
$DIMAPOST
  1

  9
$DIMALT
 70
     0
  9
$DIMALTD
 70
     3
  9
$DIMALTF
 40
0.0393700787
  9
$DIMLFAC
 40
1.0
  9
$DIMTOFL
 70
     1
  9
$DIMTVP
 40
0.0
  9
$DIMTIX
 70
     0
  9
$DIMSOXD
 70
     0
  9
$DIMSAH
 70
     0
  9
$DIMBLK1
  1

  9
$DIMBLK2
  1

  9
$DIMSTYLE
  2
ISO-25
  9
$DIMCLRD
 70
     0
  9
$DIMCLRE
 70
     0
  9
$DIMCLRT
 70
     0
  9
$DIMTFAC
 40
1.0
  9
$DIMGAP
 40
1.5
  9
$DIMJUST
 70
     0
  9
$DIMSD1
 70
     0
  9
$DIMSD2
 70
     0
  9
$DIMTOLJ
 70
     0
  9
$DIMTZIN
 70
     0
  9
$DIMALTZ
 70
     0
  9
$DIMALTTZ
 70
     0
  9
$DIMFIT
 70
     3
  9
$DIMUPT
 70
     0
  9
$DIMUNIT
 70
     2
  9
$DIMDEC
 70
     2
  9
$DIMTDEC
 70
     2
  9
$DIMALTU
 70
     2
  9
$DIMALTTD
 70
     3
  9
$DIMTXSTY
  7
STANDARD
  9
$DIMAUNIT
 70
     0
  9
$LUNITS
 70
     2
  9
$LUPREC
 70
     2
  9
$SKETCHINC
 40
1.0
  9
$FILLETRAD
 40
10.0
  9
$AUNITS
 70
     0
  9
$AUPREC
 70
     2
  9
$MENU
  1
.
  9
$ELEVATION
 40
0.0
  9
$PELEVATION
 40
0.0
  9
$THICKNESS
 40
0.0
  9
$LIMCHECK
 70
     0
  9
$CHAMFERA
 40
0.0
  9
$CHAMFERB
 40
0.0
  9
$CHAMFERC
 40
0.0
  9
$CHAMFERD
 40
0.0
  9
$SKPOLY
 70
     0
  9
$TDCREATE
 40
2456994.53347691
  9
$TDUPDATE
 40
2456994.533477269
  9
$TDINDWG
 40
0.0000000116
  9
$TDUSRTIMER
 40
0.0000000116
  9
$USRTIMER
 70
     1
  9
$ANGBASE
 50
0.0
  9
$ANGDIR
 70
     0
  9
$PDMODE
 70
     0
  9
$PDSIZE
 40
-1.0
  9
$PLINEWID
 40
0.0
  9
$COORDS
 70
     1
  9
$SPLFRAME
 70
     0
  9
$SPLINETYPE
 70
     6
  9
$SPLINESEGS
 70
     8
  9
$ATTDIA
 70
     0
  9
$ATTREQ
 70
     1
  9
$HANDLING
 70
     1
  9
$HANDSEED
  5
14C
  9
$SURFTAB1
 70
     6
  9
$SURFTAB2
 70
     6
  9
$SURFTYPE
 70
     6
  9
$SURFU
 70
     6
  9
$SURFV
 70
     6
  9
$UCSNAME
  2

  9
$UCSORG
 10
0.0
 20
0.0
 30
0.0
  9
$UCSXDIR
 10
1.0
 20
0.0
 30
0.0
  9
$UCSYDIR
 10
0.0
 20
1.0
 30
0.0
  9
$PUCSNAME
  2

  9
$PUCSORG
 10
0.0
 20
0.0
 30
0.0
  9
$PUCSXDIR
 10
1.0
 20
0.0
 30
0.0
  9
$PUCSYDIR
 10
0.0
 20
1.0
 30
0.0
  9
$USERI1
 70
     0
  9
$USERI2
 70
     0
  9
$USERI3
 70
     0
  9
$USERI4
 70
     0
  9
$USERI5
 70
     0
  9
$USERR1
 40
0.0
  9
$USERR2
 40
0.0
  9
$USERR3
 40
0.0
  9
$USERR4
 40
0.0
  9
$USERR5
 40
0.0
  9
$WORLDVIEW
 70
     1
  9
$SHADEDGE
 70
     3
  9
$SHADEDIF
 70
    70
  9
$TILEMODE
 70
     1
  9
$MAXACTVP
 70
    64
  9
$PINSBASE
 10
0.0
 20
0.0
 30
0.0
  9
$PLIMCHECK
 70
     0
  9
$PEXTMIN
 10
1.0000000000E+20
 20
1.0000000000E+20
 30
1.0000000000E+20
  9
$PEXTMAX
 10
-1.0000000000E+20
 20
-1.0000000000E+20
 30
-1.0000000000E+20
  9
$PLIMMIN
 10
0.0
 20
0.0
  9
$PLIMMAX
 10
420.0
 20
297.0
  9
$UNITMODE
 70
     0
  9
$VISRETAIN
 70
     1
  9
$PLINEGEN
 70
     0
  9
$PSLTSCALE
 70
     1
  9
$TREEDEPTH
 70
  3020
  9
$PICKSTYLE
 70
     1
  9
$CMLSTYLE
  2
STANDARD
  9
$CMLJUST
 70
     0
  9
$CMLSCALE
 40
20.0
  9
$PROXYGRAPHICS
 70
     1
  9
$MEASUREMENT
 70
     1
  0
ENDSEC
  0
SECTION
  2
CLASSES
  0
CLASS
  1
ACDBDICTIONARYWDFLT
  2
AcDbDictionaryWithDefault
  3
ObjectDBX Classes
 90
        0
280
     0
281
     0
  0
CLASS
  1
VISUALSTYLE
  2
AcDbVisualStyle
  3
ObjectDBX Classes
 90
     4095
280
     0
281
     0
  0
CLASS
  1
MATERIAL
  2
AcDbMaterial
  3
ObjectDBX Classes
 90
     1153
280
     0
281
     0
  0
CLASS
  1
SCALE
  2
AcDbScale
  3
ObjectDBX Classes
 90
     1153
280
     0
281
     0
  0
CLASS
  1
SUN
  2
AcDbSun
  3
SCENEOE
 90
     1153
280
     0
281
     0
  0
CLASS
  1
XRECORD
  2
AcDbXrecord
  3
ObjectDBX Classes
 90
        0
280
     0
281
     0
  0
CLASS
  1
LWPOLYLINE
  2
AcDbPolyline
  3
ObjectDBX Classes
 90
        0
280
     0
281
     1
  0
CLASS
  1
HATCH
  2
AcDbHatch
  3
ObjectDBX Classes
 90
        0
280
     0
281
     1
  0
ENDSEC
  0
SECTION
  2
TABLES
  0
TABLE
  2
VPORT
  5
8
330
0
100
AcDbSymbolTable
 70
     1
  0
VPORT
  5
29
330
8
100
AcDbSymbolTableRecord
100
AcDbViewportTableRecord
  2
*ACTIVE
 70
     0
 10
0.0
 20
0.0
 11
1.0
 21
1.0
 12
297.0
 22
420.5
 13
0.0
 23
0.0
 14
10.0
 24
10.0
 15
10.0
 25
10.0
 16
0.0
 26
0.0
 36
1.0
 17
0.0
 27
0.0
 37
0.0
 40
841.0
 41
0.7063020214
 42
50.0
 43
0.0
 44
0.0
 50
0.0
 51
0.0
 71
     0
 72
  2000
 73
     1
 74
     3
 75
     0
 76
     0
 77
     0
 78
     0
  0
ENDTAB
  0
TABLE
  2
LTYPE
  5
5
330
0
100
AcDbSymbolTable
 70
     6
  0
LTYPE
  5
14
330
5
100
AcDbSymbolTableRecord
100
AcDbLinetypeTableRecord
  2
BYBLOCK
 70
     0
  3

 72
    65
 73
     0
 40
0.0
  0
LTYPE
  5
15
330
5
100
AcDbSymbolTableRecord
100
AcDbLinetypeTableRecord
  2
BYLAYER
 70
     0
  3

 72
    65
 73
     0
 40
0.0
  0
LTYPE
  5
16
330
5
100
AcDbSymbolTableRecord
100
AcDbLinetypeTableRecord
  2
CONTINUOUS
 70
     0
  3
Solid line
 72
    65
 73
     0
 40
0.0
  0
LTYPE
  5
6A
330
5
100
AcDbSymbolTableRecord
100
AcDbLinetypeTableRecord
  2
HIDDEN
 70
     0
  3
Hidden __ __ __ __ __ __ __ __ __ __ __ __ __ __
 72
    65
 73
     2
 40
1.905
 49
1.27
 74
     0
 49
-0.635
 74
     0
  0
LTYPE
  5
6B
330
5
100
AcDbSymbolTableRecord
100
AcDbLinetypeTableRecord
  2
PHANTOM
 70
     0
  3
Phantom ______  __  __  ______  __  __  ______
 72
    65
 73
     6
 40
12.7
 49
6.35
 74
     0
 49
-1.27
 74
     0
 49
1.27
 74
     0
 49
-1.27
 74
     0
 49
1.27
 74
     0
 49
-1.27
 74
     0
  0
LTYPE
  5
6C
330
5
100
AcDbSymbolTableRecord
100
AcDbLinetypeTableRecord
  2
CENTER
 70
     0
  3
Center ____ _ ____ _ ____ _ ____ _ ____ _ ____
 72
    65
 73
     4
 40
10.16
 49
6.35
 74
     0
 49
-1.27
 74
     0
 49
1.27
 74
     0
 49
-1.27
 74
     0
  0
LTYPE
  5
6D
330
5
100
AcDbSymbolTableRecord
100
AcDbLinetypeTableRecord
  2
CENTERX2
 70
     0
  3
Center (2x) ________  __  ________  __  _____
 72
    65
 73
     4
 40
20.32
 49
12.7
 74
     0
 49
-2.54
 74
     0
 49
2.54
 74
     0
 49
-2.54
 74
     0
  0
LTYPE
  5
6E
330
5
100
AcDbSymbolTableRecord
100
AcDbLinetypeTableRecord
  2
DOT2
 70
     0
  3
Dot (.5x) ........................................
 72
    65
 73
     2
 40
0.635
 49
0.0
 74
     0
 49
-0.635
 74
     0
  0
ENDTAB
  0
TABLE
  2
LAYER
  5
2
330
0
100
AcDbSymbolTable
 70
     1
  0
LAYER
  5
10
330
2
100
AcDbSymbolTableRecord
100
AcDbLayerTableRecord
  2
0
 70
     0
 62
     7
  6
CONTINUOUS
  0
ENDTAB
  0
TABLE
  2
STYLE
  5
3
330
0
100
AcDbSymbolTable
 70
     3
  0
STYLE
  5
11
330
3
100
AcDbSymbolTableRecord
100
AcDbTextStyleTableRecord
  2
STANDARD
 70
     0
 40
0.0
 41
1.0
 50
0.0
 71
     0
 42
10.0
  3
txt
  4

  0
STYLE
  5
72
330
3
100
AcDbSymbolTableRecord
100
AcDbTextStyleTableRecord
  2
SLDTEXTSTYLE0
 70
     0
 40
0.0
 41
0.96
 50
0.0
 71
     0
 42
10.0
  3
ISOCP3
  4

  0
STYLE
  5
89
330
3
100
AcDbSymbolTableRecord
100
AcDbTextStyleTableRecord
  2
SLDTEXTSTYLE1
 70
     0
 40
0.0
 41
0.605
 50
0.0
 71
     0
 42
10.0
  3
TXT
  4

  0
ENDTAB
  0
TABLE
  2
VIEW
  5
6
330
0
100
AcDbSymbolTable
 70
     0
  0
ENDTAB
  0
TABLE
  2
UCS
  5
7
330
0
100
AcDbSymbolTable
 70
     0
  0
ENDTAB
  0
TABLE
  2
APPID
  5
9
330
0
100
AcDbSymbolTable
 70
     1
  0
APPID
  5
12
330
9
100
AcDbSymbolTableRecord
100
AcDbRegAppTableRecord
  2
ACAD
 70
     0
  0
ENDTAB
  0
TABLE
  2
DIMSTYLE
  5
A
330
0
100
AcDbSymbolTable
 70
     2
  0
DIMSTYLE
105
27
330
A
100
AcDbSymbolTableRecord
100
AcDbDimStyleTableRecord
  2
ISO-25
 70
     0
  3

  4

  5

  6

  7

 40
1.0
 41
2.5
 42
0.625
 43
3.75
 44
1.25
 45
0.0
 46
0.0
 47
0.0
 48
0.0
140
2.5
141
2.5
142
0.0
143
0.0393700787
144
1.0
145
0.0
146
1.0
147
0.625
 71
     0
 72
     0
 73
     0
 74
     0
 75
     0
 76
     0
 77
     1
 78
     8
170
     0
171
     3
172
     1
173
     0
174
     0
175
     0
176
     0
177
     0
178
     0
270
     2
271
     2
272
     2
273
     2
274
     3
340
11
275
     0
280
     0
281
     0
282
     0
283
     0
284
     8
285
     0
286
     0
287
     3
288
     0
  0
DIMSTYLE
105
73
102
{ACAD_REACTORS
330
71
330
7E
102
}
330
A
100
AcDbSymbolTableRecord
100
AcDbDimStyleTableRecord
  2
SLDDIMSTYLE0
 70
     0
  3

  4

  5

  6

  7

 40
1.0
 41
2.5
 42
0.0625
 43
0.38
 44
0.0
 45
0.000000001
 46
0.0
 47
0.0
 48
0.0
140
6.0
141
0.09
142
0.0
143
25.4
144
1.0
145
0.0
146
1.0
147
1.5
 71
     0
 72
     0
 73
     0
 74
     0
 75
     0
 76
     0
 77
     1
 78
    12
170
     0
171
     2
172
     0
173
     1
174
     0
175
     0
176
     0
177
     0
178
     0
270
     2
271
     2
272
     2
273
     2
274
     2
340
72
275
     0
280
     0
281
     0
282
     0
283
     1
284
    12
285
     0
286
     0
287
     3
288
     0
  0
ENDTAB
  0
TABLE
  2
BLOCK_RECORD
  5
1
330
0
100
AcDbSymbolTable
 70
     3
  0
BLOCK_RECORD
  5
1F
330
1
100
AcDbSymbolTableRecord
100
AcDbBlockTableRecord
  2
*MODEL_SPACE
  0
BLOCK_RECORD
  5
1B
330
1
100
AcDbSymbolTableRecord
100
AcDbBlockTableRecord
  2
*PAPER_SPACE
  0
BLOCK_RECORD
  5
23
330
1
100
AcDbSymbolTableRecord
100
AcDbBlockTableRecord
  2
*PAPER_SPACE0
  0
BLOCK_RECORD
  5
74
330
1
100
AcDbSymbolTableRecord
100
AcDbBlockTableRecord
  2
_D
  0
BLOCK_RECORD
  5
7F
330
1
100
AcDbSymbolTableRecord
100
AcDbBlockTableRecord
  2
_D_1
  0
ENDTAB
  0
ENDSEC
  0
SECTION
  2
BLOCKS
  0
BLOCK
  5
20
330
1F
100
AcDbEntity
  8
0
100
AcDbBlockBegin
  2
*MODEL_SPACE
 70
     0
 10
0.0
 20
0.0
 30
0.0
  3
*MODEL_SPACE
  1

  0
ENDBLK
  5
21
330
1F
100
AcDbEntity
  8
0
100
AcDbBlockEnd
  0
BLOCK
  5
1C
330
1B
100
AcDbEntity
 67
     1
  8
0
100
AcDbBlockBegin
  2
*PAPER_SPACE
 70
     0
 10
0.0
 20
0.0
 30
0.0
  3
*PAPER_SPACE
  1

  0
ENDBLK
  5
1D
330
1B
100
AcDbEntity
 67
     1
  8
0
100
AcDbBlockEnd
  0
BLOCK
  5
24
330
23
100
AcDbEntity
  8
0
100
AcDbBlockBegin
  2
*PAPER_SPACE0
 70
     0
 10
0.0
 20
0.0
 30
0.0
  3
*PAPER_SPACE0
  1
*PAPER_SPACE0
  0
ENDBLK
  5
25
330
23
100
AcDbEntity
  8
0
100
AcDbBlockEnd
  0
BLOCK
  5
75
330
74
100
AcDbEntity
  8
0
100
AcDbBlockBegin
  2
_D
 70
     0
 10
0.0
 20
0.0
 30
0.0
  3
_D
  1
_D
  0
SOLID
  5
77
330
74
100
AcDbEntity
  8
0
  6
CONTINUOUS
 62
     7
100
AcDbTrace
 10
42.7614395004
 20
152.0299240879
 30
0.0
 11
42.4614395004
 21
149.5299240879
 31
0.0
 12
43.0614395004
 22
149.5299240879
 32
0.0
 13
43.0614395004
 23
149.5299240879
 33
0.0
  0
SOLID
  5
78
330
74
100
AcDbEntity
  8
0
  6
CONTINUOUS
 62
     7
100
AcDbTrace
 10
42.7614395004
 20
52.0299240879
 30
0.0
 11
43.0614395004
 21
54.5299240879
 31
0.0
 12
42.4614395004
 22
54.5299240879
 32
0.0
 13
42.4614395004
 23
54.5299240879
 33
0.0
  0
LINE
  5
79
330
74
100
AcDbEntity
  8
0
  6
CONTINUOUS
 62
     7
100
AcDbLine
 10
56.6850079902
 20
152.0299240879
 30
0.0
 11
41.7614395004
 21
152.0299240879
 31
0.0
  0
LINE
  5
7A
330
74
100
AcDbEntity
  8
0
  6
CONTINUOUS
 62
     7
100
AcDbLine
 10
56.6850079902
 20
52.0299240879
 30
0.0
 11
41.7614395004
 21
52.0299240879
 31
0.0
  0
LINE
  5
7B
330
74
100
AcDbEntity
  8
0
  6
CONTINUOUS
 62
     7
100
AcDbLine
 10
42.7614395004
 20
152.0299240879
 30
0.0
 11
42.7614395004
 21
52.0299240879
 31
0.0
  0
MTEXT
  5
7C
330
74
100
AcDbEntity
  8
0
  6
CONTINUOUS
 62
     7
100
AcDbMText
 10
35.0270332946
 20
94.3680541463
 30
0.0
 40
6.0
 41
0.0
 71
     1
 72
     1
  1
100
  7
SLDTEXTSTYLE0
 11
-7.044195017643634E-15
 21
1.0
 31
0.0
  0
MTEXT
  5
7D
330
74
100
AcDbEntity
  8
0
  6
CONTINUOUS
 62
     7
100
AcDbMText
 10
35.0270332946
 20
105.7430548466
 30
0.0
 40
6.0
 41
0.0
 71
     1
 72
     1
  1
mm
  7
SLDTEXTSTYLE0
 11
-7.044195017643634E-15
 21
1.0
 31
0.0
  0
ENDBLK
  5
76
330
74
100
AcDbEntity
  8
0
100
AcDbBlockEnd
  0
BLOCK
  5
80
330
7F
100
AcDbEntity
  8
0
100
AcDbBlockBegin
  2
_D_1
 70
     0
 10
0.0
 20
0.0
 30
0.0
  3
_D_1
  1
_D_1
  0
SOLID
  5
82
330
7F
100
AcDbEntity
  8
0
  6
CONTINUOUS
 62
     7
100
AcDbTrace
 10
56.6850079902
 20
38.4602342313
 30
0.0
 11
59.1850079902
 21
38.1602342313
 31
0.0
 12
59.1850079902
 22
38.7602342313
 32
0.0
 13
59.1850079902
 23
38.7602342313
 33
0.0
  0
SOLID
  5
83
330
7F
100
AcDbEntity
  8
0
  6
CONTINUOUS
 62
     7
100
AcDbTrace
 10
156.6850079902
 20
38.4602342313
 30
0.0
 11
154.1850079902
 21
38.7602342313
 31
0.0
 12
154.1850079902
 22
38.1602342313
 32
0.0
 13
154.1850079902
 23
38.1602342313
 33
0.0
  0
LINE
  5
84
330
7F
100
AcDbEntity
  8
0
  6
CONTINUOUS
 62
     7
100
AcDbLine
 10
56.6850079902
 20
52.0299240879
 30
0.0
 11
56.6850079902
 21
37.4602342313
 31
0.0
  0
LINE
  5
85
330
7F
100
AcDbEntity
  8
0
  6
CONTINUOUS
 62
     7
100
AcDbLine
 10
156.6850079902
 20
52.0299240879
 30
0.0
 11
156.6850079902
 21
37.4602342313
 31
0.0
  0
LINE
  5
86
330
7F
100
AcDbEntity
  8
0
  6
CONTINUOUS
 62
     7
100
AcDbLine
 10
56.6850079902
 20
38.4602342313
 30
0.0
 11
156.6850079902
 21
38.4602342313
 31
0.0
  0
MTEXT
  5
87
330
7F
100
AcDbEntity
  8
0
  6
CONTINUOUS
 62
     7
100
AcDbMText
 10
93.9626484861
 20
46.1946404371
 30
0.0
 40
6.0
 41
0.0
 71
     1
 72
     1
  1
100
  7
SLDTEXTSTYLE0
  0
MTEXT
  5
88
330
7F
100
AcDbEntity
  8
0
  6
CONTINUOUS
 62
     7
100
AcDbMText
 10
105.3376491864
 20
46.1946404371
 30
0.0
 40
6.0
 41
0.0
 71
     1
 72
     1
  1
mm
  7
SLDTEXTSTYLE0
  0
ENDBLK
  5
81
330
7F
100
AcDbEntity
  8
0
100
AcDbBlockEnd
  0
ENDSEC
  0
SECTION
  2
ENTITIES
  0
LINE
  5
6F
330
1F
100
AcDbEntity
  8
0
  6
CONTINUOUS
 62
     7
100
AcDbLine
 10
56.6850079902
 20
152.0299240879
 30
0.0
 11
56.6850079902
 21
52.0299240879
 31
0.0
  0
LINE
  5
70
330
1F
100
AcDbEntity
  8
0
  6
CONTINUOUS
 62
     7
100
AcDbLine
 10
56.6850079902
 20
52.0299240879
 30
0.0
 11
156.6850079902
 21
52.0299240879
 31
0.0
  0
DIMENSION
  5
71
330
1F
100
AcDbEntity
  8
0
  6
CONTINUOUS
 62
     7
100
AcDbDimension
  2
_D
 10
42.7614395004
 20
52.0299240879
 30
0.0
 11
42.7614395004
 21
105.4472211621
 31
0.0
 70
   160
  1
<>mm
  3
SLDDIMSTYLE0
100
AcDbAlignedDimension
 13
56.6850079902
 23
152.0299240879
 33
0.0
 14
56.6850079902
 24
52.0299240879
 34
0.0
 50
90.0
100
AcDbRotatedDimension
  0
DIMENSION
  5
7E
330
1F
100
AcDbEntity
  8
0
  6
CONTINUOUS
 62
     7
100
AcDbDimension
  2
_D_1
 10
156.6850079902
 20
38.4602342313
 30
0.0
 11
105.0418155019
 21
38.4602342313
 31
0.0
 70
   160
  1
<>mm
  3
SLDDIMSTYLE0
100
AcDbAlignedDimension
 13
56.6850079902
 23
52.0299240879
 33
0.0
 14
156.6850079902
 24
52.0299240879
 34
0.0
100
AcDbRotatedDimension
  0
MTEXT
  5
8A
330
1F
100
AcDbEntity
  8
0
  6
CONTINUOUS
 62
     7
100
AcDbMText
 10
222.8856995391
 20
49.3034557666
 30
0.0
 40
10.0
 41
0.0
 71
     1
 72
     1
  1
38 716 05 76
  7
SLDTEXTSTYLE1
  0
MTEXT
  5
8B
330
1F
100
AcDbEntity
  8
0
  6
CONTINUOUS
 62
     7
100
AcDbMText
 10
412.8252631579
 20
48.4342449499
 30
0.0
 40
10.0
 41
0.0
 71
     1
 72
     1
  1
KLUDI GmbH & Co KG
  7
SLDTEXTSTYLE1
  0
SPLINE
  5
8C
330
1F
100
AcDbEntity
  8
0
  6
CONTINUOUS
 62
     7
100
AcDbSpline
210
0.0
220
0.0
230
1.0
 70
     8
 71
     3
 72
    12
 73
     8
 74
     0
 42
0.000000001
 43
0.00000001
 40
0.0
 40
0.0
 40
0.0
 40
0.0
 40
0.1877263089299583
 40
0.348838958571225
 40
0.5711159848939322
 40
0.8056188761793439
 40
0.9999999999999999
 40
0.9999999999999999
 40
0.9999999999999999
 40
0.9999999999999999
 10
205.863409616772
 20
345.4734154598509
 30
0.0
 10
205.9652237621308
 20
345.4281787661812
 30
0.0
 10
206.1544180239115
 20
345.3441185127257
 30
0.0
 10
206.4107920803734
 20
345.1191682230051
 30
0.0
 10
206.6298613815468
 20
344.8252190083088
 30
0.0
 10
206.7800955269807
 20
344.4619779237417
 30
0.0
 10
206.788572579672
 20
344.2075229473419
 30
0.0
 10
206.7924145951605
 20
344.092197492132
 30
0.0
  0
SPLINE
  5
8D
330
1F
100
AcDbEntity
  8
0
  6
CONTINUOUS
 62
     7
100
AcDbSpline
210
0.0
220
0.0
230
1.0
 70
     8
 71
     3
 72
    14
 73
    10
 74
     0
 42
0.000000001
 43
0.00000001
 40
0.0
 40
0.0
 40
0.0
 40
0.0
 40
0.1323500028558759
 40
0.3475996884834464
 40
0.5361609085511556
 40
0.7009320163811992
 40
0.8416279877803331
 40
0.9562290819379728
 40
1.0
 40
1.0
 40
1.0
 40
1.0
 10
216.8180541477836
 20
344.074185713539
 30
0.0
 10
216.8142240057863
 20
344.1509574492881
 30
0.0
 10
216.8041646469923
 20
344.3525882075423
 30
0.0
 10
216.8997052378881
 20
344.6546682706171
 30
0.0
 10
217.0553937113401
 20
344.9450792617953
 30
0.0
 10
217.2422386134745
 20
345.1641409242707
 30
0.0
 10
217.4308495934745
 20
345.3180387829678
 30
0.0
 10
217.5783550060232
 20
345.4098334534061
 30
0.0
 10
217.6622710348519
 20
345.4464817930208
 30
0.0
 10
217.6854637793935
 20
345.4566106753145
 30
0.0
  0
LINE
  5
8E
330
1F
100
AcDbEntity
  8
0
  6
CONTINUOUS
 62
     7
100
AcDbLine
 10
206.8022135056
 20
344.0913173923
 30
0.0
 11
206.8022135056
 21
282.6943446504
 31
0.0
  0
LINE
  5
8F
330
1F
100
AcDbEntity
  8
0
  6
CONTINUOUS
 62
     7
100
AcDbLine
 10
216.8022132821
 20
282.6943446504
 30
0.0
 11
216.8022132821
 21
344.073885362
 31
0.0
  0
ARC
  5
90
330
1F
100
AcDbEntity
  8
0
  6
CONTINUOUS
 62
     7
100
AcDbCircle
 10
216.3022133939
 20
282.6943473326
 30
0.0
 40
0.5
100
AcDbArc
 50
270.0
 51
0.0
  0
ARC
  5
91
330
1F
100
AcDbEntity
  8
0
  6
CONTINUOUS
 62
     7
100
AcDbCircle
 10
207.3022133939
 20
282.6943473326
 30
0.0
 40
0.5
100
AcDbArc
 50
180.0
 51
270.0
  0
CIRCLE
  5
92
330
1F
100
AcDbEntity
  8
0
  6
CONTINUOUS
 62
     7
100
AcDbCircle
 10
211.8022133939
 20
367.1943473326
 30
0.0
 40
22.5
  0
LINE
  5
93
330
1F
100
AcDbEntity
  8
0
  6
CONTINUOUS
 62
     7
100
AcDbLine
 10
216.3022132002
 20
282.1943436371
 30
0.0
 11
207.3022140532
 21
282.1943436371
 31
0.0
  0
LINE
  5
94
330
1F
100
AcDbEntity
  8
0
  6
CONTINUOUS
 62
     7
100
AcDbLine
 10
215.8022135839
 20
345.0443472335
 30
0.0
 11
215.7553769059
 21
345.0443472335
 31
0.0
  0
ARC
  5
95
330
1F
100
AcDbEntity
  8
0
  6
CONTINUOUS
 62
     7
100
AcDbCircle
 10
211.8022133939
 20
316.6943473326
 30
0.0
 40
7.50000000000003
100
AcDbArc
 50
311.8103148958
 51
48.1896851042
  0
ARC
  5
96
330
1F
100
AcDbEntity
  8
0
  6
CONTINUOUS
 62
     7
100
AcDbCircle
 10
211.8022133939
 20
316.6943473326
 30
0.0
 40
7.500000000000049
100
AcDbArc
 50
131.8103148958
 51
228.1896851042
  0
ARC
  5
97
330
1F
100
AcDbEntity
  8
0
  6
CONTINUOUS
 62
     7
100
AcDbCircle
 10
211.8022133939
 20
367.1943473326
 30
0.0
 40
22.55000000000003
100
AcDbArc
 50
285.0484708045
 51
90.0
  0
ARC
  5
98
330
1F
100
AcDbEntity
  8
0
  6
CONTINUOUS
 62
     7
100
AcDbCircle
 10
211.8022133939
 20
367.1943473326
 30
0.0
 40
22.55000000000003
100
AcDbArc
 50
90.0
 51
254.8787607002
  0
ARC
  5
99
330
1F
100
AcDbEntity
  8
0
  6
CONTINUOUS
 62
     7
100
AcDbCircle
 10
211.8022133939
 20
350.1943473326
 30
0.0
 40
49.90000000000003
100
AcDbArc
 50
275.7507105591
 51
264.2492894409
  0
CIRCLE
  5
9A
330
1F
100
AcDbEntity
  8
0
  6
CONTINUOUS
 62
     8
100
AcDbCircle
 10
211.8022133939
 20
367.1943473326
 30
0.0
 40
21.96000000000001
  0
ARC
  5
9B
330
1F
100
AcDbEntity
  8
0
  6
CONTINUOUS
 62
     8
100
AcDbCircle
 10
211.8020401447
 20
357.6630335634
 30
0.0
 40
14.463393317271
100
AcDbArc
 50
249.7761788479
 51
290.023200106
  0
LINE
  5
9C
330
1F
100
AcDbEntity
  8
0
  6
CONTINUOUS
 62
     8
100
AcDbLine
 10
206.8022135056
 20
282.6943446504
 30
0.0
 11
216.8022132821
 21
282.6943446504
 31
0.0
  0
ARC
  5
9D
330
1F
100
AcDbEntity
  8
0
  6
CONTINUOUS
 62
     8
100
AcDbCircle
 10
211.8022133939
 20
316.6943473326
 30
0.0
 40
7.000000000000012
100
AcDbArc
 50
315.5846914028
 51
44.4153085972
  0
ARC
  5
9E
330
1F
100
AcDbEntity
  8
0
  6
CONTINUOUS
 62
     8
100
AcDbCircle
 10
211.8022133939
 20
316.6943473326
 30
0.0
 40
7.000000000000031
100
AcDbArc
 50
135.5846914028
 51
224.4153085972
  0
ARC
  5
9F
330
1F
100
AcDbEntity
  8
0
  6
CONTINUOUS
 62
     8
100
AcDbCircle
 10
211.8022133939
 20
350.1943473326
 30
0.0
 40
48.90000000000007
100
AcDbArc
 50
275.8687208241
 51
264.1312791759
  0
LINE
  5
A0
330
1F
100
AcDbEntity
  8
0
  6
CONTINUOUS
 62
     7
100
AcDbLine
 10
382.5926334233
 20
400.0943463849
 30
0.0
 11
376.5926333712
 21
400.0943463849
 31
0.0
  0
LINE
  5
A1
330
1F
100
AcDbEntity
  8
0
  6
CONTINUOUS
 62
     7
100
AcDbLine
 10
376.5926333712
 20
300.2943482803
 30
0.0
 11
382.5926334233
 21
300.2943482803
 31
0.0
  0
ARC
  5
A2
330
1F
100
AcDbEntity
  8
0
  6
CONTINUOUS
 62
     7
100
AcDbCircle
 10
382.5926333712
 20
399.0943473326
 30
0.0
 40
1.0
100
AcDbArc
 50
0.0
 51
90.0
  0
ARC
  5
A3
330
1F
100
AcDbEntity
  8
0
  6
CONTINUOUS
 62
     7
100
AcDbCircle
 10
382.5926333712
 20
301.2943473326
 30
0.0
 40
1.0
100
AcDbArc
 50
270.0
 51
0.0
  0
ARC
  5
A4
330
1F
100
AcDbEntity
  8
0
  6
CONTINUOUS
 62
     7
100
AcDbCircle
 10
407.466291798
 20
388.6070788958
 30
0.0
 40
0.1000000000000047
100
AcDbArc
 50
170.0001748973
 51
250.5903481161
  0
LINE
  5
A5
330
1F
100
AcDbEntity
  8
0
  6
CONTINUOUS
 62
     7
100
AcDbLine
 10
383.5926335872
 20
344.6443474473
 30
0.0
 11
397.2736253039
 21
344.6443474473
 31
0.0
  0
LINE
  5
A6
330
1F
100
AcDbEntity
  8
0
  6
CONTINUOUS
 62
     7
100
AcDbLine
 10
397.2736253039
 20
389.7443462716
 30
0.0
 11
383.5926335872
 21
389.7443462716
 31
0.0
  0
ARC
  5
A7
330
1F
100
AcDbEntity
  8
0
  6
CONTINUOUS
 62
     7
100
AcDbCircle
 10
397.2736249923
 20
345.3443473326
 30
0.0
 40
0.7000000000000247
100
AcDbArc
 50
270.0
 51
319.0
  0
ARC
  5
A8
330
1F
100
AcDbEntity
  8
0
  6
CONTINUOUS
 62
     7
100
AcDbCircle
 10
397.2736249923
 20
389.0443473326
 30
0.0
 40
0.7000000000000455
100
AcDbArc
 50
41.0
 51
90.0
  0
LINE
  5
A9
330
1F
100
AcDbEntity
  8
0
  6
CONTINUOUS
 62
     7
100
AcDbLine
 10
429.5689287232
 20
344.6943473624
 30
0.0
 11
432.0526319192
 21
344.6943473624
 31
0.0
  0
LINE
  5
AA
330
1F
100
AcDbEntity
  8
0
  6
CONTINUOUS
 62
     7
100
AcDbLine
 10
415.8926318036
 20
344.6943473624
 30
0.0
 11
416.6125553296
 21
344.6943473624
 31
0.0
  0
LINE
  5
AB
330
1F
100
AcDbEntity
  8
0
  6
CONTINUOUS
 62
     7
100
AcDbLine
 10
403.6926339017
 20
344.6943473624
 30
0.0
 11
407.8926342176
 21
344.6943473624
 31
0.0
  0
LINE
  5
AC
330
1F
100
AcDbEntity
  8
0
  6
CONTINUOUS
 62
     7
100
AcDbLine
 10
432.0526319192
 20
389.6943491505
 30
0.0
 11
407.6403743223
 21
389.6943491505
 31
0.0
  0
ARC
  5
AD
330
1F
100
AcDbEntity
  8
0
  6
CONTINUOUS
 62
     7
100
AcDbCircle
 10
432.0526333712
 20
389.1543473326
 30
0.0
 40
0.5400000000000205
100
AcDbArc
 50
0.0
 51
90.0
  0
ARC
  5
AE
330
1F
100
AcDbEntity
  8
0
  6
CONTINUOUS
 62
     7
100
AcDbCircle
 10
432.0526333712
 20
345.2343473326
 30
0.0
 40
0.5400000000000205
100
AcDbArc
 50
270.0
 51
0.0
  0
LINE
  5
AF
330
1F
100
AcDbEntity
  8
0
  6
CONTINUOUS
 62
     7
100
AcDbLine
 10
397.8019217597
 20
344.8851059744
 30
0.0
 11
397.8727730558
 21
344.9666111352
 31
0.0
  0
LINE
  5
B0
330
1F
100
AcDbEntity
  8
0
  6
CONTINUOUS
 62
     7
100
AcDbLine
 10
397.8727730558
 20
389.4220825838
 30
0.0
 11
397.8019217597
 21
389.5035882102
 31
0.0
  0
ARC
  5
B1
330
1F
100
AcDbEntity
  8
0
  6
CONTINUOUS
 62
     7
100
AcDbCircle
 10
398.4010695849
 20
344.5073696514
 30
0.0
 40
0.6999999999999819
100
AcDbArc
 50
92.7443153111
 51
139.0
  0
ARC
  5
B2
330
1F
100
AcDbEntity
  8
0
  6
CONTINUOUS
 62
     7
100
AcDbCircle
 10
398.4010695849
 20
389.8813250138
 30
0.0
 40
0.7000000000000526
100
AcDbArc
 50
221.0
 51
267.2556846889
  0
ARC
  5
B3
330
1F
100
AcDbEntity
  8
0
  6
CONTINUOUS
 62
     7
100
AcDbCircle
 10
407.6403738606
 20
389.5943473326
 30
0.0
 40
0.1000000000000288
100
AcDbArc
 50
93.2568958507
 51
170.0
  0
ARC
  5
B4
330
1F
100
AcDbEntity
  8
0
  6
CONTINUOUS
 62
     7
100
AcDbCircle
 10
403.6926333712
 20
344.7943473326
 30
0.0
 40
0.1000000000000227
100
AcDbArc
 50
180.0
 51
270.0
  0
ARC
  5
B5
330
1F
100
AcDbEntity
  8
0
  6
CONTINUOUS
 62
     7
100
AcDbCircle
 10
397.3142156945
 20
367.1813359701
 30
0.0
 40
22.00000000000003
100
AcDbArc
 50
272.7443153111
 51
286.623155117
  0
ARC
  5
B6
330
1F
100
AcDbEntity
  8
0
  6
CONTINUOUS
 62
     7
100
AcDbCircle
 10
397.3142156945
 20
367.2073586951
 30
0.0
 40
22.00000000000001
100
AcDbArc
 50
63.3980362164
 51
87.2556846889
  0
ARC
  5
B7
330
1F
100
AcDbEntity
  8
0
  6
CONTINUOUS
 62
     7
100
AcDbCircle
 10
393.0926333712
 20
309.6943473326
 30
0.0
 40
0.5
100
AcDbArc
 50
180.0
 51
270.0
  0
ARC
  5
B8
330
1F
100
AcDbEntity
  8
0
  6
CONTINUOUS
 62
     7
100
AcDbCircle
 10
393.0926333712
 20
323.6943473326
 30
0.0
 40
0.5
100
AcDbArc
 50
90.0
 51
180.0
  0
LINE
  5
B9
330
1F
100
AcDbEntity
  8
0
  6
CONTINUOUS
 62
     7
100
AcDbLine
 10
393.0926332818
 20
309.1943462001
 30
0.0
 11
402.0926328943
 21
309.1943462001
 31
0.0
  0
LINE
  5
BA
330
1F
100
AcDbEntity
  8
0
  6
CONTINUOUS
 62
     7
100
AcDbLine
 10
402.0926328943
 20
324.1943467961
 30
0.0
 11
393.0926332818
 21
324.1943467961
 31
0.0
  0
ARC
  5
BB
330
1F
100
AcDbEntity
  8
0
  6
CONTINUOUS
 62
     7
100
AcDbCircle
 10
402.0926333712
 20
309.6943473326
 30
0.0
 40
0.5
100
AcDbArc
 50
270.0
 51
0.0
  0
ARC
  5
BC
330
1F
100
AcDbEntity
  8
0
  6
CONTINUOUS
 62
     7
100
AcDbCircle
 10
402.0926333712
 20
323.6943473326
 30
0.0
 40
0.5
100
AcDbArc
 50
0.0
 51
90.0
  0
SPLINE
  5
BD
330
1F
100
AcDbEntity
  8
0
  6
CONTINUOUS
 62
     7
100
AcDbSpline
210
0.0
220
0.0
230
1.0
 70
     8
 71
     3
 72
    14
 73
    10
 74
     0
 42
0.000000001
 43
0.00000001
 40
0.0
 40
0.0
 40
0.0
 40
0.0
 40
0.0402636233803438
 40
0.1967430927691469
 40
0.3689518753670762
 40
0.5368065806055892
 40
0.7251065890497321
 40
0.9193168701240082
 40
1.0
 40
1.0
 40
1.0
 40
1.0
 10
416.6131029472895
 20
344.6878886403237
 30
0.0
 10
416.6440897213641
 20
344.689313824452
 30
0.0
 10
416.7955026657179
 20
344.6962778060719
 30
0.0
 10
417.0769705795364
 20
344.6276940161391
 30
0.0
 10
417.4248025714024
 20
344.464516712051
 30
0.0
 10
417.7373994113609
 20
344.1946113422703
 30
0.0
 10
417.9683643144151
 20
343.8366017625353
 30
0.0
 10
418.0898614127946
 20
343.4896234131156
 30
0.0
 10
418.0801520017923
 20
343.2774900017156
 30
0.0
 10
418.0773022220678
 20
343.2152273686324
 30
0.0
  0
SPLINE
  5
BE
330
1F
100
AcDbEntity
  8
0
  6
CONTINUOUS
 62
     7
100
AcDbSpline
210
0.0
220
0.0
230
1.0
 70
     8
 71
     3
 72
    15
 73
    11
 74
     0
 42
0.000000001
 43
0.00000001
 40
0.0
 40
0.0
 40
0.0
 40
0.0
 40
0.0394095574251179
 40
0.2338199068193247
 40
0.4250611833957689
 40
0.587595073566676
 40
0.7299293583060986
 40
0.8543509246724083
 40
0.9606924948522843
 40
1.0
 40
1.0
 40
1.0
 40
1.0
 10
428.1028071985788
 20
343.2167663791869
 30
0.0
 10
428.100029294172
 20
343.246984161675
 30
0.0
 10
428.0835477756773
 20
343.4262685674716
 30
0.0
 10
428.181855689715
 20
343.7503546151474
 30
0.0
 10
428.3868391501928
 20
344.1204765124422
 30
0.0
 10
428.6638316612955
 20
344.3899009876294
 30
0.0
 10
428.9485254630477
 20
344.5616368200205
 30
0.0
 10
429.2210158809802
 20
344.6545944032723
 30
0.0
 10
429.4268176355672
 20
344.6921603432564
 30
0.0
 10
429.53880900581
 20
344.6912914854679
 30
0.0
 10
429.5690330312796
 20
344.6910569997225
 30
0.0
  0
LINE
  5
BF
330
1F
100
AcDbEntity
  8
0
  6
CONTINUOUS
 62
     7
100
AcDbLine
 10
418.0926317916
 20
343.2147677609
 30
0.0
 11
418.0926317916
 21
282.6943446504
 31
0.0
  0
LINE
  5
C0
330
1F
100
AcDbEntity
  8
0
  6
CONTINUOUS
 62
     7
100
AcDbLine
 10
428.0926334308
 20
282.6943446504
 30
0.0
 11
428.0926334308
 21
343.2126336353
 31
0.0
  0
ARC
  5
C1
330
1F
100
AcDbEntity
  8
0
  6
CONTINUOUS
 62
     7
100
AcDbCircle
 10
427.5926333712
 20
282.6943473326
 30
0.0
 40
0.5
100
AcDbArc
 50
270.0
 51
0.0
  0
ARC
  5
C2
330
1F
100
AcDbEntity
  8
0
  6
CONTINUOUS
 62
     7
100
AcDbCircle
 10
418.5926333712
 20
282.6943473326
 30
0.0
 40
0.5
100
AcDbArc
 50
180.0
 51
270.0
  0
LINE
  5
C3
330
1F
100
AcDbEntity
  8
0
  6
CONTINUOUS
 62
     7
100
AcDbLine
 10
392.5926341311
 20
320.6943471538
 30
0.0
 11
383.5926335872
 21
320.6943471538
 31
0.0
  0
LINE
  5
C4
330
1F
100
AcDbEntity
  8
0
  6
CONTINUOUS
 62
     7
100
AcDbLine
 10
383.5926335872
 20
312.6943458425
 30
0.0
 11
392.5926341311
 21
312.6943458425
 31
0.0
  0
LINE
  5
C5
330
1F
100
AcDbEntity
  8
0
  6
CONTINUOUS
 62
     7
100
AcDbLine
 10
376.5926333712
 20
400.0943463849
 30
0.0
 11
376.5926333712
 21
300.2943482803
 31
0.0
  0
LINE
  5
C6
330
1F
100
AcDbEntity
  8
0
  6
CONTINUOUS
 62
     7
100
AcDbLine
 10
383.5926335872
 20
301.2943465816
 30
0.0
 11
383.5926335872
 21
399.0943480836
 31
0.0
  0
SPLINE
  5
C7
330
1F
100
AcDbEntity
  8
0
  6
CONTINUOUS
 62
     7
100
AcDbSpline
210
0.0
220
0.0
230
1.0
 70
     8
 71
     3
 72
    12
 73
     8
 74
     0
 42
0.000000001
 43
0.00000001
 40
0.0
 40
0.0
 40
0.0
 40
0.0
 40
0.4999999999999997
 40
0.4999999999999997
 40
0.7499999999999998
 40
0.7499999999999998
 40
1.0
 40
1.0
 40
1.0
 40
1.0
 10
403.5926333711691
 20
362.8399141562801
 30
0.0
 10
403.5926333711691
 20
364.2869899640766
 30
0.0
 10
403.6553443162838
 20
365.7355822117831
 30
0.0
 10
403.8450528853618
 20
367.9101871980236
 30
0.0
 10
403.9242498657183
 20
368.635350522951
 30
0.0
 10
404.1151067186436
 20
370.0862759381196
 30
0.0
 10
404.2265085937851
 20
370.8092323585046
 30
0.0
 10
404.3522457205587
 20
371.5223230396267
 30
0.0
  0
SPLINE
  5
C8
330
1F
100
AcDbEntity
  8
0
  6
CONTINUOUS
 62
     7
100
AcDbSpline
210
0.0
220
0.0
230
1.0
 70
     8
 71
     3
 72
    19
 73
    15
 74
     0
 42
0.000000001
 43
0.00000001
 40
0.0
 40
0.0
 40
0.0
 40
0.0
 40
0.0000020823969894
 40
0.0878019583662221
 40
0.2190613782954962
 40
0.3540332145971803
 40
0.4852928667315918
 40
0.5526476542316429
 40
0.6205042259104631
 40
0.751226327265541
 40
0.8183406830169133
 40
0.8859637869805957
 40
0.9709181919194427
 40
1.0
 40
1.0
 40
1.0
 40
1.0
 10
404.4284774557896
 20
371.5183429972921
 30
0.0
 10
404.4284811810858
 20
371.5183616237443
 30
0.0
 10
404.5855541600823
 20
372.303725314483
 30
0.0
 10
404.899406376142
 20
374.2530579430598
 30
0.0
 10
405.4458573170969
 20
377.2472193528569
 30
0.0
 10
405.9838877978228
 20
380.3194964205564
 30
0.0
 10
406.3841850983891
 20
382.5766990740816
 30
0.0
 10
406.6616141543598
 20
384.1472056976588
 30
0.0
 10
406.9090360022643
 20
385.5468596552268
 30
0.0
 10
407.1096326660396
 20
386.6821748307225
 30
0.0
 10
407.2593589979042
 20
387.5295713692822
 30
0.0
 10
407.3514468455026
 20
388.0508359299868
 30
0.0
 10
407.4074061884984
 20
388.3675812101811
 30
0.0
 10
407.4154722831543
 20
388.413244306045
 30
0.0
 10
407.4175293193407
 20
388.4248894260917
 30
0.0
  0
SPLINE
  5
C9
330
1F
100
AcDbEntity
  8
0
  6
CONTINUOUS
 62
     7
100
AcDbSpline
210
0.0
220
0.0
230
1.0
 70
     8
 71
     3
 72
    22
 73
    18
 74
     0
 42
0.000000001
 43
0.00000001
 40
0.0
 40
0.0
 40
0.0
 40
0.0
 40
0.1249999999999999
 40
0.1249999999999999
 40
0.2499999999999999
 40
0.2499999999999999
 40
0.3749999999999998
 40
0.3749999999999998
 40
0.4999999999999998
 40
0.4999999999999998
 40
0.6249999999999998
 40
0.6249999999999998
 40
0.7499999999999998
 40
0.7499999999999998
 40
0.8749999999999998
 40
0.8749999999999998
 40
1.0
 40
1.0
 40
1.0
 40
1.0
 10
412.5029611519558
 20
345.0443473325763
 30
0.0
 10
412.739069733709
 20
345.0378415255007
 30
0.0
 10
412.9681913658654
 20
345.0277621689538
 30
0.0
 10
413.4131484975805
 20
345.0017215513439
 30
0.0
 10
413.6300951786366
 20
344.985655010407
 30
0.0
 10
414.0452521854768
 20
344.949325217773
 30
0.0
 10
414.2397444386771
 20
344.9294363300071
 30
0.0
 10
414.6035829513941
 20
344.8881468668845
 30
0.0
 10
414.774240600127
 20
344.8665541748243
 30
0.0
 10
415.0824688112148
 20
344.8246862442195
 30
0.0
 10
415.2190180683031
 20
344.8045969933063
 30
0.0
 10
415.4577807259956
 20
344.7678817001335
 30
0.0
 10
415.5607490212421
 20
344.7511192496384
 30
0.0
 10
415.7253647794518
 20
344.7236276198367
 30
0.0
 10
415.7873226021403
 20
344.7128681326684
 30
0.0
 10
415.8710085946572
 20
344.6982193939974
 30
0.0
 10
415.8926333711692
 20
344.6943473325763
 30
0.0
 10
415.8926333711691
 20
344.6943473325763
 30
0.0
  0
SPLINE
  5
CA
330
1F
100
AcDbEntity
  8
0
  6
CONTINUOUS
 62
     7
100
AcDbSpline
210
0.0
220
0.0
230
1.0
 70
     8
 71
     3
 72
    22
 73
    18
 74
     0
 42
0.000000001
 43
0.00000001
 40
0.0
 40
0.0
 40
0.0
 40
0.0
 40
0.125
 40
0.125
 40
0.25
 40
0.25
 40
0.375
 40
0.375
 40
0.5
 40
0.5
 40
0.625
 40
0.625
 40
0.75
 40
0.75
 40
0.875
 40
0.875
 40
1.0
 40
1.0
 40
1.0
 40
1.0
 10
407.8926333711691
 20
344.6943473325763
 30
0.0
 10
407.8926333711691
 20
344.6943473325763
 30
0.0
 10
407.9138754920025
 20
344.6981512065292
 30
0.0
 10
407.9969911839864
 20
344.7127025099415
 30
0.0
 10
408.059365207628
 20
344.7235372428803
 30
0.0
 10
408.2246433713043
 20
344.7511409682291
 30
0.0
 10
408.3258553065647
 20
344.7676213039361
 30
0.0
 10
408.5641959189228
 20
344.8042908236021
 30
0.0
 10
408.7027820398386
 20
344.8246833755322
 30
0.0
 10
409.0108321608089
 20
344.8665285351407
 30
0.0
 10
409.1789076160388
 20
344.8878091759797
 30
0.0
 10
409.5427208444037
 20
344.9291407101106
 30
0.0
 10
409.7406468991557
 20
344.9493757450995
 30
0.0
 10
410.153497130688
 20
344.9855132790994
 30
0.0
 10
410.368125774306
 20
345.0014509573663
 30
0.0
 10
410.8137484168068
 20
345.0276037996921
 30
0.0
 10
411.0462223000357
 20
345.0378422223877
 30
0.0
 10
411.2823055903825
 20
345.0443473325763
 30
0.0
  0
LWPOLYLINE
  5
CB
330
1F
100
AcDbEntity
  8
0
  6
CONTINUOUS
 62
     7
100
AcDbPolyline
 90
       17
 70
   128
 43
0.0
 10
407.6403743223
 20
389.6943491505
 10
407.6257525579
 20
389.6110553847
 10
407.5819952981
 20
389.3617924856
 10
407.5094285057
 20
388.948408197
 10
407.4085886226
 20
388.3739609824
 10
407.2802207069
 20
387.6427051233
 10
407.1252784328
 20
386.7600497411
 10
406.9449054645
 20
385.7325364457
 10
406.7404373185
 20
384.5677722798
 10
406.513390188
 20
383.2743775652
 10
406.265444179
 20
381.861926298
 10
405.9984358595
 20
380.3408828186
 10
405.7143396334
 20
378.7225030916
 10
405.4152621524
 20
377.0187713759
 10
405.1034143762
 20
375.2423033671
 10
404.7811078475
 20
373.4062474774
 10
404.4507267521
 20
371.5242028789
  0
LINE
  5
CC
330
1F
100
AcDbEntity
  8
0
  6
CONTINUOUS
 62
     7
100
AcDbLine
 10
432.5926350997
 20
367.1943482564
 30
0.0
 11
432.5926350997
 21
345.2343472833
 31
0.0
  0
LINE
  5
CD
330
1F
100
AcDbEntity
  8
0
  6
CONTINUOUS
 62
     7
100
AcDbLine
 10
432.5926350997
 20
389.15434597
 30
0.0
 11
432.5926350997
 21
367.1943482564
 31
0.0
  0
LWPOLYLINE
  5
CE
330
1F
100
AcDbEntity
  8
0
  6
CONTINUOUS
 62
     7
100
AcDbPolyline
 90
       17
 70
   128
 43
0.0
 10
404.3522449778
 20
371.52232347
 10
404.6826260732
 20
373.3960047917
 10
405.0049326019
 20
375.2238985704
 10
405.316780378
 20
376.992472689
 10
405.6158597217
 20
378.6886327522
 10
405.8999540852
 20
380.2998189436
 10
406.1669642673
 20
381.8141010212
 10
406.4149102763
 20
383.2202751742
 10
406.6419574068
 20
384.5079217659
 10
406.8464236901
 20
385.6675115036
 10
407.0267966585
 20
386.6904575931
 10
407.1817407952
 20
387.5691865192
 10
407.3101087109
 20
388.2971939252
 10
407.410948594
 20
388.869089316
 10
407.4835153864
 20
389.2806370364
 10
407.5272707836
 20
389.5287897991
 10
407.541892548
 20
389.6117110358
  0
LINE
  5
CF
330
1F
100
AcDbEntity
  8
0
  6
CONTINUOUS
 62
     7
100
AcDbLine
 10
403.5926340715
 20
344.7943471925
 30
0.0
 11
403.5926340715
 21
362.8399141686
 31
0.0
  0
LINE
  5
D0
330
1F
100
AcDbEntity
  8
0
  6
CONTINUOUS
 62
     7
100
AcDbLine
 10
392.5926341311
 20
323.6943476455
 30
0.0
 11
392.5926341311
 21
309.6943472134
 31
0.0
  0
LINE
  5
D1
330
1F
100
AcDbEntity
  8
0
  6
CONTINUOUS
 62
     7
100
AcDbLine
 10
402.5926339076
 20
323.6943476455
 30
0.0
 11
402.5926339076
 21
309.6943472134
 31
0.0
  0
LINE
  5
D2
330
1F
100
AcDbEntity
  8
0
  6
CONTINUOUS
 62
     7
100
AcDbLine
 10
427.5926324175
 20
282.1943436371
 30
0.0
 11
418.5926328049
 21
282.1943436371
 31
0.0
  0
LINE
  5
D3
330
1F
100
AcDbEntity
  8
0
  6
CONTINUOUS
 62
     7
100
AcDbLine
 10
385.5926329837
 20
319.3400979595
 30
0.0
 11
392.5926341311
 21
319.3400979595
 31
0.0
  0
LINE
  5
D4
330
1F
100
AcDbEntity
  8
0
  6
CONTINUOUS
 62
     7
100
AcDbLine
 10
385.5926329837
 20
314.0485968994
 30
0.0
 11
385.5926329837
 21
319.3400979595
 31
0.0
  0
LINE
  5
D5
330
1F
100
AcDbEntity
  8
0
  6
CONTINUOUS
 62
     7
100
AcDbLine
 10
392.5926341311
 20
314.0485968994
 30
0.0
 11
385.5926329837
 21
314.0485968994
 31
0.0
  0
LINE
  5
D6
330
1F
100
AcDbEntity
  8
0
  6
CONTINUOUS
 62
     7
100
AcDbLine
 10
415.8926318036
 20
344.6943473624
 30
0.0
 11
415.8926318036
 21
344.5443471515
 31
0.0
  0
LINE
  5
D7
330
1F
100
AcDbEntity
  8
0
  6
CONTINUOUS
 62
     7
100
AcDbLine
 10
407.8926342176
 20
344.5443471515
 30
0.0
 11
407.8926342176
 21
344.6943473624
 31
0.0
  0
LINE
  5
D8
330
1F
100
AcDbEntity
  8
0
  6
CONTINUOUS
 62
     7
100
AcDbLine
 10
412.5029603587
 20
345.0443472335
 30
0.0
 11
411.2823056624
 21
345.0443472335
 31
0.0
  0
SPLINE
  5
D9
330
1F
100
AcDbEntity
  8
0
  6
CONTINUOUS
 62
     7
100
AcDbSpline
210
0.0
220
0.0
230
1.0
 70
     8
 71
     3
 72
    10
 73
     6
 74
     0
 42
0.000000001
 43
0.00000001
 40
0.0
 40
0.0
 40
0.0
 40
0.0
 40
0.5
 40
0.5
 40
1.0
 40
1.0
 40
1.0
 40
1.0
 10
415.8292531164977
 20
344.2943473325763
 30
0.0
 10
415.7736934133621
 20
344.080880481693
 30
0.0
 10
415.6437206816711
 20
343.8861900400067
 30
0.0
 10
415.2928444461742
 20
343.6183775206755
 30
0.0
 10
415.0716191115228
 20
343.5443473325763
 30
0.0
 10
414.8506732627189
 20
343.5443473325763
 30
0.0
  0
LINE
  5
DA
330
1F
100
AcDbEntity
  8
0
  6
CONTINUOUS
 62
     7
100
AcDbLine
 10
414.8506718324
 20
343.5443474533
 30
0.0
 11
408.9345941887
 21
343.5443474533
 31
0.0
  0
SPLINE
  5
DB
330
1F
100
AcDbEntity
  8
0
  6
CONTINUOUS
 62
     7
100
AcDbSpline
210
0.0
220
0.0
230
1.0
 70
     8
 71
     3
 72
    10
 73
     6
 74
     0
 42
0.000000001
 43
0.00000001
 40
0.0
 40
0.0
 40
0.0
 40
0.0
 40
0.5
 40
0.5
 40
1.0
 40
1.0
 40
1.0
 40
1.0
 10
408.9345934796193
 20
343.5443473325763
 30
0.0
 10
408.7146640137542
 20
343.5443473325763
 30
0.0
 10
408.4932112262046
 20
343.6176640992014
 30
0.0
 10
408.1401196306123
 20
343.8873902457127
 30
0.0
 10
408.0117306210638
 20
344.0802761471714
 30
0.0
 10
407.9560136258405
 20
344.2943473325763
 30
0.0
  0
LINE
  5
DC
330
1F
100
AcDbEntity
  8
0
  6
CONTINUOUS
 62
     7
100
AcDbLine
 10
407.9243885921
 20
344.2943471105
 30
0.0
 11
407.9560125814
 21
344.2943471105
 31
0.0
  0
ARC
  5
DD
330
1F
100
AcDbEntity
  8
0
  6
CONTINUOUS
 62
     7
100
AcDbCircle
 10
408.8926333712
 20
344.5443473326
 30
0.0
 40
1.0
100
AcDbArc
 50
180.0
 51
194.4775121859
  0
ARC
  5
DE
330
1F
100
AcDbEntity
  8
0
  6
CONTINUOUS
 62
     7
100
AcDbCircle
 10
414.8926333712
 20
344.5443473326
 30
0.0
 40
1.000000000000032
100
AcDbArc
 50
345.5224878141
 51
0.0
  0
LINE
  5
DF
330
1F
100
AcDbEntity
  8
0
  6
CONTINUOUS
 62
     7
100
AcDbLine
 10
415.8292534397
 20
344.2943471105
 30
0.0
 11
415.8608774291
 21
344.2943471105
 31
0.0
  0
LINE
  5
E0
330
1F
100
AcDbEntity
  8
0
  6
CONTINUOUS
 62
     8
100
AcDbLine
 10
382.5926334233
 20
400.0943463849
 30
0.0
 11
382.5926334233
 21
300.2943482803
 31
0.0
  0
SPLINE
  5
E1
330
1F
100
AcDbEntity
  8
0
  6
CONTINUOUS
 62
     8
100
AcDbSpline
210
0.0
220
0.0
230
1.0
 70
     8
 71
     3
 72
    12
 73
     8
 74
     0
 42
0.000000001
 43
0.00000001
 40
0.0
 40
0.0
 40
0.0
 40
0.0
 40
0.2499999999999999
 40
0.2499999999999999
 40
0.4999999999999998
 40
0.4999999999999998
 40
1.0
 40
1.0
 40
1.0
 40
1.0
 10
404.45072649586
 20
371.5242020204728
 30
0.0
 10
404.3252341595708
 20
370.8093223722939
 30
0.0
 10
404.214049207364
 20
370.0845461439565
 30
0.0
 10
404.023568700133
 20
368.6299908399559
 30
0.0
 10
403.94453096488
 20
367.9030290688665
 30
0.0
 10
403.7552086412468
 20
365.7230773115967
 30
0.0
 10
403.6926333711691
 20
364.2709850244173
 30
0.0
 10
403.6926333711691
 20
362.8204747224574
 30
0.0
  0
ARC
  5
E2
330
1F
100
AcDbEntity
  8
0
  6
CONTINUOUS
 62
     8
100
AcDbCircle
 10
403.6685781804
 20
362.9636554401
 30
0.0
 40
0.1451874992646765
100
AcDbArc
 50
238.46118363
 51
279.53716206
  0
ARC
  5
E3
330
1F
100
AcDbEntity
  8
0
  6
CONTINUOUS
 62
     8
100
AcDbCircle
 10
404.4040310242
 20
371.3898958204
 30
0.0
 40
0.1421930974562651
100
AcDbArc
 50
70.8285162819
 51
111.3580635676
  0
LINE
  5
E4
330
1F
100
AcDbEntity
  8
0
  6
CONTINUOUS
 62
     8
100
AcDbLine
 10
397.2736253039
 20
344.6443474473
 30
0.0
 11
397.2736253039
 21
389.7443462716
 31
0.0
  0
LINE
  5
E5
330
1F
100
AcDbEntity
  8
0
  6
CONTINUOUS
 62
     8
100
AcDbLine
 10
397.8019217597
 20
344.8851059744
 30
0.0
 11
397.8019217597
 21
389.5035882102
 31
0.0
  0
LINE
  5
E6
330
1F
100
AcDbEntity
  8
0
  6
CONTINUOUS
 62
     8
100
AcDbLine
 10
403.6926339017
 20
362.8204746725
 30
0.0
 11
403.6926339017
 21
344.6943473624
 31
0.0
  0
LINE
  5
E7
330
1F
100
AcDbEntity
  8
0
  6
CONTINUOUS
 62
     8
100
AcDbLine
 10
432.0526319192
 20
367.1943482564
 30
0.0
 11
432.0526319192
 21
389.6943491505
 31
0.0
  0
LINE
  5
E8
330
1F
100
AcDbEntity
  8
0
  6
CONTINUOUS
 62
     8
100
AcDbLine
 10
432.0526319192
 20
344.6943473624
 30
0.0
 11
432.0526319192
 21
367.1943482564
 31
0.0
  0
SPLINE
  5
E9
330
1F
100
AcDbEntity
  8
0
  6
CONTINUOUS
 62
     8
100
AcDbSpline
210
0.0
220
0.0
230
1.0
 70
     8
 71
     3
 72
    16
 73
    12
 74
     0
 42
0.000000001
 43
0.00000001
 40
0.0
 40
0.0
 40
0.0
 40
0.0
 40
0.2078098140841153
 40
0.311946076923634
 40
0.4186951710735468
 40
0.524001009659157
 40
0.6322277899433331
 40
0.73711937025439
 40
0.8454178416944892
 40
0.9467652854906282
 40
1.0
 40
1.0
 40
1.0
 40
1.0
 10
423.092634473855
 20
345.5352566757892
 30
0.0
 10
423.783117128884
 20
345.5186493923975
 30
0.0
 10
424.8196098295267
 20
345.493719978331
 30
0.0
 10
426.1057516873843
 20
345.3568822006487
 30
0.0
 10
427.0044104225323
 20
345.2319513176115
 30
0.0
 10
427.8157701667441
 20
345.0908137621456
 30
0.0
 10
428.4998386130337
 20
344.9523213026039
 30
0.0
 10
429.0461414347059
 20
344.8289166365054
 30
0.0
 10
429.4058573724547
 20
344.7416022248467
 30
0.0
 10
429.5863292569113
 20
344.6959542830334
 30
0.0
 10
429.5733860727133
 20
344.6992279462818
 30
0.0
 10
429.5689287231512
 20
344.7003553243075
 30
0.0
  0
SPLINE
  5
EA
330
1F
100
AcDbEntity
  8
0
  6
CONTINUOUS
 62
     8
100
AcDbSpline
210
0.0
220
0.0
230
1.0
 70
     8
 71
     3
 72
    17
 73
    13
 74
     0
 42
0.000000001
 43
0.00000001
 40
0.0
 40
0.0
 40
0.0
 40
0.0
 40
0.0363519140682004
 40
0.1395351475222571
 40
0.2390512858143365
 40
0.3415987307152102
 40
0.4454601174791403
 40
0.552247823185823
 40
0.6611099677943794
 40
0.7730092828190303
 40
0.8848806509804333
 40
1.0
 40
1.0
 40
1.0
 40
1.0
 10
416.6125553296156
 20
344.6993960620557
 30
0.0
 10
416.6072984185354
 20
344.6980643265283
 30
0.0
 10
416.5871200075248
 20
344.6929525210559
 30
0.0
 10
416.7354844379298
 20
344.7306078016459
 30
0.0
 10
417.0518523902886
 20
344.8080408577483
 30
0.0
 10
417.5367959318676
 20
344.9197299964118
 30
0.0
 10
418.1739967676045
 20
345.052994840029
 30
0.0
 10
418.9525551595823
 20
345.194790344502
 30
0.0
 10
419.8599134161581
 20
345.3305101448
 30
0.0
 10
420.869194826302
 20
345.4419734817322
 30
0.0
 10
421.95930910738
 20
345.5199372892357
 30
0.0
 10
422.7112727680598
 20
345.5301017330335
 30
0.0
 10
423.092634473855
 20
345.5352566757892
 30
0.0
  0
LINE
  5
EB
330
1F
100
AcDbEntity
  8
0
  6
CONTINUOUS
 62
     8
100
AcDbLine
 10
397.8727730558
 20
344.9666111352
 30
0.0
 11
397.8727730558
 21
389.4220825838
 31
0.0
  0
LINE
  5
EC
330
1F
100
AcDbEntity
  8
0
  6
CONTINUOUS
 62
     8
100
AcDbLine
 10
398.3675549374
 20
345.2065668622
 30
0.0
 11
398.3675549374
 21
389.1821291851
 31
0.0
  0
LINE
  5
ED
330
1F
100
AcDbEntity
  8
0
  6
CONTINUOUS
 62
     8
100
AcDbLine
 10
393.0926332818
 20
309.1943462001
 30
0.0
 11
393.0926332818
 21
324.1943467961
 31
0.0
  0
LINE
  5
EE
330
1F
100
AcDbEntity
  8
0
  6
CONTINUOUS
 62
     8
100
AcDbLine
 10
402.0926328943
 20
309.1943462001
 30
0.0
 11
402.0926328943
 21
324.1943467961
 31
0.0
  0
SPLINE
  5
EF
330
1F
100
AcDbEntity
  8
0
  6
CONTINUOUS
 62
     8
100
AcDbSpline
210
0.0
220
0.0
230
1.0
 70
     8
 71
     3
 72
    14
 73
    10
 74
     0
 42
0.000000001
 43
0.00000001
 40
0.0
 40
0.0
 40
0.0
 40
0.0
 40
0.0054929809864673
 40
0.2126270765478089
 40
0.2197639850268902
 40
0.4371548655853039
 40
0.6491560144301979
 40
0.855661193182316
 40
1.0
 40
1.0
 40
1.0
 40
1.0
 10
423.092634473855
 20
344.091317392299
 30
0.0
 10
423.0781954639617
 20
344.09130261235
 30
0.0
 10
422.5192777343298
 20
344.0907304972542
 30
0.0
 10
421.93483017143
 20
344.0520759300071
 30
0.0
 10
420.8729771642421
 20
343.9224468238603
 30
0.0
 10
419.8626701579205
 20
343.7323502634961
 30
0.0
 10
418.7805540593159
 20
343.4294801994143
 30
0.0
 10
418.1567111045058
 20
343.2172968772517
 30
0.0
 10
418.1524981679565
 20
343.2154089537839
 30
0.0
 10
418.1507649467535
 20
343.2146322535072
 30
0.0
  0
SPLINE
  5
F0
330
1F
100
AcDbEntity
  8
0
  6
CONTINUOUS
 62
     8
100
AcDbSpline
210
0.0
220
0.0
230
1.0
 70
     8
 71
     3
 72
    12
 73
     8
 74
     0
 42
0.000000001
 43
0.00000001
 40
0.0
 40
0.0
 40
0.0
 40
0.0
 40
0.1598207791328746
 40
0.3772104833106479
 40
0.5913989713059848
 40
0.798496018176333
 40
1.0
 40
1.0
 40
1.0
 40
1.0
 10
428.0407066093035
 20
343.2124240876828
 30
0.0
 10
428.0308811673759
 20
343.2160710982157
 30
0.0
 10
428.0076910683263
 20
343.2246788062573
 30
0.0
 10
427.3090557381197
 20
343.4611658605658
 30
0.0
 10
426.1655120920939
 20
343.766225695783
 30
0.0
 10
424.703053108654
 20
344.034866981802
 30
0.0
 10
423.6245195784203
 20
344.0726730896058
 30
0.0
 10
423.092634473855
 20
344.091317392299
 30
0.0
  0
LINE
  5
F1
330
1F
100
AcDbEntity
  8
0
  6
CONTINUOUS
 62
     8
100
AcDbLine
 10
418.0926317916
 20
282.6943446504
 30
0.0
 11
428.0926334308
 21
282.6943446504
 31
0.0
  0
LINE
  5
F2
330
1F
100
AcDbEntity
  8
0
  6
CONTINUOUS
 62
     8
100
AcDbLine
 10
407.8926342176
 20
344.5443471515
 30
0.0
 11
415.8926318036
 21
344.5443471515
 31
0.0
  0
LINE
  5
F3
330
1F
100
AcDbEntity
  8
0
  6
CONTINUOUS
 62
     7
100
AcDbLine
 10
261.7022124462
 20
206.3804199251
 30
0.0
 11
261.7022124462
 21
212.3804199773
 31
0.0
  0
LINE
  5
F4
330
1F
100
AcDbEntity
  8
0
  6
CONTINUOUS
 62
     7
100
AcDbLine
 10
161.9022143416
 20
212.3804199773
 30
0.0
 11
161.9022143416
 21
206.3804199251
 31
0.0
  0
ARC
  5
F5
330
1F
100
AcDbEntity
  8
0
  6
CONTINUOUS
 62
     7
100
AcDbCircle
 10
260.7022133939
 20
206.3804199773
 30
0.0
 40
1.0
100
AcDbArc
 50
270.0
 51
0.0
  0
ARC
  5
F6
330
1F
100
AcDbEntity
  8
0
  6
CONTINUOUS
 62
     7
100
AcDbCircle
 10
162.9022133939
 20
206.3804199773
 30
0.0
 40
1.0
100
AcDbArc
 50
180.0
 51
270.0
  0
LINE
  5
F7
330
1F
100
AcDbEntity
  8
0
  6
CONTINUOUS
 62
     7
100
AcDbLine
 10
189.2522135161
 20
205.3804197612
 30
0.0
 11
189.2522135161
 21
191.6994280445
 31
0.0
  0
LINE
  5
F8
330
1F
100
AcDbEntity
  8
0
  6
CONTINUOUS
 62
     7
100
AcDbLine
 10
234.3522132717
 20
191.6994280445
 30
0.0
 11
234.3522132717
 21
205.3804197612
 31
0.0
  0
ARC
  5
F9
330
1F
100
AcDbEntity
  8
0
  6
CONTINUOUS
 62
     7
100
AcDbCircle
 10
189.9522133939
 20
191.6994283562
 30
0.0
 40
0.6999999999999886
100
AcDbArc
 50
180.0
 51
229.0
  0
ARC
  5
FA
330
1F
100
AcDbEntity
  8
0
  6
CONTINUOUS
 62
     7
100
AcDbCircle
 10
233.6522133939
 20
191.6994283562
 30
0.0
 40
0.700000000000017
100
AcDbArc
 50
311.0
 51
360.0
  0
LINE
  5
FB
330
1F
100
AcDbEntity
  8
0
  6
CONTINUOUS
 62
     7
100
AcDbLine
 10
189.3022124998
 20
185.0681877959
 30
0.0
 11
189.3022124998
 21
156.9204214293
 31
0.0
  0
LINE
  5
FC
330
1F
100
AcDbEntity
  8
0
  6
CONTINUOUS
 62
     7
100
AcDbLine
 10
234.3022142879
 20
156.9204214293
 30
0.0
 11
234.3022142879
 21
185.0681300539
 31
0.0
  0
ARC
  5
FD
330
1F
100
AcDbEntity
  8
0
  6
CONTINUOUS
 62
     7
100
AcDbCircle
 10
233.7622133939
 20
156.9204199773
 30
0.0
 40
0.539999999999992
100
AcDbArc
 50
270.0
 51
0.0
  0
ARC
  5
FE
330
1F
100
AcDbEntity
  8
0
  6
CONTINUOUS
 62
     7
100
AcDbCircle
 10
189.8422133939
 20
156.9204199773
 30
0.0
 40
0.539999999999992
100
AcDbArc
 50
180.0
 51
270.0
  0
LINE
  5
FF
330
1F
100
AcDbEntity
  8
0
  6
CONTINUOUS
 62
     7
100
AcDbLine
 10
189.4929715775
 20
191.1711315888
 30
0.0
 11
189.5744772039
 21
191.1002802926
 31
0.0
  0
LINE
  5
100
330
1F
100
AcDbEntity
  8
0
  6
CONTINUOUS
 62
     7
100
AcDbLine
 10
234.0299495838
 20
191.1002802926
 30
0.0
 11
234.1114552103
 21
191.1711315888
 31
0.0
  0
ARC
  5
101
330
1F
100
AcDbEntity
  8
0
  6
CONTINUOUS
 62
     7
100
AcDbCircle
 10
189.1152357127
 20
190.5719837636
 30
0.0
 40
0.6999999999999972
100
AcDbArc
 50
2.7443153111
 51
49.0
  0
ARC
  5
102
330
1F
100
AcDbEntity
  8
0
  6
CONTINUOUS
 62
     7
100
AcDbCircle
 10
234.4891910751
 20
190.5719837636
 30
0.0
 40
0.6999999999999972
100
AcDbArc
 50
131.0
 51
177.2556846889
  0
ARC
  5
103
330
1F
100
AcDbEntity
  8
0
  6
CONTINUOUS
 62
     7
100
AcDbCircle
 10
211.7892020314
 20
191.6588376539
 30
0.0
 40
22.0
100
AcDbArc
 50
182.7443153111
 51
200.0310157416
  0
ARC
  5
104
330
1F
100
AcDbEntity
  8
0
  6
CONTINUOUS
 62
     7
100
AcDbCircle
 10
211.8152247564
 20
191.6588376539
 30
0.0
 40
22.00000000000002
100
AcDbArc
 50
340.0573181307
 51
357.2556846889
  0
LINE
  5
105
330
1F
100
AcDbEntity
  8
0
  6
CONTINUOUS
 62
     7
100
AcDbLine
 10
190.3535378508
 20
184.596403994
 30
0.0
 11
190.3466274373
 21
184.6016827303
 31
0.0
  0
LINE
  5
106
330
1F
100
AcDbEntity
  8
0
  6
CONTINUOUS
 62
     7
100
AcDbLine
 10
233.2564321689
 20
184.6015299934
 30
0.0
 11
233.2498682074
 21
184.5962903726
 31
0.0
  0
LINE
  5
107
330
1F
100
AcDbEntity
  8
0
  6
CONTINUOUS
 62
     7
100
AcDbLine
 10
261.7022124462
 20
212.3804199773
 30
0.0
 11
161.9022143416
 21
212.3804199773
 31
0.0
  0
LINE
  5
108
330
1F
100
AcDbEntity
  8
0
  6
CONTINUOUS
 62
     7
100
AcDbLine
 10
260.7022141449
 20
205.3804197612
 30
0.0
 11
162.9022126429
 21
205.3804197612
 31
0.0
  0
SPLINE
  5
109
330
1F
100
AcDbEntity
  8
0
  6
CONTINUOUS
 62
     7
100
AcDbSpline
210
0.0
220
0.0
230
1.0
 70
     8
 71
     3
 72
    50
 73
    46
 74
     0
 42
0.000000001
 43
0.00000001
 40
0.0
 40
0.0
 40
0.0
 40
0.0
 40
0.0624999999999996
 40
0.0624999999999996
 40
0.1249999999999992
 40
0.1249999999999992
 40
0.1562499999999991
 40
0.1562499999999991
 40
0.1874999999999989
 40
0.1874999999999989
 40
0.2499999999999987
 40
0.2499999999999987
 40
0.2812499999999986
 40
0.2812499999999986
 40
0.3124999999999986
 40
0.3124999999999986
 40
0.3749999999999986
 40
0.3749999999999986
 40
0.4374999999999986
 40
0.4374999999999986
 40
0.4999999999999986
 40
0.4999999999999986
 40
0.5624999999999984
 40
0.5624999999999984
 40
0.5937499999999986
 40
0.5937499999999986
 40
0.6249999999999986
 40
0.6249999999999986
 40
0.6874999999999984
 40
0.6874999999999984
 40
0.7187499999999984
 40
0.7187499999999984
 40
0.7499999999999983
 40
0.7499999999999983
 40
0.8124999999999984
 40
0.8124999999999984
 40
0.8437499999999988
 40
0.8437499999999988
 40
0.874999999999999
 40
0.874999999999999
 40
0.9374999999999994
 40
0.9374999999999994
 40
0.9687499999999998
 40
0.9687499999999998
 40
1.0
 40
1.0
 40
1.0
 40
1.0
 10
233.3117824125127
 20
184.6154213803341
 30
0.0
 10
233.0314615532638
 20
184.4033129477205
 30
0.0
 10
232.6537479767904
 20
184.1976878690904
 30
0.0
 10
231.7138227091575
 20
183.800647405619
 30
0.0
 10
231.1511522591277
 20
183.6089418982699
 30
0.0
 10
230.1622494454252
 20
183.3320346708343
 30
0.0
 10
229.8104345584878
 20
183.2421632299082
 30
0.0
 10
229.0703794341108
 20
183.0690237786254
 30
0.0
 10
228.6810714131922
 20
182.9854674310381
 30
0.0
 10
227.4560904004197
 20
182.7437159230416
 30
0.0
 10
226.5635893048543
 20
182.5944025305913
 30
0.0
 10
225.1060094238479
 20
182.3890043238708
 30
0.0
 10
224.6040517547077
 20
182.3242051122666
 30
0.0
 10
223.5774399127208
 20
182.2029981752017
 30
0.0
 10
223.0513604189415
 20
182.1464112240283
 30
0.0
 10
221.4355330667732
 20
181.9884698007274
 30
0.0
 10
220.308469214146
 20
181.8988489556078
 30
0.0
 10
217.9492253836271
 20
181.7526599397389
 30
0.0
 10
216.746862973574
 20
181.6978058510496
 30
0.0
 10
214.3112900842569
 20
181.6243709557851
 30
0.0
 10
213.0760523650802
 20
181.6054484559236
 30
0.0
 10
210.5688638895705
 20
181.6050394943547
 30
0.0
 10
209.3266225885958
 20
181.6235801035451
 30
0.0
 10
207.4813780499613
 20
181.6788906462617
 30
0.0
 10
206.8669894370255
 20
181.7021183347546
 30
0.0
 10
205.6611254871966
 20
181.7572192812621
 30
0.0
 10
205.0684653994318
 20
181.789073704781
 30
0.0
 10
203.3205047886616
 20
181.8972152961031
 30
0.0
 10
202.1953396978575
 20
181.9861292966898
 30
0.0
 10
200.5680406759749
 20
182.1448284408651
 30
0.0
 10
200.0333206498744
 20
182.2022783041064
 30
0.0
 10
199.0017720504114
 20
182.3240124558228
 30
0.0
 10
198.5038663808301
 20
182.3883231799372
 30
0.0
 10
197.0620053107845
 20
182.591249045774
 30
0.0
 10
196.1697703363548
 20
182.7398317649453
 30
0.0
 10
194.9358537758883
 20
182.9828327647899
 30
0.0
 10
194.5402960288373
 20
183.0676205695673
 30
0.0
 10
193.7963146085462
 20
183.2415618721017
 30
0.0
 10
193.4473689125549
 20
183.3307251943463
 30
0.0
 10
192.4677358968056
 20
183.6046094473987
 30
0.0
 10
191.9038017419757
 20
183.7956817619117
 30
0.0
 10
191.1927812584088
 20
184.0951237733373
 30
0.0
 10
190.9777959962971
 20
184.1974083978289
 30
0.0
 10
190.5978505124197
 20
184.404547890594
 30
0.0
 10
190.4328099695998
 20
184.5093632560543
 30
0.0
 10
190.2926443752285
 20
184.6154213803341
 30
0.0
  0
ARC
  5
10A
330
1F
100
AcDbEntity
  8
0
  6
CONTINUOUS
 62
     7
100
AcDbCircle
 10
190.2968908796
 20
184.522685513
 30
0.0
 40
0.0928566454238675
100
AcDbArc
 50
26.5545169815
 51
52.4302612957
  0
ARC
  5
10B
330
1F
100
AcDbEntity
  8
0
  6
CONTINUOUS
 62
     7
100
AcDbCircle
 10
233.307782015
 20
184.5224818062
 30
0.0
 40
0.0931707981897933
100
AcDbArc
 50
128.1767164149
 51
157.1852443945
  0
SPLINE
  5
10C
330
1F
100
AcDbEntity
  8
0
  6
CONTINUOUS
 62
     7
100
AcDbSpline
210
0.0
220
0.0
230
1.0
 70
     8
 71
     3
 72
     9
 73
     5
 74
     0
 42
0.000000001
 43
0.00000001
 40
0.0
 40
0.0
 40
0.0
 40
0.0
 40
0.4078879864422311
 40
1.0
 40
1.0
 40
1.0
 40
1.0
 10
189.7227586589492
 20
184.5223265963703
 30
0.0
 10
189.6182928502356
 20
184.6201451116187
 30
0.0
 10
189.3621788871233
 20
184.8599622145975
 30
0.0
 10
189.3551111502815
 20
184.9907479755853
 30
0.0
 10
189.3509262583888
 20
185.0681877958685
 30
0.0
  0
SPLINE
  5
10D
330
1F
100
AcDbEntity
  8
0
  6
CONTINUOUS
 62
     7
100
AcDbSpline
210
0.0
220
0.0
230
1.0
 70
     8
 71
     3
 72
    10
 73
     6
 74
     0
 42
0.000000001
 43
0.00000001
 40
0.0
 40
0.0
 40
0.0
 40
0.0
 40
0.0557220435550116
 40
0.6552205860063612
 40
1.0
 40
1.0
 40
1.0
 40
1.0
 10
234.1011287055648
 20
185.2549030709177
 30
0.0
 10
234.1180795661979
 20
185.2532085557758
 30
0.0
 10
234.3174001963972
 20
185.2332832060684
 30
0.0
 10
234.3954851662351
 20
185.1007579781852
 30
0.0
 10
234.1499845009673
 20
184.8346942796281
 30
0.0
 10
234.0603460900224
 20
184.7375477927834
 30
0.0
  0
LINE
  5
10E
330
1F
100
AcDbEntity
  8
0
  6
CONTINUOUS
 62
     7
100
AcDbLine
 10
233.9553934864
 20
184.6111300665
 30
0.0
 11
233.8816681288
 21
184.5223265964
 31
0.0
  0
LINE
  5
10F
330
1F
100
AcDbEntity
  8
0
  6
CONTINUOUS
 62
     7
100
AcDbLine
 10
189.8422138177
 20
156.3804182488
 30
0.0
 11
233.7622129701
 21
156.3804182488
 31
0.0
  0
SPLINE
  5
110
330
1F
100
AcDbEntity
  8
0
  6
CONTINUOUS
 62
     7
100
AcDbSpline
210
0.0
220
0.0
230
1.0
 70
     8
 71
     3
 72
    12
 73
     8
 74
     0
 42
0.000000001
 43
0.00000001
 40
0.0
 40
0.0
 40
0.0
 40
0.0
 40
0.4999999999999993
 40
0.4999999999999993
 40
0.7499999999999997
 40
0.7499999999999997
 40
1.0
 40
1.0
 40
1.0
 40
1.0
 10
233.7835380527985
 20
184.6208076279088
 30
0.0
 10
234.0625842048647
 20
184.8722157516718
 30
0.0
 10
234.2018230600843
 20
185.0619889423132
 30
0.0
 10
234.2024073429977
 20
185.2527378172018
 30
0.0
 10
234.1676500679762
 20
185.3006488265924
 30
0.0
 10
234.0254338234858
 20
185.3646104606756
 30
0.0
 10
233.9179911452742
 20
185.3804199772984
 30
0.0
 10
233.7748989765019
 20
185.3804199772984
 30
0.0
  0
ARC
  5
111
330
1F
100
AcDbEntity
  8
0
  6
CONTINUOUS
 62
     7
100
AcDbCircle
 10
189.8295720898
 20
185.2837992918
 30
0.0
 40
0.0966199954986473
100
AcDbArc
 50
90.0265357526
 51
118.1506946219
  0
SPLINE
  5
112
330
1F
100
AcDbEntity
  8
0
  6
CONTINUOUS
 62
     7
100
AcDbSpline
210
0.0
220
0.0
230
1.0
 70
     8
 71
     3
 72
    12
 73
     8
 74
     0
 42
0.000000001
 43
0.00000001
 40
0.0
 40
0.0
 40
0.0
 40
0.0
 40
0.4999999999999997
 40
0.4999999999999997
 40
0.7499999999999998
 40
0.7499999999999998
 40
1.0
 40
1.0
 40
1.0
 40
1.0
 10
189.8295278112394
 20
185.3804199772984
 30
0.0
 10
189.5433273605651
 20
185.3804199772984
 30
0.0
 10
189.4033649071302
 20
185.3177090321837
 30
0.0
 10
189.4016481497188
 20
185.1280004631057
 30
0.0
 10
189.4360366254104
 20
185.0488034827492
 30
0.0
 10
189.5758901361446
 20
184.8579466298239
 30
0.0
 10
189.6813289590975
 20
184.7465447546824
 30
0.0
 10
189.8208887349428
 20
184.6208076279088
 30
0.0
  0
SPLINE
  5
113
330
1F
100
AcDbEntity
  8
0
  6
CONTINUOUS
 62
     7
100
AcDbSpline
210
0.0
220
0.0
230
1.0
 70
     8
 71
     3
 72
     8
 73
     4
 74
     0
 42
0.000000001
 43
0.00000001
 40
0.0
 40
0.0
 40
0.0
 40
0.0
 40
1.0
 40
1.0
 40
1.0
 40
1.0
 10
233.8446524114148
 20
185.1219832157561
 30
0.0
 10
233.7685134178386
 20
184.9975569469798
 30
0.0
 10
233.5915166067013
 20
184.8286768781426
 30
0.0
 10
233.3188809250931
 20
184.6208076279088
 30
0.0
  0
SPLINE
  5
114
330
1F
100
AcDbEntity
  8
0
  6
CONTINUOUS
 62
     7
100
AcDbSpline
210
0.0
220
0.0
230
1.0
 70
     8
 71
     3
 72
     8
 73
     4
 74
     0
 42
0.000000001
 43
0.00000001
 40
0.0
 40
0.0
 40
0.0
 40
0.0
 40
1.0
 40
1.0
 40
1.0
 40
1.0
 10
233.4445117846837
 20
185.3804199772984
 30
0.0
 10
233.6860662368195
 20
185.3804199772984
 30
0.0
 10
233.827124931222
 20
185.3366490480934
 30
0.0
 10
233.8663337979207
 20
185.2472350614218
 30
0.0
  0
LINE
  5
115
330
1F
100
AcDbEntity
  8
0
  6
CONTINUOUS
 62
     7
100
AcDbLine
 10
233.4445109002
 20
185.3804192769
 30
0.0
 11
233.7748994462
 21
185.3804192769
 31
0.0
  0
LWPOLYLINE
  5
116
330
1F
100
AcDbEntity
  8
0
  6
CONTINUOUS
 62
     7
100
AcDbPolyline
 90
        7
 70
   128
 43
0.0
 10
233.2658422522
 20
184.5829743224
 10
233.4032607607
 20
184.6921886581
 10
233.5563329391
 20
184.8275861967
 10
233.6715449922
 20
184.9469500858
 10
233.7484945886
 20
185.049768098
 10
233.7484983138
 20
185.0497755486
 10
233.7484983138
 20
185.0497755486
  0
SPLINE
  5
117
330
1F
100
AcDbEntity
  8
0
  6
CONTINUOUS
 62
     7
100
AcDbSpline
210
0.0
220
0.0
230
1.0
 70
     8
 71
     3
 72
     8
 73
     4
 74
     0
 42
0.000000001
 43
0.00000001
 40
0.0
 40
0.0
 40
0.0
 40
0.0
 40
1.0
 40
1.0
 40
1.0
 40
1.0
 10
190.2855458626481
 20
184.6208076279088
 30
0.0
 10
190.0129101808809
 20
184.8286768782639
 30
0.0
 10
189.8359133695189
 20
184.9975569473662
 30
0.0
 10
189.7597743760958
 20
185.1219832161331
 30
0.0
  0
SPLINE
  5
118
330
1F
100
AcDbEntity
  8
0
  6
CONTINUOUS
 62
     7
100
AcDbSpline
210
0.0
220
0.0
230
1.0
 70
     8
 71
     3
 72
    12
 73
     8
 74
     0
 42
0.000000001
 43
0.00000001
 40
0.0
 40
0.0
 40
0.0
 40
0.0
 40
0.0000186261526687
 40
0.2871814086737043
 40
0.5743584407877186
 40
0.8615370676119883
 40
1.0
 40
1.0
 40
1.0
 40
1.0
 10
189.8559284738934
 20
185.0497755485684
 30
0.0
 10
189.8559297156478
 20
185.0497730650288
 30
0.0
 10
189.8750753110434
 20
185.0114814003736
 30
0.0
 10
189.9262236344135
 20
184.9530153915737
 30
0.0
 10
190.0429033759365
 20
184.8289267985874
 30
0.0
 10
190.165193745273
 20
184.7196090693182
 30
0.0
 10
190.2611836540918
 20
184.6442022896391
 30
0.0
 10
190.2924095622933
 20
184.6196721571594
 30
0.0
  0
LINE
  5
119
330
1F
100
AcDbEntity
  8
0
  6
CONTINUOUS
 62
     7
100
AcDbLine
 10
189.8295273415
 20
185.3804192769
 30
0.0
 11
190.1599158875
 21
185.3804192769
 31
0.0
  0
SPLINE
  5
11A
330
1F
100
AcDbEntity
  8
0
  6
CONTINUOUS
 62
     7
100
AcDbSpline
210
0.0
220
0.0
230
1.0
 70
     8
 71
     3
 72
     8
 73
     4
 74
     0
 42
0.000000001
 43
0.00000001
 40
0.0
 40
0.0
 40
0.0
 40
0.0
 40
1.0
 40
1.0
 40
1.0
 40
1.0
 10
189.7380929892288
 20
185.2472350600724
 30
0.0
 10
189.777301855988
 20
185.3366490476293
 30
0.0
 10
189.9183605497666
 20
185.3804199772984
 30
0.0
 10
190.1599150030576
 20
185.3804199772984
 30
0.0
  0
LWPOLYLINE
  5
11B
330
1F
100
AcDbEntity
  8
0
  6
CONTINUOUS
 62
     7
100
AcDbPolyline
 90
        4
 70
   128
 43
0.0
 10
189.8379688494
 20
185.0935961383
 10
189.8559247486
 20
185.0497811365
 10
189.8559284739
 20
185.0497755486
 10
189.8559284739
 20
185.0497755486
  0
SPLINE
  5
11C
330
1F
100
AcDbEntity
  8
0
  6
CONTINUOUS
 62
     7
100
AcDbSpline
210
0.0
220
0.0
230
1.0
 70
    24
 71
     3
 72
     9
 73
     5
 74
     0
 42
0.000000001
 43
0.00000001
 40
0.0
 40
0.0
 40
0.0
 40
0.0
 40
0.0000285286755107
 40
1.0
 40
1.0
 40
1.0
 40
1.0
 10
233.3470964215434
 20
185.3071856576115
 30
0.0
 10
233.3470926962746
 20
185.3071856576115
 30
0.0
 10
233.2165128933039
 20
185.3071856575843
 30
0.0
 10
233.0067914228275
 20
185.3071856575979
 30
0.0
 10
232.797075935427
 20
185.3071856576115
 30
0.0
  0
LINE
  5
11D
330
1F
100
AcDbEntity
  8
0
  6
CONTINUOUS
 62
     7
100
AcDbLine
 10
190.7842894427
 20
185.3071856576
 30
0.0
 11
190.2573303662
 21
185.3071856576
 31
0.0
  0
SPLINE
  5
11E
330
1F
100
AcDbEntity
  8
0
  6
CONTINUOUS
 62
     7
100
AcDbSpline
210
0.0
220
0.0
230
1.0
 70
    24
 71
     3
 72
     9
 73
     5
 74
     0
 42
0.000000001
 43
0.00000001
 40
0.0
 40
0.0
 40
0.0
 40
0.0
 40
0.2257602852071248
 40
1.0
 40
1.0
 40
1.0
 40
1.0
 10
190.1628849439061
 20
185.3804192769438
 30
0.0
 10
190.1951437494874
 20
185.3804192769438
 30
0.0
 10
190.3380333881665
 20
185.3804192769438
 30
0.0
 10
190.5792510286789
 20
185.3804192769438
 30
0.0
 10
190.7660113058722
 20
185.3804192769438
 30
0.0
  0
LINE
  5
11F
330
1F
100
AcDbEntity
  8
0
  6
CONTINUOUS
 62
     7
100
AcDbLine
 10
232.8176674776
 20
185.3804192769
 30
0.0
 11
233.4415418438
 21
185.3804192769
 31
0.0
  0
SPLINE
  5
120
330
1F
100
AcDbEntity
  8
0
  6
CONTINUOUS
 62
     7
100
AcDbSpline
210
0.0
220
0.0
230
1.0
 70
    24
 71
     3
 72
     8
 73
     4
 74
     0
 42
0.000000001
 43
0.00000001
 40
0.0
 40
0.0
 40
0.0
 40
0.0
 40
0.0000150272153671
 40
0.0000150272153671
 40
0.0000150272153671
 40
0.0000150272153671
 10
233.4415420768433
 20
185.3804199772984
 30
0.0
 10
233.4425334455324
 20
185.3804199772984
 30
0.0
 10
233.4435233482966
 20
185.3804199772984
 30
0.0
 10
233.4445117846837
 20
185.3804199772984
 30
0.0
  0
SPLINE
  5
121
330
1F
100
AcDbEntity
  8
0
  6
CONTINUOUS
 62
     7
100
AcDbSpline
210
0.0
220
0.0
230
1.0
 70
    24
 71
     3
 72
     8
 73
     4
 74
     0
 42
0.000000001
 43
0.00000001
 40
0.0
 40
0.0
 40
0.0
 40
0.0
 40
0.0000150272153671
 40
0.0000150272153671
 40
0.0000150272153671
 40
0.0000150272153671
 10
190.1599150030576
 20
185.3804199772984
 30
0.0
 10
190.1609034394446
 20
185.3804199772984
 30
0.0
 10
190.1618933422088
 20
185.3804199772984
 30
0.0
 10
190.162884710898
 20
185.3804199772984
 30
0.0
  0
LINE
  5
122
330
1F
100
AcDbEntity
  8
0
  6
CONTINUOUS
 62
     8
100
AcDbLine
 10
261.7022124462
 20
206.3804199251
 30
0.0
 11
161.9022143416
 21
206.3804199251
 31
0.0
  0
ARC
  5
123
330
1F
100
AcDbEntity
  8
0
  6
CONTINUOUS
 62
     8
100
AcDbCircle
 10
190.296758061
 20
184.5221496749
 30
0.0
 40
0.0933626026441053
100
AcDbArc
 50
52.5661578631
 51
92.5254225871
  0
ARC
  5
124
330
1F
100
AcDbEntity
  8
0
  6
CONTINUOUS
 62
     8
100
AcDbCircle
 10
233.3076875183
 20
184.5220922067
 30
0.0
 40
0.093419189446605
100
AcDbArc
 50
87.4876444668
 51
127.9834642353
  0
ELLIPSE
  5
125
330
1F
100
AcDbEntity
  8
0
  6
CONTINUOUS
 62
     8
100
AcDbEllipse
 10
211.8022133939
 20
185.380884631
 30
0.0
 11
22.40000000000001
 21
0.0
 31
0.0
210
0.0
220
0.0
230
1.0
 40
0.1763269807
 41
3.335238619882461
 42
6.08953934088707
  0
LINE
  5
126
330
1F
100
AcDbEntity
  8
0
  6
CONTINUOUS
 62
     8
100
AcDbLine
 10
190.2855457149
 20
184.6208083707
 30
0.0
 11
189.8208883933
 21
184.6208083707
 31
0.0
  0
SPLINE
  5
127
330
1F
100
AcDbEntity
  8
0
  6
CONTINUOUS
 62
     8
100
AcDbSpline
210
0.0
220
0.0
230
1.0
 70
     8
 71
     3
 72
     8
 73
     4
 74
     0
 42
0.000000001
 43
0.00000001
 40
0.0
 40
0.0
 40
0.0
 40
0.0
 40
0.0000318200463661
 40
0.0000318200463661
 40
0.0000318200463661
 40
0.0000318200463661
 10
190.2926443752285
 20
184.6154213803341
 30
0.0
 10
190.2902719018386
 20
184.6172165453824
 30
0.0
 10
190.2879057293394
 20
184.6190119618777
 30
0.0
 10
190.2855458626481
 20
184.6208076279088
 30
0.0
  0
SPLINE
  5
128
330
1F
100
AcDbEntity
  8
0
  6
CONTINUOUS
 62
     8
100
AcDbSpline
210
0.0
220
0.0
230
1.0
 70
     8
 71
     3
 72
     8
 73
     4
 74
     0
 42
0.000000001
 43
0.00000001
 40
0.0
 40
0.0
 40
0.0
 40
0.0
 40
0.0000318200463661
 40
0.0000318200463661
 40
0.0000318200463661
 40
0.0000318200463661
 10
233.3188809250931
 20
184.6208076279088
 30
0.0
 10
233.3165210584019
 20
184.6190119618777
 30
0.0
 10
233.3141548859027
 20
184.6172165453824
 30
0.0
 10
233.3117824125127
 20
184.6154213803341
 30
0.0
  0
LINE
  5
129
330
1F
100
AcDbEntity
  8
0
  6
CONTINUOUS
 62
     8
100
AcDbLine
 10
233.7835383944
 20
184.6208083707
 30
0.0
 11
233.3188810728
 21
184.6208083707
 31
0.0
  0
LINE
  5
12A
330
1F
100
AcDbEntity
  8
0
  6
CONTINUOUS
 62
     8
100
AcDbLine
 10
211.8022133939
 20
191.6994280445
 30
0.0
 11
234.3522132717
 21
191.6994280445
 31
0.0
  0
LINE
  5
12B
330
1F
100
AcDbEntity
  8
0
  6
CONTINUOUS
 62
     8
100
AcDbLine
 10
189.2522135161
 20
191.6994280445
 30
0.0
 11
211.8022133939
 21
191.6994280445
 31
0.0
  0
LINE
  5
12C
330
1F
100
AcDbEntity
  8
0
  6
CONTINUOUS
 62
     8
100
AcDbLine
 10
211.8022133939
 20
191.1711315888
 30
0.0
 11
234.1114552103
 21
191.1711315888
 31
0.0
  0
LINE
  5
12D
330
1F
100
AcDbEntity
  8
0
  6
CONTINUOUS
 62
     8
100
AcDbLine
 10
189.4929715775
 20
191.1711315888
 30
0.0
 11
211.8022133939
 21
191.1711315888
 31
0.0
  0
ELLIPSE
  5
12E
330
1F
100
AcDbEntity
  8
0
  6
CONTINUOUS
 62
     8
100
AcDbEllipse
 10
211.8022133939
 20
185.2824038557
 30
0.0
 11
22.49999999999997
 21
0.0
 31
0.0
210
0.0
220
0.0
230
1.0
 40
0.1755433052
 41
3.335238619882469
 42
6.089539340887066
  0
LINE
  5
12F
330
1F
100
AcDbEntity
  8
0
  6
CONTINUOUS
 62
     8
100
AcDbLine
 10
189.3022124998
 20
156.9204214293
 30
0.0
 11
234.3022142879
 21
156.9204214293
 31
0.0
  0
ARC
  5
130
330
1F
100
AcDbEntity
  8
0
  6
CONTINUOUS
 62
     8
100
AcDbCircle
 10
233.7794068
 20
184.5185611818
 30
0.0
 40
0.1023306294255198
100
AcDbArc
 50
2.1087633443
 51
87.6860565931
  0
ARC
  5
131
330
1F
100
AcDbEntity
  8
0
  6
CONTINUOUS
 62
     8
100
AcDbCircle
 10
189.8250199878
 20
184.5185611818
 30
0.0
 40
0.1023306294254988
100
AcDbArc
 50
92.3139434069
 51
177.8912366557
  0
LINE
  5
132
330
1F
100
AcDbEntity
  8
0
  6
CONTINUOUS
 62
     8
100
AcDbLine
 10
211.8022133939
 20
191.1002802926
 30
0.0
 11
234.0299495838
 21
191.1002802926
 31
0.0
  0
LINE
  5
133
330
1F
100
AcDbEntity
  8
0
  6
CONTINUOUS
 62
     8
100
AcDbLine
 10
189.5744772039
 20
191.1002802926
 30
0.0
 11
211.8022133939
 21
191.1002802926
 31
0.0
  0
LINE
  5
134
330
1F
100
AcDbEntity
  8
0
  6
CONTINUOUS
 62
     8
100
AcDbLine
 10
211.8022133939
 20
190.6054984111
 30
0.0
 11
233.7899943225
 21
190.6054984111
 31
0.0
  0
LINE
  5
135
330
1F
100
AcDbEntity
  8
0
  6
CONTINUOUS
 62
     8
100
AcDbLine
 10
189.8144324653
 20
190.6054984111
 30
0.0
 11
211.8022133939
 21
190.6054984111
 31
0.0
  0
ARC
  5
136
330
1F
100
AcDbEntity
  8
0
  6
CONTINUOUS
 62
     8
100
AcDbCircle
 10
190.2896054243
 20
184.5273624883
 30
0.0
 40
0.0935340268701051
100
AcDbArc
 50
52.4711157331
 51
92.4876220478
  0
ARC
  5
137
330
1F
100
AcDbEntity
  8
0
  6
CONTINUOUS
 62
     8
100
AcDbCircle
 10
233.3147891893
 20
184.5274819655
 30
0.0
 40
0.0934160661298191
100
AcDbArc
 50
87.4894822533
 51
128.3113561427
  0
SPLINE
  5
138
330
1F
100
AcDbEntity
  8
0
  6
CONTINUOUS
 62
     8
100
AcDbSpline
210
0.0
220
0.0
230
1.0
 70
     8
 71
     3
 72
     8
 73
     4
 74
     0
 42
0.000000001
 43
0.00000001
 40
0.0
 40
0.0
 40
0.0
 40
0.0
 40
1.0
 40
1.0
 40
1.0
 40
1.0
 10
233.8663337979207
 20
185.2472350614218
 30
0.0
 10
233.8816410893515
 20
185.2123272909677
 30
0.0
 10
233.874347133358
 20
185.1705102716188
 30
0.0
 10
233.8446524114148
 20
185.1219832157561
 30
0.0
  0
ARC
  5
139
330
1F
100
AcDbEntity
  8
0
  6
CONTINUOUS
 62
     8
100
AcDbCircle
 10
233.8437959442
 20
185.0229983989
 30
0.0
 40
0.0989881513101345
100
AcDbArc
 50
89.504622646
 51
164.3054641882
  0
ARC
  5
13A
330
1F
100
AcDbEntity
  8
0
  6
CONTINUOUS
 62
     8
100
AcDbCircle
 10
189.7606308435
 20
185.0229983989
 30
0.0
 40
0.098988151310152
100
AcDbArc
 50
15.6945358118
 51
90.495377354
  0
SPLINE
  5
13B
330
1F
100
AcDbEntity
  8
0
  6
CONTINUOUS
 62
     8
100
AcDbSpline
210
0.0
220
0.0
230
1.0
 70
     8
 71
     3
 72
     8
 73
     4
 74
     0
 42
0.000000001
 43
0.00000001
 40
0.0
 40
0.0
 40
0.0
 40
0.0
 40
1.0
 40
1.0
 40
1.0
 40
1.0
 10
189.7597743760958
 20
185.1219832161331
 30
0.0
 10
189.7300796680645
 20
185.1705102494162
 30
0.0
 10
189.7227857162379
 20
185.2123273313781
 30
0.0
 10
189.7380929892288
 20
185.2472350600724
 30
0.0
  0
SPLINE
  5
13C
330
1F
100
AcDbEntity
  8
0
  6
CONTINUOUS
 62
     8
100
AcDbSpline
210
0.0
220
0.0
230
1.0
 70
     8
 71
     3
 72
     8
 73
     4
 74
     0
 42
0.000000001
 43
0.00000001
 40
0.0
 40
0.0
 40
0.0
 40
0.0
 40
1.0
 40
1.0
 40
1.0
 40
1.0
 10
233.7761806109782
 20
185.1175255144528
 30
0.0
 10
233.7797684365823
 20
185.1382813564087
 30
0.0
 10
233.7777934547271
 20
185.1573204512428
 30
0.0
 10
233.7702208559916
 20
185.1746411197263
 30
0.0
  0
ARC
  5
13D
330
1F
100
AcDbEntity
  8
0
  6
CONTINUOUS
 62
     8
100
AcDbCircle
 10
233.8665421828
 20
185.1470349741
 30
0.0
 40
0.1001998051970467
100
AcDbArc
 50
90.1196304031
 51
164.0071928908
  0
SPLINE
  5
13E
330
1F
100
AcDbEntity
  8
0
  6
CONTINUOUS
 62
     8
100
AcDbSpline
210
0.0
220
0.0
230
1.0
 70
     8
 71
     3
 72
     8
 73
     4
 74
     0
 42
0.000000001
 43
0.00000001
 40
0.0
 40
0.0
 40
0.0
 40
0.0
 40
1.0
 40
1.0
 40
1.0
 40
1.0
 10
189.8342059317496
 20
185.1746411197263
 30
0.0
 10
189.8265916243924
 20
185.1572250518648
 30
0.0
 10
189.8246366943577
 20
185.1380625632988
 30
0.0
 10
189.8283076218014
 20
185.1171729797172
 30
0.0
  0
ARC
  5
13F
330
1F
100
AcDbEntity
  8
0
  6
CONTINUOUS
 62
     8
100
AcDbCircle
 10
189.737884605
 20
185.1470349741
 30
0.0
 40
0.1001998051970799
100
AcDbArc
 50
15.9928071092
 51
89.8803695969
  0
LINE
  5
140
330
1F
100
AcDbEntity
  8
0
  6
CONTINUOUS
 62
     8
100
AcDbLine
 10
233.7269363336
 20
185.0209641534
 30
0.0
 11
233.7702204816
 21
185.1746416914
 31
0.0
  0
LINE
  5
141
330
1F
100
AcDbEntity
  8
0
  6
CONTINUOUS
 62
     8
100
AcDbLine
 10
189.8774904541
 20
185.0209641534
 30
0.0
 11
189.8342063062
 21
185.1746416914
 31
0.0
  0
SPLINE
  5
142
330
1F
100
AcDbEntity
  8
0
  6
CONTINUOUS
 62
     8
100
AcDbSpline
210
0.0
220
0.0
230
1.0
 70
     8
 71
     3
 72
     8
 73
     4
 74
     0
 42
0.000000001
 43
0.00000001
 40
0.0
 40
0.0
 40
0.0
 40
0.0
 40
1.0
 40
1.0
 40
1.0
 40
1.0
 10
190.2543721399574
 20
185.3071847859258
 30
0.0
 10
190.0137527381118
 20
185.3071884022458
 30
0.0
 10
189.8732336009578
 20
185.2632707254064
 30
0.0
 10
189.8342059313764
 20
185.1746411210515
 30
0.0
  0
SPLINE
  5
143
330
1F
100
AcDbEntity
  8
0
  6
CONTINUOUS
 62
     8
100
AcDbSpline
210
0.0
220
0.0
230
1.0
 70
     8
 71
     3
 72
    11
 73
     7
 74
     0
 42
0.000000001
 43
0.00000001
 40
-0.00000006
 40
-0.00000006
 40
-0.00000006
 40
-0.00000006
 40
0.0
 40
0.0
 40
0.0
 40
0.0000149096833437
 40
0.0000149096833437
 40
0.0000149096833437
 40
0.0000149096833437
 10
190.257330488538
 20
185.3071847479908
 30
0.0
 10
190.2573265302352
 20
185.3071847480267
 30
0.0
 10
190.2573225719525
 20
185.3071847480749
 30
0.0
 10
190.257318613695
 20
185.307184748117
 30
0.0
 10
190.2563350075843
 20
185.3071847585823
 30
0.0
 10
190.2553528495229
 20
185.3071847711865
 30
0.0
 10
190.2543721399574
 20
185.3071847859258
 30
0.0
  0
LINE
  5
144
330
1F
100
AcDbEntity
  8
0
  6
CONTINUOUS
 62
     8
100
AcDbLine
 10
190.4749599628
 20
184.5053839761
 30
0.0
 11
190.2573303662
 21
185.3071856576
 31
0.0
  0
SPLINE
  5
145
330
1F
100
AcDbEntity
  8
0
  6
CONTINUOUS
 62
     8
100
AcDbSpline
210
0.0
220
0.0
230
1.0
 70
     8
 71
     3
 72
    11
 73
     7
 74
     0
 42
0.000000001
 43
0.00000001
 40
0.0
 40
0.0
 40
0.0
 40
0.0
 40
0.0000149096833437
 40
0.0000149096833437
 40
0.0000149096833437
 40
0.0000149696833437
 40
0.0000149696833437
 40
0.0000149696833437
 40
0.0000149696833437
 10
233.3500546477838
 20
185.3071847859258
 30
0.0
 10
233.3490739382183
 20
185.3071847711865
 30
0.0
 10
233.348091780157
 20
185.3071847585823
 30
0.0
 10
233.3471081740463
 20
185.307184748117
 30
0.0
 10
233.3471042157887
 20
185.3071847480749
 30
0.0
 10
233.347100257506
 20
185.3071847480267
 30
0.0
 10
233.3470962992033
 20
185.3071847479908
 30
0.0
  0
SPLINE
  5
146
330
1F
100
AcDbEntity
  8
0
  6
CONTINUOUS
 62
     8
100
AcDbSpline
210
0.0
220
0.0
230
1.0
 70
     8
 71
     3
 72
     8
 73
     4
 74
     0
 42
0.000000001
 43
0.00000001
 40
0.0
 40
0.0
 40
0.0
 40
0.0
 40
1.0
 40
1.0
 40
1.0
 40
1.0
 10
233.7702208563648
 20
185.1746411210515
 30
0.0
 10
233.7311939501716
 20
185.2635995357391
 30
0.0
 10
233.5906740497678
 20
185.3071884022458
 30
0.0
 10
233.3500546477838
 20
185.3071847859258
 30
0.0
  0
LINE
  5
147
330
1F
100
AcDbEntity
  8
0
  6
CONTINUOUS
 62
     8
100
AcDbLine
 10
233.1306216649
 20
184.5096419829
 30
0.0
 11
233.3470964215
 21
185.3071856576
 31
0.0
  0
ARC
  5
148
330
1F
100
AcDbEntity
  8
0
  6
CONTINUOUS
 62
     8
100
AcDbCircle
 10
190.1592696623
 20
185.2820539869
 30
0.0
 40
0.0983674127519739
100
AcDbArc
 50
14.8024895972
 51
89.6235923654
  0
ARC
  5
149
330
1F
100
AcDbEntity
  8
0
  6
CONTINUOUS
 62
     8
100
AcDbCircle
 10
233.4451571254
 20
185.2820539869
 30
0.0
 40
0.0983674127519681
100
AcDbArc
 50
90.3764076346
 51
165.1975104028
  0
ARC
  5
14A
330
1F
100
AcDbEntity
  8
0
  6
CONTINUOUS
 62
     8
100
AcDbCircle
 10
190.1622368418
 20
185.2820660788
 30
0.0
 40
0.0983553334835814
100
AcDbArc
 50
14.7970633678
 51
89.6224527606
  0
ARC
  5
14B
330
1F
100
AcDbEntity
  8
0
  6
CONTINUOUS
 62
     8
100
AcDbCircle
 10
233.442189946
 20
185.2820660788
 30
0.0
 40
0.0983553334835067
100
AcDbArc
 50
90.3775472394
 51
165.2029366322
  0
ENDSEC
  0
SECTION
  2
OBJECTS
  0
DICTIONARY
  5
C
330
0
100
AcDbDictionary
  3
ACAD_GROUP
350
D
  3
ACAD_MLINESTYLE
350
17
  3
ACAD_SCALELIST
350
47
  0
DICTIONARY
  5
D
102
{ACAD_REACTORS
330
C
102
}
330
C
100
AcDbDictionary
  0
DICTIONARY
  5
17
102
{ACAD_REACTORS
330
C
102
}
330
C
100
AcDbDictionary
  3
STANDARD
350
18
  0
DICTIONARY
  5
47
102
{ACAD_REACTORS
330
C
102
}
330
C
100
AcDbDictionary
  0
MLINESTYLE
  5
18
102
{ACAD_REACTORS
330
17
102
}
330
17
100
AcDbMlineStyle
  2
Standard
 70
     0
  3

 62
   256
 51
90.0
 52
90.0
 71
     2
 49
0.5
 62
   256
  6
BYLAYER
 49
-0.5
 62
   256
  6
BYLAYER
  0
ENDSEC
  0
EOF
