  0
SECTION
  2
HEADER
  9
$ACADVER
  1
AC1015
  9
$ACADMAINTVER
 70
     6
  9
$DWGCODEPAGE
  3
ANSI_1252
  9
$INSBASE
 10
0.0
 20
0.0
 30
0.0
  9
$EXTMIN
 10
0.0
 20
0.0
 30
0.0
  9
$EXTMAX
 10
594.0
 20
841.0
 30
0.0
  9
$LIMMIN
 10
0.0
 20
0.0
  9
$LIMMAX
 10
594.0
 20
841.0
  9
$ORTHOMODE
 70
     0
  9
$REGENMODE
 70
     1
  9
$FILLMODE
 70
     1
  9
$QTEXTMODE
 70
     0
  9
$MIRRTEXT
 70
     1
  9
$LTSCALE
 40
1.0
  9
$ATTMODE
 70
     1
  9
$TEXTSIZE
 40
10.0
  9
$TRACEWID
 40
1.0
  9
$TEXTSTYLE
  7
Standard
  9
$CLAYER
  8
0
  9
$CELTYPE
  6
ByLayer
  9
$CECOLOR
 62
   256
  9
$CELTSCALE
 40
1.0
  9
$DISPSILH
 70
     0
  9
$DIMSCALE
 40
1.0
  9
$DIMASZ
 40
2.5
  9
$DIMEXO
 40
0.0
  9
$DIMDLI
 40
3.75
  9
$DIMRND
 40
0.0
  9
$DIMDLE
 40
0.0
  9
$DIMEXE
 40
1.0
  9
$DIMTP
 40
0.0
  9
$DIMTM
 40
0.0
  9
$DIMTXT
 40
3.5
  9
$DIMCEN
 40
2.5
  9
$DIMTSZ
 40
0.0
  9
$DIMTOL
 70
     0
  9
$DIMLIM
 70
     0
  9
$DIMTIH
 70
     1
  9
$DIMTOH
 70
     1
  9
$DIMSE1
 70
     0
  9
$DIMSE2
 70
     0
  9
$DIMTAD
 70
     1
  9
$DIMZIN
 70
     0
  9
$DIMBLK
  1

  9
$DIMASO
 70
     1
  9
$DIMSHO
 70
     1
  9
$DIMPOST
  1

  9
$DIMAPOST
  1

  9
$DIMALT
 70
     0
  9
$DIMALTD
 70
     3
  9
$DIMALTF
 40
0.0393700787
  9
$DIMLFAC
 40
1.0
  9
$DIMTOFL
 70
     1
  9
$DIMTVP
 40
0.0
  9
$DIMTIX
 70
     0
  9
$DIMSOXD
 70
     0
  9
$DIMSAH
 70
     0
  9
$DIMBLK1
  1

  9
$DIMBLK2
  1

  9
$DIMSTYLE
  2
ISO-25
  9
$DIMCLRD
 70
     0
  9
$DIMCLRE
 70
     0
  9
$DIMCLRT
 70
     0
  9
$DIMTFAC
 40
1.0
  9
$DIMGAP
 40
1.5
  9
$DIMJUST
 70
     0
  9
$DIMSD1
 70
     0
  9
$DIMSD2
 70
     0
  9
$DIMTOLJ
 70
     0
  9
$DIMTZIN
 70
     0
  9
$DIMALTZ
 70
     0
  9
$DIMALTTZ
 70
     0
  9
$DIMUPT
 70
     0
  9
$DIMDEC
 70
     2
  9
$DIMTDEC
 70
     2
  9
$DIMALTU
 70
     2
  9
$DIMALTTD
 70
     3
  9
$DIMTXSTY
  7
Standard
  9
$DIMAUNIT
 70
     0
  9
$DIMADEC
 70
     2
  9
$DIMALTRND
 40
0.0
  9
$DIMAZIN
 70
     0
  9
$DIMDSEP
 70
    44
  9
$DIMATFIT
 70
     3
  9
$DIMFRAC
 70
     0
  9
$DIMLDRBLK
  1

  9
$DIMLUNIT
 70
     2
  9
$DIMLWD
 70
    -2
  9
$DIMLWE
 70
    -2
  9
$DIMTMOVE
 70
     0
  9
$LUNITS
 70
     2
  9
$LUPREC
 70
     2
  9
$SKETCHINC
 40
1.0
  9
$FILLETRAD
 40
0.0
  9
$AUNITS
 70
     0
  9
$AUPREC
 70
     2
  9
$MENU
  1
.
  9
$ELEVATION
 40
0.0
  9
$PELEVATION
 40
0.0
  9
$THICKNESS
 40
0.0
  9
$LIMCHECK
 70
     0
  9
$CHAMFERA
 40
0.0
  9
$CHAMFERB
 40
0.0
  9
$CHAMFERC
 40
0.0
  9
$CHAMFERD
 40
0.0
  9
$SKPOLY
 70
     0
  9
$TDCREATE
 40
2460075.462738681
  9
$TDUCREATE
 40
2460075.379405347
  9
$TDUPDATE
 40
2460075.462740498
  9
$TDUUPDATE
 40
2460075.379407164
  9
$TDINDWG
 40
0.0000000116
  9
$TDUSRTIMER
 40
0.0000000116
  9
$USRTIMER
 70
     1
  9
$ANGBASE
 50
0.0
  9
$ANGDIR
 70
     0
  9
$PDMODE
 70
     0
  9
$PDSIZE
 40
-1.0
  9
$PLINEWID
 40
0.0
  9
$SPLFRAME
 70
     0
  9
$SPLINETYPE
 70
     6
  9
$SPLINESEGS
 70
     8
  9
$HANDSEED
  5
144
  9
$SURFTAB1
 70
     6
  9
$SURFTAB2
 70
     6
  9
$SURFTYPE
 70
     6
  9
$SURFU
 70
     6
  9
$SURFV
 70
     6
  9
$UCSBASE
  2

  9
$UCSNAME
  2

  9
$UCSORG
 10
0.0
 20
0.0
 30
0.0
  9
$UCSXDIR
 10
1.0
 20
0.0
 30
0.0
  9
$UCSYDIR
 10
0.0
 20
1.0
 30
0.0
  9
$UCSORTHOREF
  2

  9
$UCSORTHOVIEW
 70
     0
  9
$UCSORGTOP
 10
0.0
 20
0.0
 30
0.0
  9
$UCSORGBOTTOM
 10
0.0
 20
0.0
 30
0.0
  9
$UCSORGLEFT
 10
0.0
 20
0.0
 30
0.0
  9
$UCSORGRIGHT
 10
0.0
 20
0.0
 30
0.0
  9
$UCSORGFRONT
 10
0.0
 20
0.0
 30
0.0
  9
$UCSORGBACK
 10
0.0
 20
0.0
 30
0.0
  9
$PUCSBASE
  2

  9
$PUCSNAME
  2

  9
$PUCSORG
 10
0.0
 20
0.0
 30
0.0
  9
$PUCSXDIR
 10
1.0
 20
0.0
 30
0.0
  9
$PUCSYDIR
 10
0.0
 20
1.0
 30
0.0
  9
$PUCSORTHOREF
  2

  9
$PUCSORTHOVIEW
 70
     0
  9
$PUCSORGTOP
 10
0.0
 20
0.0
 30
0.0
  9
$PUCSORGBOTTOM
 10
0.0
 20
0.0
 30
0.0
  9
$PUCSORGLEFT
 10
0.0
 20
0.0
 30
0.0
  9
$PUCSORGRIGHT
 10
0.0
 20
0.0
 30
0.0
  9
$PUCSORGFRONT
 10
0.0
 20
0.0
 30
0.0
  9
$PUCSORGBACK
 10
0.0
 20
0.0
 30
0.0
  9
$USERI1
 70
     0
  9
$USERI2
 70
     0
  9
$USERI3
 70
     0
  9
$USERI4
 70
     0
  9
$USERI5
 70
     0
  9
$USERR1
 40
0.0
  9
$USERR2
 40
0.0
  9
$USERR3
 40
0.0
  9
$USERR4
 40
0.0
  9
$USERR5
 40
0.0
  9
$WORLDVIEW
 70
     1
  9
$SHADEDGE
 70
     3
  9
$SHADEDIF
 70
    70
  9
$TILEMODE
 70
     1
  9
$MAXACTVP
 70
    64
  9
$PINSBASE
 10
0.0
 20
0.0
 30
0.0
  9
$PLIMCHECK
 70
     0
  9
$PEXTMIN
 10
1.0000000000E+20
 20
1.0000000000E+20
 30
1.0000000000E+20
  9
$PEXTMAX
 10
-1.0000000000E+20
 20
-1.0000000000E+20
 30
-1.0000000000E+20
  9
$PLIMMIN
 10
0.0
 20
0.0
  9
$PLIMMAX
 10
420.0
 20
297.0
  9
$UNITMODE
 70
     0
  9
$VISRETAIN
 70
     1
  9
$PLINEGEN
 70
     0
  9
$PSLTSCALE
 70
     1
  9
$TREEDEPTH
 70
  3020
  9
$CMLSTYLE
  2
Standard
  9
$CMLJUST
 70
     0
  9
$CMLSCALE
 40
20.0
  9
$PROXYGRAPHICS
 70
     1
  9
$MEASUREMENT
 70
     1
  9
$CELWEIGHT
370
    -1
  9
$ENDCAPS
280
     0
  9
$JOINSTYLE
280
     0
  9
$LWDISPLAY
290
     1
  9
$INSUNITS
 70
     4
  9
$HYPERLINKBASE
  1

  9
$STYLESHEET
  1

  9
$XEDIT
290
     1
  9
$CEPSNTYPE
380
     0
  9
$PSTYLEMODE
290
     1
  9
$FINGERPRINTGUID
  2
{7875708f-e332-4856-9410-6b9a818a3bda}
  9
$VERSIONGUID
  2
{FAEB1C32-E019-11D5-929B-00C0DF256EC4}
  9
$EXTNAMES
290
     1
  9
$PSVPSCALE
 40
0.0
  9
$OLESTARTUP
290
     0
  0
ENDSEC
  0
SECTION
  2
CLASSES
  0
CLASS
  1
ACDBDICTIONARYWDFLT
  2
AcDbDictionaryWithDefault
  3
ObjectDBX Classes
 90
        0
280
     0
281
     0
  0
CLASS
  1
VISUALSTYLE
  2
AcDbVisualStyle
  3
ObjectDBX Classes
 90
     4095
280
     0
281
     0
  0
CLASS
  1
MATERIAL
  2
AcDbMaterial
  3
ObjectDBX Classes
 90
     1153
280
     0
281
     0
  0
CLASS
  1
SCALE
  2
AcDbScale
  3
ObjectDBX Classes
 90
     1153
280
     0
281
     0
  0
CLASS
  1
TABLESTYLE
  2
AcDbTableStyle
  3
ObjectDBX Classes
 90
     4095
280
     0
281
     0
  0
CLASS
  1
MLEADERSTYLE
  2
AcDbMLeaderStyle
  3
ACDB_MLEADERSTYLE_CLASS
 90
     4095
280
     0
281
     0
  0
CLASS
  1
SUN
  2
AcDbSun
  3
SCENEOE
 90
     1153
280
     0
281
     0
  0
CLASS
  1
ACDBPLACEHOLDER
  2
AcDbPlaceHolder
  3
ObjectDBX Classes
 90
        0
280
     0
281
     0
  0
CLASS
  1
LAYOUT
  2
AcDbLayout
  3
ObjectDBX Classes
 90
        0
280
     0
281
     0
  0
ENDSEC
  0
SECTION
  2
TABLES
  0
TABLE
  2
VPORT
  5
8
330
0
100
AcDbSymbolTable
 70
     1
  0
VPORT
  5
29
330
8
100
AcDbSymbolTableRecord
100
AcDbViewportTableRecord
  2
*Active
 70
     0
 10
0.0
 20
0.0
 11
1.0
 21
1.0
 12
297.0
 22
420.5
 13
0.0
 23
0.0
 14
10.0
 24
10.0
 15
10.0
 25
10.0
 16
0.0
 26
0.0
 36
1.0
 17
0.0
 27
0.0
 37
0.0
 40
841.0
 41
0.7063020214
 42
50.0
 43
0.0
 44
0.0
 50
0.0
 51
0.0
 71
     0
 72
  2000
 73
     1
 74
     3
 75
     0
 76
     0
 77
     0
 78
     0
281
     0
 65
     1
110
0.0
120
0.0
130
0.0
111
1.0
121
0.0
131
0.0
112
0.0
122
1.0
132
0.0
 79
     0
146
0.0
  0
ENDTAB
  0
TABLE
  2
LTYPE
  5
5
330
0
100
AcDbSymbolTable
 70
     6
  0
LTYPE
  5
14
330
5
100
AcDbSymbolTableRecord
100
AcDbLinetypeTableRecord
  2
ByBlock
 70
     0
  3

 72
    65
 73
     0
 40
0.0
  0
LTYPE
  5
15
330
5
100
AcDbSymbolTableRecord
100
AcDbLinetypeTableRecord
  2
ByLayer
 70
     0
  3

 72
    65
 73
     0
 40
0.0
  0
LTYPE
  5
16
330
5
100
AcDbSymbolTableRecord
100
AcDbLinetypeTableRecord
  2
Continuous
 70
     0
  3
Solid line
 72
    65
 73
     0
 40
0.0
  0
LTYPE
  5
5E
330
5
100
AcDbSymbolTableRecord
100
AcDbLinetypeTableRecord
  2
HIDDEN
 70
     0
  3
Hidden __ __ __ __ __ __ __ __ __ __ __ __ __ __
 72
    65
 73
     2
 40
1.905
 49
1.27
 74
     0
 49
-0.635
 74
     0
  0
LTYPE
  5
5F
330
5
100
AcDbSymbolTableRecord
100
AcDbLinetypeTableRecord
  2
PHANTOM
 70
     0
  3
Phantom ______  __  __  ______  __  __  ______
 72
    65
 73
     6
 40
12.7
 49
6.35
 74
     0
 49
-1.27
 74
     0
 49
1.27
 74
     0
 49
-1.27
 74
     0
 49
1.27
 74
     0
 49
-1.27
 74
     0
  0
LTYPE
  5
60
330
5
100
AcDbSymbolTableRecord
100
AcDbLinetypeTableRecord
  2
CENTER
 70
     0
  3
Center ____ _ ____ _ ____ _ ____ _ ____ _ ____
 72
    65
 73
     4
 40
10.16
 49
6.35
 74
     0
 49
-1.27
 74
     0
 49
1.27
 74
     0
 49
-1.27
 74
     0
  0
LTYPE
  5
61
330
5
100
AcDbSymbolTableRecord
100
AcDbLinetypeTableRecord
  2
CENTERX2
 70
     0
  3
Center (2x) ________  __  ________  __  _____
 72
    65
 73
     4
 40
20.32
 49
12.7
 74
     0
 49
-2.54
 74
     0
 49
2.54
 74
     0
 49
-2.54
 74
     0
  0
LTYPE
  5
62
330
5
100
AcDbSymbolTableRecord
100
AcDbLinetypeTableRecord
  2
DOT2
 70
     0
  3
Dot (.5x) ........................................
 72
    65
 73
     2
 40
0.635
 49
0.0
 74
     0
 49
-0.635
 74
     0
  0
ENDTAB
  0
TABLE
  2
LAYER
  5
2
330
0
100
AcDbSymbolTable
 70
     1
  0
LAYER
  5
10
330
2
100
AcDbSymbolTableRecord
100
AcDbLayerTableRecord
  2
0
 70
     0
 62
     7
  6
Continuous
370
    -3
390
F
  0
ENDTAB
  0
TABLE
  2
STYLE
  5
3
330
0
100
AcDbSymbolTable
 70
     3
  0
STYLE
  5
11
330
3
100
AcDbSymbolTableRecord
100
AcDbTextStyleTableRecord
  2
Standard
 70
     0
 40
0.0
 41
1.0
 50
0.0
 71
     0
 42
10.0
  3
txt
  4

  0
STYLE
  5
66
330
3
100
AcDbSymbolTableRecord
100
AcDbTextStyleTableRecord
  2
SLDTEXTSTYLE0
 70
     0
 40
0.0
 41
0.96
 50
0.0
 71
     0
 42
10.0
  3
ISOCP3
  4

  0
STYLE
  5
7D
330
3
100
AcDbSymbolTableRecord
100
AcDbTextStyleTableRecord
  2
SLDTEXTSTYLE1
 70
     0
 40
0.0
 41
0.605
 50
0.0
 71
     0
 42
10.0
  3
TXT
  4

  0
ENDTAB
  0
TABLE
  2
VIEW
  5
6
330
0
100
AcDbSymbolTable
 70
     0
  0
ENDTAB
  0
TABLE
  2
UCS
  5
7
330
0
100
AcDbSymbolTable
 70
     0
  0
ENDTAB
  0
TABLE
  2
APPID
  5
9
330
0
100
AcDbSymbolTable
 70
     1
  0
APPID
  5
12
330
9
100
AcDbSymbolTableRecord
100
AcDbRegAppTableRecord
  2
ACAD
 70
     0
  0
ENDTAB
  0
TABLE
  2
DIMSTYLE
  5
A
330
0
100
AcDbSymbolTable
 70
     2
100
AcDbDimStyleTable
  0
DIMSTYLE
105
27
330
A
100
AcDbSymbolTableRecord
100
AcDbDimStyleTableRecord
  2
ISO-25
 70
     0
 41
2.5
 42
0.625
 43
3.75
 44
1.25
 73
     0
 74
     0
 77
     1
 78
     8
140
2.5
141
2.5
143
0.0393700787
147
0.625
171
     3
172
     1
178
     0
271
     2
272
     2
274
     3
278
    44
283
     0
284
     8
340
11
  0
DIMSTYLE
105
67
102
{ACAD_REACTORS
330
65
330
72
102
}
330
A
100
AcDbSymbolTableRecord
100
AcDbDimStyleTableRecord
  2
SLDDIMSTYLE0
 70
     0
 41
2.5
 44
0.0
 45
0.000000001
 73
     0
 74
     0
 77
     1
 78
    12
 79
     3
140
6.0
147
1.5
173
     1
178
     0
271
     2
272
     2
276
     2
284
    12
340
66
  0
ENDTAB
  0
TABLE
  2
BLOCK_RECORD
  5
1
330
0
100
AcDbSymbolTable
 70
     3
  0
BLOCK_RECORD
  5
1F
330
1
100
AcDbSymbolTableRecord
100
AcDbBlockTableRecord
  2
*Model_Space
340
22
  0
BLOCK_RECORD
  5
1B
330
1
100
AcDbSymbolTableRecord
100
AcDbBlockTableRecord
  2
*Paper_Space
340
1E
  0
BLOCK_RECORD
  5
23
330
1
100
AcDbSymbolTableRecord
100
AcDbBlockTableRecord
  2
*Paper_Space0
340
26
  0
BLOCK_RECORD
  5
68
330
1
100
AcDbSymbolTableRecord
100
AcDbBlockTableRecord
  2
_D
340
0
  0
BLOCK_RECORD
  5
73
330
1
100
AcDbSymbolTableRecord
100
AcDbBlockTableRecord
  2
_D_1
340
0
  0
ENDTAB
  0
ENDSEC
  0
SECTION
  2
BLOCKS
  0
BLOCK
  5
20
330
1F
100
AcDbEntity
  8
0
100
AcDbBlockBegin
  2
*Model_Space
 70
     0
 10
0.0
 20
0.0
 30
0.0
  3
*Model_Space
  1

  0
ENDBLK
  5
21
330
1F
100
AcDbEntity
  8
0
100
AcDbBlockEnd
  0
BLOCK
  5
1C
330
1B
100
AcDbEntity
 67
     1
  8
0
100
AcDbBlockBegin
  2
*Paper_Space
 70
     0
 10
0.0
 20
0.0
 30
0.0
  3
*Paper_Space
  1

  0
ENDBLK
  5
1D
330
1B
100
AcDbEntity
 67
     1
  8
0
100
AcDbBlockEnd
  0
BLOCK
  5
24
330
23
100
AcDbEntity
  8
0
100
AcDbBlockBegin
  2
*Paper_Space0
 70
     0
 10
0.0
 20
0.0
 30
0.0
  3
*Paper_Space0
  1

  0
ENDBLK
  5
25
330
23
100
AcDbEntity
  8
0
100
AcDbBlockEnd
  0
BLOCK
  5
69
330
68
100
AcDbEntity
  8
0
100
AcDbBlockBegin
  2
_D
 70
     0
 10
0.0
 20
0.0
 30
0.0
  3
_D
  1

  0
SOLID
  5
6B
330
68
100
AcDbEntity
  8
0
  6
Continuous
 62
     7
370
    18
100
AcDbTrace
 10
42.7614395004
 20
152.0299240879
 30
0.0
 11
42.4614395004
 21
149.5299240879
 31
0.0
 12
43.0614395004
 22
149.5299240879
 32
0.0
 13
43.0614395004
 23
149.5299240879
 33
0.0
  0
SOLID
  5
6C
330
68
100
AcDbEntity
  8
0
  6
Continuous
 62
     7
370
    18
100
AcDbTrace
 10
42.7614395004
 20
52.0299240879
 30
0.0
 11
43.0614395004
 21
54.5299240879
 31
0.0
 12
42.4614395004
 22
54.5299240879
 32
0.0
 13
42.4614395004
 23
54.5299240879
 33
0.0
  0
LINE
  5
6D
330
68
100
AcDbEntity
  8
0
  6
Continuous
 62
     7
370
     0
100
AcDbLine
 10
56.6850079902
 20
152.0299240879
 30
0.0
 11
41.7614395004
 21
152.0299240879
 31
0.0
  0
LINE
  5
6E
330
68
100
AcDbEntity
  8
0
  6
Continuous
 62
     7
370
     0
100
AcDbLine
 10
56.6850079902
 20
52.0299240879
 30
0.0
 11
41.7614395004
 21
52.0299240879
 31
0.0
  0
LINE
  5
6F
330
68
100
AcDbEntity
  8
0
  6
Continuous
 62
     7
370
     0
100
AcDbLine
 10
42.7614395004
 20
152.0299240879
 30
0.0
 11
42.7614395004
 21
52.0299240879
 31
0.0
  0
MTEXT
  5
70
330
68
100
AcDbEntity
  8
0
  6
Continuous
 62
     7
370
    18
100
AcDbMText
 10
35.0270332946
 20
94.3680541463
 30
0.0
 40
6.0
 41
0.0
 71
     1
 72
     1
  1
100
  7
SLDTEXTSTYLE0
 11
-7.044195017643634E-15
 21
1.0
 31
0.0
 73
     1
 44
1.0
  0
MTEXT
  5
71
330
68
100
AcDbEntity
  8
0
  6
Continuous
 62
     7
370
    18
100
AcDbMText
 10
35.0270332946
 20
105.7430548466
 30
0.0
 40
6.0
 41
0.0
 71
     1
 72
     1
  1
mm
  7
SLDTEXTSTYLE0
 11
-7.044195017643634E-15
 21
1.0
 31
0.0
 73
     1
 44
1.0
  0
ENDBLK
  5
6A
330
68
100
AcDbEntity
  8
0
100
AcDbBlockEnd
  0
BLOCK
  5
74
330
73
100
AcDbEntity
  8
0
100
AcDbBlockBegin
  2
_D_1
 70
     0
 10
0.0
 20
0.0
 30
0.0
  3
_D_1
  1

  0
SOLID
  5
76
330
73
100
AcDbEntity
  8
0
  6
Continuous
 62
     7
370
    18
100
AcDbTrace
 10
56.6850079902
 20
38.4602342313
 30
0.0
 11
59.1850079902
 21
38.1602342313
 31
0.0
 12
59.1850079902
 22
38.7602342313
 32
0.0
 13
59.1850079902
 23
38.7602342313
 33
0.0
  0
SOLID
  5
77
330
73
100
AcDbEntity
  8
0
  6
Continuous
 62
     7
370
    18
100
AcDbTrace
 10
156.6850079902
 20
38.4602342313
 30
0.0
 11
154.1850079902
 21
38.7602342313
 31
0.0
 12
154.1850079902
 22
38.1602342313
 32
0.0
 13
154.1850079902
 23
38.1602342313
 33
0.0
  0
LINE
  5
78
330
73
100
AcDbEntity
  8
0
  6
Continuous
 62
     7
370
     0
100
AcDbLine
 10
56.6850079902
 20
52.0299240879
 30
0.0
 11
56.6850079902
 21
37.4602342313
 31
0.0
  0
LINE
  5
79
330
73
100
AcDbEntity
  8
0
  6
Continuous
 62
     7
370
     0
100
AcDbLine
 10
156.6850079902
 20
52.0299240879
 30
0.0
 11
156.6850079902
 21
37.4602342313
 31
0.0
  0
LINE
  5
7A
330
73
100
AcDbEntity
  8
0
  6
Continuous
 62
     7
370
     0
100
AcDbLine
 10
56.6850079902
 20
38.4602342313
 30
0.0
 11
156.6850079902
 21
38.4602342313
 31
0.0
  0
MTEXT
  5
7B
330
73
100
AcDbEntity
  8
0
  6
Continuous
 62
     7
370
    18
100
AcDbMText
 10
93.9626484861
 20
46.1946404371
 30
0.0
 40
6.0
 41
0.0
 71
     1
 72
     1
  1
100
  7
SLDTEXTSTYLE0
 73
     1
 44
1.0
  0
MTEXT
  5
7C
330
73
100
AcDbEntity
  8
0
  6
Continuous
 62
     7
370
    18
100
AcDbMText
 10
105.3376491864
 20
46.1946404371
 30
0.0
 40
6.0
 41
0.0
 71
     1
 72
     1
  1
mm
  7
SLDTEXTSTYLE0
 73
     1
 44
1.0
  0
ENDBLK
  5
75
330
73
100
AcDbEntity
  8
0
100
AcDbBlockEnd
  0
ENDSEC
  0
SECTION
  2
ENTITIES
  0
LINE
  5
63
330
1F
100
AcDbEntity
  8
0
  6
Continuous
 62
     7
370
    18
100
AcDbLine
 10
56.6850079902
 20
152.0299240879
 30
0.0
 11
56.6850079902
 21
52.0299240879
 31
0.0
  0
LINE
  5
64
330
1F
100
AcDbEntity
  8
0
  6
Continuous
 62
     7
370
    18
100
AcDbLine
 10
56.6850079902
 20
52.0299240879
 30
0.0
 11
156.6850079902
 21
52.0299240879
 31
0.0
  0
DIMENSION
  5
65
330
1F
100
AcDbEntity
  8
0
  6
Continuous
 62
     7
370
    18
100
AcDbDimension
  2
_D
 10
42.7614395004
 20
52.0299240879
 30
0.0
 11
42.7614395004
 21
105.4472211621
 31
0.0
 70
   160
  1
<>mm
 71
     2
 42
-1.0
  3
SLDDIMSTYLE0
100
AcDbAlignedDimension
 13
56.6850079902
 23
152.0299240879
 33
0.0
 14
56.6850079902
 24
52.0299240879
 34
0.0
 50
90.0
100
AcDbRotatedDimension
  0
DIMENSION
  5
72
330
1F
100
AcDbEntity
  8
0
  6
Continuous
 62
     7
370
    18
100
AcDbDimension
  2
_D_1
 10
156.6850079902
 20
38.4602342313
 30
0.0
 11
105.0418155019
 21
38.4602342313
 31
0.0
 70
   160
  1
<>mm
 71
     2
 42
-1.0
  3
SLDDIMSTYLE0
100
AcDbAlignedDimension
 13
56.6850079902
 23
52.0299240879
 33
0.0
 14
156.6850079902
 24
52.0299240879
 34
0.0
100
AcDbRotatedDimension
  0
MTEXT
  5
7E
330
1F
100
AcDbEntity
  8
0
  6
Continuous
 62
     7
370
     0
100
AcDbMText
 10
412.8252631579
 20
48.4342449499
 30
0.0
 40
10.0
 41
0.0
 71
     1
 72
     1
  1
KLUDI GmbH & Co KG
  7
SLDTEXTSTYLE1
 73
     1
 44
1.0
  0
MTEXT
  5
7F
330
1F
100
AcDbEntity
  8
0
  6
Continuous
 62
     7
370
     0
100
AcDbMText
 10
210.0873490389
 20
48.4342449499
 30
0.0
 40
10.0
 41
0.0
 71
     1
 72
     1
  1
53 755 .. 75
  7
SLDTEXTSTYLE1
 73
     1
 44
1.0
  0
SPLINE
  5
80
330
1F
100
AcDbEntity
  8
0
  6
Continuous
 62
     7
370
    25
100
AcDbSpline
210
0.0
220
0.0
230
1.0
 70
     8
 71
     3
 72
    29
 73
    25
 74
     0
 42
0.00000001
 43
0.00000001
 40
0.0
 40
0.0
 40
0.0
 40
0.0
 40
0.0912493376461509
 40
0.2155556664010683
 40
0.3202004370952454
 40
0.4200791345806927
 40
0.4704309949523212
 40
0.5099229258049783
 40
0.546192171714461
 40
0.578757351376673
 40
0.6088472087640899
 40
0.633758459798901
 40
0.6569760797386701
 40
0.6813040385989679
 40
0.7058807785373399
 40
0.7305574426019521
 40
0.7550006100853769
 40
0.7783853904115472
 40
0.8057818602551649
 40
0.8357254447317652
 40
0.8697584213975895
 40
0.9123985222146608
 40
0.9680993894780728
 40
1.0
 40
1.0
 40
1.0
 40
1.0
 10
162.7713304420848
 20
349.90934585087
 30
0.0
 10
162.8413999943953
 20
347.999211828269
 30
0.0
 10
163.0069232675755
 20
343.4869575722026
 30
0.0
 10
163.2904689933899
 20
336.7845418351717
 30
0.0
 10
163.7074099100446
 20
329.905431133014
 30
0.0
 10
164.2004543952396
 20
324.5831186916851
 30
0.0
 10
164.6356592081034
 20
320.6302468609769
 30
0.0
 10
165.0178213521185
 20
318.0066232799949
 30
0.0
 10
165.4893390420243
 20
315.7729836569097
 30
0.0
 10
166.0818897565645
 20
313.7683197290168
 30
0.0
 10
166.7723495404076
 20
312.0457355659642
 30
0.0
 10
167.5208052337231
 20
310.5635297093233
 30
0.0
 10
168.3726779002633
 20
309.2679973078243
 30
0.0
 10
169.3893447379124
 20
308.1018620086879
 30
0.0
 10
170.5764346926384
 20
307.0539705352346
 30
0.0
 10
171.8974549867591
 20
306.1660117952986
 30
0.0
 10
173.3092206510017
 20
305.4783131060292
 30
0.0
 10
174.8445400775085
 20
304.932158029238
 30
0.0
 10
176.5413475815692
 20
304.4990575620029
 30
0.0
 10
178.4971546728478
 20
304.1709598236577
 30
0.0
 10
180.7990825448446
 20
303.9349568916396
 30
0.0
 10
183.6666540531599
 20
303.759364473524
 30
0.0
 10
186.4935359890588
 20
303.6941644934631
 30
0.0
 10
188.394513353977
 20
303.7200268706348
 30
0.0
 10
189.0867658143505
 20
303.7294448124571
 30
0.0
  0
SPLINE
  5
81
330
1F
100
AcDbEntity
  8
0
  6
Continuous
 62
     7
370
    25
100
AcDbSpline
210
0.0
220
0.0
230
1.0
 70
     8
 71
     3
 72
    29
 73
    25
 74
     0
 42
0.00000001
 43
0.00000001
 40
0.0
 40
0.0
 40
0.0
 40
0.0
 40
0.0220128502628003
 40
0.0798883010759112
 40
0.1303065432889975
 40
0.1663467899711979
 40
0.1974376165491098
 40
0.2253925311060269
 40
0.2498726216376949
 40
0.2729160590532949
 40
0.2971101649596475
 40
0.3216254627920492
 40
0.3463539726623576
 40
0.3708564334546387
 40
0.3938963396057276
 40
0.4239883084417077
 40
0.4557763621227376
 40
0.4905897941539942
 40
0.5301195347914356
 40
0.5780407654113876
 40
0.653817658939439
 40
0.7521387552568327
 40
0.8645925926634769
 40
1.0
 40
1.0
 40
1.0
 40
1.0
 10
189.0864895886031
 20
303.7283554636776
 30
0.0
 10
189.5641461224002
 20
303.7204720991616
 30
0.0
 10
191.2976412639787
 20
303.6918620559171
 30
0.0
 10
194.1262097359353
 20
303.7429900993037
 30
0.0
 10
197.2540071606876
 20
303.9203566656545
 30
0.0
 10
199.7917892460977
 20
304.183753062935
 30
0.0
 10
201.8251571632721
 20
304.5378946712763
 30
0.0
 10
203.5751250068609
 20
305.0070032333323
 30
0.0
 10
205.106844805892
 20
305.5799554963098
 30
0.0
 10
206.4852213073267
 20
306.2939053775872
 30
0.0
 10
207.7557970843849
 20
307.1795078880515
 30
0.0
 10
208.9229600762453
 20
308.2438731223849
 30
0.0
 10
209.9429032615669
 20
309.4530382638485
 30
0.0
 10
210.7599329500284
 20
310.7644969404372
 30
0.0
 10
211.4872771331612
 20
312.2418501211295
 30
0.0
 10
212.1409837037918
 20
313.9184524008859
 30
0.0
 10
212.708546289652
 20
315.8805794923754
 30
0.0
 10
213.1653845474753
 20
318.0697030205392
 30
0.0
 10
213.5346272939929
 20
320.6134145652358
 30
0.0
 10
213.9090009331499
 20
324.0142036869228
 30
0.0
 10
214.3608063796494
 20
328.6482012502929
 30
0.0
 10
214.766758407397
 20
334.6407330339484
 30
0.0
 10
215.1086914908156
 20
341.8863610123009
 30
0.0
 10
215.299882730002
 20
347.0746581771166
 30
0.0
 10
215.4043311282601
 20
349.9090418594349
 30
0.0
  0
SPLINE
  5
82
330
1F
100
AcDbEntity
  8
0
  6
Continuous
 62
     7
370
    25
100
AcDbSpline
210
0.0
220
0.0
230
1.0
 70
     8
 71
     3
 72
    33
 73
    29
 74
     0
 42
0.00000001
 43
0.00000001
 40
0.0
 40
0.0
 40
0.0
 40
0.0
 40
0.0160509648628023
 40
0.076506875245427
 40
0.1478338403217608
 40
0.2123027569862017
 40
0.2722953023992742
 40
0.3284263085298407
 40
0.3813657091950259
 40
0.4317261878929172
 40
0.4771127408854663
 40
0.5140397109539658
 40
0.5467225034630473
 40
0.5764952001644409
 40
0.6043281715422898
 40
0.6278395487810876
 40
0.6508730060836981
 40
0.6746575279514059
 40
0.6992573647683187
 40
0.7250377739961816
 40
0.7522723106851403
 40
0.7810995080232475
 40
0.8113467767155503
 40
0.842374586076188
 40
0.8848156208507822
 40
0.9324103117634885
 40
0.9907254382479295
 40
1.0
 40
1.0
 40
1.0
 40
1.0
 10
215.7125661022737
 20
360.2317903062261
 30
0.0
 10
215.7265394620891
 20
360.567664569007
 30
0.0
 10
215.7931434391894
 20
362.1686082219515
 30
0.0
 10
215.784085186506
 20
365.2831322528791
 30
0.0
 10
215.7921274234512
 20
369.4341299429689
 30
0.0
 10
215.7688876068884
 20
373.5966276124072
 30
0.0
 10
215.6832181750362
 20
377.4453505269988
 30
0.0
 10
215.5156914455731
 20
381.048717272355
 30
0.0
 10
215.256441435821
 20
384.4370427480777
 30
0.0
 10
214.8997612742409
 20
387.576693677669
 30
0.0
 10
214.4868946123709
 20
390.351227162251
 30
0.0
 10
214.0043805174394
 20
392.7218170149794
 30
0.0
 10
213.4333519757374
 20
394.7251874978943
 30
0.0
 10
212.7543369651849
 20
396.4865403510633
 30
0.0
 10
211.9848399164793
 20
397.9937053549921
 30
0.0
 10
211.1474053201949
 20
399.2997711474662
 30
0.0
 10
210.1909837753764
 20
400.4222742617109
 30
0.0
 10
209.0777303328464
 20
401.4261267038131
 30
0.0
 10
207.7983215781134
 20
402.3200424155219
 30
0.0
 10
206.3564465284186
 20
403.0970854562933
 30
0.0
 10
204.7521816283709
 20
403.7508038268475
 30
0.0
 10
202.9955535562715
 20
404.2737875234326
 30
0.0
 10
201.1121980516871
 20
404.6403614027248
 30
0.0
 10
198.9200755620106
 20
404.9200989135473
 30
0.0
 10
196.3451936678953
 20
405.114057816401
 30
0.0
 10
193.1817972080843
 20
405.1989081931073
 30
0.0
 10
190.7251527911762
 20
405.2008228103961
 30
0.0
 10
189.2836519970494
 20
405.1988813120012
 30
0.0
 10
189.0858512898764
 20
405.1986149023281
 30
0.0
  0
SPLINE
  5
83
330
1F
100
AcDbEntity
  8
0
  6
Continuous
 62
     7
370
    25
100
AcDbSpline
210
0.0
220
0.0
230
1.0
 70
     8
 71
     3
 72
    32
 73
    28
 74
     0
 42
0.00000001
 43
0.00000001
 40
0.0
 40
0.0
 40
0.0
 40
0.0
 40
0.0576978302466254
 40
0.1192884452113186
 40
0.1622538597297732
 40
0.1954412426536309
 40
0.2253100700493949
 40
0.2540167509241687
 40
0.2810982959767104
 40
0.3066687237918739
 40
0.3309806393108409
 40
0.354362640933892
 40
0.379661485030489
 40
0.402520600348027
 40
0.4301428605112183
 40
0.4596804052961446
 40
0.4916576233937845
 40
0.5271912457450554
 40
0.5679923642378556
 40
0.6175316019881374
 40
0.6706489287005151
 40
0.726568719274076
 40
0.7859337003486108
 40
0.8493555665453582
 40
0.9173441982537691
 40
0.9910563905568538
 40
1.0
 40
1.0
 40
1.0
 40
1.0
 10
189.0858096003886
 20
405.1999035586646
 30
0.0
 10
187.8553972639987
 20
405.2006269050686
 30
0.0
 10
185.3115585451178
 20
405.2021224009568
 30
0.0
 10
181.8505903766207
 20
405.1253814961338
 30
0.0
 10
178.9228857069732
 20
404.8865743529626
 30
0.0
 10
176.6839583143641
 20
404.5842406674317
 30
0.0
 10
174.7755176828894
 20
404.1696144702905
 30
0.0
 10
173.0446578873748
 20
403.6148997948854
 30
0.0
 10
171.4670591453021
 20
402.9274656633761
 30
0.0
 10
170.0590725377774
 20
402.1201388126255
 30
0.0
 10
168.8220995943815
 20
401.2016518236284
 30
0.0
 10
167.7146573075533
 20
400.1440795439761
 30
0.0
 10
166.7890279300607
 20
398.9632855443918
 30
0.0
 10
165.9770880025547
 20
397.6104570617519
 30
0.0
 10
165.2554905443903
 20
396.1037092761123
 30
0.0
 10
164.6210580942914
 20
394.3509609345124
 30
0.0
 10
164.0923539369775
 20
392.3855817598174
 30
0.0
 10
163.6562186593467
 20
390.1481313231819
 30
0.0
 10
163.2670590326572
 20
387.515199494744
 30
0.0
 10
162.9217186690546
 20
384.4864440277424
 30
0.0
 10
162.6616584622817
 20
381.1167666198851
 30
0.0
 10
162.4928952615653
 20
377.5277679726842
 30
0.0
 10
162.4064848815351
 20
373.7193834092351
 30
0.0
 10
162.380314135781
 20
369.6630474029068
 30
0.0
 10
162.394033867402
 20
365.3237956565054
 30
0.0
 10
162.3660172311351
 20
362.1479978990662
 30
0.0
 10
162.4498026331175
 20
360.4201765151071
 30
0.0
 10
162.4588684687459
 20
360.2332209799942
 30
0.0
  0
SPLINE
  5
84
330
1F
100
AcDbEntity
  8
0
  6
Continuous
 62
     7
370
    25
100
AcDbSpline
210
0.0
220
0.0
230
1.0
 70
     8
 71
     3
 72
    10
 73
     6
 74
     0
 42
0.00000001
 43
0.00000001
 40
0.0
 40
0.0
 40
0.0
 40
0.0
 40
0.1561817427838385
 40
0.6397604032553125
 40
0.9999999999999999
 40
0.9999999999999999
 40
0.9999999999999999
 40
0.9999999999999999
 10
215.4124133134723
 20
349.915717214865
 30
0.0
 10
215.4342122450755
 20
350.4486709982186
 30
0.0
 10
215.5235062497677
 20
352.6317861388063
 30
0.0
 10
215.6407072600205
 20
356.0655053073249
 30
0.0
 10
215.6931989570712
 20
358.9884735407938
 30
0.0
 10
215.7156085074883
 20
360.2363357299768
 30
0.0
  0
SPLINE
  5
85
330
1F
100
AcDbEntity
  8
0
  6
Continuous
 62
     7
370
    25
100
AcDbSpline
210
0.0
220
0.0
230
1.0
 70
     8
 71
     3
 72
    10
 73
     6
 74
     0
 42
0.00000001
 43
0.00000001
 40
0.0
 40
0.0
 40
0.0
 40
0.0
 40
0.2793742386678067
 40
0.7339516987659995
 40
1.0
 40
1.0
 40
1.0
 40
1.0
 10
162.4603284231079
 20
360.2391147785003
 30
0.0
 10
162.4753794413731
 20
359.2700383793627
 30
0.0
 10
162.5149203828596
 20
356.7241512826399
 30
0.0
 10
162.6267184613164
 20
353.286591675478
 30
0.0
 10
162.7254033581826
 20
350.8251985109337
 30
0.0
 10
162.7618369004975
 20
349.9164751412814
 30
0.0
  0
ARC
  5
86
330
1F
100
AcDbEntity
  8
0
  6
Continuous
 62
     7
370
    25
100
AcDbCircle
 10
189.0866098081
 20
-9575.4180597015
 30
0.0
 40
10000.0
100
AcDbArc
 50
89.5831904602
 51
90.4168095398
  0
ARC
  5
87
330
1F
100
AcDbEntity
  8
0
  6
Continuous
 62
     7
370
    25
100
AcDbCircle
 10
10114.5866098081
 20
350.0819402985
 30
0.0
 40
10000.0
100
AcDbArc
 50
179.5831904602
 51
180.4168095398
  0
ARC
  5
88
330
1F
100
AcDbEntity
  8
0
  6
Continuous
 62
     7
370
    25
100
AcDbCircle
 10
189.0866098081
 20
10275.5819402985
 30
0.0
 40
10000.0
100
AcDbArc
 50
269.5831904602
 51
270.4168095398
  0
ARC
  5
89
330
1F
100
AcDbEntity
  8
0
  6
Continuous
 62
     7
370
    25
100
AcDbCircle
 10
-9736.4133901919
 20
350.0819402985
 30
0.0
 40
10000.0
100
AcDbArc
 50
359.5831904602
 51
0.4168095398
  0
ARC
  5
8A
330
1F
100
AcDbEntity
  8
0
  6
Continuous
 62
     7
370
    25
100
AcDbCircle
 10
116.3511751653
 20
277.3465056557
 30
0.0
 40
1.500000000000152
100
AcDbArc
 50
180.4168095398
 51
269.5831904602
  0
ARC
  5
8B
330
1F
100
AcDbEntity
  8
0
  6
Continuous
 62
     7
370
    25
100
AcDbCircle
 10
116.3511751653
 20
422.8173749413
 30
0.0
 40
1.500000000000096
100
AcDbArc
 50
90.4168095398
 51
179.5831904602
  0
ARC
  5
8C
330
1F
100
AcDbEntity
  8
0
  6
Continuous
 62
     7
370
    25
100
AcDbCircle
 10
261.8220444509
 20
422.8173749413
 30
0.0
 40
1.500000000000096
100
AcDbArc
 50
0.4168095398
 51
89.5831904602
  0
ARC
  5
8D
330
1F
100
AcDbEntity
  8
0
  6
Continuous
 62
     7
370
    25
100
AcDbCircle
 10
261.8220444509
 20
277.3465056557
 30
0.0
 40
1.500000000000096
100
AcDbArc
 50
270.4168095398
 51
359.5831904602
  0
SPLINE
  5
8E
330
1F
100
AcDbEntity
  8
0
  6
Continuous
 62
     8
370
    18
100
AcDbSpline
210
0.0
220
0.0
230
1.0
 70
     8
 71
     3
 72
    29
 73
    25
 74
     0
 42
0.00000001
 43
0.00000001
 40
0.0
 40
0.0
 40
0.0
 40
0.0
 40
0.0280715672640934
 40
0.0789581712487186
 40
0.1526666301809535
 40
0.2492135983247364
 40
0.3143510678328115
 40
0.3778005767956081
 40
0.4395962552110532
 40
0.4998263906370136
 40
0.5274409853567623
 40
0.5575755741293703
 40
0.5903434605636717
 40
0.6255623387644159
 40
0.6566079664623993
 40
0.6846685722749152
 40
0.7097079889455102
 40
0.7317320712598502
 40
0.750382555331639
 40
0.7837689870746314
 40
0.825394535468613
 40
0.8753605595681163
 40
0.933528445506762
 40
1.0
 40
1.0
 40
1.0
 40
1.0
 10
164.3056003261932
 20
350.4584276271304
 30
0.0
 10
164.3265669599019
 20
349.8918425984423
 30
0.0
 10
164.3855407620876
 20
348.2981831742557
 30
0.0
 10
164.5089634380163
 20
345.2171821326983
 30
0.0
 10
164.7073469116332
 20
340.7549973978966
 30
0.0
 10
164.9476272733727
 20
336.0064544379163
 30
0.0
 10
165.2272394748232
 20
331.4674926478048
 30
0.0
 10
165.5115604204842
 20
327.6320659269239
 30
0.0
 10
165.8636147656759
 20
323.901364724446
 30
0.0
 10
166.2456834777716
 20
320.9005861619667
 30
0.0
 10
166.6500531339913
 20
318.5496088548363
 30
0.0
 10
167.0324072697737
 20
316.7584728861055
 30
0.0
 10
167.5594236526308
 20
314.8416727800947
 30
0.0
 10
168.2663662686613
 20
312.9570195900474
 30
0.0
 10
169.1760628064484
 20
311.2587014709533
 30
0.0
 10
170.2315574868722
 20
309.8876407720836
 30
0.0
 10
171.3804149216241
 20
308.8412237115996
 30
0.0
 10
172.5192656169185
 20
308.08967872478
 30
0.0
 10
173.8964085104284
 20
307.398272511545
 30
0.0
 10
175.7477232602398
 20
306.7537602729934
 30
0.0
 10
178.3139339272179
 20
306.2356428924688
 30
0.0
 10
181.4344765700858
 20
305.9215663414775
 30
0.0
 10
185.0871643147757
 20
305.7867880756081
 30
0.0
 10
187.6955178364405
 20
305.7817197602868
 30
0.0
 10
189.0865808310448
 20
305.7790167731995
 30
0.0
  0
SPLINE
  5
8F
330
1F
100
AcDbEntity
  8
0
  6
Continuous
 62
     8
370
    18
100
AcDbSpline
210
0.0
220
0.0
230
1.0
 70
     8
 71
     3
 72
   185
 73
   181
 74
     0
 42
0.00000001
 43
0.00000001
 40
0.0
 40
0.0
 40
0.0
 40
0.0
 40
0.0084908692307354
 40
0.016981732121761
 40
0.0212271622122581
 40
0.0297180680493903
 40
0.0382084834810192
 40
0.0424541001869003
 40
0.0509454348738818
 40
0.059436402663426
 40
0.0636816675314471
 40
0.0741590592447468
 40
0.0803911675780867
 40
0.0835071788509554
 40
0.0897392058339876
 40
0.0959709667115806
 40
0.099086892388116
 40
0.1084354881049782
 40
0.1146681312140816
 40
0.1177844121602051
 40
0.1252990088281529
 40
0.1303091611857526
 40
0.132814349572942
 40
0.1378246537289082
 40
0.142835092647565
 40
0.1478455976597803
 40
0.1553613889530839
 40
0.1599508288752675
 40
0.1620350421299364
 40
0.1703721403688766
 40
0.1745408682693581
 40
0.1766252827306606
 40
0.1807941489615551
 40
0.1849630943338372
 40
0.1870476873960877
 40
0.1912169075748706
 40
0.1948397697722791
 40
0.1966512454998822
 40
0.2020858705998971
 40
0.2057083616033971
 40
0.2093317361384118
 40
0.2165794670391674
 40
0.2234656164845876
 40
0.2250966225587259
 40
0.2283584671877313
 40
0.2332519659467989
 40
0.2397774837755484
 40
0.243040698902015
 40
0.2463041135702426
 40
0.2493430940299214
 40
0.2523823358070916
 40
0.2584613850531376
 40
0.261501540491469
 40
0.2660622947994725
 40
0.2706239071417915
 40
0.2721093502269883
 40
0.275080287929109
 40
0.279537587699731
 40
0.2810236650592742
 40
0.2839960815751773
 40
0.2869688250822208
 40
0.2884553159345847
 40
0.2914285746860465
 40
0.2964120125262982
 40
0.2984219927703345
 40
0.3004321029600174
 40
0.3064635850396329
 40
0.3104858195879531
 40
0.3126038180364802
 40
0.3147219334849631
 40
0.3157810447582907
 40
0.3189586682395127
 40
0.3253149467284636
 40
0.3274342329154308
 40
0.3297385727242983
 40
0.3320429926936023
 40
0.336652574297248
 40
0.3412630686064421
 40
0.3447215661161359
 40
0.3458742258841336
 40
0.3497829136833418
 40
0.3523891630791803
 40
0.3536923260643573
 40
0.3562987519791797
 40
0.3602085581338917
 40
0.3615119418790737
 40
0.3667258489299725
 40
0.3758026710295887
 40
0.3788288432250577
 40
0.3818551479657477
 40
0.3848814516845587
 40
0.3863946714572543
 40
0.3894214719221644
 40
0.3926967155664403
 40
0.3944584263373414
 40
0.3979823113033319
 40
0.4085552818645036
 40
0.4120800166850459
 40
0.4191294942205991
 40
0.4224100086073695
 40
0.4240504708995213
 40
0.4273316559203654
 40
0.4322535515192758
 40
0.4338942142746426
 40
0.4371756094483962
 40
0.4404566798672732
 40
0.4420974814369505
 40
0.4453792660140873
 40
0.4486598734027966
 40
0.4519403862153435
 40
0.4552207219531487
 40
0.4585013149361547
 40
0.4650625373194098
 40
0.468343206772558
 40
0.4716238124591814
 40
0.4738103433569209
 40
0.4803701721040802
 40
0.4847435595940892
 40
0.4858369007604095
 40
0.4891168892178138
 40
0.4949475839893253
 40
0.4964052726665059
 40
0.4993206629932539
 40
0.5007783625421949
 40
0.5015067473991067
 40
0.5029639225887231
 40
0.5066074265268751
 40
0.5095224126255803
 40
0.5146239576150611
 40
0.5189969009141634
 40
0.5211833489237427
 40
0.5299287800001751
 40
0.5332081350217991
 40
0.5364877274789
 40
0.5463271623597599
 40
0.5528870277047793
 40
0.5561669031053631
 40
0.563546174139124
 40
0.5758451357346283
 40
0.5856851364080757
 40
0.595525440864497
 40
0.6102863640875571
 40
0.6176664910269175
 40
0.6250456358919897
 40
0.6324248622958356
 40
0.6398049083778832
 40
0.6508754708166076
 40
0.6601008862548801
 40
0.6656359047950521
 40
0.6767059600243635
 40
0.6877761928968796
 40
0.693309229235027
 40
0.704379682492711
 40
0.7154505785155071
 40
0.7209860423140794
 40
0.7320564523504554
 40
0.7488093487575349
 40
0.7544919816245367
 40
0.7715407537532066
 40
0.7829070503938058
 40
0.7885903775716698
 40
0.7999567332339108
 40
0.8113218396729001
 40
0.8170046660731376
 40
0.8283711354467069
 40
0.8418516535274932
 40
0.8496489197991894
 40
0.8652428151294095
 40
0.8808364206060315
 40
0.8886343186948439
 40
0.9042295524023113
 40
0.9198239327388822
 40
0.9276206480641115
 40
0.9432140530203343
 40
0.9639579400176651
 40
0.9665322615557613
 40
0.9716808261722051
 40
0.9794045266496891
 40
0.9845537958270358
 40
1.0
 40
1.0
 40
1.0
 40
1.0
 10
189.0866387835963
 20
305.7790225090289
 30
0.0
 10
189.2643636259827
 20
305.7790601621814
 30
0.0
 10
189.6198131780572
 20
305.7791354684583
 30
0.0
 10
190.0641243962902
 20
305.7799967014224
 30
0.0
 10
190.5084344741535
 20
305.7814371732159
 30
0.0
 10
190.9527324964178
 20
305.7835858148093
 30
0.0
 10
191.3970275150301
 20
305.7868255312593
 30
0.0
 10
191.8413226780066
 20
305.7909984879564
 30
0.0
 10
192.2856186307267
 20
305.7961903106639
 30
0.0
 10
192.7298856080475
 20
305.8029098730352
 30
0.0
 10
193.2156922448168
 20
305.8116514775556
 30
0.0
 10
193.6541945980827
 20
305.821173099689
 30
0.0
 10
194.0690070036931
 20
305.832370442182
 30
0.0
 10
194.3949594359682
 20
305.8422359864466
 30
0.0
 10
194.7208673204857
 20
305.8532208768702
 30
0.0
 10
195.0467116174435
 20
305.8658113794844
 30
0.0
 10
195.4376654577651
 20
305.882536410963
 30
0.0
 10
195.8285364284874
 20
305.9014660324053
 30
0.0
 10
196.2192383715527
 20
305.9234748648606
 30
0.0
 10
196.5715026919651
 20
305.9451029271081
 30
0.0
 10
196.8980989304743
 20
305.9671307654231
 30
0.0
 10
197.2117578981225
 20
305.9905753632823
 30
0.0
 10
197.4730520795273
 20
306.0113373918725
 30
0.0
 10
197.7342399971616
 20
306.0333958629321
 30
0.0
 10
198.0474609885968
 20
306.0620607748969
 30
0.0
 10
198.41260176017
 20
306.0983303851002
 30
0.0
 10
198.768573837618
 20
306.1373975241099
 30
0.0
 10
199.0632809540724
 20
306.1730056813827
 30
0.0
 10
199.374777509749
 20
306.212662311026
 30
0.0
 10
199.6771261882916
 20
306.2542851113797
 30
0.0
 10
199.9788380423802
 20
306.2999388854655
 30
0.0
 10
200.1941055882447
 20
306.3340370840041
 30
0.0
 10
200.4091112899023
 20
306.3696850787083
 30
0.0
 10
200.6237386649888
 20
306.4074158471096
 30
0.0
 10
200.8380523521069
 20
306.4467898852758
 30
0.0
 10
201.0408166025228
 20
306.4857109943499
 30
0.0
 10
201.2375319697134
 20
306.5256363756225
 30
0.0
 10
201.4597843740203
 20
306.5725268280187
 30
0.0
 10
201.6814942868554
 20
306.62177299519
 30
0.0
 10
201.9392595178506
 20
306.6828660931768
 30
0.0
 10
202.2329821004347
 20
306.7561358366538
 30
0.0
 10
202.5910603103401
 20
306.8524518448144
 30
0.0
 10
202.9065098138472
 20
306.946057714715
 30
0.0
 10
203.1408924463696
 20
307.0198865527256
 30
0.0
 10
203.3349851252825
 20
307.0831040502995
 30
0.0
 10
203.6244175540101
 20
307.1827908190448
 30
0.0
 10
203.9111918642424
 20
307.2895575772059
 30
0.0
 10
204.1637364556333
 20
307.3901555329209
 30
0.0
 10
204.3475941332637
 20
307.4666902972864
 30
0.0
 10
204.5259109149573
 20
307.544137839473
 30
0.0
 10
204.7563182043763
 20
307.6483980879466
 30
0.0
 10
204.984138157553
 20
307.7579799930371
 30
0.0
 10
205.2371333972812
 20
307.8874211440811
 30
0.0
 10
205.4594739479906
 20
308.0071441670029
 30
0.0
 10
205.6504473742836
 20
308.1165074955975
 30
0.0
 10
205.8110061709618
 20
308.2122913835358
 30
0.0
 10
205.968382521808
 20
308.3090181092033
 30
0.0
 10
206.1234610641996
 20
308.4091959176055
 30
0.0
 10
206.2765568349973
 20
308.5121813048382
 30
0.0
 10
206.402889578635
 20
308.5997678395212
 30
0.0
 10
206.5274655766566
 20
308.6896810529348
 30
0.0
 10
206.650684888931
 20
308.7813335290182
 30
0.0
 10
206.8054764649629
 20
308.8999667014199
 30
0.0
 10
206.9654352057403
 20
309.0292640851823
 30
0.0
 10
207.10707597893
 20
309.149232435384
 30
0.0
 10
207.2633538045411
 20
309.2851713975855
 30
0.0
 10
207.4463983346221
 20
309.4531423346526
 30
0.0
 10
207.6250738963994
 20
309.6284423575794
 30
0.0
 10
207.7437731280747
 20
309.7497185438626
 30
0.0
 10
207.8187550072072
 20
309.8284962201881
 30
0.0
 10
207.9077233155984
 20
309.923927088171
 30
0.0
 10
208.053757429828
 20
310.0849623550912
 30
0.0
 10
208.2087715277349
 20
310.2668184117211
 30
0.0
 10
208.3474864122867
 20
310.4385808553958
 30
0.0
 10
208.4325481110402
 20
310.5469114916675
 30
0.0
 10
208.5469547909127
 20
310.6968789195763
 30
0.0
 10
208.6859846128726
 20
310.8871762436875
 30
0.0
 10
208.8331332448275
 20
311.1003651240782
 30
0.0
 10
208.9365294954659
 20
311.2576945497947
 30
0.0
 10
209.030181824931
 20
311.4041699142314
 30
0.0
 10
209.1126225514188
 20
311.5370896512969
 30
0.0
 10
209.1943093498442
 20
311.6739521525378
 30
0.0
 10
209.2612238718346
 20
311.7886551079645
 30
0.0
 10
209.3401357157638
 20
311.9270556614575
 30
0.0
 10
209.4167791776822
 20
312.0666511900878
 30
0.0
 10
209.5166179762146
 20
312.2539699228768
 30
0.0
 10
209.6615959081151
 20
312.5362533650763
 30
0.0
 10
209.8124624204166
 20
312.8544528225955
 30
0.0
 10
209.9373886766631
 20
313.1353049630658
 30
0.0
 10
210.0103981432013
 20
313.304635781948
 30
0.0
 10
210.0696624823959
 20
313.4463688995682
 30
0.0
 10
210.1277154814814
 20
313.5885778191027
 30
0.0
 10
210.1864725867872
 20
313.7359213407628
 30
0.0
 10
210.2454395213217
 20
313.8885555209367
 30
0.0
 10
210.306658202662
 20
314.0510881114818
 30
0.0
 10
210.4174624745885
 20
314.3530750628075
 30
0.0
 10
210.5331821224811
 20
314.6911449708863
 30
0.0
 10
210.664148119628
 20
315.0992078633339
 30
0.0
 10
210.7462174240665
 20
315.3676604672827
 30
0.0
 10
210.8141961022822
 20
315.6004040949651
 30
0.0
 10
210.8598287030355
 20
315.7601355576517
 30
0.0
 10
210.9135009641869
 20
315.9521207392472
 30
0.0
 10
210.965415681013
 20
316.144562780637
 30
0.0
 10
211.0159928518221
 20
316.3373367282588
 30
0.0
 10
211.0573101052416
 20
316.4981807496492
 30
0.0
 10
211.0975938475721
 20
316.6592700929994
 30
0.0
 10
211.1371563717388
 20
316.8205306038411
 30
0.0
 10
211.1759745224405
 20
316.9819501650033
 30
0.0
 10
211.2214036184352
 20
317.1758880332688
 30
0.0
 10
211.2657072586179
 20
317.3700378197815
 30
0.0
 10
211.3089239125812
 20
317.5644152684999
 30
0.0
 10
211.3651293147379
 20
317.823879964851
 30
0.0
 10
211.4192844170966
 20
318.0837627322724
 30
0.0
 10
211.4715001855209
 20
318.3440128099517
 30
0.0
 10
211.5054735704371
 20
318.5176579361343
 30
0.0
 10
211.5512554501253
 20
318.7565624364918
 30
0.0
 10
211.5996221406206
 20
319.0174562166739
 30
0.0
 10
211.6422721541409
 20
319.2568965447675
 30
0.0
 10
211.6727082708066
 20
319.4311331190785
 30
0.0
 10
211.7076816965594
 20
319.634486467406
 30
0.0
 10
211.7427963205107
 20
319.8452771321003
 30
0.0
 10
211.7758935822104
 20
320.0489178460489
 30
0.0
 10
211.7945355150655
 20
320.1653259441642
 30
0.0
 10
211.8106114894281
 20
320.267208672491
 30
0.0
 10
211.8220174064212
 20
320.3399796802357
 30
0.0
 10
211.84015317255
 20
320.4564259388773
 30
0.0
 10
211.8647027665242
 20
320.616609013345
 30
0.0
 10
211.8996982266214
 20
320.8497202198411
 30
0.0
 10
211.9359724283366
 20
321.0975403204427
 30
0.0
 10
211.9691453409509
 20
321.3309172073407
 30
0.0
 10
212.0118324565951
 20
321.6373322821136
 30
0.0
 10
212.0501846001826
 20
321.9220193697636
 30
0.0
 10
212.0900744050097
 20
322.228776625829
 30
0.0
 10
212.132006057397
 20
322.557559732644
 30
0.0
 10
212.180483436887
 20
322.9523334889009
 30
0.0
 10
212.2268618867695
 20
323.3473445865537
 30
0.0
 10
212.2664258309361
 20
323.6930815548623
 30
0.0
 10
212.3177534561247
 20
324.15420096628
 30
0.0
 10
212.3807159788155
 20
324.7473804470791
 30
0.0
 10
212.4454569794821
 20
325.3903464805506
 30
0.0
 10
212.5121194781266
 20
326.0830972822941
 30
0.0
 10
212.5707489732141
 20
326.7266674177615
 30
0.0
 10
212.6224584164044
 20
327.3209153710305
 30
0.0
 10
212.6600985354418
 20
327.7666631058523
 30
0.0
 10
212.6967845324004
 20
328.2124803100393
 30
0.0
 10
212.7384980192868
 20
328.7327153901112
 30
0.0
 10
212.7817587633771
 20
329.2902410473219
 30
0.0
 10
212.8207949626623
 20
329.8106933010105
 30
0.0
 10
212.8588965894644
 20
330.3311995595593
 30
0.0
 10
212.8986197925371
 20
330.888955528993
 30
0.0
 10
212.9369726165928
 20
331.4467609337736
 30
0.0
 10
212.9743484520983
 20
332.0046366856875
 30
0.0
 10
213.010821938557
 20
332.5625804189364
 30
0.0
 10
213.0461695256872
 20
333.1206389745724
 30
0.0
 10
213.0807213449762
 20
333.6787418441022
 30
0.0
 10
213.121469038345
 20
334.3514713142223
 30
0.0
 10
213.1610099384034
 20
335.0272413148272
 30
0.0
 10
213.206488486075
 20
335.8236403121788
 30
0.0
 10
213.2447456345001
 20
336.5114450370285
 30
0.0
 10
213.2818255110391
 20
337.1993274572839
 30
0.0
 10
213.3121676792454
 20
337.7726068202884
 30
0.0
 10
213.3419659171047
 20
338.3458924839333
 30
0.0
 10
213.3710927759547
 20
338.9192051875564
 30
0.0
 10
213.3997322071561
 20
339.4925473568799
 30
0.0
 10
213.4300137402023
 20
340.108600055996
 30
0.0
 10
213.4616459884866
 20
340.7673578255835
 30
0.0
 10
213.496739288198
 20
341.5114489858117
 30
0.0
 10
213.5331782518253
 20
342.2982032454657
 30
0.0
 10
213.5687831654876
 20
343.0849626675814
 30
0.0
 10
213.6038015359498
 20
343.8717666360777
 30
0.0
 10
213.6382121727848
 20
344.658629997871
 30
0.0
 10
213.6717466193954
 20
345.4455424028351
 30
0.0
 10
213.704596608445
 20
346.2324565611162
 30
0.0
 10
213.7410461771404
 20
347.1233402783977
 30
0.0
 10
213.7720830455863
 20
347.9088025083386
 30
0.0
 10
213.7943129742922
 20
348.4834228403314
 30
0.0
 10
213.8062546980721
 20
348.7952260984965
 30
0.0
 10
213.8200007446039
 20
349.1590160422047
 30
0.0
 10
213.8413540065234
 20
349.7306957543025
 30
0.0
 10
213.8563756216853
 20
350.1465630612437
 30
0.0
 10
213.8676415406982
 20
350.4584554476248
 30
0.0
  0
SPLINE
  5
90
330
1F
100
AcDbEntity
  8
0
  6
Continuous
 62
     8
370
    18
100
AcDbSpline
210
0.0
220
0.0
230
1.0
 70
     8
 71
     3
 72
    19
 73
    15
 74
     0
 42
0.00000001
 43
0.00000001
 40
0.0
 40
0.0
 40
0.0
 40
0.0
 40
0.2500000000000001
 40
0.2500000000000001
 40
0.5000000000000002
 40
0.5000000000000002
 40
0.7500000000000003
 40
0.7500000000000003
 40
0.8750000000000002
 40
0.8750000000000002
 40
0.937500000000004
 40
0.968750000000002
 40
0.968750000000002
 40
1.0
 40
1.0
 40
1.0
 40
1.0
 10
164.0076069771551
 20
360.6275842337046
 30
0.0
 10
164.0258878929394
 20
359.7735386373203
 30
0.0
 10
164.0442214317239
 20
358.9221627438396
 30
0.0
 10
164.0868376401731
 20
357.219364642811
 30
0.0
 10
164.1110432245279
 20
356.3708024666549
 30
0.0
 10
164.1619416958378
 20
354.6761243148785
 30
0.0
 10
164.1890775848656
 20
353.8304531198302
 30
0.0
 10
164.2316001332724
 20
352.5642358628074
 30
0.0
 10
164.246085024376
 20
352.1425445198018
 30
0.0
 10
164.2681805101761
 20
351.5105848225125
 30
0.0
 10
164.2793194425003
 20
351.194749927875
 30
0.0
 10
164.2905587049202
 20
350.879140050022
 30
0.0
 10
164.2980676200777
 20
350.6687848173115
 30
0.0
 10
164.3018225295438
 20
350.5649899844024
 30
0.0
 10
164.3055972174579
 20
350.4585071364967
 30
0.0
  0
SPLINE
  5
91
330
1F
100
AcDbEntity
  8
0
  6
Continuous
 62
     8
370
    18
100
AcDbSpline
210
0.0
220
0.0
230
1.0
 70
     8
 71
     3
 72
     8
 73
     4
 74
     0
 42
0.00000001
 43
0.00000001
 40
0.0
 40
0.0
 40
0.0
 40
0.0
 40
1.0
 40
1.0
 40
1.0
 40
1.0
 10
164.0075622054528
 20
360.6300176501604
 30
0.0
 10
163.9721720765931
 20
361.960266933131
 30
0.0
 10
163.9472899991333
 20
363.2937059197692
 30
0.0
 10
163.9352071314442
 20
364.6343410058226
 30
0.0
  0
SPLINE
  5
92
330
1F
100
AcDbEntity
  8
0
  6
Continuous
 62
     8
370
    18
100
AcDbSpline
210
0.0
220
0.0
230
1.0
 70
     8
 71
     3
 72
    39
 73
    35
 74
     0
 42
0.00000001
 43
0.00000001
 40
0.0
 40
0.0
 40
0.0
 40
0.0
 40
0.0517389012720192
 40
0.0979544801958962
 40
0.1386160752689687
 40
0.1736880951628212
 40
0.2030700856825708
 40
0.2267896684445762
 40
0.2448610519493508
 40
0.2806026572933044
 40
0.306553989727133
 40
0.3415335111365473
 40
0.3705050480596478
 40
0.3902381038156101
 40
0.4189429311742149
 40
0.4559773088110874
 40
0.5014966105951938
 40
0.5251522717531614
 40
0.5494357825140596
 40
0.5744046238760845
 40
0.6001050180927338
 40
0.6265372038718832
 40
0.6536888702943345
 40
0.6815535625040002
 40
0.7101288915061482
 40
0.7394335741659509
 40
0.7694783172188479
 40
0.8002171492500824
 40
0.8316597780286747
 40
0.8638250260134456
 40
0.8967251802417119
 40
0.9303748213999703
 40
0.9647916227360336
 40
1.0
 40
1.0
 40
1.0
 40
1.0
 10
189.0861700574654
 20
402.9243772193112
 30
0.0
 10
188.1109434045451
 20
402.9250284864436
 30
0.0
 10
186.2645992126236
 20
402.9262614954921
 30
0.0
 10
183.6517762742156
 20
402.8936394487129
 30
0.0
 10
181.3551962293448
 20
402.7955820101857
 30
0.0
 10
179.3800990468259
 20
402.6468068283162
 30
0.0
 10
177.7305637811402
 20
402.4571566054674
 30
0.0
 10
176.4087129494105
 20
402.2439957327169
 30
0.0
 10
174.9836921488099
 20
401.9456836564131
 30
0.0
 10
173.5433069792551
 20
401.535775534181
 30
0.0
 10
171.8765615530514
 20
400.8464780696586
 30
0.0
 10
170.4379782908042
 20
399.9935772529249
 30
0.0
 10
169.2745632726346
 20
398.982114424206
 30
0.0
 10
168.3397834115763
 20
397.9182839515448
 30
0.0
 10
167.4613294535128
 20
396.6243025115267
 30
0.0
 10
166.5699236726194
 20
394.7891941404661
 30
0.0
 10
165.9561531396645
 20
392.9291756666117
 30
0.0
 10
165.5333191624753
 20
391.2519363807689
 30
0.0
 10
165.2560629349799
 20
389.9258487364771
 30
0.0
 10
165.0161788907698
 20
388.5491182604132
 30
0.0
 10
164.8085431009434
 20
387.1221953454046
 30
0.0
 10
164.629554315388
 20
385.6464070586062
 30
0.0
 10
164.4770093938995
 20
384.1236613442142
 30
0.0
 10
164.3487874628086
 20
382.5557989379438
 30
0.0
 10
164.2432487636092
 20
380.9439413074414
 30
0.0
 10
164.1561384147026
 20
379.2889444666422
 30
0.0
 10
164.0846574854258
 20
377.5922494210005
 30
0.0
 10
164.027842543315
 20
375.8553348907994
 30
0.0
 10
163.983885659892
 20
374.0795092948837
 30
0.0
 10
163.9524002677261
 20
372.2649159353355
 30
0.0
 10
163.9326234544975
 20
370.4115582491385
 30
0.0
 10
163.923371704468
 20
368.5195944672133
 30
0.0
 10
163.9224735225682
 20
366.5883077260742
 30
0.0
 10
163.9309304623509
 20
365.2905812385794
 30
0.0
 10
163.9352070061581
 20
364.6343410008395
 30
0.0
  0
SPLINE
  5
93
330
1F
100
AcDbEntity
  8
0
  6
Continuous
 62
     8
370
    18
100
AcDbSpline
210
0.0
220
0.0
230
1.0
 70
     8
 71
     3
 72
   156
 73
   152
 74
     0
 42
0.00000001
 43
0.00000001
 40
0.0
 40
0.0
 40
0.0
 40
0.0
 40
0.0121440150565744
 40
0.0161919455374133
 40
0.0182158900224631
 40
0.0222634331003742
 40
0.0323834973381853
 40
0.038606177135209
 40
0.0510552654816451
 40
0.0635071891766686
 40
0.0697340165353617
 40
0.0821884339953478
 40
0.0946455566621034
 40
0.1071063771566888
 40
0.1320419482773409
 40
0.1444426026633702
 40
0.1506454313234042
 40
0.163056493498222
 40
0.1754757843523388
 40
0.1816887727832497
 40
0.1941218807857583
 40
0.2065658468157747
 40
0.2127922775066673
 40
0.2252536082766986
 40
0.2363344063966279
 40
0.2411810987474495
 40
0.2508801562768155
 40
0.2605893808708126
 40
0.2654477878094185
 40
0.2751725159879603
 40
0.2849087876252173
 40
0.2897810850475148
 40
0.2995351957571536
 40
0.3174253669582521
 40
0.325558332734988
 40
0.3377778869997291
 40
0.3500215012056558
 40
0.3581997047039459
 40
0.3663905755508167
 40
0.3745938821474212
 40
0.3775549175133104
 40
0.3834823305887279
 40
0.3894168479588133
 40
0.3923867639741938
 40
0.3983326055418933
 40
0.4132327035440174
 40
0.4162190588876815
 40
0.4221983355149883
 40
0.4301827133450827
 40
0.4381826466548878
 40
0.4441928739639084
 40
0.4482049398801857
 40
0.4502127768262911
 40
0.4542315643601344
 40
0.4649668272386908
 40
0.470345998715622
 40
0.4730384554035866
 40
0.4757327443215046
 40
0.4829268250877343
 40
0.4865293102304913
 40
0.492540854108364
 40
0.4949477961408919
 40
0.4985607205750721
 40
0.4997651626922845
 40
0.5003680181810375
 40
0.5021772856839991
 40
0.5094226498547455
 40
0.5130513581736806
 40
0.515775040693265
 40
0.5203183344686091
 40
0.5239567109869568
 40
0.528056766539262
 40
0.5307923113552527
 40
0.5321603348810507
 40
0.5348978118371983
 40
0.543119855770311
 40
0.5458634282558218
 40
0.551358189204632
 40
0.5596070958183402
 40
0.5609825459753685
 40
0.5651099495038882
 40
0.5735532013989715
 40
0.5763990460831674
 40
0.5820903427473936
 40
0.5906234488078417
 40
0.5932440770685584
 40
0.5984821478767127
 40
0.603715446765828
 40
0.6063299108893615
 40
0.616469349963869
 40
0.6238287211931586
 40
0.6262774833661513
 40
0.6311674175955353
 40
0.6382074256231972
 40
0.6393785213506785
 40
0.641718561601905
 40
0.6452234581973669
 40
0.6498868631277087
 40
0.655085791973983
 40
0.6585429924339831
 40
0.660269121602078
 40
0.6705908311325588
 40
0.6844810650268592
 40
0.6862379090119782
 40
0.691499081466919
 40
0.7054643127920046
 40
0.7130550679913835
 40
0.7168425065216523
 40
0.7225146631342593
 40
0.7244031277209055
 40
0.7357113513395294
 40
0.7485743476979982
 40
0.752854412604493
 40
0.7635395779279924
 40
0.7678086226654006
 40
0.7699421616892949
 40
0.7774715188156466
 40
0.78248735973377
 40
0.7849942461643457
 40
0.7925111973033994
 40
0.7975194796045616
 40
0.8000225671459816
 40
0.8075306510123219
 40
0.8130474502739463
 40
0.8160613424355843
 40
0.8220880496603407
 40
0.8281133484158927
 40
0.8311255271508099
 40
0.8401596780183331
 40
0.8461806730954237
 40
0.8491909372361671
 40
0.8552108429364874
 40
0.8620549883653846
 40
0.8658891883430939
 40
0.8773903405824538
 40
0.885056428045023
 40
0.8888896512780856
 40
0.896555681851382
 40
0.9042206883905549
 40
0.9080526655726447
 40
0.9157171557783194
 40
0.9244144640026596
 40
0.929279331258606
 40
0.9390078290259992
 40
0.9487367420534902
 40
0.9584655765630778
 40
0.9681943744808534
 40
0.9779225659333032
 40
0.9827872942854339
 40
0.9925166707388022
 40
1.0
 40
1.0
 40
1.0
 40
1.0
 10
214.2379956094107
 20
364.6343291278287
 30
0.0
 10
214.2397867341912
 20
364.8605938085427
 30
0.0
 10
214.2421748895715
 20
365.1622786607184
 30
0.0
 10
214.2441531567489
 20
365.5019773195339
 30
0.0
 10
214.2451816712194
 20
365.6907269247376
 30
0.0
 10
214.2466223097752
 20
365.9928095216189
 30
0.0
 10
214.2479286732978
 20
366.373435098984
 30
0.0
 10
214.2490741550637
 20
366.9112166781138
 30
0.0
 10
214.2494965742066
 20
367.4929483176508
 30
0.0
 10
214.2489091547647
 20
368.0752611127627
 30
0.0
 10
214.2475842864915
 20
368.6580340146688
 30
0.0
 10
214.2454833928994
 20
369.2412609561526
 30
0.0
 10
214.2416176873805
 20
369.941794293982
 30
0.0
 10
214.2345476928498
 20
370.8769661027971
 30
0.0
 10
214.2245022835519
 20
371.8120618303312
 30
0.0
 10
214.2127269860532
 20
372.6303511472889
 30
0.0
 10
214.2032203182439
 20
373.2134804806946
 30
0.0
 10
214.1925998483794
 20
373.7971806023609
 30
0.0
 10
214.1802689024653
 20
374.3813265234801
 30
0.0
 10
214.1666230402591
 20
374.9660463518655
 30
0.0
 10
214.1515820049351
 20
375.5513786873365
 30
0.0
 10
214.1346672508348
 20
376.1371161534183
 30
0.0
 10
214.1162127173523
 20
376.7234603134619
 30
0.0
 10
214.0970718990293
 20
377.2841899769641
 30
0.0
 10
214.0769631042521
 20
377.8189545188193
 30
0.0
 10
214.0576331968034
 20
378.3016735002044
 30
0.0
 10
214.0383261614145
 20
378.7585399299472
 30
0.0
 10
214.0176206541354
 20
379.2155760627909
 30
0.0
 10
213.9957485961736
 20
379.6730309402182
 30
0.0
 10
213.9726307853591
 20
380.1309192970661
 30
0.0
 10
213.9476220241226
 20
380.5889219203467
 30
0.0
 10
213.9211203353093
 20
381.047337290152
 30
0.0
 10
213.8836842001026
 20
381.658969662604
 30
0.0
 10
213.8378600334139
 20
382.3314159968755
 30
0.0
 10
213.783547197192
 20
383.0494441052452
 30
0.0
 10
213.7335822648174
 20
383.6609055845403
 30
0.0
 10
213.6788069700775
 20
384.2724216522277
 30
0.0
 10
213.6271287659283
 20
384.8077830188275
 30
0.0
 10
213.580110479004
 20
385.2670323959829
 30
0.0
 10
213.5409421253663
 20
385.6283324680849
 30
0.0
 10
213.5050026359835
 20
385.9470852955895
 30
0.0
 10
213.4728786104961
 20
386.2233164891543
 30
0.0
 10
213.4393912952456
 20
386.4994090127583
 30
0.0
 10
213.4048100614553
 20
386.7755988611975
 30
0.0
 10
213.3475938135125
 20
387.2181196142154
 30
0.0
 10
213.2861341256001
 20
387.6599409371171
 30
0.0
 10
213.220616943656
 20
388.101331954708
 30
0.0
 10
213.1726340648652
 20
388.4144378373757
 30
0.0
 10
213.1074860885372
 20
388.8193465839016
 30
0.0
 10
213.0386570929266
 20
389.2238152819555
 30
0.0
 10
212.9794936379561
 20
389.5544336150564
 30
0.0
 10
212.9386137164419
 20
389.7747161012089
 30
0.0
 10
212.9037633877482
 20
389.9583135754762
 30
0.0
 10
212.8443130162371
 20
390.2644932504943
 30
0.0
 10
212.7691017240124
 20
390.6311070539233
 30
0.0
 10
212.6946004799875
 20
390.9722129638853
 30
0.0
 10
212.6506592510466
 20
391.1670593154359
 30
0.0
 10
212.5982826246438
 20
391.3944156749558
 30
0.0
 10
212.5400815897909
 20
391.6375463865592
 30
0.0
 10
212.4646507323012
 20
391.9394543398922
 30
0.0
 10
212.4087970830848
 20
392.1547146502146
 30
0.0
 10
212.3511569189948
 20
392.369535898512
 30
0.0
 10
212.3157810967305
 20
392.4982499101044
 30
0.0
 10
212.2887688364997
 20
392.5946469323699
 30
0.0
 10
212.2706308145835
 20
392.6589238415386
 30
0.0
 10
212.2217640240081
 20
392.8304050977827
 30
0.0
 10
212.1554384335593
 20
393.0548174406402
 30
0.0
 10
212.0813606277263
 20
393.2942546340144
 30
0.0
 10
212.020572510637
 20
393.4855489025566
 30
0.0
 10
211.9579930066272
 20
393.6763237079556
 30
0.0
 10
211.8852255055209
 20
393.8902412955102
 30
0.0
 10
211.8212771511245
 20
394.0718860623719
 30
0.0
 10
211.7698368060173
 20
394.2135797448429
 30
0.0
 10
211.7262451056313
 20
394.3314377816262
 30
0.0
 10
211.6464195110878
 20
394.5432609610025
 30
0.0
 10
211.5538591794474
 20
394.7770400315811
 30
0.0
 10
211.4377942263629
 20
395.0555624084442
 30
0.0
 10
211.3177923716784
 20
395.3327632279924
 30
0.0
 10
211.2018270233124
 20
395.5840646896019
 30
0.0
 10
211.0924139128692
 20
395.8105719700529
 30
0.0
 10
210.9791687472612
 20
396.0390797864223
 30
0.0
 10
210.8479773518116
 20
396.2884623811777
 30
0.0
 10
210.6972514506259
 20
396.5595344321431
 30
0.0
 10
210.5408902334576
 20
396.8292078034142
 30
0.0
 10
210.3784018444719
 20
397.0903345963509
 30
0.0
 10
210.2138615461799
 20
397.3401832107949
 30
0.0
 10
210.0787860181022
 20
397.5372939546249
 30
0.0
 10
209.9388318485951
 20
397.730855636068
 30
0.0
 10
209.7413090100257
 20
397.9931301926872
 30
0.0
 10
209.510954782098
 20
398.2794057424189
 30
0.0
 10
209.2694799936629
 20
398.5526161063261
 30
0.0
 10
209.0861765839622
 20
398.749195136035
 30
0.0
 10
208.9028966831567
 20
398.9379582243284
 30
0.0
 10
208.7300758856244
 20
399.1044998882221
 30
0.0
 10
208.5877717567353
 20
399.2354508073041
 30
0.0
 10
208.4922595818634
 20
399.3216265637124
 30
0.0
 10
208.3470255757611
 20
399.4484254073575
 30
0.0
 10
208.1584327227195
 20
399.6055676933411
 30
0.0
 10
207.9659863484418
 20
399.7570184487154
 30
0.0
 10
207.8130051766626
 20
399.8714996539808
 30
0.0
 10
207.5819829820134
 20
400.039281824287
 30
0.0
 10
207.1855650910587
 20
400.3074898541689
 30
0.0
 10
206.770622532334
 20
400.5506418061432
 30
0.0
 10
206.4288831781744
 20
400.7334755360197
 30
0.0
 10
206.082491202746
 20
400.9112306391506
 30
0.0
 10
205.6285845610511
 20
401.1187104283889
 30
0.0
 10
205.1904487389329
 20
401.2953090233618
 30
0.0
 10
204.8927906009148
 20
401.4075688907283
 30
0.0
 10
204.6931794216622
 20
401.4787545959347
 30
0.0
 10
204.3595018611339
 20
401.5926018536731
 30
0.0
 10
203.8944666572245
 20
401.7391712098396
 30
0.0
 10
203.3800782187836
 20
401.879629929802
 30
0.0
 10
202.8734252249904
 20
402.00485722842
 30
0.0
 10
202.5212371774603
 20
402.084425497472
 30
0.0
 10
202.206978283744
 20
402.1494954044107
 30
0.0
 10
201.9502983644738
 20
402.2006178562052
 30
0.0
 10
201.6791595062218
 20
402.251479664539
 30
0.0
 10
201.400346188055
 20
402.2999200999716
 30
0.0
 10
201.1213414108598
 20
402.3461955338548
 30
0.0
 10
200.8419394846958
 20
402.3896835733245
 30
0.0
 10
200.5620535059209
 20
402.4299775359116
 30
0.0
 10
200.2820326640734
 20
402.4684272694311
 30
0.0
 10
199.9921432856883
 20
402.5057825698709
 30
0.0
 10
199.6922877243306
 20
402.5414049627371
 30
0.0
 10
199.4199066295457
 20
402.5721239677772
 30
0.0
 10
199.1377830564967
 20
402.6022016357764
 30
0.0
 10
198.8554259808696
 20
402.6301125229564
 30
0.0
 10
198.5164893239186
 20
402.6617450454883
 30
0.0
 10
198.1773650943417
 20
402.6909473306228
 30
0.0
 10
197.8380084444991
 20
402.7173489880731
 30
0.0
 10
197.5551546259168
 20
402.7380052933131
 30
0.0
 10
197.2567137943637
 20
402.7584236605362
 30
0.0
 10
196.9426304762895
 20
402.7779633770515
 30
0.0
 10
196.5253101413239
 20
402.8019566187161
 30
0.0
 10
196.0923260699629
 20
402.8239115743895
 30
0.0
 10
195.6591931392062
 20
402.8428359975334
 30
0.0
 10
195.2981982807701
 20
402.8568874242544
 30
0.0
 10
194.9371545943959
 20
402.8694164510244
 30
0.0
 10
194.5760592754949
 20
402.8799813433948
 30
0.0
 10
194.2149511667198
 20
402.8892321658764
 30
0.0
 10
193.834348779438
 20
402.8976440985438
 30
0.0
 10
193.4342352713975
 20
402.9046728325701
 30
0.0
 10
192.9951894567167
 20
402.9109316938303
 30
0.0
 10
192.5366727383628
 20
402.915960507529
 30
0.0
 10
191.9864416266563
 20
402.9200847660186
 30
0.0
 10
191.4361942670187
 20
402.9227139436766
 30
0.0
 10
190.8859559069024
 20
402.9242682608524
 30
0.0
 10
190.4274184875821
 20
402.9247688993974
 30
0.0
 10
189.9688700384017
 20
402.9248817518127
 30
0.0
 10
189.5526439628588
 20
402.9247203327927
 30
0.0
 10
189.2281327685685
 20
402.9244693853199
 30
0.0
 10
189.0870495387679
 20
402.9243602843686
 30
0.0
  0
SPLINE
  5
94
330
1F
100
AcDbEntity
  8
0
  6
Continuous
 62
     8
370
    18
100
AcDbSpline
210
0.0
220
0.0
230
1.0
 70
     8
 71
     3
 72
    33
 73
    29
 74
     0
 42
0.00000001
 43
0.00000001
 40
0.0
 40
0.0
 40
0.0
 40
0.0
 40
0.1916756149456314
 40
0.382297721742567
 40
0.5547112734540802
 40
0.6118842275665672
 40
0.7131060328638361
 40
0.749005702449993
 40
0.7610632920024135
 40
0.8091983010514638
 40
0.8337612062684441
 40
0.8398843347226906
 40
0.8521479081421758
 40
0.8708169513507171
 40
0.8832160872806929
 40
0.9224935219698254
 40
0.9371316154508627
 40
0.9520550391595506
 40
0.9670797384009038
 40
0.9823324406202333
 40
0.9838327291355903
 40
0.9914067262426698
 40
0.9959901731693814
 40
0.9964533331627062
 40
0.9978617613733494
 40
0.9992628762220265
 40
0.9997183944450494
 40
1.0
 40
1.0
 40
1.0
 40
1.0
 10
214.1656907337889
 20
360.6300474451658
 30
0.0
 10
214.1723964672039
 20
360.8851289220863
 30
0.0
 10
214.1857710772602
 20
361.3938898696543
 30
0.0
 10
214.202064527512
 20
362.1334040033311
 30
0.0
 10
214.2126120922034
 20
362.6942145874672
 30
0.0
 10
214.219906036458
 20
363.1360329927837
 30
0.0
 10
214.2238130596685
 20
363.3956495419871
 30
0.0
 10
214.2265570471876
 20
363.5950629018043
 30
0.0
 10
214.2282656764169
 20
363.723531151486
 30
0.0
 10
214.2296993991959
 20
363.8368633591676
 30
0.0
 10
214.2309505636541
 20
363.9422829635523
 30
0.0
 10
214.2316130191049
 20
363.9997313986499
 30
0.0
 10
214.2321735617017
 20
364.0492991036452
 30
0.0
 10
214.2328157085422
 20
364.1072670105332
 30
0.0
 10
214.2338458334163
 20
364.2013811509
 30
0.0
 10
214.2347875585352
 20
364.2901152393429
 30
0.0
 10
214.2358118361551
 20
364.3822377300919
 30
0.0
 10
214.2364827687358
 20
364.441908673237
 30
0.0
 10
214.2371683206741
 20
364.5024066112696
 30
0.0
 10
214.2376064756475
 20
364.5449440299334
 30
0.0
 10
214.2378565050567
 20
364.5775128337228
 30
0.0
 10
214.2379640798376
 20
364.5957994625368
 30
0.0
 10
214.2379971290521
 20
364.6127003573617
 30
0.0
 10
214.2379910561218
 20
364.6213454515923
 30
0.0
 10
214.2379880951663
 20
364.6257285337165
 30
0.0
 10
214.2379881784361
 20
364.6301013147583
 30
0.0
 10
214.2379894346474
 20
364.6329649647606
 30
0.0
 10
214.2379938118471
 20
364.6339520299588
 30
0.0
 10
214.2379954840815
 20
364.6343291213664
 30
0.0
  0
SPLINE
  5
95
330
1F
100
AcDbEntity
  8
0
  6
Continuous
 62
     8
370
    18
100
AcDbSpline
210
0.0
220
0.0
230
1.0
 70
     8
 71
     3
 72
    34
 73
    30
 74
     0
 42
0.00000001
 43
0.00000001
 40
0.0
 40
0.0
 40
0.0
 40
0.0
 40
0.0459358548049193
 40
0.1658694663639762
 40
0.2058874238342634
 40
0.2331615481685608
 40
0.2740188244045585
 40
0.2876203169849808
 40
0.3390086975300193
 40
0.4115021669146692
 40
0.4558446419170754
 40
0.5001436120962235
 40
0.5888000806314063
 40
0.6148487842102954
 40
0.6539095889663608
 40
0.6734283622575142
 40
0.6799342553074765
 40
0.6929594292160329
 40
0.7125558069874103
 40
0.7321239840550632
 40
0.7515279518113169
 40
0.7710432320621864
 40
0.8101309983396023
 40
0.8296856598515756
 40
0.8616160509986606
 40
0.873985573980514
 40
0.8863029991025985
 40
0.9482432574623347
 40
1.0
 40
1.0
 40
1.0
 40
1.0
 10
213.8676446670553
 20
350.4585349790076
 30
0.0
 10
213.8732137591196
 20
350.6128852710675
 30
0.0
 10
213.8933231558591
 20
351.1702276931435
 30
0.0
 10
213.9178463516245
 20
351.8629905112707
 30
0.0
 10
213.939637844182
 20
352.4940649206795
 30
0.0
 10
213.9520928649116
 20
352.8588414354535
 30
0.0
 10
213.9614006821576
 20
353.1346958984214
 30
0.0
 10
213.9733350027099
 20
353.492105745802
 30
0.0
 10
213.9886479129799
 20
353.9565960274626
 30
0.0
 10
214.0069102181377
 20
354.5254995695743
 30
0.0
 10
214.0239229453027
 20
355.0710447774212
 30
0.0
 10
214.0422381743257
 20
355.6718332940576
 30
0.0
 10
214.0579649844844
 20
356.2113081152825
 30
0.0
 10
214.0725517405033
 20
356.7335419397098
 30
0.0
 10
214.0803912066557
 20
357.0211288126186
 30
0.0
 10
214.0862919443764
 20
357.242416382158
 30
0.0
 10
214.0897991946284
 20
357.3752136441527
 30
0.0
 10
214.0932869419372
 20
357.5082971773713
 30
0.0
 10
214.0979030939518
 20
357.6858573618633
 30
0.0
 10
214.1030195706695
 20
357.8851852863032
 30
0.0
 10
214.1079636321182
 20
358.0843093132092
 30
0.0
 10
214.1145757433504
 20
358.3499690907481
 30
0.0
 10
214.1209952735805
 20
358.61627893235
 30
0.0
 10
214.128307557573
 20
358.9250433128448
 30
0.0
 10
214.1333508628117
 20
359.1428220714092
 30
0.0
 10
214.1377628870078
 20
359.3359908535512
 30
0.0
 10
214.1444027851215
 20
359.6316167165637
 30
0.0
 10
214.1538892216699
 20
360.0619006059883
 30
0.0
 10
214.161951297522
 20
360.4506341446896
 30
0.0
 10
214.1656212868876
 20
360.6275920373299
 30
0.0
  0
SPLINE
  5
96
330
1F
100
AcDbEntity
  8
0
  6
Continuous
 62
     8
370
    18
100
AcDbSpline
210
0.0
220
0.0
230
1.0
 70
     8
 71
     3
 72
     8
 73
     4
 74
     0
 42
0.00000001
 43
0.00000001
 40
0.0
 40
0.0
 40
0.0
 40
0.0
 40
1.0
 40
1.0
 40
1.0
 40
1.0
 10
116.4725316686954
 20
422.6960184379183
 30
0.0
 10
116.1340795111532
 20
374.2866330116451
 30
0.0
 10
116.1340795111515
 20
325.8772475853719
 30
0.0
 10
116.4725316686938
 20
277.4678621590988
 30
0.0
  0
SPLINE
  5
97
330
1F
100
AcDbEntity
  8
0
  6
Continuous
 62
     8
370
    18
100
AcDbSpline
210
0.0
220
0.0
230
1.0
 70
     8
 71
     3
 72
     8
 73
     4
 74
     0
 42
0.00000001
 43
0.00000001
 40
0.0
 40
0.0
 40
0.0
 40
0.0
 40
1.0
 40
1.0
 40
1.0
 40
1.0
 10
261.7006879475101
 20
422.6960184379172
 30
0.0
 10
213.2913025212382
 20
423.0344705954594
 30
0.0
 10
164.8819170949662
 20
423.0344705954594
 30
0.0
 10
116.4725316686944
 20
422.6960184379171
 30
0.0
  0
SPLINE
  5
98
330
1F
100
AcDbEntity
  8
0
  6
Continuous
 62
     8
370
    18
100
AcDbSpline
210
0.0
220
0.0
230
1.0
 70
     8
 71
     3
 72
     8
 73
     4
 74
     0
 42
0.00000001
 43
0.00000001
 40
0.0
 40
0.0
 40
0.0
 40
0.0
 40
1.0
 40
1.0
 40
1.0
 40
1.0
 10
261.7006879475092
 20
277.4678621590999
 30
0.0
 10
262.0391401050514
 20
325.8772475853725
 30
0.0
 10
262.0391401050496
 20
374.2866330116451
 30
0.0
 10
261.7006879475073
 20
422.6960184379176
 30
0.0
  0
SPLINE
  5
99
330
1F
100
AcDbEntity
  8
0
  6
Continuous
 62
     8
370
    18
100
AcDbSpline
210
0.0
220
0.0
230
1.0
 70
     8
 71
     3
 72
     8
 73
     4
 74
     0
 42
0.00000001
 43
0.00000001
 40
0.0
 40
0.0
 40
0.0
 40
0.0
 40
1.0
 40
1.0
 40
1.0
 40
1.0
 10
116.4725316686953
 20
277.4678621590986
 30
0.0
 10
164.8819170949666
 20
277.1294100015564
 30
0.0
 10
213.291302521238
 20
277.1294100015569
 30
0.0
 10
261.7006879475093
 20
277.4678621590991
 30
0.0
  0
SPLINE
  5
9A
330
1F
100
AcDbEntity
  8
0
  6
Continuous
 62
     8
370
    18
100
AcDbSpline
210
0.0
220
0.0
230
1.0
 70
     8
 71
     3
 72
     8
 73
     4
 74
     0
 42
0.00000001
 43
0.00000001
 40
0.0
 40
0.0
 40
0.0
 40
0.0
 40
1.0
 40
1.0
 40
1.0
 40
1.0
 10
116.3412699168733
 20
424.1789534642635
 30
0.0
 10
164.8381631776928
 20
424.5186541941104
 30
0.0
 10
213.3350564385124
 20
424.5186541941111
 30
0.0
 10
261.8319496993319
 20
424.1789534642645
 30
0.0
  0
SPLINE
  5
9B
330
1F
100
AcDbEntity
  8
0
  6
Continuous
 62
     8
370
    18
100
AcDbSpline
210
0.0
220
0.0
230
1.0
 70
     8
 71
     3
 72
    26
 73
    22
 74
     0
 42
0.00000001
 43
0.00000001
 40
0.0
 40
0.0
 40
0.0
 40
0.0
 40
0.03125
 40
0.03125
 40
0.0625
 40
0.0625
 40
0.125
 40
0.125
 40
0.25
 40
0.25
 40
0.375
 40
0.375
 40
0.5
 40
0.5
 40
0.625
 40
0.625
 40
0.75
 40
0.75
 40
0.875
 40
0.875
 40
1.0
 40
1.0
 40
1.0
 40
1.0
 10
261.831949699332
 20
424.1789534642647
 30
0.0
 10
261.8321145010794
 20
424.1783172563237
 30
0.0
 10
261.8322209207387
 20
424.1770879701234
 30
0.0
 10
261.8323182948362
 20
424.173461438708
 30
0.0
 10
261.8323092492746
 20
424.1710641934931
 30
0.0
 10
261.8321108631916
 20
424.1621478155814
 30
0.0
 10
261.8317502732723
 20
424.1539040406184
 30
0.0
 10
261.8299990933883
 20
424.1224925167077
 30
0.0
 10
261.8279390932976
 20
424.0926445687386
 30
0.0
 10
261.8221171325987
 20
424.0162994489799
 30
0.0
 10
261.818298125846
 20
423.9690749532323
 30
0.0
 10
261.8091337963673
 20
423.8601666350875
 30
0.0
 10
261.803818812304
 20
423.7987935428637
 30
0.0
 10
261.7917390255124
 20
423.6623588569004
 30
0.0
 10
261.7849114912298
 20
423.586632476103
 30
0.0
 10
261.7703376366547
 20
423.4274297516881
 30
0.0
 10
261.7625415153494
 20
423.3433732468223
 30
0.0
 10
261.7459154904058
 20
423.1662152608916
 30
0.0
 10
261.7371401811872
 20
423.0737180760358
 30
0.0
 10
261.7192765346921
 20
422.8872892273765
 30
0.0
 10
261.7101059148828
 20
422.7924779769065
 30
0.0
 10
261.7006879475097
 20
422.6960184379181
 30
0.0
  0
SPLINE
  5
9C
330
1F
100
AcDbEntity
  8
0
  6
Continuous
 62
     8
370
    18
100
AcDbSpline
210
0.0
220
0.0
230
1.0
 70
     8
 71
     3
 72
    21
 73
    17
 74
     0
 42
0.00000001
 43
0.00000001
 40
0.0
 40
0.0
 40
0.0
 40
0.0
 40
0.0527015849062533
 40
0.1061218290191366
 40
0.1602636673748752
 40
0.2151299185912074
 40
0.2707232904326047
 40
0.3270463850640281
 40
0.3841017040108813
 40
0.4418916528422023
 40
0.5004185455963431
 40
0.6190205570882739
 40
0.7500271669228922
 40
0.8150462880618087
 40
0.8983758744118705
 40
1.0
 40
1.0
 40
1.0
 40
1.0
 10
116.3412699168733
 20
424.1789534642639
 30
0.0
 10
116.3410931062171
 20
424.1769442684197
 30
0.0
 10
116.3407370738462
 20
424.1728984785591
 30
0.0
 10
116.3414839891912
 20
424.1541379780676
 30
0.0
 10
116.3431710420745
 20
424.1257311923431
 30
0.0
 10
116.3459045614799
 20
424.0865555044794
 30
0.0
 10
116.3496695218651
 20
424.0367445881864
 30
0.0
 10
116.3544837593085
 20
423.9762035678393
 30
0.0
 10
116.3603558962836
 20
423.9050285137296
 30
0.0
 10
116.3672956881785
 20
423.8233868954181
 30
0.0
 10
116.3780245965243
 20
423.7005982809485
 30
0.0
 10
116.3946431647167
 20
423.5168751873097
 30
0.0
 10
116.41434887775
 20
423.3032897780132
 30
0.0
 10
116.4334704862576
 20
423.1018440783778
 30
0.0
 10
116.4512817288566
 20
422.9152308745195
 30
0.0
 10
116.464996171276
 20
422.7737539403558
 30
0.0
 10
116.4725316686943
 20
422.6960184379179
 30
0.0
  0
SPLINE
  5
9D
330
1F
100
AcDbEntity
  8
0
  6
Continuous
 62
     8
370
    18
100
AcDbSpline
210
0.0
220
0.0
230
1.0
 70
     8
 71
     3
 72
     8
 73
     4
 74
     0
 42
0.00000001
 43
0.00000001
 40
0.0
 40
0.0
 40
0.0
 40
0.0
 40
1.0
 40
1.0
 40
1.0
 40
1.0
 10
263.1836229738553
 20
422.8272801897401
 30
0.0
 10
263.5233237037023
 20
374.3303869289191
 30
0.0
 10
263.5233237037014
 20
325.8334936680981
 30
0.0
 10
263.1836229738545
 20
277.3366004072772
 30
0.0
  0
SPLINE
  5
9E
330
1F
100
AcDbEntity
  8
0
  6
Continuous
 62
     8
370
    18
100
AcDbSpline
210
0.0
220
0.0
230
1.0
 70
     8
 71
     3
 72
    21
 73
    17
 74
     0
 42
0.00000001
 43
0.00000001
 40
0.0
 40
0.0
 40
0.0
 40
0.0
 40
0.0527050579362252
 40
0.106127905876426
 40
0.1602714789034073
 40
0.2151385958223861
 40
0.2707319647141264
 40
0.3270541881748865
 40
0.384107768262599
 40
0.4418951111701421
 40
0.5004185316408145
 40
0.6190410088383865
 40
0.7500271579311261
 40
0.8150588915858371
 40
0.8983884735131851
 40
1.0
 40
1.0
 40
1.0
 40
1.0
 10
263.1836229738563
 20
277.3366004072772
 30
0.0
 10
263.1816135839969
 20
277.3364235777232
 30
0.0
 10
263.1775674384045
 20
277.3360675103742
 30
0.0
 10
263.1588050903886
 20
277.3368143888295
 30
0.0
 10
263.130396098353
 20
277.3385014272178
 30
0.0
 10
263.0912182586225
 20
277.3412349464704
 30
0.0
 10
263.041405764642
 20
277.3449999192283
 30
0.0
 10
262.9808642230927
 20
277.3498141710164
 30
0.0
 10
262.9096901661471
 20
277.3556863351877
 30
0.0
 10
262.8280514659818
 20
277.3626260962298
 30
0.0
 10
262.7052550628374
 20
277.3733564956653
 30
0.0
 10
262.5215311624076
 20
277.3899748895386
 30
0.0
 10
262.3079360114247
 20
277.4096814780708
 30
0.0
 10
262.1064951324656
 20
277.4288028875638
 30
0.0
 10
261.9198810645827
 20
277.4466140822495
 30
0.0
 10
261.7784137978721
 20
277.4603275938553
 30
0.0
 10
261.7006879475102
 20
277.4678621591
 30
0.0
  0
SPLINE
  5
9F
330
1F
100
AcDbEntity
  8
0
  6
Continuous
 62
     8
370
    18
100
AcDbSpline
210
0.0
220
0.0
230
1.0
 70
     8
 71
     3
 72
    21
 73
    17
 74
     0
 42
0.00000001
 43
0.00000001
 40
0.0
 40
0.0
 40
0.0
 40
0.0
 40
0.0527015852617351
 40
0.1061218296409478
 40
0.1602636681735266
 40
0.2151299194776346
 40
0.2707232913175963
 40
0.3270463858585141
 40
0.3841017046253484
 40
0.441891653188704
 40
0.500418545584547
 40
0.6190205634988493
 40
0.7500271669104711
 40
0.8150462982100352
 40
0.8983758845572353
 40
1.0
 40
1.0
 40
1.0
 40
1.0
 10
263.1836229738566
 20
422.8272801897401
 30
0.0
 10
263.1816137779927
 20
422.8274570003982
 30
0.0
 10
263.1775679880959
 20
422.8278130327728
 30
0.0
 10
263.1588074874117
 20
422.8270661174315
 30
0.0
 10
263.1304007014638
 20
422.8253790645498
 30
0.0
 10
263.0912250133782
 20
422.8226455451443
 30
0.0
 10
263.0414140969237
 20
422.8188805847578
 30
0.0
 10
262.9808730765223
 20
422.8140663473132
 30
0.0
 10
262.9096980225164
 20
422.8081942103339
 30
0.0
 10
262.8280564045003
 20
422.8012544184468
 30
0.0
 10
262.705267786982
 20
422.7905255097261
 30
0.0
 10
262.5215446926381
 20
422.7739069416838
 30
0.0
 10
262.3079592761013
 20
422.754201227805
 30
0.0
 10
262.1065135731033
 20
422.7350796188662
 30
0.0
 10
261.9199003685463
 20
422.7172683762872
 30
0.0
 10
261.7784234421717
 20
422.7035539345969
 30
0.0
 10
261.7006879475088
 20
422.6960184379182
 30
0.0
  0
SPLINE
  5
A0
330
1F
100
AcDbEntity
  8
0
  6
Continuous
 62
     8
370
    18
100
AcDbSpline
210
0.0
220
0.0
230
1.0
 70
     8
 71
     3
 72
    26
 73
    22
 74
     0
 42
0.00000001
 43
0.00000001
 40
0.0
 40
0.0
 40
0.0
 40
0.0
 40
0.03125
 40
0.03125
 40
0.0625
 40
0.0625
 40
0.125
 40
0.125
 40
0.25
 40
0.25
 40
0.375
 40
0.375
 40
0.5
 40
0.5
 40
0.625
 40
0.625
 40
0.75
 40
0.75
 40
0.875
 40
0.875
 40
1.0
 40
1.0
 40
1.0
 40
1.0
 10
114.9895966423487
 20
277.3366004072766
 30
0.0
 10
114.9902328502899
 20
277.3364356055292
 30
0.0
 10
114.9914621364902
 20
277.33632918587
 30
0.0
 10
114.9950886679055
 20
277.3362318117724
 30
0.0
 10
114.9974859131205
 20
277.3362408573341
 30
0.0
 10
115.0064022910321
 20
277.336439243417
 30
0.0
 10
115.0146460659953
 20
277.3367998333364
 30
0.0
 10
115.0460575899061
 20
277.3385510132204
 30
0.0
 10
115.0759055378753
 20
277.3406110133112
 30
0.0
 10
115.1522506576341
 20
277.34643297401
 30
0.0
 10
115.1994751533812
 20
277.3502519807627
 30
0.0
 10
115.3083834715259
 20
277.3594163102415
 30
0.0
 10
115.3697565637495
 20
277.3647312943047
 30
0.0
 10
115.506191249713
 20
277.3768110810965
 30
0.0
 10
115.5819176305087
 20
277.3836386153789
 30
0.0
 10
115.7411203549235
 20
277.398212469954
 30
0.0
 10
115.8251768597908
 20
277.4060085912595
 30
0.0
 10
116.0023348457214
 20
277.4226346162032
 30
0.0
 10
116.0948320305766
 20
277.4314099254218
 30
0.0
 10
116.2812608792359
 20
277.449273571917
 30
0.0
 10
116.376072129706
 20
277.4584441917263
 30
0.0
 10
116.4725316686945
 20
277.4678621590995
 30
0.0
  0
SPLINE
  5
A1
330
1F
100
AcDbEntity
  8
0
  6
Continuous
 62
     8
370
    18
100
AcDbSpline
210
0.0
220
0.0
230
1.0
 70
     8
 71
     3
 72
     8
 73
     4
 74
     0
 42
0.00000001
 43
0.00000001
 40
0.0
 40
0.0
 40
0.0
 40
0.0
 40
1.0
 40
1.0
 40
1.0
 40
1.0
 10
114.989596642349
 20
277.3366004072767
 30
0.0
 10
114.6498959125021
 20
325.8334936680978
 30
0.0
 10
114.6498959125031
 20
374.330386928919
 30
0.0
 10
114.9895966423498
 20
422.8272801897401
 30
0.0
  0
SPLINE
  5
A2
330
1F
100
AcDbEntity
  8
0
  6
Continuous
 62
     8
370
    18
100
AcDbSpline
210
0.0
220
0.0
230
1.0
 70
     8
 71
     3
 72
    26
 73
    22
 74
     0
 42
0.00000001
 43
0.00000001
 40
0.0
 40
0.0
 40
0.0
 40
0.0
 40
0.03125
 40
0.03125
 40
0.0625
 40
0.0625
 40
0.125
 40
0.125
 40
0.25
 40
0.25
 40
0.375
 40
0.375
 40
0.5
 40
0.5
 40
0.625
 40
0.625
 40
0.75
 40
0.75
 40
0.875
 40
0.875
 40
1.0
 40
1.0
 40
1.0
 40
1.0
 10
114.9895966423483
 20
422.8272801897402
 30
0.0
 10
114.9902328502895
 20
422.8274449914875
 30
0.0
 10
114.9914621364898
 20
422.8275514111468
 30
0.0
 10
114.9950886679051
 20
422.8276487852443
 30
0.0
 10
114.9974859131202
 20
422.8276397396827
 30
0.0
 10
115.0064022910317
 20
422.8274413535997
 30
0.0
 10
115.0146460659948
 20
422.8270807636804
 30
0.0
 10
115.0460575899056
 20
422.8253295837964
 30
0.0
 10
115.0759055378748
 20
422.8232695837057
 30
0.0
 10
115.1522506576334
 20
422.8174476230068
 30
0.0
 10
115.1994751533806
 20
422.8136286162541
 30
0.0
 10
115.3083834715253
 20
422.8044642867754
 30
0.0
 10
115.3697565637492
 20
422.7991493027122
 30
0.0
 10
115.5061912497126
 20
422.7870695159206
 30
0.0
 10
115.5819176305087
 20
422.7802419816381
 30
0.0
 10
115.7411203549235
 20
422.7656681270631
 30
0.0
 10
115.8251768597909
 20
422.7578720057576
 30
0.0
 10
116.0023348457212
 20
422.741245980814
 30
0.0
 10
116.0948320305766
 20
422.7324706715955
 30
0.0
 10
116.2812608792359
 20
422.7146070251005
 30
0.0
 10
116.3760721297059
 20
422.7054364052912
 30
0.0
 10
116.4725316686944
 20
422.696018437918
 30
0.0
  0
SPLINE
  5
A3
330
1F
100
AcDbEntity
  8
0
  6
Continuous
 62
     8
370
    18
100
AcDbSpline
210
0.0
220
0.0
230
1.0
 70
     8
 71
     3
 72
    26
 73
    22
 74
     0
 42
0.00000001
 43
0.00000001
 40
0.0
 40
0.0
 40
0.0
 40
0.0
 40
0.03125
 40
0.03125
 40
0.0625
 40
0.0625
 40
0.125
 40
0.125
 40
0.25
 40
0.25
 40
0.375
 40
0.375
 40
0.5
 40
0.5
 40
0.625
 40
0.625
 40
0.75
 40
0.75
 40
0.875
 40
0.875
 40
1.0
 40
1.0
 40
1.0
 40
1.0
 10
261.8319496993369
 20
275.9849271327527
 30
0.0
 10
261.8321145010842
 20
275.9855633406937
 30
0.0
 10
261.8322209207435
 20
275.9867926268941
 30
0.0
 10
261.832318294841
 20
275.9904191583094
 30
0.0
 10
261.8323092492794
 20
275.9928164035244
 30
0.0
 10
261.8321108631964
 20
276.001732781436
 30
0.0
 10
261.8317502732771
 20
276.0099765563991
 30
0.0
 10
261.8299990933929
 20
276.0413880803098
 30
0.0
 10
261.8279390933021
 20
276.0712360282792
 30
0.0
 10
261.822117132603
 20
276.1475811480379
 30
0.0
 10
261.8182981258501
 20
276.1948056437855
 30
0.0
 10
261.809133796371
 20
276.3037139619303
 30
0.0
 10
261.8038188123076
 20
276.3650870541541
 30
0.0
 10
261.7917390255154
 20
276.5015217401177
 30
0.0
 10
261.7849114912328
 20
276.5772481209148
 30
0.0
 10
261.7703376366572
 20
276.7364508453298
 30
0.0
 10
261.7625415153516
 20
276.8205073501957
 30
0.0
 10
261.7459154904074
 20
276.9976653361263
 30
0.0
 10
261.7371401811885
 20
277.0901625209819
 30
0.0
 10
261.7192765346928
 20
277.2765913696414
 30
0.0
 10
261.7101059148832
 20
277.3714026201116
 30
0.0
 10
261.7006879475097
 20
277.4678621591
 30
0.0
  0
SPLINE
  5
A4
330
1F
100
AcDbEntity
  8
0
  6
Continuous
 62
     8
370
    18
100
AcDbSpline
210
0.0
220
0.0
230
1.0
 70
     8
 71
     3
 72
     8
 73
     4
 74
     0
 42
0.00000001
 43
0.00000001
 40
0.0
 40
0.0
 40
0.0
 40
0.0
 40
1.0
 40
1.0
 40
1.0
 40
1.0
 10
261.8319496993367
 20
275.9849271327537
 30
0.0
 10
213.3350564385153
 20
275.6452264029068
 30
0.0
 10
164.8381631776939
 20
275.6452264029056
 30
0.0
 10
116.3412699168724
 20
275.9849271327523
 30
0.0
  0
SPLINE
  5
A5
330
1F
100
AcDbEntity
  8
0
  6
Continuous
 62
     8
370
    18
100
AcDbSpline
210
0.0
220
0.0
230
1.0
 70
     8
 71
     3
 72
    21
 73
    17
 74
     0
 42
0.00000001
 43
0.00000001
 40
0.0
 40
0.0
 40
0.0
 40
0.0
 40
0.0527050586774202
 40
0.1061279071737282
 40
0.1602714805703938
 40
0.2151385976740251
 40
0.2707319665647616
 40
0.327054189838795
 40
0.3841077695544889
 40
0.4418951119053233
 40
0.5004185316340659
 40
0.61904101662565
 40
0.7500271579267901
 40
0.8150588969041536
 40
0.8983884788298293
 40
1.0
 40
1.0
 40
1.0
 40
1.0
 10
116.3412699168724
 20
275.9849271327515
 30
0.0
 10
116.3410930873145
 20
275.9869365226521
 30
0.0
 10
116.3407370199582
 20
275.99098266832
 30
0.0
 10
116.3414838984059
 20
276.0097450167347
 30
0.0
 10
116.3431709367912
 20
276.0381540092345
 30
0.0
 10
116.3459044560439
 20
276.0773318494293
 30
0.0
 10
116.3496694288042
 20
276.1271443437443
 30
0.0
 10
116.3544836805951
 20
276.1876858854105
 30
0.0
 10
116.360355844773
 20
276.2588599421371
 30
0.0
 10
116.3672956058047
 20
276.340498641684
 30
0.0
 10
116.3780260057327
 20
276.4632950482718
 30
0.0
 10
116.3946443994714
 20
276.6470189493652
 30
0.0
 10
116.4143509884867
 20
276.8606141044011
 30
0.0
 10
116.433472398017
 20
277.0620549819258
 30
0.0
 10
116.451283592675
 20
277.248669050174
 30
0.0
 10
116.4649971038592
 20
277.3901363128074
 30
0.0
 10
116.4725316686946
 20
277.4678621590976
 30
0.0
  0
LINE
  5
A6
330
1F
100
AcDbEntity
  8
0
  6
Continuous
 62
     8
370
    18
100
AcDbLine
 10
261.8329564029
 20
424.3173352506
 30
0.0
 11
261.8319496993
 21
424.1789534643
 31
0.0
  0
LINE
  5
A7
330
1F
100
AcDbEntity
  8
0
  6
Continuous
 62
     8
370
    18
100
AcDbLine
 10
116.3402632133
 20
424.3173352506
 30
0.0
 11
116.3412699169
 21
424.1789534643
 31
0.0
  0
LINE
  5
A8
330
1F
100
AcDbEntity
  8
0
  6
Continuous
 62
     8
370
    18
100
AcDbLine
 10
114.851214856
 20
422.8282868933
 30
0.0
 11
114.9895966424
 21
422.8272801897
 31
0.0
  0
LINE
  5
A9
330
1F
100
AcDbEntity
  8
0
  6
Continuous
 62
     8
370
    18
100
AcDbLine
 10
114.851214856
 20
277.3355937037
 30
0.0
 11
114.9895966423
 21
277.3366004073
 31
0.0
  0
LINE
  5
AA
330
1F
100
AcDbEntity
  8
0
  6
Continuous
 62
     8
370
    18
100
AcDbLine
 10
116.3402632133
 20
275.8465453464
 30
0.0
 11
116.3412699169
 21
275.9849271328
 31
0.0
  0
LINE
  5
AB
330
1F
100
AcDbEntity
  8
0
  6
Continuous
 62
     8
370
    18
100
AcDbLine
 10
261.8329564029
 20
275.8465453464
 30
0.0
 11
261.8319496993
 21
275.9849271328
 31
0.0
  0
LINE
  5
AC
330
1F
100
AcDbEntity
  8
0
  6
Continuous
 62
     8
370
    18
100
AcDbLine
 10
263.3220047602
 20
277.3355937037
 30
0.0
 11
263.1836229739
 21
277.3366004073
 31
0.0
  0
LINE
  5
AD
330
1F
100
AcDbEntity
  8
0
  6
Continuous
 62
     8
370
    18
100
AcDbLine
 10
263.3220047602
 20
422.8282868933
 30
0.0
 11
263.1836229739
 21
422.8272801897
 31
0.0
  0
SPLINE
  5
AE
330
1F
100
AcDbEntity
  8
0
  6
Continuous
 62
     8
370
    18
100
AcDbSpline
210
0.0
220
0.0
230
1.0
 70
     8
 71
     3
 72
    25
 73
    21
 74
     0
 42
0.00000001
 43
0.00000001
 40
0.0
 40
0.0
 40
0.0
 40
0.0
 40
0.0555740770039791
 40
0.1111416178391903
 40
0.1667034390187477
 40
0.2222603572587903
 40
0.2778131894496914
 40
0.3333627526269496
 40
0.3889098639422986
 40
0.4444553406345866
 40
0.500000000000803
 40
0.5555446593670152
 40
0.6110901360592375
 40
0.666637247374483
 40
0.7221868105516129
 40
0.7777396427423325
 40
0.8332965609821583
 40
0.8888583821614356
 40
0.9444259229963488
 40
1.0
 40
1.0
 40
1.0
 40
1.0
 10
114.9895966423502
 20
422.8272801897402
 30
0.0
 10
114.9908875764105
 20
422.8665104020574
 30
0.0
 10
114.9934692927019
 20
422.9449662127548
 30
0.0
 10
115.010197536907
 20
423.0616736155866
 30
0.0
 10
115.0362034697551
 20
423.1765522337896
 30
0.0
 10
115.0722173162393
 20
423.2887397365527
 30
0.0
 10
115.1177222722334
 20
423.3974021913988
 30
0.0
 10
115.1724451127384
 20
423.5017297107104
 30
0.0
 10
115.2359599019412
 20
423.6009452908511
 30
0.0
 10
115.3077978768396
 20
423.6943098124545
 30
0.0
 10
115.3874223373296
 20
423.7811277692863
 30
0.0
 10
115.4742402941615
 20
423.8607522297762
 30
0.0
 10
115.5676048157652
 20
423.9325902046741
 30
0.0
 10
115.6668203959056
 20
423.9961049938768
 30
0.0
 10
115.7711479152173
 20
424.0508278343812
 30
0.0
 10
115.8798103700629
 20
424.0963327903751
 30
0.0
 10
115.9919978728258
 20
424.1323466368589
 30
0.0
 10
116.1068764910281
 20
424.1583525697069
 30
0.0
 10
116.2235838938593
 20
424.1750808139116
 30
0.0
 10
116.3020397045563
 20
424.1776625302032
 30
0.0
 10
116.3412699168732
 20
424.1789534642635
 30
0.0
  0
SPLINE
  5
AF
330
1F
100
AcDbEntity
  8
0
  6
Continuous
 62
     8
370
    18
100
AcDbSpline
210
0.0
220
0.0
230
1.0
 70
     8
 71
     3
 72
    25
 73
    21
 74
     0
 42
0.00000001
 43
0.00000001
 40
0.0
 40
0.0
 40
0.0
 40
0.0
 40
0.0555740769933566
 40
0.1111416178191777
 40
0.1667034389905892
 40
0.222260357223755
 40
0.2778131894090272
 40
0.3333627525819133
 40
0.3889098638941363
 40
0.4444553405845488
 40
0.4999999999501583
 40
0.5555446593169766
 40
0.6110901360110975
 40
0.6666372473294606
 40
0.7221868105109709
 40
0.7777396427073291
 40
0.833296560954039
 40
0.8888583821414348
 40
0.9444259229857256
 40
1.0
 40
1.0
 40
1.0
 40
1.0
 10
261.8319496993321
 20
424.1789534642637
 30
0.0
 10
261.8711799116418
 20
424.1776625302037
 30
0.0
 10
261.949635722325
 20
424.1750808139131
 30
0.0
 10
262.0663431251374
 20
424.1583525697137
 30
0.0
 10
262.1812217433243
 20
424.1323466368735
 30
0.0
 10
262.2934092460754
 20
424.0963327903992
 30
0.0
 10
262.4020717009128
 20
424.050827834416
 30
0.0
 10
262.50639922022
 20
423.9961049939225
 30
0.0
 10
262.6056148003593
 20
423.9325902047303
 30
0.0
 10
262.6989793219651
 20
423.8607522298414
 30
0.0
 10
262.7857972788021
 20
423.7811277693591
 30
0.0
 10
262.8654217392996
 20
423.6943098125323
 30
0.0
 10
262.9372597142071
 20
423.600945290931
 30
0.0
 10
263.0007745034204
 20
423.5017297107896
 30
0.0
 10
263.0554973439361
 20
423.3974021914734
 30
0.0
 10
263.1010022999409
 20
423.2887397366194
 30
0.0
 10
263.1370161464347
 20
423.1765522338443
 30
0.0
 10
263.1630220792906
 20
423.0616736156263
 30
0.0
 10
263.1797503235011
 20
422.9449662127757
 30
0.0
 10
263.1823320397934
 20
422.8665104020646
 30
0.0
 10
263.183622973854
 20
422.8272801897402
 30
0.0
  0
SPLINE
  5
B0
330
1F
100
AcDbEntity
  8
0
  6
Continuous
 62
     8
370
    18
100
AcDbSpline
210
0.0
220
0.0
230
1.0
 70
     8
 71
     3
 72
    25
 73
    21
 74
     0
 42
0.00000001
 43
0.00000001
 40
0.0
 40
0.0
 40
0.0
 40
0.0
 40
0.0555740769952332
 40
0.11114161782272
 40
0.1667034389955621
 40
0.2222603572299378
 40
0.2778131894162011
 40
0.3333627525898634
 40
0.3889098639026274
 40
0.4444553405933753
 40
0.4999999999590706
 40
0.5555446593257851
 40
0.611090136019559
 40
0.6666372473373768
 40
0.7221868105181084
 40
0.7777396427134695
 40
0.8332965609589617
 40
0.8888583821449408
 40
0.9444259229875818
 40
1.0
 40
1.0
 40
1.0
 40
1.0
 10
116.3412699168723
 20
275.9849271327537
 30
0.0
 10
116.3020397045613
 20
275.9862180668136
 30
0.0
 10
116.2235838938756
 20
275.9887997831045
 30
0.0
 10
116.1068764910599
 20
276.0055280273049
 30
0.0
 10
115.9919978728702
 20
276.0315339601465
 30
0.0
 10
115.879810370117
 20
276.0675478066224
 30
0.0
 10
115.7711479152781
 20
276.1130527626075
 30
0.0
 10
115.6668203959702
 20
276.1677756031032
 30
0.0
 10
115.5676048158306
 20
276.2312903922973
 30
0.0
 10
115.4742402942253
 20
276.3031283671878
 30
0.0
 10
115.3874223373892
 20
276.3827528276713
 30
0.0
 10
115.3077978768932
 20
276.469570784499
 30
0.0
 10
115.2359599019873
 20
276.5629353061007
 30
0.0
 10
115.1724451127759
 20
276.6621508862419
 30
0.0
 10
115.1177222722621
 20
276.7664784055572
 30
0.0
 10
115.0722173162593
 20
276.8751408604097
 30
0.0
 10
115.0362034697672
 20
276.9873283631825
 30
0.0
 10
115.0101975369127
 20
277.1022069813979
 30
0.0
 10
114.9934692927031
 20
277.2189143842449
 30
0.0
 10
114.990887576411
 20
277.2973701949535
 30
0.0
 10
114.9895966423504
 20
277.3366004072766
 30
0.0
  0
SPLINE
  5
B1
330
1F
100
AcDbEntity
  8
0
  6
Continuous
 62
     8
370
    18
100
AcDbSpline
210
0.0
220
0.0
230
1.0
 70
     8
 71
     3
 72
    25
 73
    21
 74
     0
 42
0.00000001
 43
0.00000001
 40
0.0
 40
0.0
 40
0.0
 40
0.0
 40
0.0555740770111253
 40
0.1111416178526275
 40
0.1667034390376235
 40
0.2222603572822904
 40
0.2778131894769738
 40
0.3333627526571776
 40
0.3889098639746358
 40
0.4444553406681808
 40
0.5000000000348279
 40
0.5555446594006102
 40
0.6110901360915871
 40
0.6666372474047347
 40
0.7221868105789249
 40
0.7777396427658633
 40
0.8332965610010739
 40
0.8888583821748853
 40
0.9444259230034933
 40
1.0
 40
1.0
 40
1.0
 40
1.0
 10
263.1836229738541
 20
277.336600407277
 30
0.0
 10
263.1823320397936
 20
277.2973701949549
 30
0.0
 10
263.1797503235017
 20
277.2189143842482
 30
0.0
 10
263.1630220792929
 20
277.1022069814037
 30
0.0
 10
263.1370161464395
 20
276.9873283631905
 30
0.0
 10
263.1010022999488
 20
276.8751408604193
 30
0.0
 10
263.0554973439475
 20
276.766478405568
 30
0.0
 10
263.0007745034353
 20
276.6621508862534
 30
0.0
 10
262.9372597142254
 20
276.5629353061123
 30
0.0
 10
262.865421739321
 20
276.4695707845105
 30
0.0
 10
262.7857972788262
 20
276.3827528276822
 30
0.0
 10
262.6989793219911
 20
276.3031283671976
 30
0.0
 10
262.6056148003864
 20
276.2312903923061
 30
0.0
 10
262.506399220247
 20
276.1677756031104
 30
0.0
 10
262.4020717009389
 20
276.1130527626134
 30
0.0
 10
262.2934092460993
 20
276.0675478066269
 30
0.0
 10
262.181221743345
 20
276.0315339601493
 30
0.0
 10
262.0663431251537
 20
276.0055280273066
 30
0.0
 10
261.9496357223359
 20
275.9887997831051
 30
0.0
 10
261.8711799116487
 20
275.986218066814
 30
0.0
 10
261.8319496993368
 20
275.9849271327539
 30
0.0
  0
ARC
  5
B2
330
1F
100
AcDbEntity
  8
0
  6
Continuous
 62
     7
370
    25
100
AcDbCircle
 10
189.0866098081
 20
7175.6965361093
 30
0.0
 40
7000.000000000001
100
AcDbArc
 50
269.4035572078
 51
269.8472420038
  0
ARC
  5
B3
330
1F
100
AcDbEntity
  8
0
  6
Continuous
 62
     7
370
    25
100
AcDbCircle
 10
189.0866098081
 20
7175.6965361093
 30
0.0
 40
7000.000000000001
100
AcDbArc
 50
270.1528270094
 51
270.5964432415
  0
ARC
  5
B4
330
1F
100
AcDbEntity
  8
0
  6
Continuous
 62
     7
370
    25
100
AcDbCircle
 10
261.9389096773
 20
177.5757317502
 30
0.0
 40
1.500000000000031
100
AcDbArc
 50
270.6103433352
 51
358.4893102131
  0
ARC
  5
B5
330
1F
100
AcDbEntity
  8
0
  6
Continuous
 62
     7
370
    25
100
AcDbCircle
 10
116.2343099389
 20
177.5757317502
 30
0.0
 40
1.500000000000014
100
AcDbArc
 50
181.5241076745
 51
269.4065979697
  0
LINE
  5
B6
330
1F
100
AcDbEntity
  8
0
  6
Continuous
 62
     7
370
    25
100
AcDbLine
 10
263.4383960399
 20
177.5364806537
 30
0.0
 11
263.5866098081
 21
183.1965361093
 31
0.0
  0
LINE
  5
B7
330
1F
100
AcDbEntity
  8
0
  6
Continuous
 62
     7
370
    25
100
AcDbLine
 10
114.5866098081
 20
183.1965361093
 30
0.0
 11
114.7348235763
 21
177.5364806537
 31
0.0
  0
SPLINE
  5
B8
330
1F
100
AcDbEntity
  8
0
  6
Continuous
 62
     7
370
    25
100
AcDbSpline
210
0.0
220
0.0
230
1.0
 70
     8
 71
     3
 72
    17
 73
    13
 74
     0
 42
0.00000001
 43
0.00000001
 40
0.0
 40
0.0
 40
0.0
 40
0.0
 40
0.0534640477902371
 40
0.2239163315003868
 40
0.3689401068031513
 40
0.4895280256838008
 40
0.5580417432388082
 40
0.6327274367382119
 40
0.7223768797149354
 40
0.8294480527606117
 40
0.955194392645828
 40
1.0
 40
1.0
 40
1.0
 40
1.0
 10
215.6463349377373
 20
113.2067564452747
 30
0.0
 10
215.5458357610555
 20
113.6258068992687
 30
0.0
 10
215.1249284805277
 20
115.3808599536137
 30
0.0
 10
214.4677105667861
 20
118.2177833823701
 30
0.0
 10
213.9893658473517
 20
121.5921640695539
 30
0.0
 10
213.8513471228955
 20
124.1763096286371
 30
0.0
 10
213.8983291529116
 20
125.9786746747447
 30
0.0
 10
213.9108587570922
 20
127.7783686185378
 30
0.0
 10
213.9063903149907
 20
129.9924781224175
 30
0.0
 10
213.8919146860851
 20
132.6516114937647
 30
0.0
 10
213.8644107598826
 20
134.9439138952746
 30
0.0
 10
213.8452682867321
 20
136.3403181004802
 30
0.0
 10
213.8402393782402
 20
136.7071666738262
 30
0.0
  0
SPLINE
  5
B9
330
1F
100
AcDbEntity
  8
0
  6
Continuous
 62
     7
370
    25
100
AcDbSpline
210
0.0
220
0.0
230
1.0
 70
     8
 71
     3
 72
    17
 73
    13
 74
     0
 42
0.00000001
 43
0.00000001
 40
0.0
 40
0.0
 40
0.0
 40
0.0
 40
0.0448056073541655
 40
0.1705519472393802
 40
0.2776231202850548
 40
0.3672725632617756
 40
0.4419582567611774
 40
0.5104719743161785
 40
0.6310598931968308
 40
0.7760836684995965
 40
0.9465359522097534
 40
1.0
 40
1.0
 40
1.0
 40
1.0
 10
164.332980237965
 20
136.7071666738262
 30
0.0
 10
164.3279513294732
 20
136.3403181004802
 30
0.0
 10
164.3088088563227
 20
134.9439138952747
 30
0.0
 10
164.2813049301202
 20
132.6516114937648
 30
0.0
 10
164.2668293012146
 20
129.9924781224177
 30
0.0
 10
164.2623608591131
 20
127.7783686185379
 30
0.0
 10
164.2748904632936
 20
125.978674674745
 30
0.0
 10
164.3218724933098
 20
124.1763096286372
 30
0.0
 10
164.1838537688535
 20
121.5921640695542
 30
0.0
 10
163.705509049419
 20
118.2177833823703
 30
0.0
 10
163.0482911356775
 20
115.380859953614
 30
0.0
 10
162.6273838551496
 20
113.6258068992689
 30
0.0
 10
162.5268846784678
 20
113.2067564452748
 30
0.0
  0
SPLINE
  5
BA
330
1F
100
AcDbEntity
  8
0
  6
Continuous
 62
     7
370
    25
100
AcDbSpline
210
0.0
220
0.0
230
1.0
 70
     8
 71
     3
 72
    26
 73
    22
 74
     0
 42
0.00000001
 43
0.00000001
 40
0.0
 40
0.0
 40
0.0
 40
0.0
 40
0.0961303613997923
 40
0.195991962005446
 40
0.266842721744189
 40
0.3214902813316068
 40
0.3700789763744731
 40
0.4165880409159826
 40
0.4604948005072307
 40
0.5022365420700209
 40
0.5466255184603623
 40
0.5901486994365807
 40
0.62400211328546
 40
0.6577931499158046
 40
0.7064285400064604
 40
0.7576515463020373
 40
0.8117020615946904
 40
0.8566589312233663
 40
0.9043376993815068
 40
0.9670704252295627
 40
1.0
 40
1.0
 40
1.0
 40
1.0
 10
189.086789578232
 20
106.2338996201921
 30
0.0
 10
190.3242566441623
 20
106.2336289855298
 30
0.0
 10
192.8472222778829
 20
106.233077211692
 30
0.0
 10
196.2830628654739
 20
106.2685805127978
 30
0.0
 10
199.1745797652213
 20
106.3730098228042
 30
0.0
 10
201.3938278562765
 20
106.5030347120204
 30
0.0
 10
203.2733120981366
 20
106.6879410554144
 30
0.0
 10
204.9668458004728
 20
106.9267500515893
 30
0.0
 10
206.5088407078211
 20
107.2096862938237
 30
0.0
 10
207.9370600022786
 20
107.5403234627491
 30
0.0
 10
209.2357206179545
 20
107.917958375946
 30
0.0
 10
210.3274224218797
 20
108.3303363041652
 30
0.0
 10
211.1431112274567
 20
108.7249971287502
 30
0.0
 10
211.8876309392308
 20
109.1248100353867
 30
0.0
 10
212.6116840524487
 20
109.580546349655
 30
0.0
 10
213.2732143896835
 20
110.0768603205194
 30
0.0
 10
213.7613179275503
 20
110.5077495969062
 30
0.0
 10
214.0886575340894
 20
110.8205003359443
 30
0.0
 10
214.293118127406
 20
111.004982588572
 30
0.0
 10
214.4682087868448
 20
111.147945993015
 30
0.0
 10
214.4710472570858
 20
111.1494677152195
 30
0.0
 10
214.4720243360128
 20
111.1499915335344
 30
0.0
  0
SPLINE
  5
BB
330
1F
100
AcDbEntity
  8
0
  6
Continuous
 62
     7
370
    25
100
AcDbSpline
210
0.0
220
0.0
230
1.0
 70
     8
 71
     3
 72
    13
 73
     9
 74
     0
 42
0.00000001
 43
0.00000001
 40
0.0
 40
0.0
 40
0.0
 40
0.0
 40
0.1148013235507298
 40
0.3441052522364905
 40
0.5612212621080942
 40
0.7730727839913182
 40
0.9671048084958097
 40
1.0
 40
1.0
 40
1.0
 40
1.0
 10
215.6792684359851
 20
110.6246562708467
 30
0.0
 10
215.706563563986
 20
110.7678970138185
 30
0.0
 10
215.7883779247884
 20
111.1972465236181
 30
0.0
 10
215.7857450998928
 20
111.750673698566
 30
0.0
 10
215.7904357076863
 20
112.1206263213173
 30
0.0
 10
215.7799074308635
 20
112.5038084022515
 30
0.0
 10
215.7842790027323
 20
112.7865221804527
 30
0.0
 10
215.7237463345212
 20
113.0406613800796
 30
0.0
 10
215.7149715663462
 20
113.0775011994168
 30
0.0
  0
SPLINE
  5
BC
330
1F
100
AcDbEntity
  8
0
  6
Continuous
 62
     7
370
    25
100
AcDbSpline
210
0.0
220
0.0
230
1.0
 70
     8
 71
     3
 72
    13
 73
     9
 74
     0
 42
0.00000001
 43
0.00000001
 40
0.0
 40
0.0
 40
0.0
 40
0.0
 40
0.0562123757729773
 40
0.1900530186968753
 40
0.382024585971145
 40
0.59506364227735
 40
0.7958681851999213
 40
0.9999999999999999
 40
0.9999999999999999
 40
0.9999999999999999
 40
0.9999999999999999
 10
162.457259099537
 20
113.072936649717
 30
0.0
 10
162.4446792795424
 20
113.0134135363648
 30
0.0
 10
162.402147137256
 20
112.812166974211
 30
0.0
 10
162.3916695456449
 20
112.5459006843661
 30
0.0
 10
162.3831285512135
 20
112.2024974765598
 30
0.0
 10
162.3866954720372
 20
111.8975544036743
 30
0.0
 10
162.382530561906
 20
111.3554876513342
 30
0.0
 10
162.4457882227442
 20
110.8798496459831
 30
0.0
 10
162.4776769402195
 20
110.6400765375217
 30
0.0
  0
SPLINE
  5
BD
330
1F
100
AcDbEntity
  8
0
  6
Continuous
 62
     7
370
    25
100
AcDbSpline
210
0.0
220
0.0
230
1.0
 70
     8
 71
     3
 72
    27
 73
    23
 74
     0
 42
0.00000001
 43
0.00000001
 40
0.0
 40
0.0
 40
0.0
 40
0.0
 40
0.0408944312433205
 40
0.096128601239376
 40
0.1471231082848168
 40
0.1939682882611729
 40
0.2435470081652677
 40
0.2983123271129067
 40
0.3464440809548607
 40
0.3918806716281555
 40
0.4257787080031593
 40
0.4592940626771991
 40
0.5011626389533373
 40
0.5438117473935614
 40
0.5883101283275688
 40
0.6352453798244792
 40
0.6847195220058269
 40
0.7356762551285095
 40
0.8064189718757127
 40
0.8845386420651123
 40
0.9804060986821338
 40
1.0
 40
1.0
 40
1.0
 40
1.0
 10
163.6919212004384
 20
111.1564692309757
 30
0.0
 10
163.699702571917
 20
111.1511361006214
 30
0.0
 10
163.7179938730359
 20
111.1385997638733
 30
0.0
 10
163.8949992508692
 20
110.9916846448128
 30
0.0
 10
164.0985471625261
 20
110.8073685988929
 30
0.0
 10
164.4436731393896
 20
110.4780247000412
 30
0.0
 10
164.9447565903013
 20
110.0411726192828
 30
0.0
 10
165.6083241391216
 20
109.5467494374093
 30
0.0
 10
166.4321396063632
 20
109.0388398859068
 30
0.0
 10
167.2653981000636
 20
108.6021411056507
 30
0.0
 10
168.1814869856118
 20
108.1956727314462
 30
0.0
 10
169.1836648337592
 20
107.8442058848572
 30
0.0
 10
170.3818942887603
 20
107.5031100066497
 30
0.0
 10
171.8075044956726
 20
107.1802203823396
 30
0.0
 10
173.3806018305039
 20
106.898834758568
 30
0.0
 10
175.1037789575608
 20
106.6634220626292
 30
0.0
 10
176.9588468285978
 20
106.4914059992498
 30
0.0
 10
179.1414847688956
 20
106.3667628639304
 30
0.0
 10
181.7060145561994
 20
106.2765817684898
 30
0.0
 10
184.8559603062195
 20
106.2353956293844
 30
0.0
 10
187.3481211125929
 20
106.2337942045286
 30
0.0
 10
188.8345186608903
 20
106.2343755281995
 30
0.0
 10
189.0867617264611
 20
106.2344741793747
 30
0.0
  0
LINE
  5
BE
330
1F
100
AcDbEntity
  8
0
  6
Continuous
 62
     7
370
    25
100
AcDbLine
 10
213.5866098081
 20
146.1965361093
 30
0.0
 11
213.5866098081
 21
175.7572368307
 31
0.0
  0
LINE
  5
BF
330
1F
100
AcDbEntity
  8
0
  6
Continuous
 62
     7
370
    25
100
AcDbLine
 10
164.5866098081
 20
175.7572381128
 30
0.0
 11
164.5866098081
 21
146.1965361093
 31
0.0
  0
ARC
  5
C0
330
1F
100
AcDbEntity
  8
0
  6
Continuous
 62
     7
370
    25
100
AcDbCircle
 10
189.0866098081
 20
146.1965361093
 30
0.0
 40
24.5
100
AcDbArc
 50
180.0
 51
199.500983321
  0
ARC
  5
C1
330
1F
100
AcDbEntity
  8
0
  6
Continuous
 62
     7
370
    25
100
AcDbCircle
 10
189.0866098081
 20
146.1965361093
 30
0.0
 40
24.50000000000004
100
AcDbArc
 50
340.4877708304
 51
0.0
  0
LINE
  5
C2
330
1F
100
AcDbEntity
  8
0
  6
Continuous
 62
     7
370
    25
100
AcDbLine
 10
164.0866097961
 20
138.0252549901
 30
0.0
 11
164.0866097961
 21
137.026140179
 31
0.0
  0
LINE
  5
C3
330
1F
100
AcDbEntity
  8
0
  6
Continuous
 62
     7
370
    25
100
AcDbLine
 10
214.0866098201
 20
137.026140179
 30
0.0
 11
214.0866098201
 21
138.0252549901
 31
0.0
  0
SPLINE
  5
C4
330
1F
100
AcDbEntity
  8
0
  6
Continuous
 62
     7
370
    25
100
AcDbSpline
210
0.0
220
0.0
230
1.0
 70
     8
 71
     3
 72
    13
 73
     9
 74
     0
 42
0.00000001
 43
0.00000001
 40
0.0
 40
0.0
 40
0.0
 40
0.0
 40
0.1395669863333548
 40
0.2832438723864061
 40
0.4404654871094661
 40
0.6128748903445146
 40
0.7982631452325429
 40
1.0
 40
1.0
 40
1.0
 40
1.0
 10
214.8488619644461
 20
117.4696691507295
 30
0.0
 10
214.763806837779
 20
118.083640156972
 30
0.0
 10
214.5911919230601
 20
119.3296620845771
 30
0.0
 10
214.3911183271682
 20
121.4192560343392
 30
0.0
 10
214.2417638723052
 20
123.7381309258778
 30
0.0
 10
214.1515624153949
 20
126.2657044664776
 30
0.0
 10
214.1045281536667
 20
129.0140452815264
 30
0.0
 10
214.095575683213
 20
130.9156076389712
 30
0.0
 10
214.0909104130285
 20
131.9065410596333
 30
0.0
  0
SPLINE
  5
C5
330
1F
100
AcDbEntity
  8
0
  6
Continuous
 62
     7
370
    25
100
AcDbSpline
210
0.0
220
0.0
230
1.0
 70
     8
 71
     3
 72
    12
 73
     8
 74
     0
 42
0.00000001
 43
0.00000001
 40
0.0
 40
0.0
 40
0.0
 40
0.0
 40
0.2958924501990178
 40
0.5595287090738376
 40
0.7167523954357291
 40
0.8604311746548258
 40
1.0
 40
1.0
 40
1.0
 40
1.0
 10
164.0823092031768
 20
131.9065410596219
 30
0.0
 10
164.0747293154523
 20
130.4531438488392
 30
0.0
 10
164.0603958480368
 20
127.7047889497067
 30
0.0
 10
163.9598864796913
 20
124.1849926241767
 30
0.0
 10
163.782167843741
 20
121.4192688744597
 30
0.0
 10
163.5820122182167
 20
119.3296590990728
 30
0.0
 10
163.4094076702589
 20
118.0836391714849
 30
0.0
 10
163.3243576517609
 20
117.4696691507405
 30
0.0
  0
SPLINE
  5
C6
330
1F
100
AcDbEntity
  8
0
  6
Continuous
 62
     7
370
    25
100
AcDbSpline
210
0.0
220
0.0
230
1.0
 70
     8
 71
     3
 72
    10
 73
     6
 74
     0
 42
0.00000001
 43
0.00000001
 40
0.0
 40
0.0
 40
0.0
 40
0.0
 40
0.35542800237212
 40
0.9310995763098555
 40
1.0
 40
1.0
 40
1.0
 40
1.0
 10
215.3875540875289
 20
108.2449306645151
 30
0.0
 10
215.4371335791717
 20
108.5705225937604
 30
0.0
 10
215.5670148585144
 20
109.4234618820183
 30
0.0
 10
215.6833879661949
 20
110.2607079134954
 30
0.0
 10
215.7066046895222
 20
110.7433015561771
 30
0.0
 10
215.7090864015417
 20
110.7948875800399
 30
0.0
  0
SPLINE
  5
C7
330
1F
100
AcDbEntity
  8
0
  6
Continuous
 62
     7
370
    25
100
AcDbSpline
210
0.0
220
0.0
230
1.0
 70
     8
 71
     3
 72
     9
 73
     5
 74
     0
 42
0.00000001
 43
0.00000001
 40
0.0
 40
0.0
 40
0.0
 40
0.0
 40
0.4535209971464431
 40
1.0
 40
1.0
 40
1.0
 40
1.0
 10
162.4698406455821
 20
110.78518181331
 30
0.0
 10
162.499941072461
 20
110.4325955649377
 30
0.0
 10
162.5663115979013
 20
109.6551536149711
 30
0.0
 10
162.704324287867
 20
108.753254079642
 30
0.0
 10
162.7797453250606
 20
108.2603849209012
 30
0.0
  0
SPLINE
  5
C8
330
1F
100
AcDbEntity
  8
0
  6
Continuous
 62
     7
370
    25
100
AcDbSpline
210
0.0
220
0.0
230
1.0
 70
     8
 71
     3
 72
    21
 73
    17
 74
     0
 42
0.00000001
 43
0.00000001
 40
0.0
 40
0.0
 40
0.0
 40
0.0
 40
0.0452668425378785
 40
0.2080369279945677
 40
0.3670970264700752
 40
0.504465424047674
 40
0.5926887606321902
 40
0.6601780178542722
 40
0.7132299173181452
 40
0.7634682850104091
 40
0.811302595631369
 40
0.8620440789707199
 40
0.9111397733888127
 40
0.9433031193622776
 40
0.9752078774968199
 40
1.0
 40
1.0
 40
1.0
 40
1.0
 10
162.7959141687732
 20
108.2697900975934
 30
0.0
 10
162.8189446060037
 20
108.0862176907607
 30
0.0
 10
162.9247876722125
 20
107.2425573548295
 30
0.0
 10
163.129902617493
 20
105.835964813234
 30
0.0
 10
163.4656674277584
 20
103.9358114647767
 30
0.0
 10
163.8733014031167
 20
102.3292615603742
 30
0.0
 10
164.3212687966179
 20
101.0404685304533
 30
0.0
 10
164.649835764738
 20
100.2175143579141
 30
0.0
 10
165.0351559134965
 20
99.37945125841563
 30
0.0
 10
165.5412847228628
 20
98.58283709957884
 30
0.0
 10
166.2225772312445
 20
97.81105562401851
 30
0.0
 10
167.0997341669544
 20
97.1046843989318
 30
0.0
 10
168.0268922678072
 20
96.5554109841694
 30
0.0
 10
169.0284870259117
 20
96.11091015097112
 30
0.0
 10
169.9063599069477
 20
95.81162778341124
 30
0.0
 10
170.5558326071356
 20
95.65726252149337
 30
0.0
 10
170.839830713635
 20
95.58976246786332
 30
0.0
  0
SPLINE
  5
C9
330
1F
100
AcDbEntity
  8
0
  6
Continuous
 62
     7
370
    25
100
AcDbSpline
210
0.0
220
0.0
230
1.0
 70
     8
 71
     3
 72
    22
 73
    18
 74
     0
 42
0.00000001
 43
0.00000001
 40
0.0
 40
0.0
 40
0.0
 40
0.0
 40
0.0049060017250756
 40
0.0409605080817802
 40
0.0786020967115254
 40
0.11034967727772
 40
0.1421680936919371
 40
0.1898218075297082
 40
0.2386426074618487
 40
0.2887127776471903
 40
0.341057602596961
 40
0.3969001350003776
 40
0.4639096371957809
 40
0.5960086184819481
 40
0.7395621280838682
 40
0.9086341456924543
 40
0.9999999999999999
 40
0.9999999999999999
 40
0.9999999999999999
 40
0.9999999999999999
 10
207.2531716910352
 20
95.56502714805215
 30
0.0
 10
207.3121858041261
 20
95.5772506127127
 30
0.0
 10
207.8048982391517
 20
95.67930506582408
 30
0.0
 10
208.6208537220547
 20
95.92624240082442
 30
0.0
 10
209.641501453115
 20
96.31153817495496
 30
0.0
 10
210.4237177695741
 20
96.72050777333563
 30
0.0
 10
211.1978818667753
 20
97.20183742596241
 30
0.0
 10
211.952933895284
 20
97.81593880237588
 30
0.0
 10
212.6295561493735
 20
98.578331148627
 30
0.0
 10
213.1357497750949
 20
99.37599723805462
 30
0.0
 10
213.4976310584548
 20
100.1600339744467
 30
0.0
 10
213.773874989102
 20
100.8477097812954
 30
0.0
 10
214.1883108496104
 20
101.9731904722128
 30
0.0
 10
214.5882837873485
 20
103.4160758568591
 30
0.0
 10
214.9570751482095
 20
105.2713672071416
 30
0.0
 10
215.1926835013703
 20
106.8670020606471
 30
0.0
 10
215.3292764424273
 20
107.907865458341
 30
0.0
 10
215.3771954745567
 20
108.273017319121
 30
0.0
  0
LINE
  5
CA
330
1F
100
AcDbEntity
  8
0
  6
Continuous
 62
     7
370
    25
100
AcDbLine
 10
261.8329564029
 20
183.1965361093
 30
0.0
 11
116.3402632133
 21
183.1965361093
 31
0.0
  0
SPLINE
  5
CB
330
1F
100
AcDbEntity
  8
0
  6
Continuous
 62
     7
370
    25
100
AcDbSpline
210
0.0
220
0.0
230
1.0
 70
     8
 71
     3
 72
    12
 73
     8
 74
     0
 42
0.00000001
 43
0.00000001
 40
0.0
 40
0.0
 40
0.0
 40
0.0
 40
0.2116768759812477
 40
0.4294924054514996
 40
0.6411692780689526
 40
0.8589847775503483
 40
1.0
 40
1.0
 40
1.0
 40
1.0
 10
171.7638261521326
 20
175.796349261858
 30
0.0
 10
170.8502596176713
 20
175.7940778067937
 30
0.0
 10
168.9966330152997
 20
175.7894690242095
 30
0.0
 10
166.9188720180538
 20
175.7813829694899
 30
0.0
 10
165.4454585198263
 20
175.7726142629883
 30
0.0
 10
164.6598168692426
 20
175.7644792625263
 30
0.0
 10
164.6612857525202
 20
175.7592809668853
 30
0.0
 10
164.6618630021521
 20
175.7572381127723
 30
0.0
  0
SPLINE
  5
CC
330
1F
100
AcDbEntity
  8
0
  6
Continuous
 62
     7
370
    25
100
AcDbSpline
210
0.0
220
0.0
230
1.0
 70
     8
 71
     3
 72
    22
 73
    18
 74
     0
 42
0.00000001
 43
0.00000001
 40
0.0
 40
0.0
 40
0.0
 40
0.0
 40
0.0515188667686161
 40
0.1220846084283678
 40
0.1946967633672189
 40
0.2652624639898766
 40
0.3378745823457484
 40
0.4084401444854034
 40
0.4810521226404709
 40
0.5516175095428388
 40
0.6242293053236655
 40
0.6947945570351077
 40
0.7674062081968103
 40
0.8379714240132669
 40
0.9105830316926444
 40
0.9550433365959412
 40
1.0
 40
1.0
 40
1.0
 40
1.0
 10
213.5127631612294
 20
175.7572368307261
 30
0.0
 10
213.5074643445319
 20
175.759476296843
 30
0.0
 10
213.4949077026215
 20
175.7647831749076
 30
0.0
 10
212.6647546813434
 20
175.7730895254438
 30
0.0
 10
211.1796246759376
 20
175.7817676016332
 30
0.0
 10
209.0255329162902
 20
175.7898246191435
 30
0.0
 10
206.3341038276544
 20
175.7968884225269
 30
0.0
 10
203.1245180141072
 20
175.8028859615419
 30
0.0
 10
199.5476846846279
 20
175.8075395818423
 30
0.0
 10
195.6398432512349
 20
175.8108013380029
 30
0.0
 10
191.582146169561
 20
175.8125200825598
 30
0.0
 10
187.4162217619122
 20
175.8126785605516
 30
0.0
 10
183.3355235094137
 20
175.8112677366911
 30
0.0
 10
179.3800647589812
 20
175.8083085170215
 30
0.0
 10
176.1850912675463
 20
175.8044509133442
 30
0.0
 10
173.6471502992348
 20
175.8003467662389
 30
0.0
 10
172.3939197849656
 20
175.7976866854033
 30
0.0
 10
171.7638261521326
 20
175.796349261858
 30
0.0
  0
LINE
  5
CD
330
1F
100
AcDbEntity
  8
0
  6
Continuous
 62
     7
370
    25
100
AcDbLine
 10
263.3220047602
 20
183.1965361093
 30
0.0
 11
263.1836229739
 21
177.9118090588
 31
0.0
  0
LINE
  5
CE
330
1F
100
AcDbEntity
  8
0
  6
Continuous
 62
     7
370
    25
100
AcDbLine
 10
261.8329564029
 20
183.1965361093
 30
0.0
 11
263.3220047602
 21
183.1965361093
 31
0.0
  0
LINE
  5
CF
330
1F
100
AcDbEntity
  8
0
  6
Continuous
 62
     7
370
    25
100
AcDbLine
 10
114.851214856
 20
183.1965361093
 30
0.0
 11
114.9895966424
 21
177.9118090588
 31
0.0
  0
LINE
  5
D0
330
1F
100
AcDbEntity
  8
0
  6
Continuous
 62
     7
370
    25
100
AcDbLine
 10
116.3402632133
 20
183.1965361093
 30
0.0
 11
114.851214856
 21
183.1965361093
 31
0.0
  0
LINE
  5
D1
330
1F
100
AcDbEntity
  8
0
  6
Continuous
 62
     7
370
    25
100
AcDbLine
 10
263.3220047602
 20
183.1965361093
 30
0.0
 11
263.5866098081
 21
183.1965361093
 31
0.0
  0
LINE
  5
D2
330
1F
100
AcDbEntity
  8
0
  6
Continuous
 62
     7
370
    25
100
AcDbLine
 10
114.851214856
 20
183.1965361093
 30
0.0
 11
114.5866098081
 21
183.1965361093
 31
0.0
  0
SPLINE
  5
D3
330
1F
100
AcDbEntity
  8
0
  6
Continuous
 62
     7
370
    25
100
AcDbSpline
210
0.0
220
0.0
230
1.0
 70
     8
 71
     3
 72
    10
 73
     6
 74
     0
 42
0.00000001
 43
0.00000001
 40
0.0
 40
0.0
 40
0.0
 40
0.0
 40
0.415417491307549
 40
0.8827627414287109
 40
1.0
 40
1.0
 40
1.0
 40
1.0
 10
214.0751345117628
 20
137.0261393965355
 30
0.0
 10
214.0701448902479
 20
136.9870806136647
 30
0.0
 10
214.0595419376537
 20
136.9040806462456
 30
0.0
 10
213.960475663647
 20
136.8023430117192
 30
0.0
 10
213.8477649162284
 20
136.7231182046544
 30
0.0
 10
213.8251609230497
 20
136.7072297730764
 30
0.0
  0
SPLINE
  5
D4
330
1F
100
AcDbEntity
  8
0
  6
Continuous
 62
     7
370
    25
100
AcDbSpline
210
0.0
220
0.0
230
1.0
 70
     8
 71
     3
 72
    13
 73
     9
 74
     0
 42
0.00000001
 43
0.00000001
 40
0.0
 40
0.0
 40
0.0
 40
0.0
 40
0.0232439505440639
 40
0.2235625866719998
 40
0.4280814035857102
 40
0.6477916576648645
 40
0.8935712375342949
 40
1.0
 40
1.0
 40
1.0
 40
1.0
 10
214.811681913916
 20
117.7635117477455
 30
0.0
 10
214.7958945456214
 20
117.8608062340144
 30
0.0
 10
214.6440500953423
 20
118.7965941061309
 30
0.0
 10
214.4576713526448
 20
120.6078293368596
 30
0.0
 10
214.2563278899451
 20
123.2602691812014
 30
0.0
 10
214.1512177470982
 20
126.1216911557185
 30
0.0
 10
214.1085844308914
 20
128.5698930935575
 30
0.0
 10
214.1024901943302
 20
130.0809337262939
 30
0.0
 10
214.1006486648222
 20
130.5375333159325
 30
0.0
  0
LINE
  5
D5
330
1F
100
AcDbEntity
  8
0
  6
Continuous
 62
     7
370
    25
100
AcDbLine
 10
215.6585435195
 20
113.0636562634
 30
0.0
 11
215.6303322184
 21
113.2029400623
 31
0.0
  0
SPLINE
  5
D6
330
1F
100
AcDbEntity
  8
0
  6
Continuous
 62
     7
370
    25
100
AcDbSpline
210
0.0
220
0.0
230
1.0
 70
     8
 71
     3
 72
    18
 73
    14
 74
     0
 42
0.00000001
 43
0.00000001
 40
0.0
 40
0.0
 40
0.0
 40
0.0
 40
0.2500000000000006
 40
0.2500000000000006
 40
0.3750000000000007
 40
0.3750000000000007
 40
0.5000000000000009
 40
0.5000000000000009
 40
0.7499999999999981
 40
0.7499999999999981
 40
0.874999999999999
 40
0.874999999999999
 40
1.0
 40
1.0
 40
1.0
 40
1.0
 10
189.0862735664086
 20
130.4099970701196
 30
0.0
 10
190.4738765222856
 20
130.4128946689692
 30
0.0
 10
191.8428263133684
 20
130.483455678613
 30
0.0
 10
193.8760300099727
 20
130.6626478104924
 30
0.0
 10
194.5513028565646
 20
130.7334682174991
 30
0.0
 10
195.8944916925142
 20
130.8928925069841
 30
0.0
 10
196.5539664046531
 20
130.9836032901562
 30
0.0
 10
198.4923776771935
 20
131.2920473314152
 30
0.0
 10
199.7332025530536
 20
131.5443669601529
 30
0.0
 10
201.5199703014873
 20
131.9904275669012
 30
0.0
 10
202.1048137935718
 20
132.1509515827703
 30
0.0
 10
203.239049079022
 20
132.4916380350517
 30
0.0
 10
203.7885872758135
 20
132.6717155851653
 30
0.0
 10
204.3209439978279
 20
132.8613070893834
 30
0.0
  0
SPLINE
  5
D7
330
1F
100
AcDbEntity
  8
0
  6
Continuous
 62
     7
370
    25
100
AcDbSpline
210
0.0
220
0.0
230
1.0
 70
     8
 71
     3
 72
     8
 73
     4
 74
     0
 42
0.00000001
 43
0.00000001
 40
0.0
 40
0.0
 40
0.0
 40
0.0
 40
1.0
 40
1.0
 40
1.0
 40
1.0
 10
204.3209439978279
 20
132.8613070893834
 30
0.0
 10
204.4438601779045
 20
132.905081991643
 30
0.0
 10
204.5656710211071
 20
132.9489977773214
 30
0.0
 10
204.6863911585511
 20
132.9930357644731
 30
0.0
  0
SPLINE
  5
D8
330
1F
100
AcDbEntity
  8
0
  6
Continuous
 62
     7
370
    25
100
AcDbSpline
210
0.0
220
0.0
230
1.0
 70
     8
 71
     3
 72
    18
 73
    14
 74
     0
 42
0.00000001
 43
0.00000001
 40
0.0
 40
0.0
 40
0.0
 40
0.0
 40
0.2500000000000016
 40
0.2500000000000016
 40
0.5000000000000031
 40
0.5000000000000031
 40
0.6250000000000023
 40
0.6250000000000023
 40
0.7500000000000016
 40
0.7500000000000016
 40
0.8750000000000008
 40
0.8750000000000008
 40
1.0
 40
1.0
 40
1.0
 40
1.0
 10
173.8522756183768
 20
132.8613070893834
 30
0.0
 10
174.9183088538015
 20
132.4816540554444
 30
0.0
 10
176.0430335184548
 20
132.1434722964018
 30
0.0
 10
178.4110675975676
 20
131.5509005827141
 30
0.0
 10
179.6544324602092
 20
131.2965498076705
 30
0.0
 10
181.6168639653984
 20
130.9838351810895
 30
0.0
 10
182.2775048058713
 20
130.8931128879976
 30
0.0
 10
183.6098599766397
 20
130.7348247852935
 30
0.0
 10
184.2802034217573
 20
130.6643755452008
 30
0.0
 10
185.6311348964019
 20
130.544859140635
 30
0.0
 10
186.3120849733582
 20
130.4965476266798
 30
0.0
 10
187.6883926427334
 20
130.4299953730318
 30
0.0
 10
188.3844082400022
 20
130.4114641127925
 30
0.0
 10
189.0869460497961
 20
130.4099970701195
 30
0.0
  0
LINE
  5
D9
330
1F
100
AcDbEntity
  8
0
  6
Continuous
 62
     7
370
    25
100
AcDbLine
 10
162.5142667932
 20
113.0616354657
 30
0.0
 11
162.5428873978
 21
113.2029400623
 31
0.0
  0
SPLINE
  5
DA
330
1F
100
AcDbEntity
  8
0
  6
Continuous
 62
     7
370
    25
100
AcDbSpline
210
0.0
220
0.0
230
1.0
 70
     8
 71
     3
 72
    13
 73
     9
 74
     0
 42
0.00000001
 43
0.00000001
 40
0.0
 40
0.0
 40
0.0
 40
0.0
 40
0.0232439505436442
 40
0.2235625866717567
 40
0.4280814035856474
 40
0.6477916576649951
 40
0.8935712375346422
 40
1.0
 40
1.0
 40
1.0
 40
1.0
 10
163.3615377022902
 20
117.763511747751
 30
0.0
 10
163.3773250705845
 20
117.8608062340181
 30
0.0
 10
163.5291695208633
 20
118.7965941061327
 30
0.0
 10
163.7155482635605
 20
120.6078293368596
 30
0.0
 10
163.9168917262603
 20
123.2602691812014
 30
0.0
 10
164.0220018691072
 20
126.1216911557185
 30
0.0
 10
164.064635185314
 20
128.5698930935556
 30
0.0
 10
164.0707294218751
 20
130.0809337262901
 30
0.0
 10
164.0725709513831
 20
130.5375333159269
 30
0.0
  0
SPLINE
  5
DB
330
1F
100
AcDbEntity
  8
0
  6
Continuous
 62
     7
370
    25
100
AcDbSpline
210
0.0
220
0.0
230
1.0
 70
     8
 71
     3
 72
    10
 73
     6
 74
     0
 42
0.00000001
 43
0.00000001
 40
0.0
 40
0.0
 40
0.0
 40
0.0
 40
0.4154174913073406
 40
0.8827627414285486
 40
1.0
 40
1.0
 40
1.0
 40
1.0
 10
164.0980851044426
 20
137.0261393965355
 30
0.0
 10
164.1030747259574
 20
136.9870806136647
 30
0.0
 10
164.1136776785517
 20
136.9040806462455
 30
0.0
 10
164.2127439525583
 20
136.8023430117192
 30
0.0
 10
164.3254546999769
 20
136.7231182046544
 30
0.0
 10
164.3480586931557
 20
136.7072297730763
 30
0.0
  0
SPLINE
  5
DC
330
1F
100
AcDbEntity
  8
0
  6
Continuous
 62
     7
370
    25
100
AcDbSpline
210
0.0
220
0.0
230
1.0
 70
     8
 71
     3
 72
     8
 73
     4
 74
     0
 42
0.00000001
 43
0.00000001
 40
0.0
 40
0.0
 40
0.0
 40
0.0
 40
1.0
 40
1.0
 40
1.0
 40
1.0
 10
173.4868284579667
 20
132.9930357643588
 30
0.0
 10
173.6075800117517
 20
132.9489863167138
 30
0.0
 10
173.7293915138115
 20
132.905070568392
 30
0.0
 10
173.8522756183768
 20
132.8613070893834
 30
0.0
  0
SPLINE
  5
DD
330
1F
100
AcDbEntity
  8
0
  6
Continuous
 62
     7
370
    25
100
AcDbSpline
210
0.0
220
0.0
230
1.0
 70
     8
 71
     3
 72
    23
 73
    19
 74
     0
 42
0.00000001
 43
0.00000001
 40
0.0
 40
0.0
 40
0.0
 40
0.0
 40
0.1050457999106421
 40
0.2104127650593589
 40
0.3164978861578963
 40
0.4210505470000745
 40
0.4735745120277144
 40
0.5252879718594713
 40
0.5778157064554016
 40
0.6303465862580214
 40
0.682881783742273
 40
0.7354275186790136
 40
0.7886750814548177
 40
0.8411166023857731
 40
0.8937028633214338
 40
0.9464721203583614
 40
0.9991163653751369
 40
1.0
 40
1.0
 40
1.0
 40
1.0
 10
189.0866387835963
 20
94.62216069724816
 30
0.0
 10
189.7392022933536
 20
94.6224216151623
 30
0.0
 10
191.0463244494196
 20
94.62294424871652
 30
0.0
 10
193.0123761644018
 20
94.6289046590741
 30
0.0
 10
194.9748601496202
 20
94.64298042190745
 30
0.0
 10
196.6075382676926
 20
94.66615616724772
 30
0.0
 10
197.9001755673629
 20
94.69439872854954
 30
0.0
 10
198.8685918752163
 20
94.72162417093591
 30
0.0
 10
199.8336599502671
 20
94.75611941292173
 30
0.0
 10
200.798651004892
 20
94.79958236734933
 30
0.0
 10
201.756290085332
 20
94.85349822523634
 30
0.0
 10
202.7066790429411
 20
94.92031096513577
 30
0.0
 10
203.6399715964319
 20
95.00176581966835
 30
0.0
 10
204.5488796237628
 20
95.10033274644364
 30
0.0
 10
205.4246329613604
 20
95.21675569364785
 30
0.0
 10
206.2495012760723
 20
95.35609344321739
 30
0.0
 10
206.7871729435885
 20
95.45825154684523
 30
0.0
 10
207.0267394247258
 20
95.51870783349759
 30
0.0
 10
207.0306941720296
 20
95.51970584179782
 30
0.0
  0
SPLINE
  5
DE
330
1F
100
AcDbEntity
  8
0
  6
Continuous
 62
     7
370
    25
100
AcDbSpline
210
0.0
220
0.0
230
1.0
 70
     8
 71
     3
 72
    23
 73
    19
 74
     0
 42
0.00000001
 43
0.00000001
 40
0.0
 40
0.0
 40
0.0
 40
0.0
 40
0.1047218558157921
 40
0.2097638864485051
 40
0.3155218583553512
 40
0.419752095863046
 40
0.4721140855587516
 40
0.5236680695242575
 40
0.57603381716352
 40
0.62840270031017
 40
0.6807758878234245
 40
0.7331595802933867
 40
0.7862429362799512
 40
0.8385227361231056
 40
0.8909468296164239
 40
0.9435533548809121
 40
0.996035253641903
 40
1.0
 40
1.0
 40
1.0
 40
1.0
 10
189.0865808326113
 20
94.62216069724816
 30
0.0
 10
188.4340173228692
 20
94.62242161516669
 30
0.0
 10
187.1268951668337
 20
94.62294424872975
 30
0.0
 10
185.1608434516216
 20
94.6289046590209
 30
0.0
 10
183.1983594672786
 20
94.64298042210721
 30
0.0
 10
181.5656813465094
 20
94.66615616666816
 30
0.0
 10
180.2730440523162
 20
94.69439872955273
 30
0.0
 10
179.3046277278864
 20
94.72162416714889
 30
0.0
 10
178.3395597158137
 20
94.75611942733411
 30
0.0
 10
177.3745684252355
 20
94.79958231357594
 30
0.0
 10
176.4169302254386
 20
94.85349842595095
 30
0.0
 10
175.466537965919
 20
94.92031021166534
 30
0.0
 10
174.5332578319946
 20
95.00176865520024
 30
0.0
 10
173.6243039631407
 20
95.10032233470703
 30
0.0
 10
172.7487217941846
 20
95.21679474616984
 30
0.0
 10
171.923212575356
 20
95.35594728747532
 30
0.0
 10
171.3715467936765
 20
95.46155593807306
 30
0.0
 10
171.1187202880921
 20
95.5256749087029
 30
0.0
 10
171.1009620499341
 20
95.53017855023471
 30
0.0
  0
ARC
  5
DF
330
1F
100
AcDbEntity
  8
0
  6
Continuous
 62
     7
370
    25
100
AcDbCircle
 10
189.0866098081
 20
189.4610916086
 30
0.0
 40
56.88333644131767
100
AcDbArc
 50
264.2767598674
 51
275.7232401326
  0
SPLINE
  5
E0
330
1F
100
AcDbEntity
  8
0
  6
Continuous
 62
     7
370
    25
100
AcDbSpline
210
0.0
220
0.0
230
1.0
 70
     8
 71
     3
 72
    10
 73
     6
 74
     0
 42
0.00000001
 43
0.00000001
 40
0.0
 40
0.0
 40
0.0
 40
0.0
 40
0.4972395000543439
 40
0.7476469758819478
 40
1.0
 40
1.0
 40
1.0
 40
1.0
 10
212.167799813776
 20
138.0183934129209
 30
0.0
 10
212.0849455926262
 20
137.9097751416024
 30
0.0
 10
211.960366375016
 20
137.746457219217
 30
0.0
 10
211.3980590017134
 20
137.4248115056573
 30
0.0
 10
211.005364401199
 20
137.235714523144
 30
0.0
 10
210.8082572895517
 20
137.1408001545848
 30
0.0
  0
SPLINE
  5
E1
330
1F
100
AcDbEntity
  8
0
  6
Continuous
 62
     7
370
    25
100
AcDbSpline
210
0.0
220
0.0
230
1.0
 70
     8
 71
     3
 72
    22
 73
    18
 74
     0
 42
0.00000001
 43
0.00000001
 40
0.0
 40
0.0
 40
0.0
 40
0.0
 40
0.2499999999999934
 40
0.2499999999999934
 40
0.3124999999999941
 40
0.3124999999999941
 40
0.3749999999999947
 40
0.3749999999999947
 40
0.4999999999999957
 40
0.4999999999999957
 40
0.6249999999999966
 40
0.6249999999999966
 40
0.6874999999999972
 40
0.6874999999999972
 40
0.7499999999999978
 40
0.7499999999999978
 40
1.0
 40
1.0
 40
1.0
 40
1.0
 10
210.8082572895517
 20
137.1408001545848
 30
0.0
 10
210.1352763881216
 20
136.7905557659903
 30
0.0
 10
209.2569870222272
 20
136.3950787979619
 30
0.0
 10
207.9196631537602
 20
135.8765899294766
 30
0.0
 10
207.6400310160957
 20
135.7716783504006
 30
0.0
 10
207.056115219852
 20
135.5602482896733
 30
0.0
 10
206.7516926837702
 20
135.4537175354869
 30
0.0
 10
205.8144432549664
 20
135.1374844615097
 30
0.0
 10
205.1536726987915
 20
134.9296359338636
 30
0.0
 10
203.7629343885633
 20
134.526259435381
 30
0.0
 10
203.0329550443833
 20
134.330715609288
 30
0.0
 10
201.8857398341656
 20
134.0514863230583
 30
0.0
 10
201.4933552133233
 20
133.9604956343657
 30
0.0
 10
200.6983645640057
 20
133.785702475825
 30
0.0
 10
200.2957529668224
 20
133.7018618034775
 30
0.0
 10
198.2577104305269
 20
133.3017178760414
 30
0.0
 10
196.5483488034118
 20
133.0423826099717
 30
0.0
 10
194.7592068393767
 20
132.8613070893834
 30
0.0
  0
SPLINE
  5
E2
330
1F
100
AcDbEntity
  8
0
  6
Continuous
 62
     7
370
    25
100
AcDbSpline
210
0.0
220
0.0
230
1.0
 70
     8
 71
     3
 72
    22
 73
    18
 74
     0
 42
0.00000001
 43
0.00000001
 40
0.0
 40
0.0
 40
0.0
 40
0.0
 40
0.2500000000000001
 40
0.2500000000000001
 40
0.3125
 40
0.3125
 40
0.3749999999999999
 40
0.3749999999999999
 40
0.4999999999999998
 40
0.4999999999999998
 40
0.6249999999999996
 40
0.6249999999999996
 40
0.6874999999999982
 40
0.6874999999999982
 40
0.7499999999999968
 40
0.7499999999999968
 40
1.0
 40
1.0
 40
1.0
 40
1.0
 10
183.4140127768273
 20
132.8613070893834
 30
0.0
 10
181.6246591946756
 20
133.0424040274228
 30
0.0
 10
179.9176947141425
 20
133.3014916082054
 30
0.0
 10
177.8850099378458
 20
133.7003305692575
 30
0.0
 10
177.4835895960106
 20
133.7838615639692
 30
0.0
 10
176.6912026185181
 20
133.9579251745484
 30
0.0
 10
176.299089361435
 20
134.0487412065808
 30
0.0
 10
175.1475061092906
 20
134.3287949430467
 30
0.0
 10
174.4167309923275
 20
134.5245028696115
 30
0.0
 10
173.0275669454514
 20
134.9271979414421
 30
0.0
 10
172.3691739432363
 20
135.1342014993945
 30
0.0
 10
171.4371418734327
 20
135.4483400813598
 30
0.0
 10
171.1357491789731
 20
135.5536590652261
 30
0.0
 10
170.5520808822397
 20
135.7646858693344
 30
0.0
 10
170.2689621765588
 20
135.8707335543475
 30
0.0
 10
168.9191308080892
 20
136.3935026777949
 30
0.0
 10
168.0379879601435
 20
136.7905324857557
 30
0.0
 10
167.3649623266527
 20
137.1408001545848
 30
0.0
  0
SPLINE
  5
E3
330
1F
100
AcDbEntity
  8
0
  6
Continuous
 62
     7
370
    25
100
AcDbSpline
210
0.0
220
0.0
230
1.0
 70
     8
 71
     3
 72
    10
 73
     6
 74
     0
 42
0.00000001
 43
0.00000001
 40
0.0
 40
0.0
 40
0.0
 40
0.0
 40
0.4848525627175793
 40
0.9843946668917025
 40
1.0
 40
1.0
 40
1.0
 40
1.0
 10
167.3649623266527
 20
137.1408001545848
 30
0.0
 10
167.0195938894325
 20
137.315485606415
 30
0.0
 10
166.3183934135462
 20
137.6701489420099
 30
0.0
 10
165.9381937366894
 20
137.9412137775654
 30
0.0
 10
165.9969004977616
 20
138.0189353385799
 30
0.0
 10
165.99867889846
 20
138.0212897535717
 30
0.0
  0
SPLINE
  5
E4
330
1F
100
AcDbEntity
  8
0
  6
Continuous
 62
     7
370
    25
100
AcDbSpline
210
0.0
220
0.0
230
1.0
 70
     8
 71
     3
 72
    18
 73
    14
 74
     0
 42
0.00000001
 43
0.00000001
 40
0.0
 40
0.0
 40
0.0
 40
0.0
 40
0.1250000000000018
 40
0.1250000000000018
 40
0.2500000000000036
 40
0.2500000000000036
 40
0.5000000000000024
 40
0.5000000000000024
 40
0.6250000000000001
 40
0.6250000000000001
 40
0.7499999999999977
 40
0.7499999999999977
 40
1.0
 40
1.0
 40
1.0
 40
1.0
 10
213.117271414517
 20
137.1408001545848
 30
0.0
 10
212.9380996840385
 20
137.0105223340851
 30
0.0
 10
212.7348750443799
 20
136.8714731999197
 30
0.0
 10
212.2802033897085
 20
136.5769072046538
 30
0.0
 10
212.0275555845951
 20
136.4207027502666
 30
0.0
 10
211.2074613505785
 20
135.9358500822732
 30
0.0
 10
210.5780189907173
 20
135.5904958943354
 30
0.0
 10
209.5141506063975
 20
135.05088689502
 30
0.0
 10
209.1394649664078
 20
134.8674160125986
 30
0.0
 10
208.3493643845485
 20
134.4952636308326
 30
0.0
 10
207.9326475395048
 20
134.3060200355069
 30
0.0
 10
206.6295325324797
 20
133.7381781490419
 30
0.0
 10
205.6933090657571
 20
133.360380146315
 30
0.0
 10
204.6868832740218
 20
132.9932810435723
 30
0.0
  0
LINE
  5
E5
330
1F
100
AcDbEntity
  8
0
  6
Continuous
 62
     7
370
    25
100
AcDbLine
 10
210.8082572896
 20
137.1408001546
 30
0.0
 11
213.1172714145
 21
137.1408001546
 31
0.0
  0
SPLINE
  5
E6
330
1F
100
AcDbEntity
  8
0
  6
Continuous
 62
     7
370
    25
100
AcDbSpline
210
0.0
220
0.0
230
1.0
 70
     8
 71
     3
 72
    16
 73
    12
 74
     0
 42
0.00000001
 43
0.00000001
 40
0.0
 40
0.0
 40
0.0
 40
0.0
 40
0.2500000000000028
 40
0.2500000000000028
 40
0.5000000000000057
 40
0.5000000000000057
 40
0.6250000000000031
 40
0.6250000000000031
 40
0.7500000000000004
 40
0.7500000000000004
 40
1.0
 40
1.0
 40
1.0
 40
1.0
 10
173.4863363421829
 20
132.9932810435723
 30
0.0
 10
172.47703641135
 20
133.3614285036729
 30
0.0
 10
171.5439178087024
 20
133.7382377268021
 30
0.0
 10
169.8197002141771
 20
134.4892591772617
 30
0.0
 10
169.0286356536834
 20
134.8635797880092
 30
0.0
 10
167.9508147241257
 20
135.4100531145848
 30
0.0
 10
167.6105469360078
 20
135.5893847177454
 30
0.0
 10
166.9782167740754
 20
135.9349602611869
 30
0.0
 10
166.6845877678002
 20
136.101989156356
 30
0.0
 10
165.8706823384399
 20
136.5834659996487
 30
0.0
 10
165.4169066149942
 20
136.8783431517363
 30
0.0
 10
165.0559482016882
 20
137.1408001545848
 30
0.0
  0
LINE
  5
E7
330
1F
100
AcDbEntity
  8
0
  6
Continuous
 62
     7
370
    25
100
AcDbLine
 10
165.0559482017
 20
137.1408001546
 30
0.0
 11
167.3649623267
 21
137.1408001546
 31
0.0
  0
SPLINE
  5
E8
330
1F
100
AcDbEntity
  8
0
  6
Continuous
 62
     7
370
    25
100
AcDbSpline
210
0.0
220
0.0
230
1.0
 70
     8
 71
     3
 72
    12
 73
     8
 74
     0
 42
0.00000001
 43
0.00000001
 40
0.0
 40
0.0
 40
0.0
 40
0.0
 40
0.2020578682128879
 40
0.4081954519909194
 40
0.6496007654204198
 40
0.8979500563657963
 40
1.0
 40
1.0
 40
1.0
 40
1.0
 10
213.117271414517
 20
137.1408001545848
 30
0.0
 10
213.3827329987697
 20
137.3201641632455
 30
0.0
 10
213.9190160563347
 20
137.682513688328
 30
0.0
 10
214.176727219134
 20
138.0552387362777
 30
0.0
 10
213.8883960374342
 20
138.288057320681
 30
0.0
 10
213.1622180925324
 20
138.3682391506864
 30
0.0
 10
212.4138195786655
 20
138.3774821395488
 30
0.0
 10
212.1958566991298
 20
138.3801740589348
 30
0.0
  0
SPLINE
  5
E9
330
1F
100
AcDbEntity
  8
0
  6
Continuous
 62
     7
370
    25
100
AcDbSpline
210
0.0
220
0.0
230
1.0
 70
     8
 71
     3
 72
    12
 73
     8
 74
     0
 42
0.00000001
 43
0.00000001
 40
0.0
 40
0.0
 40
0.0
 40
0.0
 40
0.2018400542522407
 40
0.4077554262255146
 40
0.6489005100093976
 40
0.8969820858533375
 40
1.0
 40
1.0
 40
1.0
 40
1.0
 10
165.0559482016882
 20
137.1408001545848
 30
0.0
 10
164.7904842519465
 20
137.3201644472447
 30
0.0
 10
164.2541964156423
 20
137.6825145460598
 30
0.0
 10
163.9965237378305
 20
138.0552349735248
 30
0.0
 10
164.2846817551633
 20
138.2880743479391
 30
0.0
 10
165.0127343743072
 20
138.3683362941469
 30
0.0
 10
165.7636592018604
 20
138.3775811637672
 30
0.0
 10
165.9839919326699
 20
138.3802937486954
 30
0.0
  0
SPLINE
  5
EA
330
1F
100
AcDbEntity
  8
0
  6
Continuous
 62
     8
370
    18
100
AcDbSpline
210
0.0
220
0.0
230
1.0
 70
     8
 71
     3
 72
     8
 73
     4
 74
     0
 42
0.00000001
 43
0.00000001
 40
0.0
 40
0.0
 40
0.0
 40
0.0
 40
1.0
 40
1.0
 40
1.0
 40
1.0
 10
116.3412699168733
 20
177.9118090588473
 30
0.0
 10
164.8381631776928
 20
177.4113325198167
 30
0.0
 10
213.3350564385124
 20
177.4113325198168
 30
0.0
 10
261.8319496993319
 20
177.9118090588475
 30
0.0
  0
SPLINE
  5
EB
330
1F
100
AcDbEntity
  8
0
  6
Continuous
 62
     8
370
    18
100
AcDbSpline
210
0.0
220
0.0
230
1.0
 70
     8
 71
     3
 72
    26
 73
    22
 74
     0
 42
0.00000001
 43
0.00000001
 40
0.0
 40
0.0
 40
0.0
 40
0.0
 40
0.03125
 40
0.03125
 40
0.0625
 40
0.0625
 40
0.125
 40
0.125
 40
0.25
 40
0.25
 40
0.375
 40
0.375
 40
0.5
 40
0.5
 40
0.625
 40
0.625
 40
0.75
 40
0.75
 40
0.875
 40
0.875
 40
1.0
 40
1.0
 40
1.0
 40
1.0
 10
261.831949699332
 20
177.9118090588474
 30
0.0
 10
261.8321145010794
 20
177.887559683757
 30
0.0
 10
261.8322209207387
 20
177.863354410078
 30
0.0
 10
261.8323182948362
 20
177.8150833152804
 30
0.0
 10
261.8323092492746
 20
177.7910174941619
 30
0.0
 10
261.8321108631916
 20
177.719106084253
 30
0.0
 10
261.8317502732723
 20
177.6715465489094
 30
0.0
 10
261.8299990933883
 20
177.5306271535158
 30
0.0
 10
261.8279390932976
 20
177.4390265041028
 30
0.0
 10
261.8221171325987
 20
177.2637964168407
 30
0.0
 10
261.818298125846
 20
177.1786665578529
 30
0.0
 10
261.8091337963673
 20
177.0204806757575
 30
0.0
 10
261.803818812304
 20
176.9474281835729
 30
0.0
 10
261.7917390255124
 20
176.8132736967167
 30
0.0
 10
261.7849114912298
 20
176.7519316769447
 30
0.0
 10
261.7703376366547
 20
176.6464775677242
 30
0.0
 10
261.7625415153494
 20
176.6016277287864
 30
0.0
 10
261.7459154904058
 20
176.5279206315606
 30
0.0
 10
261.7371401811872
 20
176.4995410534997
 30
0.0
 10
261.7192765346921
 20
176.4612443117038
 30
0.0
 10
261.7101059148828
 20
176.4509328376035
 30
0.0
 10
261.7006879475097
 20
176.4498344054655
 30
0.0
  0
SPLINE
  5
EC
330
1F
100
AcDbEntity
  8
0
  6
Continuous
 62
     8
370
    18
100
AcDbSpline
210
0.0
220
0.0
230
1.0
 70
     8
 71
     3
 72
     8
 73
     4
 74
     0
 42
0.00000001
 43
0.00000001
 40
0.0
 40
0.0
 40
0.0
 40
0.0
 40
1.0
 40
1.0
 40
1.0
 40
1.0
 10
261.7006879475101
 20
176.4498344054663
 30
0.0
 10
213.2913025212382
 20
175.9511198075424
 30
0.0
 10
164.8819170949662
 20
175.9511198075427
 30
0.0
 10
116.4725316686944
 20
176.4498344054664
 30
0.0
  0
SPLINE
  5
ED
330
1F
100
AcDbEntity
  8
0
  6
Continuous
 62
     8
370
    18
100
AcDbSpline
210
0.0
220
0.0
230
1.0
 70
     8
 71
     3
 72
    21
 73
    17
 74
     0
 42
0.00000001
 43
0.00000001
 40
0.0
 40
0.0
 40
0.0
 40
0.0
 40
0.0527015849062533
 40
0.1061218290191366
 40
0.1602636673748752
 40
0.2151299185912074
 40
0.2707232904326047
 40
0.3270463850640281
 40
0.3841017040108813
 40
0.4418916528422023
 40
0.5004185455963431
 40
0.6190205570882739
 40
0.7500271669228922
 40
0.8150462880618087
 40
0.8983758744118705
 40
1.0
 40
1.0
 40
1.0
 40
1.0
 10
116.3412699168733
 20
177.9118090588474
 30
0.0
 10
116.3410931062171
 20
177.8713547619193
 30
0.0
 10
116.3407370738462
 20
177.7898945176151
 30
0.0
 10
116.3414839891912
 20
177.668016550598
 30
0.0
 10
116.3431710420745
 20
177.5464208903293
 30
0.0
 10
116.3459045614799
 20
177.4260657034994
 30
0.0
 10
116.3496695218651
 20
177.307927761003
 30
0.0
 10
116.3544837593085
 20
177.1930328898538
 30
0.0
 10
116.3603558962836
 20
177.0824396514621
 30
0.0
 10
116.3672956881785
 20
176.9772245618024
 30
0.0
 10
116.3780245965243
 20
176.8451405593546
 30
0.0
 10
116.3946431647167
 20
176.6947221383876
 30
0.0
 10
116.41434887775
 20
176.5794035000365
 30
0.0
 10
116.4334704862576
 20
176.5075053953082
 30
0.0
 10
116.4512817288566
 20
176.4620624757401
 30
0.0
 10
116.464996171276
 20
176.4541706338354
 30
0.0
 10
116.4725316686943
 20
176.4498344054654
 30
0.0
  0
LINE
  5
EE
330
1F
100
AcDbEntity
  8
0
  6
Continuous
 62
     8
370
    18
100
AcDbLine
 10
261.8329564029
 20
183.1965361093
 30
0.0
 11
261.8319496993
 21
177.9118090588
 31
0.0
  0
LINE
  5
EF
330
1F
100
AcDbEntity
  8
0
  6
Continuous
 62
     8
370
    18
100
AcDbLine
 10
116.3402632133
 20
183.1965361093
 30
0.0
 11
116.3412699169
 21
177.9118090588
 31
0.0
  0
SPLINE
  5
F0
330
1F
100
AcDbEntity
  8
0
  6
Continuous
 62
     8
370
    18
100
AcDbSpline
210
0.0
220
0.0
230
1.0
 70
    24
 71
     3
 72
     9
 73
     5
 74
     0
 42
0.00000001
 43
0.00000001
 40
0.0
 40
0.0
 40
0.0
 40
0.0
 40
0.999914152188854
 40
1.0
 40
1.0
 40
1.0
 40
1.0
 10
116.4725316686944
 20
176.4498344054653
 30
0.0
 10
116.3033213013463
 20
176.2005071829109
 30
0.0
 10
116.1340964064113
 20
175.9511585543226
 30
0.0
 10
116.2187099132747
 20
176.075834429603
 30
0.0
 10
116.2187171771591
 20
176.075845132754
 30
0.0
  0
SPLINE
  5
F1
330
1F
100
AcDbEntity
  8
0
  6
Continuous
 62
     8
370
    18
100
AcDbSpline
210
0.0
220
0.0
230
1.0
 70
     8
 71
     3
 72
     9
 73
     5
 74
     0
 42
0.00000001
 43
0.00000001
 40
0.0
 40
0.0
 40
0.0
 40
0.0
 40
0.4999507693649687
 40
1.0
 40
1.0
 40
1.0
 40
1.0
 10
261.9545141941411
 20
176.0758278116078
 30
0.0
 10
261.9439428828908
 20
176.0914033993647
 30
0.0
 10
261.9227981784558
 20
176.122557642365
 30
0.0
 10
261.7747295508333
 20
176.3407349904258
 30
0.0
 10
261.7006879475096
 20
176.4498344054656
 30
0.0
  0
SPLINE
  5
F2
330
1F
100
AcDbEntity
  8
0
  6
Continuous
 62
     8
370
    18
100
AcDbSpline
210
0.0
220
0.0
230
1.0
 70
     8
 71
     3
 72
    25
 73
    21
 74
     0
 42
0.00000001
 43
0.00000001
 40
0.0
 40
0.0
 40
0.0
 40
0.0
 40
0.0555740769933566
 40
0.1111416178191777
 40
0.1667034389905892
 40
0.222260357223755
 40
0.2778131894090272
 40
0.3333627525819133
 40
0.3889098638941363
 40
0.4444553405845488
 40
0.4999999999501583
 40
0.5555446593169766
 40
0.6110901360110975
 40
0.6666372473294606
 40
0.7221868105109709
 40
0.7777396427073291
 40
0.833296560954039
 40
0.8888583821414348
 40
0.9444259229857256
 40
1.0
 40
1.0
 40
1.0
 40
1.0
 10
261.8319496993321
 20
177.9118090588475
 30
0.0
 10
261.8711799116418
 20
177.9108295544329
 30
0.0
 10
261.949635722325
 20
177.908870660805
 30
0.0
 10
262.0663431251374
 20
177.9063597329427
 30
0.0
 10
262.1812217433243
 20
177.9041619559026
 30
0.0
 10
262.2934092460754
 20
177.9023079910058
 30
0.0
 10
262.4020717009128
 20
177.9007896237871
 30
0.0
 10
262.50639922022
 20
177.8996090550498
 30
0.0
 10
262.6056148003593
 20
177.8987656951004
 30
0.0
 10
262.6989793219651
 20
177.8982597021395
 30
0.0
 10
262.7857972788021
 20
177.8980910330256
 30
0.0
 10
262.8654217392996
 20
177.8982597021395
 30
0.0
 10
262.9372597142071
 20
177.8987656951005
 30
0.0
 10
263.0007745034204
 20
177.8996090550498
 30
0.0
 10
263.0554973439361
 20
177.9007896237873
 30
0.0
 10
263.1010022999409
 20
177.902307991006
 30
0.0
 10
263.1370161464347
 20
177.9041619559028
 30
0.0
 10
263.1630220792906
 20
177.9063597329429
 30
0.0
 10
263.1797503235011
 20
177.9088706608053
 30
0.0
 10
263.1823320397934
 20
177.9108295544331
 30
0.0
 10
263.183622973854
 20
177.9118090588477
 30
0.0
  0
SPLINE
  5
F3
330
1F
100
AcDbEntity
  8
0
  6
Continuous
 62
     8
370
    18
100
AcDbSpline
210
0.0
220
0.0
230
1.0
 70
     8
 71
     3
 72
    25
 73
    21
 74
     0
 42
0.00000001
 43
0.00000001
 40
0.0
 40
0.0
 40
0.0
 40
0.0
 40
0.0555740770039791
 40
0.1111416178391903
 40
0.1667034390187477
 40
0.2222603572587903
 40
0.2778131894496914
 40
0.3333627526269496
 40
0.3889098639422986
 40
0.4444553406345866
 40
0.500000000000803
 40
0.5555446593670152
 40
0.6110901360592375
 40
0.666637247374483
 40
0.7221868105516129
 40
0.7777396427423325
 40
0.8332965609821583
 40
0.8888583821614356
 40
0.9444259229963488
 40
1.0
 40
1.0
 40
1.0
 40
1.0
 10
114.9895966423502
 20
177.9118090588473
 30
0.0
 10
114.9908875764105
 20
177.9108295544325
 30
0.0
 10
114.9934692927019
 20
177.9088706608043
 30
0.0
 10
115.010197536907
 20
177.9063597329415
 30
0.0
 10
115.0362034697551
 20
177.904161955901
 30
0.0
 10
115.0722173162393
 20
177.9023079910038
 30
0.0
 10
115.1177222722334
 20
177.9007896237848
 30
0.0
 10
115.1724451127384
 20
177.8996090550471
 30
0.0
 10
115.2359599019412
 20
177.8987656950977
 30
0.0
 10
115.3077978768396
 20
177.8982597021366
 30
0.0
 10
115.3874223373296
 20
177.8980910330226
 30
0.0
 10
115.4742402941615
 20
177.8982597021366
 30
0.0
 10
115.5676048157652
 20
177.8987656950976
 30
0.0
 10
115.6668203959056
 20
177.8996090550471
 30
0.0
 10
115.7711479152173
 20
177.9007896237848
 30
0.0
 10
115.8798103700629
 20
177.9023079910037
 30
0.0
 10
115.9919978728258
 20
177.9041619559009
 30
0.0
 10
116.1068764910281
 20
177.9063597329414
 30
0.0
 10
116.2235838938593
 20
177.9088706608042
 30
0.0
 10
116.3020397045563
 20
177.9108295544325
 30
0.0
 10
116.3412699168732
 20
177.9118090588472
 30
0.0
  0
SPLINE
  5
F4
330
1F
100
AcDbEntity
  8
0
  6
Continuous
 62
     8
370
    18
100
AcDbSpline
210
0.0
220
0.0
230
1.0
 70
     8
 71
     3
 72
    21
 73
    17
 74
     0
 42
0.00000001
 43
0.00000001
 40
0.0
 40
0.0
 40
0.0
 40
0.0
 40
0.0527015852617351
 40
0.1061218296409478
 40
0.1602636681735266
 40
0.2151299194776346
 40
0.2707232913175963
 40
0.3270463858585141
 40
0.3841017046253484
 40
0.441891653188704
 40
0.500418545584547
 40
0.6190205634988493
 40
0.7500271669104711
 40
0.8150462982100352
 40
0.8983758845572353
 40
1.0
 40
1.0
 40
1.0
 40
1.0
 10
263.1836229738566
 20
177.9118090588472
 30
0.0
 10
263.1816137779927
 20
177.8713547616453
 30
0.0
 10
263.1775679880959
 20
177.7898945168616
 30
0.0
 10
263.1588074874117
 20
177.6680165492469
 30
0.0
 10
263.1304007014638
 20
177.5464208886072
 30
0.0
 10
263.0912250133782
 20
177.4260657016324
 30
0.0
 10
263.0414140969237
 20
177.3079277592041
 30
0.0
 10
262.9808730765223
 20
177.1930328883167
 30
0.0
 10
262.9096980225164
 20
177.0824396503492
 30
0.0
 10
262.8280564045003
 20
176.9772245612409
 30
0.0
 10
262.705267786982
 20
176.8451405555726
 30
0.0
 10
262.5215446926381
 20
176.6947221355643
 30
0.0
 10
262.3079592761013
 20
176.5794034946731
 30
0.0
 10
262.1065135731033
 20
176.5075053905344
 30
0.0
 10
261.9199003685463
 20
176.462062473968
 30
0.0
 10
261.7784234421717
 20
176.454170633081
 30
0.0
 10
261.7006879475088
 20
176.4498344054653
 30
0.0
  0
SPLINE
  5
F5
330
1F
100
AcDbEntity
  8
0
  6
Continuous
 62
     8
370
    18
100
AcDbSpline
210
0.0
220
0.0
230
1.0
 70
     8
 71
     3
 72
    26
 73
    22
 74
     0
 42
0.00000001
 43
0.00000001
 40
0.0
 40
0.0
 40
0.0
 40
0.0
 40
0.03125
 40
0.03125
 40
0.0625
 40
0.0625
 40
0.125
 40
0.125
 40
0.25
 40
0.25
 40
0.375
 40
0.375
 40
0.5
 40
0.5
 40
0.625
 40
0.625
 40
0.75
 40
0.75
 40
0.875
 40
0.875
 40
1.0
 40
1.0
 40
1.0
 40
1.0
 10
114.9895966423483
 20
177.9118090588472
 30
0.0
 10
114.9902328502895
 20
177.8875596837567
 30
0.0
 10
114.9914621364898
 20
177.8633544100777
 30
0.0
 10
114.9950886679051
 20
177.8150833152801
 30
0.0
 10
114.9974859131202
 20
177.7910174941615
 30
0.0
 10
115.0064022910317
 20
177.7191060842526
 30
0.0
 10
115.0146460659948
 20
177.6715465489091
 30
0.0
 10
115.0460575899056
 20
177.5306271535156
 30
0.0
 10
115.0759055378748
 20
177.4390265041028
 30
0.0
 10
115.1522506576334
 20
177.2637964168408
 30
0.0
 10
115.1994751533806
 20
177.1786665578528
 30
0.0
 10
115.3083834715253
 20
177.0204806757575
 30
0.0
 10
115.3697565637492
 20
176.947428183573
 30
0.0
 10
115.5061912497126
 20
176.8132736967166
 30
0.0
 10
115.5819176305087
 20
176.751931676943
 30
0.0
 10
115.7411203549235
 20
176.6464775677224
 30
0.0
 10
115.8251768597909
 20
176.6016277287877
 30
0.0
 10
116.0023348457212
 20
176.5279206315619
 30
0.0
 10
116.0948320305766
 20
176.4995410534994
 30
0.0
 10
116.2812608792359
 20
176.4612443117036
 30
0.0
 10
116.3760721297059
 20
176.4509328376034
 30
0.0
 10
116.4725316686944
 20
176.4498344054653
 30
0.0
  0
SPLINE
  5
F6
330
1F
100
AcDbEntity
  8
0
  6
Continuous
 62
     8
370
    18
100
AcDbSpline
210
0.0
220
0.0
230
1.0
 70
     8
 71
     3
 72
    10
 73
     6
 74
     0
 42
0.00000001
 43
0.00000001
 40
0.0
 40
0.0
 40
0.0
 40
0.0
 40
0.4999510413237206
 40
0.9999215213059803
 40
1.0
 40
1.0
 40
1.0
 40
1.0
 10
263.1836229738553
 20
177.9118090588475
 30
0.0
 10
263.2533760147385
 20
177.8090444876265
 30
0.0
 10
263.3928848085814
 20
177.6035113495824
 30
0.0
 10
263.4596202879761
 20
177.5051979000284
 30
0.0
 10
263.4383890003658
 20
177.536476145756
 30
0.0
 10
263.4383856682846
 20
177.5364810546271
 30
0.0
  0
SPLINE
  5
F7
330
1F
100
AcDbEntity
  8
0
  6
Continuous
 62
     8
370
    18
100
AcDbSpline
210
0.0
220
0.0
230
1.0
 70
     8
 71
     3
 72
     9
 73
     5
 74
     0
 42
0.00000001
 43
0.00000001
 40
0.0
 40
0.0
 40
0.0
 40
0.0
 40
0.4999510989237446
 40
1.0
 40
1.0
 40
1.0
 40
1.0
 10
114.7348339320341
 20
177.5364810312238
 30
0.0
 10
114.7454442332259
 20
177.5521116294328
 30
0.0
 10
114.7666669112331
 20
177.5833758835621
 30
0.0
 10
114.9152818870221
 20
177.8023241958801
 30
0.0
 10
114.9895966423488
 20
177.9118090588473
 30
0.0
  0
SPLINE
  5
F8
330
1F
100
AcDbEntity
  8
0
  6
Continuous
 62
     8
370
    18
100
AcDbSpline
210
0.0
220
0.0
230
1.0
 70
     8
 71
     3
 72
    21
 73
    17
 74
     0
 42
0.00000001
 43
0.00000001
 40
0.0
 40
0.0
 40
0.0
 40
0.0
 40
0.0662044727077294
 40
0.1566084662955897
 40
0.2482362688589597
 40
0.3068296918550575
 40
0.3700085614326169
 40
0.437781277767612
 40
0.5026766315361888
 40
0.5688074222769884
 40
0.6206816824001989
 40
0.6999667046475455
 40
0.7870277911799545
 40
0.8612195270202018
 40
0.9225415083783716
 40
1.0
 40
1.0
 40
1.0
 40
1.0
 10
213.8251609230497
 20
136.7072297730764
 30
0.0
 10
213.7634245848169
 20
136.6613982134283
 30
0.0
 10
213.6173856111659
 20
136.5529824226084
 30
0.0
 10
213.2514280243433
 20
136.3310078484477
 30
0.0
 10
212.8087462229475
 20
136.0830799939368
 30
0.0
 10
212.3420495362011
 20
135.8359493661181
 30
0.0
 10
211.8779190812415
 20
135.6017102592368
 30
0.0
 10
211.3437816152733
 20
135.3463890732271
 30
0.0
 10
210.747329664878
 20
135.0757096553992
 30
0.0
 10
210.1503954846708
 20
134.8197654500494
 30
0.0
 10
209.461158539706
 20
134.5390604068251
 30
0.0
 10
208.6438805709282
 20
134.2263937150954
 30
0.0
 10
207.6694776935164
 20
133.8832828975667
 30
0.0
 10
206.7036438971424
 20
133.5708068551598
 30
0.0
 10
205.7340275556662
 20
133.2770545393153
 30
0.0
 10
205.0617932462878
 20
133.0948820378639
 30
0.0
 10
204.6865945277453
 20
132.9932048575346
 30
0.0
  0
SPLINE
  5
F9
330
1F
100
AcDbEntity
  8
0
  6
Continuous
 62
     8
370
    18
100
AcDbSpline
210
0.0
220
0.0
230
1.0
 70
     8
 71
     3
 72
    21
 73
    17
 74
     0
 42
0.00000001
 43
0.00000001
 40
0.0
 40
0.0
 40
0.0
 40
0.0
 40
0.0229741274349592
 40
0.1717850948207356
 40
0.2656954896807266
 40
0.3555687412214651
 40
0.4401203490793655
 40
0.501158665868675
 40
0.5616014208881072
 40
0.5924037723146846
 40
0.6239357059301096
 40
0.6909843589833435
 40
0.7635174173233685
 40
0.8401102020661969
 40
0.9192953855212143
 40
1.0
 40
1.0
 40
1.0
 40
1.0
 10
215.6303322184343
 20
113.2029400623353
 30
0.0
 10
215.6245923827153
 20
113.2363762951633
 30
0.0
 10
215.5816737462606
 20
113.4863899874378
 30
0.0
 10
215.3398446116999
 20
113.4168140855035
 30
0.0
 10
214.7775183378398
 20
113.0959897560295
 30
0.0
 10
214.0117800923097
 20
112.5683282480651
 30
0.0
 10
212.8968818509747
 20
111.9358430248962
 30
0.0
 10
211.3599949146933
 20
111.2931543691762
 30
0.0
 10
209.7875633294248
 20
110.7918560923836
 30
0.0
 10
208.2691209720546
 20
110.4057166560725
 30
0.0
 10
206.5135836138195
 20
110.0273684293902
 30
0.0
 10
203.9349487056186
 20
109.6252811145508
 30
0.0
 10
200.4997493719365
 20
109.3272203545467
 30
0.0
 10
196.8146265701626
 20
109.1764220615477
 30
0.0
 10
192.9841661199595
 20
109.1315384351514
 30
0.0
 10
190.3940282915988
 20
109.1311894695483
 30
0.0
 10
189.0866523515072
 20
109.1310133286386
 30
0.0
  0
SPLINE
  5
FA
330
1F
100
AcDbEntity
  8
0
  6
Continuous
 62
     8
370
    18
100
AcDbSpline
210
0.0
220
0.0
230
1.0
 70
     8
 71
     3
 72
    21
 73
    17
 74
     0
 42
0.00000001
 43
0.00000001
 40
0.0
 40
0.0
 40
0.0
 40
0.0
 40
0.02297412743492
 40
0.1717850948207023
 40
0.265695489680698
 40
0.3555687412214385
 40
0.4401203490793427
 40
0.5011586658686539
 40
0.5616014208880893
 40
0.5924037723146673
 40
0.6239357059300936
 40
0.6909843589833302
 40
0.7635174173233588
 40
0.8401102020661901
 40
0.9192953855212108
 40
1.0
 40
1.0
 40
1.0
 40
1.0
 10
162.5428873977708
 20
113.2029400623355
 30
0.0
 10
162.5486272334898
 20
113.2363762951634
 30
0.0
 10
162.5915458699444
 20
113.4863899874378
 30
0.0
 10
162.8333750045049
 20
113.4168140855035
 30
0.0
 10
163.3957012783647
 20
113.0959897560295
 30
0.0
 10
164.1614395238947
 20
112.5683282480651
 30
0.0
 10
165.2763377652296
 20
111.9358430248962
 30
0.0
 10
166.8132247015109
 20
111.2931543691762
 30
0.0
 10
168.3856562867794
 20
110.7918560923837
 30
0.0
 10
169.9040986441495
 20
110.4057166560725
 30
0.0
 10
171.6596360023845
 20
110.0273684293902
 30
0.0
 10
174.2382709105854
 20
109.6252811145508
 30
0.0
 10
177.6734702442675
 20
109.3272203545467
 30
0.0
 10
181.3585930460414
 20
109.1764220615477
 30
0.0
 10
185.1890534962445
 20
109.1315384351514
 30
0.0
 10
187.7791913246052
 20
109.1311894695483
 30
0.0
 10
189.0865672646968
 20
109.1310133286386
 30
0.0
  0
SPLINE
  5
FB
330
1F
100
AcDbEntity
  8
0
  6
Continuous
 62
     8
370
    18
100
AcDbSpline
210
0.0
220
0.0
230
1.0
 70
     8
 71
     3
 72
    21
 73
    17
 74
     0
 42
0.00000001
 43
0.00000001
 40
0.0
 40
0.0
 40
0.0
 40
0.0
 40
0.066204472685456
 40
0.1566084662429392
 40
0.2482362687755207
 40
0.3068296917519328
 40
0.3700085613082628
 40
0.4377812776204876
 40
0.5026766313672583
 40
0.5688074220858378
 40
0.6206816821916161
 40
0.699966704412323
 40
0.7870277910038374
 40
0.8612195268793091
 40
0.9225415082488161
 40
1.0
 40
1.0
 40
1.0
 40
1.0
 10
164.3480586931557
 20
136.7072297730763
 30
0.0
 10
164.4097950313884
 20
136.6613982134282
 30
0.0
 10
164.5558340050393
 20
136.5529824226084
 30
0.0
 10
164.9217915918619
 20
136.3310078484477
 30
0.0
 10
165.3644733932576
 20
136.0830799939368
 30
0.0
 10
165.831170080004
 20
135.8359493661181
 30
0.0
 10
166.2953005349635
 20
135.6017102592368
 30
0.0
 10
166.8294380009317
 20
135.3463890732271
 30
0.0
 10
167.425889951327
 20
135.0757096553992
 30
0.0
 10
168.022824131534
 20
134.8197654500494
 30
0.0
 10
168.7120610764989
 20
134.5390604068251
 30
0.0
 10
169.5293390456074
 20
134.2263937149687
 30
0.0
 10
170.5037419236604
 20
133.8832828972296
 30
0.0
 10
171.4695757209095
 20
133.570806854576
 30
0.0
 10
172.4391920636284
 20
133.2770545384108
 30
0.0
 10
173.1114263740441
 20
133.0948820367442
 30
0.0
 10
173.4866250934123
 20
132.9932048562278
 30
0.0
  0
SPLINE
  5
FC
330
1F
100
AcDbEntity
  8
0
  6
Continuous
 62
     8
370
    18
100
AcDbSpline
210
0.0
220
0.0
230
1.0
 70
     8
 71
     3
 72
    33
 73
    29
 74
     0
 42
0.00000001
 43
0.00000001
 40
0.0
 40
0.0
 40
0.0
 40
0.0
 40
0.1916756149456314
 40
0.382297721742567
 40
0.5547112734540802
 40
0.6118842275665672
 40
0.7131060328638361
 40
0.749005702449993
 40
0.7610632920024135
 40
0.8091983010514638
 40
0.8337612062684441
 40
0.8398843347226906
 40
0.8521479081421758
 40
0.8708169513507171
 40
0.8832160872806929
 40
0.9224935219698254
 40
0.9371316154508627
 40
0.9520550391595506
 40
0.9670797384009038
 40
0.9823324406202333
 40
0.9838327291355903
 40
0.9914067262426698
 40
0.9959901731693814
 40
0.9964533331627062
 40
0.9978617613733494
 40
0.9992628762220265
 40
0.9997183944450494
 40
1.0
 40
1.0
 40
1.0
 40
1.0
 10
214.1656907337889
 20
109.1114666235583
 30
0.0
 10
214.1723964672039
 20
109.1600106191662
 30
0.0
 10
214.1857710772602
 20
109.2568317976476
 30
0.0
 10
214.202064527512
 20
109.390732767112
 30
0.0
 10
214.2126120922034
 20
109.4889239313843
 30
0.0
 10
214.219906036458
 20
109.5644557059284
 30
0.0
 10
214.2238130596685
 20
109.6081354974641
 30
0.0
 10
214.2265570471876
 20
109.6412123854013
 30
0.0
 10
214.2282656764169
 20
109.6624141612548
 30
0.0
 10
214.2296993991959
 20
109.6809970826713
 30
0.0
 10
214.2309505636541
 20
109.6981452382902
 30
0.0
 10
214.2316130191049
 20
109.7074581966468
 30
0.0
 10
214.2321735617017
 20
109.7154768544477
 30
0.0
 10
214.2328157085422
 20
109.7248230555558
 30
0.0
 10
214.2338458334163
 20
109.739947540295
 30
0.0
 10
214.2347875585352
 20
109.7541271427527
 30
0.0
 10
214.2358118361551
 20
109.768775886595
 30
0.0
 10
214.2364827687358
 20
109.7782365400425
 30
0.0
 10
214.2371683206741
 20
109.7877989264586
 30
0.0
 10
214.2376064756475
 20
109.7944913862299
 30
0.0
 10
214.2378565050567
 20
109.7995882461166
 30
0.0
 10
214.2379640798376
 20
109.8024403062349
 30
0.0
 10
214.2379971290521
 20
109.8050588220241
 30
0.0
 10
214.2379910561218
 20
109.8063926801054
 30
0.0
 10
214.2379880951663
 20
109.8070688315451
 30
0.0
 10
214.2379881784361
 20
109.807743812712
 30
0.0
 10
214.2379894346474
 20
109.8081860056958
 30
0.0
 10
214.2379938118471
 20
109.8083392326911
 30
0.0
 10
214.2379954840815
 20
109.8083977704487
 30
0.0
  0
SPLINE
  5
FD
330
1F
100
AcDbEntity
  8
0
  6
Continuous
 62
     8
370
    18
100
AcDbSpline
210
0.0
220
0.0
230
1.0
 70
     8
 71
     3
 72
    14
 73
    10
 74
     0
 42
0.00000001
 43
0.00000001
 40
0.0
 40
0.0
 40
0.0
 40
0.0
 40
0.1147563680911882
 40
0.2306579644416356
 40
0.4600609628981132
 40
0.6889906613032416
 40
0.803388936663602
 40
0.9183342376823944
 40
1.0
 40
1.0
 40
1.0
 40
1.0
 10
214.2379956094107
 20
109.8083977976188
 30
0.0
 10
214.2419015483835
 20
109.8954964154308
 30
0.0
 10
214.2497524062285
 20
110.0705628646776
 30
0.0
 10
214.2499216254539
 20
110.3721614465876
 30
0.0
 10
214.2332967961325
 20
110.6782414329718
 30
0.0
 10
214.1834541018731
 20
110.8759359115438
 30
0.0
 10
214.1157615564152
 20
110.9623532872376
 30
0.0
 10
214.0580982688809
 20
110.9924702493968
 30
0.0
 10
214.0087202921642
 20
110.9832429490301
 30
0.0
 10
213.9882103063992
 20
110.9794102322654
 30
0.0
  0
SPLINE
  5
FE
330
1F
100
AcDbEntity
  8
0
  6
Continuous
 62
     8
370
    18
100
AcDbSpline
210
0.0
220
0.0
230
1.0
 70
     8
 71
     3
 72
    14
 73
    10
 74
     0
 42
0.00000001
 43
0.00000001
 40
0.0
 40
0.0
 40
0.0
 40
0.0
 40
0.11502274359374
 40
0.2311933737807227
 40
0.4611288685162113
 40
0.6905899645638116
 40
0.805253784212454
 40
0.9204658992898832
 40
0.9999999999999999
 40
0.9999999999999999
 40
0.9999999999999999
 40
0.9999999999999999
 10
163.9352240067948
 20
109.8083977976188
 30
0.0
 10
163.9313180895788
 20
109.8954963678492
 30
0.0
 10
163.9234672754647
 20
110.0705627214581
 30
0.0
 10
163.9232976175086
 20
110.3721622628571
 30
0.0
 10
163.939925810913
 20
110.6782348921052
 30
0.0
 10
163.9897569280697
 20
110.8759546894091
 30
0.0
 10
164.0574729374259
 20
110.9623207503507
 30
0.0
 10
164.1146423231099
 20
110.9923545728564
 30
0.0
 10
164.163410741028
 20
110.9832970706705
 30
0.0
 10
164.1833276993447
 20
110.9795979985826
 30
0.0
  0
SPLINE
  5
FF
330
1F
100
AcDbEntity
  8
0
  6
Continuous
 62
     8
370
    18
100
AcDbSpline
210
0.0
220
0.0
230
1.0
 70
     8
 71
     3
 72
     8
 73
     4
 74
     0
 42
0.00000001
 43
0.00000001
 40
0.0
 40
0.0
 40
0.0
 40
0.0
 40
1.0
 40
1.0
 40
1.0
 40
1.0
 10
164.0075622054528
 20
109.1116268984502
 30
0.0
 10
163.9721720765931
 20
109.3662774254329
 30
0.0
 10
163.9472899991333
 20
109.599153681241
 30
0.0
 10
163.9352071314442
 20
109.808315304096
 30
0.0
  0
SPLINE
  5
100
330
1F
100
AcDbEntity
  8
0
  6
Continuous
 62
     8
370
    18
100
AcDbSpline
210
0.0
220
0.0
230
1.0
 70
     8
 71
     3
 72
    34
 73
    30
 74
     0
 42
0.00000001
 43
0.00000001
 40
0.0
 40
0.0
 40
0.0
 40
0.0
 40
0.0459358548049193
 40
0.1658694663639762
 40
0.2058874238342634
 40
0.2331615481685608
 40
0.2740188244045585
 40
0.2876203169849808
 40
0.3390086975300193
 40
0.4115021669146692
 40
0.4558446419170754
 40
0.5001436120962235
 40
0.5888000806314063
 40
0.6148487842102954
 40
0.6539095889663608
 40
0.6734283622575142
 40
0.6799342553074765
 40
0.6929594292160329
 40
0.7125558069874103
 40
0.7321239840550632
 40
0.7515279518113169
 40
0.7710432320621864
 40
0.8101309983396023
 40
0.8296856598515756
 40
0.8616160509986606
 40
0.873985573980514
 40
0.8863029991025985
 40
0.9482432574623347
 40
1.0
 40
1.0
 40
1.0
 40
1.0
 10
213.8676446670553
 20
106.7445456475265
 30
0.0
 10
213.8732137591196
 20
106.7862162884168
 30
0.0
 10
213.8933231558591
 20
106.9366845228029
 30
0.0
 10
213.9178463516245
 20
107.1199875121279
 30
0.0
 10
213.939637844182
 20
107.2824763278992
 30
0.0
 10
213.9520928649116
 20
107.3754096530003
 30
0.0
 10
213.9614006821576
 20
107.4449564086899
 30
0.0
 10
213.9733350027099
 20
107.5343665702233
 30
0.0
 10
213.9886479129799
 20
107.6495013488116
 30
0.0
 10
214.0069102181377
 20
107.7881963297287
 30
0.0
 10
214.0239229453027
 20
107.9185476360732
 30
0.0
 10
214.0422381743257
 20
108.0598263415727
 30
0.0
 10
214.0579649844844
 20
108.1837292448756
 30
0.0
 10
214.0725517405033
 20
108.3012673372805
 30
0.0
 10
214.0803912066557
 20
108.3652464469196
 30
0.0
 10
214.0862919443764
 20
108.4139599801958
 30
0.0
 10
214.0897991946284
 20
108.4430559571373
 30
0.0
 10
214.0932869419372
 20
108.4721107863664
 30
0.0
 10
214.0979030939518
 20
108.5106486830632
 30
0.0
 10
214.1030195706695
 20
108.5536004136586
 30
0.0
 10
214.1079636321182
 20
108.5961761696165
 30
0.0
 10
214.1145757433504
 20
108.6525828290637
 30
0.0
 10
214.1209952735805
 20
108.7084763942812
 30
0.0
 10
214.128307557573
 20
108.7725315221944
 30
0.0
 10
214.1333508628117
 20
108.8172331189983
 30
0.0
 10
214.1377628870078
 20
108.8565168974572
 30
0.0
 10
214.1444027851215
 20
108.916296774016
 30
0.0
 10
214.1538892216699
 20
109.0020795064732
 30
0.0
 10
214.161951297522
 20
109.0769233108859
 30
0.0
 10
214.1656212868876
 20
109.1109934401325
 30
0.0
  0
SPLINE
  5
101
330
1F
100
AcDbEntity
  8
0
  6
Continuous
 62
     8
370
    18
100
AcDbSpline
210
0.0
220
0.0
230
1.0
 70
     8
 71
     3
 72
    32
 73
    28
 74
     0
 42
0.00000001
 43
0.00000001
 40
0.0
 40
0.0
 40
0.0
 40
0.0
 40
0.0215091777999659
 40
0.0434009570548848
 40
0.0659884417848687
 40
0.0882063974037908
 40
0.1105006356933475
 40
0.1328035216853143
 40
0.1551073565282315
 40
0.1770986638454737
 40
0.1994648704295827
 40
0.221643793821371
 40
0.2444379956666977
 40
0.266988450722803
 40
0.2893132182487015
 40
0.3116384103437619
 40
0.3336923695202818
 40
0.3782583028437085
 40
0.4663361439233254
 40
0.510768835447911
 40
0.5554257430785674
 40
0.5998426453348892
 40
0.6456547056587486
 40
0.7328170018399798
 40
0.8220163493976523
 40
0.9114358333477391
 40
1.0
 40
1.0
 40
1.0
 40
1.0
 10
207.0306941720296
 20
95.51970584179782
 30
0.0
 10
207.26375431984
 20
95.57599129531239
 30
0.0
 10
207.7340202481983
 20
95.68956339804541
 30
0.0
 10
208.3594245602209
 20
95.8849526036324
 30
0.0
 10
208.9215338401434
 20
96.09581117254353
 30
0.0
 10
209.4137087061817
 20
96.32016611636097
 30
0.0
 10
209.8395230590882
 20
96.55227722831785
 30
0.0
 10
210.2101138960803
 20
96.7912938686159
 30
0.0
 10
210.5311872709601
 20
97.03389778526706
 30
0.0
 10
210.8128972988319
 20
97.28011157439592
 30
0.0
 10
211.0600191405275
 20
97.52824553048575
 30
0.0
 10
211.2816444988835
 20
97.78131390485817
 30
0.0
 10
211.4788297284042
 20
98.03649030868003
 30
0.0
 10
211.6544414456889
 20
98.29319014878702
 30
0.0
 10
211.8105988617502
 20
98.54883125399604
 30
0.0
 10
211.9510808616984
 20
98.80325214144182
 30
0.0
 10
212.1215164939871
 20
99.14313080092616
 30
0.0
 10
212.379460329646
 20
99.73550209505446
 30
0.0
 10
212.6128193841368
 20
100.4155458644364
 30
0.0
 10
212.8103794684356
 20
101.0962496082935
 30
0.0
 10
212.9446686349056
 20
101.6095415572647
 30
0.0
 10
213.067842534196
 20
102.1283129454315
 30
0.0
 10
213.2168480013147
 20
102.8109349709336
 30
0.0
 10
213.3845590007964
 20
103.6661912680868
 30
0.0
 10
213.5618759895134
 20
104.6890982119517
 30
0.0
 10
213.7265011252204
 20
105.7180843067093
 30
0.0
 10
213.8207457026213
 20
106.4034754081774
 30
0.0
 10
213.8676415406982
 20
106.7445241029702
 30
0.0
  0
SPLINE
  5
102
330
1F
100
AcDbEntity
  8
0
  6
Continuous
 62
     8
370
    18
100
AcDbSpline
210
0.0
220
0.0
230
1.0
 70
     8
 71
     3
 72
    32
 73
    28
 74
     0
 42
0.00000001
 43
0.00000001
 40
0.0
 40
0.0
 40
0.0
 40
0.0
 40
0.0202299286266824
 40
0.0421503285287024
 40
0.0647673434499886
 40
0.0870143461490795
 40
0.1093377312484527
 40
0.1316697753559776
 40
0.1540027695549534
 40
0.1760228276392604
 40
0.1984182751223474
 40
0.2206261945647557
 40
0.2434501968570626
 40
0.266030133693
 40
0.2883840879417102
 40
0.3107384673146506
 40
0.3328212591673748
 40
0.3774454566380634
 40
0.465638448011204
 40
0.5101292294867734
 40
0.5548445202017394
 40
0.5993194917666347
 40
0.6451914453863369
 40
0.7324676949055067
 40
0.8217836589801985
 40
0.911320047246937
 40
1.0
 40
1.0
 40
1.0
 40
1.0
 10
171.1009620499341
 20
95.53017855023471
 30
0.0
 10
170.8821825861566
 20
95.58308112324984
 30
0.0
 10
170.4263418146083
 20
95.69330696110376
 30
0.0
 10
169.8139336818591
 20
95.88498773739548
 30
0.0
 10
169.251648829785
 20
96.09580180876611
 30
0.0
 10
168.7595207781454
 20
96.32016861736729
 30
0.0
 10
168.3336939079135
 20
96.55227655689508
 30
0.0
 10
167.9631064304353
 20
96.79129404863863
 30
0.0
 10
167.6420321579875
 20
97.0338977378074
 30
0.0
 10
167.3603223682106
 20
97.2801115872798
 30
0.0
 10
167.1132004621011
 20
97.5282455270443
 30
0.0
 10
166.8915751210627
 20
97.78131390580583
 30
0.0
 10
166.6943898868012
 20
98.03649030842615
 30
0.0
 10
166.5187781707824
 20
98.29319014885397
 30
0.0
 10
166.3626207543865
 20
98.5488312539782
 30
0.0
 10
166.2221387545268
 20
98.80325214144645
 30
0.0
 10
166.0517031222094
 20
99.14313080092349
 30
0.0
 10
165.7937592865684
 20
99.73550209505639
 30
0.0
 10
165.5604002320688
 20
100.415545864436
 30
0.0
 10
165.3628401477714
 20
101.0962496082936
 30
0.0
 10
165.228550981301
 20
101.6095415572647
 30
0.0
 10
165.1053770820106
 20
102.1283129454315
 30
0.0
 10
164.9563716148917
 20
102.8109349709337
 30
0.0
 10
164.78866061541
 20
103.6661912680868
 30
0.0
 10
164.6113436266928
 20
104.6890982119517
 30
0.0
 10
164.4467184909857
 20
105.7180843067092
 30
0.0
 10
164.3524739135847
 20
106.4034754081774
 30
0.0
 10
164.3055780755077
 20
106.7445241029702
 30
0.0
  0
SPLINE
  5
103
330
1F
100
AcDbEntity
  8
0
  6
Continuous
 62
     8
370
    18
100
AcDbSpline
210
0.0
220
0.0
230
1.0
 70
     8
 71
     3
 72
    19
 73
    15
 74
     0
 42
0.00000001
 43
0.00000001
 40
0.0
 40
0.0
 40
0.0
 40
0.0
 40
0.2500000000000001
 40
0.2500000000000001
 40
0.5000000000000002
 40
0.5000000000000002
 40
0.7500000000000003
 40
0.7500000000000003
 40
0.8750000000000002
 40
0.8750000000000002
 40
0.937500000000004
 40
0.968750000000002
 40
0.968750000000002
 40
1.0
 40
1.0
 40
1.0
 40
1.0
 10
164.0076069771551
 20
109.1110350836796
 30
0.0
 10
164.0258878929394
 20
108.9471983811527
 30
0.0
 10
164.0442214317239
 20
108.7747991576804
 30
0.0
 10
164.0868376401731
 20
108.411824384743
 30
0.0
 10
164.1110432245279
 20
108.2221544929964
 30
0.0
 10
164.1619416958378
 20
107.8265607863976
 30
0.0
 10
164.1890775848656
 20
107.6207383047521
 30
0.0
 10
164.2316001332724
 20
107.3005954347846
 30
0.0
 10
164.246085024376
 20
107.1919794630258
 30
0.0
 10
164.2681805101761
 20
107.0262859637146
 30
0.0
 10
164.2793194425003
 20
106.9427469198218
 30
0.0
 10
164.2905587049202
 20
106.8581860558008
 30
0.0
 10
164.2980676200777
 20
106.8015870139402
 30
0.0
 10
164.3018225295438
 20
106.7735345012757
 30
0.0
 10
164.3055972174579
 20
106.7446512035366
 30
0.0
  0
LINE
  5
104
330
1F
100
AcDbEntity
  8
0
  6
Continuous
 62
     8
370
    18
100
AcDbLine
 10
207.709347051
 20
146.1965361093
 30
0.0
 11
164.5866098081
 21
146.1965361093
 31
0.0
  0
LINE
  5
105
330
1F
100
AcDbEntity
  8
0
  6
Continuous
 62
     8
370
    18
100
AcDbLine
 10
213.5866098081
 20
146.1965361093
 30
0.0
 11
207.709347051
 21
146.1965361093
 31
0.0
  0
ARC
  5
106
330
1F
100
AcDbEntity
  8
0
  6
Continuous
 62
     7
370
    25
100
AcDbCircle
 10
-6638.3570265144
 20
350.0819402985
 30
0.0
 40
7000.0
100
AcDbArc
 50
359.4035572078
 51
359.9288780768
  0
ARC
  5
107
330
1F
100
AcDbEntity
  8
0
  6
Continuous
 62
     7
370
    25
100
AcDbCircle
 10
-6638.3570265144
 20
350.0819402985
 30
0.0
 40
6999.999999999999
100
AcDbArc
 50
0.3291974966
 51
0.5964431568
  0
ARC
  5
108
330
1F
100
AcDbEntity
  8
0
  6
Continuous
 62
     7
370
    25
100
AcDbCircle
 10
359.7637778447
 20
422.9342401677
 30
0.0
 40
1.500000000000018
100
AcDbArc
 50
0.6099342096
 51
88.4893102131
  0
ARC
  5
109
330
1F
100
AcDbEntity
  8
0
  6
Continuous
 62
     7
370
    25
100
AcDbCircle
 10
359.7637778447
 20
277.2296404293
 30
0.0
 40
1.499999999999993
100
AcDbArc
 50
271.5241076744
 51
359.4065979698
  0
LINE
  5
10A
330
1F
100
AcDbEntity
  8
0
  6
Continuous
 62
     7
370
    25
100
AcDbLine
 10
354.1429734856
 20
275.5819402985
 30
0.0
 11
359.8030289412
 21
275.7301540667
 31
0.0
  0
LINE
  5
10B
330
1F
100
AcDbEntity
  8
0
  6
Continuous
 62
     7
370
    25
100
AcDbLine
 10
359.8030289412
 20
424.4337265303
 30
0.0
 11
354.1429734856
 21
424.5819402985
 31
0.0
  0
SPLINE
  5
10C
330
1F
100
AcDbEntity
  8
0
  6
Continuous
 62
     7
370
    25
100
AcDbSpline
210
0.0
220
0.0
230
1.0
 70
     8
 71
     3
 72
    16
 73
    12
 74
     0
 42
0.00000001
 43
0.00000001
 40
0.0
 40
0.0
 40
0.0
 40
0.0
 40
0.1280775352628191
 40
0.2857644313745621
 40
0.4205327530517112
 40
0.580172122922174
 40
0.6894087304206997
 40
0.7838709157434259
 40
0.8805956569437149
 40
0.9793853083657867
 40
1.0
 40
1.0
 40
1.0
 40
1.0
 10
428.2173195780637
 20
404.9174201192571
 30
0.0
 10
427.7105780455184
 20
404.6188963727869
 30
0.0
 10
426.5799449051747
 20
403.9528352365629
 30
0.0
 10
424.9952018428313
 20
402.8240722606422
 30
0.0
 10
423.3477913002919
 20
401.5377954518002
 30
0.0
 10
421.9315862093891
 20
400.3226173982796
 30
0.0
 10
420.6840874219746
 20
399.199670049126
 30
0.0
 10
419.6612101232546
 20
398.2623673431041
 30
0.0
 10
418.6699385662962
 20
397.3635279169287
 30
0.0
 10
417.9277663929894
 20
396.6965000973346
 30
0.0
 10
417.5038374443618
 20
396.3440776715973
 30
0.0
 10
417.4306477736422
 20
396.2832333216717
 30
0.0
  0
SPLINE
  5
10D
330
1F
100
AcDbEntity
  8
0
  6
Continuous
 62
     7
370
    25
100
AcDbSpline
210
0.0
220
0.0
230
1.0
 70
     8
 71
     3
 72
    15
 73
    11
 74
     0
 42
0.00000001
 43
0.00000001
 40
0.0
 40
0.0
 40
0.0
 40
0.0
 40
0.1675916701585121
 40
0.3304330478608798
 40
0.4270377930222593
 40
0.5148922721707188
 40
0.6030637786560293
 40
0.7184041406690194
 40
0.8625484559664832
 40
1.0
 40
1.0
 40
1.0
 40
1.0
 10
427.3760306098364
 20
320.3931062072093
 30
0.0
 10
427.8164233572181
 20
319.3221895610804
 30
0.0
 10
428.6847261650815
 20
317.2107108041072
 30
0.0
 10
430.0586326635326
 20
314.5905373075931
 30
0.0
 10
431.3230419035117
 20
312.5464975169452
 30
0.0
 10
432.4096633190103
 20
311.0036929481454
 30
0.0
 10
433.6632831709888
 20
309.42837075736
 30
0.0
 10
435.2883940399751
 20
307.6624463931757
 30
0.0
 10
437.3164296698311
 20
305.7985735132318
 30
0.0
 10
438.9026275929285
 20
304.6604751960157
 30
0.0
 10
439.6768767391713
 20
304.1049507954262
 30
0.0
  0
LINE
  5
10E
330
1F
100
AcDbEntity
  8
0
  6
Continuous
 62
     7
370
    25
100
AcDbLine
 10
398.9975106932
 20
340.7967627199
 30
0.0
 11
399.9975057584
 21
340.7999043074
 31
0.0
  0
SPLINE
  5
10F
330
1F
100
AcDbEntity
  8
0
  6
Continuous
 62
     7
370
    25
100
AcDbSpline
210
0.0
220
0.0
230
1.0
 70
     8
 71
     3
 72
     9
 73
     5
 74
     0
 42
0.00000001
 43
0.00000001
 40
0.0
 40
0.0
 40
0.0
 40
0.0
 40
0.4940267859609198
 40
1.0
 40
1.0
 40
1.0
 40
1.0
 10
430.6423021135691
 20
400.4456756031766
 30
0.0
 10
430.7093774072868
 20
400.8544235603161
 30
0.0
 10
430.8451499921421
 20
401.6818037120713
 30
0.0
 10
430.998062601148
 20
402.5065142505033
 30
0.0
 10
431.0754322853938
 20
402.9237956922856
 30
0.0
  0
LINE
  5
110
330
1F
100
AcDbEntity
  8
0
  6
Continuous
 62
     7
370
    25
100
AcDbLine
 10
391.1429734856
 20
390.3819402985
 30
0.0
 11
361.5271492337
 21
390.3819402985
 31
0.0
  0
LINE
  5
111
330
1F
100
AcDbEntity
  8
0
  6
Continuous
 62
     7
370
    25
100
AcDbLine
 10
361.6375427963
 20
341.3819402985
 30
0.0
 11
391.1429734856
 21
341.3819402985
 31
0.0
  0
ARC
  5
112
330
1F
100
AcDbEntity
  8
0
  6
Continuous
 62
     7
370
    25
100
AcDbCircle
 10
391.1429734856
 20
365.8819402985
 30
0.0
 40
24.50000000000004
100
AcDbArc
 50
270.0
 51
288.6842591127
  0
ARC
  5
113
330
1F
100
AcDbEntity
  8
0
  6
Continuous
 62
     7
370
    25
100
AcDbCircle
 10
391.1429734856
 20
365.8819402985
 30
0.0
 40
24.5
100
AcDbArc
 50
56.2309852778
 51
90.0
  0
LINE
  5
114
330
1F
100
AcDbEntity
  8
0
  6
Continuous
 62
     7
370
    25
100
AcDbLine
 10
354.1429734856
 20
422.8282868933
 30
0.0
 11
354.1429734856
 21
277.3355937037
 31
0.0
  0
SPLINE
  5
115
330
1F
100
AcDbEntity
  8
0
  6
Continuous
 62
     7
370
    25
100
AcDbSpline
210
0.0
220
0.0
230
1.0
 70
     8
 71
     3
 72
    21
 73
    17
 74
     0
 42
0.00000001
 43
0.00000001
 40
0.0
 40
0.0
 40
0.0
 40
0.0
 40
0.0705671972989058
 40
0.1431808513489334
 40
0.2137480475264434
 40
0.2863616915790183
 40
0.3569289857986016
 40
0.4295427337536094
 40
0.5001100675557301
 40
0.5727238627997421
 40
0.6432911208563382
 40
0.7159048429719951
 40
0.7864719431522758
 40
0.8590855037725349
 40
0.9296524331368253
 40
1.0
 40
1.0
 40
1.0
 40
1.0
 10
361.5431603330252
 20
383.2073888181998
 30
0.0
 10
361.5454317795766
 20
382.2010658292759
 30
0.0
 10
361.550040544888
 20
380.1592363702455
 30
0.0
 10
361.55812673078
 20
376.5767944597806
 30
0.0
 10
361.5668949447979
 20
372.6921874575644
 30
0.0
 10
361.5760393928771
 20
368.640891143716
 30
0.0
 10
361.5854389307073
 20
364.4765759721255
 30
0.0
 10
361.5946655101839
 20
360.3888817486049
 30
0.0
 10
361.6036221587227
 20
356.4207710756083
 30
0.0
 10
361.6118944556356
 20
352.755847713738
 30
0.0
 10
361.6193978034103
 20
349.4315925411804
 30
0.0
 10
361.6257818250985
 20
346.6032365809551
 30
0.0
 10
361.6309918738747
 20
344.2949917880368
 30
0.0
 10
361.6347451602677
 20
342.6321456749511
 30
0.0
 10
361.6371330618599
 20
341.574215570911
 30
0.0
 10
361.637406254892
 20
341.4531807695842
 30
0.0
 10
361.6375426387675
 20
341.392757576747
 30
0.0
  0
SPLINE
  5
116
330
1F
100
AcDbEntity
  8
0
  6
Continuous
 62
     7
370
    25
100
AcDbSpline
210
0.0
220
0.0
230
1.0
 70
     8
 71
     3
 72
    13
 73
     9
 74
     0
 42
0.00000001
 43
0.00000001
 40
0.0
 40
0.0
 40
0.0
 40
0.0
 40
0.0844692755048646
 40
0.3022838627843863
 40
0.5139597180148825
 40
0.7317741748596253
 40
0.8651426192882923
 40
0.9999999999999999
 40
0.9999999999999999
 40
0.9999999999999999
 40
0.9999999999999999
 10
361.5271492857822
 20
390.3007815022884
 30
0.0
 10
361.5271036442451
 20
390.3210021016098
 30
0.0
 10
361.5269403102988
 20
390.393364044271
 30
0.0
 10
361.5283016751428
 20
389.790237709637
 30
0.0
 10
361.5311844813295
 20
388.5130658480566
 30
0.0
 10
361.5350612727512
 20
386.7955270045917
 30
0.0
 10
361.539162309269
 20
384.9786395964358
 30
0.0
 10
361.5418227357154
 20
383.7999866666553
 30
0.0
 10
361.5431603330252
 20
383.2073888181998
 30
0.0
  0
LINE
  5
117
330
1F
100
AcDbEntity
  8
0
  6
Continuous
 62
     7
370
    25
100
AcDbLine
 10
354.1429734856
 20
275.8465453464
 30
0.0
 11
359.427700536
 21
275.9849271328
 31
0.0
  0
LINE
  5
118
330
1F
100
AcDbEntity
  8
0
  6
Continuous
 62
     7
370
    25
100
AcDbLine
 10
354.1429734856
 20
275.8465453464
 30
0.0
 11
354.1429734856
 21
277.3355937037
 31
0.0
  0
LINE
  5
119
330
1F
100
AcDbEntity
  8
0
  6
Continuous
 62
     7
370
    25
100
AcDbLine
 10
354.1429734856
 20
424.3173352506
 30
0.0
 11
359.427700536
 21
424.1789534643
 31
0.0
  0
LINE
  5
11A
330
1F
100
AcDbEntity
  8
0
  6
Continuous
 62
     7
370
    25
100
AcDbLine
 10
354.1429734856
 20
424.3173352506
 30
0.0
 11
354.1429734856
 21
422.8282868933
 31
0.0
  0
LINE
  5
11B
330
1F
100
AcDbEntity
  8
0
  6
Continuous
 62
     7
370
    25
100
AcDbLine
 10
354.1429734856
 20
275.5819402985
 30
0.0
 11
354.1429734856
 21
275.8465453464
 31
0.0
  0
LINE
  5
11C
330
1F
100
AcDbEntity
  8
0
  6
Continuous
 62
     7
370
    25
100
AcDbLine
 10
354.1429734856
 20
424.5819402985
 30
0.0
 11
354.1429734856
 21
424.3173352506
 31
0.0
  0
SPLINE
  5
11D
330
1F
100
AcDbEntity
  8
0
  6
Continuous
 62
     7
370
    25
100
AcDbSpline
210
0.0
220
0.0
230
1.0
 70
    24
 71
     3
 72
    18
 73
    14
 74
     0
 42
0.00000001
 43
0.00000001
 40
0.0
 40
0.0
 40
0.0
 40
0.0
 40
0.2500000000000016
 40
0.2500000000000016
 40
0.5000000000000031
 40
0.5000000000000031
 40
0.6250000000000023
 40
0.6250000000000023
 40
0.7500000000000016
 40
0.7500000000000016
 40
0.8750000000000008
 40
0.8750000000000008
 40
1.0
 40
1.0
 40
1.0
 40
1.0
 10
404.4782025055
 20
385.6365172341784
 30
0.0
 10
404.8578555394388
 20
386.457409015326
 30
0.0
 10
405.1960372984815
 20
387.1886309514495
 30
0.0
 10
405.7886090121692
 20
388.4698988619411
 30
0.0
 10
406.0429597872129
 20
389.0198601215565
 30
0.0
 10
406.3556744137937
 20
389.6960166219841
 30
0.0
 10
406.4463967068857
 20
389.8921777957625
 30
0.0
 10
406.6046848095898
 20
390.2344308293156
 30
0.0
 10
406.6751340496825
 20
390.3867572879793
 30
0.0
 10
406.7946504542483
 20
390.6451775439758
 30
0.0
 10
406.8429619682035
 20
390.7496374618342
 30
0.0
 10
406.9095142218515
 20
390.8935377949086
 30
0.0
 10
406.9280454820908
 20
390.9336063782324
 30
0.0
 10
406.9295125247638
 20
390.9367784410508
 30
0.0
  0
SPLINE
  5
11E
330
1F
100
AcDbEntity
  8
0
  6
Continuous
 62
     7
370
    25
100
AcDbSpline
210
0.0
220
0.0
230
1.0
 70
     8
 71
     3
 72
    11
 73
     7
 74
     0
 42
0.00000001
 43
0.00000001
 40
0.0
 40
0.0
 40
0.0
 40
0.0
 40
0.2447219577794132
 40
0.484285937745161
 40
0.7447463733483112
 40
1.0
 40
1.0
 40
1.0
 40
1.0
 10
406.9295128954297
 20
390.9367785182785
 30
0.0
 10
407.9272172084267
 20
391.1800246291832
 30
0.0
 10
409.9015973302451
 20
391.6613899794415
 30
0.0
 10
412.7693238110349
 20
392.9294001523959
 30
0.0
 10
415.4592473135834
 20
394.6183759622533
 30
0.0
 10
417.1088081288765
 20
396.0167852743467
 30
0.0
 10
417.9252612979934
 20
396.7089305435576
 30
0.0
  0
LINE
  5
11F
330
1F
100
AcDbEntity
  8
0
  6
Continuous
 62
     7
370
    25
100
AcDbLine
 10
427.8798197912
 20
404.712640249
 30
0.0
 11
428.2084962662
 21
404.9336482645
 31
0.0
  0
SPLINE
  5
120
330
1F
100
AcDbEntity
  8
0
  6
Continuous
 62
     7
370
    25
100
AcDbSpline
210
0.0
220
0.0
230
1.0
 70
     8
 71
     3
 72
     8
 73
     4
 74
     0
 42
0.00000001
 43
0.00000001
 40
0.0
 40
0.0
 40
0.0
 40
0.0
 40
1.0
 40
1.0
 40
1.0
 40
1.0
 10
404.3464738305245
 20
385.3497139661789
 30
0.0
 10
404.3905232781694
 20
385.4462884923215
 30
0.0
 10
404.4344390264912
 20
385.5418911492505
 30
0.0
 10
404.4782025055
 20
385.6365172341784
 30
0.0
  0
SPLINE
  5
121
330
1F
100
AcDbEntity
  8
0
  6
Continuous
 62
     7
370
    25
100
AcDbSpline
210
0.0
220
0.0
230
1.0
 70
     8
 71
     3
 72
    14
 73
    10
 74
     0
 42
0.00000001
 43
0.00000001
 40
0.0
 40
0.0
 40
0.0
 40
0.0
 40
0.25
 40
0.25
 40
0.5
 40
0.5
 40
0.75
 40
0.75
 40
1.0
 40
1.0
 40
1.0
 40
1.0
 10
431.0725927901967
 20
402.9243466303643
 30
0.0
 10
431.1393525460447
 20
403.2843599557828
 30
0.0
 10
431.100471453978
 20
403.6633125309403
 30
0.0
 10
430.8235213771115
 20
404.3412245474193
 30
0.0
 10
430.5859361586668
 20
404.6389998366045
 30
0.0
 10
429.9864452626524
 20
405.0595672030678
 30
0.0
 10
429.6255867540486
 20
405.1816246485153
 30
0.0
 10
428.893887164294
 20
405.2113215995702
 30
0.0
 10
428.5243241894627
 20
405.11890923162
 30
0.0
 10
428.2085235531346
 20
404.9336082628719
 30
0.0
  0
SPLINE
  5
122
330
1F
100
AcDbEntity
  8
0
  6
Continuous
 62
     7
370
    25
100
AcDbSpline
210
0.0
220
0.0
230
1.0
 70
     8
 71
     3
 72
    31
 73
    27
 74
     0
 42
0.00000001
 43
0.00000001
 40
0.0
 40
0.0
 40
0.0
 40
0.0
 40
0.0417058875132413
 40
0.0834083644455809
 40
0.1251074308072056
 40
0.1668030866077734
 40
0.2084953318570275
 40
0.250184166565054
 40
0.2918695907414024
 40
0.3335516043961851
 40
0.3752302075391923
 40
0.416905400180216
 40
0.4585771823293231
 40
0.5002455539963149
 40
0.541910515191191
 40
0.5835720659237352
 40
0.6252302062038636
 40
0.6668849360415086
 40
0.7085362554466188
 40
0.7501841644290702
 40
0.7918286629986653
 40
0.8334697511653847
 40
0.8751074289389205
 40
0.9167416963294047
 40
0.9583725533465014
 40
1.0
 40
1.0
 40
1.0
 40
1.0
 10
442.559431371393
 20
304.8849168477211
 30
0.0
 10
442.5394043175244
 20
304.8417577237151
 30
0.0
 10
442.4993518475387
 20
304.7554430051255
 30
0.0
 10
442.4273152205457
 20
304.6320752056753
 30
0.0
 10
442.3470154173597
 20
304.5140512087762
 30
0.0
 10
442.2580140086039
 20
304.4024056622296
 30
0.0
 10
442.1610390725465
 20
304.2976475496867
 30
0.0
 10
442.0565625889795
 20
304.200379086597
 30
0.0
 10
441.9451778780294
 20
304.111125873455
 30
0.0
 10
441.8274944903644
 20
304.0303786529835
 30
0.0
 10
441.704162115011
 20
303.9585786824007
 30
0.0
 10
441.5758596798895
 20
303.896118538053
 30
0.0
 10
441.4432935611569
 20
303.8433391279613
 30
0.0
 10
441.3071931622874
 20
303.8005280787121
 30
0.0
 10
441.1683070325195
 20
303.7679181218741
 30
0.0
 10
441.0273987130028
 20
303.7456858725408
 30
0.0
 10
440.8852425210829
 20
303.7339508537303
 30
0.0
 10
440.7426193788295
 20
303.7327749985287
 30
0.0
 10
440.6003121897579
 20
303.7421618780052
 30
0.0
 10
440.4591027820644
 20
303.7620584494134
 30
0.0
 10
440.3197629833647
 20
303.7923489081406
 30
0.0
 10
440.1830676870079
 20
303.8328795085219
 30
0.0
 10
440.0497260574328
 20
303.8833693135212
 30
0.0
 10
439.9206185199246
 20
303.9437480834999
 30
0.0
 10
439.7958931081824
 20
304.0129017002872
 30
0.0
 10
439.7175069915959
 20
304.06654371643
 30
0.0
 10
439.678315538699
 20
304.0933636258796
 30
0.0
  0
LINE
  5
123
330
1F
100
AcDbEntity
  8
0
  6
Continuous
 62
     7
370
    25
100
AcDbLine
 10
439.6758470981
 20
304.1035736798
 30
0.0
 11
439.6780663134
 21
304.093061736
 31
0.0
  0
ARC
  5
124
330
1F
100
AcDbEntity
  8
0
  6
Continuous
 62
     7
370
    25
100
AcDbCircle
 10
440.7980685143
 20
305.6568143346
 30
0.0
 40
1.923076923711142
100
AcDbArc
 50
336.3351282962
 51
3.6430407664
  0
LINE
  5
125
330
1F
100
AcDbEntity
  8
0
  6
Continuous
 62
     7
370
    25
100
AcDbLine
 10
439.6780596569
 20
304.0930664187
 30
0.0
 11
439.1192927351
 21
304.5218578391
 31
0.0
  0
SPLINE
  5
126
330
1F
100
AcDbEntity
  8
0
  6
Continuous
 62
     7
370
    25
100
AcDbSpline
210
0.0
220
0.0
230
1.0
 70
     8
 71
     3
 72
    14
 73
    10
 74
     0
 42
0.00000001
 43
0.00000001
 40
0.0
 40
0.0
 40
0.0
 40
0.0
 40
0.1755110803715635
 40
0.3838969379491112
 40
0.5546781182048258
 40
0.7197967795714438
 40
0.8005216617370311
 40
0.8808936503254136
 40
1.0
 40
1.0
 40
1.0
 40
1.0
 10
427.3806714939292
 20
320.394874632037
 30
0.0
 10
426.9202723803757
 20
321.5845988148009
 30
0.0
 10
425.9132373284948
 20
324.1868930391893
 30
0.0
 10
424.5856587575087
 20
327.9948798216423
 30
0.0
 10
423.0326986628218
 20
331.6368841827113
 30
0.0
 10
421.4588168167619
 20
334.2507846806332
 30
0.0
 10
419.8766426390092
 20
336.0238624852601
 30
0.0
 10
418.3189032134225
 20
337.3543740235529
 30
0.0
 10
417.026645240774
 20
338.0237222512392
 30
0.0
 10
416.2550520377208
 20
338.4233828096494
 30
0.0
  0
SPLINE
  5
127
330
1F
100
AcDbEntity
  8
0
  6
Continuous
 62
     7
370
    25
100
AcDbSpline
210
0.0
220
0.0
230
1.0
 70
     8
 71
     3
 72
    12
 73
     8
 74
     0
 42
0.00000001
 43
0.00000001
 40
0.0
 40
0.0
 40
0.0
 40
0.0
 40
0.5000000000000001
 40
0.5000000000000001
 40
0.75
 40
0.75
 40
1.0
 40
1.0
 40
1.0
 40
1.0
 10
407.7485594994144
 20
340.4766611586616
 30
0.0
 10
409.2076681606591
 20
340.326974123451
 30
0.0
 10
410.6550562428329
 20
340.1140605764966
 30
0.0
 10
412.795820170271
 20
339.6311391420095
 30
0.0
 10
413.5062715085479
 20
339.441946552772
 30
0.0
 10
414.9030975449615
 20
338.9915842951873
 30
0.0
 10
415.5880437876891
 20
338.7310374414735
 30
0.0
 10
416.2550520364181
 20
338.4233827880963
 30
0.0
  0
SPLINE
  5
128
330
1F
100
AcDbEntity
  8
0
  6
Continuous
 62
     7
370
    25
100
AcDbSpline
210
0.0
220
0.0
230
1.0
 70
     8
 71
     3
 72
    18
 73
    14
 74
     0
 42
0.00000001
 43
0.00000001
 40
0.0
 40
0.0
 40
0.0
 40
0.0
 40
0.0891442144272544
 40
0.1787051628365084
 40
0.2686647444602648
 40
0.359002346287118
 40
0.4496919546947631
 40
0.5407050539678958
 40
0.6320173719638652
 40
0.7236140397181764
 40
0.8154871867425303
 40
0.9076245925397448
 40
1.0
 40
1.0
 40
1.0
 40
1.0
 10
407.7485595051629
 20
340.4766612150493
 30
0.0
 10
407.5190386367659
 20
340.499261132966
 30
0.0
 10
407.0589239291005
 20
340.544566619557
 30
0.0
 10
406.3661162659569
 20
340.6009663678802
 30
0.0
 10
405.6696552961641
 20
340.6497674175288
 30
0.0
 10
404.9697512176435
 20
340.6905786915525
 30
0.0
 10
404.2667404518406
 20
340.7241924442436
 30
0.0
 10
403.5609190864186
 20
340.7511126101829
 30
0.0
 10
402.8525434972165
 20
340.7718592020276
 30
0.0
 10
402.1417976137665
 20
340.7868509510432
 30
0.0
 10
401.428823915804
 20
340.7963000496251
 30
0.0
 10
400.7137856397707
 20
340.8009166516686
 30
0.0
 10
400.2364267680621
 20
340.8001907309755
 30
0.0
 10
399.9974394614337
 20
340.7998273024493
 30
0.0
  0
LINE
  5
129
330
1F
100
AcDbEntity
  8
0
  6
Continuous
 62
     7
370
    25
100
AcDbLine
 10
398.9518958493
 20
355.3163707298
 30
0.0
 11
398.9975106932
 21
340.7967627199
 31
0.0
  0
SPLINE
  5
12A
330
1F
100
AcDbEntity
  8
0
  6
Continuous
 62
     7
370
    25
100
AcDbSpline
210
0.0
220
0.0
230
1.0
 70
     8
 71
     3
 72
    16
 73
    12
 74
     0
 42
0.00000001
 43
0.00000001
 40
0.0
 40
0.0
 40
0.0
 40
0.0
 40
0.2500000000000028
 40
0.2500000000000028
 40
0.5000000000000057
 40
0.5000000000000057
 40
0.6250000000000031
 40
0.6250000000000031
 40
0.7500000000000004
 40
0.7500000000000004
 40
1.0
 40
1.0
 40
1.0
 40
1.0
 10
404.346228551311
 20
385.3491762061365
 30
0.0
 10
403.9780810912104
 20
384.5420243337673
 30
0.0
 10
403.6012718680812
 20
383.6685552931075
 30
0.0
 10
402.8502504176216
 20
381.7905860790217
 30
0.0
 10
402.475929806874
 20
380.7860971781193
 30
0.0
 10
401.9294564802985
 20
379.1738643491631
 30
0.0
 10
401.7501248771379
 20
378.6194547470275
 30
0.0
 10
401.4045493336964
 20
377.4936111602985
 30
0.0
 10
401.2375204385273
 20
376.9199193130012
 30
0.0
 10
400.7560435952346
 20
375.1661989677136
 30
0.0
 10
400.461166443147
 20
373.9537341624317
 30
0.0
 10
400.1987094402985
 20
372.694698698028
 30
0.0
  0
SPLINE
  5
12B
330
1F
100
AcDbEntity
  8
0
  6
Continuous
 62
     7
370
    25
100
AcDbSpline
210
0.0
220
0.0
230
1.0
 70
     8
 71
     3
 72
    18
 73
    14
 74
     0
 42
0.00000001
 43
0.00000001
 40
0.0
 40
0.0
 40
0.0
 40
0.0
 40
0.2500000000000046
 40
0.2500000000000046
 40
0.3750000000000046
 40
0.3750000000000046
 40
0.5000000000000047
 40
0.5000000000000047
 40
0.75
 40
0.75
 40
0.875
 40
0.875
 40
1.0
 40
1.0
 40
1.0
 40
1.0
 10
400.1987094402984
 20
372.694698698028
 30
0.0
 10
399.9442526580887
 20
371.2873798883037
 30
0.0
 10
399.7332554172905
 20
369.8508779910275
 30
0.0
 10
399.4793795222462
 20
367.6519892073894
 30
0.0
 10
399.4051146466147
 20
366.9116486509428
 30
0.0
 10
399.2759562121951
 20
365.4158626563215
 30
0.0
 10
399.2218682259306
 20
364.6695146929416
 30
0.0
 10
399.0867801844349
 20
362.4492848101168
 30
0.0
 10
399.0323225151556
 20
360.9879444450274
 30
0.0
 10
398.9827276233913
 20
358.8253726211407
 30
0.0
 10
398.971545200232
 20
358.107168676898
 30
0.0
 10
398.9568180091202
 20
356.6931897735645
 30
0.0
 10
398.9532413580056
 20
355.9985700522556
 30
0.0
 10
398.951895849319
 20
355.3163707298384
 30
0.0
  0
SPLINE
  5
12C
330
1F
100
AcDbEntity
  8
0
  6
Continuous
 62
     7
370
    25
100
AcDbSpline
210
0.0
220
0.0
230
1.0
 70
     8
 71
     3
 72
    20
 73
    16
 74
     0
 42
0.00000001
 43
0.00000001
 40
0.0
 40
0.0
 40
0.0
 40
0.0
 40
0.0769062552312214
 40
0.1805452836415734
 40
0.2335736785871473
 40
0.2866001721560655
 40
0.3401535490992426
 40
0.393710874719814
 40
0.4693671435413208
 40
0.54516975048184
 40
0.6970300664852317
 40
0.7724628132383916
 40
0.8479332265693381
 40
0.9237821881606672
 40
1.0
 40
1.0
 40
1.0
 40
1.0
 10
430.7088109925201
 20
400.4359500479246
 30
0.0
 10
430.3187756658044
 20
397.9993709912831
 30
0.0
 10
429.4031279271332
 20
392.2792529648127
 30
0.0
 10
428.9267946030153
 20
384.7877575419682
 30
0.0
 10
428.9001163450904
 20
378.0607112009956
 30
0.0
 10
429.1451042107696
 20
372.9443572509344
 30
0.0
 10
429.6558867108756
 20
367.8312550383577
 30
0.0
 10
430.5170665655864
 20
362.0304715359642
 30
0.0
 10
431.8174827285587
 20
355.5810647659426
 30
0.0
 10
434.1366402408522
 20
346.1311509452955
 30
0.0
 10
436.6996571709892
 20
336.7528851549301
 30
0.0
 10
439.1343461632426
 20
327.3510530784658
 30
0.0
 10
440.7853873846207
 20
320.2675882849487
 30
0.0
 10
442.0990752333763
 20
313.0790422662148
 30
0.0
 10
442.5109246847914
 20
308.2162940909794
 30
0.0
 10
442.7173488975627
 20
305.7790225090244
 30
0.0
  0
SPLINE
  5
12D
330
1F
100
AcDbEntity
  8
0
  6
Continuous
 62
     8
370
    18
100
AcDbSpline
210
0.0
220
0.0
230
1.0
 70
     8
 71
     3
 72
     8
 73
     4
 74
     0
 42
0.00000001
 43
0.00000001
 40
0.0
 40
0.0
 40
0.0
 40
0.0
 40
1.0
 40
1.0
 40
1.0
 40
1.0
 10
360.8896751894181
 20
422.6960184379183
 30
0.0
 10
361.3883897873417
 20
374.2866330116451
 30
0.0
 10
361.3883897873413
 20
325.8772475853719
 30
0.0
 10
360.8896751894173
 20
277.4678621590988
 30
0.0
  0
LINE
  5
12E
330
1F
100
AcDbEntity
  8
0
  6
Continuous
 62
     8
370
    18
100
AcDbLine
 10
361.2636664017
 20
422.9498342458
 30
0.0
 11
360.8896751894
 21
422.6960184379
 31
0.0
  0
SPLINE
  5
12F
330
1F
100
AcDbEntity
  8
0
  6
Continuous
 62
     8
370
    18
100
AcDbSpline
210
0.0
220
0.0
230
1.0
 70
    24
 71
     3
 72
     9
 73
     5
 74
     0
 42
0.00000001
 43
0.00000001
 40
0.0
 40
0.0
 40
0.0
 40
0.0
 40
0.999914152188638
 40
1.0
 40
1.0
 40
1.0
 40
1.0
 10
360.8896751894173
 20
277.4678621590996
 30
0.0
 10
361.1390024119868
 20
277.2986517917021
 30
0.0
 10
361.3883510405904
 20
277.1294268967178
 30
0.0
 10
361.2636751652796
 20
277.21404040368
 30
0.0
 10
361.2636644621285
 20
277.2140476675644
 30
0.0
  0
SPLINE
  5
130
330
1F
100
AcDbEntity
  8
0
  6
Continuous
 62
     8
370
    18
100
AcDbSpline
210
0.0
220
0.0
230
1.0
 70
     8
 71
     3
 72
    21
 73
    17
 74
     0
 42
0.00000001
 43
0.00000001
 40
0.0
 40
0.0
 40
0.0
 40
0.0
 40
0.0527015849062533
 40
0.1061218290191366
 40
0.1602636673748752
 40
0.2151299185912074
 40
0.2707232904326047
 40
0.3270463850640281
 40
0.3841017040108813
 40
0.4418916528422023
 40
0.5004185455963431
 40
0.6190205570882739
 40
0.7500271669228922
 40
0.8150462880618087
 40
0.8983758744118705
 40
1.0
 40
1.0
 40
1.0
 40
1.0
 10
359.427700536036
 20
424.1789534642639
 30
0.0
 10
359.4681548329639
 20
424.1769442684197
 30
0.0
 10
359.5496150772682
 20
424.1728984785591
 30
0.0
 10
359.6714930442852
 20
424.1541379780676
 30
0.0
 10
359.793088704554
 20
424.1257311923431
 30
0.0
 10
359.9134438913839
 20
424.0865555044794
 30
0.0
 10
360.0315818338803
 20
424.0367445881864
 30
0.0
 10
360.1464767050295
 20
423.9762035678393
 30
0.0
 10
360.2570699434212
 20
423.9050285137296
 30
0.0
 10
360.3622850330809
 20
423.8233868954181
 30
0.0
 10
360.4943690355287
 20
423.7005982809485
 30
0.0
 10
360.6447874564957
 20
423.5168751873097
 30
0.0
 10
360.7601060948468
 20
423.3032897780132
 30
0.0
 10
360.8320041995751
 20
423.1018440783778
 30
0.0
 10
360.8774471191431
 20
422.9152308745195
 30
0.0
 10
360.8853389610479
 20
422.7737539403558
 30
0.0
 10
360.889675189418
 20
422.6960184379179
 30
0.0
  0
SPLINE
  5
131
330
1F
100
AcDbEntity
  8
0
  6
Continuous
 62
     8
370
    18
100
AcDbSpline
210
0.0
220
0.0
230
1.0
 70
     8
 71
     3
 72
    21
 73
    17
 74
     0
 42
0.00000001
 43
0.00000001
 40
0.0
 40
0.0
 40
0.0
 40
0.0
 40
0.0527050586774202
 40
0.1061279071737282
 40
0.1602714805703938
 40
0.2151385976740251
 40
0.2707319665647616
 40
0.327054189838795
 40
0.3841077695544889
 40
0.4418951119053233
 40
0.5004185316340659
 40
0.61904101662565
 40
0.7500271579267901
 40
0.8150588969041536
 40
0.8983884788298293
 40
1.0
 40
1.0
 40
1.0
 40
1.0
 10
359.4277005360354
 20
275.9849271327515
 30
0.0
 10
359.4681575014797
 20
275.9869365226521
 30
0.0
 10
359.5496224154926
 20
275.99098266832
 30
0.0
 10
359.6715062097084
 20
276.0097450167347
 30
0.0
 10
359.7931054778801
 20
276.0381540092345
 30
0.0
 10
359.9134620792455
 20
276.0773318494293
 30
0.0
 10
360.0315993560871
 20
276.1271443437443
 30
0.0
 10
360.1464916812008
 20
276.1876858854105
 30
0.0
 10
360.2570807780726
 20
276.2588599421371
 30
0.0
 10
360.3622905090342
 20
276.340498641684
 30
0.0
 10
360.494382219287
 20
276.4632950482718
 30
0.0
 10
360.6447964363359
 20
276.6470189493652
 30
0.0
 10
360.7601159613589
 20
276.8606141044011
 30
0.0
 10
360.8320101313712
 20
277.0620549819258
 30
0.0
 10
360.877449319131
 20
277.248669050174
 30
0.0
 10
360.8853398974945
 20
277.3901363128074
 30
0.0
 10
360.8896751894173
 20
277.4678621590976
 30
0.0
  0
SPLINE
  5
132
330
1F
100
AcDbEntity
  8
0
  6
Continuous
 62
     8
370
    18
100
AcDbSpline
210
0.0
220
0.0
230
1.0
 70
     8
 71
     3
 72
    10
 73
     6
 74
     0
 42
0.00000001
 43
0.00000001
 40
0.0
 40
0.0
 40
0.0
 40
0.0
 40
0.4999510413259552
 40
0.9999215213104493
 40
1.0
 40
1.0
 40
1.0
 40
1.0
 10
359.427700536036
 20
424.1789534642635
 30
0.0
 10
359.5304651072606
 20
424.248706505172
 30
0.0
 10
359.7359982453119
 20
424.3882152990657
 30
0.0
 10
359.8343116948332
 20
424.4549507781988
 30
0.0
 10
359.8030334491282
 20
424.4337194907744
 30
0.0
 10
359.8030285402573
 20
424.4337161586933
 30
0.0
  0
SPLINE
  5
133
330
1F
100
AcDbEntity
  8
0
  6
Continuous
 62
     8
370
    18
100
AcDbSpline
210
0.0
220
0.0
230
1.0
 70
     8
 71
     3
 72
     9
 73
     5
 74
     0
 42
0.00000001
 43
0.00000001
 40
0.0
 40
0.0
 40
0.0
 40
0.0
 40
0.4999510989238383
 40
1.0
 40
1.0
 40
1.0
 40
1.0
 10
359.8030285636592
 20
275.7301644224387
 30
0.0
 10
359.7873979654501
 20
275.7407747236296
 30
0.0
 10
359.7561337113207
 20
275.7619974016348
 30
0.0
 10
359.5371853990026
 20
275.9106123774261
 30
0.0
 10
359.4277005360354
 20
275.984927132754
 30
0.0
  0
SPLINE
  5
134
330
1F
100
AcDbEntity
  8
0
  6
Continuous
 62
     8
370
    18
100
AcDbSpline
210
0.0
220
0.0
230
1.0
 70
     8
 71
     3
 72
    37
 73
    33
 74
     0
 42
0.00000001
 43
0.00000001
 40
0.0
 40
0.0
 40
0.0
 40
0.0
 40
0.0182940547797791
 40
0.0364713349902722
 40
0.0545095863788353
 40
0.072399508633133
 40
0.0901647266931425
 40
0.1078346389418674
 40
0.1254165415631625
 40
0.1758125171432646
 40
0.2251238268557813
 40
0.2510880326472471
 40
0.2767016129961566
 40
0.349721748172197
 40
0.4200682734932998
 40
0.4565728567413663
 40
0.4916675932185541
 40
0.5375558752160746
 40
0.5682792410837212
 40
0.6138341336658019
 40
0.6299824029060865
 40
0.6463624711521734
 40
0.6814693269959414
 40
0.7183582308819795
 40
0.7297172904804732
 40
0.8017707230354779
 40
0.8291634028489496
 40
0.8569928816355554
 40
0.8902675107011434
 40
0.9264797301779539
 40
0.9631861635624885
 40
1.0
 40
1.0
 40
1.0
 40
1.0
 10
424.6914511734669
 20
368.5481256374218
 30
0.0
 10
424.6512140014097
 20
368.8819227803367
 30
0.0
 10
424.5709964991213
 20
369.5473863729952
 30
0.0
 10
424.4631102787571
 20
370.5433417895071
 30
0.0
 10
424.364954778556
 20
371.5327969096895
 30
0.0
 10
424.2774105439067
 20
372.5156053479209
 30
0.0
 10
424.2001491740302
 20
373.4924253629389
 30
0.0
 10
424.1330783474208
 20
374.4642516433883
 30
0.0
 10
424.0404403365553
 20
376.035047008016
 30
0.0
 10
423.9565322107624
 20
378.1880841203466
 30
0.0
 10
423.9370945182096
 20
380.4952016978609
 30
0.0
 10
423.9657886436837
 20
382.3452309199059
 30
0.0
 10
424.0404653304988
 20
384.6268042391891
 30
0.0
 10
424.2443862055172
 20
387.7099447665259
 30
0.0
 10
424.6245262666971
 20
390.951025814441
 30
0.0
 10
425.0115866482984
 20
393.453418337684
 30
0.0
 10
425.3719981495491
 20
395.4758652390131
 30
0.0
 10
425.7526102347235
 20
397.3193933447354
 30
0.0
 10
426.19448155931
 20
399.1850573913057
 30
0.0
 10
426.5381497438602
 20
400.4456426728193
 30
0.0
 10
426.8182253068273
 20
401.3596254049484
 30
0.0
 10
427.0530313672056
 20
402.080352299327
 30
0.0
 10
427.3362334649367
 20
402.8695316978081
 30
0.0
 10
427.5540798686307
 20
403.4206318156329
 30
0.0
 10
427.8172371010795
 20
404.0607664498805
 30
0.0
 10
427.9806074395491
 20
404.4255591705841
 30
0.0
 10
428.091847184069
 20
404.6732302364817
 30
0.0
 10
428.1468705699515
 20
404.7950194804973
 30
0.0
 10
428.1844888651131
 20
404.8799472555746
 30
0.0
 10
428.2012060571714
 20
404.9217883041176
 30
0.0
 10
428.2086675084213
 20
404.9347439683726
 30
0.0
 10
428.2085534025346
 20
404.9340138546245
 30
0.0
 10
428.2084962662447
 20
404.9336482644524
 30
0.0
  0
SPLINE
  5
135
330
1F
100
AcDbEntity
  8
0
  6
Continuous
 62
     8
370
    18
100
AcDbSpline
210
0.0
220
0.0
230
1.0
 70
     8
 71
     3
 72
    22
 73
    18
 74
     0
 42
0.00000001
 43
0.00000001
 40
0.0
 40
0.0
 40
0.0
 40
0.0
 40
0.0203312863056448
 40
0.0410129167419665
 40
0.0620450714810561
 40
0.14309112089605
 40
0.2489533982133265
 40
0.3427500128088243
 40
0.4369367389638195
 40
0.5361696691480501
 40
0.6237398001481547
 40
0.7186121904242976
 40
0.8119158980685358
 40
0.857018075939936
 40
0.9057928350778739
 40
0.9447511269603448
 40
1.0
 40
1.0
 40
1.0
 40
1.0
 10
404.3463047386555
 20
385.3494070296761
 30
0.0
 10
404.3144203069091
 20
385.2525982010769
 30
0.0
 10
404.2501020180945
 20
385.0573123560232
 30
0.0
 10
404.1510128824701
 20
384.7535695080751
 30
0.0
 10
403.9525713063283
 20
384.1405610071726
 30
0.0
 10
403.6048171655015
 20
383.0489185118199
 30
0.0
 10
403.1232592559906
 20
381.4527880188302
 30
0.0
 10
402.6148303864125
 20
379.6584931724322
 30
0.0
 10
402.1296301007939
 20
377.8005079808124
 30
0.0
 10
401.6835755037048
 20
375.8876585229168
 30
0.0
 10
401.2780750440245
 20
373.8901910623573
 30
0.0
 10
400.9402637676719
 20
371.8677301199559
 30
0.0
 10
400.7098042962572
 20
370.1113964193229
 30
0.0
 10
400.5589050703693
 20
368.6845141060996
 30
0.0
 10
400.4640072743688
 20
367.6654562036632
 30
0.0
 10
400.3727766526989
 20
366.5644797049189
 30
0.0
 10
400.3155820260016
 20
365.8377954819122
 30
0.0
 10
400.2820395807792
 20
365.4116231795189
 30
0.0
  0
SPLINE
  5
136
330
1F
100
AcDbEntity
  8
0
  6
Continuous
 62
     8
370
    18
100
AcDbSpline
210
0.0
220
0.0
230
1.0
 70
     8
 71
     3
 72
    39
 73
    35
 74
     0
 42
0.00000001
 43
0.00000001
 40
0.0
 40
0.0
 40
0.0
 40
0.0
 40
0.0517389012720192
 40
0.0979544801958962
 40
0.1386160752689687
 40
0.1736880951628212
 40
0.2030700856825708
 40
0.2267896684445762
 40
0.2448610519493508
 40
0.2806026572933044
 40
0.306553989727133
 40
0.3415335111365473
 40
0.3705050480596478
 40
0.3902381038156101
 40
0.4189429311742149
 40
0.4559773088110874
 40
0.5014966105951938
 40
0.5251522717531614
 40
0.5494357825140596
 40
0.5744046238760845
 40
0.6001050180927338
 40
0.6265372038718832
 40
0.6536888702943345
 40
0.6815535625040002
 40
0.7101288915061482
 40
0.7394335741659509
 40
0.7694783172188479
 40
0.8002171492500824
 40
0.8316597780286747
 40
0.8638250260134456
 40
0.8967251802417119
 40
0.9303748213999703
 40
0.9647916227360336
 40
1.0
 40
1.0
 40
1.0
 40
1.0
 10
431.0725984622719
 20
402.9243772193112
 30
0.0
 10
431.0728997443411
 20
402.9250284864436
 30
0.0
 10
431.0734701454851
 20
402.9262614954921
 30
0.0
 10
431.0586203079999
 20
402.8936394487129
 30
0.0
 10
431.0140872516902
 20
402.7955820101857
 30
0.0
 10
430.9468457928357
 20
402.6468068283162
 30
0.0
 10
430.8620995428512
 20
402.4571566054674
 30
0.0
 10
430.7681352413782
 20
402.2439957327169
 30
0.0
 10
430.6387888005873
 20
401.9456836564131
 30
0.0
 10
430.4646102276706
 20
401.535775534181
 30
0.0
 10
430.1834609672329
 20
400.8464780696586
 30
0.0
 10
429.8517325807153
 20
399.9935772529249
 30
0.0
 10
429.4856458711928
 20
398.982114424206
 30
0.0
 10
429.1251674811191
 20
397.9182839515448
 30
0.0
 10
428.7177224734501
 20
396.6243025115267
 30
0.0
 10
428.2037836060368
 20
394.7891941404661
 30
0.0
 10
427.7648881152448
 20
392.9291756666117
 30
0.0
 10
427.4294295976831
 20
391.2519363807689
 30
0.0
 10
427.1959623221998
 20
389.9258487364771
 30
0.0
 10
426.9863949336838
 20
388.5491182604132
 30
0.0
 10
426.8029208016459
 20
387.1221953454046
 30
0.0
 10
426.6477150772289
 20
385.6464070586062
 30
0.0
 10
426.5227916365197
 20
384.1236613442142
 30
0.0
 10
426.4298959731419
 20
382.5557989379438
 30
0.0
 10
426.3705474861106
 20
380.9439413074414
 30
0.0
 10
426.3460885164272
 20
379.2889444666422
 30
0.0
 10
426.3577418174061
 20
377.5922494210005
 30
0.0
 10
426.4065808211133
 20
375.8553348907994
 30
0.0
 10
426.4934646972807
 20
374.0795092948837
 30
0.0
 10
426.6192991579218
 20
372.2649159353355
 30
0.0
 10
426.7847149400993
 20
370.4115582491385
 30
0.0
 10
426.9912675051331
 20
368.5195944672133
 30
0.0
 10
427.2366846307298
 20
366.5883077260742
 30
0.0
 10
427.4322831274478
 20
365.2905812385794
 30
0.0
 10
427.5311942656767
 20
364.6343410008395
 30
0.0
  0
SPLINE
  5
137
330
1F
100
AcDbEntity
  8
0
  6
Continuous
 62
     8
370
    18
100
AcDbSpline
210
0.0
220
0.0
230
1.0
 70
     8
 71
     3
 72
     8
 73
     4
 74
     0
 42
0.00000001
 43
0.00000001
 40
0.0
 40
0.0
 40
0.0
 40
0.0
 40
1.0
 40
1.0
 40
1.0
 40
1.0
 10
428.2278826964331
 20
360.6300176501604
 30
0.0
 10
427.9732321694504
 20
361.960266933131
 30
0.0
 10
427.7403559136424
 20
363.2937059197692
 30
0.0
 10
427.5311942907873
 20
364.6343410058226
 30
0.0
  0
SPLINE
  5
138
330
1F
100
AcDbEntity
  8
0
  6
Continuous
 62
     8
370
    18
100
AcDbSpline
210
0.0
220
0.0
230
1.0
 70
     8
 71
     3
 72
    11
 73
     7
 74
     0
 42
0.00000001
 43
0.00000001
 40
0.0
 40
0.0
 40
0.0
 40
0.0
 40
0.1875000000000001
 40
0.5000000000000001
 40
0.8125
 40
1.0
 40
1.0
 40
1.0
 40
1.0
 10
426.010750008111
 20
360.1625611298988
 30
0.0
 10
425.9146094873461
 20
360.6845480806321
 30
0.0
 10
425.6630449192829
 20
362.0776844033613
 30
0.0
 10
425.2800423904536
 20
364.3463341850696
 30
0.0
 10
424.939581174694
 20
366.6204222062603
 30
0.0
 10
424.7560827075421
 20
368.0222597121614
 30
0.0
 10
424.6913573102747
 20
368.5482625935894
 30
0.0
  0
SPLINE
  5
139
330
1F
100
AcDbEntity
  8
0
  6
Continuous
 62
     8
370
    18
100
AcDbSpline
210
0.0
220
0.0
230
1.0
 70
     8
 71
     3
 72
    23
 73
    19
 74
     0
 42
0.00000001
 43
0.00000001
 40
0.0
 40
0.0
 40
0.0
 40
0.0
 40
0.1301698891304558
 40
0.2574904415530851
 40
0.3834304995956183
 40
0.5069192781917689
 40
0.5671940957439529
 40
0.6262788557945057
 40
0.655161103631658
 40
0.6838697141676722
 40
0.712786487251397
 40
0.7424628886416782
 40
0.7732604934161167
 40
0.8052939564050502
 40
0.8388586037911376
 40
0.8735339534547042
 40
0.945142045313306
 40
1.0
 40
1.0
 40
1.0
 40
1.0
 10
428.2741565341772
 20
349.7751372321734
 30
0.0
 10
428.9388099159054
 20
347.1244489776837
 30
0.0
 10
430.2535678363752
 20
341.8810943614395
 30
0.0
 10
432.1648555337326
 20
334.0675211838667
 30
0.0
 10
434.0538429920044
 20
326.4059553662926
 30
0.0
 10
435.6572918588809
 20
320.1308987128008
 30
0.0
 10
436.8794246585512
 20
315.2796819070107
 30
0.0
 10
437.5830480960843
 20
312.3934949670128
 30
0.0
 10
438.0848622416793
 20
310.2771984080398
 30
0.0
 10
438.4276873345609
 20
308.8347682861514
 30
0.0
 10
438.739451928283
 20
307.5649097518714
 30
0.0
 10
439.0153985234813
 20
306.5033225408665
 30
0.0
 10
439.2455249587003
 20
305.6680813881738
 30
0.0
 10
439.4222909576901
 20
305.0501156363637
 30
0.0
 10
439.5432194200149
 20
304.6273853138175
 30
0.0
 10
439.6414767063749
 20
304.2662522896883
 30
0.0
 10
439.6733393879142
 20
304.1154818779956
 30
0.0
 10
439.6750884128018
 20
304.1071763986629
 30
0.0
 10
439.6758470980824
 20
304.1035736798199
 30
0.0
  0
SPLINE
  5
13A
330
1F
100
AcDbEntity
  8
0
  6
Continuous
 62
     8
370
    18
100
AcDbSpline
210
0.0
220
0.0
230
1.0
 70
    24
 71
     3
 72
    14
 73
    10
 74
     0
 42
0.00000001
 43
0.00000001
 40
0.0
 40
0.0
 40
0.0
 40
0.0
 40
0.25
 40
0.25
 40
0.5
 40
0.5
 40
0.75
 40
0.75
 40
1.0
 40
1.0
 40
1.0
 40
1.0
 10
399.9738995762083
 20
348.3139607679782
 30
0.0
 10
399.9776238726313
 20
347.1284842975157
 30
0.0
 10
399.980984137399
 20
346.0588823206272
 30
0.0
 10
399.9868442574431
 20
344.1935543130735
 30
0.0
 10
399.989343959696
 20
343.3978769911463
 30
0.0
 10
399.9933841962888
 20
342.1118339720476
 30
0.0
 10
399.9949246251274
 20
341.6215018569227
 30
0.0
 10
399.9969854331118
 20
340.9655284599963
 30
0.0
 10
399.9975057584446
 20
340.7999043074266
 30
0.0
 10
399.9975057584446
 20
340.7999043074266
 30
0.0
  0
SPLINE
  5
13B
330
1F
100
AcDbEntity
  8
0
  6
Continuous
 62
     8
370
    18
100
AcDbSpline
210
0.0
220
0.0
230
1.0
 70
    24
 71
     3
 72
     8
 73
     4
 74
     0
 42
0.00000001
 43
0.00000001
 40
0.0
 40
0.0
 40
0.0
 40
0.0
 40
1.0
 40
1.0
 40
1.0
 40
1.0
 10
399.9518909145209
 20
355.3195123173221
 30
0.0
 10
399.9600204322626
 20
352.7318149634392
 30
0.0
 10
399.9674999701263
 20
350.3510119499064
 30
0.0
 10
399.9738995762083
 20
348.3139607679782
 30
0.0
  0
SPLINE
  5
13C
330
1F
100
AcDbEntity
  8
0
  6
Continuous
 62
     8
370
    18
100
AcDbSpline
210
0.0
220
0.0
230
1.0
 70
     8
 71
     3
 72
     8
 73
     4
 74
     0
 42
0.00000001
 43
0.00000001
 40
0.0
 40
0.0
 40
0.0
 40
0.0
 40
1.0
 40
1.0
 40
1.0
 40
1.0
 10
399.9526298713111
 20
355.6171001411016
 30
0.0
 10
399.9523844723237
 20
355.5176113739553
 30
0.0
 10
399.9521381622687
 20
355.4184126076972
 30
0.0
 10
399.9518909145209
 20
355.3195123173221
 30
0.0
  0
SPLINE
  5
13D
330
1F
100
AcDbEntity
  8
0
  6
Continuous
 62
     8
370
    18
100
AcDbSpline
210
0.0
220
0.0
230
1.0
 70
     8
 71
     3
 72
    13
 73
     9
 74
     0
 42
0.00000001
 43
0.00000001
 40
0.0
 40
0.0
 40
0.0
 40
0.0
 40
0.1527545744785818
 40
0.3110729802589649
 40
0.4749560302884992
 40
0.6444044551068769
 40
0.8194189132408711
 40
1.0
 40
1.0
 40
1.0
 40
1.0
 10
399.9772470177668
 20
358.3944530733482
 30
0.0
 10
399.975074717802
 20
358.2502834894876
 30
0.0
 10
399.9706509954595
 20
357.9566931844689
 30
0.0
 10
399.9653265396699
 20
357.5118163003598
 30
0.0
 10
399.9607836795627
 20
357.0541665019476
 30
0.0
 10
399.9571545424622
 20
356.584584705641
 30
0.0
 10
399.9543297178876
 20
356.1031531284686
 30
0.0
 10
399.9532023694842
 20
355.7807998838726
 30
0.0
 10
399.9526298713111
 20
355.6171001411016
 30
0.0
  0
SPLINE
  5
13E
330
1F
100
AcDbEntity
  8
0
  6
Continuous
 62
     8
370
    18
100
AcDbSpline
210
0.0
220
0.0
230
1.0
 70
     8
 71
     3
 72
    17
 73
    13
 74
     0
 42
0.00000001
 43
0.00000001
 40
0.0
 40
0.0
 40
0.0
 40
0.0
 40
0.1204608559938722
 40
0.244232164680689
 40
0.3627070747531609
 40
0.4810842831520707
 40
0.5998874653418604
 40
0.7501436812437849
 40
0.8003087223015867
 40
0.8766049360565532
 40
0.9503112680759108
 40
1.0
 40
1.0
 40
1.0
 40
1.0
 10
428.27380809294
 20
349.7765165695827
 30
0.0
 10
428.1700397837948
 20
350.1905107056264
 30
0.0
 10
427.9596514501018
 20
351.029876183954
 30
0.0
 10
427.6584879137617
 20
352.2792956703947
 30
0.0
 10
427.368315561775
 20
353.5238193455542
 30
0.0
 10
427.092330898892
 20
354.7536151364476
 30
0.0
 10
426.8028302396351
 20
356.095847927788
 30
0.0
 10
426.5742440015043
 20
357.2039710371357
 30
0.0
 10
426.3800430710427
 20
358.1654336848559
 30
0.0
 10
426.248733224926
 20
358.8627172218431
 30
0.0
 10
426.1201286116992
 20
359.5588018760518
 30
0.0
 10
426.0392388471438
 20
359.9886838466519
 30
0.0
 10
426.0066661517868
 20
360.161788744964
 30
0.0
  0
SPLINE
  5
13F
330
1F
100
AcDbEntity
  8
0
  6
Continuous
 62
     8
370
    18
100
AcDbSpline
210
0.0
220
0.0
230
1.0
 70
     8
 71
     3
 72
    19
 73
    15
 74
     0
 42
0.00000001
 43
0.00000001
 40
0.0
 40
0.0
 40
0.0
 40
0.0
 40
0.2500000000000001
 40
0.2500000000000001
 40
0.5000000000000002
 40
0.5000000000000002
 40
0.7500000000000003
 40
0.7500000000000003
 40
0.8750000000000002
 40
0.8750000000000002
 40
0.937500000000004
 40
0.968750000000002
 40
0.968750000000002
 40
1.0
 40
1.0
 40
1.0
 40
1.0
 10
428.2284745112037
 20
360.6275842337046
 30
0.0
 10
428.3923112137306
 20
359.7735386373203
 30
0.0
 10
428.564710437203
 20
358.9221627438396
 30
0.0
 10
428.9276852101403
 20
357.219364642811
 30
0.0
 10
429.1173551018869
 20
356.3708024666549
 30
0.0
 10
429.5129488084856
 20
354.6761243148785
 30
0.0
 10
429.7187712901313
 20
353.8304531198302
 30
0.0
 10
430.0389141600987
 20
352.5642358628074
 30
0.0
 10
430.1475301318575
 20
352.1425445198018
 30
0.0
 10
430.3132236311686
 20
351.5105848225125
 30
0.0
 10
430.3967626750615
 20
351.194749927875
 30
0.0
 10
430.4813235390825
 20
350.879140050022
 30
0.0
 10
430.5379225809431
 20
350.6687848173115
 30
0.0
 10
430.5659750936076
 20
350.5649899844024
 30
0.0
 10
430.5948583913467
 20
350.4585071364967
 30
0.0
  0
SPLINE
  5
140
330
1F
100
AcDbEntity
  8
0
  6
Continuous
 62
     8
370
    18
100
AcDbSpline
210
0.0
220
0.0
230
1.0
 70
     8
 71
     3
 72
    18
 73
    14
 74
     0
 42
0.00000001
 43
0.00000001
 40
0.0
 40
0.0
 40
0.0
 40
0.0
 40
0.0687955242050884
 40
0.1385497863293376
 40
0.2092650035733411
 40
0.2809433038867465
 40
0.3535867305078212
 40
0.4271972462301926
 40
0.5017767374150881
 40
0.618991205629927
 40
0.7410964649672424
 40
0.8680978263142834
 40
1.0
 40
1.0
 40
1.0
 40
1.0
 10
400.2820395807792
 20
365.4116231795189
 30
0.0
 10
400.2695540530606
 20
365.2484573806601
 30
0.0
 10
400.2444089986751
 20
364.9198518960829
 30
0.0
 10
400.2100545091908
 20
364.4236452263117
 30
0.0
 10
400.1778103659537
 20
363.9209759531954
 30
0.0
 10
400.1479470505152
 20
363.4120681504015
 30
0.0
 10
400.1203896839407
 20
362.8971738074849
 30
0.0
 10
400.0951574651999
 20
362.3765556363512
 30
0.0
 10
400.0679782190602
 20
361.75255526898
 30
0.0
 10
400.0404591814612
 20
361.0174982305512
 30
0.0
 10
400.0144161827177
 20
360.165355303388
 30
0.0
 10
399.9927248063476
 20
359.2854259330513
 30
0.0
 10
399.982470979219
 20
358.6951683757812
 30
0.0
 10
399.9772470177668
 20
358.3944530733482
 30
0.0
  0
LINE
  5
141
330
1F
100
AcDbEntity
  8
0
  6
Continuous
 62
     8
370
    18
100
AcDbLine
 10
431.0726898022
 20
402.9243603319
 30
0.0
 11
430.7088109925
 21
400.4359500479
 31
0.0
  0
LINE
  5
142
330
1F
100
AcDbEntity
  8
0
  6
Continuous
 62
     8
370
    18
100
AcDbLine
 10
391.1429734856
 20
390.3819402985
 30
0.0
 11
391.1429734856
 21
341.3819402985
 31
0.0
  0
ENDSEC
  0
SECTION
  2
OBJECTS
  0
DICTIONARY
  5
C
330
0
100
AcDbDictionary
281
     1
  3
ACAD_GROUP
350
D
  3
ACAD_LAYOUT
350
1A
  3
ACAD_MLINESTYLE
350
17
  3
ACAD_PLOTSETTINGS
350
19
  3
ACAD_PLOTSTYLENAME
350
E
  3
ACAD_SCALELIST
350
47
  3
DWGPROPS
350
143
  0
DICTIONARY
  5
D
102
{ACAD_REACTORS
330
C
102
}
330
C
100
AcDbDictionary
281
     1
  0
DICTIONARY
  5
1A
102
{ACAD_REACTORS
330
C
102
}
330
C
100
AcDbDictionary
281
     1
  3
Layout1
350
1E
  3
Layout2
350
26
  3
Model
350
22
  0
DICTIONARY
  5
17
102
{ACAD_REACTORS
330
C
102
}
330
C
100
AcDbDictionary
281
     1
  3
Standard
350
18
  0
DICTIONARY
  5
19
102
{ACAD_REACTORS
330
C
102
}
330
C
100
AcDbDictionary
281
     1
  0
ACDBDICTIONARYWDFLT
  5
E
102
{ACAD_REACTORS
330
C
102
}
330
C
100
AcDbDictionary
281
     1
  3
Normal
350
F
100
AcDbDictionaryWithDefault
340
F
  0
DICTIONARY
  5
47
102
{ACAD_REACTORS
330
C
102
}
330
C
100
AcDbDictionary
281
     1
  3
A0
350
48
  3
A1
350
49
  3
A2
350
4A
  3
A3
350
4B
  3
A4
350
4C
  3
A5
350
4D
  3
A6
350
4E
  3
A7
350
4F
  3
A8
350
50
  3
A9
350
51
  3
B0
350
52
  3
B1
350
53
  3
B2
350
54
  3
B3
350
55
  3
B4
350
56
  3
B5
350
57
  3
B6
350
58
  0
XRECORD
  5
143
102
{ACAD_REACTORS
330
C
102
}
330
C
100
AcDbXrecord
280
     1
  1
DWGPROPS COOKIE
  2

  3

  4

  6

  7

  8
fue-task
  9

300
=
301
=
302
=
303
=
304
=
305
=
306
=
307
=
308
=
309
=
 40
0.0
 41
2460075.379405347
 42
2460075.379407164
  1

 90
        0
  0
LAYOUT
  5
1E
102
{ACAD_REACTORS
330
1A
102
}
330
1A
100
AcDbPlotSettings
  1

  2
none_device
  4

  6

 40
0.0
 41
0.0
 42
0.0
 43
0.0
 44
0.0
 45
0.0
 46
0.0
 47
0.0
 48
0.0
 49
0.0
140
0.0
141
0.0
142
1.0
143
1.0
 70
   688
 72
     1
 73
     0
 74
     5
  7

 75
    16
147
1.0
148
0.0
149
0.0
100
AcDbLayout
  1
Layout1
 70
     1
 71
     1
 10
0.0
 20
0.0
 11
420.0
 21
297.0
 12
0.0
 22
0.0
 32
0.0
 14
1.0000000000E+20
 24
1.0000000000E+20
 34
1.0000000000E+20
 15
-1.0000000000E+20
 25
-1.0000000000E+20
 35
-1.0000000000E+20
146
0.0
 13
0.0
 23
0.0
 33
0.0
 16
1.0
 26
0.0
 36
0.0
 17
0.0
 27
1.0
 37
0.0
 76
     0
330
1B
  0
LAYOUT
  5
26
102
{ACAD_REACTORS
330
1A
102
}
330
1A
100
AcDbPlotSettings
  1

  2
none_device
  4

  6

 40
0.0
 41
0.0
 42
0.0
 43
0.0
 44
0.0
 45
0.0
 46
0.0
 47
0.0
 48
0.0
 49
0.0
140
0.0
141
0.0
142
1.0
143
1.0
 70
   688
 72
     1
 73
     0
 74
     5
  7

 75
    16
147
1.0
148
0.0
149
0.0
100
AcDbLayout
  1
Layout2
 70
     1
 71
     2
 10
0.0
 20
0.0
 11
0.0
 21
0.0
 12
0.0
 22
0.0
 32
0.0
 14
0.0
 24
0.0
 34
0.0
 15
0.0
 25
0.0
 35
0.0
146
0.0
 13
0.0
 23
0.0
 33
0.0
 16
1.0
 26
0.0
 36
0.0
 17
0.0
 27
1.0
 37
0.0
 76
     0
330
23
  0
LAYOUT
  5
22
102
{ACAD_REACTORS
330
1A
102
}
330
1A
100
AcDbPlotSettings
  1

  2
none_device
  4
Letter_(8.50_x_11.00_Inches)
  6

 40
6.35
 41
6.35
 42
6.35000508
 43
6.35000508
 44
215.9
 45
279.4
 46
0.0
 47
0.0
 48
0.0
 49
0.0
140
0.0
141
0.0
142
1.0
143
1.0
 70
  1712
 72
     1
 73
     0
 74
     0
  7

 75
     0
147
1.0
148
0.0
149
0.0
100
AcDbLayout
  1
Model
 70
     1
 71
     0
 10
0.0
 20
0.0
 11
594.0
 21
841.0
 12
0.0
 22
0.0
 32
0.0
 14
0.0
 24
0.0
 34
0.0
 15
594.0
 25
841.0
 35
0.0
146
0.0
 13
0.0
 23
0.0
 33
0.0
 16
1.0
 26
0.0
 36
0.0
 17
0.0
 27
1.0
 37
0.0
 76
     0
330
1F
331
29
  0
MLINESTYLE
  5
18
102
{ACAD_REACTORS
330
17
102
}
330
17
100
AcDbMlineStyle
  2
Standard
 70
     0
  3

 62
   256
 51
90.0
 52
90.0
 71
     2
 49
0.5
 62
   256
  6
BYLAYER
 49
-0.5
 62
   256
  6
BYLAYER
  0
ACDBPLACEHOLDER
  5
F
102
{ACAD_REACTORS
330
E
102
}
330
E
  0
SCALE
  5
48
102
{ACAD_REACTORS
330
47
102
}
330
47
100
AcDbScale
 70
     0
300
1:1
140
1.0
141
1.0
290
     1
  0
SCALE
  5
49
102
{ACAD_REACTORS
330
47
102
}
330
47
100
AcDbScale
 70
     0
300
1:2
140
1.0
141
2.0
290
     0
  0
SCALE
  5
4A
102
{ACAD_REACTORS
330
47
102
}
330
47
100
AcDbScale
 70
     0
300
1:4
140
1.0
141
4.0
290
     0
  0
SCALE
  5
4B
102
{ACAD_REACTORS
330
47
102
}
330
47
100
AcDbScale
 70
     0
300
1:5
140
1.0
141
5.0
290
     0
  0
SCALE
  5
4C
102
{ACAD_REACTORS
330
47
102
}
330
47
100
AcDbScale
 70
     0
300
1:8
140
1.0
141
8.0
290
     0
  0
SCALE
  5
4D
102
{ACAD_REACTORS
330
47
102
}
330
47
100
AcDbScale
 70
     0
300
1:10
140
1.0
141
10.0
290
     0
  0
SCALE
  5
4E
102
{ACAD_REACTORS
330
47
102
}
330
47
100
AcDbScale
 70
     0
300
1:16
140
1.0
141
16.0
290
     0
  0
SCALE
  5
4F
102
{ACAD_REACTORS
330
47
102
}
330
47
100
AcDbScale
 70
     0
300
1:20
140
1.0
141
20.0
290
     0
  0
SCALE
  5
50
102
{ACAD_REACTORS
330
47
102
}
330
47
100
AcDbScale
 70
     0
300
1:30
140
1.0
141
30.0
290
     0
  0
SCALE
  5
51
102
{ACAD_REACTORS
330
47
102
}
330
47
100
AcDbScale
 70
     0
300
1:40
140
1.0
141
40.0
290
     0
  0
SCALE
  5
52
102
{ACAD_REACTORS
330
47
102
}
330
47
100
AcDbScale
 70
     0
300
1:50
140
1.0
141
50.0
290
     0
  0
SCALE
  5
53
102
{ACAD_REACTORS
330
47
102
}
330
47
100
AcDbScale
 70
     0
300
1:100
140
1.0
141
100.0
290
     0
  0
SCALE
  5
54
102
{ACAD_REACTORS
330
47
102
}
330
47
100
AcDbScale
 70
     0
300
2:1
140
2.0
141
1.0
290
     0
  0
SCALE
  5
55
102
{ACAD_REACTORS
330
47
102
}
330
47
100
AcDbScale
 70
     0
300
4:1
140
4.0
141
1.0
290
     0
  0
SCALE
  5
56
102
{ACAD_REACTORS
330
47
102
}
330
47
100
AcDbScale
 70
     0
300
8:1
140
8.0
141
1.0
290
     0
  0
SCALE
  5
57
102
{ACAD_REACTORS
330
47
102
}
330
47
100
AcDbScale
 70
     0
300
10:1
140
10.0
141
1.0
290
     0
  0
SCALE
  5
58
102
{ACAD_REACTORS
330
47
102
}
330
47
100
AcDbScale
 70
     0
300
100:1
140
100.0
141
1.0
290
     0
  0
ENDSEC
  0
EOF
