  0
SECTION
  2
HEADER
  9
$ACADVER
  1
AC1015
  9
$ACADMAINTVER
 70
     6
  9
$DWGCODEPAGE
  3
ANSI_1252
  9
$INSBASE
 10
0.0
 20
0.0
 30
0.0
  9
$EXTMIN
 10
0.0
 20
0.0
 30
0.0
  9
$EXTMAX
 10
594.0
 20
841.0
 30
0.0
  9
$LIMMIN
 10
0.0
 20
0.0
  9
$LIMMAX
 10
594.0
 20
841.0
  9
$ORTHOMODE
 70
     0
  9
$REGENMODE
 70
     1
  9
$FILLMODE
 70
     1
  9
$QTEXTMODE
 70
     0
  9
$MIRRTEXT
 70
     1
  9
$LTSCALE
 40
1.0
  9
$ATTMODE
 70
     1
  9
$TEXTSIZE
 40
10.0
  9
$TRACEWID
 40
1.0
  9
$TEXTSTYLE
  7
Standard
  9
$CLAYER
  8
0
  9
$CELTYPE
  6
ByLayer
  9
$CECOLOR
 62
   256
  9
$CELTSCALE
 40
1.0
  9
$DISPSILH
 70
     0
  9
$DIMSCALE
 40
1.0
  9
$DIMASZ
 40
2.5
  9
$DIMEXO
 40
0.0
  9
$DIMDLI
 40
3.75
  9
$DIMRND
 40
0.0
  9
$DIMDLE
 40
0.0
  9
$DIMEXE
 40
1.0
  9
$DIMTP
 40
0.0
  9
$DIMTM
 40
0.0
  9
$DIMTXT
 40
3.5
  9
$DIMCEN
 40
2.5
  9
$DIMTSZ
 40
0.0
  9
$DIMTOL
 70
     0
  9
$DIMLIM
 70
     0
  9
$DIMTIH
 70
     1
  9
$DIMTOH
 70
     1
  9
$DIMSE1
 70
     0
  9
$DIMSE2
 70
     0
  9
$DIMTAD
 70
     1
  9
$DIMZIN
 70
     0
  9
$DIMBLK
  1

  9
$DIMASO
 70
     1
  9
$DIMSHO
 70
     1
  9
$DIMPOST
  1

  9
$DIMAPOST
  1

  9
$DIMALT
 70
     0
  9
$DIMALTD
 70
     3
  9
$DIMALTF
 40
0.0393700787
  9
$DIMLFAC
 40
1.0
  9
$DIMTOFL
 70
     1
  9
$DIMTVP
 40
0.0
  9
$DIMTIX
 70
     0
  9
$DIMSOXD
 70
     0
  9
$DIMSAH
 70
     0
  9
$DIMBLK1
  1

  9
$DIMBLK2
  1

  9
$DIMSTYLE
  2
ISO-25
  9
$DIMCLRD
 70
     0
  9
$DIMCLRE
 70
     0
  9
$DIMCLRT
 70
     0
  9
$DIMTFAC
 40
1.0
  9
$DIMGAP
 40
1.5
  9
$DIMJUST
 70
     0
  9
$DIMSD1
 70
     0
  9
$DIMSD2
 70
     0
  9
$DIMTOLJ
 70
     0
  9
$DIMTZIN
 70
     0
  9
$DIMALTZ
 70
     0
  9
$DIMALTTZ
 70
     0
  9
$DIMUPT
 70
     0
  9
$DIMDEC
 70
     2
  9
$DIMTDEC
 70
     2
  9
$DIMALTU
 70
     2
  9
$DIMALTTD
 70
     3
  9
$DIMTXSTY
  7
Standard
  9
$DIMAUNIT
 70
     0
  9
$DIMADEC
 70
     2
  9
$DIMALTRND
 40
0.0
  9
$DIMAZIN
 70
     0
  9
$DIMDSEP
 70
    44
  9
$DIMATFIT
 70
     3
  9
$DIMFRAC
 70
     0
  9
$DIMLDRBLK
  1

  9
$DIMLUNIT
 70
     2
  9
$DIMLWD
 70
    -2
  9
$DIMLWE
 70
    -2
  9
$DIMTMOVE
 70
     0
  9
$LUNITS
 70
     2
  9
$LUPREC
 70
     2
  9
$SKETCHINC
 40
1.0
  9
$FILLETRAD
 40
10.0
  9
$AUNITS
 70
     0
  9
$AUPREC
 70
     2
  9
$MENU
  1
.
  9
$ELEVATION
 40
0.0
  9
$PELEVATION
 40
0.0
  9
$THICKNESS
 40
0.0
  9
$LIMCHECK
 70
     0
  9
$CHAMFERA
 40
0.0
  9
$CHAMFERB
 40
0.0
  9
$CHAMFERC
 40
0.0
  9
$CHAMFERD
 40
0.0
  9
$SKPOLY
 70
     0
  9
$TDCREATE
 40
2457996.585947396
  9
$TDUCREATE
 40
2457996.502614062
  9
$TDUPDATE
 40
2457996.585949745
  9
$TDUUPDATE
 40
2457996.502616412
  9
$TDINDWG
 40
0.0000000116
  9
$TDUSRTIMER
 40
0.0000000116
  9
$USRTIMER
 70
     1
  9
$ANGBASE
 50
0.0
  9
$ANGDIR
 70
     0
  9
$PDMODE
 70
     0
  9
$PDSIZE
 40
-1.0
  9
$PLINEWID
 40
0.0
  9
$SPLFRAME
 70
     0
  9
$SPLINETYPE
 70
     6
  9
$SPLINESEGS
 70
     8
  9
$HANDSEED
  5
1DE
  9
$SURFTAB1
 70
     6
  9
$SURFTAB2
 70
     6
  9
$SURFTYPE
 70
     6
  9
$SURFU
 70
     6
  9
$SURFV
 70
     6
  9
$UCSBASE
  2

  9
$UCSNAME
  2

  9
$UCSORG
 10
0.0
 20
0.0
 30
0.0
  9
$UCSXDIR
 10
1.0
 20
0.0
 30
0.0
  9
$UCSYDIR
 10
0.0
 20
1.0
 30
0.0
  9
$UCSORTHOREF
  2

  9
$UCSORTHOVIEW
 70
     0
  9
$UCSORGTOP
 10
0.0
 20
0.0
 30
0.0
  9
$UCSORGBOTTOM
 10
0.0
 20
0.0
 30
0.0
  9
$UCSORGLEFT
 10
0.0
 20
0.0
 30
0.0
  9
$UCSORGRIGHT
 10
0.0
 20
0.0
 30
0.0
  9
$UCSORGFRONT
 10
0.0
 20
0.0
 30
0.0
  9
$UCSORGBACK
 10
0.0
 20
0.0
 30
0.0
  9
$PUCSBASE
  2

  9
$PUCSNAME
  2

  9
$PUCSORG
 10
0.0
 20
0.0
 30
0.0
  9
$PUCSXDIR
 10
1.0
 20
0.0
 30
0.0
  9
$PUCSYDIR
 10
0.0
 20
1.0
 30
0.0
  9
$PUCSORTHOREF
  2

  9
$PUCSORTHOVIEW
 70
     0
  9
$PUCSORGTOP
 10
0.0
 20
0.0
 30
0.0
  9
$PUCSORGBOTTOM
 10
0.0
 20
0.0
 30
0.0
  9
$PUCSORGLEFT
 10
0.0
 20
0.0
 30
0.0
  9
$PUCSORGRIGHT
 10
0.0
 20
0.0
 30
0.0
  9
$PUCSORGFRONT
 10
0.0
 20
0.0
 30
0.0
  9
$PUCSORGBACK
 10
0.0
 20
0.0
 30
0.0
  9
$USERI1
 70
     0
  9
$USERI2
 70
     0
  9
$USERI3
 70
     0
  9
$USERI4
 70
     0
  9
$USERI5
 70
     0
  9
$USERR1
 40
0.0
  9
$USERR2
 40
0.0
  9
$USERR3
 40
0.0
  9
$USERR4
 40
0.0
  9
$USERR5
 40
0.0
  9
$WORLDVIEW
 70
     1
  9
$SHADEDGE
 70
     3
  9
$SHADEDIF
 70
    70
  9
$TILEMODE
 70
     1
  9
$MAXACTVP
 70
    64
  9
$PINSBASE
 10
0.0
 20
0.0
 30
0.0
  9
$PLIMCHECK
 70
     0
  9
$PEXTMIN
 10
1.0000000000E+20
 20
1.0000000000E+20
 30
1.0000000000E+20
  9
$PEXTMAX
 10
-1.0000000000E+20
 20
-1.0000000000E+20
 30
-1.0000000000E+20
  9
$PLIMMIN
 10
0.0
 20
0.0
  9
$PLIMMAX
 10
420.0
 20
297.0
  9
$UNITMODE
 70
     0
  9
$VISRETAIN
 70
     1
  9
$PLINEGEN
 70
     0
  9
$PSLTSCALE
 70
     1
  9
$TREEDEPTH
 70
  3020
  9
$CMLSTYLE
  2
Standard
  9
$CMLJUST
 70
     0
  9
$CMLSCALE
 40
20.0
  9
$PROXYGRAPHICS
 70
     1
  9
$MEASUREMENT
 70
     1
  9
$CELWEIGHT
370
    -1
  9
$ENDCAPS
280
     0
  9
$JOINSTYLE
280
     0
  9
$LWDISPLAY
290
     1
  9
$INSUNITS
 70
     4
  9
$HYPERLINKBASE
  1

  9
$STYLESHEET
  1

  9
$XEDIT
290
     1
  9
$CEPSNTYPE
380
     0
  9
$PSTYLEMODE
290
     1
  9
$FINGERPRINTGUID
  2
{B2C4F5F2-8102-4883-BFCB-61145EBAA6B4}
  9
$VERSIONGUID
  2
{FAEB1C32-E019-11D5-929B-00C0DF256EC4}
  9
$EXTNAMES
290
     1
  9
$PSVPSCALE
 40
0.0
  9
$OLESTARTUP
290
     0
  0
ENDSEC
  0
SECTION
  2
CLASSES
  0
CLASS
  1
ACDBDICTIONARYWDFLT
  2
AcDbDictionaryWithDefault
  3
ObjectDBX Classes
 90
        0
280
     0
281
     0
  0
CLASS
  1
VISUALSTYLE
  2
AcDbVisualStyle
  3
ObjectDBX Classes
 90
     4095
280
     0
281
     0
  0
CLASS
  1
MATERIAL
  2
AcDbMaterial
  3
ObjectDBX Classes
 90
     1153
280
     0
281
     0
  0
CLASS
  1
SCALE
  2
AcDbScale
  3
ObjectDBX Classes
 90
     1153
280
     0
281
     0
  0
CLASS
  1
TABLESTYLE
  2
AcDbTableStyle
  3
ObjectDBX Classes
 90
     4095
280
     0
281
     0
  0
CLASS
  1
MLEADERSTYLE
  2
AcDbMLeaderStyle
  3
ACDB_MLEADERSTYLE_CLASS
 90
     4095
280
     0
281
     0
  0
CLASS
  1
SUN
  2
AcDbSun
  3
SCENEOE
 90
     1153
280
     0
281
     0
  0
CLASS
  1
ACDBPLACEHOLDER
  2
AcDbPlaceHolder
  3
ObjectDBX Classes
 90
        0
280
     0
281
     0
  0
CLASS
  1
LAYOUT
  2
AcDbLayout
  3
ObjectDBX Classes
 90
        0
280
     0
281
     0
  0
ENDSEC
  0
SECTION
  2
TABLES
  0
TABLE
  2
VPORT
  5
8
330
0
100
AcDbSymbolTable
 70
     1
  0
VPORT
  5
29
330
8
100
AcDbSymbolTableRecord
100
AcDbViewportTableRecord
  2
*Active
 70
     0
 10
0.0
 20
0.0
 11
1.0
 21
1.0
 12
297.0
 22
420.5
 13
0.0
 23
0.0
 14
10.0
 24
10.0
 15
10.0
 25
10.0
 16
0.0
 26
0.0
 36
1.0
 17
0.0
 27
0.0
 37
0.0
 40
841.0
 41
0.7063020214
 42
50.0
 43
0.0
 44
0.0
 50
0.0
 51
0.0
 71
     0
 72
  2000
 73
     1
 74
     3
 75
     0
 76
     0
 77
     0
 78
     0
281
     0
 65
     1
110
0.0
120
0.0
130
0.0
111
1.0
121
0.0
131
0.0
112
0.0
122
1.0
132
0.0
 79
     0
146
0.0
  0
ENDTAB
  0
TABLE
  2
LTYPE
  5
5
330
0
100
AcDbSymbolTable
 70
     6
  0
LTYPE
  5
14
330
5
100
AcDbSymbolTableRecord
100
AcDbLinetypeTableRecord
  2
ByBlock
 70
     0
  3

 72
    65
 73
     0
 40
0.0
  0
LTYPE
  5
15
330
5
100
AcDbSymbolTableRecord
100
AcDbLinetypeTableRecord
  2
ByLayer
 70
     0
  3

 72
    65
 73
     0
 40
0.0
  0
LTYPE
  5
16
330
5
100
AcDbSymbolTableRecord
100
AcDbLinetypeTableRecord
  2
Continuous
 70
     0
  3
Solid line
 72
    65
 73
     0
 40
0.0
  0
LTYPE
  5
6E
330
5
100
AcDbSymbolTableRecord
100
AcDbLinetypeTableRecord
  2
HIDDEN
 70
     0
  3
Hidden __ __ __ __ __ __ __ __ __ __ __ __ __ __
 72
    65
 73
     2
 40
1.905
 49
1.27
 74
     0
 49
-0.635
 74
     0
  0
LTYPE
  5
6F
330
5
100
AcDbSymbolTableRecord
100
AcDbLinetypeTableRecord
  2
PHANTOM
 70
     0
  3
Phantom ______  __  __  ______  __  __  ______
 72
    65
 73
     6
 40
12.7
 49
6.35
 74
     0
 49
-1.27
 74
     0
 49
1.27
 74
     0
 49
-1.27
 74
     0
 49
1.27
 74
     0
 49
-1.27
 74
     0
  0
LTYPE
  5
70
330
5
100
AcDbSymbolTableRecord
100
AcDbLinetypeTableRecord
  2
CENTER
 70
     0
  3
Center ____ _ ____ _ ____ _ ____ _ ____ _ ____
 72
    65
 73
     4
 40
10.16
 49
6.35
 74
     0
 49
-1.27
 74
     0
 49
1.27
 74
     0
 49
-1.27
 74
     0
  0
LTYPE
  5
71
330
5
100
AcDbSymbolTableRecord
100
AcDbLinetypeTableRecord
  2
CENTERX2
 70
     0
  3
Center (2x) ________  __  ________  __  _____
 72
    65
 73
     4
 40
20.32
 49
12.7
 74
     0
 49
-2.54
 74
     0
 49
2.54
 74
     0
 49
-2.54
 74
     0
  0
LTYPE
  5
72
330
5
100
AcDbSymbolTableRecord
100
AcDbLinetypeTableRecord
  2
DOT2
 70
     0
  3
Dot (.5x) ........................................
 72
    65
 73
     2
 40
0.635
 49
0.0
 74
     0
 49
-0.635
 74
     0
  0
ENDTAB
  0
TABLE
  2
LAYER
  5
2
330
0
100
AcDbSymbolTable
 70
     1
  0
LAYER
  5
10
330
2
100
AcDbSymbolTableRecord
100
AcDbLayerTableRecord
  2
0
 70
     0
 62
     7
  6
Continuous
370
    -3
390
F
  0
ENDTAB
  0
TABLE
  2
STYLE
  5
3
330
0
100
AcDbSymbolTable
 70
     3
  0
STYLE
  5
11
330
3
100
AcDbSymbolTableRecord
100
AcDbTextStyleTableRecord
  2
Standard
 70
     0
 40
0.0
 41
1.0
 50
0.0
 71
     0
 42
10.0
  3
txt
  4

  0
STYLE
  5
76
330
3
100
AcDbSymbolTableRecord
100
AcDbTextStyleTableRecord
  2
SLDTEXTSTYLE0
 70
     0
 40
0.0
 41
0.96
 50
0.0
 71
     0
 42
10.0
  3
ISOCP3
  4

  0
STYLE
  5
8D
330
3
100
AcDbSymbolTableRecord
100
AcDbTextStyleTableRecord
  2
SLDTEXTSTYLE1
 70
     0
 40
0.0
 41
0.605
 50
0.0
 71
     0
 42
10.0
  3
TXT
  4

  0
ENDTAB
  0
TABLE
  2
VIEW
  5
6
330
0
100
AcDbSymbolTable
 70
     0
  0
ENDTAB
  0
TABLE
  2
UCS
  5
7
330
0
100
AcDbSymbolTable
 70
     0
  0
ENDTAB
  0
TABLE
  2
APPID
  5
9
330
0
100
AcDbSymbolTable
 70
     1
  0
APPID
  5
12
330
9
100
AcDbSymbolTableRecord
100
AcDbRegAppTableRecord
  2
ACAD
 70
     0
  0
ENDTAB
  0
TABLE
  2
DIMSTYLE
  5
A
330
0
100
AcDbSymbolTable
 70
     2
100
AcDbDimStyleTable
  0
DIMSTYLE
105
27
330
A
100
AcDbSymbolTableRecord
100
AcDbDimStyleTableRecord
  2
ISO-25
 70
     0
 41
2.5
 42
0.625
 43
3.75
 44
1.25
 73
     0
 74
     0
 77
     1
 78
     8
140
2.5
141
2.5
143
0.0393700787
147
0.625
171
     3
172
     1
178
     0
271
     2
272
     2
274
     3
278
    44
283
     0
284
     8
340
11
  0
DIMSTYLE
105
77
102
{ACAD_REACTORS
330
75
330
82
102
}
330
A
100
AcDbSymbolTableRecord
100
AcDbDimStyleTableRecord
  2
SLDDIMSTYLE0
 70
     0
 41
2.5
 44
0.0
 45
0.000000001
 73
     0
 74
     0
 77
     1
 78
    12
 79
     3
140
6.0
147
1.5
173
     1
178
     0
271
     2
272
     2
276
     2
284
    12
340
76
  0
ENDTAB
  0
TABLE
  2
BLOCK_RECORD
  5
1
330
0
100
AcDbSymbolTable
 70
     3
  0
BLOCK_RECORD
  5
1F
330
1
100
AcDbSymbolTableRecord
100
AcDbBlockTableRecord
  2
*Model_Space
340
22
  0
BLOCK_RECORD
  5
1B
330
1
100
AcDbSymbolTableRecord
100
AcDbBlockTableRecord
  2
*Paper_Space
340
1E
  0
BLOCK_RECORD
  5
23
330
1
100
AcDbSymbolTableRecord
100
AcDbBlockTableRecord
  2
*Paper_Space0
340
26
  0
BLOCK_RECORD
  5
78
330
1
100
AcDbSymbolTableRecord
100
AcDbBlockTableRecord
  2
_D
340
0
  0
BLOCK_RECORD
  5
83
330
1
100
AcDbSymbolTableRecord
100
AcDbBlockTableRecord
  2
_D_1
340
0
  0
ENDTAB
  0
ENDSEC
  0
SECTION
  2
BLOCKS
  0
BLOCK
  5
20
330
1F
100
AcDbEntity
  8
0
100
AcDbBlockBegin
  2
*Model_Space
 70
     0
 10
0.0
 20
0.0
 30
0.0
  3
*Model_Space
  1

  0
ENDBLK
  5
21
330
1F
100
AcDbEntity
  8
0
100
AcDbBlockEnd
  0
BLOCK
  5
1C
330
1B
100
AcDbEntity
 67
     1
  8
0
100
AcDbBlockBegin
  2
*Paper_Space
 70
     0
 10
0.0
 20
0.0
 30
0.0
  3
*Paper_Space
  1

  0
ENDBLK
  5
1D
330
1B
100
AcDbEntity
 67
     1
  8
0
100
AcDbBlockEnd
  0
BLOCK
  5
24
330
23
100
AcDbEntity
  8
0
100
AcDbBlockBegin
  2
*Paper_Space0
 70
     0
 10
0.0
 20
0.0
 30
0.0
  3
*Paper_Space0
  1

  0
ENDBLK
  5
25
330
23
100
AcDbEntity
  8
0
100
AcDbBlockEnd
  0
BLOCK
  5
79
330
78
100
AcDbEntity
  8
0
100
AcDbBlockBegin
  2
_D
 70
     0
 10
0.0
 20
0.0
 30
0.0
  3
_D
  1

  0
SOLID
  5
7B
330
78
100
AcDbEntity
  8
0
  6
Continuous
 62
     7
370
    18
100
AcDbTrace
 10
42.7614395004
 20
152.0299240879
 30
0.0
 11
42.4614395004
 21
149.5299240879
 31
0.0
 12
43.0614395004
 22
149.5299240879
 32
0.0
 13
43.0614395004
 23
149.5299240879
 33
0.0
  0
SOLID
  5
7C
330
78
100
AcDbEntity
  8
0
  6
Continuous
 62
     7
370
    18
100
AcDbTrace
 10
42.7614395004
 20
52.0299240879
 30
0.0
 11
43.0614395004
 21
54.5299240879
 31
0.0
 12
42.4614395004
 22
54.5299240879
 32
0.0
 13
42.4614395004
 23
54.5299240879
 33
0.0
  0
LINE
  5
7D
330
78
100
AcDbEntity
  8
0
  6
Continuous
 62
     7
370
    18
100
AcDbLine
 10
56.6850079902
 20
152.0299240879
 30
0.0
 11
41.7614395004
 21
152.0299240879
 31
0.0
  0
LINE
  5
7E
330
78
100
AcDbEntity
  8
0
  6
Continuous
 62
     7
370
    18
100
AcDbLine
 10
56.6850079902
 20
52.0299240879
 30
0.0
 11
41.7614395004
 21
52.0299240879
 31
0.0
  0
LINE
  5
7F
330
78
100
AcDbEntity
  8
0
  6
Continuous
 62
     7
370
    18
100
AcDbLine
 10
42.7614395004
 20
152.0299240879
 30
0.0
 11
42.7614395004
 21
52.0299240879
 31
0.0
  0
MTEXT
  5
80
330
78
100
AcDbEntity
  8
0
  6
Continuous
 62
     7
370
    18
100
AcDbMText
 10
35.0270332946
 20
94.3680541463
 30
0.0
 40
6.0
 41
0.0
 71
     1
 72
     1
  1
100
  7
SLDTEXTSTYLE0
 11
-7.044195017643634E-15
 21
1.0
 31
0.0
 73
     1
 44
1.0
  0
MTEXT
  5
81
330
78
100
AcDbEntity
  8
0
  6
Continuous
 62
     7
370
    18
100
AcDbMText
 10
35.0270332946
 20
105.7430548466
 30
0.0
 40
6.0
 41
0.0
 71
     1
 72
     1
  1
mm
  7
SLDTEXTSTYLE0
 11
-7.044195017643634E-15
 21
1.0
 31
0.0
 73
     1
 44
1.0
  0
ENDBLK
  5
7A
330
78
100
AcDbEntity
  8
0
100
AcDbBlockEnd
  0
BLOCK
  5
84
330
83
100
AcDbEntity
  8
0
100
AcDbBlockBegin
  2
_D_1
 70
     0
 10
0.0
 20
0.0
 30
0.0
  3
_D_1
  1

  0
SOLID
  5
86
330
83
100
AcDbEntity
  8
0
  6
Continuous
 62
     7
370
    18
100
AcDbTrace
 10
56.6850079902
 20
38.4602342313
 30
0.0
 11
59.1850079902
 21
38.1602342313
 31
0.0
 12
59.1850079902
 22
38.7602342313
 32
0.0
 13
59.1850079902
 23
38.7602342313
 33
0.0
  0
SOLID
  5
87
330
83
100
AcDbEntity
  8
0
  6
Continuous
 62
     7
370
    18
100
AcDbTrace
 10
156.6850079902
 20
38.4602342313
 30
0.0
 11
154.1850079902
 21
38.7602342313
 31
0.0
 12
154.1850079902
 22
38.1602342313
 32
0.0
 13
154.1850079902
 23
38.1602342313
 33
0.0
  0
LINE
  5
88
330
83
100
AcDbEntity
  8
0
  6
Continuous
 62
     7
370
    18
100
AcDbLine
 10
56.6850079902
 20
52.0299240879
 30
0.0
 11
56.6850079902
 21
37.4602342313
 31
0.0
  0
LINE
  5
89
330
83
100
AcDbEntity
  8
0
  6
Continuous
 62
     7
370
    18
100
AcDbLine
 10
156.6850079902
 20
52.0299240879
 30
0.0
 11
156.6850079902
 21
37.4602342313
 31
0.0
  0
LINE
  5
8A
330
83
100
AcDbEntity
  8
0
  6
Continuous
 62
     7
370
    18
100
AcDbLine
 10
56.6850079902
 20
38.4602342313
 30
0.0
 11
156.6850079902
 21
38.4602342313
 31
0.0
  0
MTEXT
  5
8B
330
83
100
AcDbEntity
  8
0
  6
Continuous
 62
     7
370
    18
100
AcDbMText
 10
93.9626484861
 20
46.1946404371
 30
0.0
 40
6.0
 41
0.0
 71
     1
 72
     1
  1
100
  7
SLDTEXTSTYLE0
 73
     1
 44
1.0
  0
MTEXT
  5
8C
330
83
100
AcDbEntity
  8
0
  6
Continuous
 62
     7
370
    18
100
AcDbMText
 10
105.3376491864
 20
46.1946404371
 30
0.0
 40
6.0
 41
0.0
 71
     1
 72
     1
  1
mm
  7
SLDTEXTSTYLE0
 73
     1
 44
1.0
  0
ENDBLK
  5
85
330
83
100
AcDbEntity
  8
0
100
AcDbBlockEnd
  0
ENDSEC
  0
SECTION
  2
ENTITIES
  0
LINE
  5
73
330
1F
100
AcDbEntity
  8
0
  6
Continuous
 62
     7
370
    18
100
AcDbLine
 10
56.6850079902
 20
152.0299240879
 30
0.0
 11
56.6850079902
 21
52.0299240879
 31
0.0
  0
LINE
  5
74
330
1F
100
AcDbEntity
  8
0
  6
Continuous
 62
     7
370
    18
100
AcDbLine
 10
56.6850079902
 20
52.0299240879
 30
0.0
 11
156.6850079902
 21
52.0299240879
 31
0.0
  0
DIMENSION
  5
75
330
1F
100
AcDbEntity
  8
0
  6
Continuous
 62
     7
370
    18
100
AcDbDimension
  2
_D
 10
42.7614395004
 20
52.0299240879
 30
0.0
 11
42.7614395004
 21
105.4472211621
 31
0.0
 70
   160
  1
<>mm
 71
     2
 42
-1.0
  3
SLDDIMSTYLE0
100
AcDbAlignedDimension
 13
56.6850079902
 23
152.0299240879
 33
0.0
 14
56.6850079902
 24
52.0299240879
 34
0.0
 50
90.0
100
AcDbRotatedDimension
  0
DIMENSION
  5
82
330
1F
100
AcDbEntity
  8
0
  6
Continuous
 62
     7
370
    18
100
AcDbDimension
  2
_D_1
 10
156.6850079902
 20
38.4602342313
 30
0.0
 11
105.0418155019
 21
38.4602342313
 31
0.0
 70
   160
  1
<>mm
 71
     2
 42
-1.0
  3
SLDDIMSTYLE0
100
AcDbAlignedDimension
 13
56.6850079902
 23
52.0299240879
 33
0.0
 14
156.6850079902
 24
52.0299240879
 34
0.0
100
AcDbRotatedDimension
  0
MTEXT
  5
8E
330
1F
100
AcDbEntity
  8
0
  6
Continuous
 62
     7
370
     0
100
AcDbMText
 10
412.8252631579
 20
48.4342449499
 30
0.0
 40
10.0
 41
0.0
 71
     1
 72
     1
  1
KLUDI GmbH & Co KG
  7
SLDTEXTSTYLE1
 73
     1
 44
1.0
  0
MTEXT
  5
8F
330
1F
100
AcDbEntity
  8
0
  6
Continuous
 62
     7
370
     0
100
AcDbMText
 10
210.0873490389
 20
48.4342449499
 30
0.0
 40
10.0
 41
0.0
 71
     1
 72
     1
  1
40 292 05 75
  7
SLDTEXTSTYLE1
 73
     1
 44
1.0
  0
SPLINE
  5
90
330
1F
100
AcDbEntity
  8
0
  6
Continuous
 62
     7
370
    25
100
AcDbSpline
210
0.0
220
0.0
230
1.0
 70
     8
 71
     3
 72
     9
 73
     5
 74
     0
 42
0.000000001
 43
0.00000001
 40
0.0
 40
0.0
 40
0.0
 40
0.0
 40
0.5000044164742602
 40
1.0
 40
1.0
 40
1.0
 40
1.0
 10
378.0634376617089
 20
298.9296853431094
 30
0.0
 10
378.1950860024504
 20
303.9920270267191
 30
0.0
 10
378.4583803582678
 20
314.1166209639217
 30
0.0
 10
378.497375265074
 20
324.2414831947301
 30
0.0
 10
378.5168725462571
 20
329.3038695939409
 30
0.0
  0
SPLINE
  5
91
330
1F
100
AcDbEntity
  8
0
  6
Continuous
 62
     7
370
    25
100
AcDbSpline
210
0.0
220
0.0
230
1.0
 70
     8
 71
     3
 72
    19
 73
    15
 74
     0
 42
0.000000001
 43
0.00000001
 40
0.0
 40
0.0
 40
0.0
 40
0.0
 40
0.1473621207670681
 40
0.2810988007055467
 40
0.3361019456570908
 40
0.3811300664792486
 40
0.4011799048334272
 40
0.4211292648859875
 40
0.4648337736849885
 40
0.5174251804384705
 40
0.5795233859275845
 40
0.7272521231966335
 40
0.8931283908897251
 40
1.0
 40
1.0
 40
1.0
 40
1.0
 10
336.3903957815781
 20
454.6531379111635
 30
0.0
 10
336.3458024456456
 20
454.4298889893768
 30
0.0
 10
336.260738976249
 20
454.0040332549017
 30
0.0
 10
336.1749273346737
 20
453.395396148649
 30
0.0
 10
336.0976941863681
 20
452.7688579281942
 30
0.0
 10
336.0382996734376
 20
452.311714272111
 30
0.0
 10
335.9762406045797
 20
451.8996793104091
 30
0.0
 10
335.9050986998014
 20
451.4671465550223
 30
0.0
 10
335.7941573176708
 20
450.8723996473334
 30
0.0
 10
335.6422712218904
 20
450.1566916284781
 30
0.0
 10
335.3919747090548
 20
449.0751471292451
 30
0.0
 10
335.0458224038672
 20
447.6687900501035
 30
0.0
 10
334.7008227027832
 20
446.1761253379233
 30
0.0
 10
334.5066971177298
 20
445.095786588681
 30
0.0
 10
334.4306323142663
 20
444.6724742539751
 30
0.0
  0
SPLINE
  5
92
330
1F
100
AcDbEntity
  8
0
  6
Continuous
 62
     7
370
    25
100
AcDbSpline
210
0.0
220
0.0
230
1.0
 70
     8
 71
     3
 72
    17
 73
    13
 74
     0
 42
0.000000001
 43
0.00000001
 40
0.0
 40
0.0
 40
0.0
 40
0.0
 40
0.3394265501075722
 40
0.4470781905077165
 40
0.4650577753831468
 40
0.4804424364156971
 40
0.4945538980015298
 40
0.5088223026042187
 40
0.5244101162168102
 40
0.5843363507750683
 40
0.6982184386041246
 40
0.9999999999999999
 40
0.9999999999999999
 40
0.9999999999999999
 40
0.9999999999999999
 10
337.7088095458165
 20
455.8263510354387
 30
0.0
 10
337.5743700102047
 20
455.8031774478091
 30
0.0
 10
337.3972919817034
 20
455.7726541854959
 30
0.0
 10
337.1307905553701
 20
455.6420348377563
 30
0.0
 10
336.9992472615682
 20
455.5522550934394
 30
0.0
 10
336.9477587083222
 20
455.5137883339105
 30
0.0
 10
336.8970581991398
 20
455.4725548618489
 30
0.0
 10
336.8485859111622
 20
455.4296300606171
 30
0.0
 10
336.7625325743238
 20
455.3468919670324
 30
0.0
 10
336.642320135713
 20
455.2056076895202
 30
0.0
 10
336.4705447867592
 20
454.9373610552226
 30
0.0
 10
336.4189993518614
 20
454.7479488720463
 30
0.0
 10
336.3815761567965
 20
454.610431183182
 30
0.0
  0
SPLINE
  5
93
330
1F
100
AcDbEntity
  8
0
  6
Continuous
 62
     7
370
    25
100
AcDbSpline
210
0.0
220
0.0
230
1.0
 70
     8
 71
     3
 72
     9
 73
     5
 74
     0
 42
0.000000001
 43
0.00000001
 40
0.0
 40
0.0
 40
0.0
 40
0.0
 40
0.498856322706122
 40
0.9999999999999999
 40
0.9999999999999999
 40
0.9999999999999999
 40
0.9999999999999999
 10
443.2795524062529
 20
455.7190924771654
 30
0.0
 10
443.2800141173605
 20
455.7361593280292
 30
0.0
 10
443.280939656612
 20
455.7703712846327
 30
0.0
 10
443.2798021070552
 20
455.8051214916445
 30
0.0
 10
443.2792320312873
 20
455.8225363381731
 30
0.0
  0
ARC
  5
94
330
1F
100
AcDbEntity
  8
0
  6
Continuous
 62
     7
370
    25
100
AcDbCircle
 10
355.2996353434
 20
420.5895881875
 30
0.0
 40
21.64486082191341
100
AcDbArc
 50
144.9802476932
 51
170.9531540197
  0
ARC
  5
95
330
1F
100
AcDbEntity
  8
0
  6
Continuous
 62
     7
370
    25
100
AcDbCircle
 10
355.2996353434
 20
420.5895881875
 30
0.0
 40
21.64486082191334
100
AcDbArc
 50
9.0468459803
 51
9.5739963405
  0
SPLINE
  5
96
330
1F
100
AcDbEntity
  8
0
  6
Continuous
 62
     7
370
    25
100
AcDbSpline
210
0.0
220
0.0
230
1.0
 70
     8
 71
     3
 72
    13
 73
     9
 74
     0
 42
0.000000001
 43
0.00000001
 40
0.0
 40
0.0
 40
0.0
 40
0.0
 40
0.2961533870898918
 40
0.5530169382226002
 40
0.6682030111214161
 40
0.7775642924935112
 40
0.8860869418105327
 40
1.0
 40
1.0
 40
1.0
 40
1.0
 10
439.8756354512587
 20
452.20669506868
 30
0.0
 10
440.3660066155984
 20
452.3330503505843
 30
0.0
 10
441.2816927826908
 20
452.5689977149335
 30
0.0
 10
442.1856169558989
 20
453.2039927878259
 30
0.0
 10
442.7074870768673
 20
453.8698505755955
 30
0.0
 10
442.9848805063903
 20
454.4348449920903
 30
0.0
 10
443.1653071023529
 20
455.0799988329737
 30
0.0
 10
443.1959976999258
 20
455.5369999729982
 30
0.0
 10
443.211714869918
 20
455.7710379250872
 30
0.0
  0
LINE
  5
97
330
1F
100
AcDbEntity
  8
0
  6
Continuous
 62
     7
370
    25
100
AcDbLine
 10
333.7996351929
 20
422.4206521996
 30
0.0
 11
333.7996351929
 21
421.1144462117
 31
0.0
  0
LINE
  5
98
330
1F
100
AcDbEntity
  8
0
  6
Continuous
 62
     7
370
    25
100
AcDbLine
 10
376.7996347906
 20
421.6565877088
 30
0.0
 11
376.7996347906
 21
422.4206521996
 31
0.0
  0
ARC
  5
99
330
1F
100
AcDbEntity
  8
0
  6
Continuous
 62
     7
370
    25
100
AcDbCircle
 10
366.7996353434
 20
422.4206489625
 30
0.0
 40
10.0
100
AcDbArc
 50
0.0
 51
9.0468459803
  0
ARC
  5
9A
330
1F
100
AcDbEntity
  8
0
  6
Continuous
 62
     7
370
    25
100
AcDbCircle
 10
343.7996353434
 20
422.4206489625
 30
0.0
 40
10.00000000000006
100
AcDbArc
 50
170.9531540197
 51
180.0
  0
SPLINE
  5
9B
330
1F
100
AcDbEntity
  8
0
  6
Continuous
 62
     7
370
    25
100
AcDbSpline
210
0.0
220
0.0
230
1.0
 70
     8
 71
     3
 72
    10
 73
     6
 74
     0
 42
0.000000001
 43
0.00000001
 40
0.0
 40
0.0
 40
0.0
 40
0.0
 40
0.2375370926799378
 40
0.6553441855337525
 40
1.0
 40
1.0
 40
1.0
 40
1.0
 10
343.6420309754029
 20
456.2624037154543
 30
0.0
 10
343.1327632670922
 20
456.2403157018877
 30
0.0
 10
341.7277379392325
 20
456.179376792947
 30
0.0
 10
339.7058911886954
 20
456.0387778375887
 30
0.0
 10
338.3364284614197
 20
455.8874836316178
 30
0.0
 10
337.717390752019
 20
455.8190941699373
 30
0.0
  0
SPLINE
  5
9C
330
1F
100
AcDbEntity
  8
0
  6
Continuous
 62
     7
370
    25
100
AcDbSpline
210
0.0
220
0.0
230
1.0
 70
     8
 71
     3
 72
    11
 73
     7
 74
     0
 42
0.000000001
 43
0.00000001
 40
0.0
 40
0.0
 40
0.0
 40
0.0
 40
0.0305007036895809
 40
0.3981224242149423
 40
0.8316033173450121
 40
1.0
 40
1.0
 40
1.0
 40
1.0
 10
354.1576050684088
 20
456.5031617768633
 30
0.0
 10
354.1073840559257
 20
456.5026176732871
 30
0.0
 10
353.451854549467
 20
456.4955155474822
 30
0.0
 10
352.012774631986
 20
456.4782544459917
 30
0.0
 10
350.3896473434116
 20
456.4579397109
 30
0.0
 10
349.3875147122209
 20
456.437386652926
 30
0.0
 10
349.1071324260846
 20
456.4316362031328
 30
0.0
  0
LINE
  5
9D
330
1F
100
AcDbEntity
  8
0
  6
Continuous
 62
     7
370
    25
100
AcDbLine
 10
378.5903967382
 20
440.2692109235
 30
0.0
 11
378.5903967382
 21
443.4331446775
 31
0.0
  0
LINE
  5
9E
330
1F
100
AcDbEntity
  8
0
  6
Continuous
 62
     7
370
    25
100
AcDbLine
 10
378.5903967382
 20
424.1895913967
 30
0.0
 11
378.5903967382
 21
432.3112457879
 31
0.0
  0
SPLINE
  5
9F
330
1F
100
AcDbEntity
  8
0
  6
Continuous
 62
     7
370
    25
100
AcDbSpline
210
0.0
220
0.0
230
1.0
 70
     8
 71
     3
 72
    15
 73
    11
 74
     0
 42
0.000000001
 43
0.00000001
 40
0.0
 40
0.0
 40
0.0
 40
0.0
 40
0.1440437698581061
 40
0.2773102970447152
 40
0.4023228734052552
 40
0.5230935013157684
 40
0.641775464553706
 40
0.7601227977400432
 40
0.8793594912977889
 40
1.0
 40
1.0
 40
1.0
 40
1.0
 10
378.5902682157174
 20
443.4331446774828
 30
0.0
 10
378.5902164059855
 20
443.9385158991803
 30
0.0
 10
378.5901166628857
 20
444.911446861379
 30
0.0
 10
378.7603236696079
 20
446.3218839625552
 30
0.0
 10
379.2500569414121
 20
447.5759921947815
 30
0.0
 10
380.0170209528119
 20
448.6159205071115
 30
0.0
 10
380.9893010938069
 20
449.4283220730309
 30
0.0
 10
382.1100866238939
 20
449.9999163993611
 30
0.0
 10
383.326324257162
 20
450.3540947849407
 30
0.0
 10
384.1676495283971
 20
450.4147424238665
 30
0.0
 10
384.5907739760295
 20
450.4452437051165
 30
0.0
  0
LINE
  5
A0
330
1F
100
AcDbEntity
  8
0
  6
Continuous
 62
     7
370
    25
100
AcDbLine
 10
484.8642304005
 20
404.5566707738
 30
0.0
 11
483.1744983258
 21
408.5374191292
 31
0.0
  0
LINE
  5
A1
330
1F
100
AcDbEntity
  8
0
  6
Continuous
 62
     7
370
    25
100
AcDbLine
 10
461.2122952403
 20
398.8538250216
 30
0.0
 11
462.7721115412
 21
395.1791241654
 31
0.0
  0
LINE
  5
A2
330
1F
100
AcDbEntity
  8
0
  6
Continuous
 62
     7
370
    25
100
AcDbLine
 10
484.1693147482
 20
403.6344900616
 30
0.0
 11
484.8642304005
 21
404.5566707738
 31
0.0
  0
LINE
  5
A3
330
1F
100
AcDbEntity
  8
0
  6
Continuous
 62
     7
370
    25
100
AcDbLine
 10
462.7721115412
 20
395.1791241654
 30
0.0
 11
463.9182120027
 21
395.0384050496
 31
0.0
  0
SPLINE
  5
A4
330
1F
100
AcDbEntity
  8
0
  6
Continuous
 62
     7
370
    25
100
AcDbSpline
210
0.0
220
0.0
230
1.0
 70
     8
 71
     3
 72
    12
 73
     8
 74
     0
 42
0.000000001
 43
0.00000001
 40
0.0
 40
0.0
 40
0.0
 40
0.0
 40
0.2237594787629302
 40
0.4597448790276695
 40
0.6853540387970118
 40
0.9132772459334655
 40
1.0
 40
1.0
 40
1.0
 40
1.0
 10
443.2648971142188
 20
455.6449741013872
 30
0.0
 10
443.2434387292443
 20
455.3897539070636
 30
0.0
 10
443.1993495015666
 20
454.865368625093
 30
0.0
 10
442.9134063454487
 20
454.1215022877476
 30
0.0
 10
442.4492382815611
 20
453.4870023263858
 30
0.0
 10
442.0003253975692
 20
453.0366339446297
 30
0.0
 10
441.664919884027
 20
452.9037188134017
 30
0.0
 10
441.5724753798858
 20
452.8670847304689
 30
0.0
  0
SPLINE
  5
A5
330
1F
100
AcDbEntity
  8
0
  6
Continuous
 62
     7
370
    25
100
AcDbSpline
210
0.0
220
0.0
230
1.0
 70
     8
 71
     3
 72
    10
 73
     6
 74
     0
 42
0.000000001
 43
0.00000001
 40
0.0
 40
0.0
 40
0.0
 40
0.0
 40
0.3753225709278852
 40
0.7076954447096702
 40
1.0
 40
1.0
 40
1.0
 40
1.0
 10
442.1533375443831
 20
457.0631474145281
 30
0.0
 10
440.7753854264291
 20
457.1506766042505
 30
0.0
 10
438.1771658882508
 20
457.3157186604545
 30
0.0
 10
434.5024090340589
 20
457.3384977020753
 30
0.0
 10
432.2568394691594
 20
457.3192669121034
 30
0.0
 10
431.2060728134528
 20
457.3102682717669
 30
0.0
  0
SPLINE
  5
A6
330
1F
100
AcDbEntity
  8
0
  6
Continuous
 62
     7
370
    25
100
AcDbSpline
210
0.0
220
0.0
230
1.0
 70
     8
 71
     3
 72
     9
 73
     5
 74
     0
 42
0.000000001
 43
0.00000001
 40
0.0
 40
0.0
 40
0.0
 40
0.0
 40
0.808802391617852
 40
1.0
 40
1.0
 40
1.0
 40
1.0
 10
443.2672887505904
 20
455.9511184581148
 30
0.0
 10
443.2762783040343
 20
455.9515348137421
 30
0.0
 10
443.2873929514897
 20
455.9520495941528
 30
0.0
 10
443.2277710481221
 20
456.1135022550142
 30
0.0
 10
443.216371482791
 20
456.1443716176378
 30
0.0
  0
LINE
  5
A7
330
1F
100
AcDbEntity
  8
0
  6
Continuous
 62
     7
370
    25
100
AcDbLine
 10
442.1604379477
 20
457.0391416438
 30
0.0
 11
442.0836522641
 21
457.0688694604
 31
0.0
  0
SPLINE
  5
A8
330
1F
100
AcDbEntity
  8
0
  6
Continuous
 62
     7
370
    25
100
AcDbSpline
210
0.0
220
0.0
230
1.0
 70
     8
 71
     3
 72
    10
 73
     6
 74
     0
 42
0.000000001
 43
0.00000001
 40
0.0
 40
0.0
 40
0.0
 40
0.0
 40
0.1359040257548574
 40
0.8900623334054766
 40
1.0
 40
1.0
 40
1.0
 40
1.0
 10
487.638856417121
 20
421.0876092203486
 30
0.0
 10
487.6254107668673
 20
421.0905738724006
 30
0.0
 10
487.5373525451002
 20
421.1099899648127
 30
0.0
 10
487.4067981714645
 20
421.121131161697
 30
0.0
 10
487.4463260337333
 20
421.1166482438841
 30
0.0
 10
487.4513551058188
 20
421.1160778888094
 30
0.0
  0
LINE
  5
A9
330
1F
100
AcDbEntity
  8
0
  6
Continuous
 62
     7
370
    25
100
AcDbLine
 10
487.4504759373
 20
421.1101397761
 30
0.0
 11
483.7322785916
 21
421.3796421774
 31
0.0
  0
LINE
  5
AA
330
1F
100
AcDbEntity
  8
0
  6
Continuous
 62
     7
370
    25
100
AcDbLine
 10
483.5139020743
 20
421.3920473941
 30
0.0
 11
473.1218397083
 21
421.6128304489
 31
0.0
  0
LINE
  5
AB
330
1F
100
AcDbEntity
  8
0
  6
Continuous
 62
     7
370
    25
100
AcDbLine
 10
378.590938768
 20
432.3079824336
 30
0.0
 11
379.1409443529
 21
432.5081646331
 31
0.0
  0
LINE
  5
AC
330
1F
100
AcDbEntity
  8
0
  6
Continuous
 62
     7
370
    25
100
AcDbLine
 10
379.1409443529
 20
440.0710105785
 30
0.0
 11
378.5907357396
 21
440.2712672838
 31
0.0
  0
ARC
  5
AD
330
1F
100
AcDbEntity
  8
0
  6
Continuous
 62
     7
370
    25
100
AcDbCircle
 10
379.0725396362
 20
439.8830682964
 30
0.0
 40
0.2000000000000455
100
AcDbArc
 50
0.0
 51
70.0
  0
ARC
  5
AE
330
1F
100
AcDbEntity
  8
0
  6
Continuous
 62
     7
370
    25
100
AcDbCircle
 10
379.0725396362
 20
432.6961080785
 30
0.0
 40
0.1999999999999886
100
AcDbArc
 50
290.0
 51
0.0
  0
LINE
  5
AF
330
1F
100
AcDbEntity
  8
0
  6
Continuous
 62
     7
370
    25
100
AcDbLine
 10
379.2725402327
 20
432.6961129793
 30
0.0
 11
379.2725402327
 21
439.8830622323
 31
0.0
  0
LINE
  5
B0
330
1F
100
AcDbEntity
  8
0
  6
Continuous
 62
     7
370
    25
100
AcDbLine
 10
334.5140508773
 20
445.1214611419
 30
0.0
 11
334.4354900928
 21
444.732198108
 31
0.0
  0
LINE
  5
B1
330
1F
100
AcDbEntity
  8
0
  6
Continuous
 62
     7
370
    25
100
AcDbLine
 10
378.5168725463
 20
329.2969312408
 30
0.0
 11
378.5169004859
 21
356.2696851679
 31
0.0
  0
LINE
  5
B2
330
1F
100
AcDbEntity
  8
0
  6
Continuous
 62
     7
370
    25
100
AcDbLine
 10
332.0942792507
 20
419.7017863282
 30
0.0
 11
329.9164223881
 21
298.9296853431
 31
0.0
  0
SPLINE
  5
B3
330
1F
100
AcDbEntity
  8
0
  6
Continuous
 62
     7
370
    25
100
AcDbSpline
210
0.0
220
0.0
230
1.0
 70
    24
 71
     3
 72
    23
 73
    19
 74
     0
 42
0.000000001
 43
0.00000001
 40
0.7822437799654349
 40
0.7822437799654349
 40
0.7822437799654349
 40
0.7822437799654349
 40
0.8366828335378016
 40
0.891121889025201
 40
0.9455609445126005
 40
1.0
 40
1.0
 40
1.0
 40
1.035280470549814
 40
1.070560941099629
 40
1.105841411649443
 40
1.141121882199258
 40
1.158762117474165
 40
1.176402352749072
 40
1.19404258802398
 40
1.211682823298887
 40
1.246963293848701
 40
1.282243764398516
 40
1.282243764398516
 40
1.282243764398516
 40
1.282243764398516
 10
378.5168403199655
 20
298.9296853431094
 30
0.0
 10
378.5168403546056
 20
298.9296853431094
 30
0.0
 10
377.5900998150057
 20
298.9296853431094
 30
0.0
 10
373.5676945846935
 20
298.9296853431094
 30
0.0
 10
367.3438460377305
 20
298.9296853431093
 30
0.0
 10
362.1767392322011
 20
298.9296853431093
 30
0.0
 10
359.4814220870143
 20
298.9296853431093
 30
0.0
 10
357.7346603860295
 20
298.9296853431093
 30
0.0
 10
354.1443805321538
 20
298.9296853431093
 30
0.0
 10
348.7348039506641
 20
298.9296853431093
 30
0.0
 10
343.576235472594
 20
298.9296853431093
 30
0.0
 10
339.7086400412105
 20
298.9296853431093
 30
0.0
 10
336.9942192025845
 20
298.9296853431093
 30
0.0
 10
335.1734931498515
 20
298.9296853431093
 30
0.0
 10
333.5931184963512
 20
298.9296853431093
 30
0.0
 10
331.8313104476234
 20
298.9296853431093
 30
0.0
 10
330.3232649734042
 20
298.9296853431092
 30
0.0
 10
329.9164220871344
 20
298.9296853431092
 30
0.0
 10
329.9164220871344
 20
298.9296853431092
 30
0.0
  0
ARC
  5
B4
330
1F
100
AcDbEntity
  8
0
  6
Continuous
 62
     7
370
    25
100
AcDbCircle
 10
333.4940521708
 20
419.676545415
 30
0.0
 40
1.399999999999987
100
AcDbArc
 50
95.9354191866
 51
178.9669093514
  0
SPLINE
  5
B5
330
1F
100
AcDbEntity
  8
0
  6
Continuous
 62
     7
370
    25
100
AcDbSpline
210
0.0
220
0.0
230
1.0
 70
     8
 71
     3
 72
    22
 73
    18
 74
     0
 42
0.000000001
 43
0.00000001
 40
0.0
 40
0.0
 40
0.0
 40
0.0
 40
0.125
 40
0.187590640397055
 40
0.25
 40
0.3126362219945645
 40
0.375
 40
0.4389352287297147
 40
0.5
 40
0.5626105900150274
 40
0.625
 40
0.6875142232330562
 40
0.75
 40
0.8122341968223599
 40
0.875
 40
0.9373977961895725
 40
1.0
 40
1.0
 40
1.0
 40
1.0
 10
378.5169010938521
 20
356.2696853431094
 30
0.0
 10
378.5169150499109
 20
359.2347433849999
 30
0.0
 10
378.5263916363563
 20
363.6831182406733
 30
0.0
 10
379.0094227369706
 20
369.3249678483486
 30
0.0
 10
379.6702884837385
 20
373.356681346346
 30
0.0
 10
380.6911240875787
 20
377.1216075608594
 30
0.0
 10
382.1060430490477
 20
380.6094028556191
 30
0.0
 10
383.9176064921274
 20
383.7159264031278
 30
0.0
 10
386.1256531927745
 20
386.45367019719
 30
0.0
 10
388.6919576018282
 20
388.7805579375724
 30
0.0
 10
391.6275107135775
 20
390.7312931215317
 30
0.0
 10
394.8755766062569
 20
392.2881135883779
 30
0.0
 10
398.3862752390701
 20
393.480988044995
 30
0.0
 10
402.1174606906159
 20
394.34290543293
 30
0.0
 10
406.0077516050531
 20
394.933965084171
 30
0.0
 10
410.010861700861
 20
395.3181612520381
 30
0.0
 10
412.7102144043102
 20
395.5023454307054
 30
0.0
 10
414.0618888037924
 20
395.5934766888176
 30
0.0
  0
SPLINE
  5
B6
330
1F
100
AcDbEntity
  8
0
  6
Continuous
 62
     7
370
    25
100
AcDbSpline
210
0.0
220
0.0
230
1.0
 70
    24
 71
     3
 72
     8
 73
     4
 74
     0
 42
0.000000001
 43
0.00000001
 40
0.0
 40
0.0
 40
0.0
 40
0.0
 40
1.0
 40
1.0
 40
1.0
 40
1.0
 10
370.5645460015398
 20
424.1895881874532
 30
0.0
 10
369.4866125025623
 20
424.1895881874532
 30
0.0
 10
368.3309798554689
 20
424.1895881874531
 30
0.0
 10
367.0990499331004
 20
424.1895881874531
 30
0.0
  0
SPLINE
  5
B7
330
1F
100
AcDbEntity
  8
0
  6
Continuous
 62
     7
370
    25
100
AcDbSpline
210
0.0
220
0.0
230
1.0
 70
     8
 71
     3
 72
    14
 73
    10
 74
     0
 42
0.000000001
 43
0.00000001
 40
0.0
 40
0.0
 40
0.0
 40
0.0
 40
0.2500000000000005
 40
0.2500000000000005
 40
0.3750000000000002
 40
0.3750000000000002
 40
0.5
 40
0.5
 40
1.0
 40
1.0
 40
1.0
 40
1.0
 10
367.0990499331004
 20
424.1895881874532
 30
0.0
 10
366.2969919067056
 20
424.1895881874532
 30
0.0
 10
365.4735742617322
 20
424.2217238917858
 30
0.0
 10
364.2094548046685
 20
424.3260819399581
 30
0.0
 10
363.7832264016644
 20
424.3702320623614
 30
0.0
 10
362.9212699667818
 20
424.478734279164
 30
0.0
 10
362.4860757559711
 20
424.5430980161296
 30
0.0
 10
360.3156956485869
 20
424.9135114617924
 30
0.0
 10
358.5752092333524
 20
425.3666793095109
 30
0.0
 10
356.8384456333303
 20
425.9988095638759
 30
0.0
  0
SPLINE
  5
B8
330
1F
100
AcDbEntity
  8
0
  6
Continuous
 62
     7
370
    25
100
AcDbSpline
210
0.0
220
0.0
230
1.0
 70
    24
 71
     3
 72
     8
 73
     4
 74
     0
 42
0.000000001
 43
0.00000001
 40
0.0
 40
0.0
 40
0.0
 40
0.0
 40
1.0
 40
1.0
 40
1.0
 40
1.0
 10
356.8384456333303
 20
425.9988095638759
 30
0.0
 10
356.3283667340288
 20
426.1844631003489
 30
0.0
 10
355.8176702851097
 20
426.370341406516
 30
0.0
 10
355.306362816543
 20
426.5564421056324
 30
0.0
  0
SPLINE
  5
B9
330
1F
100
AcDbEntity
  8
0
  6
Continuous
 62
     7
370
    25
100
AcDbSpline
210
0.0
220
0.0
230
1.0
 70
     8
 71
     3
 72
     8
 73
     4
 74
     0
 42
0.000000001
 43
0.00000001
 40
0.0013999840203585
 40
0.0013999840203585
 40
0.0013999840203585
 40
0.0013999840203585
 40
0.6262686277567391
 40
0.6262686277567391
 40
0.6262686277567391
 40
0.6262686277567391
 10
336.3815764013897
 20
454.6104294470267
 30
0.0
 10
335.0693548214439
 20
448.2561431508521
 30
0.0
 10
333.7582811832118
 20
441.8999474260122
 30
0.0
 10
332.9607276075731
 20
434.689588187453
 30
0.0
  0
SPLINE
  5
BA
330
1F
100
AcDbEntity
  8
0
  6
Continuous
 62
     7
370
    25
100
AcDbSpline
210
0.0
220
0.0
230
1.0
 70
     8
 71
     3
 72
    38
 73
    34
 74
     0
 42
0.000000001
 43
0.00000001
 40
0.0
 40
0.0
 40
0.0
 40
0.0
 40
0.1250000000000021
 40
0.1250000000000021
 40
0.1875000000000032
 40
0.1875000000000032
 40
0.2500000000000042
 40
0.2500000000000042
 40
0.2812500000000049
 40
0.2812500000000049
 40
0.3125000000000055
 40
0.3125000000000055
 40
0.3750000000000065
 40
0.3750000000000065
 40
0.4375000000000074
 40
0.4375000000000074
 40
0.4687500000000074
 40
0.4687500000000074
 40
0.5000000000000074
 40
0.5000000000000074
 40
0.5625000000000074
 40
0.5625000000000074
 40
0.593750000000007
 40
0.593750000000007
 40
0.6250000000000067
 40
0.6250000000000067
 40
0.7500000000000041
 40
0.7500000000000041
 40
0.8125000000000029
 40
0.8125000000000029
 40
0.8750000000000017
 40
0.8750000000000017
 40
1.0
 40
1.0
 40
1.0
 40
1.0
 10
332.9607276073596
 20
434.6895881894944
 30
0.0
 10
332.9606979912639
 20
434.6895989688717
 30
0.0
 10
333.0474111434954
 20
434.6580379605763
 30
0.0
 10
333.3360131167773
 20
434.5529954327512
 30
0.0
 10
333.4586886045635
 20
434.508345206723
 30
0.0
 10
333.7616202808104
 20
434.3980870935526
 30
0.0
 10
333.9405740396841
 20
434.3329532520127
 30
0.0
 10
334.2583854544474
 20
434.2172793569288
 30
0.0
 10
334.373129139753
 20
434.1755160709075
 30
0.0
 10
334.6230733668926
 20
434.084543812002
 30
0.0
 10
334.7586999639111
 20
434.0351797677126
 30
0.0
 10
335.1981115135894
 20
433.8752470430368
 30
0.0
 10
335.5313162907843
 20
433.7539704222226
 30
0.0
 10
336.2843071031633
 20
433.4799041798407
 30
0.0
 10
336.7045228621109
 20
433.3269581516141
 30
0.0
 10
337.4040580156313
 20
433.0723481779098
 30
0.0
 10
337.6496723289146
 20
432.982951878765
 30
0.0
 10
338.159587482369
 20
432.7973579409064
 30
0.0
 10
338.4230824637612
 20
432.701453610801
 30
0.0
 10
339.2381711739736
 20
432.4047855819973
 30
0.0
 10
339.8140707009201
 20
432.1951752962609
 30
0.0
 10
340.7229783049303
 20
431.8643599827029
 30
0.0
 10
341.033510799253
 20
431.7513353979969
 30
0.0
 10
341.6692155274378
 20
431.5199577991553
 30
0.0
 10
341.9954874452196
 20
431.4012045328059
 30
0.0
 10
343.6467649854
 20
430.8001886596679
 30
0.0
 10
345.027183047765
 20
430.2977575741236
 30
0.0
 10
347.164732312516
 20
429.5197532674767
 30
0.0
 10
347.8885465759673
 20
429.2563064204431
 30
0.0
 10
349.3560321443549
 20
428.7221853543349
 30
0.0
 10
350.0955977258192
 20
428.453005496394
 30
0.0
 10
352.3170045414807
 20
427.6444795372972
 30
0.0
 10
353.8068267427023
 20
427.102228601738
 30
0.0
 10
355.306362816543
 20
426.5564421056516
 30
0.0
  0
LINE
  5
BB
330
1F
100
AcDbEntity
  8
0
  6
Continuous
 62
     7
370
    25
100
AcDbLine
 10
460.9818636836
 20
398.7568706163
 30
0.0
 11
414.0618882539
 21
395.5934733041
 31
0.0
  0
SPLINE
  5
BC
330
1F
100
AcDbEntity
  8
0
  6
Continuous
 62
     7
370
    25
100
AcDbSpline
210
0.0
220
0.0
230
1.0
 70
     8
 71
     3
 72
    10
 73
     6
 74
     0
 42
0.000000001
 43
0.00000001
 40
0.0
 40
0.0
 40
0.0
 40
0.0
 40
0.5
 40
0.5
 40
1.0
 40
1.0
 40
1.0
 40
1.0
 10
462.0618888037924
 20
399.2082165565982
 30
0.0
 10
461.7040601624377
 20
399.0613336719584
 30
0.0
 10
461.437219602849
 20
398.9487314631053
 30
0.0
 10
461.0757117632483
 20
398.7961941622595
 30
0.0
 10
460.9818636356002
 20
398.7568690258042
 30
0.0
 10
460.9818636690195
 20
398.7568689537764
 30
0.0
  0
LINE
  5
BD
330
1F
100
AcDbEntity
  8
0
  6
Continuous
 62
     7
370
    25
100
AcDbLine
 10
378.8530930342
 20
450.274953235
 30
0.0
 11
430.5205523433
 21
451.8084019311
 31
0.0
  0
SPLINE
  5
BE
330
1F
100
AcDbEntity
  8
0
  6
Continuous
 62
     7
370
    25
100
AcDbSpline
210
0.0
220
0.0
230
1.0
 70
     8
 71
     3
 72
     8
 73
     4
 74
     0
 42
0.000000001
 43
0.00000001
 40
0.0668195392077385
 40
0.0668195392077385
 40
0.0668195392077385
 40
0.0668195392077385
 40
0.0908119718754291
 40
0.0908119718754291
 40
0.0908119718754291
 40
0.0908119718754291
 10
333.3492817773117
 20
421.0690401306747
 30
0.0
 10
333.4987025585556
 20
421.0845746278983
 30
0.0
 10
333.6488129452757
 20
421.0997077207718
 30
0.0
 10
333.7996353434309
 20
421.1144497117858
 30
0.0
  0
SPLINE
  5
BF
330
1F
100
AcDbEntity
  8
0
  6
Continuous
 62
     7
370
    25
100
AcDbSpline
210
0.0
220
0.0
230
1.0
 70
     8
 71
     3
 72
    30
 73
    26
 74
     0
 42
0.000000001
 43
0.00000001
 40
0.0
 40
0.0
 40
0.0
 40
0.0
 40
0.1250000000000003
 40
0.1250000000000003
 40
0.1875000000000005
 40
0.1875000000000005
 40
0.2500000000000007
 40
0.2500000000000007
 40
0.375000000000001
 40
0.375000000000001
 40
0.4375000000000011
 40
0.4375000000000011
 40
0.5000000000000012
 40
0.5000000000000012
 40
0.625000000000001
 40
0.625000000000001
 40
0.6875000000000008
 40
0.6875000000000008
 40
0.7500000000000007
 40
0.7500000000000007
 40
0.8125000000000004
 40
0.8125000000000004
 40
0.8750000000000003
 40
0.8750000000000003
 40
1.0
 40
1.0
 40
1.0
 40
1.0
 10
355.2324332623688
 20
421.0844957073008
 30
0.0
 10
353.8156654501751
 20
421.0862721095815
 30
0.0
 10
352.4229625572287
 20
421.0914893826823
 30
0.0
 10
350.3685215938796
 20
421.1034055104328
 30
0.0
 10
349.689519588662
 20
421.1080737982854
 30
0.0
 10
348.3433997873119
 20
421.1186091231405
 30
0.0
 10
347.6743306829051
 20
421.1244708249332
 30
0.0
 10
345.728093208212
 20
421.142385502198
 30
0.0
 10
344.4976024096711
 20
421.1548130349081
 30
0.0
 10
342.7513742777555
 20
421.1703216164508
 30
0.0
 10
342.1843299763888
 20
421.1749881434041
 30
0.0
 10
341.0922830685216
 20
421.1824280999624
 30
0.0
 10
340.5726489639692
 20
421.1851278708968
 30
0.0
 10
339.0904066237431
 20
421.1902292451304
 30
0.0
 10
338.2037379159083
 20
421.1894738900561
 30
0.0
 10
337.0293961475217
 20
421.1817459823519
 30
0.0
 10
336.6644581706942
 20
421.1781705658984
 30
0.0
 10
336.0030979164292
 20
421.169806028679
 30
0.0
 10
335.7043594749368
 20
421.1649982640122
 30
0.0
 10
335.1697471810305
 20
421.1548031264519
 30
0.0
 10
334.9338738219881
 20
421.1494176803126
 30
0.0
 10
334.5257878093868
 20
421.1389293920095
 30
0.0
 10
334.3530473565055
 20
421.1338111657618
 30
0.0
 10
333.9383229207241
 20
421.1204904312966
 30
0.0
 10
333.7996353434309
 20
421.1144497117834
 30
0.0
 10
333.7996353434309
 20
421.1144497117858
 30
0.0
  0
SPLINE
  5
C0
330
1F
100
AcDbEntity
  8
0
  6
Continuous
 62
     7
370
    25
100
AcDbSpline
210
0.0
220
0.0
230
1.0
 70
     8
 71
     3
 72
    16
 73
    12
 74
     0
 42
0.000000001
 43
0.00000001
 40
0.0
 40
0.0
 40
0.0
 40
0.0
 40
0.0060981017835584
 40
0.0285364955562963
 40
0.0509748893282578
 40
0.0958516768723777
 40
0.1968244488464421
 40
0.3735267998010404
 40
0.6827559139715865
 40
0.9974045443558867
 40
1.0
 40
1.0
 40
1.0
 40
1.0
 10
473.1218369589411
 20
421.6139148924873
 30
0.0
 10
472.9260427653556
 20
421.6140003172534
 30
0.0
 10
472.0098100861533
 20
421.6144000684455
 30
0.0
 10
470.3731388993094
 20
421.6151628367115
 30
0.0
 10
467.4913849149027
 20
421.6164279671167
 30
0.0
 10
462.0880961880828
 20
421.6188213893046
 30
0.0
 10
451.7317928043098
 20
421.6234057693282
 30
0.0
 10
432.8878233806764
 20
421.6317503958462
 30
0.0
 10
407.1832775862636
 20
421.6431316063542
 30
0.0
 10
387.0688516169673
 20
421.6520380951363
 30
0.0
 10
376.8829686763
 20
421.6565482601379
 30
0.0
 10
376.7996353423376
 20
421.6565851589604
 30
0.0
  0
LINE
  5
C1
330
1F
100
AcDbEntity
  8
0
  6
Continuous
 62
     7
370
    25
100
AcDbLine
 10
473.1218397083
 20
421.6047391184
 30
0.0
 11
473.1218397083
 21
421.6139182337
 31
0.0
  0
SPLINE
  5
C2
330
1F
100
AcDbEntity
  8
0
  6
Continuous
 62
     7
370
    25
100
AcDbSpline
210
0.0
220
0.0
230
1.0
 70
     8
 71
     3
 72
    31
 73
    27
 74
     0
 42
0.000000001
 43
0.00000001
 40
0.0
 40
0.0
 40
0.0
 40
0.0
 40
0.1250000000000002
 40
0.1250000000000002
 40
0.1875000000000003
 40
0.1875000000000003
 40
0.2500000000000004
 40
0.2500000000000004
 40
0.3750000000000005
 40
0.3750000000000005
 40
0.4375000000000004
 40
0.4375000000000004
 40
0.5000000000000003
 40
0.5000000000000003
 40
0.6250000000000003
 40
0.6250000000000003
 40
0.6562500000000002
 40
0.6562500000000002
 40
0.6875000000000002
 40
0.6875000000000002
 40
0.7500000000000002
 40
0.8125000000000002
 40
0.8125000000000002
 40
0.8750000000000002
 40
0.8750000000000002
 40
1.0
 40
1.0
 40
1.0
 40
1.0
 10
355.2324332623688
 20
421.0844957073009
 30
0.0
 10
356.6552135115244
 20
421.0825961955401
 30
0.0
 10
358.0545248713551
 20
421.0918431900803
 30
0.0
 10
360.1197640602479
 20
421.1194041692912
 30
0.0
 10
360.8025144220521
 20
421.1308348508626
 30
0.0
 10
362.1564403684258
 20
421.1573947653044
 30
0.0
 10
362.8292997850676
 20
421.1725796793764
 30
0.0
 10
364.786625868105
 20
421.221270576703
 30
0.0
 10
366.0247641686517
 20
421.2580543299179
 30
0.0
 10
367.7828050569619
 20
421.3147767409807
 30
0.0
 10
368.354275207643
 20
421.334039636234
 30
0.0
 10
369.4530006349702
 20
421.3722015692105
 30
0.0
 10
369.9759909957414
 20
421.3909456109412
 30
0.0
 10
371.4682771832503
 20
421.445526141186
 30
0.0
 10
372.3616194706052
 20
421.4796963891349
 30
0.0
 10
373.3481839097226
 20
421.5181137100801
 30
0.0
 10
373.5393864607823
 20
421.5256018197423
 30
0.0
 10
373.9048270538649
 20
421.5399778790331
 30
0.0
 10
374.0793738257842
 20
421.5468776597615
 30
0.0
 10
374.5789362698999
 20
421.5666983050223
 30
0.0
 10
375.1809258906707
 20
421.5907841406146
 30
0.0
 10
375.6565596556824
 20
421.6100177180664
 30
0.0
 10
376.0680941418585
 20
421.6267105026071
 30
0.0
 10
376.2423929231025
 20
421.633810272889
 30
0.0
 10
376.6599871781378
 20
421.6508492250967
 30
0.0
 10
376.7996256767989
 20
421.6565847628224
 30
0.0
 10
376.7996353429339
 20
421.6565851589601
 30
0.0
  0
SPLINE
  5
C3
330
1F
100
AcDbEntity
  8
0
  6
Continuous
 62
     7
370
    25
100
AcDbSpline
210
0.0
220
0.0
230
1.0
 70
     8
 71
     3
 72
    32
 73
    28
 74
     0
 42
0.000000001
 43
0.00000001
 40
0.0
 40
0.0
 40
0.0
 40
0.0
 40
0.1250000000000044
 40
0.1250000000000044
 40
0.2500000000000087
 40
0.2500000000000087
 40
0.3125000000000088
 40
0.3125000000000088
 40
0.3437500000000089
 40
0.3437500000000089
 40
0.3750000000000089
 40
0.3750000000000089
 40
0.4375000000000053
 40
0.4375000000000053
 40
0.4687500000000036
 40
0.4687500000000036
 40
0.5000000000000019
 40
0.5000000000000019
 40
0.5625000000000018
 40
0.5625000000000018
 40
0.6250000000000016
 40
0.6250000000000016
 40
0.750000000000001
 40
0.750000000000001
 40
0.8750000000000006
 40
0.8750000000000006
 40
1.0
 40
1.0
 40
1.0
 40
1.0
 10
475.8305093050452
 20
421.0519019645722
 30
0.0
 10
476.6641973501766
 20
421.0517580140769
 30
0.0
 10
477.4983189887603
 20
421.0511584443296
 30
0.0
 10
479.1653689797732
 20
421.0445462039515
 30
0.0
 10
480.0004644161389
 20
421.0383462371298
 30
0.0
 10
481.2425018908948
 20
421.0306988129978
 30
0.0
 10
481.6514249858691
 20
421.0285113295628
 30
0.0
 10
482.2527219699021
 20
421.0270069069571
 30
0.0
 10
482.4511206839896
 20
421.026807817503
 30
0.0
 10
482.8433986087761
 20
421.0270827526568
 30
0.0
 10
483.0382759954661
 20
421.0275518841977
 30
0.0
 10
483.6078631611622
 20
421.0298844064154
 30
0.0
 10
483.9663653861015
 20
421.0326384565752
 30
0.0
 10
484.4709822507558
 20
421.0383228745229
 30
0.0
 10
484.6336219485661
 20
421.0404798303871
 30
0.0
 10
484.9471501199017
 20
421.0452908371645
 30
0.0
 10
485.0988440465385
 20
421.0479638564756
 30
0.0
 10
485.5290121673318
 20
421.0565053403529
 30
0.0
 10
485.7808715130234
 20
421.0628404583601
 30
0.0
 10
486.2231816204766
 20
421.0755063978669
 30
0.0
 10
486.4148042633537
 20
421.0818919119504
 30
0.0
 10
486.8892792717048
 20
421.0984046147331
 30
0.0
 10
487.0746303951623
 20
421.1055449260529
 30
0.0
 10
487.2985156463554
 20
421.1160236158594
 30
0.0
 10
487.337587214994
 20
421.1192299312183
 30
0.0
 10
487.3973454651551
 20
421.1209833256918
 30
0.0
 10
487.4153577794795
 20
421.1195927243936
 30
0.0
 10
487.4305710847278
 20
421.1183691537693
 30
0.0
  0
LINE
  5
C4
330
1F
100
AcDbEntity
  8
0
  6
Continuous
 62
     7
370
    25
100
AcDbLine
 10
488.6518522562
 20
419.1602110751
 30
0.0
 11
488.6521800818
 21
419.1624760517
 31
0.0
  0
SPLINE
  5
C5
330
1F
100
AcDbEntity
  8
0
  6
Continuous
 62
     7
370
    25
100
AcDbSpline
210
0.0
220
0.0
230
1.0
 70
     8
 71
     3
 72
    19
 73
    15
 74
     0
 42
0.000000001
 43
0.00000001
 40
0.0
 40
0.0
 40
0.0
 40
0.0
 40
0.045634231090369
 40
0.0922487939364959
 40
0.1398584373080106
 40
0.1884661110016039
 40
0.2380840020110664
 40
0.2887201062265099
 40
0.3921134905201419
 40
0.5020106934631642
 40
0.606871224088725
 40
0.720217435672687
 40
0.9418907164899856
 40
1.0
 40
1.0
 40
1.0
 40
1.0
 10
483.3443703286152
 20
408.7770688265903
 30
0.0
 10
483.4427851549261
 20
408.9248883336031
 30
0.0
 10
483.6417289919478
 20
409.2237028620041
 30
0.0
 10
483.9338920086157
 20
409.6829202503552
 30
0.0
 10
484.2253119905387
 20
410.1562275579525
 30
0.0
 10
484.5156882526734
 20
410.6438360352607
 30
0.0
 10
484.8050030158037
 20
411.1457133313897
 30
0.0
 10
485.1914156477573
 20
411.8376129623167
 30
0.0
 10
485.6750822868767
 20
412.7437549150536
 30
0.0
 10
486.2335736774831
 20
413.8487717505216
 30
0.0
 10
486.7884901713498
 20
414.9987145530221
 30
0.0
 10
487.5089088417126
 20
416.5515294403836
 30
0.0
 10
488.1282560539856
 20
417.95047391271
 30
0.0
 10
488.561411402224
 20
418.9493354680444
 30
0.0
 10
488.6513753604684
 20
419.1567934611674
 30
0.0
  0
SPLINE
  5
C6
330
1F
100
AcDbEntity
  8
0
  6
Continuous
 62
     7
370
    25
100
AcDbSpline
210
0.0
220
0.0
230
1.0
 70
     8
 71
     3
 72
    52
 73
    48
 74
     0
 42
0.000000001
 43
0.00000001
 40
0.0
 40
0.0
 40
0.0
 40
0.0
 40
0.0624999999999998
 40
0.0624999999999998
 40
0.0937499999999996
 40
0.0937499999999996
 40
0.1249999999999994
 40
0.1249999999999994
 40
0.1874999999999993
 40
0.1874999999999993
 40
0.2187499999999995
 40
0.2187499999999995
 40
0.2499999999999997
 40
0.2499999999999997
 40
0.3125000000000002
 40
0.3125000000000002
 40
0.3437500000000006
 40
0.3437500000000006
 40
0.375000000000001
 40
0.375000000000001
 40
0.4375000000000018
 40
0.4375000000000018
 40
0.4687500000000017
 40
0.4687500000000017
 40
0.5000000000000014
 40
0.5000000000000014
 40
0.5625000000000013
 40
0.5625000000000013
 40
0.5937500000000016
 40
0.5937500000000016
 40
0.6250000000000017
 40
0.6250000000000017
 40
0.6875000000000014
 40
0.6875000000000014
 40
0.7500000000000012
 40
0.7500000000000012
 40
0.8125000000000012
 40
0.8125000000000012
 40
0.8437500000000012
 40
0.8437500000000012
 40
0.8750000000000012
 40
0.8750000000000012
 40
0.9375000000000007
 40
0.9375000000000007
 40
0.9687500000000003
 40
0.9687500000000003
 40
1.0
 40
1.0
 40
1.0
 40
1.0
 10
462.0619076332625
 20
399.2082288263513
 30
0.0
 10
462.3360294480368
 20
399.3207601433102
 30
0.0
 10
462.656778816782
 20
399.451926101715
 30
0.0
 10
463.2071977015825
 20
399.6753548686423
 30
0.0
 10
463.4022905462348
 20
399.7542793014118
 30
0.0
 10
463.8165083558418
 20
399.920773804947
 30
0.0
 10
464.0356882592678
 20
400.0083515595572
 30
0.0
 10
464.7171671831111
 20
400.2779345642107
 30
0.0
 10
465.2071186381744
 20
400.4683936676059
 30
0.0
 10
465.9964546452498
 20
400.7656193821164
 30
0.0
 10
466.2686886255879
 20
400.8666121080378
 30
0.0
 10
466.8322086831079
 20
401.0716495800247
 30
0.0
 10
467.1232030172361
 20
401.1755566466251
 30
0.0
 10
468.0082845016659
 20
401.4845456809634
 30
0.0
 10
468.6198507226767
 20
401.688702239311
 30
0.0
 10
469.5698077661874
 20
401.9894369657836
 30
0.0
 10
469.8919083071775
 20
402.0888034189842
 30
0.0
 10
470.5471701784168
 20
402.2859884044495
 30
0.0
 10
470.879424745154
 20
402.3835075767005
 30
0.0
 10
471.8736981058405
 20
402.6696681329919
 30
0.0
 10
472.5392070220277
 20
402.8534146552511
 30
0.0
 10
473.5381486437745
 20
403.1301699909341
 30
0.0
 10
473.8712156070697
 20
403.222708745658
 30
0.0
 10
474.5368175519441
 20
403.4108921905124
 30
0.0
 10
474.8674381998218
 20
403.505983153029
 30
0.0
 10
475.8392984303727
 20
403.7947268250363
 30
0.0
 10
476.4656287451908
 20
403.9933363304567
 30
0.0
 10
477.3668561206022
 20
404.3172215161984
 30
0.0
 10
477.6608550234743
 20
404.4295226794001
 30
0.0
 10
478.2348933130402
 20
404.665010577909
 30
0.0
 10
478.5133455326915
 20
404.7876133573183
 30
0.0
 10
479.3083534701108
 20
405.1646503907906
 30
0.0
 10
479.7905309440876
 20
405.4312334482291
 30
0.0
 10
480.663401721194
 20
405.9908799169131
 30
0.0
 10
481.0557171748152
 20
406.2860759867125
 30
0.0
 10
481.7311038667403
 20
406.8628560199098
 30
0.0
 10
482.0185569804592
 20
407.146411017331
 30
0.0
 10
482.386339077913
 20
407.5436594858538
 30
0.0
 10
482.4985830242596
 20
407.671725941843
 30
0.0
 10
482.6998454088186
 20
407.9105413429866
 30
0.0
 10
482.7893213997903
 20
408.0217325278517
 30
0.0
 10
483.0269930382505
 20
408.3261665594785
 30
0.0
 10
483.144779036441
 20
408.4903991073644
 30
0.0
 10
483.2642086107454
 20
408.6601509020942
 30
0.0
 10
483.2944200265067
 20
408.704034280383
 30
0.0
 10
483.334454312837
 20
408.7622583094524
 30
0.0
 10
483.344354253376
 20
408.7770915600651
 30
0.0
 10
483.3443703810264
 20
408.7770689044901
 30
0.0
  0
LINE
  5
C7
330
1F
100
AcDbEntity
  8
0
  6
Continuous
 62
     7
370
    25
100
AcDbLine
 10
443.2771086158
 20
455.7190179714
 30
0.0
 11
443.2795375051
 21
455.7191371806
 31
0.0
  0
LINE
  5
C8
330
1F
100
AcDbEntity
  8
0
  6
Continuous
 62
     7
370
    25
100
AcDbLine
 10
443.2795375051
 20
455.7191371806
 30
0.0
 11
443.2448699536
 21
455.9524893649
 31
0.0
  0
SPLINE
  5
C9
330
1F
100
AcDbEntity
  8
0
  6
Continuous
 62
     7
370
    25
100
AcDbSpline
210
0.0
220
0.0
230
1.0
 70
    24
 71
     3
 72
    15
 73
    11
 74
     0
 42
0.000000001
 43
0.00000001
 40
0.0
 40
0.0
 40
0.0
 40
0.0
 40
0.2499999999999999
 40
0.2499999999999999
 40
0.4999999999999999
 40
0.4999999999999999
 40
0.7499999999999998
 40
0.7499999999999998
 40
0.8124999999999998
 40
1.0
 40
1.0
 40
1.0
 40
1.0
 10
430.5205552498489
 20
451.8084046426554
 30
0.0
 10
431.6027646949439
 20
451.8405238691573
 30
0.0
 10
432.6319551255517
 20
451.8710695280445
 30
0.0
 10
434.5020407916433
 20
451.9265723748912
 30
0.0
 10
435.342936027127
 20
451.9515295628508
 30
0.0
 10
436.7541741368208
 20
451.9934141321445
 30
0.0
 10
437.3245170110309
 20
452.0103415134786
 30
0.0
 10
437.8169396491538
 20
452.0249562761941
 30
0.0
 10
438.1667765687242
 20
452.0353391935761
 30
0.0
 10
438.3299265788141
 20
452.0401813728341
 30
0.0
 10
438.3299265788141
 20
452.0401813728341
 30
0.0
  0
LINE
  5
CA
330
1F
100
AcDbEntity
  8
0
  6
Continuous
 62
     7
370
    25
100
AcDbLine
 10
430.4762288393
 20
457.302713383
 30
0.0
 11
355.3049268831
 21
456.5154850372
 31
0.0
  0
LINE
  5
CB
330
1F
100
AcDbEntity
  8
0
  6
Continuous
 62
     7
370
    25
100
AcDbLine
 10
337.7088095458
 20
455.8263510354
 30
0.0
 11
338.107193953
 21
455.8595061191
 31
0.0
  0
SPLINE
  5
CC
330
1F
100
AcDbEntity
  8
0
  6
Continuous
 62
     7
370
    25
100
AcDbSpline
210
0.0
220
0.0
230
1.0
 70
     8
 71
     3
 72
     9
 73
     5
 74
     0
 42
0.000000001
 43
0.00000001
 40
0.0
 40
0.0
 40
0.0
 40
0.0
 40
0.6956584730612021
 40
1.0
 40
1.0
 40
1.0
 40
1.0
 10
342.0905304538027
 20
456.1896413453447
 30
0.0
 10
343.7169088323083
 20
456.2686531490158
 30
0.0
 10
346.0548065816865
 20
456.3822315883373
 30
0.0
 10
348.395090733496
 20
456.4101123986924
 30
0.0
 10
349.1073363857284
 20
456.4185976870882
 30
0.0
  0
SPLINE
  5
CD
330
1F
100
AcDbEntity
  8
0
  6
Continuous
 62
     7
370
    25
100
AcDbSpline
210
0.0
220
0.0
230
1.0
 70
     8
 71
     3
 72
     9
 73
     5
 74
     0
 42
0.000000001
 43
0.00000001
 40
0.0
 40
0.0
 40
0.0
 40
0.0
 40
0.9920379676639384
 40
1.0
 40
1.0
 40
1.0
 40
1.0
 10
378.5403958918467
 20
439.9970859177935
 30
0.0
 10
378.573462915446
 20
440.1783759980685
 30
0.0
 10
378.6067953328302
 20
440.3611211007606
 30
0.0
 10
378.5901308155958
 20
440.2699369347935
 30
0.0
 10
378.5899981321708
 20
440.2692109235155
 30
0.0
  0
SPLINE
  5
CE
330
1F
100
AcDbEntity
  8
0
  6
Continuous
 62
     7
370
    25
100
AcDbSpline
210
0.0
220
0.0
230
1.0
 70
     8
 71
     3
 72
    32
 73
    28
 74
     0
 42
0.000000001
 43
0.00000001
 40
0.0
 40
0.0
 40
0.0
 40
0.0
 40
0.1250000000000041
 40
0.1250000000000041
 40
0.1875000000000034
 40
0.1875000000000034
 40
0.2500000000000028
 40
0.2500000000000028
 40
0.3125000000000022
 40
0.3125000000000022
 40
0.3750000000000016
 40
0.3750000000000016
 40
0.4375000000000009
 40
0.4375000000000009
 40
0.5000000000000003
 40
0.5000000000000003
 40
0.625000000000008
 40
0.625000000000008
 40
0.6875000000000075
 40
0.6875000000000075
 40
0.7500000000000071
 40
0.7500000000000071
 40
0.8125000000000068
 40
0.8125000000000068
 40
0.8750000000000063
 40
0.8750000000000063
 40
1.0
 40
1.0
 40
1.0
 40
1.0
 10
378.5403962949492
 20
432.5846972204844
 30
0.0
 10
378.5159041151749
 20
432.7351471258195
 30
0.0
 10
378.4845931475841
 20
432.935727004403
 30
0.0
 10
378.433397412964
 20
433.3101970352659
 30
0.0
 10
378.4156688895977
 20
433.4473832553489
 30
0.0
 10
378.3810672111612
 20
433.737919099619
 30
0.0
 10
378.364049839493
 20
433.8922664500204
 30
0.0
 10
378.3316803190822
 20
434.2193104400176
 30
0.0
 10
378.3162315738463
 20
434.393476495596
 30
0.0
 10
378.2889532026012
 20
434.7504731974536
 30
0.0
 10
378.2770298931542
 20
434.9339297969193
 30
0.0
 10
378.2573660136952
 20
435.3106962166156
 30
0.0
 10
378.2495941100341
 20
435.5052002945174
 30
0.0
 10
378.2391450386319
 20
435.8991909690024
 30
0.0
 10
378.2365033543744
 20
436.0962148918004
 30
0.0
 10
378.2363582853372
 20
436.6873699242145
 30
0.0
 10
378.2471469739816
 20
437.0873917034517
 30
0.0
 10
378.2764722349447
 20
437.6523733745466
 30
0.0
 10
378.288363527121
 20
437.8358732348801
 30
0.0
 10
378.3156474993896
 20
438.1931155906715
 30
0.0
 10
378.3310801889228
 20
438.3668447735314
 30
0.0
 10
378.3634596911266
 20
438.6931809609252
 30
0.0
 10
378.3805168604226
 20
438.8473424187077
 30
0.0
 10
378.4152642062909
 20
439.1377248777236
 30
0.0
 10
378.4330984901663
 20
439.2749059875166
 30
0.0
 10
378.4843659389546
 20
439.6474751270643
 30
0.0
 10
378.5157996740812
 20
439.8472804469292
 30
0.0
 10
378.5403962949462
 20
439.9970895867012
 30
0.0
  0
LINE
  5
CF
330
1F
100
AcDbEntity
  8
0
  6
Continuous
 62
     7
370
    25
100
AcDbLine
 10
378.5897708895
 20
432.3112457879
 30
0.0
 11
378.5403958918
 21
432.584696997
 31
0.0
  0
SPLINE
  5
D0
330
1F
100
AcDbEntity
  8
0
  6
Continuous
 62
     7
370
    25
100
AcDbSpline
210
0.0
220
0.0
230
1.0
 70
    24
 71
     3
 72
    13
 73
     9
 74
     0
 42
0.000000001
 43
0.00000001
 40
0.0
 40
0.0
 40
0.0
 40
0.0
 40
0.1550276767953039
 40
0.3485314066902186
 40
0.5476569771503907
 40
0.740882200950522
 40
0.9396957825052694
 40
1.0
 40
1.0
 40
1.0
 40
1.0
 10
378.5320642800942
 20
424.1895913966524
 30
0.0
 10
378.5159007628332
 20
424.1895913966524
 30
0.0
 10
378.4795621326962
 20
424.1895913966524
 30
0.0
 10
377.6414871900705
 20
424.1895913966524
 30
0.0
 10
376.1955800638289
 20
424.1895913966525
 30
0.0
 10
374.1224425222933
 20
424.1895913966524
 30
0.0
 10
372.1433170684958
 20
424.1895913966525
 30
0.0
 10
370.8628009693624
 20
424.1895913966524
 30
0.0
 10
370.5647877814189
 20
424.1895913966524
 30
0.0
  0
LINE
  5
D1
330
1F
100
AcDbEntity
  8
0
  6
Continuous
 62
     7
370
    25
100
AcDbLine
 10
469.4035902085
 20
397.9940205701
 30
0.0
 11
468.0662482442
 21
401.1445879825
 31
0.0
  0
LWPOLYLINE
  5
D2
330
1F
100
AcDbEntity
  8
0
  6
Continuous
 62
     7
370
    25
100
AcDbPolyline
 90
        9
 70
   128
 43
0.0
 10
469.4035902085
 20
397.9940205701
 10
467.9872497382
 20
397.3928183206
 10
466.6932179989
 20
396.8435391672
 10
465.5486449065
 20
396.3576942571
 10
464.5775213303
 20
395.9454759844
 10
463.8002395095
 20
395.6155419238
 10
463.2330864133
 20
395.3747987636
 10
462.8879680695
 20
395.2283054479
 10
462.7721115412
 20
395.1791241654
  0
LWPOLYLINE
  5
D3
330
1F
100
AcDbEntity
  8
0
  6
Continuous
 62
     7
370
    25
100
AcDbPolyline
 90
        9
 70
   128
 43
0.0
 10
484.8642304005
 20
404.5566707738
 10
484.7483887734
 20
404.5074969419
 10
484.403262979
 20
404.3610036262
 10
483.8361098828
 20
404.1202604659
 10
483.0588206114
 20
403.7903264054
 10
482.0877119364
 20
403.3781081327
 10
480.9431239428
 20
402.8922632225
 10
479.6490922036
 20
402.3429840692
 10
478.2327591838
 20
401.7417818197
  0
LINE
  5
D4
330
1F
100
AcDbEntity
  8
0
  6
Continuous
 62
     7
370
    25
100
AcDbLine
 10
477.1616041126
 20
404.2652562149
 30
0.0
 11
478.2327591838
 21
401.7417818197
 31
0.0
  0
LWPOLYLINE
  5
D5
330
1F
100
AcDbEntity
  8
0
  6
Continuous
 62
     7
370
    25
100
AcDbPolyline
 90
        4
 70
   128
 43
0.0
 10
468.0662482442
 20
401.1445879825
 10
469.1284700694
 20
401.5954673179
 10
470.2260672511
 20
402.0613744744
 10
471.1971684756
 20
402.4735778459
  0
LWPOLYLINE
  5
D6
330
1F
100
AcDbEntity
  8
0
  6
Continuous
 62
     7
370
    25
100
AcDbPolyline
 90
       12
 70
   128
 43
0.0
 10
484.1693147482
 20
403.6344900616
 10
484.141002542
 20
403.6224722751
 10
483.915443665
 20
403.5267248638
 10
483.4693774046
 20
403.3373832591
 10
482.8127428355
 20
403.058657039
 10
481.9602325024
 20
402.69678979
 10
480.9308900895
 20
402.2598579415
 10
479.7476931872
 20
401.757621754
 10
478.4370764555
 20
401.2012943514
 10
477.0283206763
 20
400.6033182033
 10
475.5528971018
 20
399.9770372995
 10
474.0437596502
 20
399.3364438303
  0
SPLINE
  5
D7
330
1F
100
AcDbEntity
  8
0
  6
Continuous
 62
     7
370
    25
100
AcDbSpline
210
0.0
220
0.0
230
1.0
 70
     8
 71
     3
 72
     8
 73
     4
 74
     0
 42
0.000000001
 43
0.00000001
 40
0.0
 40
0.0
 40
0.0
 40
0.0
 40
1.0
 40
1.0
 40
1.0
 40
1.0
 10
478.232759614875
 20
401.7417810677898
 30
0.0
 10
476.9201571905853
 20
400.7883644980723
 30
0.0
 10
475.5336168133532
 20
399.9688524668585
 30
0.0
 10
474.0437621435394
 20
399.3364466797103
 30
0.0
  0
SPLINE
  5
D8
330
1F
100
AcDbEntity
  8
0
  6
Continuous
 62
     7
370
    25
100
AcDbSpline
210
0.0
220
0.0
230
1.0
 70
     8
 71
     3
 72
    10
 73
     6
 74
     0
 42
0.000000001
 43
0.00000001
 40
0.0
 40
0.0
 40
0.0
 40
0.0
 40
0.5
 40
0.5
 40
1.0
 40
1.0
 40
1.0
 40
1.0
 10
474.0437621435394
 20
399.3364466797103
 30
0.0
 10
473.3005696743846
 20
399.0209801929574
 30
0.0
 10
472.5279735060213
 20
398.7505701682551
 30
0.0
 10
470.9760378148796
 20
398.3080529406843
 30
0.0
 10
470.1926520422683
 20
398.1332525273272
 30
0.0
 10
469.4035872277758
 20
397.9940197414929
 30
0.0
  0
LWPOLYLINE
  5
D9
330
1F
100
AcDbEntity
  8
0
  6
Continuous
 62
     7
370
    25
100
AcDbPolyline
 90
       12
 70
   128
 43
0.0
 10
474.0437596502
 20
399.3364438303
 10
472.5346296491
 20
398.6958578118
 10
471.0592060747
 20
398.069576908
 10
469.6504502954
 20
397.4715933092
 10
468.3398335637
 20
396.9152733572
 10
467.1566366615
 20
396.4130371698
 10
466.1272867979
 20
395.9761053213
 10
465.2747764649
 20
395.6142306217
 10
464.6181493463
 20
395.3355118521
 10
464.1720756354
 20
395.1461627968
 10
463.946524209
 20
395.0504228361
 10
463.9182120027
 20
395.0384050496
  0
LINE
  5
DA
330
1F
100
AcDbEntity
  8
0
  6
Continuous
 62
     7
370
    25
100
AcDbLine
 10
442.0837193193
 20
457.0689886697
 30
0.0
 11
441.9209539356
 21
457.0754259714
 31
0.0
  0
LINE
  5
DB
330
1F
100
AcDbEntity
  8
0
  6
Continuous
 62
     7
370
    25
100
AcDbLine
 10
434.9179967703
 20
457.3230087646
 30
0.0
 11
431.7870988907
 21
457.3087036498
 31
0.0
  0
LINE
  5
DC
330
1F
100
AcDbEntity
  8
0
  6
Continuous
 62
     7
370
    25
100
AcDbLine
 10
378.5403958918
 20
432.584696997
 30
0.0
 11
378.5403958918
 21
439.9970859178
 31
0.0
  0
LINE
  5
DD
330
1F
100
AcDbEntity
  8
0
  6
Continuous
 62
     8
370
    18
100
AcDbLine
 10
378.5168408813
 20
298.9296854041
 30
0.0
 11
378.5168725463
 21
329.2969312408
 31
0.0
  0
SPLINE
  5
DE
330
1F
100
AcDbEntity
  8
0
  6
Continuous
 62
     8
370
    18
100
AcDbSpline
210
0.0
220
0.0
230
1.0
 70
     8
 71
     3
 72
    36
 73
    32
 74
     0
 42
0.000000001
 43
0.00000001
 40
0.0
 40
0.0
 40
0.0
 40
0.0
 40
0.1250000000000005
 40
0.1250000000000005
 40
0.1875000000000007
 40
0.1875000000000007
 40
0.2500000000000009
 40
0.2500000000000009
 40
0.3750000000000013
 40
0.3750000000000013
 40
0.4062500000000014
 40
0.4062500000000014
 40
0.4375000000000016
 40
0.4375000000000016
 40
0.5000000000000018
 40
0.5000000000000018
 40
0.5625000000000019
 40
0.5625000000000019
 40
0.5937500000000018
 40
0.5937500000000018
 40
0.6250000000000017
 40
0.6250000000000017
 40
0.6875000000000012
 40
0.6875000000000012
 40
0.7187500000000011
 40
0.7187500000000011
 40
0.750000000000001
 40
0.750000000000001
 40
0.8750000000000006
 40
0.8750000000000006
 40
1.0
 40
1.0
 40
1.0
 40
1.0
 10
355.2340972690708
 20
419.6651693192467
 30
0.0
 10
353.6680474612791
 20
419.6655757656332
 30
0.0
 10
352.1160397902428
 20
419.6666031411827
 30
0.0
 10
349.8087082814789
 20
419.6680664185369
 30
0.0
 10
349.0430934651033
 20
419.6685873992156
 30
0.0
 10
347.519300116314
 20
419.6696232561367
 30
0.0
 10
346.7649630714286
 20
419.6701340327479
 30
0.0
 10
344.5520557670731
 20
419.6716255801903
 30
0.0
 10
343.1336657351515
 20
419.6725603738445
 30
0.0
 10
341.4489004533996
 20
419.67385043698
 30
0.0
 10
341.1152469848664
 20
419.6741159811716
 30
0.0
 10
340.4650488424172
 20
419.6746633996408
 30
0.0
 10
340.14825834198
 20
419.6749453845235
 30
0.0
 10
339.2234427868276
 20
419.6758324822445
 30
0.0
 10
338.6411791376821
 20
419.6764883103441
 30
0.0
 10
337.5451575000245
 20
419.6781581749826
 30
0.0
 10
337.0315862163516
 20
419.6792091573391
 30
0.0
 10
336.3142523927506
 20
419.6809924292398
 30
0.0
 10
336.0850675155102
 20
419.6816129217291
 30
0.0
 10
335.650698682264
 20
419.6828671720688
 30
0.0
 10
335.4446986425528
 20
419.6835060461041
 30
0.0
 10
334.8583508129689
 20
419.6854737278377
 30
0.0
 10
334.5097069783032
 20
419.6868758954591
 30
0.0
 10
334.0443581501556
 20
419.6890829268444
 30
0.0
 10
333.8988376403098
 20
419.6898308367574
 30
0.0
 10
333.6262178128139
 20
419.6913227633593
 30
0.0
 10
333.4988210085742
 20
419.6920685666455
 30
0.0
 10
332.9110123143508
 20
419.6956779409709
 30
0.0
 10
332.5943902184321
 20
419.6981373747471
 30
0.0
 10
332.1850420358597
 20
419.7011072649901
 30
0.0
 10
332.0942797366645
 20
419.7017872131305
 30
0.0
 10
332.0942797422877
 20
419.7017872138266
 30
0.0
  0
SPLINE
  5
DF
330
1F
100
AcDbEntity
  8
0
  6
Continuous
 62
     8
370
    18
100
AcDbSpline
210
0.0
220
0.0
230
1.0
 70
     8
 71
     3
 72
    39
 73
    35
 74
     0
 42
0.000000001
 43
0.00000001
 40
0.0
 40
0.0
 40
0.0
 40
0.0
 40
0.015625
 40
0.015625
 40
0.0312500000000001
 40
0.0625000000000001
 40
0.0625000000000001
 40
0.1250000000000003
 40
0.1250000000000003
 40
0.2500000000000006
 40
0.2500000000000006
 40
0.2812500000000006
 40
0.2812500000000006
 40
0.3125000000000007
 40
0.3125000000000007
 40
0.3750000000000008
 40
0.3750000000000008
 40
0.4375000000000009
 40
0.4375000000000009
 40
0.500000000000001
 40
0.500000000000001
 40
0.5625000000000011
 40
0.5625000000000011
 40
0.5937500000000012
 40
0.5937500000000012
 40
0.6250000000000012
 40
0.6250000000000012
 40
0.7500000000000009
 40
0.7500000000000009
 40
0.8125000000000007
 40
0.8125000000000007
 40
0.8750000000000004
 40
0.8750000000000004
 40
1.0
 40
1.0
 40
1.0
 40
1.0
 10
333.3492817773116
 20
421.0690401306747
 30
0.0
 10
333.3492817765812
 20
421.0690401337379
 30
0.0
 10
333.3506041344212
 20
421.069042368224
 30
0.0
 10
333.3559716537785
 20
421.0690504533284
 30
0.0
 10
333.3681076381173
 20
421.0690679373804
 30
0.0
 10
333.3928533885739
 20
421.0690970984095
 30
0.0
 10
333.4601510689595
 20
421.0691541522565
 30
0.0
 10
333.5287370784698
 20
421.0691928586367
 30
0.0
 10
333.8142703816765
 20
421.0690999324904
 30
0.0
 10
334.1087009992326
 20
421.0686414354995
 30
0.0
 10
334.6566438032108
 20
421.0676886891096
 30
0.0
 10
334.7756240656266
 20
421.0674818371999
 30
0.0
 10
335.0305588151821
 20
421.0670567298549
 30
0.0
 10
335.1667386154604
 20
421.0668384412024
 30
0.0
 10
335.6025780837359
 20
421.0661880634866
 30
0.0
 10
335.9295549861078
 20
421.0657781758103
 30
0.0
 10
336.6642266419053
 20
421.0649574810237
 30
0.0
 10
337.0731886963677
 20
421.0645051012685
 30
0.0
 10
337.9762333161473
 20
421.063432970971
 30
0.0
 10
338.4617880409131
 20
421.0628760443075
 30
0.0
 10
339.4992600399622
 20
421.0618885300603
 30
0.0
 10
340.0509791919543
 20
421.0614212209514
 30
0.0
 10
340.9279754636613
 20
421.0605888708015
 30
0.0
 10
341.2284880031931
 20
421.0602892569013
 30
0.0
 10
341.8454143891026
 20
421.0596483842996
 30
0.0
 10
342.1617661536684
 20
421.0593071039967
 30
0.0
 10
343.7590545110514
 20
421.0575362737915
 30
0.0
 10
345.1038374595213
 20
421.0558967976824
 30
0.0
 10
347.2009358369014
 20
421.0534862743201
 30
0.0
 10
347.9158569047815
 20
421.0526905399015
 30
0.0
 10
349.3581374172356
 20
421.0512330961282
 30
0.0
 10
350.0827287505917
 20
421.0505810847283
 30
0.0
 10
352.2662414433791
 20
421.0489649670309
 30
0.0
 10
353.7347007096044
 20
421.0481763410044
 30
0.0
 10
355.2161719466206
 20
421.048323306421
 30
0.0
  0
LINE
  5
E0
330
1F
100
AcDbEntity
  8
0
  6
Continuous
 62
     8
370
    18
100
AcDbLine
 10
355.2529296303
 20
419.6647643932
 30
0.0
 11
355.2339116741
 21
419.6647792943
 31
0.0
  0
SPLINE
  5
E1
330
1F
100
AcDbEntity
  8
0
  6
Continuous
 62
     8
370
    18
100
AcDbSpline
210
0.0
220
0.0
230
1.0
 70
     8
 71
     3
 72
    12
 73
     8
 74
     0
 42
0.000000001
 43
0.00000001
 40
0.0
 40
0.0
 40
0.0
 40
0.0
 40
0.5
 40
0.5
 40
0.75
 40
0.75
 40
1.0
 40
1.0
 40
1.0
 40
1.0
 10
391.885245139789
 20
419.6366956294831
 30
0.0
 10
385.7798252566348
 20
419.6388503424058
 30
0.0
 10
379.6744388306519
 20
419.6444092011637
 30
0.0
 10
370.5163409147764
 20
419.6507834515407
 30
0.0
 10
367.4636421463284
 20
419.6521953579536
 30
0.0
 10
361.3582459193124
 20
419.6571421964337
 30
0.0
 10
358.3055658170987
 20
419.662022219584
 30
0.0
 10
355.2529296663869
 20
419.6647639846809
 30
0.0
  0
SPLINE
  5
E2
330
1F
100
AcDbEntity
  8
0
  6
Continuous
 62
     8
370
    18
100
AcDbSpline
210
0.0
220
0.0
230
1.0
 70
     8
 71
     3
 72
    10
 73
     6
 74
     0
 42
0.000000001
 43
0.00000001
 40
0.0
 40
0.0
 40
0.0
 40
0.0
 40
0.5
 40
0.5
 40
1.0
 40
1.0
 40
1.0
 40
1.0
 10
414.0618887563587
 20
419.6461262749272
 30
0.0
 10
410.3657552404969
 20
419.6464104101673
 30
0.0
 10
406.6695921963366
 20
419.6455744254626
 30
0.0
 10
399.2772242535378
 20
419.6438149293441
 30
0.0
 10
395.581005921486
 20
419.6457407893245
 30
0.0
 10
391.8848643450544
 20
419.6368192471655
 30
0.0
  0
LINE
  5
E3
330
1F
100
AcDbEntity
  8
0
  6
Continuous
 62
     8
370
    18
100
AcDbLine
 10
355.2132883506
 20
421.0483968147
 30
0.0
 11
355.2324333159
 21
421.0483968147
 31
0.0
  0
ARC
  5
E4
330
1F
100
AcDbEntity
  8
0
  6
Continuous
 62
     8
370
    18
100
AcDbCircle
 10
328.8870718018
 20
419.9651378517
 30
0.0
 40
26.36756877773423
100
AcDbArc
 50
359.3472851496
 51
2.3545454586
  0
SPLINE
  5
E5
330
1F
100
AcDbEntity
  8
0
  6
Continuous
 62
     8
370
    18
100
AcDbSpline
210
0.0
220
0.0
230
1.0
 70
     8
 71
     3
 72
    10
 73
     6
 74
     0
 42
0.000000001
 43
0.00000001
 40
0.0
 40
0.0
 40
0.0
 40
0.0
 40
0.5
 40
0.5
 40
1.0
 40
1.0
 40
1.0
 40
1.0
 10
355.2324332623688
 20
421.0483999113931
 30
0.0
 10
361.3380956137577
 20
421.0492933198907
 30
0.0
 10
367.4439303324918
 20
421.0492023401417
 30
0.0
 10
379.6555129474439
 20
421.0495144638209
 30
0.0
 10
385.7612932429759
 20
421.0497327731566
 30
0.0
 10
391.8671052129321
 20
421.0497674573567
 30
0.0
  0
SPLINE
  5
E6
330
1F
100
AcDbEntity
  8
0
  6
Continuous
 62
     8
370
    18
100
AcDbSpline
210
0.0
220
0.0
230
1.0
 70
     8
 71
     3
 72
    24
 73
    20
 74
     0
 42
0.000000001
 43
0.00000001
 40
0.0
 40
0.0
 40
0.0
 40
0.0
 40
0.125
 40
0.125
 40
0.1874999999999999
 40
0.1874999999999999
 40
0.2499999999999999
 40
0.2499999999999999
 40
0.3749999999999998
 40
0.3749999999999998
 40
0.4999999999999997
 40
0.4999999999999997
 40
0.6249999999999999
 40
0.6249999999999999
 40
0.7499999999999999
 40
0.7499999999999999
 40
0.875
 40
0.875
 40
1.0
 40
1.0
 40
1.0
 40
1.0
 10
355.3030464382092
 20
454.6831064520138
 30
0.0
 10
353.9206421775829
 20
454.667473183974
 30
0.0
 10
352.5861328655076
 20
454.6495570545546
 30
0.0
 10
350.4813695781704
 20
454.6190411159863
 30
0.0
 10
349.7618463390544
 20
454.6083991516241
 30
0.0
 10
348.2864151897932
 20
454.5874628454808
 30
0.0
 10
347.5334790856108
 20
454.5773254568152
 30
0.0
 10
345.3321804972932
 20
454.5508356086796
 30
0.0
 10
343.9155903868133
 20
454.5373131740997
 30
0.0
 10
341.3986041619434
 20
454.5196165406527
 30
0.0
 10
340.2828812627474
 20
454.5152233663694
 30
0.0
 10
338.4453991543228
 20
454.5136102228362
 30
0.0
 10
337.7300861053682
 20
454.5164559550283
 30
0.0
 10
336.7925692992915
 20
454.5299522201625
 30
0.0
 10
336.5880326941878
 20
454.5410843524299
 30
0.0
 10
336.4302278540561
 20
454.5673905268048
 30
0.0
 10
336.4258408906351
 20
454.5820307540442
 30
0.0
 10
336.3899884752144
 20
454.6040245565591
 30
0.0
 10
336.3815770984396
 20
454.6104341661763
 30
0.0
 10
336.3815764013897
 20
454.6104294470268
 30
0.0
  0
SPLINE
  5
E7
330
1F
100
AcDbEntity
  8
0
  6
Continuous
 62
     8
370
    18
100
AcDbSpline
210
0.0
220
0.0
230
1.0
 70
     8
 71
     3
 72
    10
 73
     6
 74
     0
 42
0.000000001
 43
0.00000001
 40
0.0
 40
0.0
 40
0.0
 40
0.0
 40
0.5
 40
0.5
 40
1.0
 40
1.0
 40
1.0
 40
1.0
 10
374.1282741949044
 20
454.8596954537527
 30
0.0
 10
370.9942795965197
 20
454.8277724497741
 30
0.0
 10
367.8515992016311
 20
454.791989557193
 30
0.0
 10
361.5790196808076
 20
454.7391736730615
 30
0.0
 10
358.4432850942337
 20
454.7195065949546
 30
0.0
 10
355.3049602314093
 20
454.6833201655041
 30
0.0
  0
SPLINE
  5
E8
330
1F
100
AcDbEntity
  8
0
  6
Continuous
 62
     8
370
    18
100
AcDbSpline
210
0.0
220
0.0
230
1.0
 70
     8
 71
     3
 72
    43
 73
    39
 74
     0
 42
0.000000001
 43
0.00000001
 40
0.0
 40
0.0
 40
0.0
 40
0.0
 40
0.0205282890803572
 40
0.040763942450717
 40
0.0607118193738483
 40
0.0803697316221612
 40
0.0997337777087014
 40
0.1408590872330643
 40
0.1803167060628892
 40
0.2075110767361476
 40
0.2342388321476568
 40
0.286496106525562
 40
0.3119452391513187
 40
0.3497094686330874
 40
0.3746587739869406
 40
0.3870841411691814
 40
0.4375520820447036
 40
0.4627304285819359
 40
0.4753186170218086
 40
0.5004736428805858
 40
0.5382447319656241
 40
0.5888801455420477
 40
0.6296129204153815
 40
0.6706491497447843
 40
0.6982469489454126
 40
0.7250383618020495
 40
0.7452722884098404
 40
0.7520207630424414
 40
0.7655548876169894
 40
0.8065647371005212
 40
0.8194476827065035
 40
0.8453991691107862
 40
0.8650575801911088
 40
0.8716456960273051
 40
0.8845550674858105
 40
0.9109848611261377
 40
0.9550668562724818
 40
1.0
 40
1.0
 40
1.0
 40
1.0
 10
374.1282611687295
 20
454.8600190942652
 30
0.0
 10
374.1313539892763
 20
454.7971571316006
 30
0.0
 10
374.1374955414674
 20
454.6723293187046
 30
0.0
 10
374.1540856069663
 20
454.4872333693563
 30
0.0
 10
374.1758850690745
 20
454.3057968788357
 30
0.0
 10
374.203266544659
 20
454.128361218619
 30
0.0
 10
374.2482972954572
 20
453.8895297007761
 30
0.0
 10
374.3198695945308
 20
453.5970067101912
 30
0.0
 10
374.4186346350461
 20
453.2924096961389
 30
0.0
 10
374.5189097109009
 20
453.0382015245373
 30
0.0
 10
374.6457801615957
 20
452.759101383085
 30
0.0
 10
374.7881870722015
 20
452.4999923874942
 30
0.0
 10
374.9612260603395
 20
452.2325477578115
 30
0.0
 10
375.1022709371923
 20
452.0402095023332
 30
0.0
 10
375.2287680945866
 20
451.8866503469952
 30
0.0
 10
375.3804965657382
 20
451.7143125482249
 30
0.0
 10
375.5388292280527
 20
451.5535094105133
 30
0.0
 10
375.7026534874944
 20
451.4066796703813
 30
0.0
 10
375.8211190867357
 20
451.3069307861376
 30
0.0
 10
375.9650612870736
 20
451.193083268904
 30
0.0
 10
376.1851740383419
 20
451.0363127989398
 30
0.0
 10
376.4394136826503
 20
450.8801179116933
 30
0.0
 10
376.7022879416323
 20
450.7419692127733
 30
0.0
 10
376.9201897758814
 20
450.643189263358
 30
0.0
 10
377.1101738247621
 20
450.567624619736
 30
0.0
 10
377.2584472793152
 20
450.5148996806038
 30
0.0
 10
377.3650116086942
 20
450.4807670081394
 30
0.0
 10
377.4451276733702
 20
450.4566793334617
 30
0.0
 10
377.5661637201299
 20
450.4220928794064
 30
0.0
 10
377.6986122619624
 20
450.3894039098734
 30
0.0
 10
377.8543429476399
 20
450.3567170993425
 30
0.0
 10
377.9678162865818
 20
450.3358990833347
 30
0.0
 10
378.0684148355276
 20
450.320509687582
 30
0.0
 10
378.143529398126
 20
450.3103033000149
 30
0.0
 10
378.2314700168028
 20
450.2994927578383
 30
0.0
 10
378.3900772373663
 20
450.2841242030017
 30
0.0
 10
378.6067461411552
 20
450.2719901955562
 30
0.0
 10
378.7704658764158
 20
450.2739253635027
 30
0.0
 10
378.8531084750632
 20
450.2749021993597
 30
0.0
  0
SPLINE
  5
E9
330
1F
100
AcDbEntity
  8
0
  6
Continuous
 62
     8
370
    18
100
AcDbSpline
210
0.0
220
0.0
230
1.0
 70
     8
 71
     3
 72
    11
 73
     7
 74
     0
 42
0.000000001
 43
0.00000001
 40
0.0
 40
0.0
 40
0.0
 40
0.0
 40
0.0176053512631304
 40
0.0176053512631304
 40
0.0176053512631304
 40
0.0221786404277094
 40
0.0221786404277094
 40
0.0221786404277094
 40
0.0221786404277094
 10
391.8667598900257
 20
421.0497733639218
 30
0.0
 10
397.7346264726551
 20
421.0497941994765
 30
0.0
 10
403.6026208653968
 20
421.0490526990592
 30
0.0
 10
409.4704947891362
 20
421.0490300461432
 30
0.0
 10
410.9947748838288
 20
421.0490241616628
 30
0.0
 10
412.5190496652625
 20
421.0490495731092
 30
0.0
 10
414.0433205667298
 20
421.0490967354606
 30
0.0
  0
SPLINE
  5
EA
330
1F
100
AcDbEntity
  8
0
  6
Continuous
 62
     8
370
    18
100
AcDbSpline
210
0.0
220
0.0
230
1.0
 70
     8
 71
     3
 72
    12
 73
     8
 74
     0
 42
0.000000001
 43
0.00000001
 40
0.0
 40
0.0
 40
0.0
 40
0.0
 40
0.2499999999999998
 40
0.2499999999999998
 40
0.4999999999999999
 40
0.4999999999999999
 40
1.0
 40
1.0
 40
1.0
 40
1.0
 10
374.1065901756453
 20
456.1910698613457
 30
0.0
 10
378.802055987169
 20
456.2474424584973
 30
0.0
 10
383.4972324916742
 20
456.3038352182515
 30
0.0
 10
392.8869128073771
 20
456.416710553563
 30
0.0
 10
397.5817540171091
 20
456.4731434088174
 30
0.0
 10
411.6662790761475
 20
456.6424339479315
 30
0.0
 10
421.0559656290537
 20
456.7552788011102
 30
0.0
 10
430.4456569120039
 20
456.8681039611923
 30
0.0
  0
SPLINE
  5
EB
330
1F
100
AcDbEntity
  8
0
  6
Continuous
 62
     8
370
    18
100
AcDbSpline
210
0.0
220
0.0
230
1.0
 70
     8
 71
     3
 72
    12
 73
     8
 74
     0
 42
0.000000001
 43
0.00000001
 40
0.0
 40
0.0
 40
0.0
 40
0.0
 40
0.5000000000000001
 40
0.5000000000000001
 40
0.7500000000000002
 40
0.7500000000000002
 40
1.0
 40
1.0
 40
1.0
 40
1.0
 10
430.4796785707546
 20
455.5306948011085
 30
0.0
 10
421.0899887247757
 20
455.419534146212
 30
0.0
 10
411.7003022365891
 20
455.3080005045978
 30
0.0
 10
397.6157784517523
 20
455.1403233163142
 30
0.0
 10
392.9209385947298
 20
455.0843929693837
 30
0.0
 10
383.5312554772913
 20
454.9723675672777
 30
0.0
 10
378.8300848716423
 20
454.9162907605121
 30
0.0
 10
374.128290813159
 20
454.8603387175392
 30
0.0
  0
SPLINE
  5
EC
330
1F
100
AcDbEntity
  8
0
  6
Continuous
 62
     8
370
    18
100
AcDbSpline
210
0.0
220
0.0
230
1.0
 70
     8
 71
     3
 72
    10
 73
     6
 74
     0
 42
0.000000001
 43
0.00000001
 40
0.0
 40
0.0
 40
0.0
 40
0.0
 40
0.4999999999999999
 40
0.4999999999999999
 40
1.0
 40
1.0
 40
1.0
 40
1.0
 10
355.3049268249834
 20
455.9676725876391
 30
0.0
 10
358.438441959509
 20
456.0050218925388
 30
0.0
 10
361.572315478632
 20
456.0421984771693
 30
0.0
 10
367.8401995375174
 20
456.1161667024957
 30
0.0
 10
370.9729615379887
 20
456.15400335813
 30
0.0
 10
374.1084918956506
 20
456.1910638246665
 30
0.0
  0
LINE
  5
ED
330
1F
100
AcDbEntity
  8
0
  6
Continuous
 62
     8
370
    18
100
AcDbLine
 10
414.0436753096
 20
421.0491269716
 30
0.0
 11
462.0435416164
 21
421.0497379192
 31
0.0
  0
LWPOLYLINE
  5
EE
330
1F
100
AcDbEntity
  8
0
  6
Continuous
 62
     8
370
    18
100
AcDbPolyline
 90
        5
 70
   128
 43
0.0
 10
462.0618923964
 20
419.6206793078
 10
446.8875631155
 20
419.6294560917
 10
431.7132338347
 20
419.6372717508
 10
422.8875591816
 20
419.6414142736
 10
414.0618882539
 20
419.6453034767
  0
SPLINE
  5
EF
330
1F
100
AcDbEntity
  8
0
  6
Continuous
 62
     8
370
    18
100
AcDbSpline
210
0.0
220
0.0
230
1.0
 70
     8
 71
     3
 72
    24
 73
    20
 74
     0
 42
0.000000001
 43
0.00000001
 40
0.0
 40
0.0
 40
0.0
 40
0.0
 40
0.1250000000000003
 40
0.1250000000000003
 40
0.2500000000000003
 40
0.2500000000000003
 40
0.3750000000000004
 40
0.3750000000000004
 40
0.5000000000000004
 40
0.5000000000000004
 40
0.6250000000000004
 40
0.6250000000000004
 40
0.7500000000000002
 40
0.7500000000000002
 40
0.8125000000000002
 40
0.8125000000000002
 40
0.8750000000000002
 40
0.8750000000000002
 40
1.0
 40
1.0
 40
1.0
 40
1.0
 10
337.7088100866141
 20
455.8263450464026
 30
0.0
 10
337.7088146237335
 20
455.8263455756585
 30
0.0
 10
337.7120645839592
 20
455.8255718328205
 30
0.0
 10
337.7293489005023
 20
455.823175241031
 30
0.0
 10
337.7220309726501
 20
455.8223194584834
 30
0.0
 10
337.8540078221604
 20
455.8156641234924
 30
0.0
 10
338.039848929643
 20
455.8111610846735
 30
0.0
 10
338.8786743541271
 20
455.8085058308604
 30
0.0
 10
339.521108351275
 20
455.8103179463376
 30
0.0
 10
341.1829158593022
 20
455.8198079417807
 30
0.0
 10
342.1979982842274
 20
455.8274696887921
 30
0.0
 10
344.4837571027324
 20
455.8478934040407
 30
0.0
 10
345.763981795909
 20
455.8607188817913
 30
0.0
 10
347.7680428491394
 20
455.8819071685921
 30
0.0
 10
348.4581760811081
 20
455.889574478296
 30
0.0
 10
349.832213526958
 20
455.9050609646789
 30
0.0
 10
350.518952738514
 20
455.9127674471736
 30
0.0
 10
352.5741822034586
 20
455.9357350251698
 30
0.0
 10
353.9371727571481
 20
455.951107301495
 30
0.0
 10
355.3049268249856
 20
455.9676501658473
 30
0.0
  0
SPLINE
  5
F0
330
1F
100
AcDbEntity
  8
0
  6
Continuous
 62
     8
370
    18
100
AcDbSpline
210
0.0
220
0.0
230
1.0
 70
    24
 71
     3
 72
     8
 73
     4
 74
     0
 42
0.000000001
 43
0.00000001
 40
0.0841390490982549
 40
0.0841390490982549
 40
0.0841390490982549
 40
0.0841390490982549
 40
0.0963595752834648
 40
0.0963595752834648
 40
0.0963595752834648
 40
0.0963595752834648
 10
355.2324332623688
 20
421.0647752022467
 30
0.0
 10
355.2324332623688
 20
421.059353480176
 30
0.0
 10
355.2324332623688
 20
421.0538950973414
 30
0.0
 10
355.2324332623688
 20
421.0484000537429
 30
0.0
  0
SPLINE
  5
F1
330
1F
100
AcDbEntity
  8
0
  6
Continuous
 62
     8
370
    18
100
AcDbSpline
210
0.0
220
0.0
230
1.0
 70
    24
 71
     3
 72
     8
 73
     4
 74
     0
 42
0.000000001
 43
0.00000001
 40
0.0963595752832861
 40
0.0963595752832861
 40
0.0963595752832861
 40
0.0963595752832861
 40
0.1112997098745325
 40
0.1112997098745325
 40
0.1112997098745325
 40
0.1112997098745325
 10
355.2324332623688
 20
421.0647752022464
 30
0.0
 10
355.2324332623688
 20
421.0714034976427
 30
0.0
 10
355.2324332623688
 20
421.0779769993275
 30
0.0
 10
355.2324332623688
 20
421.0844957073008
 30
0.0
  0
LINE
  5
F2
330
1F
100
AcDbEntity
  8
0
  6
Continuous
 62
     8
370
    18
100
AcDbLine
 10
473.1218397083
 20
421.5388014801
 30
0.0
 11
473.1218397083
 21
421.6047391184
 31
0.0
  0
SPLINE
  5
F3
330
1F
100
AcDbEntity
  8
0
  6
Continuous
 62
     8
370
    18
100
AcDbSpline
210
0.0
220
0.0
230
1.0
 70
     8
 71
     3
 72
    12
 73
     8
 74
     0
 42
0.000000001
 43
0.00000001
 40
0.0
 40
0.0
 40
0.0
 40
0.0
 40
0.5
 40
0.5
 40
0.75
 40
0.75
 40
1.0
 40
1.0
 40
1.0
 40
1.0
 10
462.0437740672073
 20
421.0497379273625
 30
0.0
 10
464.3415692660594
 20
421.0497797493901
 30
0.0
 10
466.639346264043
 20
421.0499233489444
 30
0.0
 10
470.0859366360863
 20
421.0505550639114
 30
0.0
 10
471.2347943970478
 20
421.0506639239856
 30
0.0
 10
473.532569324628
 20
421.0507565465138
 30
0.0
 10
474.6814951742181
 20
421.0513060675468
 30
0.0
 10
475.8303604173582
 20
421.0511147656868
 30
0.0
  0
SPLINE
  5
F4
330
1F
100
AcDbEntity
  8
0
  6
Continuous
 62
     8
370
    18
100
AcDbSpline
210
0.0
220
0.0
230
1.0
 70
     8
 71
     3
 72
    14
 73
    10
 74
     0
 42
0.000000001
 43
0.00000001
 40
0.0
 40
0.0
 40
0.0
 40
0.0
 40
0.25
 40
0.25
 40
0.5
 40
0.5
 40
0.75
 40
0.75
 40
1.0
 40
1.0
 40
1.0
 40
1.0
 10
488.607409660209
 20
419.2031484356054
 30
0.0
 10
488.6882750442963
 20
419.4050380067675
 30
0.0
 10
488.7212078674688
 20
419.625949185993
 30
0.0
 10
488.6842812402064
 20
420.0593478916996
 30
0.0
 10
488.6144505232116
 20
420.2714981813453
 30
0.0
 10
488.3867426047566
 20
420.6420765489847
 30
0.0
 10
488.2290425877432
 20
420.8002162720324
 30
0.0
 10
487.8591213511662
 20
421.0289333957728
 30
0.0
 10
487.6471879752541
 20
421.0993328268216
 30
0.0
 10
487.4305710700633
 20
421.1183691549487
 30
0.0
  0
SPLINE
  5
F5
330
1F
100
AcDbEntity
  8
0
  6
Continuous
 62
     8
370
    18
100
AcDbSpline
210
0.0
220
0.0
230
1.0
 70
     8
 71
     3
 72
    36
 73
    32
 74
     0
 42
0.000000001
 43
0.00000001
 40
0.0
 40
0.0
 40
0.0
 40
0.0
 40
0.1249999999999969
 40
0.1249999999999969
 40
0.1874999999999954
 40
0.1874999999999954
 40
0.249999999999994
 40
0.249999999999994
 40
0.3749999999999909
 40
0.3749999999999909
 40
0.4062499999999905
 40
0.4062499999999905
 40
0.43749999999999
 40
0.43749999999999
 40
0.4999999999999911
 40
0.4999999999999911
 40
0.5624999999999922
 40
0.5624999999999922
 40
0.6249999999999933
 40
0.6249999999999933
 40
0.6562499999999939
 40
0.6562499999999939
 40
0.6874999999999944
 40
0.6874999999999944
 40
0.7499999999999956
 40
0.7499999999999956
 40
0.8124999999999967
 40
0.8124999999999967
 40
0.8749999999999978
 40
0.8749999999999978
 40
1.0
 40
1.0
 40
1.0
 40
1.0
 10
488.6074095294012
 20
419.2031484893033
 30
0.0
 10
488.5932034666445
 20
419.2089802075084
 30
0.0
 10
488.5765384440131
 20
419.2146756661887
 30
0.0
 10
488.5258658401992
 20
419.2117448240737
 30
0.0
 10
488.5043143099456
 20
419.2091051576049
 30
0.0
 10
488.4366836785767
 20
419.2067406107442
 30
0.0
 10
488.3899708494462
 20
419.2070326679989
 30
0.0
 10
488.1843771599766
 20
419.2115951973578
 30
0.0
 10
487.9615746932008
 20
419.2208167131178
 30
0.0
 10
487.5059994662252
 20
419.2430434697323
 30
0.0
 10
487.4059847765648
 20
419.247788653373
 30
0.0
 10
487.1909476765243
 20
419.2576798014741
 30
0.0
 10
487.0755475162587
 20
419.2628399275664
 30
0.0
 10
486.7050798960149
 20
419.2791283597075
 30
0.0
 10
486.4258941936444
 20
419.2911356653251
 30
0.0
 10
485.7963476469236
 20
419.3201127469405
 30
0.0
 10
485.4538630106828
 20
419.3368224963249
 30
0.0
 10
484.7256878192127
 20
419.3709444982326
 30
0.0
 10
484.3387855409052
 20
419.3883419392724
 30
0.0
 10
483.7253706772398
 20
419.4143495199307
 30
0.0
 10
483.5143735426952
 20
419.4230754527941
 30
0.0
 10
483.0886055237465
 20
419.4400315911384
 30
0.0
 10
482.8733246408892
 20
419.4482134436183
 30
0.0
 10
482.2208021931612
 20
419.4734113771092
 30
0.0
 10
481.7767941670259
 20
419.4907733472784
 30
0.0
 10
480.8756774909575
 20
419.521286503215
 30
0.0
 10
480.4186292506078
 20
419.5349040128816
 30
0.0
 10
479.5066629886695
 20
419.5572432777317
 30
0.0
 10
479.0500552964864
 20
419.566085609981
 30
0.0
 10
477.6796529871183
 20
419.5883754361977
 30
0.0
 10
476.7653695650966
 20
419.591526774288
 30
0.0
 10
475.851050861198
 20
419.5950211676262
 30
0.0
  0
SPLINE
  5
F6
330
1F
100
AcDbEntity
  8
0
  6
Continuous
 62
     8
370
    18
100
AcDbSpline
210
0.0
220
0.0
230
1.0
 70
     8
 71
     3
 72
    12
 73
     8
 74
     0
 42
0.000000001
 43
0.00000001
 40
0.0
 40
0.0
 40
0.0
 40
0.0
 40
0.2499999999999992
 40
0.2499999999999992
 40
0.4999999999999984
 40
0.4999999999999984
 40
1.0
 40
1.0
 40
1.0
 40
1.0
 10
475.8509118239314
 20
419.5941684398384
 30
0.0
 10
474.7018707948449
 20
419.5985612242234
 30
0.0
 10
473.5527624529221
 20
419.6015059378224
 30
0.0
 10
471.2546263378337
 20
419.607691797277
 30
0.0
 10
470.1055868070752
 20
419.6103961220132
 30
0.0
 10
466.6584450567655
 20
419.6165403537526
 30
0.0
 10
464.3602979126842
 20
419.6193650870225
 30
0.0
 10
462.0621294675179
 20
419.6206808336515
 30
0.0
  0
SPLINE
  5
F7
330
1F
100
AcDbEntity
  8
0
  6
Continuous
 62
     8
370
    18
100
AcDbSpline
210
0.0
220
0.0
230
1.0
 70
     8
 71
     3
 72
    11
 73
     7
 74
     0
 42
0.000000001
 43
0.00000001
 40
0.0
 40
0.0
 40
0.0
 40
0.0
 40
0.0359164939611622
 40
0.3918063115221418
 40
0.6958993256193075
 40
1.0
 40
1.0
 40
1.0
 40
1.0
 10
488.6521800817862
 20
419.1624760516512
 30
0.0
 10
488.6522200968293
 20
419.1626794421027
 30
0.0
 10
488.652656613446
 20
419.1648981904781
 30
0.0
 10
488.6469561352694
 20
419.1753021728722
 30
0.0
 10
488.6339720211396
 20
419.1900364273926
 30
0.0
 10
488.6162389415476
 20
419.1987034476906
 30
0.0
 10
488.6073722900763
 20
419.2030370124209
 30
0.0
  0
SPLINE
  5
F8
330
1F
100
AcDbEntity
  8
0
  6
Continuous
 62
     8
370
    18
100
AcDbSpline
210
0.0
220
0.0
230
1.0
 70
     8
 71
     3
 72
    17
 73
    13
 74
     0
 42
0.000000001
 43
0.00000001
 40
0.0
 40
0.0
 40
0.0
 40
0.0
 40
0.1176196555194584
 40
0.24024723364742
 40
0.3698440535343529
 40
0.4367214722587921
 40
0.5044525005635437
 40
0.572125727995678
 40
0.6388469723137505
 40
0.7682036311689568
 40
0.8901277467659239
 40
1.0
 40
1.0
 40
1.0
 40
1.0
 10
430.5101662339583
 20
455.5310994275438
 30
0.0
 10
431.3424334296831
 20
455.542067970274
 30
0.0
 10
433.0424034775915
 20
455.5644720662256
 30
0.0
 10
435.6490043759155
 20
455.5984582803592
 30
0.0
 10
437.8206728179021
 20
455.6279094070044
 30
0.0
 10
439.430829057174
 20
455.6514062071058
 30
0.0
 10
440.5289834155281
 20
455.6681660703164
 30
0.0
 10
441.4317785141052
 20
455.6828053632107
 30
0.0
 10
442.3571435657179
 20
455.6988585249904
 30
0.0
 10
443.0190653544233
 20
455.7112668726236
 30
0.0
 10
443.2745812232716
 20
455.717657660055
 30
0.0
 10
443.2762958683307
 20
455.7185805285905
 30
0.0
 10
443.2771086158172
 20
455.7190179713594
 30
0.0
  0
SPLINE
  5
F9
330
1F
100
AcDbEntity
  8
0
  6
Continuous
 62
     8
370
    18
100
AcDbSpline
210
0.0
220
0.0
230
1.0
 70
     8
 71
     3
 72
    18
 73
    14
 74
     0
 42
0.000000001
 43
0.00000001
 40
0.0
 40
0.0
 40
0.0
 40
0.0
 40
0.25
 40
0.25
 40
0.375
 40
0.375
 40
0.5
 40
0.5
 40
0.625
 40
0.625
 40
0.75
 40
0.75
 40
1.0
 40
1.0
 40
1.0
 40
1.0
 10
430.4762259216398
 20
456.8684732276607
 30
0.0
 10
432.0936579371179
 20
456.8880125789764
 30
0.0
 10
433.7265233926321
 20
456.911415981437
 30
0.0
 10
436.1085662392322
 20
456.9472870631588
 30
0.0
 10
436.8990966705138
 20
456.9595452820219
 30
0.0
 10
438.364196763614
 20
456.9829938273083
 30
0.0
 10
439.052577085574
 20
456.9944021955071
 30
0.0
 10
440.1924352314704
 20
457.014459272219
 30
0.0
 10
440.659193539391
 20
457.0234183945388
 30
0.0
 10
441.3592847692437
 20
457.0377995971846
 30
0.0
 10
441.6035918058449
 20
457.04341267988
 30
0.0
 10
442.0689567495814
 20
457.0552939694934
 30
0.0
 10
442.0763907805523
 20
457.0573953502608
 30
0.0
 10
442.0793254862804
 20
457.0605894666044
 30
0.0
  0
SPLINE
  5
FA
330
1F
100
AcDbEntity
  8
0
  6
Continuous
 62
     8
370
    18
100
AcDbSpline
210
0.0
220
0.0
230
1.0
 70
     8
 71
     3
 72
    11
 73
     7
 74
     0
 42
0.000000001
 43
0.00000001
 40
0.0
 40
0.0
 40
0.0
 40
0.0
 40
0.1376887749833691
 40
0.4322537434797138
 40
0.7268215981853002
 40
1.0
 40
1.0
 40
1.0
 40
1.0
 10
443.2448699535743
 20
455.9524893649447
 30
0.0
 10
443.2372178241668
 20
456.0326566612601
 30
0.0
 10
443.2131950846053
 20
456.2843301469252
 30
0.0
 10
442.9694663823612
 20
456.651750570445
 30
0.0
 10
442.5661843686088
 20
456.9715828438812
 30
0.0
 10
442.237482568669
 20
457.0316718283274
 30
0.0
 10
442.0793234767333
 20
457.0605844148027
 30
0.0
  0
SPLINE
  5
FB
330
1F
100
AcDbEntity
  8
0
  6
Continuous
 62
     8
370
    18
100
AcDbSpline
210
0.0
220
0.0
230
1.0
 70
     8
 71
     3
 72
     9
 73
     5
 74
     0
 42
0.000000001
 43
0.00000001
 40
0.0
 40
0.0
 40
0.0
 40
0.0
 40
0.7257890924840553
 40
1.0
 40
1.0
 40
1.0
 40
1.0
 10
443.2795375050918
 20
455.719137180649
 30
0.0
 10
443.2488695985529
 20
455.280518848385
 30
0.0
 10
443.2066150278292
 20
454.6761858034191
 30
0.0
 10
442.8690291358346
 20
454.1885550574532
 30
0.0
 10
442.7764594020263
 20
454.0548413880693
 30
0.0
  0
LINE
  5
FC
330
1F
100
AcDbEntity
  8
0
  6
Continuous
 62
     8
370
    18
100
AcDbLine
 10
439.8788764538
 20
452.2247701772
 30
0.0
 11
438.3299230995
 21
452.0401745923
 31
0.0
  0
SPLINE
  5
FD
330
1F
100
AcDbEntity
  8
0
  6
Continuous
 62
     8
370
    18
100
AcDbSpline
210
0.0
220
0.0
230
1.0
 70
    24
 71
     3
 72
     9
 73
     5
 74
     0
 42
0.000000001
 43
0.00000001
 40
0.0
 40
0.0
 40
0.0
 40
0.0
 40
0.5
 40
1.0
 40
1.0
 40
1.0
 40
1.0
 10
430.47622592164
 20
457.3027084876789
 30
0.0
 10
430.47622592164
 20
457.3027084876789
 30
0.0
 10
430.47622592164
 20
457.2921855483078
 30
0.0
 10
430.4762259216399
 20
457.2606167301943
 30
0.0
 10
430.4762259216399
 20
457.239570851452
 30
0.0
  0
LINE
  5
FE
330
1F
100
AcDbEntity
  8
0
  6
Continuous
 62
     8
370
    18
100
AcDbLine
 10
349.1073363857
 20
456.4185976871
 30
0.0
 11
355.3049268831
 21
456.5154850372
 31
0.0
  0
SPLINE
  5
FF
330
1F
100
AcDbEntity
  8
0
  6
Continuous
 62
     8
370
    18
100
AcDbSpline
210
0.0
220
0.0
230
1.0
 70
     8
 71
     3
 72
    10
 73
     6
 74
     0
 42
0.000000001
 43
0.00000001
 40
0.0
 40
0.0
 40
0.0
 40
0.0
 40
0.0311540302368694
 40
0.5780290302368694
 40
0.9061540302368694
 40
0.9061540302368694
 40
0.9061540302368694
 40
0.9061540302368694
 10
442.0811994966978
 20
457.0604632533784
 30
0.0
 10
441.9482658167188
 20
457.0703395548683
 30
0.0
 10
439.4817591882545
 20
457.2453042105639
 30
0.0
 10
435.6133598255411
 20
457.3034535545785
 30
0.0
 10
431.8768339133982
 20
457.2545563677267
 30
0.0
 10
430.4762259216399
 20
457.239570851452
 30
0.0
  0
SPLINE
  5
100
330
1F
100
AcDbEntity
  8
0
  6
Continuous
 62
     8
370
    18
100
AcDbSpline
210
0.0
220
0.0
230
1.0
 70
     8
 71
     3
 72
     8
 73
     4
 74
     0
 42
0.000000001
 43
0.00000001
 40
0.0
 40
0.0
 40
0.0
 40
0.0
 40
1.0
 40
1.0
 40
1.0
 40
1.0
 10
443.2795892476412
 20
455.7205744857284
 30
0.0
 10
443.2796675308251
 20
455.7227169717407
 30
0.0
 10
443.279704685385
 20
455.7237727354343
 30
0.0
 10
443.2797044426246
 20
455.7237659832774
 30
0.0
  0
LINE
  5
101
330
1F
100
AcDbEntity
  8
0
  6
Continuous
 62
     8
370
    18
100
AcDbLine
 10
431.7870988907
 20
457.3087036498
 30
0.0
 11
430.4762288393
 21
457.302713383
 31
0.0
  0
SPLINE
  5
102
330
1F
100
AcDbEntity
  8
0
  6
Continuous
 62
     8
370
    18
100
AcDbSpline
210
0.0
220
0.0
230
1.0
 70
     8
 71
     3
 72
     8
 73
     4
 74
     0
 42
0.000000001
 43
0.00000001
 40
0.0
 40
0.0
 40
0.0
 40
0.0
 40
1.0
 40
1.0
 40
1.0
 40
1.0
 10
442.0793348518574
 20
457.0606017578
 30
0.0
 10
442.0823182480444
 20
457.0662739107062
 30
0.0
 10
442.0837277488083
 20
457.0690023543599
 30
0.0
 10
442.083720892844
 20
457.0689883993153
 30
0.0
  0
SPLINE
  5
103
330
1F
100
AcDbEntity
  8
0
  6
Continuous
 62
     8
370
    18
100
AcDbSpline
210
0.0
220
0.0
230
1.0
 70
     8
 71
     3
 72
    10
 73
     6
 74
     0
 42
0.000000001
 43
0.00000001
 40
0.0
 40
0.0
 40
0.0
 40
0.0
 40
0.5
 40
0.5
 40
1.0
 40
1.0
 40
1.0
 40
1.0
 10
487.4305165473791
 20
421.1182605635015
 30
0.0
 10
487.4559876896924
 20
421.1162213710986
 30
0.0
 10
487.4703109488989
 20
421.1137794792275
 30
0.0
 10
487.4864293862138
 20
421.1092496968994
 30
0.0
 10
487.4866297612089
 20
421.1077721063475
 30
0.0
 10
487.4866295539041
 20
421.1077712408582
 30
0.0
  0
LINE
  5
104
330
1F
100
AcDbEntity
  8
0
  6
Continuous
 62
     8
370
    18
100
AcDbLine
 10
379.1409443529
 20
432.5081646331
 30
0.0
 11
379.1409443529
 21
440.0710105785
 31
0.0
  0
LINE
  5
105
330
1F
100
AcDbEntity
  8
0
  6
Continuous
 62
     7
370
    25
100
AcDbLine
 10
186.0338618358
 20
403.0184686073
 30
0.0
 11
186.0338618358
 21
403.5187005885
 31
0.0
  0
LINE
  5
106
330
1F
100
AcDbEntity
  8
0
  6
Continuous
 62
     7
370
    25
100
AcDbLine
 10
162.0338616272
 20
403.4914463647
 30
0.0
 11
162.0338616272
 21
403.0184686073
 31
0.0
  0
LINE
  5
107
330
1F
100
AcDbEntity
  8
0
  6
Continuous
 62
     7
370
    25
100
AcDbLine
 10
165.8998142307
 20
396.4206591137
 30
0.0
 11
166.5776517553
 21
396.1764737852
 31
0.0
  0
LINE
  5
108
330
1F
100
AcDbEntity
  8
0
  6
Continuous
 62
     7
370
    25
100
AcDbLine
 10
181.4900717077
 20
396.1764737852
 30
0.0
 11
182.1679092323
 21
396.4206591137
 31
0.0
  0
SPLINE
  5
109
330
1F
100
AcDbEntity
  8
0
  6
Continuous
 62
     7
370
    25
100
AcDbSpline
210
0.0
220
0.0
230
1.0
 70
     8
 71
     3
 72
     9
 73
     5
 74
     0
 42
0.000000001
 43
0.00000001
 40
0.0
 40
0.0
 40
0.0
 40
0.0
 40
0.5829181129318539
 40
1.0
 40
1.0
 40
1.0
 40
1.0
 10
154.1771405687041
 20
456.9448917992937
 30
0.0
 10
153.8735442564457
 20
456.9235431803561
 30
0.0
 10
153.3527227113207
 20
456.8869194789064
 30
0.0
 10
153.0447888279192
 20
456.6864169244006
 30
0.0
 10
152.9163551827378
 20
456.6027909406054
 30
0.0
  0
SPLINE
  5
10A
330
1F
100
AcDbEntity
  8
0
  6
Continuous
 62
     7
370
    25
100
AcDbSpline
210
0.0
220
0.0
230
1.0
 70
     8
 71
     3
 72
     9
 73
     5
 74
     0
 42
0.000000001
 43
0.00000001
 40
0.0
 40
0.0
 40
0.0
 40
0.0
 40
0.5468394119448918
 40
1.0
 40
1.0
 40
1.0
 40
1.0
 10
195.1513291647144
 20
456.6028207429277
 30
0.0
 10
195.0348893108635
 20
456.6894280868751
 30
0.0
 10
194.8219568643218
 20
456.847806108019
 30
0.0
 10
194.1807604212888
 20
456.9146263846175
 30
0.0
 10
193.8901954641051
 20
456.9449067004549
 30
0.0
  0
SPLINE
  5
10B
330
1F
100
AcDbEntity
  8
0
  6
Continuous
 62
     7
370
    25
100
AcDbSpline
210
0.0
220
0.0
230
1.0
 70
     8
 71
     3
 72
    14
 73
    10
 74
     0
 42
0.000000001
 43
0.00000001
 40
0.0
 40
0.0
 40
0.0
 40
0.0
 40
0.0960962302664751
 40
0.2104041256776799
 40
0.4754780962991491
 40
0.6156154376291828
 40
0.7542910871318125
 40
0.8918209365284859
 40
1.0
 40
1.0
 40
1.0
 40
1.0
 10
165.4269463693209
 20
457.2766810544359
 30
0.0
 10
165.1084566760042
 20
457.2734919281667
 30
0.0
 10
164.4111187546951
 20
457.2665092887594
 30
0.0
 10
162.7203227747405
 20
457.2426670732609
 30
0.0
 10
160.7471338697857
 20
457.2011742952882
 30
0.0
 10
158.6075848603456
 20
457.1385169307972
 30
0.0
 10
156.9629095823726
 20
457.0788681678114
 30
0.0
 10
155.4751089031784
 20
457.0143386703793
 30
0.0
 10
154.6367369122345
 20
456.9687694192132
 30
0.0
 10
154.2676241447635
 20
456.9487064965593
 30
0.0
  0
SPLINE
  5
10C
330
1F
100
AcDbEntity
  8
0
  6
Continuous
 62
     7
370
    25
100
AcDbSpline
210
0.0
220
0.0
230
1.0
 70
     8
 71
     3
 72
    15
 73
    11
 74
     0
 42
0.000000001
 43
0.00000001
 40
0.0
 40
0.0
 40
0.0
 40
0.0
 40
0.0884335041436763
 40
0.2114984850022142
 40
0.3404662434293655
 40
0.4766216205089419
 40
0.6174298575545318
 40
0.7568334448435687
 40
0.8871594836477507
 40
1.0
 40
1.0
 40
1.0
 40
1.0
 10
193.8061231126495
 20
456.9486319907534
 30
0.0
 10
193.4968238345932
 20
456.9655542540849
 30
0.0
 10
192.7571004757304
 20
457.0060257144446
 30
0.0
 10
191.4644054748409
 20
457.0641919826981
 30
0.0
 10
189.9453814201623
 20
457.1224807234147
 30
0.0
 10
188.3432093385708
 20
457.1725035048028
 30
0.0
 10
186.7275540784971
 20
457.2134969047928
 30
0.0
 10
185.1872855569991
 20
457.2442275569401
 30
0.0
 10
183.8080724868135
 20
457.264819071506
 30
0.0
 10
183.0107647299886
 20
457.272921263168
 30
0.0
 10
182.6407770936794
 20
457.2766810544359
 30
0.0
  0
SPLINE
  5
10D
330
1F
100
AcDbEntity
  8
0
  6
Continuous
 62
     7
370
    25
100
AcDbSpline
210
0.0
220
0.0
230
1.0
 70
     8
 71
     3
 72
     9
 73
     5
 74
     0
 42
0.000000001
 43
0.00000001
 40
0.0
 40
0.0
 40
0.0
 40
0.0
 40
0.5117752282764484
 40
1.0
 40
1.0
 40
1.0
 40
1.0
 10
174.0338617314998
 20
457.330191124283
 30
0.0
 10
172.5559724250825
 20
457.3280215086851
 30
0.0
 10
169.6682021213214
 20
457.3237821170966
 30
0.0
 10
166.8185065567277
 20
457.2923932883678
 30
0.0
 10
165.4272145902224
 20
457.277068484627
 30
0.0
  0
SPLINE
  5
10E
330
1F
100
AcDbEntity
  8
0
  6
Continuous
 62
     7
370
    25
100
AcDbSpline
210
0.0
220
0.0
230
1.0
 70
     8
 71
     3
 72
     9
 73
     5
 74
     0
 42
0.000000001
 43
0.00000001
 40
0.0
 40
0.0
 40
0.0
 40
0.0
 40
0.4882247717235104
 40
1.0
 40
1.0
 40
1.0
 40
1.0
 10
182.640508872778
 20
457.277068484627
 30
0.0
 10
181.2492169062726
 20
457.2923932883678
 30
0.0
 10
178.3995213416788
 20
457.3237821170967
 30
0.0
 10
175.5117510379173
 20
457.3280215086851
 30
0.0
 10
174.0338617314998
 20
457.330191124283
 30
0.0
  0
SPLINE
  5
10F
330
1F
100
AcDbEntity
  8
0
  6
Continuous
 62
     7
370
    25
100
AcDbSpline
210
0.0
220
0.0
230
1.0
 70
     8
 71
     3
 72
    21
 73
    17
 74
     0
 42
0.000000001
 43
0.00000001
 40
0.0
 40
0.0
 40
0.0
 40
0.0
 40
0.1021272515201074
 40
0.1925268526792217
 40
0.2712205448860512
 40
0.3394685552091457
 40
0.4045339270915211
 40
0.4676339401543551
 40
0.5136691558588061
 40
0.5585989671809317
 40
0.6079915515896165
 40
0.6674540478801639
 40
0.7369863241800958
 40
0.8165882412699245
 40
0.9062595263349743
 40
1.0
 40
1.0
 40
1.0
 40
1.0
 10
196.3475180169053
 20
455.3560703881609
 30
0.0
 10
196.2903411962403
 20
455.4742109387047
 30
0.0
 10
196.1825533808923
 20
455.6969255230243
 30
0.0
 10
195.9733832276831
 20
455.9200436455127
 30
0.0
 10
195.8168033800554
 20
456.0582225241193
 30
0.0
 10
195.7456480757795
 20
456.116004838129
 30
0.0
 10
195.6804692423836
 20
456.1698261523945
 30
0.0
 10
195.6260135537549
 20
456.2143885098446
 30
0.0
 10
195.5800130603969
 20
456.2520564132105
 30
0.0
 10
195.5403640224865
 20
456.2845109002311
 30
0.0
 10
195.4980553869684
 20
456.3191774222296
 30
0.0
 10
195.4486140258309
 20
456.3596646844766
 30
0.0
 10
195.3909423203618
 20
456.4069291519868
 30
0.0
 10
195.3249051691342
 20
456.4610579963323
 30
0.0
 10
195.2522283824066
 20
456.5206430389989
 30
0.0
 10
195.2015901667448
 20
456.5621768752079
 30
0.0
 10
195.1757093270726
 20
456.5834045298922
 30
0.0
  0
SPLINE
  5
110
330
1F
100
AcDbEntity
  8
0
  6
Continuous
 62
     7
370
    25
100
AcDbSpline
210
0.0
220
0.0
230
1.0
 70
     8
 71
     3
 72
    13
 73
     9
 74
     0
 42
0.000000001
 43
0.00000001
 40
0.0
 40
0.0
 40
0.0
 40
0.0
 40
0.2013258722302294
 40
0.3887710672583244
 40
0.5623372905759977
 40
0.7220275779610767
 40
0.867898423156449
 40
0.9999999999999999
 40
0.9999999999999999
 40
0.9999999999999999
 40
0.9999999999999999
 10
152.8919973721214
 20
456.583389628731
 30
0.0
 10
152.8337741957495
 20
456.5357061358042
 30
0.0
 10
152.7213421165214
 20
456.4436267511213
 30
0.0
 10
152.5221349138212
 20
456.2788483615911
 30
0.0
 10
152.3097838996505
 20
456.0966406414796
 30
0.0
 10
152.0920218065154
 20
455.8873600886018
 30
0.0
 10
151.8675679488543
 20
455.6533550779963
 30
0.0
 10
151.7677009141102
 20
455.4518985291232
 30
0.0
 10
151.7202408363528
 20
455.3561597951281
 30
0.0
  0
SPLINE
  5
111
330
1F
100
AcDbEntity
  8
0
  6
Continuous
 62
     7
370
    25
100
AcDbSpline
210
0.0
220
0.0
230
1.0
 70
     8
 71
     3
 72
    10
 73
     6
 74
     0
 42
0.000000001
 43
0.00000001
 40
0.0
 40
0.0
 40
0.0
 40
0.0
 40
0.3715677436561673
 40
0.5871761239600964
 40
1.0
 40
1.0
 40
1.0
 40
1.0
 10
198.3339620133348
 20
298.9296853431093
 30
0.0
 10
198.2014518222583
 20
313.8835601594937
 30
0.0
 10
197.9920503827902
 20
337.5146702404437
 30
0.0
 10
197.6375377575868
 20
377.7600763438397
 30
0.0
 10
197.4168613468053
 20
403.0514932357491
 30
0.0
 10
197.2718966504045
 20
419.665695715748
 30
0.0
  0
SPLINE
  5
112
330
1F
100
AcDbEntity
  8
0
  6
Continuous
 62
     7
370
    25
100
AcDbSpline
210
0.0
220
0.0
230
1.0
 70
     8
 71
     3
 72
    10
 73
     6
 74
     0
 42
0.000000001
 43
0.00000001
 40
0.0
 40
0.0
 40
0.0
 40
0.0
 40
0.4128233687154347
 40
0.6284319353072827
 40
1.0
 40
1.0
 40
1.0
 40
1.0
 10
150.7958249499507
 20
419.6655914076197
 30
0.0
 10
150.6508609810458
 20
403.0514236959799
 30
0.0
 10
150.4301855192564
 20
377.7600415704139
 30
0.0
 10
150.0756730388071
 20
337.5146702409193
 30
0.0
 10
149.8662716246959
 20
313.8835601596608
 30
0.0
 10
149.7337614496656
 20
298.9296853431093
 30
0.0
  0
SPLINE
  5
113
330
1F
100
AcDbEntity
  8
0
  6
Continuous
 62
     7
370
    25
100
AcDbSpline
210
0.0
220
0.0
230
1.0
 70
     8
 71
     3
 72
    14
 73
    10
 74
     0
 42
0.000000001
 43
0.00000001
 40
0.0
 40
0.0
 40
0.0
 40
0.0
 40
0.2113352895249353
 40
0.3804293023748742
 40
0.5416975978532327
 40
0.6933937848592545
 40
0.8358918051100989
 40
0.9742318493786796
 40
1.0
 40
1.0
 40
1.0
 40
1.0
 10
196.6665649165816
 20
447.4419891723024
 30
0.0
 10
196.6393260203654
 20
448.1039514874385
 30
0.0
 10
196.5902926842468
 20
449.2955644088384
 30
0.0
 10
196.5209059736998
 20
450.8850834438412
 30
0.0
 10
196.4632378560814
 20
452.1760895432251
 30
0.0
 10
196.4219224831734
 20
453.2507022744558
 30
0.0
 10
196.4028682438528
 20
454.0698717488297
 30
0.0
 10
196.3988430110271
 20
454.5470366422866
 30
0.0
 10
196.3995837158266
 20
454.7062759577804
 30
0.0
 10
196.399700020761
 20
454.7312796004641
 30
0.0
  0
SPLINE
  5
114
330
1F
100
AcDbEntity
  8
0
  6
Continuous
 62
     7
370
    25
100
AcDbSpline
210
0.0
220
0.0
230
1.0
 70
     8
 71
     3
 72
    11
 73
     7
 74
     0
 42
0.000000001
 43
0.00000001
 40
0.0
 40
0.0
 40
0.0
 40
0.0
 40
0.1082251682920519
 40
0.4225259434353404
 40
0.7256651706437639
 40
1.0
 40
1.0
 40
1.0
 40
1.0
 10
196.2984373172231
 20
453.8122951873171
 30
0.0
 10
196.291848390753
 20
453.7230893461941
 30
0.0
 10
196.2661243155038
 20
453.3748174721439
 30
0.0
 10
196.0083862324643
 20
452.7464515437711
 30
0.0
 10
195.5495937888035
 20
451.8996761455977
 30
0.0
 10
195.0257222330076
 20
451.4419279760552
 30
0.0
 10
194.7768518080421
 20
451.2244701274263
 30
0.0
  0
SPLINE
  5
115
330
1F
100
AcDbEntity
  8
0
  6
Continuous
 62
     7
370
    25
100
AcDbSpline
210
0.0
220
0.0
230
1.0
 70
     8
 71
     3
 72
     9
 73
     5
 74
     0
 42
0.000000001
 43
0.00000001
 40
0.0
 40
0.0
 40
0.0
 40
0.0
 40
0.0050662488671696
 40
1.0
 40
1.0
 40
1.0
 40
1.0
 10
154.2572138210244
 20
450.6679564603197
 30
0.0
 10
154.2560366831054
 20
450.6683034577107
 30
0.0
 10
154.0236876710622
 20
450.7367954327591
 30
0.0
 10
153.8576186088856
 20
450.886680657079
 30
0.0
 10
153.6923908939071
 20
451.035806525551
 30
0.0
  0
SPLINE
  5
116
330
1F
100
AcDbEntity
  8
0
  6
Continuous
 62
     7
370
    25
100
AcDbSpline
210
0.0
220
0.0
230
1.0
 70
     8
 71
     3
 72
    18
 73
    14
 74
     0
 42
0.000000001
 43
0.00000001
 40
0.0
 40
0.0
 40
0.0
 40
0.0
 40
0.0006296618395849
 40
0.1110677904876334
 40
0.227802970242472
 40
0.3511734694208795
 40
0.4712748586564254
 40
0.541329053013979
 40
0.6088108470621546
 40
0.6794583667551845
 40
0.7610272844617028
 40
0.8846647330022726
 40
1.0
 40
1.0
 40
1.0
 40
1.0
 10
151.6290345539756
 20
454.801076639496
 30
0.0
 10
151.6290413232488
 20
454.8002766993799
 30
0.0
 10
151.6302353740371
 20
454.6591730535239
 30
0.0
 10
151.6442528672965
 20
454.4165685049243
 30
0.0
 10
151.6544246171129
 20
454.1183444127679
 30
0.0
 10
151.6572302472731
 20
453.9252514445932
 30
0.0
 10
151.6565416823478
 20
453.5916636692315
 30
0.0
 10
151.6362581508286
 20
452.9810228653213
 30
0.0
 10
151.6015303547938
 20
452.1735634769482
 30
0.0
 10
151.5490640201734
 20
450.971245944466
 30
0.0
 10
151.4760510746409
 20
449.2508282100362
 30
0.0
 10
151.3905746926118
 20
447.2177646171352
 30
0.0
 10
151.331050835241
 20
445.7009583886669
 30
0.0
 10
151.3023228695102
 20
444.9689030536043
 30
0.0
  0
LINE
  5
117
330
1F
100
AcDbEntity
  8
0
  6
Continuous
 62
     7
370
    25
100
AcDbLine
 10
152.5338610013
 20
422.4206521996
 30
0.0
 11
152.5338610013
 21
421.0842788108
 31
0.0
  0
LINE
  5
118
330
1F
100
AcDbEntity
  8
0
  6
Continuous
 62
     7
370
    25
100
AcDbLine
 10
195.5338624617
 20
421.0847109445
 30
0.0
 11
195.5338624617
 21
422.4206521996
 31
0.0
  0
ARC
  5
119
330
1F
100
AcDbEntity
  8
0
  6
Continuous
 62
     7
370
    25
100
AcDbCircle
 10
185.5338617315
 20
422.4206489625
 30
0.0
 40
10.0
100
AcDbArc
 50
0.0
 51
9.0468459803
  0
ARC
  5
11A
330
1F
100
AcDbEntity
  8
0
  6
Continuous
 62
     7
370
    25
100
AcDbCircle
 10
162.5338617315
 20
422.4206489625
 30
0.0
 40
10.0
100
AcDbArc
 50
170.9531540197
 51
180.0
  0
LWPOLYLINE
  5
11B
330
1F
100
AcDbEntity
  8
0
  6
Continuous
 62
     7
370
    25
100
AcDbPolyline
 90
        3
 70
   128
 43
0.0
 10
152.7142693599
 20
424.3278890737
 10
152.7124178906
 20
424.3173241504
 10
152.6582614829
 20
423.9930748828
  0
LWPOLYLINE
  5
11C
330
1F
100
AcDbEntity
  8
0
  6
Continuous
 62
     7
370
    25
100
AcDbPolyline
 90
        3
 70
   128
 43
0.0
 10
195.4094619801
 20
423.9930748828
 10
195.3553055724
 20
424.3173241504
 10
195.3537651648
 20
424.3261307367
  0
LINE
  5
11D
330
1F
100
AcDbEntity
  8
0
  6
Continuous
 62
     7
370
    25
100
AcDbLine
 10
196.4383927484
 20
454.8053532728
 30
0.0
 11
196.3837483277
 21
455.2440434583
 31
0.0
  0
LINE
  5
11E
330
1F
100
AcDbEntity
  8
0
  6
Continuous
 62
     7
370
    25
100
AcDbLine
 10
151.6839769979
 20
455.2440434583
 30
0.0
 11
151.6293307146
 21
454.8053532728
 31
0.0
  0
SPLINE
  5
11F
330
1F
100
AcDbEntity
  8
0
  6
Continuous
 62
     7
370
    25
100
AcDbSpline
210
0.0
220
0.0
230
1.0
 70
     8
 71
     3
 72
    10
 73
     6
 74
     0
 42
0.000000001
 43
0.00000001
 40
0.0
 40
0.0
 40
0.0
 40
0.0
 40
0.3677009126553663
 40
0.8736637399960502
 40
1.0
 40
1.0
 40
1.0
 40
1.0
 10
151.8814360102124
 20
421.0222527273523
 30
0.0
 10
151.8552403259075
 20
421.0155698253741
 30
0.0
 10
151.7929989260798
 20
420.9996911344725
 30
0.0
 10
151.6741075015185
 20
420.9668752204479
 30
0.0
 10
151.6012159856951
 20
420.9213611723143
 30
0.0
 10
151.58665192625
 20
420.9122672565805
 30
0.0
  0
LINE
  5
120
330
1F
100
AcDbEntity
  8
0
  6
Continuous
 62
     7
370
    25
100
AcDbLine
 10
197.2278748949
 20
426.6963094362
 30
0.0
 11
197.2116512557
 21
427.6177972444
 31
0.0
  0
LINE
  5
121
330
1F
100
AcDbEntity
  8
0
  6
Continuous
 62
     7
370
    25
100
AcDbLine
 10
150.8560573061
 20
427.6169776805
 30
0.0
 11
150.8398485681
 21
426.6962796338
 31
0.0
  0
LINE
  5
122
330
1F
100
AcDbEntity
  8
0
  6
Continuous
 62
     7
370
    25
100
AcDbLine
 10
196.3558291396
 20
420.9663957246
 30
0.0
 11
196.3528395941
 21
420.9672152885
 31
0.0
  0
SPLINE
  5
123
330
1F
100
AcDbEntity
  8
0
  6
Continuous
 62
     7
370
    25
100
AcDbSpline
210
0.0
220
0.0
230
1.0
 70
     8
 71
     3
 72
    20
 73
    16
 74
     0
 42
0.000000001
 43
0.00000001
 40
0.0
 40
0.0
 40
0.0
 40
0.0
 40
0.0312076236879231
 40
0.1165635608376608
 40
0.1990023947338659
 40
0.2837170122396317
 40
0.3681095988030788
 40
0.455251440448797
 40
0.5341519073550168
 40
0.615682181036852
 40
0.6901559010213797
 40
0.7662781305001681
 40
0.8514157568899134
 40
0.9393178524911308
 40
1.0
 40
1.0
 40
1.0
 40
1.0
 10
162.8279994552441
 20
401.4329030998575
 30
0.0
 10
162.7178899523313
 20
401.5083938824959
 30
0.0
 10
162.306620069372
 20
401.7903594215177
 30
0.0
 10
161.9353157572332
 20
402.2590367543125
 30
0.0
 10
161.7254341561103
 20
402.8195055007898
 30
0.0
 10
161.8729912630975
 20
403.3611656583822
 30
0.0
 10
162.3621430270031
 20
403.9385470523993
 30
0.0
 10
163.1762845840982
 20
404.5820378344314
 30
0.0
 10
164.276649371847
 20
405.322517804509
 30
0.0
 10
165.5547871786484
 20
406.1046461100297
 30
0.0
 10
166.9987264926723
 20
406.9001645819565
 30
0.0
 10
168.6147605705605
 20
407.6617808063601
 30
0.0
 10
170.470203054424
 20
408.3190572416211
 30
0.0
 10
172.3286629708567
 20
408.7165161308829
 30
0.0
 10
173.5392464085198
 20
408.7595087637253
 30
0.0
 10
174.0336514759645
 20
408.7770670541155
 30
0.0
  0
SPLINE
  5
124
330
1F
100
AcDbEntity
  8
0
  6
Continuous
 62
     7
370
    25
100
AcDbSpline
210
0.0
220
0.0
230
1.0
 70
     8
 71
     3
 72
    20
 73
    16
 74
     0
 42
0.000000001
 43
0.00000001
 40
0.0
 40
0.0
 40
0.0
 40
0.0
 40
0.0623846845459748
 40
0.1261303711466585
 40
0.2017196580482025
 40
0.2791084272617055
 40
0.3628173244774267
 40
0.4490439628154181
 40
0.5300047383712919
 40
0.6138451148474615
 40
0.6878072645590741
 40
0.7635137123501353
 40
0.845561862187487
 40
0.9298795193217508
 40
1.0
 40
1.0
 40
1.0
 40
1.0
 10
174.0340719870358
 20
408.7770670541155
 30
0.0
 10
174.5436048383442
 20
408.7587946619414
 30
0.0
 10
175.5737866548378
 20
408.7218512418788
 30
0.0
 10
177.1851361106057
 20
408.4130621767634
 30
0.0
 10
178.8395520489806
 20
407.9024426501268
 30
0.0
 10
180.5217703187394
 20
407.1778882418571
 30
0.0
 10
182.1209198263243
 20
406.3336510742198
 30
0.0
 10
183.5401201842269
 20
405.482626506993
 30
0.0
 10
184.7081605150055
 20
404.7120158875047
 30
0.0
 10
185.5402051424355
 20
404.0789957410462
 30
0.0
 10
186.0675897070636
 20
403.536792836347
 30
0.0
 10
186.3177695488795
 20
403.0319142010388
 30
0.0
 10
186.2642016699804
 20
402.5043623535433
 30
0.0
 10
185.9268794802738
 20
401.9602600673944
 30
0.0
 10
185.4494190320045
 20
401.5863482974803
 30
0.0
 10
185.2326347803183
 20
401.4165788777697
 30
0.0
  0
ARC
  5
125
330
1F
100
AcDbEntity
  8
0
  6
Continuous
 62
     7
370
    25
100
AcDbCircle
 10
168.6667753415
 20
404.857724685
 30
0.0
 40
8.879197556250213
100
AcDbArc
 50
230.6249144206
 51
251.8429400047
  0
ARC
  5
126
330
1F
100
AcDbEntity
  8
0
  6
Continuous
 62
     7
370
    25
100
AcDbCircle
 10
179.4009481215
 20
404.857724685
 30
0.0
 40
8.879197556250213
100
AcDbArc
 50
288.1570599953
 51
309.3750855794
  0
ARC
  5
127
330
1F
100
AcDbEntity
  8
0
  6
Continuous
 62
     7
370
    25
100
AcDbCircle
 10
183.7045331346
 20
403.0281774398
 30
0.0
 40
2.305433495859303
100
AcDbArc
 50
305.2122323709
 51
15.6436506059
  0
LINE
  5
128
330
1F
100
AcDbEntity
  8
0
  6
Continuous
 62
     7
370
    25
100
AcDbLine
 10
185.0338616719
 20
404.4411420711
 30
0.0
 11
185.0338616719
 21
401.7417818197
 31
0.0
  0
LWPOLYLINE
  5
129
330
1F
100
AcDbEntity
  8
0
  6
Continuous
 62
     7
370
    25
100
AcDbPolyline
 90
       17
 70
   128
 43
0.0
 10
185.0338616719
 20
401.7417818197
 10
184.2257353788
 20
402.3429840692
 10
183.2038267826
 20
402.8922632225
 10
181.9895693412
 20
403.3781081327
 10
180.6084347268
 20
403.7903264054
 10
179.0893926596
 20
404.1202604659
 10
177.4643067115
 20
404.3610036262
 10
175.7672639874
 20
404.5074969419
 10
174.0338617315
 20
404.5566707738
 10
172.3004594756
 20
404.5074969419
 10
170.6034167515
 20
404.3610036262
 10
168.9783308034
 20
404.1202604659
 10
167.4592887362
 20
403.7903264054
 10
166.0781541218
 20
403.3781081327
 10
164.8638966804
 20
402.8922632225
 10
163.8419880842
 20
402.3429840692
 10
163.0338617911
 20
401.7417818197
  0
LINE
  5
12A
330
1F
100
AcDbEntity
  8
0
  6
Continuous
 62
     7
370
    25
100
AcDbLine
 10
163.0338617911
 20
404.4431909808
 30
0.0
 11
163.0338617911
 21
401.7417818197
 31
0.0
  0
ARC
  5
12B
330
1F
100
AcDbEntity
  8
0
  6
Continuous
 62
     7
370
    25
100
AcDbCircle
 10
164.3641813808
 20
403.0290000265
 30
0.0
 40
2.306677038973024
100
AcDbArc
 50
164.5869210292
 51
234.7794365353
  0
LWPOLYLINE
  5
12C
330
1F
100
AcDbEntity
  8
0
  6
Continuous
 62
     7
370
    25
100
AcDbPolyline
 90
       22
 70
   128
 43
0.0
 10
185.0338616719
 20
399.3364438303
 10
184.9110006665
 20
399.9770372995
 10
184.5451622581
 20
400.6033182033
 10
183.9445197334
 20
401.2012943514
 10
183.1224878629
 20
401.757621754
 10
182.0974323278
 20
402.2598579415
 10
180.8922496935
 20
402.69678979
 10
179.5338617017
 20
403.058657039
 10
178.0526131702
 20
403.3373832591
 10
176.4815918946
 20
403.5267248638
 10
174.8558927871
 20
403.6224722751
 10
173.2118306759
 20
403.6224722751
 10
171.5861315684
 20
403.5267248638
 10
170.0151102928
 20
403.3373832591
 10
168.5338617613
 20
403.058657039
 10
167.1754737695
 20
402.69678979
 10
165.9702911352
 20
402.2598579415
 10
164.9452356001
 20
401.757621754
 10
164.1232037296
 20
401.2012943514
 10
163.5225612049
 20
400.6033182033
 10
163.1567227965
 20
399.9770372995
 10
163.0338617911
 20
399.3364438303
  0
SPLINE
  5
12D
330
1F
100
AcDbEntity
  8
0
  6
Continuous
 62
     7
370
    25
100
AcDbSpline
210
0.0
220
0.0
230
1.0
 70
    24
 71
     3
 72
     8
 73
     4
 74
     0
 42
0.000000001
 43
0.00000001
 40
0.0
 40
0.0
 40
0.0
 40
0.0
 40
1.0
 40
1.0
 40
1.0
 40
1.0
 10
163.0338617314997
 20
401.7417810677898
 30
0.0
 10
163.0338617314997
 20
400.7883644980723
 30
0.0
 10
163.0338617314997
 20
399.9688524668585
 30
0.0
 10
163.0338617314997
 20
399.3364466797103
 30
0.0
  0
SPLINE
  5
12E
330
1F
100
AcDbEntity
  8
0
  6
Continuous
 62
     7
370
    25
100
AcDbSpline
210
0.0
220
0.0
230
1.0
 70
    24
 71
     3
 72
     8
 73
     4
 74
     0
 42
0.000000001
 43
0.00000001
 40
0.0
 40
0.0
 40
0.0
 40
0.0
 40
1.0
 40
1.0
 40
1.0
 40
1.0
 10
185.0338617314997
 20
401.7417810677898
 30
0.0
 10
185.0338617314997
 20
400.7883644980723
 30
0.0
 10
185.0338617314997
 20
399.9688524668585
 30
0.0
 10
185.0338617314998
 20
399.3364466797103
 30
0.0
  0
LWPOLYLINE
  5
12F
330
1F
100
AcDbEntity
  8
0
  6
Continuous
 62
     7
370
    25
100
AcDbPolyline
 90
       22
 70
   128
 43
0.0
 10
163.0338617911
 20
399.3364438303
 10
163.1567227965
 20
398.6958578118
 10
163.5225612049
 20
398.069576908
 10
164.1232037296
 20
397.4715933092
 10
164.9452356001
 20
396.9152733572
 10
165.9702911352
 20
396.4130371698
 10
167.1754737695
 20
395.9761053213
 10
168.5338617613
 20
395.6142306217
 10
170.0151102928
 20
395.3355118521
 10
171.5861315684
 20
395.1461627968
 10
173.2118306759
 20
395.0504228361
 10
174.8558927871
 20
395.0504228361
 10
176.4815918946
 20
395.1461627968
 10
178.0526131702
 20
395.3355118521
 10
179.5338617017
 20
395.6142306217
 10
180.8922496935
 20
395.9761053213
 10
182.0974323278
 20
396.4130371698
 10
183.1224878629
 20
396.9152733572
 10
183.9445197334
 20
397.4715933092
 10
184.5451622581
 20
398.069576908
 10
184.9110006665
 20
398.6958578118
 10
185.0338616719
 20
399.3364438303
  0
SPLINE
  5
130
330
1F
100
AcDbEntity
  8
0
  6
Continuous
 62
     7
370
    25
100
AcDbSpline
210
0.0
220
0.0
230
1.0
 70
     8
 71
     3
 72
     8
 73
     4
 74
     0
 42
0.000000001
 43
0.00000001
 40
0.0841390490982549
 40
0.0841390490982549
 40
0.0841390490982549
 40
0.0841390490982549
 40
0.0963595752834648
 40
0.0963595752834648
 40
0.0963595752834648
 40
0.0963595752834648
 10
152.2839655505946
 20
421.0647752022467
 30
0.0
 10
152.2165569855057
 20
421.059353480176
 30
0.0
 10
152.1497699172236
 20
421.0538950973414
 30
0.0
 10
152.0836127506599
 20
421.0484000537429
 30
0.0
  0
SPLINE
  5
131
330
1F
100
AcDbEntity
  8
0
  6
Continuous
 62
     7
370
    25
100
AcDbSpline
210
0.0
220
0.0
230
1.0
 70
     8
 71
     3
 72
     8
 73
     4
 74
     0
 42
0.000000001
 43
0.00000001
 40
0.0963595752832861
 40
0.0963595752832861
 40
0.0963595752832861
 40
0.0963595752832861
 40
0.1112997098745325
 40
0.1112997098745325
 40
0.1112997098745325
 40
0.1112997098745325
 10
152.2839655505916
 20
421.0647752022464
 30
0.0
 10
152.3663755073943
 20
421.0714034976427
 30
0.0
 10
152.4497143623718
 20
421.0779769993275
 30
0.0
 10
152.5339667577962
 20
421.0844957073008
 30
0.0
  0
SPLINE
  5
132
330
1F
100
AcDbEntity
  8
0
  6
Continuous
 62
     7
370
    25
100
AcDbSpline
210
0.0
220
0.0
230
1.0
 70
     8
 71
     3
 72
    31
 73
    27
 74
     0
 42
0.000000001
 43
0.00000001
 40
0.0
 40
0.0
 40
0.0
 40
0.0
 40
0.1250000000000002
 40
0.1250000000000002
 40
0.1875000000000003
 40
0.1875000000000003
 40
0.2500000000000004
 40
0.2500000000000004
 40
0.3750000000000005
 40
0.3750000000000005
 40
0.4375000000000004
 40
0.4375000000000004
 40
0.5000000000000003
 40
0.5000000000000003
 40
0.6250000000000003
 40
0.6250000000000003
 40
0.6562500000000002
 40
0.6562500000000002
 40
0.6875000000000002
 40
0.6875000000000002
 40
0.7500000000000002
 40
0.8125000000000002
 40
0.8125000000000002
 40
0.8750000000000002
 40
0.8750000000000002
 40
1.0
 40
1.0
 40
1.0
 40
1.0
 10
152.5339667577962
 20
421.0844957073009
 30
0.0
 10
152.5295195828796
 20
421.0825961955401
 30
0.0
 10
152.6649842339052
 20
421.0918431900803
 30
0.0
 10
153.0694050343213
 20
421.1194041692912
 30
0.0
 10
153.2379998132306
 20
421.1308348508626
 30
0.0
 10
153.6443110761555
 20
421.1573947653044
 30
0.0
 10
153.8831315844016
 20
421.1725796793764
 30
0.0
 10
154.6886272008957
 20
421.221270576703
 30
0.0
 10
155.3469275135568
 20
421.2580543299179
 30
0.0
 10
156.5148592313858
 20
421.3147767409807
 30
0.0
 10
156.9362103291084
 20
421.334039636234
 30
0.0
 10
157.8339988806537
 20
421.3722015692105
 30
0.0
 10
158.3065741173105
 20
421.3909456109412
 30
0.0
 10
159.7931811021961
 20
421.445526141186
 30
0.0
 10
160.8754382051386
 20
421.4796963891349
 30
0.0
 10
162.345182041148
 20
421.5181137100801
 30
0.0
 10
162.645837709047
 20
421.5256018197423
 30
0.0
 10
163.2532099248193
 20
421.5399778790331
 30
0.0
 10
163.5602988788281
 20
421.5468776597615
 30
0.0
 10
164.4915904628529
 20
421.5666983050223
 30
0.0
 10
165.7599977395328
 20
421.5907841406146
 30
0.0
 10
167.0810167626867
 20
421.6100177180664
 30
0.0
 10
168.4287266079631
 20
421.6267105026071
 30
0.0
 10
169.1191844620894
 20
421.633810272889
 30
0.0
 10
171.2057951992294
 20
421.6508492250967
 30
0.0
 10
172.612094612302
 20
421.6565847628224
 30
0.0
 10
174.0337155449197
 20
421.6565851589601
 30
0.0
  0
SPLINE
  5
133
330
1F
100
AcDbEntity
  8
0
  6
Continuous
 62
     7
370
    25
100
AcDbSpline
210
0.0
220
0.0
230
1.0
 70
     8
 71
     3
 72
     8
 73
     4
 74
     0
 42
0.000000001
 43
0.00000001
 40
0.9443501450596926
 40
0.9443501450596926
 40
0.9443501450596926
 40
0.9443501450596926
 40
0.9579305282132329
 40
0.9579305282132329
 40
0.9579305282132329
 40
0.9579305282132329
 10
195.9841124261494
 20
421.0483999113931
 30
0.0
 10
195.8370746457891
 20
421.0606129380632
 30
0.0
 10
195.6869253133877
 20
421.0726448700352
 30
0.0
 10
195.5337567051012
 20
421.0844957073088
 30
0.0
  0
SPLINE
  5
134
330
1F
100
AcDbEntity
  8
0
  6
Continuous
 62
     7
370
    25
100
AcDbSpline
210
0.0
220
0.0
230
1.0
 70
     8
 71
     3
 72
    33
 73
    29
 74
     0
 42
0.000000001
 43
0.00000001
 40
0.0
 40
0.0
 40
0.0
 40
0.0
 40
0.1249999999999997
 40
0.1249999999999997
 40
0.1874999999999995
 40
0.1874999999999995
 40
0.2499999999999993
 40
0.2499999999999993
 40
0.374999999999999
 40
0.374999999999999
 40
0.406249999999999
 40
0.406249999999999
 40
0.4374999999999991
 40
0.4374999999999991
 40
0.4999999999999991
 40
0.4999999999999991
 40
0.6249999999999996
 40
0.6249999999999996
 40
0.6562499999999996
 40
0.6562499999999996
 40
0.6874999999999996
 40
0.6874999999999996
 40
0.7499999999999997
 40
0.8124999999999997
 40
0.8124999999999997
 40
0.8749999999999998
 40
0.8749999999999998
 40
1.0
 40
1.0
 40
1.0
 40
1.0
 10
174.0340080632465
 20
421.6565851589601
 30
0.0
 10
175.4550935727691
 20
421.6565847625784
 30
0.0
 10
176.8534053804435
 20
421.650854544613
 30
0.0
 10
178.9179754600758
 20
421.6340911823146
 30
0.0
 10
179.6006420581651
 20
421.6271339610076
 30
0.0
 10
180.9546518480985
 20
421.6104637401881
 30
0.0
 10
181.626390520322
 20
421.6007234477706
 30
0.0
 10
183.5800222774021
 20
421.568116612423
 30
0.0
 10
184.8162755523223
 20
421.5417022529414
 30
0.0
 10
186.2792726034922
 20
421.5035848941517
 30
0.0
 10
186.5677189427754
 20
421.4957061216627
 30
0.0
 10
187.1361630360912
 20
421.4794573645445
 30
0.0
 10
187.4168598156033
 20
421.4710644032957
 30
0.0
 10
188.2380046128627
 20
421.4454364215496
 30
0.0
 10
188.7592009471724
 20
421.4277117716927
 30
0.0
 10
190.2463692682707
 20
421.373170613536
 30
0.0
 10
191.136653664838
 20
421.3349104220009
 30
0.0
 10
192.1194094510513
 20
421.287280435487
 30
0.0
 10
192.3096266692459
 20
421.2777567726749
 30
0.0
 10
192.6727394764598
 20
421.2590388986299
 30
0.0
 10
192.8461604914035
 20
421.2498201512488
 30
0.0
 10
193.3424350582547
 20
421.2227245971135
 30
0.0
 10
193.9402782471363
 20
421.1880821830679
 30
0.0
 10
194.4119988594028
 20
421.1581256061493
 30
0.0
 10
194.8196118844333
 20
421.1315102999139
 30
0.0
 10
194.9919115872126
 20
421.1198392616748
 30
0.0
 10
195.4027473432731
 20
421.0918456254626
 30
0.0
 10
195.5382038388444
 20
421.0825962131709
 30
0.0
 10
195.5337567052042
 20
421.0844957073009
 30
0.0
  0
SPLINE
  5
135
330
1F
100
AcDbEntity
  8
0
  6
Continuous
 62
     7
370
    25
100
AcDbSpline
210
0.0
220
0.0
230
1.0
 70
    24
 71
     3
 72
    10
 73
     6
 74
     0
 42
0.000000001
 43
0.00000001
 40
0.0
 40
0.0
 40
0.0
 40
0.0
 40
0.5
 40
0.5
 40
1.0
 40
1.0
 40
1.0
 40
1.0
 10
163.0338617314997
 20
399.3364466797103
 30
0.0
 10
163.0338617314997
 20
399.0209801929574
 30
0.0
 10
163.0338617314997
 20
398.7505701682551
 30
0.0
 10
163.0338617314998
 20
398.3080529406843
 30
0.0
 10
163.0338617314998
 20
398.1332525273272
 30
0.0
 10
163.0338617314998
 20
397.9940197414929
 30
0.0
  0
SPLINE
  5
136
330
1F
100
AcDbEntity
  8
0
  6
Continuous
 62
     7
370
    25
100
AcDbSpline
210
0.0
220
0.0
230
1.0
 70
    24
 71
     3
 72
    10
 73
     6
 74
     0
 42
0.000000001
 43
0.00000001
 40
0.0
 40
0.0
 40
0.0
 40
0.0
 40
0.5
 40
0.5
 40
1.0
 40
1.0
 40
1.0
 40
1.0
 10
185.0338617314998
 20
399.3364466797103
 30
0.0
 10
185.0338617314998
 20
399.0209801929574
 30
0.0
 10
185.0338617314998
 20
398.7505701682551
 30
0.0
 10
185.0338617314998
 20
398.3080529406843
 30
0.0
 10
185.0338617314998
 20
398.1332525273272
 30
0.0
 10
185.0338617314998
 20
397.9940197414929
 30
0.0
  0
LINE
  5
137
330
1F
100
AcDbEntity
  8
0
  6
Continuous
 62
     7
370
    25
100
AcDbLine
 10
154.267748942
 20
456.9464117177
 30
0.0
 11
154.128527393
 21
456.9400638231
 31
0.0
  0
LINE
  5
138
330
1F
100
AcDbEntity
  8
0
  6
Continuous
 62
     7
370
    25
100
AcDbLine
 10
193.9403993388
 20
456.9399446138
 30
0.0
 11
193.8059852769
 21
456.9460987934
 31
0.0
  0
SPLINE
  5
139
330
1F
100
AcDbEntity
  8
0
  6
Continuous
 62
     7
370
    25
100
AcDbSpline
210
0.0
220
0.0
230
1.0
 70
     8
 71
     3
 72
     8
 73
     4
 74
     0
 42
0.000000001
 43
0.00000001
 40
0.0
 40
0.0
 40
0.0
 40
0.0
 40
0.9660390747218122
 40
0.9660390747218122
 40
0.9660390747218122
 40
0.9660390747218122
 10
157.4186463887714
 20
451.8084046426554
 30
0.0
 10
154.5983350061257
 20
451.8096461632603
 30
0.0
 10
152.5614417762366
 20
452.9990936891593
 30
0.0
 10
152.4263450091453
 20
455.53069446337
 30
0.0
  0
SPLINE
  5
13A
330
1F
100
AcDbEntity
  8
0
  6
Continuous
 62
     7
370
    25
100
AcDbSpline
210
0.0
220
0.0
230
1.0
 70
     8
 71
     3
 72
     8
 73
     4
 74
     0
 42
0.000000001
 43
0.00000001
 40
0.0
 40
0.0
 40
0.0
 40
0.0
 40
0.9660391189136345
 40
0.9660391189136345
 40
0.9660391189136345
 40
0.9660391189136345
 10
190.6490770742283
 20
451.8084046426554
 30
0.0
 10
193.4693885858902
 20
451.8096461633172
 30
0.0
 10
195.5062818731199
 20
452.9990937979828
 30
0.0
 10
195.6413784723945
 20
455.5306948107971
 30
0.0
  0
LINE
  5
13B
330
1F
100
AcDbEntity
  8
0
  6
Continuous
 62
     7
370
    25
100
AcDbLine
 10
182.6434453329
 20
457.2648942359
 30
0.0
 11
182.6428064456
 21
457.2663843521
 31
0.0
  0
LINE
  5
13C
330
1F
100
AcDbEntity
  8
0
  6
Continuous
 62
     7
370
    25
100
AcDbLine
 10
195.1760818561
 20
456.5831065067
 30
0.0
 11
195.1514241596
 21
456.6027462371
 31
0.0
  0
SPLINE
  5
13D
330
1F
100
AcDbEntity
  8
0
  6
Continuous
 62
     7
370
    25
100
AcDbSpline
210
0.0
220
0.0
230
1.0
 70
     8
 71
     3
 72
     9
 73
     5
 74
     0
 42
0.000000001
 43
0.00000001
 40
0.0
 40
0.0
 40
0.0
 40
0.0
 40
0.743098857507132
 40
1.0
 40
1.0
 40
1.0
 40
1.0
 10
151.6973787297912
 20
455.242001999222
 30
0.0
 10
151.6988541254821
 20
455.2723412488151
 30
0.0
 10
151.7008395890257
 20
455.3131692615169
 30
0.0
 10
151.7191636575975
 20
455.3490563308939
 30
0.0
 10
151.7238711317487
 20
455.3582757600176
 30
0.0
  0
ARC
  5
13E
330
1F
100
AcDbEntity
  8
0
  6
Continuous
 62
     7
370
    25
100
AcDbCircle
 10
195.868137059
 20
419.6532953941
 30
0.0
 40
1.399913644606409
100
AcDbArc
 50
0.4694093783
 51
85.2479126803
  0
SPLINE
  5
13F
330
1F
100
AcDbEntity
  8
0
  6
Continuous
 62
     7
370
    25
100
AcDbSpline
210
0.0
220
0.0
230
1.0
 70
    24
 71
     3
 72
    17
 73
    13
 74
     0
 42
0.000000001
 43
0.00000001
 40
0.0
 40
0.0
 40
0.0
 40
0.0
 40
0.1057716185712709
 40
0.2145990485664266
 40
0.3203706731192494
 40
0.4291978902626751
 40
0.5350485994919241
 40
0.6439622721394772
 40
0.7508416593465
 40
0.8608774284640685
 40
0.9667394483799849
 40
1.0
 40
1.0
 40
1.0
 40
1.0
 10
174.0338617105311
 20
298.9296853431094
 30
0.0
 10
175.3796202544976
 20
298.9296853431094
 30
0.0
 10
178.110017189293
 20
298.9296853431094
 30
0.0
 10
182.0735868988489
 20
298.9296853431094
 30
0.0
 10
185.8427698568679
 20
298.9296853431094
 30
0.0
 10
189.2476256013142
 20
298.9296853431094
 30
0.0
 10
192.2489306638926
 20
298.9296853431094
 30
0.0
 10
194.7168666807242
 20
298.9296853431094
 30
0.0
 10
196.6289623078789
 20
298.9296853431093
 30
0.0
 10
197.8268674750676
 20
298.9296853431093
 30
0.0
 10
198.3706930677558
 20
298.9296853431093
 30
0.0
 10
198.2800875607912
 20
298.9296853431093
 30
0.0
 10
198.258426164598
 20
298.9296853431093
 30
0.0
  0
SPLINE
  5
140
330
1F
100
AcDbEntity
  8
0
  6
Continuous
 62
     7
370
    25
100
AcDbSpline
210
0.0
220
0.0
230
1.0
 70
    24
 71
     3
 72
    24
 73
    20
 74
     0
 42
0.000000001
 43
0.00000001
 40
0.0
 40
0.0
 40
0.0
 40
0.0
 40
0.0701959039913264
 40
0.114796245586993
 40
0.159947889399449
 40
0.2146165960431645
 40
0.3024918844259975
 40
0.3745104855227468
 40
0.4291790367455497
 40
0.5171198138877539
 40
0.5891946212360768
 40
0.6439072686216968
 40
0.6793837171522865
 40
0.7327504738615709
 40
0.8055583145369882
 40
0.8608404683459325
 40
0.8959821514158425
 40
0.9488417662300903
 40
1.0
 40
1.0
 40
1.0
 40
1.0
 10
174.0338617524691
 20
298.9296853431094
 30
0.0
 10
173.1404849867434
 20
298.9296853431094
 30
0.0
 10
171.6794838062098
 20
298.9296853431094
 30
0.0
 10
169.6650659968402
 20
298.9296853431094
 30
0.0
 10
167.8691042416703
 20
298.9296853431094
 30
0.0
 10
165.5814707585243
 20
298.9296853431094
 30
0.0
 10
163.066247102565
 20
298.9296853431094
 30
0.0
 10
160.7089619630469
 20
298.9296853431094
 30
0.0
 10
158.502249172086
 20
298.9296853431094
 30
0.0
 10
156.4857384223267
 20
298.9296853431094
 30
0.0
 10
154.7187262007014
 20
298.9296853431094
 30
0.0
 10
153.5476032979085
 20
298.9296853431094
 30
0.0
 10
152.6225411856604
 20
298.9296853431093
 30
0.0
 10
151.7064841264466
 20
298.9296853431093
 30
0.0
 10
150.8866168846333
 20
298.9296853431093
 30
0.0
 10
150.3465148558684
 20
298.9296853431093
 30
0.0
 10
150.0047650907256
 20
298.9296853431093
 30
0.0
 10
149.770416085012
 20
298.9296853431093
 30
0.0
 10
149.7674097666208
 20
298.9296853431093
 30
0.0
 10
149.7659311940379
 20
298.9296853431093
 30
0.0
  0
LINE
  5
141
330
1F
100
AcDbEntity
  8
0
  6
Continuous
 62
     7
370
    25
100
AcDbLine
 10
196.8165376534
 20
443.628156174
 30
0.0
 11
196.6634319474
 21
447.441869963
 31
0.0
  0
LINE
  5
142
330
1F
100
AcDbEntity
  8
0
  6
Continuous
 62
     7
370
    25
100
AcDbLine
 10
151.2511858096
 20
443.628156174
 30
0.0
 11
151.3050069412
 21
444.9687987455
 31
0.0
  0
CIRCLE
  5
143
330
1F
100
AcDbEntity
  8
0
  6
Continuous
 62
     7
370
    25
100
AcDbCircle
 10
174.0338617315
 20
436.2895881875
 30
0.0
 40
3.569682227408603
  0
ARC
  5
144
330
1F
100
AcDbEntity
  8
0
  6
Continuous
 62
     7
370
    25
100
AcDbCircle
 10
174.0338617315
 20
436.2895881875
 30
0.0
 40
4.000000000000026
100
AcDbArc
 50
112.047137569
 51
247.8534622059
  0
SPLINE
  5
145
330
1F
100
AcDbEntity
  8
0
  6
Continuous
 62
     7
370
    25
100
AcDbSpline
210
0.0
220
0.0
230
1.0
 70
     8
 71
     3
 72
    10
 73
     6
 74
     0
 42
0.000000001
 43
0.00000001
 40
0.0
 40
0.0
 40
0.0
 40
0.0
 40
0.5
 40
0.5
 40
1.0
 40
1.0
 40
1.0
 40
1.0
 10
172.5323846672136
 20
439.9970895867012
 30
0.0
 10
173.0156196785912
 20
440.1801739111105
 30
0.0
 10
173.5168036985763
 20
440.2714394404841
 30
0.0
 10
174.5517388417367
 20
440.271339871594
 30
0.0
 10
175.0521037822288
 20
440.1801739119357
 30
0.0
 10
175.5353387957865
 20
439.9970895866999
 30
0.0
  0
ARC
  5
146
330
1F
100
AcDbEntity
  8
0
  6
Continuous
 62
     7
370
    25
100
AcDbCircle
 10
174.0338617315
 20
436.2895881875
 30
0.0
 40
4.00000000000002
100
AcDbArc
 50
292.1465377942
 51
67.952862431
  0
SPLINE
  5
147
330
1F
100
AcDbEntity
  8
0
  6
Continuous
 62
     7
370
    25
100
AcDbSpline
210
0.0
220
0.0
230
1.0
 70
     8
 71
     3
 72
    10
 73
     6
 74
     0
 42
0.000000001
 43
0.00000001
 40
0.0
 40
0.0
 40
0.0
 40
0.0
 40
0.5
 40
0.5
 40
1.0
 40
1.0
 40
1.0
 40
1.0
 10
175.5417685333784
 20
432.5846972205225
 30
0.0
 10
175.0566332238363
 20
432.3998760398487
 30
0.0
 10
174.5529020475838
 20
432.3077075255633
 30
0.0
 10
173.5135243962658
 20
432.3078659716339
 30
0.0
 10
173.0110902408236
 20
432.3998760392157
 30
0.0
 10
172.5259549296219
 20
432.5846972205212
 30
0.0
  0
SPLINE
  5
148
330
1F
100
AcDbEntity
  8
0
  6
Continuous
 62
     7
370
    25
100
AcDbSpline
210
0.0
220
0.0
230
1.0
 70
    24
 71
     3
 72
    26
 73
    22
 74
     0
 42
0.000000001
 43
0.00000001
 40
0.2294549521418066
 40
0.2294549521418066
 40
0.2294549521418066
 40
0.2294549521418066
 40
0.2499769504868403
 40
0.2499769504868403
 40
0.3124769504868403
 40
0.3124769504868403
 40
0.3749769504868403
 40
0.3749769504868403
 40
0.4374769504868403
 40
0.4374769504868403
 40
0.4999769504868403
 40
0.4999769504868403
 40
0.5624769504868403
 40
0.5624769504868403
 40
0.6249769504868403
 40
0.6249769504868403
 40
0.6874769504868403
 40
0.6874769504868403
 40
0.7499769504868403
 40
0.7499769504868403
 40
0.7705219983450338
 40
0.7705219983450338
 40
0.7705219983450338
 40
0.7705219983450338
 10
191.5391146255581
 20
424.1895881874531
 30
0.0
 10
191.2502395550388
 20
424.1895881874531
 30
0.0
 10
190.9479569164127
 20
424.1895881874531
 30
0.0
 10
189.6697690930223
 20
424.1895881874532
 30
0.0
 10
188.580386379492
 20
424.1895881874532
 30
0.0
 10
186.1602788968384
 20
424.1895881874532
 30
0.0
 10
184.8293960149376
 20
424.1895881874531
 30
0.0
 10
181.9748656250001
 20
424.1895881874532
 30
0.0
 10
180.4514445512137
 20
424.1895881874532
 30
0.0
 10
177.2963508631146
 20
424.1895881874532
 30
0.0
 10
175.6653072226662
 20
424.1895881874532
 30
0.0
 10
172.4024162403339
 20
424.1895881874532
 30
0.0
 10
170.7713725998855
 20
424.1895881874532
 30
0.0
 10
167.6162789117865
 20
424.1895881874532
 30
0.0
 10
166.092857838
 20
424.1895881874532
 30
0.0
 10
163.2383274480626
 20
424.1895881874531
 30
0.0
 10
161.9074445661617
 20
424.1895881874531
 30
0.0
 10
159.4873370835082
 20
424.1895881874531
 30
0.0
 10
158.3979543699779
 20
424.1895881874531
 30
0.0
 10
157.1194116815199
 20
424.1895881874531
 30
0.0
 10
156.8168049009172
 20
424.1895881874531
 30
0.0
 10
156.527635528333
 20
424.1895881874531
 30
0.0
  0
SPLINE
  5
149
330
1F
100
AcDbEntity
  8
0
  6
Continuous
 62
     7
370
    25
100
AcDbSpline
210
0.0
220
0.0
230
1.0
 70
     8
 71
     3
 72
     8
 73
     4
 74
     0
 42
0.000000001
 43
0.00000001
 40
0.0
 40
0.0
 40
0.0
 40
0.0
 40
1.0
 40
1.0
 40
1.0
 40
1.0
 10
197.2293505941834
 20
426.5564421056899
 30
0.0
 10
197.2244794423276
 20
426.3703414065753
 30
0.0
 10
197.20311386584
 20
426.1844631003472
 30
0.0
 10
197.1650775884671
 20
425.9988095638759
 30
0.0
  0
SPLINE
  5
14A
330
1F
100
AcDbEntity
  8
0
  6
Continuous
 62
     7
370
    25
100
AcDbSpline
210
0.0
220
0.0
230
1.0
 70
     8
 71
     3
 72
    16
 73
    12
 74
     0
 42
0.000000001
 43
0.00000001
 40
0.0
 40
0.0
 40
0.0
 40
0.0
 40
0.2499999999999991
 40
0.2499999999999991
 40
0.3749999999999989
 40
0.3749999999999989
 40
0.4999999999999987
 40
0.4999999999999987
 40
0.7499999999999993
 40
0.7499999999999993
 40
1.0
 40
1.0
 40
1.0
 40
1.0
 10
197.1650775884671
 20
425.9988095638759
 30
0.0
 10
197.1003337736589
 20
425.6827976138632
 30
0.0
 10
196.9865210610905
 20
425.4106505201819
 30
0.0
 10
196.7394474632983
 20
425.0646472235809
 30
0.0
 10
196.6443623130888
 20
424.9596982469163
 30
0.0
 10
196.4280240292025
 20
424.770153272756
 30
0.0
 10
196.3067198133487
 20
424.6856936844328
 30
0.0
 10
195.9080682992178
 20
424.4647774527211
 30
0.0
 10
195.5948478341426
 20
424.3593482062983
 30
0.0
 10
194.8715674187268
 20
424.2217225721599
 30
0.0
 10
194.4614967744905
 20
424.1895881874532
 30
0.0
 10
193.9983526814012
 20
424.1895881874532
 30
0.0
  0
SPLINE
  5
14B
330
1F
100
AcDbEntity
  8
0
  6
Continuous
 62
     7
370
    25
100
AcDbSpline
210
0.0
220
0.0
230
1.0
 70
    24
 71
     3
 72
     8
 73
     4
 74
     0
 42
0.000000001
 43
0.00000001
 40
0.0
 40
0.0
 40
0.0
 40
0.0
 40
1.0
 40
1.0
 40
1.0
 40
1.0
 10
193.9983526814012
 20
424.1895881874531
 30
0.0
 10
193.2866560036019
 20
424.1895881874531
 30
0.0
 10
192.4675337122793
 20
424.1895881874532
 30
0.0
 10
191.5391349936162
 20
424.1895881874532
 30
0.0
  0
SPLINE
  5
14C
330
1F
100
AcDbEntity
  8
0
  6
Continuous
 62
     7
370
    25
100
AcDbSpline
210
0.0
220
0.0
230
1.0
 70
     8
 71
     3
 72
    14
 73
    10
 74
     0
 42
0.000000001
 43
0.00000001
 40
0.0
 40
0.0
 40
0.0
 40
0.0
 40
0.2500000000000005
 40
0.2500000000000005
 40
0.3750000000000002
 40
0.3750000000000002
 40
0.5
 40
0.5
 40
1.0
 40
1.0
 40
1.0
 40
1.0
 10
154.069370781599
 20
424.1895881874532
 30
0.0
 10
153.6061014633262
 20
424.1895881874532
 30
0.0
 10
153.1943691477566
 20
424.2217238917858
 30
0.0
 10
152.6486084897226
 20
424.3260819399581
 30
0.0
 10
152.478712478777
 20
424.3702320623614
 30
0.0
 10
152.1627291116562
 20
424.478734279164
 30
0.0
 10
152.016944757199
 20
424.5430980161296
 30
0.0
 10
151.3556579530927
 20
424.9135114617924
 30
0.0
 10
151.0321552937868
 20
425.3666793095109
 30
0.0
 10
150.9026458745332
 20
425.9988095638759
 30
0.0
  0
SPLINE
  5
14D
330
1F
100
AcDbEntity
  8
0
  6
Continuous
 62
     7
370
    25
100
AcDbSpline
210
0.0
220
0.0
230
1.0
 70
     8
 71
     3
 72
     8
 73
     4
 74
     0
 42
0.000000001
 43
0.00000001
 40
0.0
 40
0.0
 40
0.0
 40
0.0
 40
1.0
 40
1.0
 40
1.0
 40
1.0
 10
150.9026458745332
 20
425.9988095638759
 30
0.0
 10
150.86460959716
 20
426.1844631003489
 30
0.0
 10
150.8432440206716
 20
426.370341406516
 30
0.0
 10
150.8383728688158
 20
426.5564421056324
 30
0.0
  0
SPLINE
  5
14E
330
1F
100
AcDbEntity
  8
0
  6
Continuous
 62
     7
370
    25
100
AcDbSpline
210
0.0
220
0.0
230
1.0
 70
    24
 71
     3
 72
     8
 73
     4
 74
     0
 42
0.000000001
 43
0.00000001
 40
0.0
 40
0.0
 40
0.0
 40
0.0
 40
1.0
 40
1.0
 40
1.0
 40
1.0
 10
156.528588469384
 20
424.1895881874532
 30
0.0
 10
155.6000151589808
 20
424.1895881874532
 30
0.0
 10
154.7809344297565
 20
424.1895881874531
 30
0.0
 10
154.069370781599
 20
424.1895881874531
 30
0.0
  0
SPLINE
  5
14F
330
1F
100
AcDbEntity
  8
0
  6
Continuous
 62
     7
370
    25
100
AcDbSpline
210
0.0
220
0.0
230
1.0
 70
     8
 71
     3
 72
    14
 73
    10
 74
     0
 42
0.000000001
 43
0.00000001
 40
0.0
 40
0.0
 40
0.0
 40
0.0
 40
0.25
 40
0.25
 40
0.5
 40
0.5
 40
0.75
 40
0.75
 40
1.0
 40
1.0
 40
1.0
 40
1.0
 10
150.7985656988395
 20
419.6651693643707
 30
0.0
 10
150.8000462066287
 20
419.837748939617
 30
0.0
 10
150.8337942453998
 20
420.0099975098283
 30
0.0
 10
150.961301964936
 20
420.3307474146054
 30
0.0
 10
151.0550221478333
 20
420.4791493965803
 30
0.0
 10
151.2898341124736
 20
420.7321182024173
 30
0.0
 10
151.430853158791
 20
420.8366066692593
 30
0.0
 10
151.7412172180454
 20
420.987587938902
 30
0.0
 10
151.9104660933449
 20
421.0340339756407
 30
0.0
 10
152.0824400201248
 20
421.0483230232378
 30
0.0
  0
SPLINE
  5
150
330
1F
100
AcDbEntity
  8
0
  6
Continuous
 62
     7
370
    25
100
AcDbSpline
210
0.0
220
0.0
230
1.0
 70
     8
 71
     3
 72
    11
 73
     7
 74
     0
 42
0.000000001
 43
0.00000001
 40
0.0
 40
0.0
 40
0.0
 40
0.0
 40
0.306429963217055
 40
0.6128586602408435
 40
0.9192856098157557
 40
1.0
 40
1.0
 40
1.0
 40
1.0
 10
197.2682775308795
 20
419.6651592739451
 30
0.0
 10
197.2484239670923
 20
419.8382338690017
 30
0.0
 10
197.2087169215543
 20
420.1843823439568
 30
0.0
 10
196.9131952558692
 20
420.6184425043311
 30
0.0
 10
196.6066383649365
 20
420.8867142014436
 30
0.0
 10
196.3948693715608
 20
420.9372730538898
 30
0.0
 10
196.3507180412717
 20
420.9478139766085
 30
0.0
  0
SPLINE
  5
151
330
1F
100
AcDbEntity
  8
0
  6
Continuous
 62
     8
370
    18
100
AcDbSpline
210
0.0
220
0.0
230
1.0
 70
     8
 71
     3
 72
    36
 73
    32
 74
     0
 42
0.000000001
 43
0.00000001
 40
0.0
 40
0.0
 40
0.0
 40
0.0
 40
0.1250000000000032
 40
0.1250000000000032
 40
0.2500000000000065
 40
0.2500000000000065
 40
0.3125000000000078
 40
0.3125000000000078
 40
0.3750000000000092
 40
0.3750000000000092
 40
0.4375000000000103
 40
0.4375000000000103
 40
0.5000000000000114
 40
0.5000000000000114
 40
0.5312500000000122
 40
0.5312500000000122
 40
0.5625000000000131
 40
0.5625000000000131
 40
0.6250000000000114
 40
0.6250000000000114
 40
0.6875000000000099
 40
0.6875000000000099
 40
0.7500000000000082
 40
0.7500000000000082
 40
0.8750000000000052
 40
0.8750000000000052
 40
0.9375000000000026
 40
0.9375000000000026
 40
0.9687500000000013
 40
0.9687500000000013
 40
1.0
 40
1.0
 40
1.0
 40
1.0
 10
182.4444804732464
 20
421.1183691537693
 30
0.0
 10
183.2723918117103
 20
421.1195842926826
 30
0.0
 10
184.1029883707731
 20
421.1209707773234
 30
0.0
 10
185.7594632795432
 20
421.1192672575414
 30
0.0
 10
186.586993834114
 20
421.1161060261516
 30
0.0
 10
187.8200556571161
 20
421.1083771692259
 30
0.0
 10
188.2296697421681
 20
421.1052970624521
 30
0.0
 10
189.0446798663253
 20
421.097638920072
 30
0.0
 10
189.4433936028281
 20
421.0930868418386
 30
0.0
 10
190.2134414955211
 20
421.0821399858858
 30
0.0
 10
190.5870539510318
 20
421.0758286672809
 30
0.0
 10
191.2994492527361
 20
421.0630122741339
 30
0.0
 10
191.6297031542983
 20
421.0566727950923
 30
0.0
 10
192.0838929339155
 20
421.0482068007701
 30
0.0
 10
192.2283967807926
 20
421.0455563891363
 30
0.0
 10
192.5032947463591
 20
421.040697462636
 30
0.0
 10
192.6343844391757
 20
421.0384769685855
 30
0.0
 10
193.000082507239
 20
421.0326665789419
 30
0.0
 10
193.2077424469478
 20
421.0299025775341
 30
0.0
 10
193.557675179563
 20
421.0267865818718
 30
0.0
 10
193.6998721031781
 20
421.0265012533753
 30
0.0
 10
193.913903231721
 20
421.0285208518459
 30
0.0
 10
193.9882398003198
 20
421.0307129661533
 30
0.0
 10
194.1513719249876
 20
421.0383147160035
 30
0.0
 10
194.181785472675
 20
421.0445276118284
 30
0.0
 10
194.2168798063463
 20
421.0494997258157
 30
0.0
 10
194.2261505819719
 20
421.050513505032
 30
0.0
 10
194.2387487170364
 20
421.051380274136
 30
0.0
 10
194.2426810123511
 20
421.0515650487616
 30
0.0
 10
194.2501209664384
 20
421.0518077889927
 30
0.0
 10
194.2536544510782
 20
421.0518662250174
 30
0.0
 10
194.2569796851002
 20
421.0519019645722
 30
0.0
  0
SPLINE
  5
152
330
1F
100
AcDbEntity
  8
0
  6
Continuous
 62
     8
370
    18
100
AcDbSpline
210
0.0
220
0.0
230
1.0
 70
     8
 71
     3
 72
    36
 73
    32
 74
     0
 42
0.000000001
 43
0.00000001
 40
0.0
 40
0.0
 40
0.0
 40
0.0
 40
0.1250000000000116
 40
0.1250000000000116
 40
0.250000000000025
 40
0.250000000000025
 40
0.3125000000000298
 40
0.3125000000000298
 40
0.3437500000000321
 40
0.3437500000000321
 40
0.3750000000000345
 40
0.3750000000000345
 40
0.4375000000000358
 40
0.4375000000000358
 40
0.4687500000000349
 40
0.4687500000000349
 40
0.5000000000000339
 40
0.5000000000000339
 40
0.5625000000000298
 40
0.5625000000000298
 40
0.5937500000000276
 40
0.5937500000000276
 40
0.6250000000000255
 40
0.6250000000000255
 40
0.6875000000000213
 40
0.6875000000000213
 40
0.7500000000000169
 40
0.7500000000000169
 40
0.8750000000000085
 40
0.8750000000000085
 40
1.0
 40
1.0
 40
1.0
 40
1.0
 10
195.5418419122558
 20
419.5950211676262
 30
0.0
 10
195.5268958772331
 20
419.591524076807
 30
0.0
 10
195.5109831311991
 20
419.5883604730189
 30
0.0
 10
195.4543256873595
 20
419.5585933072724
 30
0.0
 10
195.4096776648553
 20
419.5364949127842
 30
0.0
 10
195.1943918332965
 20
419.4909434289727
 30
0.0
 10
195.0975538042098
 20
419.4735855810387
 30
0.0
 10
194.8980255069813
 20
419.4482086799475
 30
0.0
 10
194.8221233075832
 20
419.4399066174768
 30
0.0
 10
194.6535956051491
 20
419.4229099763058
 30
0.0
 10
194.5609410282634
 20
419.4142739799163
 30
0.0
 10
194.2576053423725
 20
419.3883044201717
 30
0.0
 10
194.0217776403698
 20
419.3707707518352
 30
0.0
 10
193.6127540193357
 20
419.3447446379567
 30
0.0
 10
193.4672806408481
 20
419.3361432026916
 30
0.0
 10
193.1637379693363
 20
419.3198808421636
 30
0.0
 10
193.0049573735561
 20
419.3122083249451
 30
0.0
 10
192.5080672789366
 20
419.2908615195202
 30
0.0
 10
192.1494927115372
 20
419.2788848972741
 30
0.0
 10
191.5720262984427
 20
419.2624943471608
 30
0.0
 10
191.3722832881852
 20
419.2572597983846
 30
0.0
 10
190.9673798844001
 20
419.2473646090622
 30
0.0
 10
190.7614007435601
 20
419.2426825350005
 30
0.0
 10
190.1335658769766
 20
419.2294700421638
 30
0.0
 10
189.7017237477934
 20
419.2221126918932
 30
0.0
 10
188.8158164321184
 20
419.212568530928
 30
0.0
 10
188.3643747409666
 20
419.2099275777746
 30
0.0
 10
187.0127153471192
 20
419.2055324516186
 30
0.0
 10
186.1052124782335
 20
419.2108586188101
 30
0.0
 10
184.2878459492783
 20
419.2146358263537
 30
0.0
 10
183.3779202645644
 20
419.2089557860966
 30
0.0
 10
182.4678102604841
 20
419.2031484893035
 30
0.0
  0
SPLINE
  5
153
330
1F
100
AcDbEntity
  8
0
  6
Continuous
 62
     8
370
    18
100
AcDbSpline
210
0.0
220
0.0
230
1.0
 70
     8
 71
     3
 72
    32
 73
    28
 74
     0
 42
0.000000001
 43
0.00000001
 40
0.0
 40
0.0
 40
0.0
 40
0.0
 40
0.1250000000000044
 40
0.1250000000000044
 40
0.2500000000000087
 40
0.2500000000000087
 40
0.3125000000000088
 40
0.3125000000000088
 40
0.3437500000000089
 40
0.3437500000000089
 40
0.3750000000000089
 40
0.3750000000000089
 40
0.4375000000000053
 40
0.4375000000000053
 40
0.4687500000000036
 40
0.4687500000000036
 40
0.5000000000000019
 40
0.5000000000000019
 40
0.5625000000000018
 40
0.5625000000000018
 40
0.6250000000000016
 40
0.6250000000000016
 40
0.750000000000001
 40
0.750000000000001
 40
0.8750000000000006
 40
0.8750000000000006
 40
1.0
 40
1.0
 40
1.0
 40
1.0
 10
153.8107437778993
 20
421.0519019645722
 30
0.0
 10
153.8241370004955
 20
421.0517580140769
 30
0.0
 10
153.839122807924
 20
421.0511584443296
 30
0.0
 10
153.8858199517936
 20
421.0445462039515
 30
0.0
 10
153.9156909632755
 20
421.0383462371298
 30
0.0
 10
154.0797794578818
 20
421.0306988129978
 30
0.0
 10
154.1545519299549
 20
421.0285113295628
 30
0.0
 10
154.3144029516517
 20
421.0270069069571
 30
0.0
 10
154.3757103628928
 20
421.026807817503
 30
0.0
 10
154.5161571500855
 20
421.0270827526568
 30
0.0
 10
154.5956501318863
 20
421.0275518841977
 30
0.0
 10
154.8586167888817
 20
421.0298844064154
 30
0.0
 10
155.0652119322001
 20
421.0326384565752
 30
0.0
 10
155.4239557083756
 20
421.0383228745229
 30
0.0
 10
155.5517424471835
 20
421.0404798303871
 30
0.0
 10
155.8246408377382
 20
421.0452908371645
 30
0.0
 10
155.9706752937545
 20
421.0479638564756
 30
0.0
 10
156.4292664053177
 20
421.0565053403529
 30
0.0
 10
156.7593122929521
 20
421.0628404583601
 30
0.0
 10
157.462190445765
 20
421.0755063978669
 30
0.0
 10
157.8387277225111
 20
421.0818919119504
 30
0.0
 10
158.9947222188525
 20
421.0984046147331
 30
0.0
 10
159.8034648825627
 20
421.1055449260529
 30
0.0
 10
161.4601728115149
 20
421.1160236158594
 30
0.0
 10
162.2921530802184
 20
421.1192299312183
 30
0.0
 10
163.9570350022889
 20
421.1209833256918
 30
0.0
 10
164.7895870571605
 20
421.1195927243936
 30
0.0
 10
165.6232429897531
 20
421.1183691537693
 30
0.0
  0
SPLINE
  5
154
330
1F
100
AcDbEntity
  8
0
  6
Continuous
 62
     8
370
    18
100
AcDbSpline
210
0.0
220
0.0
230
1.0
 70
     8
 71
     3
 72
    36
 73
    32
 74
     0
 42
0.000000001
 43
0.00000001
 40
0.0
 40
0.0
 40
0.0
 40
0.0
 40
0.1249999999999969
 40
0.1249999999999969
 40
0.1874999999999954
 40
0.1874999999999954
 40
0.249999999999994
 40
0.249999999999994
 40
0.3749999999999909
 40
0.3749999999999909
 40
0.4062499999999905
 40
0.4062499999999905
 40
0.43749999999999
 40
0.43749999999999
 40
0.4999999999999911
 40
0.4999999999999911
 40
0.5624999999999922
 40
0.5624999999999922
 40
0.6249999999999933
 40
0.6249999999999933
 40
0.6562499999999939
 40
0.6562499999999939
 40
0.6874999999999944
 40
0.6874999999999944
 40
0.7499999999999956
 40
0.7499999999999956
 40
0.8124999999999967
 40
0.8124999999999967
 40
0.8749999999999978
 40
0.8749999999999978
 40
1.0
 40
1.0
 40
1.0
 40
1.0
 10
165.5999132025152
 20
419.2031484893033
 30
0.0
 10
164.685975914813
 20
419.2089802075084
 30
0.0
 10
163.772153826707
 20
419.2146756661887
 30
0.0
 10
162.4026146771591
 20
419.2117448240737
 30
0.0
 10
161.9463187353655
 20
419.2091051576049
 30
0.0
 10
161.0348797119541
 20
419.2067406107442
 30
0.0
 10
160.5783542873939
 20
419.2070326679989
 30
0.0
 10
159.2224990261155
 20
419.2115951973578
 30
0.0
 10
158.3420783261219
 20
419.2208167131178
 30
0.0
 10
157.2900265371181
 20
419.2430434697323
 30
0.0
 10
157.0821933649957
 20
419.247788653373
 30
0.0
 10
156.6791239019484
 20
419.2576798014741
 30
0.0
 10
156.4829400587365
 20
419.2628399275664
 30
0.0
 10
155.9108681795956
 20
419.2791283597075
 30
0.0
 10
155.5513609930791
 20
419.2911356653251
 30
0.0
 10
154.8807602086176
 20
419.3201127469405
 30
0.0
 10
154.5787561037733
 20
419.3368224963249
 30
0.0
 10
154.0439518755311
 20
419.3709444982326
 30
0.0
 10
153.8096026341896
 20
419.3883419392724
 30
0.0
 10
153.5059389287175
 20
419.4143495199307
 30
0.0
 10
153.4124066987267
 20
419.4230754527941
 30
0.0
 10
153.2444427874143
 20
419.4400315911384
 30
0.0
 10
153.1697032999081
 20
419.4482134436183
 30
0.0
 10
152.9714541744689
 20
419.4734113771092
 30
0.0
 10
152.8742056819399
 20
419.4907733472784
 30
0.0
 10
152.7298541558009
 20
419.521286503215
 30
0.0
 10
152.6826411705251
 20
419.5349040128816
 30
0.0
 10
152.6174383140337
 20
419.5572432777317
 30
0.0
 10
152.5991302271683
 20
419.566085609981
 30
0.0
 10
152.5567260001311
 20
419.5883754361977
 30
0.0
 10
152.5408160571422
 20
419.591526774288
 30
0.0
 10
152.5258815507437
 20
419.5950211676262
 30
0.0
  0
SPLINE
  5
155
330
1F
100
AcDbEntity
  8
0
  6
Continuous
 62
     8
370
    18
100
AcDbSpline
210
0.0
220
0.0
230
1.0
 70
     8
 71
     3
 72
    12
 73
     8
 74
     0
 42
0.000000001
 43
0.00000001
 40
0.0
 40
0.0
 40
0.0
 40
0.0
 40
0.2499999999999992
 40
0.2499999999999992
 40
0.4999999999999984
 40
0.4999999999999984
 40
1.0
 40
1.0
 40
1.0
 40
1.0
 10
152.5259168116015
 20
419.5941684398384
 30
0.0
 10
152.5071460653937
 20
419.5985612242234
 30
0.0
 10
152.4926229338319
 20
419.6015059378224
 30
0.0
 10
152.4583107224831
 20
419.607691797277
 30
0.0
 10
152.4392276471607
 20
419.6103961220132
 30
0.0
 10
152.3832536314609
 20
419.6165403537526
 30
0.0
 10
152.3492420039656
 20
419.6193650870225
 30
0.0
 10
152.316441541745
 20
419.6206808336515
 30
0.0
  0
SPLINE
  5
156
330
1F
100
AcDbEntity
  8
0
  6
Continuous
 62
     8
370
    18
100
AcDbSpline
210
0.0
220
0.0
230
1.0
 70
     8
 71
     3
 72
    10
 73
     6
 74
     0
 42
0.000000001
 43
0.00000001
 40
0.0
 40
0.0
 40
0.0
 40
0.0
 40
0.5
 40
0.5
 40
1.0
 40
1.0
 40
1.0
 40
1.0
 10
174.0336705746876
 20
419.1567935550329
 30
0.0
 10
172.6279761584415
 20
419.1567971986469
 30
0.0
 10
171.222315465998
 20
419.1653023583127
 30
0.0
 10
168.4110169938604
 20
419.1827988397288
 30
0.0
 10
167.0054241832903
 20
419.1940788293277
 30
0.0
 10
165.5999222353736
 20
419.2030385598398
 30
0.0
  0
SPLINE
  5
157
330
1F
100
AcDbEntity
  8
0
  6
Continuous
 62
     8
370
    18
100
AcDbSpline
210
0.0
220
0.0
230
1.0
 70
     8
 71
     3
 72
    16
 73
    12
 74
     0
 42
0.000000001
 43
0.00000001
 40
0.0
 40
0.0
 40
0.0
 40
0.0
 40
0.1645837771366928
 40
0.3289969064707156
 40
0.4253617849744329
 40
0.5216518362455204
 40
0.6179944053717863
 40
0.7142967623205531
 40
0.8105905567502618
 40
0.906963238700611
 40
1.0
 40
1.0
 40
1.0
 40
1.0
 10
152.316440021009
 20
419.6206793077814
 30
0.0
 10
152.3747178343965
 20
418.3514293224114
 30
0.0
 10
152.4912130361347
 20
415.8142453666811
 30
0.0
 10
153.0871978447735
 20
412.5724199628261
 30
0.0
 10
153.922736163586
 20
409.942942992237
 30
0.0
 10
154.8454101648391
 20
407.9062177002378
 30
0.0
 10
156.0367924101329
 20
406.0137147687817
 30
0.0
 10
157.4894252010361
 20
404.3109993090723
 30
0.0
 10
159.1866627873821
 20
402.8548326375088
 30
0.0
 10
161.0413351030396
 20
401.6465096979143
 30
0.0
 10
162.3775306849527
 20
401.0506067411324
 30
0.0
 10
163.0338617911048
 20
400.757902849518
 30
0.0
  0
SPLINE
  5
158
330
1F
100
AcDbEntity
  8
0
  6
Continuous
 62
     8
370
    18
100
AcDbSpline
210
0.0
220
0.0
230
1.0
 70
     8
 71
     3
 72
    10
 73
     6
 74
     0
 42
0.000000001
 43
0.00000001
 40
0.0
 40
0.0
 40
0.0
 40
0.0
 40
0.5
 40
0.5
 40
1.0
 40
1.0
 40
1.0
 40
1.0
 10
182.4678012276258
 20
419.2030385598396
 30
0.0
 10
181.0622961997003
 20
419.1940788096916
 30
0.0
 10
179.6567140642321
 20
419.1827988929359
 30
0.0
 10
176.8454153054753
 20
419.1653023978615
 30
0.0
 10
175.4397476170147
 20
419.156797198649
 30
0.0
 10
174.0340528883117
 20
419.1567935550331
 30
0.0
  0
SPLINE
  5
159
330
1F
100
AcDbEntity
  8
0
  6
Continuous
 62
     8
370
    18
100
AcDbSpline
210
0.0
220
0.0
230
1.0
 70
     8
 71
     3
 72
    12
 73
     8
 74
     0
 42
0.000000001
 43
0.00000001
 40
0.0
 40
0.0
 40
0.0
 40
0.0
 40
0.5
 40
0.5
 40
0.75
 40
0.75
 40
1.0
 40
1.0
 40
1.0
 40
1.0
 10
195.7512819212546
 20
419.6206808336514
 30
0.0
 10
195.7184814590339
 20
419.6193650870224
 30
0.0
 10
195.6844698315387
 20
419.6165403537528
 30
0.0
 10
195.6284958158389
 20
419.6103961220136
 30
0.0
 10
195.6094127405165
 20
419.6076917972769
 30
0.0
 10
195.5751005291676
 20
419.6015059378223
 30
0.0
 10
195.5605773976058
 20
419.5985612242233
 30
0.0
 10
195.541806651398
 20
419.5941684398384
 30
0.0
  0
SPLINE
  5
15A
330
1F
100
AcDbEntity
  8
0
  6
Continuous
 62
     8
370
    18
100
AcDbSpline
210
0.0
220
0.0
230
1.0
 70
     8
 71
     3
 72
    16
 73
    12
 74
     0
 42
0.000000001
 43
0.00000001
 40
0.0
 40
0.0
 40
0.0
 40
0.0
 40
0.1645837771366928
 40
0.3289969064707156
 40
0.4253617849744329
 40
0.5216518362455204
 40
0.6179944053717863
 40
0.7142967623205531
 40
0.8105905567502618
 40
0.906963238700611
 40
1.0
 40
1.0
 40
1.0
 40
1.0
 10
195.7512834419913
 20
419.6206793077814
 30
0.0
 10
195.6930056286038
 20
418.3514293224114
 30
0.0
 10
195.5765104268657
 20
415.8142453666811
 30
0.0
 10
194.9805256182269
 20
412.5724199628261
 30
0.0
 10
194.1449872994143
 20
409.942942992237
 30
0.0
 10
193.2223132981613
 20
407.9062177002378
 30
0.0
 10
192.0309310528675
 20
406.0137147687817
 30
0.0
 10
190.5782982619643
 20
404.3109993090723
 30
0.0
 10
188.8810606756182
 20
402.8548326375088
 30
0.0
 10
187.0263883599608
 20
401.6465096979143
 30
0.0
 10
185.6901927780476
 20
401.0506067411324
 30
0.0
 10
185.0338616718955
 20
400.757902849518
 30
0.0
  0
SPLINE
  5
15B
330
1F
100
AcDbEntity
  8
0
  6
Continuous
 62
     8
370
    18
100
AcDbSpline
210
0.0
220
0.0
230
1.0
 70
     8
 71
     3
 72
    10
 73
     6
 74
     0
 42
0.000000001
 43
0.00000001
 40
0.0
 40
0.0
 40
0.0
 40
0.0
 40
0.5
 40
0.5
 40
1.0
 40
1.0
 40
1.0
 40
1.0
 10
174.0338617314997
 20
421.1077712408583
 30
0.0
 10
175.4356960970091
 20
421.1077721063527
 30
0.0
 10
176.8375272817626
 20
421.1092497236043
 30
0.0
 10
179.6410828297363
 20
421.1137794120866
 30
0.0
 10
181.0429113027628
 20
421.1162213881286
 30
0.0
 10
182.4444804732462
 20
421.1182605635015
 30
0.0
  0
LWPOLYLINE
  5
15C
330
1F
100
AcDbEntity
  8
0
  6
Continuous
 62
     8
370
    18
100
AcDbPolyline
 90
        9
 70
   128
 43
0.0
 10
174.0339511783
 20
419.1567912587
 10
174.0339513345
 20
419.4735526927
 10
174.0339515352
 20
419.8036581167
 10
174.0339517693
 20
420.1287120469
 10
174.0339520236
 20
420.4305723198
 10
174.0339522841
 20
420.6924229749
 10
174.0339525361
 20
420.8996683248
 10
174.0339527657
 20
421.0407376178
 10
174.03395296
 20
421.1077704914
  0
SPLINE
  5
15D
330
1F
100
AcDbEntity
  8
0
  6
Continuous
 62
     8
370
    18
100
AcDbSpline
210
0.0
220
0.0
230
1.0
 70
     8
 71
     3
 72
    10
 73
     6
 74
     0
 42
0.000000001
 43
0.00000001
 40
0.0
 40
0.0
 40
0.0
 40
0.0
 40
0.5
 40
0.5
 40
1.0
 40
1.0
 40
1.0
 40
1.0
 10
165.6232429897532
 20
421.1182605635015
 30
0.0
 10
167.0248238266207
 20
421.1162213710986
 30
0.0
 10
168.4266002573799
 20
421.1137794792275
 30
0.0
 10
171.2302115300516
 20
421.1092496968994
 30
0.0
 10
172.6320357064467
 20
421.1077721063475
 30
0.0
 10
174.0338617314997
 20
421.1077712408582
 30
0.0
  0
SPLINE
  5
15E
330
1F
100
AcDbEntity
  8
0
  6
Continuous
 62
     8
370
    18
100
AcDbSpline
210
0.0
220
0.0
230
1.0
 70
    24
 71
     3
 72
    14
 73
    10
 74
     0
 42
0.000000001
 43
0.00000001
 40
0.1158548080587666
 40
0.1158548080587666
 40
0.1158548080587666
 40
0.1158548080587666
 40
0.2408548080587666
 40
0.3658548080587666
 40
0.6158548080587666
 40
0.7408548080587666
 40
0.8658548080587666
 40
0.9908548080587666
 40
1.0
 40
1.0
 40
1.0
 40
1.0
 10
165.6232429893973
 20
421.538802729705
 30
0.0
 10
165.6232429893973
 20
421.5384817842807
 30
0.0
 10
165.6232429893974
 20
421.5376950349213
 30
0.0
 10
165.6232429894062
 20
421.5262227847933
 30
0.0
 10
165.6232429894397
 20
421.4859234315031
 30
0.0
 10
165.6232429895196
 20
421.3918027733018
 30
0.0
 10
165.623242989609
 20
421.2868366361777
 30
0.0
 10
165.6232429896957
 20
421.1853852521554
 30
0.0
 10
165.6232429897494
 20
421.1226931053685
 30
0.0
 10
165.6232429897531
 20
421.1183711156238
 30
0.0
  0
SPLINE
  5
15F
330
1F
100
AcDbEntity
  8
0
  6
Continuous
 62
     8
370
    18
100
AcDbSpline
210
0.0
220
0.0
230
1.0
 70
    24
 71
     3
 72
     8
 73
     4
 74
     0
 42
0.000000001
 43
0.00000001
 40
0.0
 40
0.0
 40
0.0
 40
0.0
 40
0.8826893851978974
 40
0.8826893851978974
 40
0.8826893851978974
 40
0.8826893851978974
 10
182.4444804732462
 20
421.1182586017598
 30
0.0
 10
182.4444804736022
 20
421.5342674157118
 30
0.0
 10
182.4444804736022
 20
421.5366679533303
 30
0.0
 10
182.4444804736023
 20
421.538802729705
 30
0.0
  0
SPLINE
  5
160
330
1F
100
AcDbEntity
  8
0
  6
Continuous
 62
     8
370
    18
100
AcDbSpline
210
0.0
220
0.0
230
1.0
 70
     8
 71
     3
 72
    16
 73
    12
 74
     0
 42
0.000000001
 43
0.00000001
 40
0.0
 40
0.0
 40
0.0
 40
0.0
 40
0.0060981017835584
 40
0.0285364955562963
 40
0.0509748893282578
 40
0.0958516768723777
 40
0.1968244488464421
 40
0.3735267998010404
 40
0.6827559139715865
 40
0.9974045443558867
 40
1.0
 40
1.0
 40
1.0
 40
1.0
 10
174.0339668150915
 20
421.6139148924873
 30
0.0
 10
174.0339276156801
 20
421.6140003172534
 30
0.0
 10
174.0337441792813
 20
421.6144000684455
 30
0.0
 10
174.0339060434816
 20
421.6151628367115
 30
0.0
 10
174.0338365485531
 20
421.6164279671167
 30
0.0
 10
174.0338819528903
 20
421.6188213893046
 30
0.0
 10
174.0338501578063
 20
421.6234057693282
 30
0.0
 10
174.03385798055
 20
421.6317503958462
 30
0.0
 10
174.0339373942224
 20
421.6431316063542
 30
0.0
 10
174.0336924750395
 20
421.6520380951363
 30
0.0
 10
174.0337153577107
 20
421.6565482601379
 30
0.0
 10
174.0337155449197
 20
421.6565851589604
 30
0.0
  0
SPLINE
  5
161
330
1F
100
AcDbEntity
  8
0
  6
Continuous
 62
     8
370
    18
100
AcDbSpline
210
0.0
220
0.0
230
1.0
 70
     8
 71
     3
 72
    12
 73
     8
 74
     0
 42
0.000000001
 43
0.00000001
 40
0.0
 40
0.0
 40
0.0
 40
0.0
 40
0.5
 40
0.5
 40
0.75
 40
0.75
 40
1.0
 40
1.0
 40
1.0
 40
1.0
 10
153.6021539541868
 20
421.0497379273625
 30
0.0
 10
153.6349684652859
 20
421.0497797493901
 30
0.0
 10
153.6689825231739
 20
421.0499233489444
 30
0.0
 10
153.7249548200649
 20
421.0505550639114
 30
0.0
 10
153.7439885581114
 20
421.0506639239856
 30
0.0
 10
153.7781394800001
 20
421.0507565465138
 30
0.0
 10
153.7926803581607
 20
421.0513060675468
 30
0.0
 10
153.8112226768041
 20
421.0511147656868
 30
0.0
  0
LINE
  5
162
330
1F
100
AcDbEntity
  8
0
  6
Continuous
 62
     8
370
    18
100
AcDbLine
 10
152.9193186512
 20
421.0491269716
 30
0.0
 11
153.6021513244
 21
421.0497379192
 31
0.0
  0
SPLINE
  5
163
330
1F
100
AcDbEntity
  8
0
  6
Continuous
 62
     8
370
    18
100
AcDbSpline
210
0.0
220
0.0
230
1.0
 70
     8
 71
     3
 72
    11
 73
     7
 74
     0
 42
0.000000001
 43
0.00000001
 40
0.0
 40
0.0
 40
0.0
 40
0.0
 40
0.0176053512631304
 40
0.0176053512631304
 40
0.0176053512631304
 40
0.0221786404277094
 40
0.0221786404277094
 40
0.0221786404277094
 40
0.0221786404277094
 10
152.6153004744413
 20
421.0497733639218
 30
0.0
 10
152.6980779609512
 20
421.0497941994765
 30
0.0
 10
152.7716035040069
 20
421.0490526990592
 30
0.0
 10
152.8538589526487
 20
421.0490300461432
 30
0.0
 10
152.8752262050256
 20
421.0490241616628
 30
0.0
 10
152.8969740545466
 20
421.0490495731092
 30
0.0
 10
152.9189873073925
 20
421.0490967354606
 30
0.0
  0
SPLINE
  5
164
330
1F
100
AcDbEntity
  8
0
  6
Continuous
 62
     8
370
    18
100
AcDbSpline
210
0.0
220
0.0
230
1.0
 70
     8
 71
     3
 72
    10
 73
     6
 74
     0
 42
0.000000001
 43
0.00000001
 40
0.0
 40
0.0
 40
0.0
 40
0.0
 40
0.5
 40
0.5
 40
1.0
 40
1.0
 40
1.0
 40
1.0
 10
152.0836110368508
 20
421.0483999113931
 30
0.0
 10
152.1801931669544
 20
421.0492933198907
 30
0.0
 10
152.2649553673944
 20
421.0492023401417
 30
0.0
 10
152.4404335463977
 20
421.0495144638209
 30
0.0
 10
152.5289417389366
 20
421.0497327731566
 30
0.0
 10
152.6152336477937
 20
421.0497674573567
 30
0.0
  0
SPLINE
  5
165
330
1F
100
AcDbEntity
  8
0
  6
Continuous
 62
     8
370
    18
100
AcDbSpline
210
0.0
220
0.0
230
1.0
 70
     8
 71
     3
 72
    11
 73
     7
 74
     0
 42
0.000000001
 43
0.00000001
 40
0.0
 40
0.0
 40
0.0
 40
0.0
 40
0.028631821672147
 40
0.028631821672147
 40
0.028631821672147
 40
0.0366385323362245
 40
0.0366385323362245
 40
0.0366385323362245
 40
0.0366385323362245
 10
195.4524898152063
 20
421.0497674573567
 30
0.0
 10
195.5873584645975
 20
421.0497132482044
 30
0.0
 10
195.7256086875315
 20
421.0493781071486
 30
0.0
 10
195.8634094636251
 20
421.0490767379848
 30
0.0
 10
195.9019445849692
 20
421.0489924619914
 30
0.0
 10
195.9418997918219
 20
421.048790388659
 30
0.0
 10
195.9841124261494
 20
421.0483999113931
 30
0.0
  0
SPLINE
  5
166
330
1F
100
AcDbEntity
  8
0
  6
Continuous
 62
     8
370
    18
100
AcDbSpline
210
0.0
220
0.0
230
1.0
 70
     8
 71
     3
 72
    10
 73
     6
 74
     0
 42
0.000000001
 43
0.00000001
 40
0.0
 40
0.0
 40
0.0
 40
0.0
 40
0.5
 40
0.5
 40
1.0
 40
1.0
 40
1.0
 40
1.0
 10
195.1487361556074
 20
421.0490967354606
 30
0.0
 10
195.202113942091
 20
421.0489823760815
 30
0.0
 10
195.2533735731121
 20
421.0490418760218
 30
0.0
 10
195.3526684547117
 20
421.0494265898189
 30
0.0
 10
195.4002828125834
 20
421.0497864878947
 30
0.0
 10
195.4524229885588
 20
421.0497733639218
 30
0.0
  0
LWPOLYLINE
  5
167
330
1F
100
AcDbEntity
  8
0
  6
Continuous
 62
     8
370
    18
100
AcDbPolyline
 90
        5
 70
   128
 43
0.0
 10
194.4655721386
 20
421.0497379192
 10
194.6367138376
 20
421.0495516547
 10
194.8075444748
 20
421.0493877419
 10
194.9780994405
 20
421.0492461809
 10
195.1484048118
 20
421.0491269716
  0
SPLINE
  5
168
330
1F
100
AcDbEntity
  8
0
  6
Continuous
 62
     8
370
    18
100
AcDbSpline
210
0.0
220
0.0
230
1.0
 70
     8
 71
     3
 72
    12
 73
     8
 74
     0
 42
0.000000001
 43
0.00000001
 40
0.0
 40
0.0
 40
0.0
 40
0.0
 40
0.25
 40
0.25
 40
0.5
 40
0.5
 40
1.0
 40
1.0
 40
1.0
 40
1.0
 10
194.2565007861955
 20
421.0511147656868
 30
0.0
 10
194.2750431048389
 20
421.0513060675468
 30
0.0
 10
194.2895839829994
 20
421.0507565465138
 30
0.0
 10
194.3237349048881
 20
421.0506639239856
 30
0.0
 10
194.3427686429347
 20
421.0505550639112
 30
0.0
 10
194.3987409398256
 20
421.0499233489446
 30
0.0
 10
194.4327549977137
 20
421.0497797493902
 30
0.0
 10
194.4655695088128
 20
421.0497379273625
 30
0.0
  0
SPLINE
  5
169
330
1F
100
AcDbEntity
  8
0
  6
Continuous
 62
     8
370
    18
100
AcDbSpline
210
0.0
220
0.0
230
1.0
 70
     8
 71
     3
 72
    17
 73
    13
 74
     0
 42
0.000000001
 43
0.00000001
 40
0.0
 40
0.0
 40
0.0
 40
0.0
 40
0.1536824836256621
 40
0.3072336399110831
 40
0.3956561764286388
 40
0.4840316018159888
 40
0.5724100222888591
 40
0.6607813319528693
 40
0.7491471994830436
 40
0.8375563684806053
 40
0.9259359627311853
 40
0.9999999999999999
 40
0.9999999999999999
 40
0.9999999999999999
 40
0.9999999999999999
 10
151.6342201580711
 20
419.6457132585871
 30
0.0
 10
151.6546829000114
 20
418.2319693982361
 30
0.0
 10
151.6955908977256
 20
415.4056897737111
 30
0.0
 10
152.1111131528232
 20
411.7782509779075
 30
0.0
 10
152.8284279469915
 20
408.8200721807885
 30
0.0
 10
153.6794181081296
 20
406.5269215660563
 30
0.0
 10
154.8379180780971
 20
404.3710503096571
 30
0.0
 10
156.3076791362306
 20
402.4133294494639
 30
0.0
 10
158.0563469382708
 20
400.6994757890755
 30
0.0
 10
160.0315325054761
 20
399.2584023492335
 30
0.0
 10
162.0492481915219
 20
398.1219023934046
 30
0.0
 10
163.4421659958138
 20
397.5775667532192
 30
0.0
 10
164.0772485484786
 20
397.3293840773928
 30
0.0
  0
ARC
  5
16A
330
1F
100
AcDbEntity
  8
0
  6
Continuous
 62
     8
370
    18
100
AcDbCircle
 10
150.0314748112
 20
365.7780286905
 30
0.0
 40
53.89111328880715
100
AcDbArc
 50
87.5699496114
 51
88.2957451086
  0
ARC
  5
16B
330
1F
100
AcDbEntity
  8
0
  6
Continuous
 62
     8
370
    18
100
AcDbCircle
 10
197.9847122089
 20
367.2058571462
 30
0.0
 40
52.46238448911578
100
AcDbArc
 50
91.6943718163
 51
92.4399334636
  0
SPLINE
  5
16C
330
1F
100
AcDbEntity
  8
0
  6
Continuous
 62
     8
370
    18
100
AcDbSpline
210
0.0
220
0.0
230
1.0
 70
     8
 71
     3
 72
    17
 73
    13
 74
     0
 42
0.000000001
 43
0.00000001
 40
0.0
 40
0.0
 40
0.0
 40
0.0
 40
0.1546754659436659
 40
0.3087946603912455
 40
0.3975983397474274
 40
0.4863334928808828
 40
0.5751279063845742
 40
0.6638730521421035
 40
0.7525980534253857
 40
0.8414270016177929
 40
0.9302244721876891
 40
1.0
 40
1.0
 40
1.0
 40
1.0
 10
196.4338236798949
 20
419.6457132585871
 30
0.0
 10
196.4145140897668
 20
418.2294863587313
 30
0.0
 10
196.3759643541021
 20
415.4021258467727
 30
0.0
 10
195.9566363782515
 20
411.774143287435
 30
0.0
 10
195.2359477545124
 20
408.819375663791
 30
0.0
 10
194.3859722549958
 20
406.5265734528194
 30
0.0
 10
193.2226967036522
 20
404.3745783380949
 30
0.0
 10
191.7583507916799
 20
402.4141918042505
 30
0.0
 10
190.0088153748951
 20
400.7021588965373
 30
0.0
 10
188.035603239535
 20
399.2597837240127
 30
0.0
 10
186.0562722410902
 20
398.1413590863202
 30
0.0
 10
184.7037941027624
 20
397.6105005137487
 30
0.0
 10
184.1086746504016
 20
397.3769113310206
 30
0.0
  0
SPLINE
  5
16D
330
1F
100
AcDbEntity
  8
0
  6
Continuous
 62
     8
370
    18
100
AcDbSpline
210
0.0
220
0.0
230
1.0
 70
     8
 71
     3
 72
    11
 73
     7
 74
     0
 42
0.000000001
 43
0.00000001
 40
0.0
 40
0.0
 40
0.0
 40
0.0
 40
0.3906185384028147
 40
0.6009285726126764
 40
0.8157110710329427
 40
1.0
 40
1.0
 40
1.0
 40
1.0
 10
152.4267924328752
 20
455.5310994275438
 30
0.0
 10
152.4351629059474
 20
455.6920236146437
 30
0.0
 10
152.448040063432
 20
455.9395898014615
 30
0.0
 10
152.5917344125972
 20
456.2429771842878
 30
0.0
 10
152.7353153662659
 20
456.4480093492882
 30
0.0
 10
152.8606959158904
 20
456.5522222307097
 30
0.0
 10
152.9185959448524
 20
456.6003471501696
 30
0.0
  0
SPLINE
  5
16E
330
1F
100
AcDbEntity
  8
0
  6
Continuous
 62
     8
370
    18
100
AcDbSpline
210
0.0
220
0.0
230
1.0
 70
     8
 71
     3
 72
    15
 73
    11
 74
     0
 42
0.000000001
 43
0.00000001
 40
0.0
 40
0.0
 40
0.0
 40
0.0
 40
0.1739749015069802
 40
0.3482440014587952
 40
0.524510014144222
 40
0.6130355185303018
 40
0.7013150481987186
 40
0.7895880211939598
 40
0.8781456180593458
 40
1.0
 40
1.0
 40
1.0
 40
1.0
 10
165.4146631558843
 20
457.0605844148027
 30
0.0
 10
164.6085134764691
 20
457.0591454494461
 30
0.0
 10
162.9948508866213
 20
457.0562650853855
 30
0.0
 10
160.5695923351132
 20
457.0488425298306
 30
0.0
 10
158.5996386735621
 20
457.0350088060738
 30
0.0
 10
157.1731446345538
 20
457.0189464381671
 30
0.0
 10
156.2114316767104
 20
457.0047509198209
 30
0.0
 10
155.4211765121774
 20
456.9886694473961
 30
0.0
 10
154.6874929625384
 20
456.9692355809617
 30
0.0
 10
154.4216846220328
 20
456.9547820737976
 30
0.0
 10
154.2677489419885
 20
456.9464117177355
 30
0.0
  0
SPLINE
  5
16F
330
1F
100
AcDbEntity
  8
0
  6
Continuous
 62
     8
370
    18
100
AcDbSpline
210
0.0
220
0.0
230
1.0
 70
     8
 71
     3
 72
    14
 73
    10
 74
     0
 42
0.000000001
 43
0.00000001
 40
0.0
 40
0.0
 40
0.0
 40
0.0
 40
0.1216469696260599
 40
0.2972915970244692
 40
0.3855087774837939
 40
0.4740418173323614
 40
0.6500814217105852
 40
0.824994639923532
 40
1.0
 40
1.0
 40
1.0
 40
1.0
 10
193.8059852769084
 20
456.9460987933504
 30
0.0
 10
193.6509033710459
 20
456.954456281572
 30
0.0
 10
193.2719005269538
 20
456.9748810486515
 30
0.0
 10
192.184409693282
 20
456.9996834073953
 30
0.0
 10
190.9190949855156
 20
457.0186512133575
 30
0.0
 10
189.4927526306587
 20
457.0348022897592
 30
0.0
 10
187.5219848242113
 20
457.0487453835619
 30
0.0
 10
185.0874252165296
 20
457.0562106206179
 30
0.0
 10
183.4646577146485
 20
457.0591262274917
 30
0.0
 10
182.653060307116
 20
457.0605844148027
 30
0.0
  0
SPLINE
  5
170
330
1F
100
AcDbEntity
  8
0
  6
Continuous
 62
     8
370
    18
100
AcDbSpline
210
0.0
220
0.0
230
1.0
 70
     8
 71
     3
 72
    11
 73
     7
 74
     0
 42
0.000000001
 43
0.00000001
 40
0.0
 40
0.0
 40
0.0
 40
0.0
 40
0.3906046760142285
 40
0.6009071425217208
 40
0.8156820186758583
 40
1.0
 40
1.0
 40
1.0
 40
1.0
 10
195.6409310301252
 20
455.5310994275438
 30
0.0
 10
195.6325605188298
 20
455.6920235301524
 30
0.0
 10
195.6196833047748
 20
455.9395895440775
 30
0.0
 10
195.4759892843994
 20
456.2429775316897
 30
0.0
 10
195.3323987056591
 20
456.4480203149743
 30
0.0
 10
195.2070070359915
 20
456.5522426601531
 30
0.0
 10
195.1490958531804
 20
456.600376952492
 30
0.0
  0
LWPOLYLINE
  5
171
330
1F
100
AcDbEntity
  8
0
  6
Continuous
 62
     8
370
    18
100
AcDbPolyline
 90
        9
 70
   128
 43
0.0
 10
174.0338551678
 20
455.7237714418
 10
174.033856413
 20
455.9713393339
 10
174.0338576131
 20
456.2116354593
 10
174.0338587245
 20
456.4359575399
 10
174.0338597071
 20
456.6361546405
 10
174.0338605251
 20
456.8049698957
 10
174.0338611489
 20
456.9363087304
 10
174.033861556
 20
457.0253878721
 10
174.0338617315
 20
457.0689886697
  0
SPLINE
  5
172
330
1F
100
AcDbEntity
  8
0
  6
Continuous
 62
     8
370
    18
100
AcDbSpline
210
0.0
220
0.0
230
1.0
 70
     8
 71
     3
 72
     8
 73
     4
 74
     0
 42
0.000000001
 43
0.00000001
 40
0.0
 40
0.0
 40
0.0
 40
0.0
 40
1.0
 40
1.0
 40
1.0
 40
1.0
 10
174.0338617314998
 20
457.0689883993153
 30
0.0
 10
176.9050167392321
 20
457.0690023543603
 30
0.0
 10
179.7761586432255
 20
457.0662739105919
 30
0.0
 10
182.6473629829316
 20
457.0606017578
 30
0.0
  0
SPLINE
  5
173
330
1F
100
AcDbEntity
  8
0
  6
Continuous
 62
     8
370
    18
100
AcDbSpline
210
0.0
220
0.0
230
1.0
 70
     8
 71
     3
 72
     8
 73
     4
 74
     0
 42
0.000000001
 43
0.00000001
 40
0.0
 40
0.0
 40
0.0
 40
0.0
 40
1.0
 40
1.0
 40
1.0
 40
1.0
 10
165.4203604800679
 20
457.0606017578
 30
0.0
 10
168.2915648724725
 20
457.0662739107062
 30
0.0
 10
171.1627067711973
 20
457.0690023543599
 30
0.0
 10
174.0338617314999
 20
457.0689883993153
 30
0.0
  0
SPLINE
  5
174
330
1F
100
AcDbEntity
  8
0
  6
Continuous
 62
     8
370
    18
100
AcDbSpline
210
0.0
220
0.0
230
1.0
 70
     8
 71
     3
 72
    15
 73
    11
 74
     0
 42
0.000000001
 43
0.00000001
 40
0.0
 40
0.0
 40
0.0
 40
0.0
 40
0.2499999999999999
 40
0.2499999999999999
 40
0.4999999999999999
 40
0.4999999999999999
 40
0.7499999999999998
 40
0.7499999999999998
 40
0.8124999999999998
 40
1.0
 40
1.0
 40
1.0
 40
1.0
 10
157.4186463887714
 20
451.8084046426554
 30
0.0
 10
157.4347119839063
 20
451.8405238691573
 30
0.0
 10
157.6676435942858
 20
451.8710695280445
 30
0.0
 10
158.4837152768547
 20
451.9265723748912
 30
0.0
 10
159.0668553490442
 20
451.9515295628508
 30
0.0
 10
160.4998203865544
 20
451.9934141321445
 30
0.0
 10
161.3496453518751
 20
452.0103415134786
 30
0.0
 10
162.5264023863087
 20
452.0249562761941
 30
0.0
 10
163.4907031794122
 20
452.0353391935761
 30
0.0
 10
164.5361441886569
 20
452.0401813728341
 30
0.0
 10
165.3482480644018
 20
452.0401813728341
 30
0.0
  0
SPLINE
  5
175
330
1F
100
AcDbEntity
  8
0
  6
Continuous
 62
     8
370
    18
100
AcDbSpline
210
0.0
220
0.0
230
1.0
 70
     8
 71
     3
 72
    26
 73
    22
 74
     0
 42
0.000000001
 43
0.00000001
 40
0.0
 40
0.0
 40
0.0
 40
0.0
 40
0.020888040983904
 40
0.0417297757350735
 40
0.0625470702775162
 40
0.0833618676589801
 40
0.1041961188173938
 40
0.125071713323136
 40
0.1875634251708793
 40
0.2500999909328806
 40
0.3125917027798603
 40
0.3751282685426393
 40
0.5000080743070492
 40
0.6248878800714572
 40
0.6873795919197048
 40
0.7499161576812152
 40
0.8124078695295078
 40
0.8749444352909693
 40
0.9166290310503846
 40
0.9582556329718537
 40
1.0
 40
1.0
 40
1.0
 40
1.0
 10
182.7194753985978
 20
452.0401813728341
 30
0.0
 10
182.8053422041968
 20
452.0401574037778
 30
0.0
 10
182.9768854591864
 20
452.0401095188014
 30
0.0
 10
183.2337357228102
 20
452.0397254903822
 30
0.0
 10
183.4897462864598
 20
452.0391126751114
 30
0.0
 10
183.7449144741945
 20
452.0382488495726
 30
0.0
 10
183.9992461341988
 20
452.0371398279505
 30
0.0
 10
184.4208344685397
 20
452.0348856704025
 30
0.0
 10
185.004042037546
 20
452.0306008692419
 30
0.0
 10
185.7316637422408
 20
452.0229486357374
 30
0.0
 10
186.4312768003938
 20
452.0132460432528
 30
0.0
 10
187.3161658254087
 20
451.9976869968515
 30
0.0
 10
188.3207390574715
 20
451.9735664586954
 30
0.0
 10
189.1485014680494
 20
451.9441299117047
 30
0.0
 10
189.6860673047321
 20
451.9181129004542
 30
0.0
 10
190.0234282074325
 20
451.8975096120305
 30
0.0
 10
190.2921765151711
 20
451.8760343610913
 30
0.0
 10
190.4672740425657
 20
451.8563420432778
 30
0.0
 10
190.5724631153352
 20
451.8388235544623
 30
0.0
 10
190.6318459842331
 20
451.8236588194802
 30
0.0
 10
190.6433279712951
 20
451.8134941542738
 30
0.0
 10
190.6490770742283
 20
451.8084046426555
 30
0.0
  0
LINE
  5
176
330
1F
100
AcDbEntity
  8
0
  6
Continuous
 62
     8
370
    18
100
AcDbLine
 10
182.7194757139
 20
452.0401745923
 30
0.0
 11
165.3482477491
 21
452.0401745923
 31
0.0
  0
SPLINE
  5
177
330
1F
100
AcDbEntity
  8
0
  6
Continuous
 62
     8
370
    18
100
AcDbSpline
210
0.0
220
0.0
230
1.0
 70
     8
 71
     3
 72
     9
 73
     5
 74
     0
 42
0.000000001
 43
0.00000001
 40
0.0
 40
0.0
 40
0.0
 40
0.0
 40
0.1945690296097501
 40
0.9999999999999999
 40
0.9999999999999999
 40
0.9999999999999999
 40
0.9999999999999999
 10
165.4242744048543
 20
457.2650134452211
 30
0.0
 10
165.4256001219193
 20
457.2696442675641
 30
0.0
 10
165.4324137297564
 20
457.2934446758422
 30
0.0
 10
165.4257353248928
 20
457.16440098813
 30
0.0
 10
165.4203563307829
 20
457.0604652055132
 30
0.0
  0
SPLINE
  5
178
330
1F
100
AcDbEntity
  8
0
  6
Continuous
 62
     8
370
    18
100
AcDbSpline
210
0.0
220
0.0
230
1.0
 70
     8
 71
     3
 72
     9
 73
     5
 74
     0
 42
0.000000001
 43
0.00000001
 40
0.0
 40
0.0
 40
0.0
 40
0.0
 40
0.1643848976570992
 40
1.0
 40
1.0
 40
1.0
 40
1.0
 10
182.6428064455695
 20
457.266384352051
 30
0.0
 10
182.6417480446113
 20
457.2698939493259
 30
0.0
 10
182.6353094911107
 20
457.2912438258959
 30
0.0
 10
182.6418761813722
 20
457.1655941133621
 30
0.0
 10
182.6473634069271
 20
457.0605993159639
 30
0.0
  0
SPLINE
  5
179
330
1F
100
AcDbEntity
  8
0
  6
Continuous
 62
     8
370
    18
100
AcDbSpline
210
0.0
220
0.0
230
1.0
 70
    24
 71
     3
 72
     9
 73
     5
 74
     0
 42
0.000000001
 43
0.00000001
 40
0.0
 40
0.0
 40
0.0
 40
0.0
 40
0.8459926722941732
 40
1.0
 40
1.0
 40
1.0
 40
1.0
 10
174.0338617314998
 20
457.0689886697161
 30
0.0
 10
174.0338617314998
 20
457.1951099993649
 30
0.0
 10
174.0338617314998
 20
457.3441908765159
 30
0.0
 10
174.0338617314998
 20
457.323782516887
 30
0.0
 10
174.0338617314998
 20
457.3206394799578
 30
0.0
  0
SPLINE
  5
17A
330
1F
100
AcDbEntity
  8
0
  6
Continuous
 62
     8
370
    18
100
AcDbSpline
210
0.0
220
0.0
230
1.0
 70
     8
 71
     3
 72
    25
 73
    21
 74
     0
 42
0.000000001
 43
0.00000001
 40
0.0
 40
0.0
 40
0.0
 40
0.0
 40
0.0278278052389512
 40
0.0556241569726691
 40
0.0833977555545909
 40
0.1111573227319191
 40
0.1389115934799151
 40
0.1666693077739834
 40
0.194439202338185
 40
0.2222300024090759
 40
0.2500504135536149
 40
0.3750238770644359
 40
0.5000238038085687
 40
0.6249915239041719
 40
0.7499868255200524
 40
0.8000264490424543
 40
0.8499966169627688
 40
0.899948277864955
 40
0.9499324369253148
 40
1.0
 40
1.0
 40
1.0
 40
1.0
 10
156.6516335600794
 20
450.2749501663269
 30
0.0
 10
156.7908979964952
 20
450.2779796113699
 30
0.0
 10
157.0692694600506
 20
450.2840350773029
 30
0.0
 10
157.4934055434555
 20
450.2928349959569
 30
0.0
 10
157.9219952952536
 20
450.3014194251425
 30
0.0
 10
158.3555324013237
 20
450.309768598143
 30
0.0
 10
158.7938844265899
 20
450.3178878014488
 30
0.0
 10
159.2370871931999
 20
450.3257756192466
 30
0.0
 10
159.6851289893117
 20
450.3334324168332
 30
0.0
 10
160.1380200417492
 20
450.3408581357307
 30
0.0
 10
161.1282625503451
 20
450.3564232170718
 30
0.0
 10
162.6907620368863
 20
450.3781736082861
 30
0.0
 10
164.8717112211262
 20
450.402424770546
 30
0.0
 10
167.1107432704145
 20
450.4214730734855
 30
0.0
 10
168.9377902880045
 20
450.432412199432
 30
0.0
 10
170.3198704767073
 20
450.4383400242107
 30
0.0
 10
171.2448375979781
 20
450.4414215659294
 30
0.0
 10
172.172290496902
 20
450.4436067883855
 30
0.0
 10
173.1022452757177
 20
450.4449753706253
 30
0.0
 10
173.7231503822145
 20
450.4451446421201
 30
0.0
 10
174.0338617315001
 20
450.4452293484206
 30
0.0
  0
SPLINE
  5
17B
330
1F
100
AcDbEntity
  8
0
  6
Continuous
 62
     8
370
    18
100
AcDbSpline
210
0.0
220
0.0
230
1.0
 70
     8
 71
     3
 72
    11
 73
     7
 74
     0
 42
0.000000001
 43
0.00000001
 40
0.0
 40
0.0
 40
0.0
 40
0.0
 40
0.125
 40
0.25
 40
0.375
 40
0.5
 40
0.5
 40
0.5
 40
0.5
 10
191.4160899029207
 20
450.2749501663269
 30
0.0
 10
190.1695360049579
 20
450.3023591123844
 30
0.0
 10
187.528080558161
 20
450.351234777824
 30
0.0
 10
183.2258628007647
 20
450.4050859472017
 30
0.0
 10
178.6886188215796
 20
450.4378391390411
 30
0.0
 10
175.5854474281932
 20
450.4452405400646
 30
0.0
 10
174.0338617315001
 20
450.4452405400646
 30
0.0
  0
SPLINE
  5
17C
330
1F
100
AcDbEntity
  8
0
  6
Continuous
 62
     8
370
    18
100
AcDbSpline
210
0.0
220
0.0
230
1.0
 70
     8
 71
     3
 72
    12
 73
     8
 74
     0
 42
0.000000001
 43
0.00000001
 40
0.0
 40
0.0
 40
0.0
 40
0.0
 40
0.25
 40
0.25
 40
0.5
 40
0.5
 40
1.0
 40
1.0
 40
1.0
 40
1.0
 10
196.4287703479008
 20
454.8603387175392
 30
0.0
 10
196.4065778766123
 20
454.9162941334975
 30
0.0
 10
196.340484837772
 20
454.9723710067664
 30
0.0
 10
196.2007621391261
 20
455.0843957148522
 30
0.0
 10
196.1308800727273
 20
455.1403257178962
 30
0.0
 10
195.9211987142796
 20
455.3080018730754
 30
0.0
 10
195.7813427111794
 20
455.4195348282605
 30
0.0
 10
195.6413784718775
 20
455.5306948011085
 30
0.0
  0
ARC
  5
17D
330
1F
100
AcDbEntity
  8
0
  6
Continuous
 62
     8
370
    18
100
AcDbCircle
 10
194.3718068646
 20
455.598452475
 30
0.0
 40
1.271377923386361
100
AcDbArc
 50
356.9450962345
 51
50.7577159761
  0
SPLINE
  5
17E
330
1F
100
AcDbEntity
  8
0
  6
Continuous
 62
     8
370
    18
100
AcDbSpline
210
0.0
220
0.0
230
1.0
 70
     8
 71
     3
 72
     9
 73
     5
 74
     0
 42
0.000000001
 43
0.00000001
 40
0.0
 40
0.0
 40
0.0
 40
0.0
 40
0.9468067050874724
 40
1.0
 40
1.0
 40
1.0
 40
1.0
 10
196.4287703236051
 20
454.860338557564
 30
0.0
 10
196.4251444278659
 20
455.0233578079266
 30
0.0
 10
196.4213148228159
 20
455.1955357714821
 30
0.0
 10
196.349195476818
 20
455.3470002163169
 30
0.0
 10
196.3453592111774
 20
455.3550571091997
 30
0.0
  0
SPLINE
  5
17F
330
1F
100
AcDbEntity
  8
0
  6
Continuous
 62
     8
370
    18
100
AcDbSpline
210
0.0
220
0.0
230
1.0
 70
     8
 71
     3
 72
    12
 73
     8
 74
     0
 42
0.000000001
 43
0.00000001
 40
0.0
 40
0.0
 40
0.0
 40
0.0
 40
0.5000000000000001
 40
0.5000000000000001
 40
0.7500000000000002
 40
0.7500000000000002
 40
1.0
 40
1.0
 40
1.0
 40
1.0
 10
152.4263449911221
 20
455.5306948011085
 30
0.0
 10
152.286379893214
 20
455.419534146212
 30
0.0
 10
152.1465230328693
 20
455.3080005045978
 30
0.0
 10
151.9368403893364
 20
455.1403233163142
 30
0.0
 10
151.8669578945729
 20
455.0843929693837
 30
0.0
 10
151.7272343403478
 20
454.9723675672777
 30
0.0
 10
151.6611442484596
 20
454.9162907605121
 30
0.0
 10
151.6389531150994
 20
454.8603387175392
 30
0.0
  0
SPLINE
  5
180
330
1F
100
AcDbEntity
  8
0
  6
Continuous
 62
     8
370
    18
100
AcDbSpline
210
0.0
220
0.0
230
1.0
 70
     8
 71
     3
 72
    43
 73
    39
 74
     0
 42
0.000000001
 43
0.00000001
 40
0.0
 40
0.0
 40
0.0
 40
0.0
 40
0.0205282890803572
 40
0.040763942450717
 40
0.0607118193738483
 40
0.0803697316221612
 40
0.0997337777087014
 40
0.1408590872330643
 40
0.1803167060628892
 40
0.2075110767361476
 40
0.2342388321476568
 40
0.286496106525562
 40
0.3119452391513187
 40
0.3497094686330874
 40
0.3746587739869406
 40
0.3870841411691814
 40
0.4375520820447036
 40
0.4627304285819359
 40
0.4753186170218086
 40
0.5004736428805858
 40
0.5382447319656241
 40
0.5888801455420477
 40
0.6296129204153815
 40
0.6706491497447843
 40
0.6982469489454126
 40
0.7250383618020495
 40
0.7452722884098404
 40
0.7520207630424414
 40
0.7655548876169894
 40
0.8065647371005212
 40
0.8194476827065035
 40
0.8453991691107862
 40
0.8650575801911088
 40
0.8716456960273051
 40
0.8845550674858105
 40
0.9109848611261377
 40
0.9550668562724818
 40
1.0
 40
1.0
 40
1.0
 40
1.0
 10
151.6391372928348
 20
454.8600190942652
 30
0.0
 10
151.6417687095846
 20
454.7971571316006
 30
0.0
 10
151.6469940316038
 20
454.6723293187046
 30
0.0
 10
151.6608527340069
 20
454.4872333693563
 30
0.0
 10
151.6790586402014
 20
454.3057968788357
 30
0.0
 10
151.7019718669902
 20
454.128361218619
 30
0.0
 10
151.7397842472821
 20
453.8895297007761
 30
0.0
 10
151.8001933933497
 20
453.5970067101912
 30
0.0
 10
151.8846128662506
 20
453.2924096961389
 30
0.0
 10
151.9713042401993
 20
453.0382015245373
 30
0.0
 10
152.0819604559416
 20
452.759101383085
 30
0.0
 10
152.2076744141536
 20
452.4999923874942
 30
0.0
 10
152.3629854530273
 20
452.2325477578115
 30
0.0
 10
152.4912277942475
 20
452.0402095023332
 30
0.0
 10
152.6078645297686
 20
451.8866503469952
 30
0.0
 10
152.7490111218222
 20
451.7143125482249
 30
0.0
 10
152.8984527505048
 20
451.5535094105133
 30
0.0
 10
153.056312332308
 20
451.4066796703813
 30
0.0
 10
153.1715977162855
 20
451.3069307861376
 30
0.0
 10
153.3131176506903
 20
451.193083268904
 30
0.0
 10
153.5333397763758
 20
451.0363127989398
 30
0.0
 10
153.7945362229951
 20
450.8801179116933
 30
0.0
 10
154.071974784867
 20
450.7419692127733
 30
0.0
 10
154.3074579537317
 20
450.643189263358
 30
0.0
 10
154.5170783859308
 20
450.567624619736
 30
0.0
 10
154.6834258012339
 20
450.5148996806038
 30
0.0
 10
154.8046855227827
 20
450.4807670081394
 30
0.0
 10
154.8966354398337
 20
450.4566793334617
 30
0.0
 10
155.0363503215578
 20
450.4220928794064
 30
0.0
 10
155.1919705769287
 20
450.3894039098734
 30
0.0
 10
155.3782322473632
 20
450.3567170993425
 30
0.0
 10
155.5157317412437
 20
450.3358990833347
 30
0.0
 10
155.6394031776798
 20
450.320509687582
 30
0.0
 10
155.7326051222762
 20
450.3103033000149
 30
0.0
 10
155.8421819271839
 20
450.2994927578383
 30
0.0
 10
156.0424951636702
 20
450.2841242030017
 30
0.0
 10
156.3225927112226
 20
450.2719901955562
 30
0.0
 10
156.5412184737232
 20
450.2739253635027
 30
0.0
 10
156.6515765873347
 20
450.2749021993597
 30
0.0
  0
SPLINE
  5
181
330
1F
100
AcDbEntity
  8
0
  6
Continuous
 62
     8
370
    18
100
AcDbSpline
210
0.0
220
0.0
230
1.0
 70
     8
 71
     3
 72
    24
 73
    20
 74
     0
 42
0.000000001
 43
0.00000001
 40
0.0
 40
0.0
 40
0.0
 40
0.0
 40
0.0400088573575245
 40
0.0725835779095107
 40
0.0979998281886935
 40
0.1164636425014544
 40
0.1281191322998145
 40
0.1973162736201295
 40
0.2554046599837315
 40
0.3837408284558522
 40
0.5122156709490175
 40
0.6410297244293831
 40
0.7071988437645389
 40
0.7699320945613144
 40
0.8344447619790253
 40
0.8981911465357297
 40
0.9316674355136744
 40
0.9655588873062304
 40
1.0
 40
1.0
 40
1.0
 40
1.0
 10
191.4160899029207
 20
450.2749501663269
 30
0.0
 10
191.5144089548212
 20
450.2738007679517
 30
0.0
 10
191.6927781719132
 20
450.2717155435284
 30
0.0
 10
191.9309094402695
 20
450.2795475510194
 30
0.0
 10
192.1152549800853
 20
450.290559730399
 30
0.0
 10
192.2482161684019
 20
450.3016457274633
 30
0.0
 10
192.4849002542228
 20
450.3252261527011
 30
0.0
 10
192.8121293065732
 20
450.3726924814134
 30
0.0
 10
193.3986581404726
 20
450.5050522547128
 30
0.0
 10
194.0913571459617
 20
450.7557716567106
 30
0.0
 10
194.866551495242
 20
451.2356081765952
 30
0.0
 10
195.4301555586306
 20
451.8099870827749
 30
0.0
 10
195.8011737524615
 20
452.3778321144907
 30
0.0
 10
196.0345172195532
 20
452.8568076734658
 30
0.0
 10
196.2152009155982
 20
453.3754117128423
 30
0.0
 10
196.3228938893427
 20
453.8445691963684
 30
0.0
 10
196.3819204280279
 20
454.2362246581262
 30
0.0
 10
196.4141469453666
 20
454.5447205320594
 30
0.0
 10
196.4238422970751
 20
454.7537553800306
 30
0.0
 10
196.4287289671906
 20
454.8591135326189
 30
0.0
  0
SPLINE
  5
182
330
1F
100
AcDbEntity
  8
0
  6
Continuous
 62
     8
370
    18
100
AcDbSpline
210
0.0
220
0.0
230
1.0
 70
     8
 71
     3
 72
    11
 73
     7
 74
     0
 42
0.000000001
 43
0.00000001
 40
0.0
 40
0.0
 40
0.0
 40
0.0
 40
0.3926772347429217
 40
0.6040945885697235
 40
0.8200169585748556
 40
1.0
 40
1.0
 40
1.0
 40
1.0
 10
152.4263453980394
 20
455.5306970961916
 30
0.0
 10
152.434700205991
 20
455.6916277972761
 30
0.0
 10
152.447553241068
 20
455.9392035593991
 30
0.0
 10
152.5912950123951
 20
456.2425443412434
 30
0.0
 10
152.7334691061322
 20
456.4459704944298
 30
0.0
 10
152.8571308551073
 20
456.5488830041373
 30
0.0
 10
152.913348873467
 20
456.5956681855547
 30
0.0
  0
LINE
  5
183
330
1F
100
AcDbEntity
  8
0
  6
Continuous
 62
     8
370
    18
100
AcDbLine
 10
151.6391487171
 20
454.8596978076
 30
0.0
 11
151.6973787298
 21
455.2420019992
 31
0.0
  0
SPLINE
  5
184
330
1F
100
AcDbEntity
  8
0
  6
Continuous
 62
     8
370
    18
100
AcDbSpline
210
0.0
220
0.0
230
1.0
 70
     8
 71
     3
 72
    10
 73
     6
 74
     0
 42
0.000000001
 43
0.00000001
 40
0.0
 40
0.0
 40
0.0
 40
0.0
 40
0.5
 40
0.5
 40
1.0
 40
1.0
 40
1.0
 40
1.0
 10
151.633897742845
 20
419.6461262749272
 30
0.0
 10
151.580607098463
 20
419.6464104101673
 30
0.0
 10
151.5294001192464
 20
419.6455744254626
 30
0.0
 10
151.4301545101491
 20
419.6438149293441
 30
0.0
 10
151.3824810692896
 20
419.6457407893245
 30
0.0
 10
151.330518147945
 20
419.6368192471655
 30
0.0
  0
SPLINE
  5
185
330
1F
100
AcDbEntity
  8
0
  6
Continuous
 62
     8
370
    18
100
AcDbSpline
210
0.0
220
0.0
230
1.0
 70
     8
 71
     3
 72
    10
 73
     6
 74
     0
 42
0.000000001
 43
0.00000001
 40
0.0
 40
0.0
 40
0.0
 40
0.0
 40
0.5
 40
0.5
 40
1.0
 40
1.0
 40
1.0
 40
1.0
 10
196.7372053150551
 20
419.6368192471655
 30
0.0
 10
196.6852424034802
 20
419.6457407876481
 30
0.0
 10
196.6375689486777
 20
419.6438149294132
 30
0.0
 10
196.5383233419032
 20
419.6455744255002
 30
0.0
 10
196.4871163743293
 20
419.6464104102196
 30
0.0
 10
196.4338257201549
 20
419.6461262749272
 30
0.0
  0
SPLINE
  5
186
330
1F
100
AcDbEntity
  8
0
  6
Continuous
 62
     8
370
    18
100
AcDbSpline
210
0.0
220
0.0
230
1.0
 70
     8
 71
     3
 72
    18
 73
    14
 74
     0
 42
0.000000001
 43
0.00000001
 40
0.0
 40
0.0
 40
0.0
 40
0.0
 40
0.0625
 40
0.0625
 40
0.125
 40
0.125
 40
0.25
 40
0.25
 40
0.5
 40
0.5
 40
0.75
 40
0.75
 40
1.0
 40
1.0
 40
1.0
 40
1.0
 10
150.7994209258964
 20
419.6649706019298
 30
0.0
 10
150.7885234002046
 20
418.3443327909242
 30
0.0
 10
150.7750570993301
 20
417.0231461865902
 30
0.0
 10
150.7527139374404
 20
414.381753466208
 30
0.0
 10
150.7416416155046
 20
413.0610783117191
 30
0.0
 10
150.708155782993
 20
409.0989954075494
 30
0.0
 10
150.6854666048243
 20
406.4575287642232
 30
0.0
 10
150.6169017822448
 20
398.5330225935814
 30
0.0
 10
150.5721246184457
 20
393.2502177457473
 30
0.0
 10
150.4812194159338
 20
382.6843194490611
 30
0.0
 10
150.4355012083647
 20
377.4013135565637
 30
0.0
 10
150.345321930571
 20
366.835570346489
 30
0.0
 10
150.3015286023559
 20
361.5529756848989
 30
0.0
 10
150.2536126972836
 20
356.2695002760944
 30
0.0
  0
LINE
  5
187
330
1F
100
AcDbEntity
  8
0
  6
Continuous
 62
     8
370
    18
100
AcDbLine
 10
150.799719741
 20
419.6647643932
 30
0.0
 11
150.7994198551
 21
419.6647792943
 31
0.0
  0
SPLINE
  5
188
330
1F
100
AcDbEntity
  8
0
  6
Continuous
 62
     8
370
    18
100
AcDbSpline
210
0.0
220
0.0
230
1.0
 70
     8
 71
     3
 72
    12
 73
     8
 74
     0
 42
0.000000001
 43
0.00000001
 40
0.0
 40
0.0
 40
0.0
 40
0.0
 40
0.5
 40
0.5
 40
0.75
 40
0.75
 40
1.0
 40
1.0
 40
1.0
 40
1.0
 10
151.3304546642443
 20
419.6366956294831
 30
0.0
 10
151.2442519370477
 20
419.6388503424058
 30
0.0
 10
151.1558440585356
 20
419.6444092011637
 30
0.0
 10
151.0244231180242
 20
419.6507834515407
 30
0.0
 10
150.9805387859824
 20
419.6521953579536
 30
0.0
 10
150.8928006292791
 20
419.6571421964337
 30
0.0
 10
150.8478305635849
 20
419.662022219584
 30
0.0
 10
150.7997191140789
 20
419.6647639846809
 30
0.0
  0
SPLINE
  5
189
330
1F
100
AcDbEntity
  8
0
  6
Continuous
 62
     8
370
    18
100
AcDbSpline
210
0.0
220
0.0
230
1.0
 70
     8
 71
     3
 72
    12
 73
     8
 74
     0
 42
0.000000001
 43
0.00000001
 40
0.0
 40
0.0
 40
0.0
 40
0.0
 40
0.25
 40
0.25
 40
0.5
 40
0.5
 40
1.0
 40
1.0
 40
1.0
 40
1.0
 10
197.268004348496
 20
419.6647639846566
 30
0.0
 10
197.2198929242822
 20
419.6620222209833
 30
0.0
 10
197.1749228641279
 20
419.6571421987331
 30
0.0
 10
197.0871847000676
 20
419.6521953586681
 30
0.0
 10
197.0433003669444
 20
419.650783452538
 30
0.0
 10
196.911879418786
 20
419.6444092019951
 30
0.0
 10
196.8234715358836
 20
419.6388503426549
 30
0.0
 10
196.7372687987557
 20
419.6366956294828
 30
0.0
  0
LWPOLYLINE
  5
18A
330
1F
100
AcDbEntity
  8
0
  6
Continuous
 62
     8
370
    18
100
AcDbPolyline
 90
        3
 70
   128
 43
0.0
 10
197.2691566994
 20
419.66498046
 10
197.5357738634
 20
388.5996878036
 10
197.8132446607
 20
356.2696851679
  0
LINE
  5
18B
330
1F
100
AcDbEntity
  8
0
  6
Continuous
 62
     8
370
    18
100
AcDbLine
 10
196.4285747459
 20
454.8596978076
 30
0.0
 11
196.4141727736
 21
454.8262745031
 31
0.0
  0
LINE
  5
18C
330
1F
100
AcDbEntity
  8
0
  6
Continuous
 62
     8
370
    18
100
AcDbLine
 10
151.6542789837
 20
454.8245906719
 30
0.0
 11
151.6391487171
 21
454.8596978076
 31
0.0
  0
CIRCLE
  5
18D
330
1F
100
AcDbEntity
  8
0
  6
Continuous
 62
     8
370
    18
100
AcDbCircle
 10
174.0338617315
 20
436.2895881875
 30
0.0
 40
3.78141863308183
  0
SPLINE
  5
18E
330
1F
100
AcDbEntity
  8
0
  6
Continuous
 62
     8
370
    18
100
AcDbSpline
210
0.0
220
0.0
230
1.0
 70
     8
 71
     3
 72
     8
 73
     4
 74
     0
 42
0.000000001
 43
0.00000001
 40
0.0000024790398112
 40
0.0000024790398112
 40
0.0000024790398112
 40
0.0000024790398112
 40
0.7671742739455352
 40
0.7671742739455352
 40
0.7671742739455352
 40
0.7671742739455352
 10
196.8165402879015
 20
443.6280984332493
 30
0.0
 10
197.0118447775245
 20
438.3700785478787
 30
0.0
 10
197.1674702637474
 20
432.8146213311205
 30
0.0
 10
197.229350594183
 20
426.5564421057795
 30
0.0
  0
SPLINE
  5
18F
330
1F
100
AcDbEntity
  8
0
  6
Continuous
 62
     8
370
    18
100
AcDbSpline
210
0.0
220
0.0
230
1.0
 70
     8
 71
     3
 72
     8
 73
     4
 74
     0
 42
0.000000001
 43
0.00000001
 40
0.0000024790398112
 40
0.0000024790398112
 40
0.0000024790398112
 40
0.0000024790398112
 40
0.7671742739455352
 40
0.7671742739455352
 40
0.7671742739455352
 40
0.7671742739455352
 10
151.2511831750988
 20
443.6280984332493
 30
0.0
 10
151.0558786854758
 20
438.3700785478787
 30
0.0
 10
150.9002531992529
 20
432.8146213311205
 30
0.0
 10
150.8383728688173
 20
426.5564421057795
 30
0.0
  0
LINE
  5
190
330
1F
100
AcDbEntity
  8
0
  6
Continuous
 62
     8
370
    18
100
AcDbLine
 10
195.9841103604
 20
421.0483968147
 30
0.0
 11
195.9844121089
 21
421.0483968147
 31
0.0
  0
LINE
  5
191
330
1F
100
AcDbEntity
  8
0
  6
Continuous
 62
     8
370
    18
100
AcDbLine
 10
152.0833113541
 20
421.0483968147
 30
0.0
 11
152.0836131026
 21
421.0483968147
 31
0.0
  0
LINE
  5
192
330
1F
100
AcDbEntity
  8
0
  6
Continuous
 62
     7
370
    25
100
AcDbLine
 10
152.4246857812
 20
138.5718272236
 30
0.0
 11
152.4251402666
 21
138.5411680844
 31
0.0
  0
SPLINE
  5
193
330
1F
100
AcDbEntity
  8
0
  6
Continuous
 62
     7
370
    25
100
AcDbSpline
210
0.0
220
0.0
230
1.0
 70
     8
 71
     3
 72
    19
 73
    15
 74
     0
 42
0.000000001
 43
0.00000001
 40
0.0
 40
0.0
 40
0.0
 40
0.0
 40
0.1483681939861696
 40
0.2741040134840878
 40
0.3440956995671002
 40
0.4009015282772013
 40
0.4492744363908611
 40
0.4937152167785248
 40
0.54644896816536
 40
0.6069891045906477
 40
0.6744969432432253
 40
0.7746320524755004
 40
0.8831027317109256
 40
1.0
 40
1.0
 40
1.0
 40
1.0
 10
182.650595096261
 20
125.7859827187574
 30
0.0
 10
183.7076012630596
 20
125.7880235140785
 30
0.0
 10
185.660375808687
 20
125.7917937978112
 30
0.0
 10
188.1010669363319
 20
126.1422609875312
 30
0.0
 10
189.8140033338627
 20
126.7090175373888
 30
0.0
 10
190.9375498287408
 20
127.258908562408
 30
0.0
 10
191.830708980748
 20
127.8442500030731
 30
0.0
 10
192.6278074414171
 20
128.5104548595469
 30
0.0
 10
193.3859448118682
 20
129.3443593936494
 30
0.0
 10
194.1078150382316
 20
130.4158684280755
 30
0.0
 10
194.8071450895931
 20
131.8893320103931
 30
0.0
 10
195.3293288818122
 20
133.7968770157838
 30
0.0
 10
195.5900902392081
 20
136.1059307003344
 30
0.0
 10
195.6150882279291
 20
137.7109529880925
 30
0.0
 10
195.6280545642085
 20
138.5434703138387
 30
0.0
  0
SPLINE
  5
194
330
1F
100
AcDbEntity
  8
0
  6
Continuous
 62
     7
370
    25
100
AcDbSpline
210
0.0
220
0.0
230
1.0
 70
     8
 71
     3
 72
    19
 73
    15
 74
     0
 42
0.000000001
 43
0.00000001
 40
0.0
 40
0.0
 40
0.0
 40
0.0
 40
0.1483552497788153
 40
0.2742115754342446
 40
0.3443207509312419
 40
0.4012060709952693
 40
0.4496087134914468
 40
0.4940441706840748
 40
0.5468194394394255
 40
0.6074670971306593
 40
0.6750003119142699
 40
0.7750996601191223
 40
0.8832796209400329
 40
1.0
 40
1.0
 40
1.0
 40
1.0
 10
152.4396688987918
 20
138.5434628632581
 30
0.0
 10
152.4576240131441
 20
137.4867736047561
 30
0.0
 10
152.4908112458235
 20
135.5336480716165
 30
0.0
 10
152.8828925924857
 20
133.0976260497297
 30
0.0
 10
153.4808187850417
 20
131.3930136629404
 30
0.0
 10
154.0521524090558
 20
130.2784425966515
 30
0.0
 10
154.6548074028544
 20
129.3960177091648
 30
0.0
 10
155.3366237720377
 20
128.6116107734025
 30
0.0
 10
156.1862298334171
 20
127.8695673628953
 30
0.0
 10
157.2723944587082
 20
127.1676386239565
 30
0.0
 10
158.7596326506878
 20
126.4963183463517
 30
0.0
 10
160.6741304453045
 20
126.0090488288284
 30
0.0
 10
162.9836586849542
 20
125.7874431091534
 30
0.0
 10
164.5856354955886
 20
125.7864816853339
 30
0.0
 10
165.4170408224173
 20
125.7859827187574
 30
0.0
  0
SPLINE
  5
195
330
1F
100
AcDbEntity
  8
0
  6
Continuous
 62
     7
370
    25
100
AcDbSpline
210
0.0
220
0.0
230
1.0
 70
     8
 71
     3
 72
    20
 73
    16
 74
     0
 42
0.000000001
 43
0.00000001
 40
0.0
 40
0.0
 40
0.0
 40
0.0
 40
0.0887217433656169
 40
0.1733069148935124
 40
0.2477514649940361
 40
0.312055327093972
 40
0.3662184304432228
 40
0.410240841617828
 40
0.4491150561063906
 40
0.506269132950103
 40
0.5772720370806459
 40
0.6621237726735881
 40
0.7608249340262963
 40
0.8734412961735462
 40
0.9999999999999999
 40
0.9999999999999999
 40
0.9999999999999999
 40
0.9999999999999999
 10
195.6285090496249
 20
138.5739431884801
 30
0.0
 10
195.6532269591964
 20
140.2404493903388
 30
0.0
 10
195.7015103279396
 20
143.4957624346828
 30
0.0
 10
195.7705443388566
 20
148.1494046547829
 30
0.0
 10
195.8327781928871
 20
152.3443932985023
 30
0.0
 10
195.8865414513933
 20
155.9679482247178
 30
0.0
 10
195.931822968937
 20
159.0200687410273
 30
0.0
 10
195.9700214343232
 20
161.5945308553331
 30
0.0
 10
196.0090493817512
 20
164.225174544779
 30
0.0
 10
196.0555922891669
 20
167.3626067020054
 30
0.0
 10
196.1149496760348
 20
171.3636576802605
 30
0.0
 10
196.1858851931625
 20
176.1451103244316
 30
0.0
 10
196.2684439715746
 20
181.7082003134157
 30
0.0
 10
196.3623290532721
 20
188.0547356766795
 30
0.0
 10
196.3953861700026
 20
192.5476731831701
 30
0.0
 10
196.4128782351918
 20
194.9250963684833
 30
0.0
  0
LINE
  5
196
330
1F
100
AcDbEntity
  8
0
  6
Continuous
 62
     7
370
    25
100
AcDbLine
 10
195.6425831964
 20
138.5411680844
 30
0.0
 11
195.6430339565
 21
138.5716558602
 31
0.0
  0
SPLINE
  5
197
330
1F
100
AcDbEntity
  8
0
  6
Continuous
 62
     7
370
    25
100
AcDbSpline
210
0.0
220
0.0
230
1.0
 70
     8
 71
     3
 72
    14
 73
    10
 74
     0
 42
0.000000001
 43
0.00000001
 40
0.0
 40
0.0
 40
0.0
 40
0.0
 40
0.0970413387981994
 40
0.209350991774933
 40
0.3368817187691593
 40
0.4797072072421856
 40
0.6378357157958043
 40
0.8112667656106163
 40
1.0
 40
1.0
 40
1.0
 40
1.0
 10
151.6548489530988
 20
194.9241575953281
 30
0.0
 10
151.6671809537045
 20
193.1012462266727
 30
0.0
 10
151.6937852502788
 20
189.1686098093268
 30
0.0
 10
151.7815274721732
 20
182.8407721833916
 30
0.0
 10
151.8893987760228
 20
175.6531155468415
 30
0.0
 10
152.0084315180384
 20
167.6047969948143
 30
0.0
 10
152.1407646044073
 20
158.6943354498335
 30
0.0
 10
152.2857213826917
 20
148.9215752790892
 30
0.0
 10
152.3866288867404
 20
142.118971807208
 30
0.0
 10
152.4392144133754
 20
138.5739580896413
 30
0.0
  0
SPLINE
  5
198
330
1F
100
AcDbEntity
  8
0
  6
Continuous
 62
     7
370
    25
100
AcDbSpline
210
0.0
220
0.0
230
1.0
 70
     8
 71
     3
 72
    16
 73
    12
 74
     0
 42
0.000000001
 43
0.00000001
 40
0.0
 40
0.0
 40
0.0
 40
0.0
 40
0.0512569883917152
 40
0.1126793276435084
 40
0.1701300266428366
 40
0.2266091274117711
 40
0.2854464416554598
 40
0.4211629905777526
 40
0.638503519670087
 40
0.8467678794951792
 40
1.0
 40
1.0
 40
1.0
 40
1.0
 10
151.740400244803
 20
208.8879207317448
 30
0.0
 10
151.7330913166202
 20
208.9057344553157
 30
0.0
 10
151.7170239443598
 20
208.9448947426789
 30
0.0
 10
151.7138827639268
 20
208.7467890314564
 30
0.0
 10
151.7125576346986
 20
208.4120788461908
 30
0.0
 10
151.7144936961369
 20
207.9045861458556
 30
0.0
 10
151.7174193982966
 20
206.9788667215141
 30
0.0
 10
151.7250132215722
 20
205.1528697471059
 30
0.0
 10
151.7746174688031
 20
202.6226766748879
 30
0.0
 10
151.6909657865571
 20
200.0520744090408
 30
0.0
 10
151.655877311037
 20
198.5815959272727
 30
0.0
 10
151.6410039117046
 20
197.9582854714906
 30
0.0
  0
LINE
  5
199
330
1F
100
AcDbEntity
  8
0
  6
Continuous
 62
     7
370
    25
100
AcDbLine
 10
196.4281724145
 20
197.7069084701
 30
0.0
 11
196.4161341389
 21
198.0031714943
 31
0.0
  0
SPLINE
  5
19A
330
1F
100
AcDbEntity
  8
0
  6
Continuous
 62
     7
370
    25
100
AcDbSpline
210
0.0
220
0.0
230
1.0
 70
     8
 71
     3
 72
    20
 73
    16
 74
     0
 42
0.000000001
 43
0.00000001
 40
0.0
 40
0.0
 40
0.0
 40
0.0
 40
0.1229074378906824
 40
0.2238319178338087
 40
0.3084702585277089
 40
0.383971822597925
 40
0.4523485569919403
 40
0.5164361133142691
 40
0.5771423483523215
 40
0.6406427494967774
 40
0.7033504311659763
 40
0.7694831518930332
 40
0.8406949631860943
 40
0.9183931527543963
 40
0.9999999999999999
 40
0.9999999999999999
 40
0.9999999999999999
 40
0.9999999999999999
 10
182.4686752011485
 20
80.35176109342935
 30
0.0
 10
183.2346776376911
 20
80.36186180784205
 30
0.0
 10
184.6296769752347
 20
80.38025664478029
 30
0.0
 10
186.5513355490656
 20
80.46714001198377
 30
0.0
 10
188.1685854272025
 20
80.66626886997999
 30
0.0
 10
189.5589371186203
 20
80.9903049813494
 30
0.0
 10
190.7765867690267
 20
81.4466414192504
 30
0.0
 10
191.8340102413563
 20
82.0317619010624
 30
0.0
 10
192.7646852021644
 20
82.75511419223905
 30
0.0
 10
193.550655000612
 20
83.62317994248639
 30
0.0
 10
194.2037097683935
 20
84.63384972012139
 30
0.0
 10
194.7231124855395
 20
85.7720334373675
 30
0.0
 10
195.1140618924208
 20
87.05718373920607
 30
0.0
 10
195.3788400079479
 20
88.47345584646769
 30
0.0
 10
195.4368489678012
 20
89.46548153578024
 30
0.0
 10
195.4665650924154
 20
89.97366439371469
 30
0.0
  0
SPLINE
  5
19B
330
1F
100
AcDbEntity
  8
0
  6
Continuous
 62
     7
370
    25
100
AcDbSpline
210
0.0
220
0.0
230
1.0
 70
     8
 71
     3
 72
    22
 73
    18
 74
     0
 42
0.000000001
 43
0.00000001
 40
0.0
 40
0.0
 40
0.0
 40
0.0
 40
0.0290221840508501
 40
0.1310541093891302
 40
0.2063935747245364
 40
0.2687157620409663
 40
0.3269956227739199
 40
0.3840150986045655
 40
0.4446600114472757
 40
0.5046903880176006
 40
0.5618800832515062
 40
0.6200954339513238
 40
0.6794701154489651
 40
0.7413348012959576
 40
0.8087649317687493
 40
0.8944772483365195
 40
0.9999999999999999
 40
0.9999999999999999
 40
0.9999999999999999
 40
0.9999999999999999
 10
152.5276863326736
 20
92.80453484325768
 30
0.0
 10
152.5307836257631
 20
92.59590073384635
 30
0.0
 10
152.5447699262653
 20
91.65378151396999
 30
0.0
 10
152.5603639874047
 20
90.16962997916832
 30
0.0
 10
152.6804618867563
 20
88.4492474286597
 30
0.0
 10
152.8950427489196
 20
87.05442802524163
 30
0.0
 10
153.2514149942422
 20
85.82344671586561
 30
0.0
 10
153.7848841702547
 20
84.67115776470743
 30
0.0
 10
154.4988538387327
 20
83.60464986724986
 30
0.0
 10
155.3857928742448
 20
82.67425001671916
 30
0.0
 10
156.4029735867506
 20
81.91970745352906
 30
0.0
 10
157.518009422659
 20
81.33007835913894
 30
0.0
 10
158.7399089581779
 20
80.90298657992459
 30
0.0
 10
160.0692948685256
 20
80.61931554120346
 30
0.0
 10
161.6071570877339
 20
80.44889133983187
 30
0.0
 10
163.4650593504352
 20
80.35086133416058
 30
0.0
 10
164.8401015009262
 20
80.34236676541894
 30
0.0
 10
165.598844302208
 20
80.33767949610116
 30
0.0
  0
SPLINE
  5
19C
330
1F
100
AcDbEntity
  8
0
  6
Continuous
 62
     7
370
    25
100
AcDbSpline
210
0.0
220
0.0
230
1.0
 70
     8
 71
     3
 72
     9
 73
     5
 74
     0
 42
0.000000001
 43
0.00000001
 40
0.0
 40
0.0
 40
0.0
 40
0.0
 40
0.4340135716243469
 40
1.0
 40
1.0
 40
1.0
 40
1.0
 10
174.034046555475
 20
80.2617580798185
 30
0.0
 10
175.2543729918347
 20
80.26516403892869
 30
0.0
 10
178.066097131687
 20
80.27301162557774
 30
0.0
 10
180.8776566099252
 20
80.30477237784606
 30
0.0
 10
182.4689611171789
 20
80.32274853258492
 30
0.0
  0
SPLINE
  5
19D
330
1F
100
AcDbEntity
  8
0
  6
Continuous
 62
     7
370
    25
100
AcDbSpline
210
0.0
220
0.0
230
1.0
 70
     8
 71
     3
 72
     9
 73
     5
 74
     0
 42
0.000000001
 43
0.00000001
 40
0.0
 40
0.0
 40
0.0
 40
0.0
 40
0.2419990139010045
 40
1.0
 40
1.0
 40
1.0
 40
1.0
 10
165.5988936623044
 20
80.33988486795785
 30
0.0
 10
166.2792716108058
 20
80.33014688561066
 30
0.0
 10
169.0907621930762
 20
80.28990712516607
 30
0.0
 10
171.9025902592875
 20
80.28898279211089
 30
0.0
 10
174.0339587062164
 20
80.28828214674355
 30
0.0
  0
LWPOLYLINE
  5
19E
330
1F
100
AcDbEntity
  8
0
  6
Continuous
 62
     7
370
    25
100
AcDbPolyline
 90
        3
 70
   128
 43
0.0
 10
151.7593042304
 20
146.1599082854
 10
151.7708302786
 20
145.3462676313
 10
152.3163282623
 20
106.9881902245
  0
LWPOLYLINE
  5
19F
330
1F
100
AcDbEntity
  8
0
  6
Continuous
 62
     7
370
    25
100
AcDbPolyline
 90
        3
 70
   128
 43
0.0
 10
195.7516373446
 20
106.9884137419
 10
195.8890186002
 20
116.6305751708
 10
196.2178890904
 20
139.8074017075
  0
SPLINE
  5
1A0
330
1F
100
AcDbEntity
  8
0
  6
Continuous
 62
     7
370
    25
100
AcDbSpline
210
0.0
220
0.0
230
1.0
 70
     8
 71
     3
 72
    10
 73
     6
 74
     0
 42
0.000000001
 43
0.00000001
 40
0.0
 40
0.0
 40
0.0
 40
0.0
 40
0.2928486243612513
 40
0.6923108281632904
 40
1.0
 40
1.0
 40
1.0
 40
1.0
 10
197.2735804816194
 20
208.4630523045278
 30
0.0
 10
197.285918443442
 20
208.6825936701483
 30
0.0
 10
197.3150860879405
 20
209.2016019631885
 30
0.0
 10
197.3406065137819
 20
209.5678538480225
 30
0.0
 10
197.3354871308112
 20
209.6014076708427
 30
0.0
 10
197.3332596322007
 20
209.6160073001599
 30
0.0
  0
LINE
  5
1A1
330
1F
100
AcDbEntity
  8
0
  6
Continuous
 62
     7
370
    25
100
AcDbLine
 10
197.2570886215
 20
208.1747334619
 30
0.0
 11
197.2603482505
 21
208.2317108457
 31
0.0
  0
LINE
  5
1A2
330
1F
100
AcDbEntity
  8
0
  6
Continuous
 62
     7
370
    25
100
AcDbLine
 10
150.8073752125
 20
208.2317108457
 30
0.0
 11
150.8106348415
 21
208.1747334619
 31
0.0
  0
SPLINE
  5
1A3
330
1F
100
AcDbEntity
  8
0
  6
Continuous
 62
     7
370
    25
100
AcDbSpline
210
0.0
220
0.0
230
1.0
 70
     8
 71
     3
 72
     9
 73
     5
 74
     0
 42
0.000000001
 43
0.00000001
 40
0.0
 40
0.0
 40
0.0
 40
0.0
 40
0.4680466650509161
 40
0.9999999999999999
 40
0.9999999999999999
 40
0.9999999999999999
 40
0.9999999999999999
 10
150.741757949204
 20
209.3678950500405
 30
0.0
 10
150.7465278525138
 20
209.2890233223045
 30
0.0
 10
150.7567189374332
 20
209.1205107921974
 30
0.0
 10
150.7811479086649
 20
208.6913472709133
 30
0.0
 10
150.794142981381
 20
208.4630523045278
 30
0.0
  0
SPLINE
  5
1A4
330
1F
100
AcDbEntity
  8
0
  6
Continuous
 62
     7
370
    25
100
AcDbSpline
210
0.0
220
0.0
230
1.0
 70
     8
 71
     3
 72
    11
 73
     7
 74
     0
 42
0.000000001
 43
0.00000001
 40
0.0
 40
0.0
 40
0.0
 40
0.0
 40
0.0395240502201657
 40
0.3229727664951197
 40
0.6499162119624335
 40
0.9999999999999999
 40
0.9999999999999999
 40
0.9999999999999999
 40
0.9999999999999999
 10
150.8716197063632
 20
206.9564699363625
 30
0.0
 10
150.8734816734371
 20
206.9133049794934
 30
0.0
 10
150.8886968311353
 20
206.560580360989
 30
0.0
 10
150.9118287838203
 20
205.7331692165483
 30
0.0
 10
150.9405779563413
 20
204.4750613841501
 30
0.0
 10
150.953160591776
 20
203.5222741144526
 30
0.0
 10
150.9596669425674
 20
203.0295976605928
 30
0.0
  0
SPLINE
  5
1A5
330
1F
100
AcDbEntity
  8
0
  6
Continuous
 62
     7
370
    25
100
AcDbSpline
210
0.0
220
0.0
230
1.0
 70
     8
 71
     3
 72
    12
 73
     8
 74
     0
 42
0.000000001
 43
0.00000001
 40
0.0
 40
0.0
 40
0.0
 40
0.0
 40
0.2451793597604779
 40
0.4854345664416431
 40
0.7013591184046095
 40
0.8930754660403962
 40
1.0
 40
1.0
 40
1.0
 40
1.0
 10
197.1083526810117
 20
203.0480508860862
 30
0.0
 10
197.1142572437501
 20
203.4888168758098
 30
0.0
 10
197.1259477826916
 20
204.3614965635807
 30
0.0
 10
197.1532616760892
 20
205.5103000433198
 30
0.0
 10
197.181497373017
 20
206.4624711116504
 30
0.0
 10
197.2066487871211
 20
207.1390780644437
 30
0.0
 10
197.2193504722477
 20
207.4229093791026
 30
0.0
 10
197.2238981475539
 20
207.5245315377331
 30
0.0
  0
SPLINE
  5
1A6
330
1F
100
AcDbEntity
  8
0
  6
Continuous
 62
     7
370
    25
100
AcDbSpline
210
0.0
220
0.0
230
1.0
 70
     8
 71
     3
 72
     8
 73
     4
 74
     0
 42
0.000000001
 43
0.00000001
 40
0.0
 40
0.0
 40
0.0
 40
0.0
 40
1.0
 40
1.0
 40
1.0
 40
1.0
 10
182.6447074789449
 20
125.7707767970468
 30
0.0
 10
179.7744242725828
 20
125.7706625790115
 30
0.0
 10
176.9041463942655
 20
125.7706088544701
 30
0.0
 10
174.0338682952398
 20
125.7706091462263
 30
0.0
  0
SPLINE
  5
1A7
330
1F
100
AcDbEntity
  8
0
  6
Continuous
 62
     7
370
    25
100
AcDbSpline
210
0.0
220
0.0
230
1.0
 70
     8
 71
     3
 72
     8
 73
     4
 74
     0
 42
0.000000001
 43
0.00000001
 40
0.0
 40
0.0
 40
0.0
 40
0.0
 40
1.0
 40
1.0
 40
1.0
 40
1.0
 10
174.0338551677599
 20
125.7706091462263
 30
0.0
 10
171.1635771161303
 20
125.7706088544659
 30
0.0
 10
168.2932992431182
 20
125.7706625790211
 30
0.0
 10
165.4230159840545
 20
125.7707767970469
 30
0.0
  0
SPLINE
  5
1A8
330
1F
100
AcDbEntity
  8
0
  6
Continuous
 62
     7
370
    25
100
AcDbSpline
210
0.0
220
0.0
230
1.0
 70
     8
 71
     3
 72
     9
 73
     5
 74
     0
 42
0.000000001
 43
0.00000001
 40
0.0
 40
0.0
 40
0.0
 40
0.0
 40
0.7745969287180648
 40
1.0
 40
1.0
 40
1.0
 40
1.0
 10
195.641378064961
 20
138.5706351306951
 30
0.0
 10
195.7879586427405
 20
147.9601722089704
 30
0.0
 10
195.9771932915561
 20
160.082008392616
 30
0.0
 10
196.1328707172777
 20
172.2043040178239
 30
0.0
 10
196.1679608871646
 20
174.9367066827333
 30
0.0
  0
LINE
  5
1A9
330
1F
100
AcDbEntity
  8
0
  6
Continuous
 62
     7
370
    25
100
AcDbLine
 10
196.3813548287
 20
191.2886076775
 30
0.0
 11
196.4287703236
 21
194.922023004
 31
0.0
  0
LINE
  5
1AA
330
1F
100
AcDbEntity
  8
0
  6
Continuous
 62
     7
370
    25
100
AcDbLine
 10
151.6797860464
 20
204.9855957907
 30
0.0
 11
151.6391487171
 21
194.9220397678
 31
0.0
  0
SPLINE
  5
1AB
330
1F
100
AcDbEntity
  8
0
  6
Continuous
 62
     7
370
    25
100
AcDbSpline
210
0.0
220
0.0
230
1.0
 70
     8
 71
     3
 72
    10
 73
     6
 74
     0
 42
0.000000001
 43
0.00000001
 40
0.0
 40
0.0
 40
0.0
 40
0.0
 40
0.5
 40
0.5
 40
1.0
 40
1.0
 40
1.0
 40
1.0
 10
196.3525662579323
 20
213.7453533574351
 30
0.0
 10
196.3891221814454
 20
210.607028494611
 30
0.0
 10
196.411759913506
 20
207.4712939080389
 30
0.0
 10
196.4443960181341
 20
201.1987143872171
 30
0.0
 10
196.438875622013
 20
198.0560339923319
 30
0.0
 10
196.4285749592292
 20
194.9220393939463
 30
0.0
  0
SPLINE
  5
1AC
330
1F
100
AcDbEntity
  8
0
  6
Continuous
 62
     7
370
    25
100
AcDbSpline
210
0.0
220
0.0
230
1.0
 70
     8
 71
     3
 72
     9
 73
     5
 74
     0
 42
0.000000001
 43
0.00000001
 40
0.0
 40
0.0
 40
0.0
 40
0.0
 40
0.9487424267392554
 40
1.0
 40
1.0
 40
1.0
 40
1.0
 10
196.8165376534171
 20
213.7445878638616
 30
0.0
 10
196.8047686060622
 20
212.3028845610857
 30
0.0
 10
196.7923637140459
 20
210.783290557336
 30
0.0
 10
196.3912388345865
 20
209.3341348512374
 30
0.0
 10
196.3706781466909
 20
209.2598546464658
 30
0.0
  0
SPLINE
  5
1AD
330
1F
100
AcDbEntity
  8
0
  6
Continuous
 62
     7
370
    25
100
AcDbSpline
210
0.0
220
0.0
230
1.0
 70
     8
 71
     3
 72
    38
 73
    34
 74
     0
 42
0.000000001
 43
0.00000001
 40
0.0
 40
0.0
 40
0.0
 40
0.0
 40
0.1250000000000021
 40
0.1250000000000021
 40
0.1875000000000032
 40
0.1875000000000032
 40
0.2500000000000042
 40
0.2500000000000042
 40
0.2812500000000049
 40
0.2812500000000049
 40
0.3125000000000055
 40
0.3125000000000055
 40
0.3750000000000065
 40
0.3750000000000065
 40
0.4375000000000074
 40
0.4375000000000074
 40
0.4687500000000074
 40
0.4687500000000074
 40
0.5000000000000074
 40
0.5000000000000074
 40
0.5625000000000074
 40
0.5625000000000074
 40
0.593750000000007
 40
0.593750000000007
 40
0.6250000000000067
 40
0.6250000000000067
 40
0.7500000000000041
 40
0.7500000000000041
 40
0.8125000000000029
 40
0.8125000000000029
 40
0.8750000000000017
 40
0.8750000000000017
 40
1.0
 40
1.0
 40
1.0
 40
1.0
 10
174.0338617315003
 20
236.0895859814913
 30
0.0
 10
172.4450880578104
 20
236.0896155975869
 30
0.0
 10
170.872508614712
 20
236.0029024453554
 30
0.0
 10
168.5432362428765
 20
235.7143004720735
 30
0.0
 10
167.7717547730755
 20
235.5916249842873
 30
0.0
 10
166.2395417226531
 20
235.2886933080404
 30
0.0
 10
165.4785669881004
 20
235.1097395491668
 30
0.0
 10
164.3463239104973
 20
234.7919281344034
 30
0.0
 10
163.9705536682268
 20
234.6771844490978
 30
0.0
 10
163.222832326872
 20
234.4272402219582
 30
0.0
 10
162.849821454976
 20
234.2916136249398
 30
0.0
 10
161.744763274531
 20
233.8522020752615
 30
0.0
 10
161.0346260167858
 20
233.5189972980665
 30
0.0
 10
159.6714824978029
 20
232.7660064856875
 30
0.0
 10
159.0187597915449
 20
232.3457907267399
 30
0.0
 10
158.0853452329164
 20
231.6462555732195
 30
0.0
 10
157.7806657847621
 20
231.4006412599362
 30
0.0
 10
157.1924887512733
 20
230.8907261064819
 30
0.0
 10
156.9098063730742
 20
230.6272311250896
 30
0.0
 10
156.0946303480412
 20
229.8121424148772
 30
0.0
 10
155.5946097198538
 20
229.2362428879308
 30
0.0
 10
154.9047775601767
 20
228.3273352839205
 30
0.0
 10
154.6849382133625
 20
228.0168027895978
 30
0.0
 10
154.2648184962621
 20
227.381098061413
 30
0.0
 10
154.0639199749372
 20
227.0548261436312
 30
0.0
 10
153.1156838266629
 20
225.4035486034508
 30
0.0
 10
152.5353199054426
 20
224.0231305410858
 30
0.0
 10
151.865582120455
 20
221.8855812763348
 30
0.0
 10
151.6762367378354
 20
221.1617670128836
 30
0.0
 10
151.3571294355628
 20
219.694281444496
 30
0.0
 10
151.2281105491082
 20
218.9547158630317
 30
0.0
 10
150.923430012655
 20
216.7333090473701
 30
0.0
 10
150.82413924708
 20
215.2434868461485
 30
0.0
 10
150.838372868816
 20
213.7439507723079
 30
0.0
  0
SPLINE
  5
1AE
330
1F
100
AcDbEntity
  8
0
  6
Continuous
 62
     7
370
    25
100
AcDbSpline
210
0.0
220
0.0
230
1.0
 70
     8
 71
     3
 72
    34
 73
    30
 74
     0
 42
0.000000001
 43
0.00000001
 40
0.0
 40
0.0
 40
0.0
 40
0.0
 40
0.1250000000000011
 40
0.1250000000000011
 40
0.2500000000000022
 40
0.2500000000000022
 40
0.2812500000000023
 40
0.2812500000000023
 40
0.3125000000000024
 40
0.3125000000000024
 40
0.3750000000000019
 40
0.3750000000000019
 40
0.4375000000000014
 40
0.4375000000000014
 40
0.500000000000001
 40
0.500000000000001
 40
0.6250000000000001
 40
0.6250000000000001
 40
0.65625
 40
0.65625
 40
0.6875
 40
0.6875
 40
0.7499999999999999
 40
0.7499999999999999
 40
0.8124999999999999
 40
0.8124999999999999
 40
0.8749999999999999
 40
0.8749999999999999
 40
1.0
 40
1.0
 40
1.0
 40
1.0
 10
197.2293505941818
 20
213.7439507723544
 30
0.0
 10
197.2435473334425
 20
215.2396012152079
 30
0.0
 10
197.1447426282043
 20
216.7174505424911
 30
0.0
 10
196.7470828274968
 20
219.6416352624164
 30
0.0
 10
196.4459522597863
 20
221.087612200002
 30
0.0
 10
195.8957451459144
 20
222.867705621226
 30
0.0
 10
195.7768728213304
 20
223.2223331736599
 30
0.0
 10
195.5198114005569
 20
223.9285453078275
 30
0.0
 10
195.3812159505467
 20
224.2810763627389
 30
0.0
 10
194.9366135556386
 20
225.3266172532778
 30
0.0
 10
194.6035938024988
 20
226.0040010896817
 30
0.0
 10
193.8572887034229
 20
227.3157111315884
 30
0.0
 10
193.4441052530731
 20
227.950091997904
 30
0.0
 10
192.5276044596913
 20
229.1705023542163
 30
0.0
 10
192.020428116062
 20
229.7599364935834
 30
0.0
 10
190.3972063622335
 20
231.3969710561037
 30
0.0
 10
189.1708830443305
 20
232.3280160363557
 30
0.0
 10
187.4548359431437
 20
233.2881822116783
 30
0.0
 10
187.1025437344291
 20
233.4699354343926
 30
0.0
 10
186.3920519626802
 20
233.8082547038505
 30
0.0
 10
186.0323985801534
 20
233.9656549924717
 30
0.0
 10
184.9411908566075
 20
234.4051789226233
 30
0.0
 10
184.1974834020631
 20
234.6548776573408
 30
0.0
 10
182.6844751306256
 20
235.0859911938176
 30
0.0
 10
181.9158755121229
 20
235.2692768159574
 30
0.0
 10
180.3581973858524
 20
235.5812097097703
 30
0.0
 10
179.5719563739499
 20
235.707520917783
 30
0.0
 10
177.2110914711671
 20
236.0026695760983
 30
0.0
 10
175.6266478671953
 20
236.0896156721691
 30
0.0
 10
174.0338617315003
 20
236.0895859812778
 30
0.0
  0
SPLINE
  5
1AF
330
1F
100
AcDbEntity
  8
0
  6
Continuous
 62
     7
370
    25
100
AcDbSpline
210
0.0
220
0.0
230
1.0
 70
     8
 71
     3
 72
     9
 73
     5
 74
     0
 42
0.000000001
 43
0.00000001
 40
0.0
 40
0.0
 40
0.0
 40
0.0
 40
0.2969344121022944
 40
1.0
 40
1.0
 40
1.0
 40
1.0
 10
151.714887594194
 20
207.7695983630335
 30
0.0
 10
151.5834276715629
 20
208.2089649048543
 30
0.0
 10
151.1407039006792
 20
209.6886402941434
 30
0.0
 10
151.00092178321
 20
211.1702201979605
 30
0.0
 10
150.902645786614
 20
212.2118680440551
 30
0.0
  0
SPLINE
  5
1B0
330
1F
100
AcDbEntity
  8
0
  6
Continuous
 62
     7
370
    25
100
AcDbSpline
210
0.0
220
0.0
230
1.0
 70
     8
 71
     3
 72
     8
 73
     4
 74
     0
 42
0.000000001
 43
0.00000001
 40
0.0
 40
0.0
 40
0.0
 40
0.0
 40
1.0
 40
1.0
 40
1.0
 40
1.0
 10
150.9026458745332
 20
212.2118679555205
 30
0.0
 10
150.86460959716
 20
212.7219468548221
 30
0.0
 10
150.8432440206716
 20
213.2326433037411
 30
0.0
 10
150.8383728688158
 20
213.7439507723079
 30
0.0
  0
SPLINE
  5
1B1
330
1F
100
AcDbEntity
  8
0
  6
Continuous
 62
     7
370
    25
100
AcDbSpline
210
0.0
220
0.0
230
1.0
 70
     8
 71
     3
 72
     8
 73
     4
 74
     0
 42
0.000000001
 43
0.00000001
 40
0.0
 40
0.0
 40
0.0
 40
0.0
 40
1.0
 40
1.0
 40
1.0
 40
1.0
 10
197.2293505941834
 20
213.7439507723286
 30
0.0
 10
197.2244794423276
 20
213.2326433037667
 30
0.0
 10
197.20311386584
 20
212.721946854817
 30
0.0
 10
197.1650775884671
 20
212.2118679555203
 30
0.0
  0
SPLINE
  5
1B2
330
1F
100
AcDbEntity
  8
0
  6
Continuous
 62
     7
370
    25
100
AcDbSpline
210
0.0
220
0.0
230
1.0
 70
     8
 71
     3
 72
    10
 73
     6
 74
     0
 42
0.000000001
 43
0.00000001
 40
0.0
 40
0.0
 40
0.0
 40
0.0
 40
0.4782623758672878
 40
0.9632625255334455
 40
1.0
 40
1.0
 40
1.0
 40
1.0
 10
197.1650776763864
 20
212.2118680440551
 30
0.0
 10
197.0870240703161
 20
211.4983554669615
 30
0.0
 10
196.9298172367784
 20
210.0612783275259
 30
0.0
 10
196.6576849670552
 20
208.5380172885659
 30
0.0
 10
196.3954117140813
 20
207.7629060306657
 30
0.0
 10
196.3769440849729
 20
207.7083275821722
 30
0.0
  0
LINE
  5
1B3
330
1F
100
AcDbEntity
  8
0
  6
Continuous
 62
     7
370
    25
100
AcDbLine
 10
195.5418420335
 20
93.1992591527
 30
0.0
 11
195.4571233442
 21
89.9748415854
 31
0.0
  0
SPLINE
  5
1B4
330
1F
100
AcDbEntity
  8
0
  6
Continuous
 62
     7
370
    25
100
AcDbSpline
210
0.0
220
0.0
230
1.0
 70
     8
 71
     3
 72
    10
 73
     6
 74
     0
 42
0.000000001
 43
0.00000001
 40
0.0
 40
0.0
 40
0.0
 40
0.0
 40
0.5
 40
0.5
 40
1.0
 40
1.0
 40
1.0
 40
1.0
 10
151.633897742845
 20
154.9884248324922
 30
0.0
 10
151.580607098463
 20
158.6845583483539
 30
0.0
 10
151.5294001192464
 20
162.3807213925142
 30
0.0
 10
151.4301545101491
 20
169.773089335313
 30
0.0
 10
151.3824810692896
 20
173.4693076673649
 30
0.0
 10
151.330518147945
 20
177.1654492437964
 30
0.0
  0
LINE
  5
1B5
330
1F
100
AcDbEntity
  8
0
  6
Continuous
 62
     7
370
    25
100
AcDbLine
 10
151.759311681
 20
146.1627544072
 30
0.0
 11
151.6342220207
 21
154.988425335
 31
0.0
  0
SPLINE
  5
1B6
330
1F
100
AcDbEntity
  8
0
  6
Continuous
 62
     7
370
    25
100
AcDbSpline
210
0.0
220
0.0
230
1.0
 70
     8
 71
     3
 72
    10
 73
     6
 74
     0
 42
0.000000001
 43
0.00000001
 40
0.0
 40
0.0
 40
0.0
 40
0.0
 40
0.5
 40
0.5
 40
1.0
 40
1.0
 40
1.0
 40
1.0
 10
196.7372053150551
 20
177.1654492437963
 30
0.0
 10
196.6852424034802
 20
173.4693083622892
 30
0.0
 10
196.6375689486777
 20
169.7730890220219
 30
0.0
 10
196.5383233419032
 20
162.380721257129
 30
0.0
 10
196.4871163743293
 20
158.6845590275311
 30
0.0
 10
196.4338257201549
 20
154.988424832492
 30
0.0
  0
LINE
  5
1B7
330
1F
100
AcDbEntity
  8
0
  6
Continuous
 62
     7
370
    25
100
AcDbLine
 10
196.4335014423
 20
154.988425335
 30
0.0
 11
196.2183454385
 21
139.8140848783
 31
0.0
  0
SPLINE
  5
1B8
330
1F
100
AcDbEntity
  8
0
  6
Continuous
 62
     7
370
    25
100
AcDbSpline
210
0.0
220
0.0
230
1.0
 70
     8
 71
     3
 72
    12
 73
     8
 74
     0
 42
0.000000001
 43
0.00000001
 40
0.0
 40
0.0
 40
0.0
 40
0.0
 40
0.5
 40
0.5
 40
0.75
 40
0.75
 40
1.0
 40
1.0
 40
1.0
 40
1.0
 10
195.7512819212546
 20
106.9881841213328
 30
0.0
 10
195.7184814590339
 20
104.6900156761666
 30
0.0
 10
195.6844698315387
 20
102.3918685320852
 30
0.0
 10
195.6284958158389
 20
98.9447267817755
 30
0.0
 10
195.6094127405165
 20
97.79568725101693
 30
0.0
 10
195.5751005291676
 20
95.49755113592852
 30
0.0
 10
195.5605773976058
 20
94.34844279400582
 30
0.0
 10
195.541806651398
 20
93.1994017649193
 30
0.0
  0
SPLINE
  5
1B9
330
1F
100
AcDbEntity
  8
0
  6
Continuous
 62
     7
370
    25
100
AcDbSpline
210
0.0
220
0.0
230
1.0
 70
     8
 71
     3
 72
    12
 73
     8
 74
     0
 42
0.000000001
 43
0.00000001
 40
0.0
 40
0.0
 40
0.0
 40
0.0
 40
0.2499999999999992
 40
0.2499999999999992
 40
0.4999999999999984
 40
0.4999999999999984
 40
1.0
 40
1.0
 40
1.0
 40
1.0
 10
152.5259168116015
 20
93.19940176491941
 30
0.0
 10
152.5071460653937
 20
94.34844279400592
 30
0.0
 10
152.4926229338319
 20
95.4975511359287
 30
0.0
 10
152.4583107224831
 20
97.7956872510171
 30
0.0
 10
152.4392276471607
 20
98.94472678177569
 30
0.0
 10
152.3832536314609
 20
102.3918685320854
 30
0.0
 10
152.3492420039656
 20
104.6900156761667
 30
0.0
 10
152.316441541745
 20
106.9881841213329
 30
0.0
  0
SPLINE
  5
1BA
330
1F
100
AcDbEntity
  8
0
  6
Continuous
 62
     7
370
    25
100
AcDbSpline
210
0.0
220
0.0
230
1.0
 70
     8
 71
     3
 72
    12
 73
     8
 74
     0
 42
0.000000001
 43
0.00000001
 40
0.0
 40
0.0
 40
0.0
 40
0.0
 40
0.5
 40
0.5
 40
0.75
 40
0.75
 40
1.0
 40
1.0
 40
1.0
 40
1.0
 10
151.3304546642443
 20
177.1650684490618
 30
0.0
 10
151.2442519370477
 20
183.270488332216
 30
0.0
 10
151.1558440585356
 20
189.3758747581989
 30
0.0
 10
151.0244231180242
 20
198.5339726740744
 30
0.0
 10
150.9805387859824
 20
201.5866714425225
 30
0.0
 10
150.8928006292791
 20
207.6920676695384
 30
0.0
 10
150.8478305635849
 20
210.7447477717522
 30
0.0
 10
150.7997191140789
 20
213.7973839224639
 30
0.0
  0
SPLINE
  5
1BB
330
1F
100
AcDbEntity
  8
0
  6
Continuous
 62
     7
370
    25
100
AcDbSpline
210
0.0
220
0.0
230
1.0
 70
     8
 71
     3
 72
    12
 73
     8
 74
     0
 42
0.000000001
 43
0.00000001
 40
0.0
 40
0.0
 40
0.0
 40
0.0
 40
0.25
 40
0.25
 40
0.5
 40
0.5
 40
1.0
 40
1.0
 40
1.0
 40
1.0
 10
197.268004348496
 20
213.7973838954728
 30
0.0
 10
197.2198929242822
 20
210.7447493490514
 30
0.0
 10
197.1749228641279
 20
207.692069778443
 30
0.0
 10
197.0871847000676
 20
201.5866730534717
 30
0.0
 10
197.0433003669444
 20
198.5339742058678
 30
0.0
 10
196.911879418786
 20
189.3758757543461
 30
0.0
 10
196.8234715358836
 20
183.2704890356067
 30
0.0
 10
196.7372687987557
 20
177.1650684490622
 30
0.0
  0
SPLINE
  5
1BC
330
1F
100
AcDbEntity
  8
0
  6
Continuous
 62
     7
370
    25
100
AcDbSpline
210
0.0
220
0.0
230
1.0
 70
     8
 71
     3
 72
    26
 73
    22
 74
     0
 42
0.000000001
 43
0.00000001
 40
0.0
 40
0.0
 40
0.0
 40
0.0
 40
0.044871586591077
 40
0.0743441681528875
 40
0.1186764019232378
 40
0.179131818081651
 40
0.2250280794672287
 40
0.2545006344911236
 40
0.2988329524028661
 40
0.3592893122615479
 40
0.4051837586257351
 40
0.4789255668541507
 40
0.53936274966331
 40
0.58524470183967
 40
0.659005301008255
 40
0.7194602489697578
 40
0.7653536229925382
 40
0.839092079514185
 40
0.899526501965889
 40
0.9454065453198788
 40
1.0
 40
1.0
 40
1.0
 40
1.0
 10
150.8398969968267
 20
207.5970065948284
 30
0.0
 10
150.6510952445134
 20
208.2512877426154
 30
0.0
 10
150.3382846156079
 20
209.3353142138349
 30
0.0
 10
150.0037046289654
 20
211.1053775896255
 30
0.0
 10
149.7537016934022
 20
213.1280042762077
 30
0.0
 10
149.700376381897
 20
215.418172730679
 30
0.0
 10
149.8572727619164
 20
217.4745396001814
 30
0.0
 10
150.1224742825665
 20
219.2712872906696
 30
0.0
 10
150.5587382549802
 20
221.2625309186649
 30
0.0
 10
151.2662519110226
 20
223.4411738530881
 30
0.0
 10
152.364390226866
 20
225.9449581922593
 30
0.0
 10
153.7395910771044
 20
228.3155146834179
 30
0.0
 10
155.3983334176479
 20
230.4920948209855
 30
0.0
 10
157.263763078574
 20
232.4907597735402
 30
0.0
 10
159.3457923906262
 20
234.2733287792121
 30
0.0
 10
161.6325253711259
 20
235.7780246161882
 30
0.0
 10
164.0541562525411
 20
237.0469166922406
 30
0.0
 10
166.6087703148789
 20
238.0402326511598
 30
0.0
 10
169.263536134574
 20
238.6993284623486
 30
0.0
 10
171.6810185185553
 20
239.0648788146786
 30
0.0
 10
173.205510899379
 20
239.1095944404852
 30
0.0
 10
174.0338617315003
 20
239.1338912007129
 30
0.0
  0
SPLINE
  5
1BD
330
1F
100
AcDbEntity
  8
0
  6
Continuous
 62
     7
370
    25
100
AcDbSpline
210
0.0
220
0.0
230
1.0
 70
     8
 71
     3
 72
    19
 73
    15
 74
     0
 42
0.000000001
 43
0.00000001
 40
0.0
 40
0.0
 40
0.0
 40
0.0
 40
0.0376238455152972
 40
0.1270715920502909
 40
0.2191146349336237
 40
0.3085623329516854
 40
0.4006044979588426
 40
0.490026836016307
 40
0.582041660082795
 40
0.6714870406005965
 40
0.7635270504857607
 40
0.8529452816542472
 40
0.9449561237334171
 40
1.0
 40
1.0
 40
1.0
 40
1.0
 10
197.2468310346313
 20
207.9494432714498
 30
0.0
 10
197.4288179726292
 20
208.4861231484441
 30
0.0
 10
198.043464605025
 20
210.2987174076697
 30
0.0
 10
198.3920666555423
 20
213.6093125186889
 30
0.0
 10
198.2880438934327
 20
217.6925099566563
 30
0.0
 10
197.4493497852501
 20
221.7441773458293
 30
0.0
 10
195.9675884218602
 20
225.5603015475381
 30
0.0
 10
193.8436835887163
 20
229.10562286317
 30
0.0
 10
191.1800909458549
 20
232.2156116236667
 30
0.0
 10
188.002969228525
 20
234.8579835585295
 30
0.0
 10
184.4596766966293
 20
236.9132994570962
 30
0.0
 10
180.5875182174104
 20
238.347238198633
 30
0.0
 10
177.0746192364215
 20
239.0406768253254
 30
0.0
 10
174.862047005023
 20
239.1085031936615
 30
0.0
 10
174.0338617315003
 20
239.1338912007129
 30
0.0
  0
SPLINE
  5
1BE
330
1F
100
AcDbEntity
  8
0
  6
Continuous
 62
     8
370
    18
100
AcDbSpline
210
0.0
220
0.0
230
1.0
 70
     8
 71
     3
 72
    18
 73
    14
 74
     0
 42
0.000000001
 43
0.00000001
 40
0.0
 40
0.0
 40
0.0
 40
0.0
 40
0.25
 40
0.25
 40
0.375
 40
0.375
 40
0.5
 40
0.5
 40
0.625
 40
0.625
 40
0.75
 40
0.75
 40
1.0
 40
1.0
 40
1.0
 40
1.0
 10
153.6310664162939
 20
138.574087667211
 30
0.0
 10
153.6570786974964
 20
136.9566556517329
 30
0.0
 10
153.6890080451429
 20
135.3237901962187
 30
0.0
 10
154.1922677420436
 20
132.9417473496187
 30
0.0
 10
154.449847207305
 20
132.151216918337
 30
0.0
 10
155.1776576902078
 20
130.6861168252368
 30
0.0
 10
155.6581311912345
 20
129.9977365032768
 30
0.0
 10
156.8218192247021
 20
128.8578783573804
 30
0.0
 10
157.5198578981813
 20
128.3911200494598
 30
0.0
 10
158.9968636561327
 20
127.6910288196072
 30
0.0
 10
159.7925812813376
 20
127.446721783006
 30
0.0
 10
162.1869520975303
 20
126.9813568392694
 30
0.0
 10
163.8034475256217
 20
126.9739228082986
 30
0.0
 10
165.4146633213945
 20
126.9709881025705
 30
0.0
  0
SPLINE
  5
1BF
330
1F
100
AcDbEntity
  8
0
  6
Continuous
 62
     8
370
    18
100
AcDbSpline
210
0.0
220
0.0
230
1.0
 70
     8
 71
     3
 72
    18
 73
    14
 74
     0
 42
0.000000001
 43
0.00000001
 40
0.0
 40
0.0
 40
0.0
 40
0.0
 40
0.2500000000000002
 40
0.2500000000000002
 40
0.3750000000000001
 40
0.3750000000000001
 40
0.5000000000000001
 40
0.5000000000000001
 40
0.6250000000000001
 40
0.6250000000000001
 40
0.75
 40
0.75
 40
1.0
 40
1.0
 40
1.0
 40
1.0
 10
182.6530601416051
 20
126.9709881025703
 30
0.0
 10
184.2689115009926
 20
126.9739312515996
 30
0.0
 10
185.9109112305009
 20
126.9834220937334
 30
0.0
 10
188.3007981765014
 20
127.4536533742482
 30
0.0
 10
189.0949977702475
 20
127.6996604983741
 30
0.0
 10
190.5719494398499
 20
128.4054383437523
 30
0.0
 10
191.2684540538068
 20
128.8752231209573
 30
0.0
 10
192.4271264864875
 20
130.0198215122801
 30
0.0
 10
192.9023758112054
 20
130.7061418048853
 30
0.0
 10
193.625189395476
 20
132.1708244554969
 30
0.0
 10
193.8799403072635
 20
132.9569535562404
 30
0.0
 10
194.3810854995062
 20
135.3472551529047
 30
0.0
 10
194.4107334243957
 20
136.9621684440776
 30
0.0
 10
194.4366570467056
 20
138.5740876672108
 30
0.0
  0
SPLINE
  5
1C0
330
1F
100
AcDbEntity
  8
0
  6
Continuous
 62
     8
370
    18
100
AcDbSpline
210
0.0
220
0.0
230
1.0
 70
     8
 71
     3
 72
     8
 73
     4
 74
     0
 42
0.000000001
 43
0.00000001
 40
0.0
 40
0.0
 40
0.0
 40
0.0
 40
1.0
 40
1.0
 40
1.0
 40
1.0
 10
165.4203604800679
 20
126.9709787369935
 30
0.0
 10
168.2915648724725
 20
126.9679953408064
 30
0.0
 10
171.1627067711973
 20
126.9665858400425
 30
0.0
 10
174.0338617314999
 20
126.9665926960068
 30
0.0
  0
SPLINE
  5
1C1
330
1F
100
AcDbEntity
  8
0
  6
Continuous
 62
     8
370
    18
100
AcDbSpline
210
0.0
220
0.0
230
1.0
 70
     8
 71
     3
 72
     8
 73
     4
 74
     0
 42
0.000000001
 43
0.00000001
 40
0.0
 40
0.0
 40
0.0
 40
0.0
 40
1.0
 40
1.0
 40
1.0
 40
1.0
 10
174.0338617314998
 20
126.9665926960069
 30
0.0
 10
176.9050167392321
 20
126.9665858400453
 30
0.0
 10
179.7761586432255
 20
126.9679953407227
 30
0.0
 10
182.6473629829316
 20
126.9709787369934
 30
0.0
  0
SPLINE
  5
1C2
330
1F
100
AcDbEntity
  8
0
  6
Continuous
 62
     8
370
    18
100
AcDbSpline
210
0.0
220
0.0
230
1.0
 70
     8
 71
     3
 72
    10
 73
     6
 74
     0
 42
0.000000001
 43
0.00000001
 40
0.0
 40
0.0
 40
0.0
 40
0.0
 40
0.5
 40
0.5
 40
1.0
 40
1.0
 40
1.0
 40
1.0
 10
195.2173495790597
 20
194.9418216932001
 30
0.0
 10
195.2220653026052
 20
198.0773520508554
 30
0.0
 10
195.2251043662988
 20
201.2101140513421
 30
0.0
 10
195.1698586725523
 20
207.4779981102094
 30
0.0
 10
195.1291869904751
 20
210.61187162935
 30
0.0
 10
195.0914403525039
 20
213.7453867638673
 30
0.0
  0
SPLINE
  5
1C3
330
1F
100
AcDbEntity
  8
0
  6
Continuous
 62
     8
370
    18
100
AcDbSpline
210
0.0
220
0.0
230
1.0
 70
     8
 71
     3
 72
    12
 73
     8
 74
     0
 42
0.000000001
 43
0.00000001
 40
0.0
 40
0.0
 40
0.0
 40
0.0
 40
0.5
 40
0.5
 40
0.75
 40
0.75
 40
1.0
 40
1.0
 40
1.0
 40
1.0
 10
194.4371445804512
 20
138.6046566768468
 30
0.0
 10
194.5752602892369
 20
147.9942903589068
 30
0.0
 10
194.7136672111907
 20
157.3839193116766
 30
0.0
 10
194.9215688958467
 20
171.4683579699071
 30
0.0
 10
194.9908975038375
 20
176.1631703847085
 30
0.0
 10
195.1296848256017
 20
185.5527930867597
 30
0.0
 10
195.1952603330456
 20
190.2479747497999
 30
0.0
 10
195.2168777349869
 20
194.9437234132054
 30
0.0
  0
SPLINE
  5
1C4
330
1F
100
AcDbEntity
  8
0
  6
Continuous
 62
     8
370
    18
100
AcDbSpline
210
0.0
220
0.0
230
1.0
 70
     8
 71
     3
 72
    10
 73
     6
 74
     0
 42
0.000000001
 43
0.00000001
 40
0.0
 40
0.0
 40
0.0
 40
0.0
 40
0.4999999999999999
 40
0.4999999999999999
 40
1.0
 40
1.0
 40
1.0
 40
1.0
 10
152.9762831104964
 20
213.7453867638675
 30
0.0
 10
152.9385364727113
 20
210.6118716293419
 30
0.0
 10
152.8978647903963
 20
207.4779981102188
 30
0.0
 10
152.8426190967529
 20
201.2101140513334
 30
0.0
 10
152.8456581603677
 20
198.0773520508621
 30
0.0
 10
152.8503738839404
 20
194.9418216932002
 30
0.0
  0
SPLINE
  5
1C5
330
1F
100
AcDbEntity
  8
0
  6
Continuous
 62
     8
370
    18
100
AcDbSpline
210
0.0
220
0.0
230
1.0
 70
     8
 71
     3
 72
    12
 73
     8
 74
     0
 42
0.000000001
 43
0.00000001
 40
0.0
 40
0.0
 40
0.0
 40
0.0
 40
0.2499999999999998
 40
0.2499999999999998
 40
0.4999999999999999
 40
0.4999999999999999
 40
1.0
 40
1.0
 40
1.0
 40
1.0
 10
152.8508457280132
 20
194.9437234132055
 30
0.0
 10
152.8724618278308
 20
190.2482576016818
 30
0.0
 10
152.9380343775156
 20
185.5530810971766
 30
0.0
 10
153.0768225565066
 20
176.1634007814737
 30
0.0
 10
153.1461515901644
 20
171.4685595717417
 30
0.0
 10
153.3540545535679
 20
157.3840345127033
 30
0.0
 10
153.4924623261219
 20
147.9943479597972
 30
0.0
 10
153.6305788825484
 20
138.6046566768469
 30
0.0
  0
LWPOLYLINE
  5
1C6
330
1F
100
AcDbEntity
  8
0
  6
Continuous
 62
     8
370
    18
100
AcDbPolyline
 90
        9
 70
   128
 43
0.0
 10
174.0338551678
 20
125.770612171
 10
174.033856413
 20
125.7853345182
 10
174.0338576131
 20
125.8467049506
 10
174.0338587245
 20
125.9525106457
 10
174.0338597071
 20
126.0989071038
 10
174.0338605251
 20
126.2805895117
 10
174.0338611489
 20
126.4909790066
 10
174.033861556
 20
126.7224387434
 10
174.0338617315
 20
126.9665942696
  0
SPLINE
  5
1C7
330
1F
100
AcDbEntity
  8
0
  6
Continuous
 62
     8
370
    18
100
AcDbSpline
210
0.0
220
0.0
230
1.0
 70
     8
 71
     3
 72
    24
 73
    20
 74
     0
 42
0.000000001
 43
0.00000001
 40
0.0
 40
0.0
 40
0.0
 40
0.0
 40
0.1250000000000003
 40
0.1250000000000003
 40
0.2500000000000003
 40
0.2500000000000003
 40
0.3750000000000004
 40
0.3750000000000004
 40
0.5000000000000004
 40
0.5000000000000004
 40
0.6250000000000004
 40
0.6250000000000004
 40
0.7500000000000002
 40
0.7500000000000002
 40
0.8125000000000002
 40
0.8125000000000002
 40
0.8750000000000002
 40
0.8750000000000002
 40
1.0
 40
1.0
 40
1.0
 40
1.0
 10
174.0338614281409
 20
231.3415035022367
 30
0.0
 10
172.6623398165277
 20
231.3414989651173
 30
0.0
 10
171.2908606332946
 20
231.3382490048917
 30
0.0
 10
168.5483378914553
 20
231.3209646883486
 30
0.0
 10
167.1777291027702
 20
231.3282826162007
 30
0.0
 10
164.4231129139498
 20
231.1963057666904
 30
0.0
 10
163.0504912064708
 20
231.0104646592079
 30
0.0
 10
160.418164375111
 20
230.1716392347237
 30
0.0
 10
159.176807042736
 20
229.5292052375758
 30
0.0
 10
156.9731045327717
 20
227.8673977295487
 30
0.0
 10
156.0059937980551
 20
226.8523153046235
 30
0.0
 10
154.4539914734027
 20
224.5665564861184
 30
0.0
 10
153.8698735613857
 20
223.2863317929418
 30
0.0
 10
153.3497153631966
 20
221.2822707397115
 30
0.0
 10
153.2321621731613
 20
220.5921375077427
 30
0.0
 10
153.086734555017
 20
219.2181000618928
 30
0.0
 10
153.0568548330536
 20
218.5313608503369
 30
0.0
 10
153.0066592153403
 20
216.4761313853922
 30
0.0
 10
152.9960434388185
 20
215.1131408317027
 30
0.0
 10
152.9759278606252
 20
213.7453867638653
 30
0.0
  0
SPLINE
  5
1C8
330
1F
100
AcDbEntity
  8
0
  6
Continuous
 62
     8
370
    18
100
AcDbSpline
210
0.0
220
0.0
230
1.0
 70
     8
 71
     3
 72
    22
 73
    18
 74
     0
 42
0.000000001
 43
0.00000001
 40
0.0
 40
0.0
 40
0.0
 40
0.0
 40
0.1250000000000001
 40
0.1250000000000001
 40
0.25
 40
0.25
 40
0.375
 40
0.375
 40
0.4999999999999999
 40
0.4999999999999999
 40
0.6249999999999999
 40
0.6249999999999999
 40
0.75
 40
0.75
 40
0.875
 40
0.875
 40
1.0
 40
1.0
 40
1.0
 40
1.0
 10
195.0917956023751
 20
213.7453867638651
 30
0.0
 10
195.0717676698379
 20
215.1071813867374
 30
0.0
 10
195.0608949899432
 20
216.4641314665545
 30
0.0
 10
194.9951756573339
 20
219.1925823714927
 30
0.0
 10
194.9016541203252
 20
220.5652237475992
 30
0.0
 10
194.1980776397337
 20
223.2948114406848
 30
0.0
 10
193.6205103503092
 20
224.5598709288624
 30
0.0
 10
192.0364573452685
 20
226.8861996401561
 30
0.0
 10
191.0731499715884
 20
227.8915163069539
 30
0.0
 10
188.8206686215433
 20
229.5739200022817
 30
0.0
 10
187.5810026381404
 20
230.20476955203
 30
0.0
 10
184.9000431719006
 20
231.0357122205037
 30
0.0
 10
183.5359686165647
 20
231.2057047450579
 30
0.0
 10
180.8164054809947
 20
231.3273213487103
 30
0.0
 10
179.4605199711849
 20
231.3214613812298
 30
0.0
 10
176.7480155106952
 20
231.3383009718214
 30
0.0
 10
175.3911393757167
 20
231.3414990122571
 30
0.0
 10
174.0338620348595
 20
231.3415035022366
 30
0.0
  0
LINE
  5
1C9
330
1F
100
AcDbEntity
  8
0
  6
Continuous
 62
     8
370
    18
100
AcDbLine
 10
151.7151576777
 20
213.745353411
 30
0.0
 11
151.6797860464
 21
204.9855957907
 31
0.0
  0
SPLINE
  5
1CA
330
1F
100
AcDbEntity
  8
0
  6
Continuous
 62
     8
370
    18
100
AcDbSpline
210
0.0
220
0.0
230
1.0
 70
     8
 71
     3
 72
    24
 73
    20
 74
     0
 42
0.000000001
 43
0.00000001
 40
0.0
 40
0.0
 40
0.0
 40
0.0
 40
0.125
 40
0.125
 40
0.1874999999999999
 40
0.1874999999999999
 40
0.2499999999999999
 40
0.2499999999999999
 40
0.3749999999999998
 40
0.3749999999999998
 40
0.4999999999999997
 40
0.4999999999999997
 40
0.6249999999999999
 40
0.6249999999999999
 40
0.7499999999999999
 40
0.7499999999999999
 40
0.875
 40
0.875
 40
1.0
 40
1.0
 40
1.0
 40
1.0
 10
151.7149980801076
 20
213.7472671506416
 30
0.0
 10
151.7342191494869
 20
215.1296714112679
 30
0.0
 10
151.7469957200869
 20
216.4641807233432
 30
0.0
 10
151.8057965320817
 20
218.5689440106804
 30
0.0
 10
151.8391949218666
 20
219.2884672497965
 30
0.0
 10
152.0002360230642
 20
220.7638983990576
 30
0.0
 10
152.1299985952933
 20
221.51683450324
 30
0.0
 10
152.7052260436605
 20
223.7181330915577
 30
0.0
 10
153.3501003795658
 20
225.1347232020375
 30
0.0
 10
155.0523173964336
 20
227.6517094269075
 30
0.0
 10
156.1085966082307
 20
228.7674323261035
 30
0.0
 10
158.5281345953336
 20
230.604914434528
 30
0.0
 10
159.8966326407063
 20
231.3202274834826
 30
0.0
 10
162.7986171217258
 20
232.2577442895593
 30
0.0
 10
164.2947710628592
 20
232.462280894663
 30
0.0
 10
167.1669445216233
 20
232.6200857347947
 30
0.0
 10
168.5228298169653
 20
232.6244726982158
 30
0.0
 10
171.2781939082154
 20
232.6603251136365
 30
0.0
 10
172.6560100132275
 20
232.6687364904112
 30
0.0
 10
174.0338617315002
 20
232.6687371874611
 30
0.0
  0
SPLINE
  5
1CB
330
1F
100
AcDbEntity
  8
0
  6
Continuous
 62
     8
370
    18
100
AcDbSpline
210
0.0
220
0.0
230
1.0
 70
     8
 71
     3
 72
    22
 73
    18
 74
     0
 42
0.000000001
 43
0.00000001
 40
0.0
 40
0.0
 40
0.0
 40
0.0
 40
0.1249999999999999
 40
0.1249999999999999
 40
0.2499999999999999
 40
0.2499999999999999
 40
0.3749999999999998
 40
0.3749999999999998
 40
0.4999999999999998
 40
0.4999999999999998
 40
0.6249999999999998
 40
0.6249999999999998
 40
0.7499999999999999
 40
0.7499999999999999
 40
0.8749999999999999
 40
0.8749999999999999
 40
1.0
 40
1.0
 40
1.0
 40
1.0
 10
174.0338617315002
 20
232.6687371874611
 30
0.0
 10
175.3974092147262
 20
232.6687364976009
 30
0.0
 10
176.7605420705503
 20
232.6604950524188
 30
0.0
 10
179.4857573456192
 20
232.6254428179696
 30
0.0
 10
180.8269861990934
 20
232.619610542829
 30
0.0
 10
183.6569278622538
 20
232.4728889690507
 30
0.0
 10
185.1414740231063
 20
232.2857035002209
 30
0.0
 10
188.0940542497965
 20
231.3574969960204
 30
0.0
 10
189.462282604478
 20
230.6545271243277
 30
0.0
 10
191.9357263284973
 20
228.793936382734
 30
0.0
 10
192.9877169733301
 20
227.6890014820624
 30
0.0
 10
194.725028570927
 20
225.1273811208565
 30
0.0
 10
195.3627508797883
 20
223.7272590087277
 30
0.0
 10
196.1408118905987
 20
220.7294076256254
 30
0.0
 10
196.2435021042683
 20
219.2455312572569
 30
0.0
 10
196.3205715789363
 20
216.4524697508425
 30
0.0
 10
196.33358894154
 20
215.1235848540362
 30
0.0
 10
196.3527253828927
 20
213.7472671506414
 30
0.0
  0
SPLINE
  5
1CC
330
1F
100
AcDbEntity
  8
0
  6
Continuous
 62
     8
370
    18
100
AcDbSpline
210
0.0
220
0.0
230
1.0
 70
    24
 71
     3
 72
     8
 73
     4
 74
     0
 42
0.000000001
 43
0.00000001
 40
0.0000024790398112
 40
0.0000024790398112
 40
0.0000024790398112
 40
0.0000024790398112
 40
0.7671742739455352
 40
0.7671742739455352
 40
0.7671742739455352
 40
0.7671742739455352
 10
151.2511831750988
 20
213.7445878714776
 30
0.0
 10
151.0558786854758
 20
213.7442864537894
 30
0.0
 10
150.9002531992529
 20
213.7440462735746
 30
0.0
 10
150.8383728688173
 20
213.7439507723079
 30
0.0
  0
SPLINE
  5
1CD
330
1F
100
AcDbEntity
  8
0
  6
Continuous
 62
     8
370
    18
100
AcDbSpline
210
0.0
220
0.0
230
1.0
 70
     8
 71
     3
 72
    18
 73
    14
 74
     0
 42
0.000000001
 43
0.00000001
 40
0.0
 40
0.0
 40
0.0
 40
0.0
 40
0.1234542024239873
 40
0.2489020151876761
 40
0.337060021899166
 40
0.4268566643311565
 40
0.5256054820094814
 40
0.6278908437637184
 40
0.7252418883263759
 40
0.8252297651911769
 40
0.8971656209157514
 40
0.9697074610278966
 40
1.0
 40
1.0
 40
1.0
 40
1.0
 10
174.0338617101982
 20
236.9560343381679
 30
0.0
 10
175.4062827130986
 20
236.9153238805598
 30
0.0
 10
178.1732873723215
 20
236.8332455491711
 30
0.0
 10
181.8717134109071
 20
236.1339776136509
 30
0.0
 10
185.0766390899458
 20
235.0659060858545
 30
0.0
 10
187.8393204242478
 20
233.6900230824187
 30
0.0
 10
190.464571361259
 20
231.7755289409122
 30
0.0
 10
192.7391815117142
 20
229.333857022491
 30
0.0
 10
194.5270418703519
 20
226.5086417336356
 30
0.0
 10
195.7217978200207
 20
223.7501518985085
 30
0.0
 10
196.4623993287713
 20
221.1379163050193
 30
0.0
 10
196.9119987675744
 20
219.2384111826352
 30
0.0
 10
196.972531835618
 20
218.0963479634578
 30
0.0
 10
196.9903634240337
 20
217.759923560611
 30
0.0
  0
LINE
  5
1CE
330
1F
100
AcDbEntity
  8
0
  6
Continuous
 62
     8
370
    18
100
AcDbLine
 10
197.139401113
 20
215.6516855634
 30
0.0
 11
197.2691548367
 21
213.8162163487
 31
0.0
  0
SPLINE
  5
1CF
330
1F
100
AcDbEntity
  8
0
  6
Continuous
 62
     8
370
    18
100
AcDbSpline
210
0.0
220
0.0
230
1.0
 70
     8
 71
     3
 72
    36
 73
    32
 74
     0
 42
0.000000001
 43
0.00000001
 40
0.0
 40
0.0
 40
0.0
 40
0.0
 40
0.1250000000000005
 40
0.1250000000000005
 40
0.1875000000000007
 40
0.1875000000000007
 40
0.2500000000000009
 40
0.2500000000000009
 40
0.3750000000000013
 40
0.3750000000000013
 40
0.4062500000000014
 40
0.4062500000000014
 40
0.4375000000000016
 40
0.4375000000000016
 40
0.5000000000000018
 40
0.5000000000000018
 40
0.5625000000000019
 40
0.5625000000000019
 40
0.5937500000000018
 40
0.5937500000000018
 40
0.6250000000000017
 40
0.6250000000000017
 40
0.6875000000000012
 40
0.6875000000000012
 40
0.7187500000000011
 40
0.7187500000000011
 40
0.750000000000001
 40
0.750000000000001
 40
0.8750000000000006
 40
0.8750000000000006
 40
1.0
 40
1.0
 40
1.0
 40
1.0
 10
150.7985681056599
 20
213.81621631978
 30
0.0
 10
150.7768821532718
 20
215.3822661275717
 30
0.0
 10
150.8794455893855
 20
216.934273798608
 30
0.0
 10
151.2162791059957
 20
219.2416053073719
 30
0.0
 10
151.3594885295229
 20
220.0072201237476
 30
0.0
 10
151.7117077286645
 20
221.5310134725369
 30
0.0
 10
151.9205021516371
 20
222.2853505174222
 30
0.0
 10
152.6480066634312
 20
224.4982578217777
 30
0.0
 10
153.2690402309785
 20
225.9166478536994
 30
0.0
 10
154.2563129460698
 20
227.6014131354512
 30
0.0
 10
154.4652496824822
 20
227.9350666039845
 30
0.0
 10
154.9010451440264
 20
228.5852647464336
 30
0.0
 10
155.1279316531499
 20
228.9020552468708
 30
0.0
 10
155.8362393216252
 20
229.8268708020233
 30
0.0
 10
156.3455308878468
 20
230.4091344511688
 30
0.0
 10
157.4382276740147
 20
231.5051560888264
 30
0.0
 10
158.021834828128
 20
232.0187273724992
 30
0.0
 10
158.9546093320408
 20
232.7360611961003
 30
0.0
 10
159.2738968172197
 20
232.9652460733407
 30
0.0
 10
159.9221325794254
 20
233.3996149065869
 30
0.0
 10
160.2520165933259
 20
233.6056149462981
 30
0.0
 10
161.2579870144964
 20
234.1919627758819
 30
0.0
 10
161.9504183931062
 20
234.5406066105477
 30
0.0
 10
163.0187699201541
 20
235.0059554386952
 30
0.0
 10
163.379834212204
 20
235.151475948541
 30
0.0
 10
164.1114599333536
 20
235.4240957760369
 30
0.0
 10
164.4830719670082
 20
235.5514925802767
 30
0.0
 10
166.3479078670308
 20
236.1393012745
 30
0.0
 10
167.8624629877566
 20
236.4559233704187
 30
0.0
 10
170.9246382044149
 20
236.8652715529911
 30
0.0
 10
172.4725481223213
 20
236.9560338521863
 30
0.0
 10
174.0338617101981
 20
236.9560338465631
 30
0.0
  0
SPLINE
  5
1D0
330
1F
100
AcDbEntity
  8
0
  6
Continuous
 62
     8
370
    18
100
AcDbSpline
210
0.0
220
0.0
230
1.0
 70
     8
 71
     3
 72
    36
 73
    32
 74
     0
 42
0.000000001
 43
0.00000001
 40
0.0
 40
0.0
 40
0.0
 40
0.0
 40
0.1250000000000032
 40
0.1250000000000032
 40
0.2500000000000065
 40
0.2500000000000065
 40
0.3125000000000078
 40
0.3125000000000078
 40
0.3750000000000092
 40
0.3750000000000092
 40
0.4375000000000103
 40
0.4375000000000103
 40
0.5000000000000114
 40
0.5000000000000114
 40
0.5312500000000122
 40
0.5312500000000122
 40
0.5625000000000131
 40
0.5625000000000131
 40
0.6250000000000114
 40
0.6250000000000114
 40
0.6875000000000099
 40
0.6875000000000099
 40
0.7500000000000082
 40
0.7500000000000082
 40
0.8750000000000052
 40
0.8750000000000052
 40
0.9375000000000026
 40
0.9375000000000026
 40
0.9687500000000013
 40
0.9687500000000013
 40
1.0
 40
1.0
 40
1.0
 40
1.0
 10
182.4444804732464
 20
81.61974250412304
 30
0.0
 10
183.2723918117103
 20
81.63485097370662
 30
0.0
 10
184.1029883707731
 20
81.65282606764862
 30
0.0
 10
185.7594632795432
 20
81.71201582890488
 30
0.0
 10
186.586993834114
 20
81.7506583519391
 30
0.0
 10
187.8200556571161
 20
81.91487459098457
 30
0.0
 10
188.2296697421681
 20
81.98776347461909
 30
0.0
 10
189.0446798663253
 20
82.1879724846051
 30
0.0
 10
189.4433936028281
 20
82.31403481183708
 30
0.0
 10
190.2134414955211
 20
82.6281890780214
 30
0.0
 10
190.5870539510318
 20
82.81669631124825
 30
0.0
 10
191.2994492527361
 20
83.26265468205457
 30
0.0
 10
191.6297031542983
 20
83.5145760707002
 30
0.0
 10
192.0838929339155
 20
83.9384289172001
 30
0.0
 10
192.2283967807926
 20
84.08740569894618
 30
0.0
 10
192.5032947463591
 20
84.40110796384232
 30
0.0
 10
192.6343844391757
 20
84.56683794415702
 30
0.0
 10
193.000082507239
 20
85.07918038586976
 30
0.0
 10
193.2077424469478
 20
85.44008038143866
 30
0.0
 10
193.557675179563
 20
86.19687245985449
 30
0.0
 10
193.6998721031781
 20
86.59631246189647
 30
0.0
 10
193.913903231721
 20
87.40186873264663
 30
0.0
 10
193.9882398003198
 20
87.81009481555957
 30
0.0
 10
194.1513719249876
 20
89.04476080136611
 30
0.0
 10
194.181785472675
 20
89.88150709590884
 30
0.0
 10
194.2168798063463
 20
91.13318341578596
 30
0.0
 10
194.2261505819719
 20
91.55047371781112
 30
0.0
 10
194.2387487170364
 20
92.17644495550306
 30
0.0
 10
194.2426810123511
 20
92.38510926192404
 30
0.0
 10
194.2501209664384
 20
92.80244926022752
 30
0.0
 10
194.2536544510782
 20
93.01281847640631
 30
0.0
 10
194.2569796851002
 20
93.21980428380553
 30
0.0
  0
LWPOLYLINE
  5
1D1
330
1F
100
AcDbEntity
  8
0
  6
Continuous
 62
     8
370
    18
100
AcDbPolyline
 90
        4
 70
   128
 43
0.0
 10
194.4655721386
 20
107.0067719725
 10
194.6367138376
 20
119.0067366865
 10
194.8075444748
 20
131.00669395
 10
194.824729239
 20
132.2157741693
  0
SPLINE
  5
1D2
330
1F
100
AcDbEntity
  8
0
  6
Continuous
 62
     8
370
    18
100
AcDbSpline
210
0.0
220
0.0
230
1.0
 70
     8
 71
     3
 72
    12
 73
     8
 74
     0
 42
0.000000001
 43
0.00000001
 40
0.0
 40
0.0
 40
0.0
 40
0.0
 40
0.25
 40
0.25
 40
0.5
 40
0.5
 40
1.0
 40
1.0
 40
1.0
 40
1.0
 10
194.2565007861955
 20
93.2199531714925
 30
0.0
 10
194.2750431048389
 20
94.36881841463257
 30
0.0
 10
194.2895839829994
 20
95.51774426422266
 30
0.0
 10
194.3237349048881
 20
97.81551919180285
 30
0.0
 10
194.3427686429347
 20
98.96437695276431
 30
0.0
 10
194.3987409398256
 20
102.4109673248077
 30
0.0
 10
194.4327549977137
 20
104.7087443227912
 30
0.0
 10
194.4655695088128
 20
107.0065395216433
 30
0.0
  0
SPLINE
  5
1D3
330
1F
100
AcDbEntity
  8
0
  6
Continuous
 62
     8
370
    18
100
AcDbSpline
210
0.0
220
0.0
230
1.0
 70
     8
 71
     3
 72
    12
 73
     8
 74
     0
 42
0.000000001
 43
0.00000001
 40
0.0
 40
0.0
 40
0.0
 40
0.0
 40
0.5
 40
0.5
 40
0.75
 40
0.75
 40
1.0
 40
1.0
 40
1.0
 40
1.0
 10
153.6021539541868
 20
107.0065395216435
 30
0.0
 10
153.6349684652859
 20
104.7087443227914
 30
0.0
 10
153.6689825231739
 20
102.4109673248079
 30
0.0
 10
153.7249548200649
 20
98.96437695276448
 30
0.0
 10
153.7439885581114
 20
97.81551919180299
 30
0.0
 10
153.7781394800001
 20
95.51774426422281
 30
0.0
 10
153.7926803581607
 20
94.36881841463268
 30
0.0
 10
153.8112226768041
 20
93.21995317149262
 30
0.0
  0
LINE
  5
1D4
330
1F
100
AcDbEntity
  8
0
  6
Continuous
 62
     8
370
    18
100
AcDbLine
 10
153.2441788664
 20
132.1705938485
 30
0.0
 11
153.6021513244
 21
107.0067719725
 31
0.0
  0
SPLINE
  5
1D5
330
1F
100
AcDbEntity
  8
0
  6
Continuous
 62
     8
370
    18
100
AcDbSpline
210
0.0
220
0.0
230
1.0
 70
     8
 71
     3
 72
    10
 73
     6
 74
     0
 42
0.000000001
 43
0.00000001
 40
0.0
 40
0.0
 40
0.0
 40
0.0
 40
0.5
 40
0.5
 40
1.0
 40
1.0
 40
1.0
 40
1.0
 10
174.0338617314997
 20
81.56368403494682
 30
0.0
 10
175.4356960970091
 20
81.5636838276405
 30
0.0
 10
176.8375272817626
 20
81.56388432523478
 30
0.0
 10
179.6410828297363
 20
81.58000237346954
 30
0.0
 10
181.0429113027628
 20
81.59432611181467
 30
0.0
 10
182.4444804732462
 20
81.61979704147168
 30
0.0
  0
SPLINE
  5
1D6
330
1F
100
AcDbEntity
  8
0
  6
Continuous
 62
     8
370
    18
100
AcDbSpline
210
0.0
220
0.0
230
1.0
 70
     8
 71
     3
 72
    10
 73
     6
 74
     0
 42
0.000000001
 43
0.00000001
 40
0.0
 40
0.0
 40
0.0
 40
0.0
 40
0.5
 40
0.5
 40
1.0
 40
1.0
 40
1.0
 40
1.0
 10
165.6232429897532
 20
81.61979704147174
 30
0.0
 10
167.0248238266207
 20
81.59432589915843
 30
0.0
 10
168.4266002573799
 20
81.58000263995191
 30
0.0
 10
171.2302115300516
 20
81.563884202637
 30
0.0
 10
172.6320357064467
 20
81.56368382764195
 30
0.0
 10
174.0338617314997
 20
81.5636840349467
 30
0.0
  0
SPLINE
  5
1D7
330
1F
100
AcDbEntity
  8
0
  6
Continuous
 62
     8
370
    18
100
AcDbSpline
210
0.0
220
0.0
230
1.0
 70
     8
 71
     3
 72
    32
 73
    28
 74
     0
 42
0.000000001
 43
0.00000001
 40
0.0
 40
0.0
 40
0.0
 40
0.0
 40
0.1250000000000044
 40
0.1250000000000044
 40
0.2500000000000087
 40
0.2500000000000087
 40
0.3125000000000088
 40
0.3125000000000088
 40
0.3437500000000089
 40
0.3437500000000089
 40
0.3750000000000089
 40
0.3750000000000089
 40
0.4375000000000053
 40
0.4375000000000053
 40
0.4687500000000036
 40
0.4687500000000036
 40
0.5000000000000019
 40
0.5000000000000019
 40
0.5625000000000018
 40
0.5625000000000018
 40
0.6250000000000016
 40
0.6250000000000016
 40
0.750000000000001
 40
0.750000000000001
 40
0.8750000000000006
 40
0.8750000000000006
 40
1.0
 40
1.0
 40
1.0
 40
1.0
 10
153.8107437778993
 20
93.21980428380566
 30
0.0
 10
153.8241370004955
 20
92.38611623867419
 30
0.0
 10
153.839122807924
 20
91.55199460009058
 30
0.0
 10
153.8858199517936
 20
89.88494460907764
 30
0.0
 10
153.9156909632755
 20
89.04984917271192
 30
0.0
 10
154.0797794578818
 20
87.80781169795604
 30
0.0
 10
154.1545519299549
 20
87.39888860298173
 30
0.0
 10
154.3144029516517
 20
86.79759161894876
 30
0.0
 10
154.3757103628928
 20
86.59919290486116
 30
0.0
 10
154.5161571500855
 20
86.20691498007474
 30
0.0
 10
154.5956501318863
 20
86.01203759338478
 30
0.0
 10
154.8586167888817
 20
85.44245042768864
 30
0.0
 10
155.0652119322001
 20
85.08394820274931
 30
0.0
 10
155.4239557083756
 20
84.579331338095
 30
0.0
 10
155.5517424471835
 20
84.41669164028478
 30
0.0
 10
155.8246408377382
 20
84.10316346894905
 30
0.0
 10
155.9706752937545
 20
83.9514695423124
 30
0.0
 10
156.4292664053177
 20
83.52130142151908
 30
0.0
 10
156.7593122929521
 20
83.2694420758274
 30
0.0
 10
157.462190445765
 20
82.82713196837422
 30
0.0
 10
157.8387277225111
 20
82.63550932549707
 30
0.0
 10
158.9947222188525
 20
82.16103431714608
 30
0.0
 10
159.8034648825627
 20
81.97568319368848
 30
0.0
 10
161.4601728115149
 20
81.75179794249546
 30
0.0
 10
162.2921530802184
 20
81.7127263738568
 30
0.0
 10
163.9570350022889
 20
81.65296812369571
 30
0.0
 10
164.7895870571605
 20
81.63495580937136
 30
0.0
 10
165.6232429897531
 20
81.61974250412307
 30
0.0
  0
LWPOLYLINE
  5
1D8
330
1F
100
AcDbEntity
  8
0
  6
Continuous
 62
     8
370
    18
100
AcDbPolyline
 90
        8
 70
   128
 43
0.0
 10
174.0339514764
 20
80.2837372926
 10
174.0339515352
 20
80.2866877225
 10
174.0339517693
 20
80.3469033149
 10
174.0339520236
 20
80.4816694167
 10
174.0339522841
 20
80.6834460404
 10
174.0339525361
 20
80.9409977105
 10
174.0339527657
 20
81.2399746087
 10
174.03395296
 20
81.5636874345
  0
SPLINE
  5
1D9
330
1F
100
AcDbEntity
  8
0
  6
Continuous
 62
     8
370
    18
100
AcDbSpline
210
0.0
220
0.0
230
1.0
 70
     8
 71
     3
 72
    10
 73
     6
 74
     0
 42
0.000000001
 43
0.00000001
 40
0.0
 40
0.0
 40
0.0
 40
0.0
 40
0.4145256605343507
 40
0.8290454335588979
 40
1.0
 40
1.0
 40
1.0
 40
1.0
 10
151.3304469486184
 20
177.165447285465
 30
0.0
 10
151.3487713817124
 20
177.1657039730482
 30
0.0
 10
151.3854199876384
 20
177.1662173445687
 30
0.0
 10
151.6031919655583
 20
177.169286163074
 30
0.0
 10
151.8070951978148
 20
177.1721594642857
 30
0.0
 10
151.8666335692115
 20
177.1729984489
 30
0.0
  0
SPLINE
  5
1DA
330
1F
100
AcDbEntity
  8
0
  6
Continuous
 62
     8
370
    18
100
AcDbSpline
210
0.0
220
0.0
230
1.0
 70
     8
 71
     3
 72
    10
 73
     6
 74
     0
 42
0.000000001
 43
0.00000001
 40
0.0
 40
0.0
 40
0.0
 40
0.0
 40
0.4129221260650791
 40
0.825843356491428
 40
1.0
 40
1.0
 40
1.0
 40
1.0
 10
196.7372001459308
 20
177.1650710311449
 30
0.0
 10
196.7188995695616
 20
177.1653308327996
 30
0.0
 10
196.6822984565178
 20
177.1658504355455
 30
0.0
 10
196.4634269489781
 20
177.1689476091456
 30
0.0
 10
196.2580624592298
 20
177.1718418493561
 30
0.0
 10
196.1971410860725
 20
177.1727004256761
 30
0.0
  0
LINE
  5
1DB
330
1F
100
AcDbEntity
  8
0
  6
Continuous
 62
     8
370
    18
100
AcDbLine
 10
150.799719741
 20
213.7973839585
 30
0.0
 11
150.7994198551
 21
213.8164019148
 31
0.0
  0
LINE
  5
1DC
330
1F
100
AcDbEntity
  8
0
  6
Continuous
 62
     8
370
    18
100
AcDbLine
 10
197.2683036079
 20
213.8164019148
 30
0.0
 11
197.268003722
 21
213.7973838421
 31
0.0
  0
LWPOLYLINE
  5
1DD
330
1F
100
AcDbEntity
  8
0
  6
Continuous
 62
     8
370
    18
100
AcDbPolyline
 90
        3
 70
   128
 43
0.0
 10
197.268003722
 20
213.7973838421
 10
197.242004921
 20
213.7978305277
 10
197.2316467514
 20
213.7980007269
  0
ENDSEC
  0
SECTION
  2
OBJECTS
  0
DICTIONARY
  5
C
330
0
100
AcDbDictionary
281
     1
  3
ACAD_GROUP
350
D
  3
ACAD_LAYOUT
350
1A
  3
ACAD_MLINESTYLE
350
17
  3
ACAD_PLOTSETTINGS
350
19
  3
ACAD_PLOTSTYLENAME
350
E
  3
ACAD_SCALELIST
350
47
  0
DICTIONARY
  5
D
102
{ACAD_REACTORS
330
C
102
}
330
C
100
AcDbDictionary
281
     1
  0
DICTIONARY
  5
1A
102
{ACAD_REACTORS
330
C
102
}
330
C
100
AcDbDictionary
281
     1
  3
Layout1
350
1E
  3
Layout2
350
26
  3
Model
350
22
  0
DICTIONARY
  5
17
102
{ACAD_REACTORS
330
C
102
}
330
C
100
AcDbDictionary
281
     1
  3
Standard
350
18
  0
DICTIONARY
  5
19
102
{ACAD_REACTORS
330
C
102
}
330
C
100
AcDbDictionary
281
     1
  0
ACDBDICTIONARYWDFLT
  5
E
102
{ACAD_REACTORS
330
C
102
}
330
C
100
AcDbDictionary
281
     1
  3
Normal
350
F
100
AcDbDictionaryWithDefault
340
F
  0
DICTIONARY
  5
47
102
{ACAD_REACTORS
330
C
102
}
330
C
100
AcDbDictionary
281
     1
  3
A0
350
48
  3
A1
350
49
  3
A2
350
4A
  3
A3
350
4B
  3
A4
350
4C
  3
A5
350
4D
  3
A6
350
4E
  3
A7
350
4F
  3
A8
350
50
  3
A9
350
51
  3
B0
350
52
  3
B1
350
53
  3
B2
350
54
  3
B3
350
55
  3
B4
350
56
  3
B5
350
57
  3
B6
350
58
  3
B7
350
59
  3
B8
350
5A
  3
B9
350
5B
  3
C0
350
5C
  3
C1
350
5D
  3
C2
350
5E
  3
C3
350
5F
  3
C4
350
60
  3
C5
350
61
  3
C6
350
62
  3
C7
350
63
  3
C8
350
64
  3
C9
350
65
  3
D0
350
66
  3
D1
350
67
  3
D2
350
68
  0
LAYOUT
  5
1E
102
{ACAD_REACTORS
330
1A
102
}
330
1A
100
AcDbPlotSettings
  1

  2
none_device
  4

  6

 40
0.0
 41
0.0
 42
0.0
 43
0.0
 44
0.0
 45
0.0
 46
0.0
 47
0.0
 48
0.0
 49
0.0
140
0.0
141
0.0
142
1.0
143
1.0
 70
   688
 72
     1
 73
     0
 74
     5
  7

 75
    16
147
1.0
148
0.0
149
0.0
100
AcDbLayout
  1
Layout1
 70
     1
 71
     1
 10
0.0
 20
0.0
 11
420.0
 21
297.0
 12
0.0
 22
0.0
 32
0.0
 14
1.0000000000E+20
 24
1.0000000000E+20
 34
1.0000000000E+20
 15
-1.0000000000E+20
 25
-1.0000000000E+20
 35
-1.0000000000E+20
146
0.0
 13
0.0
 23
0.0
 33
0.0
 16
1.0
 26
0.0
 36
0.0
 17
0.0
 27
1.0
 37
0.0
 76
     0
330
1B
  0
LAYOUT
  5
26
102
{ACAD_REACTORS
330
1A
102
}
330
1A
100
AcDbPlotSettings
  1

  2
none_device
  4

  6

 40
0.0
 41
0.0
 42
0.0
 43
0.0
 44
0.0
 45
0.0
 46
0.0
 47
0.0
 48
0.0
 49
0.0
140
0.0
141
0.0
142
1.0
143
1.0
 70
   688
 72
     1
 73
     0
 74
     5
  7

 75
    16
147
1.0
148
0.0
149
0.0
100
AcDbLayout
  1
Layout2
 70
     1
 71
     2
 10
0.0
 20
0.0
 11
0.0
 21
0.0
 12
0.0
 22
0.0
 32
0.0
 14
0.0
 24
0.0
 34
0.0
 15
0.0
 25
0.0
 35
0.0
146
0.0
 13
0.0
 23
0.0
 33
0.0
 16
1.0
 26
0.0
 36
0.0
 17
0.0
 27
1.0
 37
0.0
 76
     0
330
23
  0
LAYOUT
  5
22
102
{ACAD_REACTORS
330
1A
102
}
330
1A
100
AcDbPlotSettings
  1

  2
none_device
  4
Letter_(8.50_x_11.00_Inches)
  6

 40
6.35
 41
6.35
 42
6.35000508
 43
6.35000508
 44
215.9
 45
279.4
 46
0.0
 47
0.0
 48
0.0
 49
0.0
140
0.0
141
0.0
142
1.0
143
1.0
 70
  1712
 72
     1
 73
     0
 74
     0
  7

 75
     0
147
1.0
148
0.0
149
0.0
100
AcDbLayout
  1
Model
 70
     1
 71
     0
 10
0.0
 20
0.0
 11
594.0
 21
841.0
 12
0.0
 22
0.0
 32
0.0
 14
0.0
 24
0.0
 34
0.0
 15
594.0
 25
841.0
 35
0.0
146
0.0
 13
0.0
 23
0.0
 33
0.0
 16
1.0
 26
0.0
 36
0.0
 17
0.0
 27
1.0
 37
0.0
 76
     0
330
1F
331
29
  0
MLINESTYLE
  5
18
102
{ACAD_REACTORS
330
17
102
}
330
17
100
AcDbMlineStyle
  2
Standard
 70
     0
  3

 62
   256
 51
90.0
 52
90.0
 71
     2
 49
0.5
 62
   256
  6
BYLAYER
 49
-0.5
 62
   256
  6
BYLAYER
  0
ACDBPLACEHOLDER
  5
F
102
{ACAD_REACTORS
330
E
102
}
330
E
  0
SCALE
  5
48
102
{ACAD_REACTORS
330
47
102
}
330
47
100
AcDbScale
 70
     0
300
1:1
140
1.0
141
1.0
290
     1
  0
SCALE
  5
49
102
{ACAD_REACTORS
330
47
102
}
330
47
100
AcDbScale
 70
     0
300
1:2
140
1.0
141
2.0
290
     0
  0
SCALE
  5
4A
102
{ACAD_REACTORS
330
47
102
}
330
47
100
AcDbScale
 70
     0
300
1:4
140
1.0
141
4.0
290
     0
  0
SCALE
  5
4B
102
{ACAD_REACTORS
330
47
102
}
330
47
100
AcDbScale
 70
     0
300
1:5
140
1.0
141
5.0
290
     0
  0
SCALE
  5
4C
102
{ACAD_REACTORS
330
47
102
}
330
47
100
AcDbScale
 70
     0
300
1:8
140
1.0
141
8.0
290
     0
  0
SCALE
  5
4D
102
{ACAD_REACTORS
330
47
102
}
330
47
100
AcDbScale
 70
     0
300
1:10
140
1.0
141
10.0
290
     0
  0
SCALE
  5
4E
102
{ACAD_REACTORS
330
47
102
}
330
47
100
AcDbScale
 70
     0
300
1:16
140
1.0
141
16.0
290
     0
  0
SCALE
  5
4F
102
{ACAD_REACTORS
330
47
102
}
330
47
100
AcDbScale
 70
     0
300
1:20
140
1.0
141
20.0
290
     0
  0
SCALE
  5
50
102
{ACAD_REACTORS
330
47
102
}
330
47
100
AcDbScale
 70
     0
300
1:30
140
1.0
141
30.0
290
     0
  0
SCALE
  5
51
102
{ACAD_REACTORS
330
47
102
}
330
47
100
AcDbScale
 70
     0
300
1:40
140
1.0
141
40.0
290
     0
  0
SCALE
  5
52
102
{ACAD_REACTORS
330
47
102
}
330
47
100
AcDbScale
 70
     0
300
1:50
140
1.0
141
50.0
290
     0
  0
SCALE
  5
53
102
{ACAD_REACTORS
330
47
102
}
330
47
100
AcDbScale
 70
     0
300
1:100
140
1.0
141
100.0
290
     0
  0
SCALE
  5
54
102
{ACAD_REACTORS
330
47
102
}
330
47
100
AcDbScale
 70
     0
300
2:1
140
2.0
141
1.0
290
     0
  0
SCALE
  5
55
102
{ACAD_REACTORS
330
47
102
}
330
47
100
AcDbScale
 70
     0
300
4:1
140
4.0
141
1.0
290
     0
  0
SCALE
  5
56
102
{ACAD_REACTORS
330
47
102
}
330
47
100
AcDbScale
 70
     0
300
8:1
140
8.0
141
1.0
290
     0
  0
SCALE
  5
57
102
{ACAD_REACTORS
330
47
102
}
330
47
100
AcDbScale
 70
     0
300
10:1
140
10.0
141
1.0
290
     0
  0
SCALE
  5
58
102
{ACAD_REACTORS
330
47
102
}
330
47
100
AcDbScale
 70
     0
300
100:1
140
100.0
141
1.0
290
     0
  0
SCALE
  5
59
102
{ACAD_REACTORS
330
47
102
}
330
47
100
AcDbScale
 70
     0
300
1/128" = 1'-0"
140
0.0078125
141
12.0
290
     0
  0
SCALE
  5
5A
102
{ACAD_REACTORS
330
47
102
}
330
47
100
AcDbScale
 70
     0
300
1/64" = 1'-0"
140
0.015625
141
12.0
290
     0
  0
SCALE
  5
5B
102
{ACAD_REACTORS
330
47
102
}
330
47
100
AcDbScale
 70
     0
300
1/32" = 1'-0"
140
0.03125
141
12.0
290
     0
  0
SCALE
  5
5C
102
{ACAD_REACTORS
330
47
102
}
330
47
100
AcDbScale
 70
     0
300
1/16" = 1'-0"
140
0.0625
141
12.0
290
     0
  0
SCALE
  5
5D
102
{ACAD_REACTORS
330
47
102
}
330
47
100
AcDbScale
 70
     0
300
3/32" = 1'-0"
140
0.09375
141
12.0
290
     0
  0
SCALE
  5
5E
102
{ACAD_REACTORS
330
47
102
}
330
47
100
AcDbScale
 70
     0
300
1/8" = 1'-0"
140
0.125
141
12.0
290
     0
  0
SCALE
  5
5F
102
{ACAD_REACTORS
330
47
102
}
330
47
100
AcDbScale
 70
     0
300
3/16" = 1'-0"
140
0.1875
141
12.0
290
     0
  0
SCALE
  5
60
102
{ACAD_REACTORS
330
47
102
}
330
47
100
AcDbScale
 70
     0
300
1/4" = 1'-0"
140
0.25
141
12.0
290
     0
  0
SCALE
  5
61
102
{ACAD_REACTORS
330
47
102
}
330
47
100
AcDbScale
 70
     0
300
3/8" = 1'-0"
140
0.375
141
12.0
290
     0
  0
SCALE
  5
62
102
{ACAD_REACTORS
330
47
102
}
330
47
100
AcDbScale
 70
     0
300
1/2" = 1'-0"
140
0.5
141
12.0
290
     0
  0
SCALE
  5
63
102
{ACAD_REACTORS
330
47
102
}
330
47
100
AcDbScale
 70
     0
300
3/4" = 1'-0"
140
0.75
141
12.0
290
     0
  0
SCALE
  5
64
102
{ACAD_REACTORS
330
47
102
}
330
47
100
AcDbScale
 70
     0
300
1" = 1'-0"
140
1.0
141
12.0
290
     0
  0
SCALE
  5
65
102
{ACAD_REACTORS
330
47
102
}
330
47
100
AcDbScale
 70
     0
300
1-1/2" = 1'-0"
140
1.5
141
12.0
290
     0
  0
SCALE
  5
66
102
{ACAD_REACTORS
330
47
102
}
330
47
100
AcDbScale
 70
     0
300
3" = 1'-0"
140
3.0
141
12.0
290
     0
  0
SCALE
  5
67
102
{ACAD_REACTORS
330
47
102
}
330
47
100
AcDbScale
 70
     0
300
6" = 1'-0"
140
6.0
141
12.0
290
     0
  0
SCALE
  5
68
102
{ACAD_REACTORS
330
47
102
}
330
47
100
AcDbScale
 70
     0
300
1'-0" = 1'-0"
140
12.0
141
12.0
290
     0
  0
ENDSEC
  0
EOF
