  0
SECTION
  2
HEADER
  9
$ACADVER
  1
AC1015
  9
$ACADMAINTVER
 70
     6
  9
$DWGCODEPAGE
  3
ANSI_1252
  9
$INSBASE
 10
0.0
 20
0.0
 30
0.0
  9
$EXTMIN
 10
0.0
 20
0.0
 30
0.0
  9
$EXTMAX
 10
594.0
 20
841.0
 30
0.0
  9
$LIMMIN
 10
0.0
 20
0.0
  9
$LIMMAX
 10
594.0
 20
841.0
  9
$ORTHOMODE
 70
     0
  9
$REGENMODE
 70
     1
  9
$FILLMODE
 70
     1
  9
$QTEXTMODE
 70
     0
  9
$MIRRTEXT
 70
     1
  9
$LTSCALE
 40
1.0
  9
$ATTMODE
 70
     1
  9
$TEXTSIZE
 40
10.0
  9
$TRACEWID
 40
1.0
  9
$TEXTSTYLE
  7
Standard
  9
$CLAYER
  8
0
  9
$CELTYPE
  6
ByLayer
  9
$CECOLOR
 62
   256
  9
$CELTSCALE
 40
1.0
  9
$DISPSILH
 70
     0
  9
$DIMSCALE
 40
1.0
  9
$DIMASZ
 40
2.5
  9
$DIMEXO
 40
0.0
  9
$DIMDLI
 40
3.75
  9
$DIMRND
 40
0.0
  9
$DIMDLE
 40
0.0
  9
$DIMEXE
 40
1.0
  9
$DIMTP
 40
0.0
  9
$DIMTM
 40
0.0
  9
$DIMTXT
 40
3.5
  9
$DIMCEN
 40
2.5
  9
$DIMTSZ
 40
0.0
  9
$DIMTOL
 70
     0
  9
$DIMLIM
 70
     0
  9
$DIMTIH
 70
     1
  9
$DIMTOH
 70
     1
  9
$DIMSE1
 70
     0
  9
$DIMSE2
 70
     0
  9
$DIMTAD
 70
     1
  9
$DIMZIN
 70
     0
  9
$DIMBLK
  1

  9
$DIMASO
 70
     1
  9
$DIMSHO
 70
     1
  9
$DIMPOST
  1

  9
$DIMAPOST
  1

  9
$DIMALT
 70
     0
  9
$DIMALTD
 70
     3
  9
$DIMALTF
 40
0.0393700787
  9
$DIMLFAC
 40
1.0
  9
$DIMTOFL
 70
     1
  9
$DIMTVP
 40
0.0
  9
$DIMTIX
 70
     0
  9
$DIMSOXD
 70
     0
  9
$DIMSAH
 70
     0
  9
$DIMBLK1
  1

  9
$DIMBLK2
  1

  9
$DIMSTYLE
  2
ISO-25
  9
$DIMCLRD
 70
     0
  9
$DIMCLRE
 70
     0
  9
$DIMCLRT
 70
     0
  9
$DIMTFAC
 40
1.0
  9
$DIMGAP
 40
1.5
  9
$DIMJUST
 70
     0
  9
$DIMSD1
 70
     0
  9
$DIMSD2
 70
     0
  9
$DIMTOLJ
 70
     0
  9
$DIMTZIN
 70
     0
  9
$DIMALTZ
 70
     0
  9
$DIMALTTZ
 70
     0
  9
$DIMUPT
 70
     0
  9
$DIMDEC
 70
     2
  9
$DIMTDEC
 70
     2
  9
$DIMALTU
 70
     2
  9
$DIMALTTD
 70
     3
  9
$DIMTXSTY
  7
Standard
  9
$DIMAUNIT
 70
     0
  9
$DIMADEC
 70
     2
  9
$DIMALTRND
 40
0.0
  9
$DIMAZIN
 70
     0
  9
$DIMDSEP
 70
    44
  9
$DIMATFIT
 70
     3
  9
$DIMFRAC
 70
     0
  9
$DIMLDRBLK
  1

  9
$DIMLUNIT
 70
     2
  9
$DIMLWD
 70
    -2
  9
$DIMLWE
 70
    -2
  9
$DIMTMOVE
 70
     0
  9
$LUNITS
 70
     2
  9
$LUPREC
 70
     2
  9
$SKETCHINC
 40
1.0
  9
$FILLETRAD
 40
0.0
  9
$AUNITS
 70
     0
  9
$AUPREC
 70
     2
  9
$MENU
  1
.
  9
$ELEVATION
 40
0.0
  9
$PELEVATION
 40
0.0
  9
$THICKNESS
 40
0.0
  9
$LIMCHECK
 70
     0
  9
$CHAMFERA
 40
0.0
  9
$CHAMFERB
 40
0.0
  9
$CHAMFERC
 40
0.0
  9
$CHAMFERD
 40
0.0
  9
$SKPOLY
 70
     0
  9
$TDCREATE
 40
2460384.417046597
  9
$TDUCREATE
 40
2460384.375379931
  9
$TDUPDATE
 40
2460384.4170475
  9
$TDUUPDATE
 40
2460384.375380833
  9
$TDINDWG
 40
0.0000000116
  9
$TDUSRTIMER
 40
0.0000000116
  9
$USRTIMER
 70
     1
  9
$ANGBASE
 50
0.0
  9
$ANGDIR
 70
     0
  9
$PDMODE
 70
     0
  9
$PDSIZE
 40
-1.0
  9
$PLINEWID
 40
0.0
  9
$SPLFRAME
 70
     0
  9
$SPLINETYPE
 70
     6
  9
$SPLINESEGS
 70
     8
  9
$HANDSEED
  5
176
  9
$SURFTAB1
 70
     6
  9
$SURFTAB2
 70
     6
  9
$SURFTYPE
 70
     6
  9
$SURFU
 70
     6
  9
$SURFV
 70
     6
  9
$UCSBASE
  2

  9
$UCSNAME
  2

  9
$UCSORG
 10
0.0
 20
0.0
 30
0.0
  9
$UCSXDIR
 10
1.0
 20
0.0
 30
0.0
  9
$UCSYDIR
 10
0.0
 20
1.0
 30
0.0
  9
$UCSORTHOREF
  2

  9
$UCSORTHOVIEW
 70
     0
  9
$UCSORGTOP
 10
0.0
 20
0.0
 30
0.0
  9
$UCSORGBOTTOM
 10
0.0
 20
0.0
 30
0.0
  9
$UCSORGLEFT
 10
0.0
 20
0.0
 30
0.0
  9
$UCSORGRIGHT
 10
0.0
 20
0.0
 30
0.0
  9
$UCSORGFRONT
 10
0.0
 20
0.0
 30
0.0
  9
$UCSORGBACK
 10
0.0
 20
0.0
 30
0.0
  9
$PUCSBASE
  2

  9
$PUCSNAME
  2

  9
$PUCSORG
 10
0.0
 20
0.0
 30
0.0
  9
$PUCSXDIR
 10
1.0
 20
0.0
 30
0.0
  9
$PUCSYDIR
 10
0.0
 20
1.0
 30
0.0
  9
$PUCSORTHOREF
  2

  9
$PUCSORTHOVIEW
 70
     0
  9
$PUCSORGTOP
 10
0.0
 20
0.0
 30
0.0
  9
$PUCSORGBOTTOM
 10
0.0
 20
0.0
 30
0.0
  9
$PUCSORGLEFT
 10
0.0
 20
0.0
 30
0.0
  9
$PUCSORGRIGHT
 10
0.0
 20
0.0
 30
0.0
  9
$PUCSORGFRONT
 10
0.0
 20
0.0
 30
0.0
  9
$PUCSORGBACK
 10
0.0
 20
0.0
 30
0.0
  9
$USERI1
 70
     0
  9
$USERI2
 70
     0
  9
$USERI3
 70
     0
  9
$USERI4
 70
     0
  9
$USERI5
 70
     0
  9
$USERR1
 40
0.0
  9
$USERR2
 40
0.0
  9
$USERR3
 40
0.0
  9
$USERR4
 40
0.0
  9
$USERR5
 40
0.0
  9
$WORLDVIEW
 70
     1
  9
$SHADEDGE
 70
     3
  9
$SHADEDIF
 70
    70
  9
$TILEMODE
 70
     1
  9
$MAXACTVP
 70
    64
  9
$PINSBASE
 10
0.0
 20
0.0
 30
0.0
  9
$PLIMCHECK
 70
     0
  9
$PEXTMIN
 10
1.0000000000E+20
 20
1.0000000000E+20
 30
1.0000000000E+20
  9
$PEXTMAX
 10
-1.0000000000E+20
 20
-1.0000000000E+20
 30
-1.0000000000E+20
  9
$PLIMMIN
 10
0.0
 20
0.0
  9
$PLIMMAX
 10
420.0
 20
297.0
  9
$UNITMODE
 70
     0
  9
$VISRETAIN
 70
     1
  9
$PLINEGEN
 70
     0
  9
$PSLTSCALE
 70
     1
  9
$TREEDEPTH
 70
  3020
  9
$CMLSTYLE
  2
Standard
  9
$CMLJUST
 70
     0
  9
$CMLSCALE
 40
20.0
  9
$PROXYGRAPHICS
 70
     1
  9
$MEASUREMENT
 70
     1
  9
$CELWEIGHT
370
    -1
  9
$ENDCAPS
280
     0
  9
$JOINSTYLE
280
     0
  9
$LWDISPLAY
290
     1
  9
$INSUNITS
 70
     4
  9
$HYPERLINKBASE
  1

  9
$STYLESHEET
  1

  9
$XEDIT
290
     1
  9
$CEPSNTYPE
380
     0
  9
$PSTYLEMODE
290
     1
  9
$FINGERPRINTGUID
  2
{3a181a6f-ab95-4154-8e62-80993c0d10a5}
  9
$VERSIONGUID
  2
{FAEB1C32-E019-11D5-929B-00C0DF256EC4}
  9
$EXTNAMES
290
     1
  9
$PSVPSCALE
 40
0.0
  9
$OLESTARTUP
290
     0
  0
ENDSEC
  0
SECTION
  2
CLASSES
  0
CLASS
  1
ACDBDICTIONARYWDFLT
  2
AcDbDictionaryWithDefault
  3
ObjectDBX Classes
 90
        0
280
     0
281
     0
  0
CLASS
  1
VISUALSTYLE
  2
AcDbVisualStyle
  3
ObjectDBX Classes
 90
     4095
280
     0
281
     0
  0
CLASS
  1
MATERIAL
  2
AcDbMaterial
  3
ObjectDBX Classes
 90
     1153
280
     0
281
     0
  0
CLASS
  1
SCALE
  2
AcDbScale
  3
ObjectDBX Classes
 90
     1153
280
     0
281
     0
  0
CLASS
  1
TABLESTYLE
  2
AcDbTableStyle
  3
ObjectDBX Classes
 90
     4095
280
     0
281
     0
  0
CLASS
  1
MLEADERSTYLE
  2
AcDbMLeaderStyle
  3
ACDB_MLEADERSTYLE_CLASS
 90
     4095
280
     0
281
     0
  0
CLASS
  1
SUN
  2
AcDbSun
  3
SCENEOE
 90
     1153
280
     0
281
     0
  0
CLASS
  1
ACDBPLACEHOLDER
  2
AcDbPlaceHolder
  3
ObjectDBX Classes
 90
        0
280
     0
281
     0
  0
CLASS
  1
LAYOUT
  2
AcDbLayout
  3
ObjectDBX Classes
 90
        0
280
     0
281
     0
  0
ENDSEC
  0
SECTION
  2
TABLES
  0
TABLE
  2
VPORT
  5
8
330
0
100
AcDbSymbolTable
 70
     1
  0
VPORT
  5
29
330
8
100
AcDbSymbolTableRecord
100
AcDbViewportTableRecord
  2
*Active
 70
     0
 10
0.0
 20
0.0
 11
1.0
 21
1.0
 12
297.0
 22
420.5
 13
0.0
 23
0.0
 14
10.0
 24
10.0
 15
10.0
 25
10.0
 16
0.0
 26
0.0
 36
1.0
 17
0.0
 27
0.0
 37
0.0
 40
841.0
 41
0.7063020214
 42
50.0
 43
0.0
 44
0.0
 50
0.0
 51
0.0
 71
     0
 72
  2000
 73
     1
 74
     3
 75
     0
 76
     0
 77
     0
 78
     0
281
     0
 65
     1
110
0.0
120
0.0
130
0.0
111
1.0
121
0.0
131
0.0
112
0.0
122
1.0
132
0.0
 79
     0
146
0.0
  0
ENDTAB
  0
TABLE
  2
LTYPE
  5
5
330
0
100
AcDbSymbolTable
 70
     6
  0
LTYPE
  5
14
330
5
100
AcDbSymbolTableRecord
100
AcDbLinetypeTableRecord
  2
ByBlock
 70
     0
  3

 72
    65
 73
     0
 40
0.0
  0
LTYPE
  5
15
330
5
100
AcDbSymbolTableRecord
100
AcDbLinetypeTableRecord
  2
ByLayer
 70
     0
  3

 72
    65
 73
     0
 40
0.0
  0
LTYPE
  5
16
330
5
100
AcDbSymbolTableRecord
100
AcDbLinetypeTableRecord
  2
Continuous
 70
     0
  3
Solid line
 72
    65
 73
     0
 40
0.0
  0
LTYPE
  5
5E
330
5
100
AcDbSymbolTableRecord
100
AcDbLinetypeTableRecord
  2
HIDDEN
 70
     0
  3
Hidden __ __ __ __ __ __ __ __ __ __ __ __ __ __
 72
    65
 73
     2
 40
1.905
 49
1.27
 74
     0
 49
-0.635
 74
     0
  0
LTYPE
  5
5F
330
5
100
AcDbSymbolTableRecord
100
AcDbLinetypeTableRecord
  2
PHANTOM
 70
     0
  3
Phantom ______  __  __  ______  __  __  ______
 72
    65
 73
     6
 40
12.7
 49
6.35
 74
     0
 49
-1.27
 74
     0
 49
1.27
 74
     0
 49
-1.27
 74
     0
 49
1.27
 74
     0
 49
-1.27
 74
     0
  0
LTYPE
  5
60
330
5
100
AcDbSymbolTableRecord
100
AcDbLinetypeTableRecord
  2
CENTER
 70
     0
  3
Center ____ _ ____ _ ____ _ ____ _ ____ _ ____
 72
    65
 73
     4
 40
10.16
 49
6.35
 74
     0
 49
-1.27
 74
     0
 49
1.27
 74
     0
 49
-1.27
 74
     0
  0
LTYPE
  5
61
330
5
100
AcDbSymbolTableRecord
100
AcDbLinetypeTableRecord
  2
CENTERX2
 70
     0
  3
Center (2x) ________  __  ________  __  _____
 72
    65
 73
     4
 40
20.32
 49
12.7
 74
     0
 49
-2.54
 74
     0
 49
2.54
 74
     0
 49
-2.54
 74
     0
  0
LTYPE
  5
62
330
5
100
AcDbSymbolTableRecord
100
AcDbLinetypeTableRecord
  2
DOT2
 70
     0
  3
Dot (.5x) ........................................
 72
    65
 73
     2
 40
0.635
 49
0.0
 74
     0
 49
-0.635
 74
     0
  0
ENDTAB
  0
TABLE
  2
LAYER
  5
2
330
0
100
AcDbSymbolTable
 70
     1
  0
LAYER
  5
10
330
2
100
AcDbSymbolTableRecord
100
AcDbLayerTableRecord
  2
0
 70
     0
 62
     7
  6
Continuous
370
    -3
390
F
  0
ENDTAB
  0
TABLE
  2
STYLE
  5
3
330
0
100
AcDbSymbolTable
 70
     3
  0
STYLE
  5
11
330
3
100
AcDbSymbolTableRecord
100
AcDbTextStyleTableRecord
  2
Standard
 70
     0
 40
0.0
 41
1.0
 50
0.0
 71
     0
 42
10.0
  3
txt
  4

  0
STYLE
  5
66
330
3
100
AcDbSymbolTableRecord
100
AcDbTextStyleTableRecord
  2
SLDTEXTSTYLE0
 70
     0
 40
0.0
 41
0.96
 50
0.0
 71
     0
 42
10.0
  3
ISOCP3
  4

  0
STYLE
  5
7D
330
3
100
AcDbSymbolTableRecord
100
AcDbTextStyleTableRecord
  2
SLDTEXTSTYLE1
 70
     0
 40
0.0
 41
0.605
 50
0.0
 71
     0
 42
10.0
  3
TXT
  4

  0
ENDTAB
  0
TABLE
  2
VIEW
  5
6
330
0
100
AcDbSymbolTable
 70
     0
  0
ENDTAB
  0
TABLE
  2
UCS
  5
7
330
0
100
AcDbSymbolTable
 70
     0
  0
ENDTAB
  0
TABLE
  2
APPID
  5
9
330
0
100
AcDbSymbolTable
 70
     1
  0
APPID
  5
12
330
9
100
AcDbSymbolTableRecord
100
AcDbRegAppTableRecord
  2
ACAD
 70
     0
  0
ENDTAB
  0
TABLE
  2
DIMSTYLE
  5
A
330
0
100
AcDbSymbolTable
 70
     2
100
AcDbDimStyleTable
  0
DIMSTYLE
105
27
330
A
100
AcDbSymbolTableRecord
100
AcDbDimStyleTableRecord
  2
ISO-25
 70
     0
 41
2.5
 42
0.625
 43
3.75
 44
1.25
 73
     0
 74
     0
 77
     1
 78
     8
140
2.5
141
2.5
143
0.0393700787
147
0.625
171
     3
172
     1
178
     0
271
     2
272
     2
274
     3
278
    44
283
     0
284
     8
340
11
  0
DIMSTYLE
105
67
102
{ACAD_REACTORS
330
65
330
72
102
}
330
A
100
AcDbSymbolTableRecord
100
AcDbDimStyleTableRecord
  2
SLDDIMSTYLE0
 70
     0
 41
2.5
 44
0.0
 45
0.000000001
 73
     0
 74
     0
 77
     1
 78
    12
 79
     3
140
6.0
147
1.5
173
     1
178
     0
271
     2
272
     2
276
     2
284
    12
340
66
  0
ENDTAB
  0
TABLE
  2
BLOCK_RECORD
  5
1
330
0
100
AcDbSymbolTable
 70
     3
  0
BLOCK_RECORD
  5
1F
330
1
100
AcDbSymbolTableRecord
100
AcDbBlockTableRecord
  2
*Model_Space
340
22
  0
BLOCK_RECORD
  5
1B
330
1
100
AcDbSymbolTableRecord
100
AcDbBlockTableRecord
  2
*Paper_Space
340
1E
  0
BLOCK_RECORD
  5
23
330
1
100
AcDbSymbolTableRecord
100
AcDbBlockTableRecord
  2
*Paper_Space0
340
26
  0
BLOCK_RECORD
  5
68
330
1
100
AcDbSymbolTableRecord
100
AcDbBlockTableRecord
  2
_D
340
0
  0
BLOCK_RECORD
  5
73
330
1
100
AcDbSymbolTableRecord
100
AcDbBlockTableRecord
  2
_D_1
340
0
  0
ENDTAB
  0
ENDSEC
  0
SECTION
  2
BLOCKS
  0
BLOCK
  5
20
330
1F
100
AcDbEntity
  8
0
100
AcDbBlockBegin
  2
*Model_Space
 70
     0
 10
0.0
 20
0.0
 30
0.0
  3
*Model_Space
  1

  0
ENDBLK
  5
21
330
1F
100
AcDbEntity
  8
0
100
AcDbBlockEnd
  0
BLOCK
  5
1C
330
1B
100
AcDbEntity
 67
     1
  8
0
100
AcDbBlockBegin
  2
*Paper_Space
 70
     0
 10
0.0
 20
0.0
 30
0.0
  3
*Paper_Space
  1

  0
ENDBLK
  5
1D
330
1B
100
AcDbEntity
 67
     1
  8
0
100
AcDbBlockEnd
  0
BLOCK
  5
24
330
23
100
AcDbEntity
  8
0
100
AcDbBlockBegin
  2
*Paper_Space0
 70
     0
 10
0.0
 20
0.0
 30
0.0
  3
*Paper_Space0
  1

  0
ENDBLK
  5
25
330
23
100
AcDbEntity
  8
0
100
AcDbBlockEnd
  0
BLOCK
  5
69
330
68
100
AcDbEntity
  8
0
100
AcDbBlockBegin
  2
_D
 70
     0
 10
0.0
 20
0.0
 30
0.0
  3
_D
  1

  0
SOLID
  5
6B
330
68
100
AcDbEntity
  8
0
  6
Continuous
 62
     7
370
    18
100
AcDbTrace
 10
42.7614395004
 20
152.0299240879
 30
0.0
 11
42.4614395004
 21
149.5299240879
 31
0.0
 12
43.0614395004
 22
149.5299240879
 32
0.0
 13
43.0614395004
 23
149.5299240879
 33
0.0
  0
SOLID
  5
6C
330
68
100
AcDbEntity
  8
0
  6
Continuous
 62
     7
370
    18
100
AcDbTrace
 10
42.7614395004
 20
52.0299240879
 30
0.0
 11
43.0614395004
 21
54.5299240879
 31
0.0
 12
42.4614395004
 22
54.5299240879
 32
0.0
 13
42.4614395004
 23
54.5299240879
 33
0.0
  0
LINE
  5
6D
330
68
100
AcDbEntity
  8
0
  6
Continuous
 62
     7
370
     0
100
AcDbLine
 10
56.6850079902
 20
152.0299240879
 30
0.0
 11
41.7614395004
 21
152.0299240879
 31
0.0
  0
LINE
  5
6E
330
68
100
AcDbEntity
  8
0
  6
Continuous
 62
     7
370
     0
100
AcDbLine
 10
56.6850079902
 20
52.0299240879
 30
0.0
 11
41.7614395004
 21
52.0299240879
 31
0.0
  0
LINE
  5
6F
330
68
100
AcDbEntity
  8
0
  6
Continuous
 62
     7
370
     0
100
AcDbLine
 10
42.7614395004
 20
152.0299240879
 30
0.0
 11
42.7614395004
 21
52.0299240879
 31
0.0
  0
MTEXT
  5
70
330
68
100
AcDbEntity
  8
0
  6
Continuous
 62
     7
370
    18
100
AcDbMText
 10
35.0270332946
 20
94.3680541463
 30
0.0
 40
6.0
 41
0.0
 71
     1
 72
     1
  1
100
  7
SLDTEXTSTYLE0
 11
-7.044195017643634E-15
 21
1.0
 31
0.0
 73
     1
 44
1.0
  0
MTEXT
  5
71
330
68
100
AcDbEntity
  8
0
  6
Continuous
 62
     7
370
    18
100
AcDbMText
 10
35.0270332946
 20
105.7430548466
 30
0.0
 40
6.0
 41
0.0
 71
     1
 72
     1
  1
mm
  7
SLDTEXTSTYLE0
 11
-7.044195017643634E-15
 21
1.0
 31
0.0
 73
     1
 44
1.0
  0
ENDBLK
  5
6A
330
68
100
AcDbEntity
  8
0
100
AcDbBlockEnd
  0
BLOCK
  5
74
330
73
100
AcDbEntity
  8
0
100
AcDbBlockBegin
  2
_D_1
 70
     0
 10
0.0
 20
0.0
 30
0.0
  3
_D_1
  1

  0
SOLID
  5
76
330
73
100
AcDbEntity
  8
0
  6
Continuous
 62
     7
370
    18
100
AcDbTrace
 10
56.6850079902
 20
38.4602342313
 30
0.0
 11
59.1850079902
 21
38.1602342313
 31
0.0
 12
59.1850079902
 22
38.7602342313
 32
0.0
 13
59.1850079902
 23
38.7602342313
 33
0.0
  0
SOLID
  5
77
330
73
100
AcDbEntity
  8
0
  6
Continuous
 62
     7
370
    18
100
AcDbTrace
 10
156.6850079902
 20
38.4602342313
 30
0.0
 11
154.1850079902
 21
38.7602342313
 31
0.0
 12
154.1850079902
 22
38.1602342313
 32
0.0
 13
154.1850079902
 23
38.1602342313
 33
0.0
  0
LINE
  5
78
330
73
100
AcDbEntity
  8
0
  6
Continuous
 62
     7
370
     0
100
AcDbLine
 10
56.6850079902
 20
52.0299240879
 30
0.0
 11
56.6850079902
 21
37.4602342313
 31
0.0
  0
LINE
  5
79
330
73
100
AcDbEntity
  8
0
  6
Continuous
 62
     7
370
     0
100
AcDbLine
 10
156.6850079902
 20
52.0299240879
 30
0.0
 11
156.6850079902
 21
37.4602342313
 31
0.0
  0
LINE
  5
7A
330
73
100
AcDbEntity
  8
0
  6
Continuous
 62
     7
370
     0
100
AcDbLine
 10
56.6850079902
 20
38.4602342313
 30
0.0
 11
156.6850079902
 21
38.4602342313
 31
0.0
  0
MTEXT
  5
7B
330
73
100
AcDbEntity
  8
0
  6
Continuous
 62
     7
370
    18
100
AcDbMText
 10
93.9626484861
 20
46.1946404371
 30
0.0
 40
6.0
 41
0.0
 71
     1
 72
     1
  1
100
  7
SLDTEXTSTYLE0
 73
     1
 44
1.0
  0
MTEXT
  5
7C
330
73
100
AcDbEntity
  8
0
  6
Continuous
 62
     7
370
    18
100
AcDbMText
 10
105.3376491864
 20
46.1946404371
 30
0.0
 40
6.0
 41
0.0
 71
     1
 72
     1
  1
mm
  7
SLDTEXTSTYLE0
 73
     1
 44
1.0
  0
ENDBLK
  5
75
330
73
100
AcDbEntity
  8
0
100
AcDbBlockEnd
  0
ENDSEC
  0
SECTION
  2
ENTITIES
  0
LINE
  5
63
330
1F
100
AcDbEntity
  8
0
  6
Continuous
 62
     7
370
    18
100
AcDbLine
 10
56.6850079902
 20
152.0299240879
 30
0.0
 11
56.6850079902
 21
52.0299240879
 31
0.0
  0
LINE
  5
64
330
1F
100
AcDbEntity
  8
0
  6
Continuous
 62
     7
370
    18
100
AcDbLine
 10
56.6850079902
 20
52.0299240879
 30
0.0
 11
156.6850079902
 21
52.0299240879
 31
0.0
  0
DIMENSION
  5
65
330
1F
100
AcDbEntity
  8
0
  6
Continuous
 62
     7
370
    18
100
AcDbDimension
  2
_D
 10
42.7614395004
 20
52.0299240879
 30
0.0
 11
42.7614395004
 21
105.4472211621
 31
0.0
 70
   160
  1
<>mm
 71
     2
 42
-1.0
  3
SLDDIMSTYLE0
100
AcDbAlignedDimension
 13
56.6850079902
 23
152.0299240879
 33
0.0
 14
56.6850079902
 24
52.0299240879
 34
0.0
 50
90.0
100
AcDbRotatedDimension
  0
DIMENSION
  5
72
330
1F
100
AcDbEntity
  8
0
  6
Continuous
 62
     7
370
    18
100
AcDbDimension
  2
_D_1
 10
156.6850079902
 20
38.4602342313
 30
0.0
 11
105.0418155019
 21
38.4602342313
 31
0.0
 70
   160
  1
<>mm
 71
     2
 42
-1.0
  3
SLDDIMSTYLE0
100
AcDbAlignedDimension
 13
56.6850079902
 23
52.0299240879
 33
0.0
 14
156.6850079902
 24
52.0299240879
 34
0.0
100
AcDbRotatedDimension
  0
MTEXT
  5
7E
330
1F
100
AcDbEntity
  8
0
  6
Continuous
 62
     7
370
     0
100
AcDbMText
 10
412.8252631579
 20
48.4342449499
 30
0.0
 40
10.0
 41
0.0
 71
     1
 72
     1
  1
KLUDI GmbH & Co KG
  7
SLDTEXTSTYLE1
 73
     1
 44
1.0
  0
MTEXT
  5
7F
330
1F
100
AcDbEntity
  8
0
  6
Continuous
 62
     7
370
     0
100
AcDbMText
 10
210.0873490389
 20
48.4342449499
 30
0.0
 40
10.0
 41
0.0
 71
     1
 72
     1
  1
54 816 .. 75
  7
SLDTEXTSTYLE1
 73
     1
 44
1.0
  0
SPLINE
  5
80
330
1F
100
AcDbEntity
  8
0
  6
Continuous
 62
     7
370
    25
100
AcDbSpline
210
0.0
220
0.0
230
1.0
 70
     8
 71
     3
 72
    16
 73
    12
 74
     0
 42
0.00000001
 43
0.00000001
 40
0.0
 40
0.0
 40
0.0
 40
0.0
 40
0.1057030580189527
 40
0.2127580367761575
 40
0.3211649804301464
 40
0.4309239300103874
 40
0.5420349235510591
 40
0.65449799621671
 40
0.7683131804205288
 40
0.8834805059356465
 40
1.0
 40
1.0
 40
1.0
 40
1.0
 10
184.6586153787383
 20
299.1451877457574
 30
0.0
 10
184.6299703323807
 20
299.1151337774034
 30
0.0
 10
184.5723138753147
 20
299.0546414565172
 30
0.0
 10
184.4953106030086
 20
298.9545298055153
 30
0.0
 10
184.425603601964
 20
298.847428082143
 30
0.0
 10
184.3647161820982
 20
298.7332082221087
 30
0.0
 10
184.3132981991313
 20
298.6127107826758
 30
0.0
 10
184.2720982030113
 20
298.4866382110584
 30
0.0
 10
184.24211876263
 20
298.3558562403854
 30
0.0
 10
184.2229034083296
 20
298.2213094545436
 30
0.0
 10
184.2204989774932
 20
298.1303271443525
 30
0.0
 10
184.2192897457161
 20
298.0845704941834
 30
0.0
  0
SPLINE
  5
81
330
1F
100
AcDbEntity
  8
0
  6
Continuous
 62
     7
370
    25
100
AcDbSpline
210
0.0
220
0.0
230
1.0
 70
     8
 71
     3
 72
    17
 73
    13
 74
     0
 42
0.00000001
 43
0.00000001
 40
0.0
 40
0.0
 40
0.0
 40
0.0
 40
0.1049290128402316
 40
0.2087626174290065
 40
0.3115008378520629
 40
0.413143699797613
 40
0.5136912306173694
 40
0.613143459390861
 40
0.7115004169933861
 40
0.8087621361677378
 40
0.9049286516000604
 40
1.0
 40
1.0
 40
1.0
 40
1.0
 10
185.7192326303123
 20
299.5845133787796
 30
0.0
 10
185.6780277327973
 20
299.5835327556294
 30
0.0
 10
185.5960480970103
 20
299.5815817465613
 30
0.0
 10
185.4745509057542
 20
299.5659684736999
 30
0.0
 10
185.3559394252698
 20
299.5415413483028
 30
0.0
 10
185.2409229677427
 20
299.5078571287144
 30
0.0
 10
185.1301442454916
 20
299.4656693655493
 30
0.0
 10
185.024195991083
 20
299.4154525446879
 30
0.0
 10
184.9235538426435
 20
299.3578437129111
 30
0.0
 10
184.828819443002
 20
299.2932915870315
 30
0.0
 10
184.7398283377912
 20
299.2229690201634
 30
0.0
 10
184.6855828153237
 20
299.1710156629956
 30
0.0
 10
184.6586153787383
 20
299.1451877457574
 30
0.0
  0
SPLINE
  5
82
330
1F
100
AcDbEntity
  8
0
  6
Continuous
 62
     7
370
    25
100
AcDbSpline
210
0.0
220
0.0
230
1.0
 70
     8
 71
     3
 72
    16
 73
    12
 74
     0
 42
0.00000001
 43
0.00000001
 40
0.0
 40
0.0
 40
0.0
 40
0.0
 40
0.1057030580188662
 40
0.2127580367760147
 40
0.3211649804299606
 40
0.4309239300101836
 40
0.5420349235508543
 40
0.654497996216526
 40
0.7683131804203852
 40
0.8834805059355682
 40
1.0
 40
1.0
 40
1.0
 40
1.0
 10
225.2746822988264
 20
299.1451877457574
 30
0.0
 10
225.2446283304724
 20
299.173832792115
 30
0.0
 10
225.1841360095862
 20
299.2314892491809
 30
0.0
 10
225.0840243585845
 20
299.308492521487
 30
0.0
 10
224.9769226352122
 20
299.3781995225316
 30
0.0
 10
224.8627027751779
 20
299.4390869423974
 30
0.0
 10
224.742205335745
 20
299.4905049253644
 30
0.0
 10
224.6161327641277
 20
299.5317049214843
 30
0.0
 10
224.4853507934546
 20
299.5616843618657
 30
0.0
 10
224.3508040076128
 20
299.5808997161661
 30
0.0
 10
224.2598216974215
 20
299.5833041470025
 30
0.0
 10
224.2140650472524
 20
299.5845133787796
 30
0.0
  0
SPLINE
  5
83
330
1F
100
AcDbEntity
  8
0
  6
Continuous
 62
     7
370
    25
100
AcDbSpline
210
0.0
220
0.0
230
1.0
 70
     8
 71
     3
 72
    17
 73
    13
 74
     0
 42
0.00000001
 43
0.00000001
 40
0.0
 40
0.0
 40
0.0
 40
0.0
 40
0.1049290128402693
 40
0.2087626174290738
 40
0.3115008378521471
 40
0.4131436997977131
 40
0.513691230617471
 40
0.6131434593909578
 40
0.7115004169934668
 40
0.8087621361678041
 40
0.9049286516000967
 40
1.0
 40
1.0
 40
1.0
 40
1.0
 10
225.7140079318486
 20
298.0845704941834
 30
0.0
 10
225.7130273086984
 20
298.1257753916984
 30
0.0
 10
225.7110762996303
 20
298.2077550274854
 30
0.0
 10
225.6954630267689
 20
298.3292522187415
 30
0.0
 10
225.6710359013717
 20
298.4478636992259
 30
0.0
 10
225.6373516817833
 20
298.5628801567531
 30
0.0
 10
225.5951639186182
 20
298.6736588790043
 30
0.0
 10
225.5449470977568
 20
298.7796071334129
 30
0.0
 10
225.4873382659801
 20
298.8802492818523
 30
0.0
 10
225.4227861401005
 20
298.9749836814938
 30
0.0
 10
225.3524635732324
 20
299.0639747867045
 30
0.0
 10
225.3005102160645
 20
299.1182203091719
 30
0.0
 10
225.2746822988264
 20
299.1451877457574
 30
0.0
  0
SPLINE
  5
84
330
1F
100
AcDbEntity
  8
0
  6
Continuous
 62
     7
370
    25
100
AcDbSpline
210
0.0
220
0.0
230
1.0
 70
     8
 71
     3
 72
    16
 73
    12
 74
     0
 42
0.00000001
 43
0.00000001
 40
0.0
 40
0.0
 40
0.0
 40
0.0
 40
0.1057030580186641
 40
0.2127580367756609
 40
0.3211649804295023
 40
0.4309239300096809
 40
0.5420349235503481
 40
0.6544979962160723
 40
0.7683131804200338
 40
0.8834805059353668
 40
1.0
 40
1.0
 40
1.0
 40
1.0
 10
184.6586153787383
 20
258.5291208256693
 30
0.0
 10
184.6886693470922
 20
258.5004757793117
 30
0.0
 10
184.7491616679783
 20
258.4428193222459
 30
0.0
 10
184.8492733189799
 20
258.3658160499398
 30
0.0
 10
184.956375042352
 20
258.2961090488953
 30
0.0
 10
185.0705949023863
 20
258.2352216290295
 30
0.0
 10
185.1910923418192
 20
258.1838036460625
 30
0.0
 10
185.3171649134365
 20
258.1426036499425
 30
0.0
 10
185.4479468841097
 20
258.112624209561
 30
0.0
 10
185.5824936699517
 20
258.0934088552606
 30
0.0
 10
185.6734759801431
 20
258.0910044244242
 30
0.0
 10
185.7192326303123
 20
258.089795192647
 30
0.0
  0
SPLINE
  5
85
330
1F
100
AcDbEntity
  8
0
  6
Continuous
 62
     7
370
    25
100
AcDbSpline
210
0.0
220
0.0
230
1.0
 70
     8
 71
     3
 72
    17
 73
    13
 74
     0
 42
0.00000001
 43
0.00000001
 40
0.0
 40
0.0
 40
0.0
 40
0.0
 40
0.1049290128405677
 40
0.2087626174296021
 40
0.3115008378528416
 40
0.413143699798508
 40
0.5136912306183006
 40
0.613143459391753
 40
0.7115004169941636
 40
0.8087621361683323
 40
0.9049286516003953
 40
1.0
 40
1.0
 40
1.0
 40
1.0
 10
184.2192897457161
 20
259.5897380772433
 30
0.0
 10
184.2202703688663
 20
259.5485331797282
 30
0.0
 10
184.2222213779344
 20
259.466553543941
 30
0.0
 10
184.237834650796
 20
259.3450563526845
 30
0.0
 10
184.2622617761932
 20
259.2264448721999
 30
0.0
 10
184.2959459957816
 20
259.1114284146727
 30
0.0
 10
184.3381337589469
 20
259.0006496924215
 30
0.0
 10
184.3883505798083
 20
258.894701438013
 30
0.0
 10
184.445959411585
 20
258.7940592895737
 30
0.0
 10
184.5105115374646
 20
258.6993248899324
 30
0.0
 10
184.5808341043325
 20
258.6103337847219
 30
0.0
 10
184.6327874615002
 20
258.5560882622546
 30
0.0
 10
184.6586153787383
 20
258.5291208256693
 30
0.0
  0
SPLINE
  5
86
330
1F
100
AcDbEntity
  8
0
  6
Continuous
 62
     7
370
    25
100
AcDbSpline
210
0.0
220
0.0
230
1.0
 70
     8
 71
     3
 72
    14
 73
    10
 74
     0
 42
0.00000001
 43
0.00000001
 40
0.0
 40
0.0
 40
0.0
 40
0.0
 40
0.25
 40
0.25
 40
0.5
 40
0.5
 40
0.75
 40
0.75
 40
1.0
 40
1.0
 40
1.0
 40
1.0
 10
224.2140650472524
 20
258.089795192647
 30
0.0
 10
224.4104449412049
 20
258.0897981834257
 30
0.0
 10
224.6066744662802
 20
258.1288392256439
 30
0.0
 10
224.9694654736178
 20
258.2791134067557
 30
0.0
 10
225.1358489540644
 20
258.3902874809072
 30
0.0
 10
225.4135156435885
 20
258.6679541704313
 30
0.0
 10
225.52468971774
 20
258.834337650878
 30
0.0
 10
225.6749638988518
 20
259.1971286582153
 30
0.0
 10
225.7140049410699
 20
259.3933581832908
 30
0.0
 10
225.7140079318486
 20
259.5897380772433
 30
0.0
  0
LINE
  5
87
330
1F
100
AcDbEntity
  8
0
  6
Continuous
 62
     7
370
    25
100
AcDbLine
 10
225.7140079318
 20
298.0845704942
 30
0.0
 11
225.7140079318
 21
259.5897380772
 31
0.0
  0
LINE
  5
88
330
1F
100
AcDbEntity
  8
0
  6
Continuous
 62
     7
370
    25
100
AcDbLine
 10
184.2192897457
 20
259.5897380772
 30
0.0
 11
184.2192897457
 21
298.0845704942
 31
0.0
  0
LINE
  5
89
330
1F
100
AcDbEntity
  8
0
  6
Continuous
 62
     7
370
    25
100
AcDbLine
 10
185.7192326303
 20
299.5845133788
 30
0.0
 11
224.2140650473
 21
299.5845133788
 31
0.0
  0
LINE
  5
8A
330
1F
100
AcDbEntity
  8
0
  6
Continuous
 62
     7
370
    25
100
AcDbLine
 10
224.2140650473
 20
258.0897951926
 30
0.0
 11
185.7192326303
 21
258.0897951926
 31
0.0
  0
SPLINE
  5
8B
330
1F
100
AcDbEntity
  8
0
  6
Continuous
 62
     7
370
    25
100
AcDbSpline
210
0.0
220
0.0
230
1.0
 70
     8
 71
     3
 72
    18
 73
    14
 74
     0
 42
0.00000001
 43
0.00000001
 40
0.0
 40
0.0
 40
0.0
 40
0.0
 40
0.0863807640641049
 40
0.1736665713609804
 40
0.2618576428871709
 40
0.350954192452779
 40
0.4409564269645012
 40
0.5318645466947644
 40
0.6236787455377022
 40
0.7163992112527642
 40
0.8100261256967128
 40
0.9045596650445242
 40
1.0
 40
1.0
 40
1.0
 40
1.0
 10
244.5188404989301
 20
318.389345945861
 30
0.0
 10
244.4862371081991
 20
318.4206951777392
 30
0.0
 10
244.4206887289468
 20
318.4837220989997
 30
0.0
 10
244.3139395868091
 20
318.5699452667675
 30
0.0
 10
244.2007913135015
 20
318.6499347850506
 30
0.0
 10
244.0810111666119
 20
318.7224612581974
 30
0.0
 10
243.9551952325675
 20
318.787077895512
 30
0.0
 10
243.8237892050323
 20
318.8431539861795
 30
0.0
 10
243.6873550782911
 20
318.8901175272542
 30
0.0
 10
243.5464982405292
 20
318.9275002922225
 30
0.0
 10
243.4018862510368
 20
318.9545400694765
 30
0.0
 10
243.2542421080733
 20
318.971784836895
 30
0.0
 10
243.1547842809488
 20
318.9739374109347
 30
0.0
 10
243.1048179981138
 20
318.9750188353575
 30
0.0
  0
SPLINE
  5
8C
330
1F
100
AcDbEntity
  8
0
  6
Continuous
 62
     7
370
    25
100
AcDbSpline
210
0.0
220
0.0
230
1.0
 70
     8
 71
     3
 72
    19
 73
    15
 74
     0
 42
0.00000001
 43
0.00000001
 40
0.0
 40
0.0
 40
0.0
 40
0.0
 40
0.0875219065052871
 40
0.174281782429396
 40
0.2602797601982956
 40
0.3455159760638839
 40
0.4299905702389538
 40
0.5137036870381267
 40
0.5966554750252983
 40
0.6788460871677462
 40
0.7602756809974137
 40
0.8409444187797279
 40
0.9208524676902834
 40
0.9999999999999999
 40
0.9999999999999999
 40
0.9999999999999999
 40
0.9999999999999999
 10
245.1045133884265
 20
316.9753234450447
 30
0.0
 10
245.1036039269802
 20
317.0211440075116
 30
0.0
 10
245.1017929225328
 20
317.1123861846706
 30
0.0
 10
245.0872722920814
 20
317.2480097901496
 30
0.0
 10
245.0644633884155
 20
317.3811914657687
 30
0.0
 10
245.0328641687203
 20
317.5113652295079
 30
0.0
 10
244.9930728425151
 20
317.6380049890934
 30
0.0
 10
244.9454314884882
 20
317.7606243123574
 30
0.0
 10
244.8903839108949
 20
317.8787816520303
 30
0.0
 10
244.8283609315157
 20
317.9920642819707
 30
0.0
 10
244.7598622603799
 20
318.100148997579
 30
0.0
 10
244.6852233458756
 20
318.2025789207515
 30
0.0
 10
244.6054342660259
 20
318.2995837011014
 30
0.0
 10
244.5476129313197
 20
318.3595207262742
 30
0.0
 10
244.5188404989301
 20
318.389345945861
 30
0.0
  0
SPLINE
  5
8D
330
1F
100
AcDbEntity
  8
0
  6
Continuous
 62
     7
370
    25
100
AcDbSpline
210
0.0
220
0.0
230
1.0
 70
     8
 71
     3
 72
    18
 73
    14
 74
     0
 42
0.00000001
 43
0.00000001
 40
0.0
 40
0.0
 40
0.0
 40
0.0
 40
0.0863807640641111
 40
0.1736665713609928
 40
0.2618576428871833
 40
0.350954192452795
 40
0.440956426964521
 40
0.5318645466947841
 40
0.6236787455377204
 40
0.7163992112527824
 40
0.8100261256967258
 40
0.9045596650445287
 40
0.9999999999999999
 40
0.9999999999999999
 40
0.9999999999999999
 40
0.9999999999999999
 10
165.4144571786347
 20
239.2849626255656
 30
0.0
 10
165.4470605693656
 20
239.2536133936874
 30
0.0
 10
165.512608948618
 20
239.1905864724269
 30
0.0
 10
165.6193580907557
 20
239.1043633046592
 30
0.0
 10
165.7325063640633
 20
239.024373786376
 30
0.0
 10
165.8522865109528
 20
238.9518473132292
 30
0.0
 10
165.9781024449973
 20
238.8872306759146
 30
0.0
 10
166.1095084725325
 20
238.8311545852472
 30
0.0
 10
166.2459425992737
 20
238.7841910441725
 30
0.0
 10
166.3867994370356
 20
238.7468082792041
 30
0.0
 10
166.531411426528
 20
238.7197685019501
 30
0.0
 10
166.6790555694915
 20
238.7025237345316
 30
0.0
 10
166.778513396616
 20
238.700371160492
 30
0.0
 10
166.828479679451
 20
238.6992897360691
 30
0.0
  0
SPLINE
  5
8E
330
1F
100
AcDbEntity
  8
0
  6
Continuous
 62
     7
370
    25
100
AcDbSpline
210
0.0
220
0.0
230
1.0
 70
     8
 71
     3
 72
    19
 73
    15
 74
     0
 42
0.00000001
 43
0.00000001
 40
0.0
 40
0.0
 40
0.0
 40
0.0
 40
0.0875219065052787
 40
0.1742817824293792
 40
0.2602797601982698
 40
0.3455159760638584
 40
0.4299905702389231
 40
0.5137036870380964
 40
0.5966554750252664
 40
0.6788460871677127
 40
0.7602756809973905
 40
0.8409444187797085
 40
0.9208524676902706
 40
1.0
 40
1.0
 40
1.0
 40
1.0
 10
164.8287842891382
 20
240.6989851263819
 30
0.0
 10
164.8296937505846
 20
240.653164563915
 30
0.0
 10
164.831504755032
 20
240.561922386756
 30
0.0
 10
164.8460253854834
 20
240.426298781277
 30
0.0
 10
164.8688342891493
 20
240.293117105658
 30
0.0
 10
164.9004335088445
 20
240.1629433419188
 30
0.0
 10
164.9402248350496
 20
240.0363035823333
 30
0.0
 10
164.9878661890765
 20
239.9136842590693
 30
0.0
 10
165.0429137666698
 20
239.7955269193964
 30
0.0
 10
165.104936746049
 20
239.682244289456
 30
0.0
 10
165.1734354171849
 20
239.5741595738477
 30
0.0
 10
165.2480743316891
 20
239.4717296506751
 30
0.0
 10
165.3278634115388
 20
239.3747248703253
 30
0.0
 10
165.385684746245
 20
239.3147878451525
 30
0.0
 10
165.4144571786347
 20
239.2849626255656
 30
0.0
  0
SPLINE
  5
8F
330
1F
100
AcDbEntity
  8
0
  6
Continuous
 62
     7
370
    25
100
AcDbSpline
210
0.0
220
0.0
230
1.0
 70
     8
 71
     3
 72
    18
 73
    14
 74
     0
 42
0.00000001
 43
0.00000001
 40
0.0
 40
0.0
 40
0.0
 40
0.0
 40
0.0863807640641049
 40
0.1736665713609832
 40
0.2618576428871712
 40
0.3509541924527791
 40
0.4409564269645013
 40
0.5318645466947645
 40
0.6236787455377022
 40
0.7163992112527643
 40
0.8100261256967128
 40
0.9045596650445242
 40
1.0
 40
1.0
 40
1.0
 40
1.0
 10
244.5188404989301
 20
239.2849626255656
 30
0.0
 10
244.5501897308083
 20
239.3175660162966
 30
0.0
 10
244.6132166520688
 20
239.3831143955489
 30
0.0
 10
244.6994398198366
 20
239.4898635376866
 30
0.0
 10
244.7794293381196
 20
239.6030118109942
 30
0.0
 10
244.8519558112665
 20
239.7227919578837
 30
0.0
 10
244.916572448581
 20
239.8486078919283
 30
0.0
 10
244.9726485392485
 20
239.9800139194634
 30
0.0
 10
245.0196120803232
 20
240.1164480462046
 30
0.0
 10
245.0569948452916
 20
240.2573048839665
 30
0.0
 10
245.0840346225455
 20
240.4019168734589
 30
0.0
 10
245.1012793899641
 20
240.5495610164224
 30
0.0
 10
245.1034319640038
 20
240.6490188435469
 30
0.0
 10
245.1045133884265
 20
240.6989851263819
 30
0.0
  0
SPLINE
  5
90
330
1F
100
AcDbEntity
  8
0
  6
Continuous
 62
     7
370
    25
100
AcDbSpline
210
0.0
220
0.0
230
1.0
 70
     8
 71
     3
 72
    19
 73
    15
 74
     0
 42
0.00000001
 43
0.00000001
 40
0.0
 40
0.0
 40
0.0
 40
0.0
 40
0.0875219065052826
 40
0.1742817824293914
 40
0.2602797601982816
 40
0.3455159760638741
 40
0.4299905702389397
 40
0.5137036870381125
 40
0.5966554750252822
 40
0.6788460871677301
 40
0.7602756809974076
 40
0.840944418779719
 40
0.9208524676902774
 40
1.0
 40
1.0
 40
1.0
 40
1.0
 10
243.1048179981138
 20
238.6992897360691
 30
0.0
 10
243.1506385605807
 20
238.7001991975155
 30
0.0
 10
243.2418807377397
 20
238.7020102019629
 30
0.0
 10
243.3775043432187
 20
238.7165308324143
 30
0.0
 10
243.5106860188377
 20
238.7393397360802
 30
0.0
 10
243.6408597825769
 20
238.7709389557754
 30
0.0
 10
243.7674995421623
 20
238.8107302819806
 30
0.0
 10
243.8901188654264
 20
238.8583716360075
 30
0.0
 10
244.0082762050993
 20
238.9134192136008
 30
0.0
 10
244.1215588350397
 20
238.97544219298
 30
0.0
 10
244.229643550648
 20
239.0439408641158
 30
0.0
 10
244.3320734738205
 20
239.11857977862
 30
0.0
 10
244.4290782541704
 20
239.1983688584698
 30
0.0
 10
244.4890152793432
 20
239.256190193176
 30
0.0
 10
244.5188404989301
 20
239.2849626255656
 30
0.0
  0
SPLINE
  5
91
330
1F
100
AcDbEntity
  8
0
  6
Continuous
 62
     7
370
    25
100
AcDbSpline
210
0.0
220
0.0
230
1.0
 70
     8
 71
     3
 72
    18
 73
    14
 74
     0
 42
0.00000001
 43
0.00000001
 40
0.0
 40
0.0
 40
0.0
 40
0.0
 40
0.0863807640641111
 40
0.1736665713609928
 40
0.2618576428871833
 40
0.350954192452795
 40
0.4409564269645191
 40
0.531864546694784
 40
0.6236787455377202
 40
0.716399211252778
 40
0.8100261256967214
 40
0.9045596650445288
 40
1.0
 40
1.0
 40
1.0
 40
1.0
 10
165.4144571786347
 20
318.389345945861
 30
0.0
 10
165.3831079467565
 20
318.3567425551301
 30
0.0
 10
165.3200810254959
 20
318.2911941758777
 30
0.0
 10
165.2338578577282
 20
318.18444503374
 30
0.0
 10
165.1538683394451
 20
318.0712967604324
 30
0.0
 10
165.0813418662983
 20
317.9515166135429
 30
0.0
 10
165.0167252289837
 20
317.8257006794983
 30
0.0
 10
164.9606491383162
 20
317.6942946519632
 30
0.0
 10
164.9136855972416
 20
317.5578605252221
 30
0.0
 10
164.8763028322732
 20
317.4170036874601
 30
0.0
 10
164.8492630550192
 20
317.2723916979677
 30
0.0
 10
164.8320182876007
 20
317.1247475550043
 30
0.0
 10
164.829865713561
 20
317.0252897278797
 30
0.0
 10
164.8287842891382
 20
316.9753234450447
 30
0.0
  0
SPLINE
  5
92
330
1F
100
AcDbEntity
  8
0
  6
Continuous
 62
     7
370
    25
100
AcDbSpline
210
0.0
220
0.0
230
1.0
 70
     8
 71
     3
 72
    19
 73
    15
 74
     0
 42
0.00000001
 43
0.00000001
 40
0.0
 40
0.0
 40
0.0
 40
0.0
 40
0.0875219065052871
 40
0.1742817824294003
 40
0.2602797601982955
 40
0.3455159760638881
 40
0.4299905702389579
 40
0.5137036870381324
 40
0.5966554750253019
 40
0.6788460871677461
 40
0.7602756809974174
 40
0.8409444187797314
 40
0.9208524676902834
 40
1.0
 40
1.0
 40
1.0
 40
1.0
 10
166.828479679451
 20
318.9750188353575
 30
0.0
 10
166.7826591169841
 20
318.9741093739111
 30
0.0
 10
166.691416939825
 20
318.9722983694637
 30
0.0
 10
166.555793334346
 20
318.9577777390123
 30
0.0
 10
166.4226116587271
 20
318.9349688353464
 30
0.0
 10
166.2924378949878
 20
318.9033696156512
 30
0.0
 10
166.1657981354024
 20
318.8635782894461
 30
0.0
 10
166.0431788121383
 20
318.8159369354191
 30
0.0
 10
165.9250214724654
 20
318.7608893578258
 30
0.0
 10
165.811738842525
 20
318.6988663784467
 30
0.0
 10
165.7036541269167
 20
318.6303677073108
 30
0.0
 10
165.6012242037442
 20
318.5557287928065
 30
0.0
 10
165.5042194233943
 20
318.4759397129569
 30
0.0
 10
165.4442823982216
 20
318.4181183782506
 30
0.0
 10
165.4144571786347
 20
318.389345945861
 30
0.0
  0
LINE
  5
93
330
1F
100
AcDbEntity
  8
0
  6
Continuous
 62
     7
370
    25
100
AcDbLine
 10
245.1045133884
 20
316.975323445
 30
0.0
 11
245.1045133884
 21
240.6989851264
 31
0.0
  0
LINE
  5
94
330
1F
100
AcDbEntity
  8
0
  6
Continuous
 62
     7
370
    25
100
AcDbLine
 10
166.8284796795
 20
318.9750188354
 30
0.0
 11
243.1048179981
 21
318.9750188354
 31
0.0
  0
LINE
  5
95
330
1F
100
AcDbEntity
  8
0
  6
Continuous
 62
     7
370
    25
100
AcDbLine
 10
164.8287842891
 20
240.6989851264
 30
0.0
 11
164.8287842891
 21
316.975323445
 31
0.0
  0
LINE
  5
96
330
1F
100
AcDbEntity
  8
0
  6
Continuous
 62
     7
370
    25
100
AcDbLine
 10
243.1048179981
 20
238.6992897361
 30
0.0
 11
166.8284796795
 21
238.6992897361
 31
0.0
  0
LINE
  5
97
330
1F
100
AcDbEntity
  8
0
  6
Continuous
 62
     8
370
    18
100
AcDbLine
 10
186.0038199067
 20
259.8743253536
 30
0.0
 11
186.0038199067
 21
297.7999832178
 31
0.0
  0
LINE
  5
98
330
1F
100
AcDbEntity
  8
0
  6
Continuous
 62
     8
370
    18
100
AcDbLine
 10
184.5038770221
 20
259.8743253536
 30
0.0
 11
186.0038199067
 21
259.8743253536
 31
0.0
  0
LINE
  5
99
330
1F
100
AcDbEntity
  8
0
  6
Continuous
 62
     8
370
    18
100
AcDbLine
 10
184.5038770221
 20
259.8743253536
 30
0.0
 11
184.5038770221
 21
297.7999832178
 31
0.0
  0
LINE
  5
9A
330
1F
100
AcDbEntity
  8
0
  6
Continuous
 62
     8
370
    18
100
AcDbLine
 10
186.0038199067
 20
297.7999832178
 30
0.0
 11
184.5038770221
 21
297.7999832178
 31
0.0
  0
LINE
  5
9B
330
1F
100
AcDbEntity
  8
0
  6
Continuous
 62
     8
370
    18
100
AcDbLine
 10
186.0038199067
 20
297.7999832178
 30
0.0
 11
223.9294777709
 21
297.7999832178
 31
0.0
  0
LINE
  5
9C
330
1F
100
AcDbEntity
  8
0
  6
Continuous
 62
     8
370
    18
100
AcDbLine
 10
223.9294777709
 20
297.7999832178
 30
0.0
 11
223.9294777709
 21
259.8743253536
 31
0.0
  0
LINE
  5
9D
330
1F
100
AcDbEntity
  8
0
  6
Continuous
 62
     8
370
    18
100
AcDbLine
 10
223.9294777709
 20
259.8743253536
 30
0.0
 11
186.0038199067
 21
259.8743253536
 31
0.0
  0
LINE
  5
9E
330
1F
100
AcDbEntity
  8
0
  6
Continuous
 62
     8
370
    18
100
AcDbLine
 10
186.0038199067
 20
299.2999261024
 30
0.0
 11
186.0038199067
 21
297.7999832178
 31
0.0
  0
LINE
  5
9F
330
1F
100
AcDbEntity
  8
0
  6
Continuous
 62
     8
370
    18
100
AcDbLine
 10
186.0038199067
 20
299.2999261024
 30
0.0
 11
223.9294777709
 21
299.2999261024
 31
0.0
  0
LINE
  5
A0
330
1F
100
AcDbEntity
  8
0
  6
Continuous
 62
     8
370
    18
100
AcDbLine
 10
223.9294777709
 20
297.7999832178
 30
0.0
 11
223.9294777709
 21
299.2999261024
 31
0.0
  0
LINE
  5
A1
330
1F
100
AcDbEntity
  8
0
  6
Continuous
 62
     8
370
    18
100
AcDbLine
 10
225.4294206555
 20
297.7999832178
 30
0.0
 11
225.4294206555
 21
259.8743253536
 31
0.0
  0
LINE
  5
A2
330
1F
100
AcDbEntity
  8
0
  6
Continuous
 62
     8
370
    18
100
AcDbLine
 10
223.9294777709
 20
259.8743253536
 30
0.0
 11
225.4294206555
 21
259.8743253536
 31
0.0
  0
LINE
  5
A3
330
1F
100
AcDbEntity
  8
0
  6
Continuous
 62
     8
370
    18
100
AcDbLine
 10
225.4294206555
 20
297.7999832178
 30
0.0
 11
223.9294777709
 21
297.7999832178
 31
0.0
  0
LINE
  5
A4
330
1F
100
AcDbEntity
  8
0
  6
Continuous
 62
     8
370
    18
100
AcDbLine
 10
223.9294777709
 20
258.374382469
 30
0.0
 11
186.0038199067
 21
258.374382469
 31
0.0
  0
LINE
  5
A5
330
1F
100
AcDbEntity
  8
0
  6
Continuous
 62
     8
370
    18
100
AcDbLine
 10
186.0038199067
 20
259.8743253536
 30
0.0
 11
186.0038199067
 21
258.374382469
 31
0.0
  0
LINE
  5
A6
330
1F
100
AcDbEntity
  8
0
  6
Continuous
 62
     8
370
    18
100
AcDbLine
 10
223.9294777709
 20
258.374382469
 30
0.0
 11
223.9294777709
 21
259.8743253536
 31
0.0
  0
ARC
  5
A7
330
1F
100
AcDbEntity
  8
0
  6
Continuous
 62
     8
370
    18
100
AcDbCircle
 10
186.0039536965
 20
297.799849428
 30
0.0
 40
1.500076680360288
100
AcDbArc
 50
90.0051101326
 51
179.9948898674
  0
ARC
  5
A8
330
1F
100
AcDbEntity
  8
0
  6
Continuous
 62
     8
370
    18
100
AcDbCircle
 10
186.0039536965
 20
259.8744591434
 30
0.0
 40
1.500076680360288
100
AcDbArc
 50
180.0051101326
 51
269.9948898674
  0
ARC
  5
A9
330
1F
100
AcDbEntity
  8
0
  6
Continuous
 62
     8
370
    18
100
AcDbCircle
 10
223.9293439811
 20
297.799849428
 30
0.0
 40
1.500076680360231
100
AcDbArc
 50
0.0051101326
 51
89.9948898674
  0
ARC
  5
AA
330
1F
100
AcDbEntity
  8
0
  6
Continuous
 62
     8
370
    18
100
AcDbCircle
 10
223.9293439811
 20
259.8744591434
 30
0.0
 40
1.50007668036026
100
AcDbArc
 50
270.0051101326
 51
359.9948898674
  0
LINE
  5
AB
330
1F
100
AcDbEntity
  8
0
  6
Continuous
 62
     8
370
    18
100
AcDbLine
 10
185.7192326303
 20
299.5845133788
 30
0.0
 11
186.0038199067
 21
299.2999261024
 31
0.0
  0
LINE
  5
AC
330
1F
100
AcDbEntity
  8
0
  6
Continuous
 62
     8
370
    18
100
AcDbLine
 10
184.5038770221
 20
297.7999832178
 30
0.0
 11
184.2192897457
 21
298.0845704942
 31
0.0
  0
LINE
  5
AD
330
1F
100
AcDbEntity
  8
0
  6
Continuous
 62
     8
370
    18
100
AcDbLine
 10
225.7140079318
 20
298.0845704942
 30
0.0
 11
225.4294206555
 21
297.7999832178
 31
0.0
  0
LINE
  5
AE
330
1F
100
AcDbEntity
  8
0
  6
Continuous
 62
     8
370
    18
100
AcDbLine
 10
223.9294777709
 20
299.2999261024
 30
0.0
 11
224.2140650473
 21
299.5845133788
 31
0.0
  0
LINE
  5
AF
330
1F
100
AcDbEntity
  8
0
  6
Continuous
 62
     8
370
    18
100
AcDbLine
 10
184.2192897457
 20
259.5897380772
 30
0.0
 11
184.5038770221
 21
259.8743253536
 31
0.0
  0
LINE
  5
B0
330
1F
100
AcDbEntity
  8
0
  6
Continuous
 62
     8
370
    18
100
AcDbLine
 10
186.0038199067
 20
258.374382469
 30
0.0
 11
185.7192326303
 21
258.0897951926
 31
0.0
  0
LINE
  5
B1
330
1F
100
AcDbEntity
  8
0
  6
Continuous
 62
     8
370
    18
100
AcDbLine
 10
224.2140650473
 20
258.0897951926
 30
0.0
 11
223.9294777709
 21
258.374382469
 31
0.0
  0
LINE
  5
B2
330
1F
100
AcDbEntity
  8
0
  6
Continuous
 62
     8
370
    18
100
AcDbLine
 10
225.4294206555
 20
259.8743253536
 30
0.0
 11
225.7140079318
 21
259.5897380772
 31
0.0
  0
LINE
  5
B3
330
1F
100
AcDbEntity
  8
0
  6
Continuous
 62
     8
370
    18
100
AcDbLine
 10
242.9926790965
 20
240.3112001804
 30
0.0
 11
166.940618581
 21
240.3112001804
 31
0.0
  0
LINE
  5
B4
330
1F
100
AcDbEntity
  8
0
  6
Continuous
 62
     8
370
    18
100
AcDbLine
 10
242.9926790965
 20
238.8114286377
 30
0.0
 11
242.9926790965
 21
240.3112001804
 31
0.0
  0
LINE
  5
B5
330
1F
100
AcDbEntity
  8
0
  6
Continuous
 62
     8
370
    18
100
AcDbLine
 10
242.9926790965
 20
238.8114286377
 30
0.0
 11
166.940618581
 21
238.8114286377
 31
0.0
  0
LINE
  5
B6
330
1F
100
AcDbEntity
  8
0
  6
Continuous
 62
     8
370
    18
100
AcDbLine
 10
166.940618581
 20
240.3112001804
 30
0.0
 11
166.940618581
 21
238.8114286377
 31
0.0
  0
LINE
  5
B7
330
1F
100
AcDbEntity
  8
0
  6
Continuous
 62
     8
370
    18
100
AcDbLine
 10
166.940618581
 20
317.363108391
 30
0.0
 11
242.9926790965
 21
317.363108391
 31
0.0
  0
LINE
  5
B8
330
1F
100
AcDbEntity
  8
0
  6
Continuous
 62
     8
370
    18
100
AcDbLine
 10
166.940618581
 20
318.8628799338
 30
0.0
 11
166.940618581
 21
317.363108391
 31
0.0
  0
LINE
  5
B9
330
1F
100
AcDbEntity
  8
0
  6
Continuous
 62
     8
370
    18
100
AcDbLine
 10
166.940618581
 20
318.8628799338
 30
0.0
 11
242.9926790965
 21
318.8628799338
 31
0.0
  0
LINE
  5
BA
330
1F
100
AcDbEntity
  8
0
  6
Continuous
 62
     8
370
    18
100
AcDbLine
 10
242.9926790965
 20
317.363108391
 30
0.0
 11
242.9926790965
 21
318.8628799338
 31
0.0
  0
SPLINE
  5
BB
330
1F
100
AcDbEntity
  8
0
  6
Continuous
 62
     8
370
    18
100
AcDbSpline
210
0.0
220
0.0
230
1.0
 70
     8
 71
     3
 72
    12
 73
     8
 74
     0
 42
0.00000001
 43
0.00000001
 40
0.0
 40
0.0
 40
0.0
 40
0.0
 40
0.1665688703924325
 40
0.3323505923067357
 40
0.5002129602155954
 40
0.7493803296395605
 40
1.0
 40
1.0
 40
1.0
 40
1.0
 10
242.9926790965306
 20
240.3112001803869
 30
0.0
 10
243.0144713599531
 20
240.3120058049887
 30
0.0
 10
243.0579529038878
 20
240.3136132470815
 30
0.0
 10
243.1223100533269
 20
240.3268842767268
 30
0.0
 10
243.1945137095985
 20
240.3514232233131
 30
0.0
 10
243.2729021032726
 20
240.391902680442
 30
0.0
 10
243.3217120062901
 20
240.4356686677181
 30
0.0
 10
243.3461878746717
 20
240.457615249824
 30
0.0
  0
SPLINE
  5
BC
330
1F
100
AcDbEntity
  8
0
  6
Continuous
 62
     8
370
    18
100
AcDbSpline
210
0.0
220
0.0
230
1.0
 70
     8
 71
     3
 72
     8
 73
     4
 74
     0
 42
0.00000001
 43
0.00000001
 40
0.0
 40
0.0
 40
0.0
 40
0.0
 40
1.0
 40
1.0
 40
1.0
 40
1.0
 10
166.5871098028931
 20
240.457615249824
 30
0.0
 10
166.6796685457623
 20
240.365056507324
 30
0.0
 10
166.8097007815055
 20
240.3112001806489
 30
0.0
 10
166.9406185810341
 20
240.3112001803868
 30
0.0
  0
SPLINE
  5
BD
330
1F
100
AcDbEntity
  8
0
  6
Continuous
 62
     8
370
    18
100
AcDbSpline
210
0.0
220
0.0
230
1.0
 70
     8
 71
     3
 72
    12
 73
     8
 74
     0
 42
0.00000001
 43
0.00000001
 40
0.0
 40
0.0
 40
0.0
 40
0.0
 40
0.1665688703924325
 40
0.3323505923067357
 40
0.5002129602155954
 40
0.7493803296395605
 40
1.0
 40
1.0
 40
1.0
 40
1.0
 10
166.4406947334559
 20
240.811124027965
 30
0.0
 10
166.4415003580578
 20
240.7893317645427
 30
0.0
 10
166.4431078001506
 20
240.7458502206078
 30
0.0
 10
166.4563788297959
 20
240.6814930711687
 30
0.0
 10
166.4809177763821
 20
240.6092894148972
 30
0.0
 10
166.5213972335111
 20
240.5309010212231
 30
0.0
 10
166.5651632207871
 20
240.4820911182056
 30
0.0
 10
166.5871098028931
 20
240.457615249824
 30
0.0
  0
LINE
  5
BE
330
1F
100
AcDbEntity
  8
0
  6
Continuous
 62
     8
370
    18
100
AcDbLine
 10
166.4406947335
 20
240.811124028
 30
0.0
 11
166.4406947335
 21
316.8631845435
 31
0.0
  0
SPLINE
  5
BF
330
1F
100
AcDbEntity
  8
0
  6
Continuous
 62
     8
370
    18
100
AcDbSpline
210
0.0
220
0.0
230
1.0
 70
     8
 71
     3
 72
    12
 73
     8
 74
     0
 42
0.00000001
 43
0.00000001
 40
0.0
 40
0.0
 40
0.0
 40
0.0
 40
0.166546981377348
 40
0.3323150261576683
 40
0.5001726347380334
 40
0.7493502562372268
 40
1.0
 40
1.0
 40
1.0
 40
1.0
 10
166.5871098028931
 20
317.2166933216026
 30
0.0
 10
166.5722721420624
 20
317.2007161047947
 30
0.0
 10
166.5426662158168
 20
317.1688363962734
 30
0.0
 10
166.5065486273606
 20
317.1139474086568
 30
0.0
 10
166.472849364269
 20
317.0455388281327
 30
0.0
 10
166.4460483762512
 20
316.961480394889
 30
0.0
 10
166.4424827815905
 20
316.8960140990562
 30
0.0
 10
166.4406947334559
 20
316.8631845434616
 30
0.0
  0
SPLINE
  5
C0
330
1F
100
AcDbEntity
  8
0
  6
Continuous
 62
     8
370
    18
100
AcDbSpline
210
0.0
220
0.0
230
1.0
 70
     8
 71
     3
 72
    12
 73
     8
 74
     0
 42
0.00000001
 43
0.00000001
 40
0.0
 40
0.0
 40
0.0
 40
0.0
 40
0.1665688703932625
 40
0.3323505923075694
 40
0.5002129602156419
 40
0.7493803296404926
 40
1.0
 40
1.0
 40
1.0
 40
1.0
 10
166.9406185810341
 20
317.3631083910398
 30
0.0
 10
166.9188263176116
 20
317.3623027664379
 30
0.0
 10
166.8753447736767
 20
317.3606953243452
 30
0.0
 10
166.8109876242376
 20
317.3474242946999
 30
0.0
 10
166.7387839679661
 20
317.3228853481134
 30
0.0
 10
166.6603955742922
 20
317.2824058909845
 30
0.0
 10
166.6115856712746
 20
317.2386399037085
 30
0.0
 10
166.5871098028931
 20
317.2166933216026
 30
0.0
  0
SPLINE
  5
C1
330
1F
100
AcDbEntity
  8
0
  6
Continuous
 62
     8
370
    18
100
AcDbSpline
210
0.0
220
0.0
230
1.0
 70
     8
 71
     3
 72
    12
 73
     8
 74
     0
 42
0.00000001
 43
0.00000001
 40
0.0
 40
0.0
 40
0.0
 40
0.0
 40
0.166546981377348
 40
0.3323150261576683
 40
0.5001726347380334
 40
0.7493502562372268
 40
1.0
 40
1.0
 40
1.0
 40
1.0
 10
243.3461878746717
 20
317.2166933216026
 30
0.0
 10
243.3302106578638
 20
317.2315309824334
 30
0.0
 10
243.2983309493424
 20
317.261136908679
 30
0.0
 10
243.2434419617259
 20
317.2972544971352
 30
0.0
 10
243.1750333812018
 20
317.3309537602267
 30
0.0
 10
243.0909749479581
 20
317.3577547482445
 30
0.0
 10
243.0255086521253
 20
317.3613203429052
 30
0.0
 10
242.9926790965306
 20
317.3631083910398
 30
0.0
  0
SPLINE
  5
C2
330
1F
100
AcDbEntity
  8
0
  6
Continuous
 62
     8
370
    18
100
AcDbSpline
210
0.0
220
0.0
230
1.0
 70
     8
 71
     3
 72
    12
 73
     8
 74
     0
 42
0.00000001
 43
0.00000001
 40
0.0
 40
0.0
 40
0.0
 40
0.0
 40
0.1665688703924325
 40
0.3323505923067357
 40
0.5002129602155954
 40
0.7493803296395605
 40
1.0
 40
1.0
 40
1.0
 40
1.0
 10
243.4926029441089
 20
316.8631845434616
 30
0.0
 10
243.4917973195069
 20
316.884976806884
 30
0.0
 10
243.4901898774141
 20
316.9284583508188
 30
0.0
 10
243.4769188477688
 20
316.9928155002578
 30
0.0
 10
243.4523799011826
 20
317.0650191565294
 30
0.0
 10
243.4119004440537
 20
317.1434075502036
 30
0.0
 10
243.3681344567776
 20
317.1922174532211
 30
0.0
 10
243.3461878746717
 20
317.2166933216026
 30
0.0
  0
LINE
  5
C3
330
1F
100
AcDbEntity
  8
0
  6
Continuous
 62
     8
370
    18
100
AcDbLine
 10
243.4926029441
 20
316.8631845435
 30
0.0
 11
243.4926029441
 21
240.811124028
 31
0.0
  0
SPLINE
  5
C4
330
1F
100
AcDbEntity
  8
0
  6
Continuous
 62
     8
370
    18
100
AcDbSpline
210
0.0
220
0.0
230
1.0
 70
     8
 71
     3
 72
    12
 73
     8
 74
     0
 42
0.00000001
 43
0.00000001
 40
0.0
 40
0.0
 40
0.0
 40
0.0
 40
0.1665469813777081
 40
0.3323150261580273
 40
0.5001726347380518
 40
0.7493502562376159
 40
0.9999999999999999
 40
0.9999999999999999
 40
0.9999999999999999
 40
0.9999999999999999
 10
243.3461878746717
 20
240.457615249824
 30
0.0
 10
243.3610255355024
 20
240.4735924666319
 30
0.0
 10
243.3906314617481
 20
240.5054721751534
 30
0.0
 10
243.4267490502043
 20
240.5603611627699
 30
0.0
 10
243.4604483132958
 20
240.628769743294
 30
0.0
 10
243.4872493013135
 20
240.7128281765377
 30
0.0
 10
243.4908148959742
 20
240.7782944723705
 30
0.0
 10
243.4926029441089
 20
240.8111240279651
 30
0.0
  0
LINE
  5
C5
330
1F
100
AcDbEntity
  8
0
  6
Continuous
 62
     8
370
    18
100
AcDbLine
 10
244.9923744868
 20
316.8631845435
 30
0.0
 11
243.4926029441
 21
316.8631845435
 31
0.0
  0
LINE
  5
C6
330
1F
100
AcDbEntity
  8
0
  6
Continuous
 62
     8
370
    18
100
AcDbLine
 10
244.9923744868
 20
316.8631845435
 30
0.0
 11
244.9923744868
 21
240.811124028
 31
0.0
  0
LINE
  5
C7
330
1F
100
AcDbEntity
  8
0
  6
Continuous
 62
     8
370
    18
100
AcDbLine
 10
243.4926029441
 20
240.811124028
 30
0.0
 11
244.9923744868
 21
240.811124028
 31
0.0
  0
LINE
  5
C8
330
1F
100
AcDbEntity
  8
0
  6
Continuous
 62
     8
370
    18
100
AcDbLine
 10
164.9409231907
 20
240.811124028
 30
0.0
 11
166.4406947335
 21
240.811124028
 31
0.0
  0
LINE
  5
C9
330
1F
100
AcDbEntity
  8
0
  6
Continuous
 62
     8
370
    18
100
AcDbLine
 10
164.9409231907
 20
240.811124028
 30
0.0
 11
164.9409231907
 21
316.8631845435
 31
0.0
  0
LINE
  5
CA
330
1F
100
AcDbEntity
  8
0
  6
Continuous
 62
     8
370
    18
100
AcDbLine
 10
166.4406947335
 20
316.8631845435
 30
0.0
 11
164.9409231907
 21
316.8631845435
 31
0.0
  0
LINE
  5
CB
330
1F
100
AcDbEntity
  8
0
  6
Continuous
 62
     8
370
    18
100
AcDbLine
 10
166.5871098029
 20
317.2166933216
 30
0.0
 11
165.5267726447
 21
318.2770304798
 31
0.0
  0
SPLINE
  5
CC
330
1F
100
AcDbEntity
  8
0
  6
Continuous
 62
     8
370
    18
100
AcDbSpline
210
0.0
220
0.0
230
1.0
 70
     8
 71
     3
 72
    10
 73
     6
 74
     0
 42
0.00000001
 43
0.00000001
 40
0.0
 40
0.0
 40
0.0
 40
0.0
 40
0.5
 40
0.5
 40
1.0
 40
1.0
 40
1.0
 40
1.0
 10
165.5267726446873
 20
318.2770304798084
 30
0.0
 10
165.7118901300569
 20
318.462147965178
 30
0.0
 10
165.9336566356544
 20
318.6103380901032
 30
0.0
 10
166.4172678858303
 20
318.8107300702785
 30
0.0
 10
166.6788428467555
 20
318.8628201383133
 30
0.0
 10
166.9406185810341
 20
318.8628799337744
 30
0.0
  0
LINE
  5
CD
330
1F
100
AcDbEntity
  8
0
  6
Continuous
 62
     8
370
    18
100
AcDbLine
 10
166.5871098029
 20
240.4576152498
 30
0.0
 11
165.5267726447
 21
239.3972780916
 31
0.0
  0
SPLINE
  5
CE
330
1F
100
AcDbEntity
  8
0
  6
Continuous
 62
     8
370
    18
100
AcDbSpline
210
0.0
220
0.0
230
1.0
 70
     8
 71
     3
 72
    10
 73
     6
 74
     0
 42
0.00000001
 43
0.00000001
 40
0.0
 40
0.0
 40
0.0
 40
0.0
 40
0.5
 40
0.5
 40
1.0
 40
1.0
 40
1.0
 40
1.0
 10
165.5267726446873
 20
239.3972780916182
 30
0.0
 10
165.3416551593177
 20
239.5823955769878
 30
0.0
 10
165.1934650343925
 20
239.8041620825853
 30
0.0
 10
164.9930730542172
 20
240.2877733327612
 30
0.0
 10
164.9409829861823
 20
240.5493482936864
 30
0.0
 10
164.9409231907213
 20
240.811124027965
 30
0.0
  0
SPLINE
  5
CF
330
1F
100
AcDbEntity
  8
0
  6
Continuous
 62
     8
370
    18
100
AcDbSpline
210
0.0
220
0.0
230
1.0
 70
     8
 71
     3
 72
    19
 73
    15
 74
     0
 42
0.00000001
 43
0.00000001
 40
0.0
 40
0.0
 40
0.0
 40
0.0
 40
0.0875155696262819
 40
0.174270723500849
 40
0.2602654635968123
 40
0.3454997922149388
 40
0.4299737119930206
 40
0.5136872259156225
 40
0.5966403373243552
 40
0.6788330499285561
 40
0.7602653678165033
 40
0.8409372954671456
 40
0.9208488377623941
 40
1.0
 40
1.0
 40
1.0
 40
1.0
 10
166.9406185810341
 20
238.8114286376523
 30
0.0
 10
166.8948073992585
 20
238.8123476742849
 30
0.0
 10
166.8035830853844
 20
238.8141777621147
 30
0.0
 10
166.6679853634883
 20
238.8287241232011
 30
0.0
 10
166.534827094717
 20
238.8515564125941
 30
0.0
 10
166.4046742993993
 20
238.8831765230045
 30
0.0
 10
166.2780530579415
 20
238.9229862785138
 30
0.0
 10
166.1554498034033
 20
238.9706435919753
 30
0.0
 10
166.037306082198
 20
239.0257046619465
 30
0.0
 10
165.9240346141434
 20
239.0877386611093
 30
0.0
 10
165.8159586201335
 20
239.156245897368
 30
0.0
 10
165.7135349123236
 20
239.2308908578619
 30
0.0
 10
165.6165340730117
 20
239.3106836985018
 30
0.0
 10
165.5565976144605
 20
239.368505430516
 30
0.0
 10
165.5267726446873
 20
239.3972780916182
 30
0.0
  0
LINE
  5
D0
330
1F
100
AcDbEntity
  8
0
  6
Continuous
 62
     8
370
    18
100
AcDbLine
 10
243.3461878747
 20
317.2166933216
 30
0.0
 11
244.4065250329
 21
318.2770304798
 31
0.0
  0
SPLINE
  5
D1
330
1F
100
AcDbEntity
  8
0
  6
Continuous
 62
     8
370
    18
100
AcDbSpline
210
0.0
220
0.0
230
1.0
 70
     8
 71
     3
 72
    10
 73
     6
 74
     0
 42
0.00000001
 43
0.00000001
 40
0.0
 40
0.0
 40
0.0
 40
0.0
 40
0.5
 40
0.5
 40
1.0
 40
1.0
 40
1.0
 40
1.0
 10
244.4065250328775
 20
318.2770304798084
 30
0.0
 10
244.591642518247
 20
318.0919129944388
 30
0.0
 10
244.7398326431723
 20
317.8701464888414
 30
0.0
 10
244.9402246233476
 20
317.3865352386654
 30
0.0
 10
244.9923146913824
 20
317.1249602777402
 30
0.0
 10
244.9923744868434
 20
316.8631845434616
 30
0.0
  0
SPLINE
  5
D2
330
1F
100
AcDbEntity
  8
0
  6
Continuous
 62
     8
370
    18
100
AcDbSpline
210
0.0
220
0.0
230
1.0
 70
     8
 71
     3
 72
    19
 73
    15
 74
     0
 42
0.00000001
 43
0.00000001
 40
0.0
 40
0.0
 40
0.0
 40
0.0
 40
0.0875155696262907
 40
0.1742707235008578
 40
0.2602654635968253
 40
0.3454997922149572
 40
0.4299737119930389
 40
0.5136872259156424
 40
0.596640337324375
 40
0.678833049928578
 40
0.7602653678165191
 40
0.8409372954671578
 40
0.9208488377623972
 40
1.0
 40
1.0
 40
1.0
 40
1.0
 10
164.9409231907213
 20
316.8631845434616
 30
0.0
 10
164.941842227354
 20
316.9089957252372
 30
0.0
 10
164.9436723151838
 20
317.0002200391113
 30
0.0
 10
164.9582186762702
 20
317.1358177610074
 30
0.0
 10
164.9810509656632
 20
317.2689760297787
 30
0.0
 10
165.0126710760736
 20
317.3991288250964
 30
0.0
 10
165.0524808315829
 20
317.5257500665542
 30
0.0
 10
165.1001381450444
 20
317.6483533210925
 30
0.0
 10
165.1551992150156
 20
317.7664970422977
 30
0.0
 10
165.2172332141783
 20
317.8797685103523
 30
0.0
 10
165.2857404504371
 20
317.9878445043622
 30
0.0
 10
165.3603854109309
 20
318.0902682121721
 30
0.0
 10
165.4401782515708
 20
318.187269051484
 30
0.0
 10
165.4979999835851
 20
318.2472055100352
 30
0.0
 10
165.5267726446873
 20
318.2770304798084
 30
0.0
  0
SPLINE
  5
D3
330
1F
100
AcDbEntity
  8
0
  6
Continuous
 62
     8
370
    18
100
AcDbSpline
210
0.0
220
0.0
230
1.0
 70
     8
 71
     3
 72
    19
 73
    15
 74
     0
 42
0.00000001
 43
0.00000001
 40
0.0
 40
0.0
 40
0.0
 40
0.0
 40
0.0875155696262907
 40
0.1742707235008578
 40
0.2602654635968253
 40
0.3454997922149572
 40
0.4299737119930389
 40
0.5136872259156424
 40
0.596640337324375
 40
0.6788330499285719
 40
0.7602653678165191
 40
0.8409372954671578
 40
0.9208488377623972
 40
1.0
 40
1.0
 40
1.0
 40
1.0
 10
242.9926790965306
 20
318.8628799337744
 30
0.0
 10
243.0384902783062
 20
318.8619608971417
 30
0.0
 10
243.1297145921804
 20
318.860130809312
 30
0.0
 10
243.2653123140765
 20
318.8455844482255
 30
0.0
 10
243.3984705828478
 20
318.8227521588325
 30
0.0
 10
243.5286233781655
 20
318.7911320484221
 30
0.0
 10
243.6552446196232
 20
318.7513222929128
 30
0.0
 10
243.7778478741616
 20
318.7036649794513
 30
0.0
 10
243.8959915953668
 20
318.6486039094801
 30
0.0
 10
244.0092630634213
 20
318.5865699103173
 30
0.0
 10
244.1173390574313
 20
318.5180626740586
 30
0.0
 10
244.2197627652411
 20
318.4434177135648
 30
0.0
 10
244.3167636045531
 20
318.3636248729248
 30
0.0
 10
244.3767000631043
 20
318.3058031409106
 30
0.0
 10
244.4065250328775
 20
318.2770304798084
 30
0.0
  0
LINE
  5
D4
330
1F
100
AcDbEntity
  8
0
  6
Continuous
 62
     8
370
    18
100
AcDbLine
 10
244.4065250329
 20
239.3972780916
 30
0.0
 11
243.3461878747
 21
240.4576152498
 31
0.0
  0
SPLINE
  5
D5
330
1F
100
AcDbEntity
  8
0
  6
Continuous
 62
     8
370
    18
100
AcDbSpline
210
0.0
220
0.0
230
1.0
 70
     8
 71
     3
 72
    18
 73
    14
 74
     0
 42
0.00000001
 43
0.00000001
 40
0.0
 40
0.0
 40
0.0
 40
0.0
 40
0.0863847203144899
 40
0.1736743030824768
 40
0.2618687533476214
 40
0.3509680755497302
 40
0.440972273544462
 40
0.5318813506220404
 40
0.6236953095250282
 40
0.7164141524652772
 40
0.8100378811400022
 40
0.9045664967471578
 40
1.0
 40
1.0
 40
1.0
 40
1.0
 10
244.4065250328775
 20
239.3972780916182
 30
0.0
 10
244.3739219410162
 20
239.3659285882152
 30
0.0
 10
244.3083742465083
 20
239.3029012017088
 30
0.0
 10
244.2016298091371
 20
239.216673561383
 30
0.0
 10
244.0884889469537
 20
239.1366768483262
 30
0.0
 10
243.9687191945472
 20
239.0641401781826
 30
0.0
 10
243.8429165585046
 20
238.9995104190564
 30
0.0
 10
243.7115267519369
 20
238.9434182606942
 30
0.0
 10
243.5751117598451
 20
238.896435710603
 30
0.0
 10
243.4342769730981
 20
238.8590310026757
 30
0.0
 10
243.2896899357098
 20
238.8319663110838
 30
0.0
 10
243.1420736912478
 20
238.8146938316853
 30
0.0
 10
243.0426351870808
 20
238.8125204865848
 30
0.0
 10
242.9926790965306
 20
238.8114286376523
 30
0.0
  0
SPLINE
  5
D6
330
1F
100
AcDbEntity
  8
0
  6
Continuous
 62
     8
370
    18
100
AcDbSpline
210
0.0
220
0.0
230
1.0
 70
     8
 71
     3
 72
    10
 73
     6
 74
     0
 42
0.00000001
 43
0.00000001
 40
0.0
 40
0.0
 40
0.0
 40
0.0
 40
0.5
 40
0.5
 40
1.0
 40
1.0
 40
1.0
 40
1.0
 10
244.9923744868434
 20
240.8111240279651
 30
0.0
 10
244.9923146913824
 20
240.5493482936864
 30
0.0
 10
244.9402246233475
 20
240.2877733327612
 30
0.0
 10
244.7398326431723
 20
239.8041620825854
 30
0.0
 10
244.591642518247
 20
239.5823955769878
 30
0.0
 10
244.4065250328775
 20
239.3972780916182
 30
0.0
  0
LINE
  5
D7
330
1F
100
AcDbEntity
  8
0
  6
Continuous
 62
     8
370
    18
100
AcDbLine
 10
242.9926790965
 20
318.8628799338
 30
0.0
 11
243.1048179981
 21
318.9750188354
 31
0.0
  0
LINE
  5
D8
330
1F
100
AcDbEntity
  8
0
  6
Continuous
 62
     8
370
    18
100
AcDbLine
 10
245.1045133884
 20
316.975323445
 30
0.0
 11
244.9923744868
 21
316.8631845435
 31
0.0
  0
LINE
  5
D9
330
1F
100
AcDbEntity
  8
0
  6
Continuous
 62
     8
370
    18
100
AcDbLine
 10
166.940618581
 20
238.8114286377
 30
0.0
 11
166.8284796795
 21
238.6992897361
 31
0.0
  0
LINE
  5
DA
330
1F
100
AcDbEntity
  8
0
  6
Continuous
 62
     8
370
    18
100
AcDbLine
 10
164.8287842891
 20
240.6989851264
 30
0.0
 11
164.9409231907
 21
240.811124028
 31
0.0
  0
LINE
  5
DB
330
1F
100
AcDbEntity
  8
0
  6
Continuous
 62
     8
370
    18
100
AcDbLine
 10
244.9923744868
 20
240.811124028
 30
0.0
 11
245.1045133884
 21
240.6989851264
 31
0.0
  0
LINE
  5
DC
330
1F
100
AcDbEntity
  8
0
  6
Continuous
 62
     8
370
    18
100
AcDbLine
 10
243.1048179981
 20
238.6992897361
 30
0.0
 11
242.9926790965
 21
238.8114286377
 31
0.0
  0
LINE
  5
DD
330
1F
100
AcDbEntity
  8
0
  6
Continuous
 62
     8
370
    18
100
AcDbLine
 10
164.9409231907
 20
316.8631845435
 30
0.0
 11
164.8287842891
 21
316.975323445
 31
0.0
  0
LINE
  5
DE
330
1F
100
AcDbEntity
  8
0
  6
Continuous
 62
     8
370
    18
100
AcDbLine
 10
166.8284796795
 20
318.9750188354
 30
0.0
 11
166.940618581
 21
318.8628799338
 31
0.0
  0
SPLINE
  5
DF
330
1F
100
AcDbEntity
  8
0
  6
Continuous
 62
     7
370
    25
100
AcDbSpline
210
0.0
220
0.0
230
1.0
 70
     8
 71
     3
 72
    10
 73
     6
 74
     0
 42
0.00000001
 43
0.00000001
 40
0.0
 40
0.0
 40
0.0
 40
0.0
 40
0.3409562511006778
 40
0.6821582142588395
 40
1.0
 40
1.0
 40
1.0
 40
1.0
 10
244.4377907157966
 20
151.6338142626191
 30
0.0
 10
244.5444243760727
 20
151.7368289487171
 30
0.0
 10
244.7577685427773
 20
151.9429325590314
 30
0.0
 10
244.9444447447443
 20
152.3457665420215
 30
0.0
 10
244.9702095186406
 20
152.6299238519836
 30
0.0
 10
244.982635282117
 20
152.7669664488986
 30
0.0
  0
SPLINE
  5
E0
330
1F
100
AcDbEntity
  8
0
  6
Continuous
 62
     7
370
    25
100
AcDbSpline
210
0.0
220
0.0
230
1.0
 70
     8
 71
     3
 72
     9
 73
     5
 74
     0
 42
0.00000001
 43
0.00000001
 40
0.0
 40
0.0
 40
0.0
 40
0.0
 40
0.9707950476571076
 40
1.0
 40
1.0
 40
1.0
 40
1.0
 10
244.0393865870316
 20
151.3987910181174
 30
0.0
 10
244.1831797755582
 20
151.4567098714261
 30
0.0
 10
244.3312987723264
 20
151.5163711289164
 30
0.0
 10
244.4347688763399
 20
151.6304816697133
 30
0.0
 10
244.4377907157966
 20
151.6338142626191
 30
0.0
  0
SPLINE
  5
E1
330
1F
100
AcDbEntity
  8
0
  6
Continuous
 62
     7
370
    25
100
AcDbSpline
210
0.0
220
0.0
230
1.0
 70
     8
 71
     3
 72
     9
 73
     5
 74
     0
 42
0.00000001
 43
0.00000001
 40
0.0
 40
0.0
 40
0.0
 40
0.0
 40
0.0634861971618598
 40
0.9999999999999999
 40
0.9999999999999999
 40
0.9999999999999999
 40
0.9999999999999999
 10
165.4840966082448
 20
151.6462871599414
 30
0.0
 10
165.4908724114585
 20
151.6387365847318
 30
0.0
 10
165.5976011732466
 20
151.5198040364436
 30
0.0
 10
165.7506132079969
 20
151.4573138966099
 30
0.0
 10
165.893911090541
 20
151.3987910181143
 30
0.0
  0
SPLINE
  5
E2
330
1F
100
AcDbEntity
  8
0
  6
Continuous
 62
     7
370
    25
100
AcDbSpline
210
0.0
220
0.0
230
1.0
 70
     8
 71
     3
 72
    10
 73
     6
 74
     0
 42
0.00000001
 43
0.00000001
 40
0.0
 40
0.0
 40
0.0
 40
0.0
 40
0.3220402029859357
 40
0.6677491512868828
 40
1.0
 40
1.0
 40
1.0
 40
1.0
 10
164.9506623954478
 20
152.7669664488987
 30
0.0
 10
164.9631217657434
 20
152.6299506951298
 30
0.0
 10
164.9889562232531
 20
152.3458490443302
 30
0.0
 10
165.1726539504936
 20
151.9478316363539
 30
0.0
 10
165.3816654095626
 20
151.7454629196075
 30
0.0
 10
165.4840966082448
 20
151.6462871599414
 30
0.0
  0
SPLINE
  5
E3
330
1F
100
AcDbEntity
  8
0
  6
Continuous
 62
     7
370
    25
100
AcDbSpline
210
0.0
220
0.0
230
1.0
 70
     8
 71
     3
 72
    11
 73
     7
 74
     0
 42
0.00000001
 43
0.00000001
 40
0.0
 40
0.0
 40
0.0
 40
0.0
 40
0.2527843079683231
 40
0.5106963432290211
 40
0.7628028463833416
 40
1.0
 40
1.0
 40
1.0
 40
1.0
 10
184.4083174386935
 20
134.7243080421319
 30
0.0
 10
184.3808626795944
 20
134.710394426895
 30
0.0
 10
184.3253962418679
 20
134.6822849588679
 30
0.0
 10
184.2656019520309
 20
134.611027743245
 30
0.0
 10
184.2292200842546
 20
134.528487570657
 30
0.0
 10
184.2275307804722
 20
134.4707227873057
 30
0.0
 10
184.2267118655852
 20
134.4427204578716
 30
0.0
  0
SPLINE
  5
E4
330
1F
100
AcDbEntity
  8
0
  6
Continuous
 62
     7
370
    25
100
AcDbSpline
210
0.0
220
0.0
230
1.0
 70
     8
 71
     3
 72
    11
 73
     7
 74
     0
 42
0.00000001
 43
0.00000001
 40
0.0
 40
0.0
 40
0.0
 40
0.0
 40
0.2371971536167053
 40
0.4893036567710161
 40
0.7472156920317515
 40
0.9999999999999999
 40
0.9999999999999999
 40
0.9999999999999999
 40
0.9999999999999999
 10
225.7065858119795
 20
134.4427204578716
 30
0.0
 10
225.7057668970925
 20
134.4707227873057
 30
0.0
 10
225.7040775933101
 20
134.528487570657
 30
0.0
 10
225.6676957255338
 20
134.611027743245
 30
0.0
 10
225.6079014356968
 20
134.6822849588679
 30
0.0
 10
225.5524349979703
 20
134.710394426895
 30
0.0
 10
225.5249802388712
 20
134.7243080421319
 30
0.0
  0
LINE
  5
E5
330
1F
100
AcDbEntity
  8
0
  6
Continuous
 62
     7
370
    25
100
AcDbLine
 10
186.1166488388
 20
151.295582931
 30
0.0
 11
186.1166488388
 21
134.7455829406
 31
0.0
  0
LINE
  5
E6
330
1F
100
AcDbEntity
  8
0
  6
Continuous
 62
     7
370
    25
100
AcDbLine
 10
223.8166488388
 20
134.7455829406
 30
0.0
 11
223.8166488388
 21
151.295582931
 31
0.0
  0
LINE
  5
E7
330
1F
100
AcDbEntity
  8
0
  6
Continuous
 62
     7
370
    25
100
AcDbLine
 10
245.1045133884
 20
159.1938376903
 30
0.0
 11
244.9923744868
 21
152.7694043213
 31
0.0
  0
LINE
  5
E8
330
1F
100
AcDbEntity
  8
0
  6
Continuous
 62
     7
370
    25
100
AcDbLine
 10
164.9409231907
 20
152.7694043213
 30
0.0
 11
164.8287842891
 21
159.1938376903
 31
0.0
  0
LINE
  5
E9
330
1F
100
AcDbEntity
  8
0
  6
Continuous
 62
     7
370
    25
100
AcDbLine
 10
243.1048179981
 20
159.295582931
 30
0.0
 11
166.8284796795
 21
159.295582931
 31
0.0
  0
SPLINE
  5
EA
330
1F
100
AcDbEntity
  8
0
  6
Continuous
 62
     7
370
    25
100
AcDbSpline
210
0.0
220
0.0
230
1.0
 70
    24
 71
     3
 72
    10
 73
     6
 74
     0
 42
0.00000001
 43
0.00000001
 40
0.0
 40
0.0
 40
0.0
 40
0.0
 40
0.5
 40
0.5
 40
1.0
 40
1.0
 40
1.0
 40
1.0
 10
243.1048179981138
 20
159.2955829309778
 30
0.0
 10
243.353561924277
 20
159.2955829309778
 30
0.0
 10
243.6021032905916
 20
159.2955829309778
 30
0.0
 10
244.0615957363536
 20
159.2955829309778
 30
0.0
 10
244.2722896682435
 20
159.2955829309778
 30
0.0
 10
244.4481513550496
 20
159.2955829309778
 30
0.0
  0
SPLINE
  5
EB
330
1F
100
AcDbEntity
  8
0
  6
Continuous
 62
     7
370
    25
100
AcDbSpline
210
0.0
220
0.0
230
1.0
 70
    24
 71
     3
 72
    10
 73
     6
 74
     0
 42
0.00000001
 43
0.00000001
 40
0.0
 40
0.0
 40
0.0
 40
0.0
 40
0.5
 40
0.5
 40
1.0
 40
1.0
 40
1.0
 40
1.0
 10
165.4851463225151
 20
159.2955829309778
 30
0.0
 10
165.6610080093211
 20
159.2955829309778
 30
0.0
 10
165.871701941211
 20
159.2955829309778
 30
0.0
 10
166.3311943869734
 20
159.2955829309778
 30
0.0
 10
166.5797357532877
 20
159.2955829309778
 30
0.0
 10
166.828479679451
 20
159.2955829309778
 30
0.0
  0
LINE
  5
EC
330
1F
100
AcDbEntity
  8
0
  6
Continuous
 62
     7
370
    25
100
AcDbLine
 10
166.940618581
 20
151.295582931
 30
0.0
 11
242.9926790965
 21
151.295582931
 31
0.0
  0
SPLINE
  5
ED
330
1F
100
AcDbEntity
  8
0
  6
Continuous
 62
     7
370
    25
100
AcDbSpline
210
0.0
220
0.0
230
1.0
 70
    24
 71
     3
 72
    12
 73
     8
 74
     0
 42
0.00000001
 43
0.00000001
 40
0.0
 40
0.0
 40
0.0
 40
0.0
 40
0.166546981377348
 40
0.3323150261576683
 40
0.5001726347380334
 40
0.7493502562372268
 40
1.0
 40
1.0
 40
1.0
 40
1.0
 10
243.3461878746717
 20
151.2955829309778
 30
0.0
 10
243.3302106578638
 20
151.2955829309778
 30
0.0
 10
243.2983309493424
 20
151.2955829309778
 30
0.0
 10
243.2434419617259
 20
151.2955829309778
 30
0.0
 10
243.1750333812018
 20
151.2955829309778
 30
0.0
 10
243.0909749479581
 20
151.2955829309778
 30
0.0
 10
243.0255086521253
 20
151.2955829309778
 30
0.0
 10
242.9926790965306
 20
151.2955829309778
 30
0.0
  0
SPLINE
  5
EE
330
1F
100
AcDbEntity
  8
0
  6
Continuous
 62
     7
370
    25
100
AcDbSpline
210
0.0
220
0.0
230
1.0
 70
    24
 71
     3
 72
    12
 73
     8
 74
     0
 42
0.00000001
 43
0.00000001
 40
0.0
 40
0.0
 40
0.0
 40
0.0
 40
0.1665688703932625
 40
0.3323505923075694
 40
0.5002129602156419
 40
0.7493803296404926
 40
1.0
 40
1.0
 40
1.0
 40
1.0
 10
166.9406185810341
 20
151.2955829309778
 30
0.0
 10
166.9188263176116
 20
151.2955829309778
 30
0.0
 10
166.8753447736767
 20
151.2955829309778
 30
0.0
 10
166.8109876242376
 20
151.2955829309778
 30
0.0
 10
166.7387839679661
 20
151.2955829309778
 30
0.0
 10
166.6603955742922
 20
151.2955829309778
 30
0.0
 10
166.6115856712746
 20
151.2955829309778
 30
0.0
 10
166.5871098028931
 20
151.2955829309778
 30
0.0
  0
ARC
  5
EF
330
1F
100
AcDbEntity
  8
0
  6
Continuous
 62
     7
370
    25
100
AcDbCircle
 10
245.0045286189
 20
159.195582931
 30
0.0
 40
0.1000000000000227
100
AcDbArc
 50
359.0
 51
90.0
  0
SPLINE
  5
F0
330
1F
100
AcDbEntity
  8
0
  6
Continuous
 62
     7
370
    25
100
AcDbSpline
210
0.0
220
0.0
230
1.0
 70
    24
 71
     3
 72
    10
 73
     6
 74
     0
 42
0.00000001
 43
0.00000001
 40
0.0
 40
0.0
 40
0.0
 40
0.0
 40
0.5
 40
0.5
 40
1.0
 40
1.0
 40
1.0
 40
1.0
 10
244.4481513550496
 20
159.2955829309778
 30
0.0
 10
244.6240130418453
 20
159.2955829309778
 30
0.0
 10
244.7647775559695
 20
159.2955829309778
 30
0.0
 10
244.9550885822069
 20
159.2955829309778
 30
0.0
 10
245.0045286189014
 20
159.2955829309778
 30
0.0
 10
245.0045286189109
 20
159.2955829309778
 30
0.0
  0
ARC
  5
F1
330
1F
100
AcDbEntity
  8
0
  6
Continuous
 62
     7
370
    25
100
AcDbCircle
 10
164.9287690587
 20
159.195582931
 30
0.0
 40
0.1000000000000227
100
AcDbArc
 50
90.0
 51
181.0
  0
SPLINE
  5
F2
330
1F
100
AcDbEntity
  8
0
  6
Continuous
 62
     7
370
    25
100
AcDbSpline
210
0.0
220
0.0
230
1.0
 70
    24
 71
     3
 72
    10
 73
     6
 74
     0
 42
0.00000001
 43
0.00000001
 40
0.0
 40
0.0
 40
0.0
 40
0.0
 40
0.5
 40
0.5
 40
1.0
 40
1.0
 40
1.0
 40
1.0
 10
164.9287690586539
 20
159.2955829309778
 30
0.0
 10
164.9287690586634
 20
159.2955829309778
 30
0.0
 10
164.9782090953571
 20
159.2955829309778
 30
0.0
 10
165.1685201215961
 20
159.2955829309778
 30
0.0
 10
165.3092846357193
 20
159.2955829309778
 30
0.0
 10
165.4851463225151
 20
159.2955829309778
 30
0.0
  0
ARC
  5
F3
330
1F
100
AcDbEntity
  8
0
  6
Continuous
 62
     7
370
    25
100
AcDbCircle
 10
243.4926029441
 20
152.795582931
 30
0.0
 40
1.5
100
AcDbArc
 50
270.0
 51
359.0
  0
SPLINE
  5
F4
330
1F
100
AcDbEntity
  8
0
  6
Continuous
 62
     7
370
    25
100
AcDbSpline
210
0.0
220
0.0
230
1.0
 70
    24
 71
     3
 72
    12
 73
     8
 74
     0
 42
0.00000001
 43
0.00000001
 40
0.0
 40
0.0
 40
0.0
 40
0.0
 40
0.1665688703924325
 40
0.3323505923067357
 40
0.5002129602155954
 40
0.7493803296395605
 40
1.0
 40
1.0
 40
1.0
 40
1.0
 10
243.4926029441089
 20
151.2955829309778
 30
0.0
 10
243.4917973195069
 20
151.2955829309778
 30
0.0
 10
243.4901898774141
 20
151.2955829309778
 30
0.0
 10
243.4769188477688
 20
151.2955829309778
 30
0.0
 10
243.4523799011826
 20
151.2955829309778
 30
0.0
 10
243.4119004440537
 20
151.2955829309778
 30
0.0
 10
243.3681344567776
 20
151.2955829309778
 30
0.0
 10
243.3461878746717
 20
151.2955829309778
 30
0.0
  0
SPLINE
  5
F5
330
1F
100
AcDbEntity
  8
0
  6
Continuous
 62
     7
370
    25
100
AcDbSpline
210
0.0
220
0.0
230
1.0
 70
    24
 71
     3
 72
    12
 73
     8
 74
     0
 42
0.00000001
 43
0.00000001
 40
0.0
 40
0.0
 40
0.0
 40
0.0
 40
0.166546981377348
 40
0.3323150261576683
 40
0.5001726347380334
 40
0.7493502562372268
 40
1.0
 40
1.0
 40
1.0
 40
1.0
 10
166.5871098028931
 20
151.2955829309778
 30
0.0
 10
166.5722721420624
 20
151.2955829309778
 30
0.0
 10
166.5426662158168
 20
151.2955829309778
 30
0.0
 10
166.5065486273606
 20
151.2955829309778
 30
0.0
 10
166.472849364269
 20
151.2955829309778
 30
0.0
 10
166.4460483762512
 20
151.2955829309778
 30
0.0
 10
166.4424827815905
 20
151.2955829309778
 30
0.0
 10
166.4406947334559
 20
151.2955829309778
 30
0.0
  0
ARC
  5
F6
330
1F
100
AcDbEntity
  8
0
  6
Continuous
 62
     7
370
    25
100
AcDbCircle
 10
166.4406947335
 20
152.795582931
 30
0.0
 40
1.5
100
AcDbArc
 50
181.0
 51
270.0
  0
LINE
  5
F7
330
1F
100
AcDbEntity
  8
0
  6
Continuous
 62
     7
370
    25
100
AcDbLine
 10
225.7140079318
 20
134.4429649799
 30
0.0
 11
225.6990016118
 21
134.4427310451
 31
0.0
  0
LINE
  5
F8
330
1F
100
AcDbEntity
  8
0
  6
Continuous
 62
     7
370
    25
100
AcDbLine
 10
225.7140079318
 20
134.4429649799
 30
0.0
 11
225.4294206555
 21
101.8324931373
 31
0.0
  0
LINE
  5
F9
330
1F
100
AcDbEntity
  8
0
  6
Continuous
 62
     7
370
    25
100
AcDbLine
 10
224.2140650473
 20
134.7455829406
 30
0.0
 11
185.7192326303
 21
134.7455829406
 31
0.0
  0
LINE
  5
FA
330
1F
100
AcDbEntity
  8
0
  6
Continuous
 62
     7
370
    25
100
AcDbLine
 10
184.5038770221
 20
101.8324931373
 30
0.0
 11
184.2192897457
 21
134.4429649799
 31
0.0
  0
SPLINE
  5
FB
330
1F
100
AcDbEntity
  8
0
  6
Continuous
 62
     7
370
    25
100
AcDbSpline
210
0.0
220
0.0
230
1.0
 70
    24
 71
     3
 72
     8
 73
     4
 74
     0
 42
0.00000001
 43
0.00000001
 40
0.0
 40
0.0
 40
0.0
 40
0.0
 40
1.0
 40
1.0
 40
1.0
 40
1.0
 10
184.8707312593411
 20
134.7455829405804
 30
0.0
 10
185.0941950077959
 20
134.7455829405804
 30
0.0
 10
185.4031950748401
 20
134.7455829405804
 30
0.0
 10
185.7192326303123
 20
134.7455829405804
 30
0.0
  0
SPLINE
  5
FC
330
1F
100
AcDbEntity
  8
0
  6
Continuous
 62
     7
370
    25
100
AcDbSpline
210
0.0
220
0.0
230
1.0
 70
    24
 71
     3
 72
     8
 73
     4
 74
     0
 42
0.00000001
 43
0.00000001
 40
0.0
 40
0.0
 40
0.0
 40
0.0
 40
1.0
 40
1.0
 40
1.0
 40
1.0
 10
224.2140650472524
 20
134.7455829405804
 30
0.0
 10
224.5301026027257
 20
134.7455829405804
 30
0.0
 10
224.8391026697673
 20
134.7455829405804
 30
0.0
 10
225.0625664182236
 20
134.7455829405804
 30
0.0
  0
ARC
  5
FD
330
1F
100
AcDbEntity
  8
0
  6
Continuous
 62
     7
370
    25
100
AcDbCircle
 10
186.0038199067
 20
101.8455829406
 30
0.0
 40
1.500000000000009
100
AcDbArc
 50
180.5
 51
270.0
  0
ARC
  5
FE
330
1F
100
AcDbEntity
  8
0
  6
Continuous
 62
     7
370
    25
100
AcDbCircle
 10
223.9294777709
 20
101.8455829406
 30
0.0
 40
1.5
100
AcDbArc
 50
270.0
 51
359.5
  0
LINE
  5
FF
330
1F
100
AcDbEntity
  8
0
  6
Continuous
 62
     7
370
    25
100
AcDbLine
 10
186.0038199067
 20
100.3455829406
 30
0.0
 11
223.9294777709
 21
100.3455829406
 31
0.0
  0
LWPOLYLINE
  5
100
330
1F
100
AcDbEntity
  8
0
  6
Continuous
 62
     7
370
    25
100
AcDbPolyline
 90
        3
 70
   128
 43
0.0
 10
184.2192897457
 20
134.4429649799
 10
184.2246044185
 20
134.5018616242
 10
184.2279546908
 20
134.5172107394
  0
ARC
  5
101
330
1F
100
AcDbEntity
  8
0
  6
Continuous
 62
     7
370
    25
100
AcDbCircle
 10
184.5192783226
 20
134.4455829406
 30
0.0
 40
0.3000000000000153
100
AcDbArc
 50
90.0
 51
131.9896015709
  0
SPLINE
  5
102
330
1F
100
AcDbEntity
  8
0
  6
Continuous
 62
     7
370
    25
100
AcDbSpline
210
0.0
220
0.0
230
1.0
 70
    24
 71
     3
 72
     8
 73
     4
 74
     0
 42
0.00000001
 43
0.00000001
 40
0.0
 40
0.0
 40
0.0
 40
0.0
 40
1.0
 40
1.0
 40
1.0
 40
1.0
 10
184.5192783226353
 20
134.7455829405804
 30
0.0
 10
184.5192783226814
 20
134.7455829405804
 30
0.0
 10
184.6472675109506
 20
134.7455829405804
 30
0.0
 10
184.8707312593411
 20
134.7455829405804
 30
0.0
  0
LWPOLYLINE
  5
103
330
1F
100
AcDbEntity
  8
0
  6
Continuous
 62
     7
370
    25
100
AcDbPolyline
 90
        3
 70
   128
 43
0.0
 10
225.7140079318
 20
134.4429649799
 10
225.7086932591
 20
134.5018616242
 10
225.7053429867
 20
134.5172107394
  0
ARC
  5
104
330
1F
100
AcDbEntity
  8
0
  6
Continuous
 62
     7
370
    25
100
AcDbCircle
 10
225.4140193549
 20
134.4455829406
 30
0.0
 40
0.2999999999999963
100
AcDbArc
 50
48.0103984291
 51
90.0
  0
SPLINE
  5
105
330
1F
100
AcDbEntity
  8
0
  6
Continuous
 62
     7
370
    25
100
AcDbSpline
210
0.0
220
0.0
230
1.0
 70
    24
 71
     3
 72
     8
 73
     4
 74
     0
 42
0.00000001
 43
0.00000001
 40
0.0
 40
0.0
 40
0.0
 40
0.0
 40
1.0
 40
1.0
 40
1.0
 40
1.0
 10
225.0625664182236
 20
134.7455829405804
 30
0.0
 10
225.2860301666146
 20
134.7455829405804
 30
0.0
 10
225.4140193548834
 20
134.7455829405804
 30
0.0
 10
225.4140193549294
 20
134.7455829405804
 30
0.0
  0
LINE
  5
106
330
1F
100
AcDbEntity
  8
0
  6
Continuous
 62
     8
370
    18
100
AcDbLine
 10
242.9926790965
 20
152.7694043213
 30
0.0
 11
243.1048179981
 21
159.1938376903
 31
0.0
  0
SPLINE
  5
107
330
1F
100
AcDbEntity
  8
0
  6
Continuous
 62
     8
370
    18
100
AcDbSpline
210
0.0
220
0.0
230
1.0
 70
     8
 71
     3
 72
    18
 73
    14
 74
     0
 42
0.00000001
 43
0.00000001
 40
0.0
 40
0.0
 40
0.0
 40
0.0
 40
0.0863807640641049
 40
0.1736665713609804
 40
0.2618576428871709
 40
0.350954192452779
 40
0.4409564269645012
 40
0.5318645466947644
 40
0.6236787455377022
 40
0.7163992112527642
 40
0.8100261256967128
 40
0.9045596650445242
 40
1.0
 40
1.0
 40
1.0
 40
1.0
 10
244.5188404989301
 20
159.1931151637855
 30
0.0
 10
244.4862371081991
 20
159.1931149620813
 30
0.0
 10
244.4206887289468
 20
159.1931145565597
 30
0.0
 10
244.3139395868091
 20
159.193117928142
 30
0.0
 10
244.2007913135015
 20
159.1931315475029
 30
0.0
 10
244.0810111666119
 20
159.1931596117273
 30
0.0
 10
243.9551952325675
 20
159.1932052952573
 30
0.0
 10
243.8237892050323
 20
159.1932703352678
 30
0.0
 10
243.6873550782911
 20
159.1933550042268
 30
0.0
 10
243.5464982405292
 20
159.1934580450404
 30
0.0
 10
243.4018862510368
 20
159.1935763901913
 30
0.0
 10
243.2542421080733
 20
159.1937058353289
 30
0.0
 10
243.1547842809488
 20
159.1937935990259
 30
0.0
 10
243.1048179981138
 20
159.193837690334
 30
0.0
  0
SPLINE
  5
108
330
1F
100
AcDbEntity
  8
0
  6
Continuous
 62
     8
370
    18
100
AcDbSpline
210
0.0
220
0.0
230
1.0
 70
     8
 71
     3
 72
    19
 73
    15
 74
     0
 42
0.00000001
 43
0.00000001
 40
0.0
 40
0.0
 40
0.0
 40
0.0
 40
0.0875219065052871
 40
0.174281782429396
 40
0.2602797601982956
 40
0.3455159760638839
 40
0.4299905702389538
 40
0.5137036870381267
 40
0.5966554750252983
 40
0.6788460871677462
 40
0.7602756809974137
 40
0.8409444187797279
 40
0.9208524676902834
 40
0.9999999999999999
 40
0.9999999999999999
 40
0.9999999999999999
 40
0.9999999999999999
 10
245.1045133884265
 20
159.193837690334
 30
0.0
 10
245.1036039269802
 20
159.1937972944885
 30
0.0
 10
245.1017929225328
 20
159.1937168545137
 30
0.0
 10
245.0872722920814
 20
159.1935974986405
 30
0.0
 10
245.0644633884155
 20
159.1934866542805
 30
0.0
 10
245.0328641687203
 20
159.1933878090663
 30
0.0
 10
244.9930728425151
 20
159.1933037184583
 30
0.0
 10
244.9454314884882
 20
159.1932358167398
 30
0.0
 10
244.8903839108949
 20
159.193184442372
 30
0.0
 10
244.8283609315157
 20
159.1931488471758
 30
0.0
 10
244.7598622603799
 20
159.1931272903896
 30
0.0
 10
244.6852233458756
 20
159.1931170284626
 30
0.0
 10
244.6054342660259
 20
159.1931146495804
 30
0.0
 10
244.5476129313197
 20
159.193114992931
 30
0.0
 10
244.5188404989301
 20
159.1931151637855
 30
0.0
  0
SPLINE
  5
109
330
1F
100
AcDbEntity
  8
0
  6
Continuous
 62
     8
370
    18
100
AcDbSpline
210
0.0
220
0.0
230
1.0
 70
     8
 71
     3
 72
    10
 73
     6
 74
     0
 42
0.00000001
 43
0.00000001
 40
0.0
 40
0.0
 40
0.0
 40
0.0
 40
0.5
 40
0.5
 40
1.0
 40
1.0
 40
1.0
 40
1.0
 10
244.4065250328775
 20
152.7585664230932
 30
0.0
 10
244.591642518247
 20
152.7585664230899
 30
0.0
 10
244.7398326431723
 20
152.7595294867568
 30
0.0
 10
244.9402246233476
 20
152.763236630072
 30
0.0
 10
244.9923146913824
 20
152.7659786416577
 30
0.0
 10
244.9923744868434
 20
152.7694043213218
 30
0.0
  0
SPLINE
  5
10A
330
1F
100
AcDbEntity
  8
0
  6
Continuous
 62
     8
370
    18
100
AcDbSpline
210
0.0
220
0.0
230
1.0
 70
     8
 71
     3
 72
    19
 73
    15
 74
     0
 42
0.00000001
 43
0.00000001
 40
0.0
 40
0.0
 40
0.0
 40
0.0
 40
0.0875155696262907
 40
0.1742707235008578
 40
0.2602654635968253
 40
0.3454997922149572
 40
0.4299737119930389
 40
0.5136872259156424
 40
0.596640337324375
 40
0.6788330499285719
 40
0.7602653678165191
 40
0.8409372954671578
 40
0.9208488377623972
 40
1.0
 40
1.0
 40
1.0
 40
1.0
 10
242.9926790965306
 20
152.7694043213218
 30
0.0
 10
243.0384902783062
 20
152.7688163925793
 30
0.0
 10
243.1297145921804
 20
152.7676456435597
 30
0.0
 10
243.2653123140765
 20
152.7660575522811
 30
0.0
 10
243.3984705828478
 20
152.7646096255847
 30
0.0
 10
243.5286233781655
 20
152.7633165146221
 30
0.0
 10
243.6552446196232
 20
152.7621780177066
 30
0.0
 10
243.7778478741616
 20
152.7611963686759
 30
0.0
 10
243.8959915953668
 20
152.7603716276368
 30
0.0
 10
244.0092630634213
 20
152.7597033647558
 30
0.0
 10
244.1173390574313
 20
152.7591888523887
 30
0.0
 10
244.2197627652411
 20
152.758828928081
 30
0.0
 10
244.3167636045531
 20
152.7586070144095
 30
0.0
 10
244.3767000631043
 20
152.7585799103427
 30
0.0
 10
244.4065250328775
 20
152.7585664230932
 30
0.0
  0
SPLINE
  5
10B
330
1F
100
AcDbEntity
  8
0
  6
Continuous
 62
     8
370
    18
100
AcDbSpline
210
0.0
220
0.0
230
1.0
 70
     8
 71
     3
 72
    18
 73
    14
 74
     0
 42
0.00000001
 43
0.00000001
 40
0.0
 40
0.0
 40
0.0
 40
0.0
 40
0.0863807640641111
 40
0.1736665713609928
 40
0.2618576428871833
 40
0.350954192452795
 40
0.4409564269645191
 40
0.531864546694784
 40
0.6236787455377202
 40
0.716399211252778
 40
0.8100261256967214
 40
0.9045596650445288
 40
1.0
 40
1.0
 40
1.0
 40
1.0
 10
165.4144571786347
 20
159.1931151637855
 30
0.0
 10
165.3831079467565
 20
159.1931149620813
 30
0.0
 10
165.3200810254959
 20
159.1931145565597
 30
0.0
 10
165.2338578577282
 20
159.193117928142
 30
0.0
 10
165.1538683394451
 20
159.1931315475029
 30
0.0
 10
165.0813418662983
 20
159.1931596117273
 30
0.0
 10
165.0167252289837
 20
159.1932052952573
 30
0.0
 10
164.9606491383162
 20
159.1932703352678
 30
0.0
 10
164.9136855972416
 20
159.1933550042268
 30
0.0
 10
164.8763028322732
 20
159.1934580450404
 30
0.0
 10
164.8492630550192
 20
159.1935763901913
 30
0.0
 10
164.8320182876007
 20
159.193705835329
 30
0.0
 10
164.829865713561
 20
159.1937935990259
 30
0.0
 10
164.8287842891382
 20
159.193837690334
 30
0.0
  0
SPLINE
  5
10C
330
1F
100
AcDbEntity
  8
0
  6
Continuous
 62
     8
370
    18
100
AcDbSpline
210
0.0
220
0.0
230
1.0
 70
     8
 71
     3
 72
    19
 73
    15
 74
     0
 42
0.00000001
 43
0.00000001
 40
0.0
 40
0.0
 40
0.0
 40
0.0
 40
0.0875219065052871
 40
0.1742817824294003
 40
0.2602797601982955
 40
0.3455159760638881
 40
0.4299905702389579
 40
0.5137036870381324
 40
0.5966554750253019
 40
0.6788460871677461
 40
0.7602756809974174
 40
0.8409444187797314
 40
0.9208524676902834
 40
1.0
 40
1.0
 40
1.0
 40
1.0
 10
166.828479679451
 20
159.193837690334
 30
0.0
 10
166.7826591169841
 20
159.1937972944885
 30
0.0
 10
166.691416939825
 20
159.1937168545137
 30
0.0
 10
166.555793334346
 20
159.1935974986405
 30
0.0
 10
166.4226116587271
 20
159.1934866542805
 30
0.0
 10
166.2924378949878
 20
159.1933878090663
 30
0.0
 10
166.1657981354024
 20
159.1933037184583
 30
0.0
 10
166.0431788121383
 20
159.1932358167398
 30
0.0
 10
165.9250214724654
 20
159.193184442372
 30
0.0
 10
165.811738842525
 20
159.1931488471758
 30
0.0
 10
165.7036541269167
 20
159.1931272903896
 30
0.0
 10
165.6012242037442
 20
159.1931170284626
 30
0.0
 10
165.5042194233943
 20
159.1931146495804
 30
0.0
 10
165.4442823982216
 20
159.193114992931
 30
0.0
 10
165.4144571786347
 20
159.1931151637855
 30
0.0
  0
LINE
  5
10D
330
1F
100
AcDbEntity
  8
0
  6
Continuous
 62
     8
370
    18
100
AcDbLine
 10
166.8284796795
 20
159.1938376903
 30
0.0
 11
166.940618581
 21
152.7694043213
 31
0.0
  0
SPLINE
  5
10E
330
1F
100
AcDbEntity
  8
0
  6
Continuous
 62
     8
370
    18
100
AcDbSpline
210
0.0
220
0.0
230
1.0
 70
     8
 71
     3
 72
    10
 73
     6
 74
     0
 42
0.00000001
 43
0.00000001
 40
0.0
 40
0.0
 40
0.0
 40
0.0
 40
0.5
 40
0.5
 40
1.0
 40
1.0
 40
1.0
 40
1.0
 10
165.5267726446873
 20
152.7585664230932
 30
0.0
 10
165.7118901300569
 20
152.7585664230899
 30
0.0
 10
165.9336566356544
 20
152.7595294867568
 30
0.0
 10
166.4172678858303
 20
152.763236630072
 30
0.0
 10
166.6788428467555
 20
152.7659786416577
 30
0.0
 10
166.9406185810341
 20
152.7694043213218
 30
0.0
  0
SPLINE
  5
10F
330
1F
100
AcDbEntity
  8
0
  6
Continuous
 62
     8
370
    18
100
AcDbSpline
210
0.0
220
0.0
230
1.0
 70
     8
 71
     3
 72
    19
 73
    15
 74
     0
 42
0.00000001
 43
0.00000001
 40
0.0
 40
0.0
 40
0.0
 40
0.0
 40
0.0875155696262907
 40
0.1742707235008578
 40
0.2602654635968253
 40
0.3454997922149572
 40
0.4299737119930389
 40
0.5136872259156424
 40
0.596640337324375
 40
0.678833049928578
 40
0.7602653678165191
 40
0.8409372954671578
 40
0.9208488377623972
 40
1.0
 40
1.0
 40
1.0
 40
1.0
 10
164.9409231907213
 20
152.7694043213218
 30
0.0
 10
164.941842227354
 20
152.7688163925793
 30
0.0
 10
164.9436723151838
 20
152.7676456435597
 30
0.0
 10
164.9582186762702
 20
152.7660575522811
 30
0.0
 10
164.9810509656632
 20
152.7646096255847
 30
0.0
 10
165.0126710760736
 20
152.7633165146221
 30
0.0
 10
165.0524808315829
 20
152.7621780177066
 30
0.0
 10
165.1001381450444
 20
152.7611963686759
 30
0.0
 10
165.1551992150156
 20
152.7603716276368
 30
0.0
 10
165.2172332141783
 20
152.7597033647558
 30
0.0
 10
165.2857404504371
 20
152.7591888523887
 30
0.0
 10
165.3603854109309
 20
152.758828928081
 30
0.0
 10
165.4401782515708
 20
152.7586070144095
 30
0.0
 10
165.4979999835851
 20
152.7585799103427
 30
0.0
 10
165.5267726446873
 20
152.7585664230932
 30
0.0
  0
LINE
  5
110
330
1F
100
AcDbEntity
  8
0
  6
Continuous
 62
     8
370
    18
100
AcDbLine
 10
166.8284796795
 20
159.1938376903
 30
0.0
 11
243.1048179981
 21
159.1938376903
 31
0.0
  0
LINE
  5
111
330
1F
100
AcDbEntity
  8
0
  6
Continuous
 62
     8
370
    18
100
AcDbLine
 10
166.940618581
 20
152.7694043213
 30
0.0
 11
242.9926790965
 21
152.7694043213
 31
0.0
  0
LINE
  5
112
330
1F
100
AcDbEntity
  8
0
  6
Continuous
 62
     8
370
    18
100
AcDbLine
 10
243.1048179981
 20
159.1938376903
 30
0.0
 11
243.1048179981
 21
159.295582931
 31
0.0
  0
LINE
  5
113
330
1F
100
AcDbEntity
  8
0
  6
Continuous
 62
     8
370
    18
100
AcDbLine
 10
166.8284796795
 20
159.1938376903
 30
0.0
 11
166.8284796795
 21
159.295582931
 31
0.0
  0
ARC
  5
114
330
1F
100
AcDbEntity
  8
0
  6
Continuous
 62
     8
370
    18
100
AcDbCircle
 10
244.4298872436
 20
159.2073661791
 30
0.0
 40
0.090087585583921
100
AcDbArc
 50
350.8981083054
 51
78.3029268394
  0
ARC
  5
115
330
1F
100
AcDbEntity
  8
0
  6
Continuous
 62
     8
370
    18
100
AcDbCircle
 10
165.503410434
 20
159.2073661791
 30
0.0
 40
0.09008758558394
100
AcDbArc
 50
101.6970731607
 51
189.1018916946
  0
LINE
  5
116
330
1F
100
AcDbEntity
  8
0
  6
Continuous
 62
     8
370
    18
100
AcDbLine
 10
166.940618581
 20
152.7694043213
 30
0.0
 11
166.940618581
 21
151.295582931
 31
0.0
  0
LINE
  5
117
330
1F
100
AcDbEntity
  8
0
  6
Continuous
 62
     8
370
    18
100
AcDbLine
 10
242.9926790965
 20
151.295582931
 30
0.0
 11
242.9926790965
 21
152.7694043213
 31
0.0
  0
ARC
  5
118
330
1F
100
AcDbEntity
  8
0
  6
Continuous
 62
     8
370
    18
100
AcDbCircle
 10
243.0897933044
 20
152.5971577566
 30
0.0
 40
1.326587804262634
100
AcDbArc
 50
281.1438971937
 51
6.9886115513
  0
ARC
  5
119
330
1F
100
AcDbEntity
  8
0
  6
Continuous
 62
     8
370
    18
100
AcDbCircle
 10
166.8435043732
 20
152.5971577566
 30
0.0
 40
1.326587804262623
100
AcDbArc
 50
173.0113884487
 51
258.8561028063
  0
SPLINE
  5
11A
330
1F
100
AcDbEntity
  8
0
  6
Continuous
 62
     8
370
    18
100
AcDbSpline
210
0.0
220
0.0
230
1.0
 70
     8
 71
     3
 72
    16
 73
    12
 74
     0
 42
0.00000001
 43
0.00000001
 40
0.0
 40
0.0
 40
0.0
 40
0.0
 40
0.1057030580188662
 40
0.2127580367760147
 40
0.3211649804299606
 40
0.4309239300101836
 40
0.5420349235508543
 40
0.654497996216526
 40
0.7683131804203852
 40
0.8834805059355682
 40
1.0
 40
1.0
 40
1.0
 40
1.0
 10
225.2746822988264
 20
134.4418807260878
 30
0.0
 10
225.2446283304724
 20
134.4418825742425
 30
0.0
 10
225.1841360095862
 20
134.4418862941894
 30
0.0
 10
225.0840243585845
 20
134.441920390158
 30
0.0
 10
224.9769226352122
 20
134.4419800244684
 30
0.0
 10
224.8627027751779
 20
134.4420695169707
 30
0.0
 10
224.742205335745
 20
134.4421898151526
 30
0.0
 10
224.6161327641277
 20
134.4423411500076
 30
0.0
 10
224.4853507934546
 20
134.4425227013634
 30
0.0
 10
224.3508040076128
 20
134.4427306190352
 30
0.0
 10
224.2598216974215
 20
134.4428865562725
 30
0.0
 10
224.2140650472524
 20
134.4429649799309
 30
0.0
  0
SPLINE
  5
11B
330
1F
100
AcDbEntity
  8
0
  6
Continuous
 62
     8
370
    18
100
AcDbSpline
210
0.0
220
0.0
230
1.0
 70
     8
 71
     3
 72
    10
 73
     6
 74
     0
 42
0.00000001
 43
0.00000001
 40
0.0
 40
0.0
 40
0.0
 40
0.0
 40
0.1549179056682013
 40
0.44528090419894
 40
1.0
 40
1.0
 40
1.0
 40
1.0
 10
225.6990016117556
 20
134.4427310451487
 30
0.0
 10
225.6950817807898
 20
134.4426438109241
 30
0.0
 10
225.6838150013351
 20
134.4423930733849
 30
0.0
 10
225.5756282825683
 20
134.4419921815637
 30
0.0
 10
225.393942437454
 20
134.4419248941319
 30
0.0
 10
225.2746822988264
 20
134.4418807260878
 30
0.0
  0
ARC
  5
11C
330
1F
100
AcDbEntity
  8
0
  6
Continuous
 62
     8
370
    18
100
AcDbCircle
 10
224.6794492132
 20
144.8070251509
 30
0.0
 40
42.98107559083901
100
AcDbArc
 50
269.0002023313
 51
270.9997976686
  0
LINE
  5
11D
330
1F
100
AcDbEntity
  8
0
  6
Continuous
 62
     8
370
    18
100
AcDbLine
 10
223.9294777709
 20
101.8324931373
 30
0.0
 11
224.2140650473
 21
134.4429649799
 31
0.0
  0
LINE
  5
11E
330
1F
100
AcDbEntity
  8
0
  6
Continuous
 62
     8
370
    18
100
AcDbLine
 10
185.7192326303
 20
134.4429649799
 30
0.0
 11
224.2140650473
 21
134.4429649799
 31
0.0
  0
LINE
  5
11F
330
1F
100
AcDbEntity
  8
0
  6
Continuous
 62
     8
370
    18
100
AcDbLine
 10
186.0038199067
 20
101.8324931373
 30
0.0
 11
223.9294777709
 21
101.8324931373
 31
0.0
  0
LINE
  5
120
330
1F
100
AcDbEntity
  8
0
  6
Continuous
 62
     8
370
    18
100
AcDbLine
 10
185.7192326303
 20
134.4429649799
 30
0.0
 11
186.0038199067
 21
101.8324931373
 31
0.0
  0
LINE
  5
121
330
1F
100
AcDbEntity
  8
0
  6
Continuous
 62
     8
370
    18
100
AcDbLine
 10
224.2140650473
 20
134.4429649799
 30
0.0
 11
224.2140650473
 21
134.7455829406
 31
0.0
  0
LINE
  5
122
330
1F
100
AcDbEntity
  8
0
  6
Continuous
 62
     8
370
    18
100
AcDbLine
 10
185.7192326303
 20
134.4429649799
 30
0.0
 11
185.7192326303
 21
134.7455829406
 31
0.0
  0
SPLINE
  5
123
330
1F
100
AcDbEntity
  8
0
  6
Continuous
 62
     8
370
    18
100
AcDbSpline
210
0.0
220
0.0
230
1.0
 70
     8
 71
     3
 72
    16
 73
    12
 74
     0
 42
0.00000001
 43
0.00000001
 40
0.0
 40
0.0
 40
0.0
 40
0.0
 40
0.1057030580189527
 40
0.2127580367761575
 40
0.3211649804301464
 40
0.4309239300103874
 40
0.5420349235510591
 40
0.65449799621671
 40
0.7683131804205288
 40
0.8834805059356465
 40
1.0
 40
1.0
 40
1.0
 40
1.0
 10
184.6586153787383
 20
134.4418807260878
 30
0.0
 10
184.6299703323807
 20
134.4418825742425
 30
0.0
 10
184.5723138753147
 20
134.4418862941894
 30
0.0
 10
184.4953106030086
 20
134.441920390158
 30
0.0
 10
184.425603601964
 20
134.4419800244684
 30
0.0
 10
184.3647161820982
 20
134.4420695169707
 30
0.0
 10
184.3132981991313
 20
134.4421898151526
 30
0.0
 10
184.2720982030113
 20
134.4423411500075
 30
0.0
 10
184.24211876263
 20
134.4425227013634
 30
0.0
 10
184.2229034083296
 20
134.4427306190352
 30
0.0
 10
184.2204989774932
 20
134.4428865562725
 30
0.0
 10
184.2192897457161
 20
134.4429649799309
 30
0.0
  0
SPLINE
  5
124
330
1F
100
AcDbEntity
  8
0
  6
Continuous
 62
     8
370
    18
100
AcDbSpline
210
0.0
220
0.0
230
1.0
 70
     8
 71
     3
 72
    17
 73
    13
 74
     0
 42
0.00000001
 43
0.00000001
 40
0.0
 40
0.0
 40
0.0
 40
0.0
 40
0.1049290128402316
 40
0.2087626174290065
 40
0.3115008378520629
 40
0.413143699797613
 40
0.5136912306173694
 40
0.613143459390861
 40
0.7115004169933861
 40
0.8087621361677378
 40
0.9049286516000604
 40
1.0
 40
1.0
 40
1.0
 40
1.0
 10
185.7192326303123
 20
134.4429649799309
 30
0.0
 10
185.6780277327973
 20
134.4428942284359
 30
0.0
 10
185.5960480970103
 20
134.4427534640574
 30
0.0
 10
185.4745509057542
 20
134.4425629573408
 30
0.0
 10
185.3559394252698
 20
134.4423932339737
 30
0.0
 10
185.2409229677427
 20
134.4422474848003
 30
0.0
 10
185.1301442454916
 20
134.44212659566
 30
0.0
 10
185.024195991083
 20
134.4420309567923
 30
0.0
 10
184.9235538426435
 20
134.4419598926137
 30
0.0
 10
184.828819443002
 20
134.4419124769809
 30
0.0
 10
184.7398283377912
 20
134.4418852238576
 30
0.0
 10
184.6855828153237
 20
134.4418822196095
 30
0.0
 10
184.6586153787383
 20
134.4418807260878
 30
0.0
  0
ARC
  5
125
330
1F
100
AcDbEntity
  8
0
  6
Continuous
 62
     8
370
    18
100
AcDbCircle
 10
185.2538484644
 20
144.8070251487
 30
0.0
 40
42.98107558865582
100
AcDbArc
 50
269.0002023313
 51
270.9997976687
  0
ARC
  5
126
330
1F
100
AcDbEntity
  8
0
  6
Continuous
 62
     8
370
    18
100
AcDbCircle
 10
184.9246434829
 20
134.4820032698
 30
0.0
 40
0.2690367460257004
100
AcDbArc
 50
101.5597552262
 51
188.5767477284
  0
ARC
  5
127
330
1F
100
AcDbEntity
  8
0
  6
Continuous
 62
     8
370
    18
100
AcDbCircle
 10
225.0086541947
 20
134.4820032698
 30
0.0
 40
0.2690367460256631
100
AcDbArc
 50
351.4232522716
 51
78.4402447738
  0
LINE
  5
128
330
1F
100
AcDbEntity
  8
0
  6
Continuous
 62
     8
370
    18
100
AcDbLine
 10
186.0038199067
 20
101.8324931373
 30
0.0
 11
186.0038199067
 21
100.3455829406
 31
0.0
  0
LINE
  5
129
330
1F
100
AcDbEntity
  8
0
  6
Continuous
 62
     8
370
    18
100
AcDbLine
 10
223.9294777709
 20
100.3455829406
 30
0.0
 11
223.9294777709
 21
101.8324931373
 31
0.0
  0
SPLINE
  5
12A
330
1F
100
AcDbEntity
  8
0
  6
Continuous
 62
     7
370
    25
100
AcDbSpline
210
0.0
220
0.0
230
1.0
 70
     8
 71
     3
 72
    10
 73
     6
 74
     0
 42
0.00000001
 43
0.00000001
 40
0.0
 40
0.0
 40
0.0
 40
0.0
 40
0.3409562511006531
 40
0.682158214258828
 40
1.0
 40
1.0
 40
1.0
 40
1.0
 10
351.7773031475915
 20
318.3082961627274
 30
0.0
 10
351.6742884614935
 20
318.4149298230034
 30
0.0
 10
351.4681848511792
 20
318.6282739897082
 30
0.0
 10
351.0653508681891
 20
318.8149501916752
 30
0.0
 10
350.781193558227
 20
318.8407149655715
 30
0.0
 10
350.6441509613119
 20
318.8531407290479
 30
0.0
  0
SPLINE
  5
12B
330
1F
100
AcDbEntity
  8
0
  6
Continuous
 62
     7
370
    25
100
AcDbSpline
210
0.0
220
0.0
230
1.0
 70
     8
 71
     3
 72
     9
 73
     5
 74
     0
 42
0.00000001
 43
0.00000001
 40
0.0
 40
0.0
 40
0.0
 40
0.0
 40
0.9707950476570065
 40
1.0
 40
1.0
 40
1.0
 40
1.0
 10
352.0123263920933
 20
317.9098920339623
 30
0.0
 10
351.9544075387846
 20
318.0536852224888
 30
0.0
 10
351.8947462812943
 20
318.201804219257
 30
0.0
 10
351.7806357404974
 20
318.3052743232707
 30
0.0
 10
351.7773031475915
 20
318.3082961627274
 30
0.0
  0
SPLINE
  5
12C
330
1F
100
AcDbEntity
  8
0
  6
Continuous
 62
     7
370
    25
100
AcDbSpline
210
0.0
220
0.0
230
1.0
 70
     8
 71
     3
 72
     9
 73
     5
 74
     0
 42
0.00000001
 43
0.00000001
 40
0.0
 40
0.0
 40
0.0
 40
0.0
 40
0.0634861971617419
 40
0.9999999999999999
 40
0.9999999999999999
 40
0.9999999999999999
 40
0.9999999999999999
 10
351.7648302502691
 20
239.3546020551757
 30
0.0
 10
351.7723808254788
 20
239.3613778583894
 30
0.0
 10
351.8913133737669
 20
239.4681066201776
 30
0.0
 10
351.9538035136006
 20
239.6211186549279
 30
0.0
 10
352.0123263920962
 20
239.7644165374719
 30
0.0
  0
SPLINE
  5
12D
330
1F
100
AcDbEntity
  8
0
  6
Continuous
 62
     7
370
    25
100
AcDbSpline
210
0.0
220
0.0
230
1.0
 70
     8
 71
     3
 72
    10
 73
     6
 74
     0
 42
0.00000001
 43
0.00000001
 40
0.0
 40
0.0
 40
0.0
 40
0.0
 40
0.32204020298592
 40
0.6677491512868511
 40
1.0
 40
1.0
 40
1.0
 40
1.0
 10
350.6441509613119
 20
238.8211678423787
 30
0.0
 10
350.7811667150808
 20
238.8336272126743
 30
0.0
 10
351.0652683658803
 20
238.859461670184
 30
0.0
 10
351.4632857738567
 20
239.0431593974245
 30
0.0
 10
351.6656544906031
 20
239.2521708564936
 30
0.0
 10
351.7648302502691
 20
239.3546020551757
 30
0.0
  0
SPLINE
  5
12E
330
1F
100
AcDbEntity
  8
0
  6
Continuous
 62
     7
370
    25
100
AcDbSpline
210
0.0
220
0.0
230
1.0
 70
     8
 71
     3
 72
    11
 73
     7
 74
     0
 42
0.00000001
 43
0.00000001
 40
0.0
 40
0.0
 40
0.0
 40
0.0
 40
0.2371971536167179
 40
0.4893036567710413
 40
0.7472156920317495
 40
1.0
 40
1.0
 40
1.0
 40
1.0
 10
368.9683969523389
 20
299.5770912589105
 30
0.0
 10
368.9403946229048
 20
299.5762723440235
 30
0.0
 10
368.8826298395535
 20
299.5745830402411
 30
0.0
 10
368.8000896669656
 20
299.5382011724648
 30
0.0
 10
368.7288324513426
 20
299.4784068826278
 30
0.0
 10
368.7007229833156
 20
299.4229404449013
 30
0.0
 10
368.6868093680787
 20
299.3954856858022
 30
0.0
  0
SPLINE
  5
12F
330
1F
100
AcDbEntity
  8
0
  6
Continuous
 62
     7
370
    25
100
AcDbSpline
210
0.0
220
0.0
230
1.0
 70
     8
 71
     3
 72
    11
 73
     7
 74
     0
 42
0.00000001
 43
0.00000001
 40
0.0
 40
0.0
 40
0.0
 40
0.0
 40
0.2527843079682917
 40
0.5106963432289666
 40
0.762802846383311
 40
1.0
 40
1.0
 40
1.0
 40
1.0
 10
368.6868093680786
 20
258.2788228856245
 30
0.0
 10
368.7007229833156
 20
258.2513681265254
 30
0.0
 10
368.7288324513426
 20
258.1959016887989
 30
0.0
 10
368.8000896669655
 20
258.1361073989619
 30
0.0
 10
368.8826298395535
 20
258.0997255311856
 30
0.0
 10
368.9403946229048
 20
258.0980362274032
 30
0.0
 10
368.9683969523389
 20
258.0972173125162
 30
0.0
  0
LINE
  5
130
330
1F
100
AcDbEntity
  8
0
  6
Continuous
 62
     7
370
    25
100
AcDbLine
 10
352.1155344792
 20
259.9871542857
 30
0.0
 11
368.6655344696
 21
259.9871542857
 31
0.0
  0
LINE
  5
131
330
1F
100
AcDbEntity
  8
0
  6
Continuous
 62
     7
370
    25
100
AcDbLine
 10
368.6655344696
 20
297.6871542857
 30
0.0
 11
352.1155344792
 21
297.6871542857
 31
0.0
  0
LINE
  5
132
330
1F
100
AcDbEntity
  8
0
  6
Continuous
 62
     7
370
    25
100
AcDbLine
 10
350.6417130889
 20
238.8114286377
 30
0.0
 11
344.2172797199
 21
238.6992897361
 31
0.0
  0
LINE
  5
133
330
1F
100
AcDbEntity
  8
0
  6
Continuous
 62
     7
370
    25
100
AcDbLine
 10
344.2172797199
 20
318.9750188354
 30
0.0
 11
350.6417130889
 21
318.8628799338
 31
0.0
  0
LINE
  5
134
330
1F
100
AcDbEntity
  8
0
  6
Continuous
 62
     7
370
    25
100
AcDbLine
 10
344.1155344792
 20
316.975323445
 30
0.0
 11
344.1155344792
 21
240.6989851264
 31
0.0
  0
SPLINE
  5
135
330
1F
100
AcDbEntity
  8
0
  6
Continuous
 62
     7
370
    25
100
AcDbSpline
210
0.0
220
0.0
230
1.0
 70
    24
 71
     3
 72
    10
 73
     6
 74
     0
 42
0.00000001
 43
0.00000001
 40
0.0
 40
0.0
 40
0.0
 40
0.0
 40
0.5
 40
0.5
 40
1.0
 40
1.0
 40
1.0
 40
1.0
 10
344.1155344792328
 20
316.9753234450447
 30
0.0
 10
344.1155344792328
 20
317.2240673712079
 30
0.0
 10
344.1155344792328
 20
317.4726087375225
 30
0.0
 10
344.1155344792328
 20
317.9321011832845
 30
0.0
 10
344.1155344792328
 20
318.1427951151744
 30
0.0
 10
344.1155344792328
 20
318.3186568019806
 30
0.0
  0
SPLINE
  5
136
330
1F
100
AcDbEntity
  8
0
  6
Continuous
 62
     7
370
    25
100
AcDbSpline
210
0.0
220
0.0
230
1.0
 70
    24
 71
     3
 72
    10
 73
     6
 74
     0
 42
0.00000001
 43
0.00000001
 40
0.0
 40
0.0
 40
0.0
 40
0.0
 40
0.5
 40
0.5
 40
1.0
 40
1.0
 40
1.0
 40
1.0
 10
344.1155344792328
 20
239.355651769446
 30
0.0
 10
344.1155344792328
 20
239.531513456252
 30
0.0
 10
344.1155344792328
 20
239.7422073881419
 30
0.0
 10
344.1155344792328
 20
240.2016998339043
 30
0.0
 10
344.1155344792328
 20
240.4502412002186
 30
0.0
 10
344.1155344792328
 20
240.6989851263819
 30
0.0
  0
LINE
  5
137
330
1F
100
AcDbEntity
  8
0
  6
Continuous
 62
     7
370
    25
100
AcDbLine
 10
352.1155344792
 20
240.811124028
 30
0.0
 11
352.1155344792
 21
316.8631845435
 31
0.0
  0
SPLINE
  5
138
330
1F
100
AcDbEntity
  8
0
  6
Continuous
 62
     7
370
    25
100
AcDbSpline
210
0.0
220
0.0
230
1.0
 70
    24
 71
     3
 72
    12
 73
     8
 74
     0
 42
0.00000001
 43
0.00000001
 40
0.0
 40
0.0
 40
0.0
 40
0.0
 40
0.1665688703924325
 40
0.3323505923067357
 40
0.5002129602155954
 40
0.7493803296395605
 40
1.0
 40
1.0
 40
1.0
 40
1.0
 10
352.1155344792328
 20
240.811124027965
 30
0.0
 10
352.1155344792328
 20
240.7893317645427
 30
0.0
 10
352.1155344792327
 20
240.7458502206078
 30
0.0
 10
352.1155344792328
 20
240.6814930711687
 30
0.0
 10
352.1155344792327
 20
240.6092894148972
 30
0.0
 10
352.1155344792328
 20
240.5309010212231
 30
0.0
 10
352.1155344792328
 20
240.4820911182056
 30
0.0
 10
352.1155344792328
 20
240.457615249824
 30
0.0
  0
SPLINE
  5
139
330
1F
100
AcDbEntity
  8
0
  6
Continuous
 62
     7
370
    25
100
AcDbSpline
210
0.0
220
0.0
230
1.0
 70
    24
 71
     3
 72
    12
 73
     8
 74
     0
 42
0.00000001
 43
0.00000001
 40
0.0
 40
0.0
 40
0.0
 40
0.0
 40
0.166546981377348
 40
0.3323150261576683
 40
0.5001726347380334
 40
0.7493502562372268
 40
1.0
 40
1.0
 40
1.0
 40
1.0
 10
352.1155344792328
 20
317.2166933216026
 30
0.0
 10
352.1155344792328
 20
317.2007161047947
 30
0.0
 10
352.1155344792328
 20
317.1688363962734
 30
0.0
 10
352.1155344792328
 20
317.1139474086568
 30
0.0
 10
352.1155344792327
 20
317.0455388281327
 30
0.0
 10
352.1155344792328
 20
316.961480394889
 30
0.0
 10
352.1155344792328
 20
316.8960140990562
 30
0.0
 10
352.1155344792328
 20
316.8631845434616
 30
0.0
  0
ARC
  5
13A
330
1F
100
AcDbEntity
  8
0
  6
Continuous
 62
     7
370
    25
100
AcDbCircle
 10
344.2155344792
 20
238.7992745056
 30
0.0
 40
0.1000000000000186
100
AcDbArc
 50
180.0
 51
271.0
  0
SPLINE
  5
13B
330
1F
100
AcDbEntity
  8
0
  6
Continuous
 62
     7
370
    25
100
AcDbSpline
210
0.0
220
0.0
230
1.0
 70
    24
 71
     3
 72
    10
 73
     6
 74
     0
 42
0.00000001
 43
0.00000001
 40
0.0
 40
0.0
 40
0.0
 40
0.0
 40
0.5
 40
0.5
 40
1.0
 40
1.0
 40
1.0
 40
1.0
 10
344.1155344792328
 20
238.7992745055848
 30
0.0
 10
344.1155344792328
 20
238.7992745055943
 30
0.0
 10
344.1155344792328
 20
238.8487145422881
 30
0.0
 10
344.1155344792328
 20
239.039025568527
 30
0.0
 10
344.1155344792328
 20
239.1797900826502
 30
0.0
 10
344.1155344792328
 20
239.355651769446
 30
0.0
  0
ARC
  5
13C
330
1F
100
AcDbEntity
  8
0
  6
Continuous
 62
     7
370
    25
100
AcDbCircle
 10
344.2155344792
 20
318.8750340658
 30
0.0
 40
0.100000000000047
100
AcDbArc
 50
89.0
 51
180.0
  0
SPLINE
  5
13D
330
1F
100
AcDbEntity
  8
0
  6
Continuous
 62
     7
370
    25
100
AcDbSpline
210
0.0
220
0.0
230
1.0
 70
    24
 71
     3
 72
    10
 73
     6
 74
     0
 42
0.00000001
 43
0.00000001
 40
0.0
 40
0.0
 40
0.0
 40
0.0
 40
0.5
 40
0.5
 40
1.0
 40
1.0
 40
1.0
 40
1.0
 10
344.1155344792328
 20
318.3186568019806
 30
0.0
 10
344.1155344792328
 20
318.4945184887762
 30
0.0
 10
344.1155344792328
 20
318.6352830029005
 30
0.0
 10
344.1155344792328
 20
318.8255940291378
 30
0.0
 10
344.1155344792328
 20
318.8750340658323
 30
0.0
 10
344.1155344792328
 20
318.8750340658418
 30
0.0
  0
ARC
  5
13E
330
1F
100
AcDbEntity
  8
0
  6
Continuous
 62
     7
370
    25
100
AcDbCircle
 10
350.6155344792
 20
317.363108391
 30
0.0
 40
1.50000000000002
100
AcDbArc
 50
0.0
 51
89.0
  0
SPLINE
  5
13F
330
1F
100
AcDbEntity
  8
0
  6
Continuous
 62
     7
370
    25
100
AcDbSpline
210
0.0
220
0.0
230
1.0
 70
    24
 71
     3
 72
    12
 73
     8
 74
     0
 42
0.00000001
 43
0.00000001
 40
0.0
 40
0.0
 40
0.0
 40
0.0
 40
0.1665688703932625
 40
0.3323505923075694
 40
0.5002129602156419
 40
0.7493803296404926
 40
1.0
 40
1.0
 40
1.0
 40
1.0
 10
352.1155344792328
 20
317.3631083910398
 30
0.0
 10
352.1155344792327
 20
317.3623027664379
 30
0.0
 10
352.1155344792327
 20
317.3606953243452
 30
0.0
 10
352.1155344792328
 20
317.3474242946999
 30
0.0
 10
352.1155344792328
 20
317.3228853481134
 30
0.0
 10
352.1155344792328
 20
317.2824058909845
 30
0.0
 10
352.1155344792328
 20
317.2386399037085
 30
0.0
 10
352.1155344792328
 20
317.2166933216026
 30
0.0
  0
SPLINE
  5
140
330
1F
100
AcDbEntity
  8
0
  6
Continuous
 62
     7
370
    25
100
AcDbSpline
210
0.0
220
0.0
230
1.0
 70
    24
 71
     3
 72
     8
 73
     4
 74
     0
 42
0.00000001
 43
0.00000001
 40
0.0
 40
0.0
 40
0.0
 40
0.0
 40
1.0
 40
1.0
 40
1.0
 40
1.0
 10
352.1155344792328
 20
240.457615249824
 30
0.0
 10
352.1155344792328
 20
240.365056507324
 30
0.0
 10
352.1155344792328
 20
240.3112001806489
 30
0.0
 10
352.1155344792328
 20
240.3112001803868
 30
0.0
  0
ARC
  5
141
330
1F
100
AcDbEntity
  8
0
  6
Continuous
 62
     7
370
    25
100
AcDbCircle
 10
350.6155344792
 20
240.3112001804
 30
0.0
 40
1.5
100
AcDbArc
 50
271.0
 51
0.0
  0
LINE
  5
142
330
1F
100
AcDbEntity
  8
0
  6
Continuous
 62
     7
370
    25
100
AcDbLine
 10
368.9681524303
 20
299.5845133788
 30
0.0
 11
368.9683863651
 21
299.5695070587
 31
0.0
  0
LINE
  5
143
330
1F
100
AcDbEntity
  8
0
  6
Continuous
 62
     7
370
    25
100
AcDbLine
 10
368.9681524303
 20
299.5845133788
 30
0.0
 11
401.5786242729
 21
299.2999261024
 31
0.0
  0
LINE
  5
144
330
1F
100
AcDbEntity
  8
0
  6
Continuous
 62
     7
370
    25
100
AcDbLine
 10
368.6655344696
 20
298.0845704942
 30
0.0
 11
368.6655344696
 21
259.5897380772
 31
0.0
  0
LINE
  5
145
330
1F
100
AcDbEntity
  8
0
  6
Continuous
 62
     7
370
    25
100
AcDbLine
 10
401.5786242729
 20
258.374382469
 30
0.0
 11
368.9681524303
 21
258.0897951926
 31
0.0
  0
SPLINE
  5
146
330
1F
100
AcDbEntity
  8
0
  6
Continuous
 62
     7
370
    25
100
AcDbSpline
210
0.0
220
0.0
230
1.0
 70
    24
 71
     3
 72
     8
 73
     4
 74
     0
 42
0.00000001
 43
0.00000001
 40
0.0
 40
0.0
 40
0.0
 40
0.0
 40
1.0
 40
1.0
 40
1.0
 40
1.0
 10
368.6655344696301
 20
298.0845704941834
 30
0.0
 10
368.6655344696301
 20
298.4006080496567
 30
0.0
 10
368.6655344696301
 20
298.7096081166983
 30
0.0
 10
368.6655344696301
 20
298.9330718651545
 30
0.0
  0
SPLINE
  5
147
330
1F
100
AcDbEntity
  8
0
  6
Continuous
 62
     7
370
    25
100
AcDbSpline
210
0.0
220
0.0
230
1.0
 70
    24
 71
     3
 72
     8
 73
     4
 74
     0
 42
0.00000001
 43
0.00000001
 40
0.0
 40
0.0
 40
0.0
 40
0.0
 40
1.0
 40
1.0
 40
1.0
 40
1.0
 10
368.6655344696301
 20
258.7412367062721
 30
0.0
 10
368.6655344696301
 20
258.9647004547272
 30
0.0
 10
368.6655344696301
 20
259.2737005217708
 30
0.0
 10
368.6655344696301
 20
259.5897380772433
 30
0.0
  0
ARC
  5
148
330
1F
100
AcDbEntity
  8
0
  6
Continuous
 62
     7
370
    25
100
AcDbCircle
 10
401.5655344696
 20
297.7999832178
 30
0.0
 40
1.500000000000038
100
AcDbArc
 50
0.0
 51
89.5
  0
ARC
  5
149
330
1F
100
AcDbEntity
  8
0
  6
Continuous
 62
     7
370
    25
100
AcDbCircle
 10
401.5655344696
 20
259.8743253536
 30
0.0
 40
1.500000000000038
100
AcDbArc
 50
270.5
 51
0.0
  0
LINE
  5
14A
330
1F
100
AcDbEntity
  8
0
  6
Continuous
 62
     7
370
    25
100
AcDbLine
 10
403.0655344696
 20
259.8743253536
 30
0.0
 11
403.0655344696
 21
297.7999832178
 31
0.0
  0
LWPOLYLINE
  5
14B
330
1F
100
AcDbEntity
  8
0
  6
Continuous
 62
     7
370
    25
100
AcDbPolyline
 90
        3
 70
   128
 43
0.0
 10
368.9681524303
 20
299.5845133788
 10
368.909255786
 20
299.579198706
 10
368.8939066708
 20
299.5758484337
  0
ARC
  5
14C
330
1F
100
AcDbEntity
  8
0
  6
Continuous
 62
     7
370
    25
100
AcDbCircle
 10
368.9655344696
 20
299.2845248019
 30
0.0
 40
0.3000000000000114
100
AcDbArc
 50
138.0103984291
 51
180.0
  0
SPLINE
  5
14D
330
1F
100
AcDbEntity
  8
0
  6
Continuous
 62
     7
370
    25
100
AcDbSpline
210
0.0
220
0.0
230
1.0
 70
    24
 71
     3
 72
     8
 73
     4
 74
     0
 42
0.00000001
 43
0.00000001
 40
0.0
 40
0.0
 40
0.0
 40
0.0
 40
1.0
 40
1.0
 40
1.0
 40
1.0
 10
368.6655344696301
 20
298.9330718651545
 30
0.0
 10
368.6655344696301
 20
299.1565356135458
 30
0.0
 10
368.6655344696301
 20
299.2845248018143
 30
0.0
 10
368.6655344696301
 20
299.2845248018604
 30
0.0
  0
LWPOLYLINE
  5
14E
330
1F
100
AcDbEntity
  8
0
  6
Continuous
 62
     7
370
    25
100
AcDbPolyline
 90
        3
 70
   128
 43
0.0
 10
368.9681524303
 20
258.0897951926
 10
368.909255786
 20
258.0951098654
 10
368.8939066708
 20
258.0984601378
  0
ARC
  5
14F
330
1F
100
AcDbEntity
  8
0
  6
Continuous
 62
     7
370
    25
100
AcDbCircle
 10
368.9655344696
 20
258.3897837696
 30
0.0
 40
0.3000000000000364
100
AcDbArc
 50
180.0
 51
221.9896015709
  0
SPLINE
  5
150
330
1F
100
AcDbEntity
  8
0
  6
Continuous
 62
     7
370
    25
100
AcDbSpline
210
0.0
220
0.0
230
1.0
 70
    24
 71
     3
 72
     8
 73
     4
 74
     0
 42
0.00000001
 43
0.00000001
 40
0.0
 40
0.0
 40
0.0
 40
0.0
 40
1.0
 40
1.0
 40
1.0
 40
1.0
 10
368.6655344696301
 20
258.3897837695663
 30
0.0
 10
368.6655344696301
 20
258.3897837696123
 30
0.0
 10
368.6655344696301
 20
258.5177729578816
 30
0.0
 10
368.6655344696301
 20
258.7412367062721
 30
0.0
  0
SPLINE
  5
151
330
1F
100
AcDbEntity
  8
0
  6
Continuous
 62
     8
370
    18
100
AcDbSpline
210
0.0
220
0.0
230
1.0
 70
     8
 71
     3
 72
    18
 73
    14
 74
     0
 42
0.00000001
 43
0.00000001
 40
0.0
 40
0.0
 40
0.0
 40
0.0
 40
0.0863807640641111
 40
0.1736665713609928
 40
0.2618576428871833
 40
0.350954192452795
 40
0.440956426964521
 40
0.5318645466947841
 40
0.6236787455377204
 40
0.7163992112527824
 40
0.8100261256967258
 40
0.9045596650445287
 40
0.9999999999999999
 40
0.9999999999999999
 40
0.9999999999999999
 40
0.9999999999999999
 10
344.218002246425
 20
239.2849626255656
 30
0.0
 10
344.2180024481291
 20
239.2536133936874
 30
0.0
 10
344.2180028536508
 20
239.1905864724269
 30
0.0
 10
344.2179994820685
 20
239.1043633046592
 30
0.0
 10
344.2179858627076
 20
239.024373786376
 30
0.0
 10
344.2179577984833
 20
238.9518473132292
 30
0.0
 10
344.2179121149532
 20
238.8872306759146
 30
0.0
 10
344.2178470749428
 20
238.8311545852472
 30
0.0
 10
344.2177624059836
 20
238.7841910441725
 30
0.0
 10
344.2176593651701
 20
238.7468082792041
 30
0.0
 10
344.2175410200193
 20
238.7197685019501
 30
0.0
 10
344.2174115748816
 20
238.7025237345316
 30
0.0
 10
344.2173238111847
 20
238.700371160492
 30
0.0
 10
344.2172797198765
 20
238.6992897360691
 30
0.0
  0
SPLINE
  5
152
330
1F
100
AcDbEntity
  8
0
  6
Continuous
 62
     8
370
    18
100
AcDbSpline
210
0.0
220
0.0
230
1.0
 70
     8
 71
     3
 72
    19
 73
    15
 74
     0
 42
0.00000001
 43
0.00000001
 40
0.0
 40
0.0
 40
0.0
 40
0.0
 40
0.0875219065052787
 40
0.1742817824293792
 40
0.2602797601982698
 40
0.3455159760638584
 40
0.4299905702389231
 40
0.5137036870380964
 40
0.5966554750252664
 40
0.6788460871677127
 40
0.7602756809973905
 40
0.8409444187797085
 40
0.9208524676902706
 40
1.0
 40
1.0
 40
1.0
 40
1.0
 10
344.2172797198765
 20
240.6989851263819
 30
0.0
 10
344.217320115722
 20
240.653164563915
 30
0.0
 10
344.2174005556968
 20
240.561922386756
 30
0.0
 10
344.21751991157
 20
240.426298781277
 30
0.0
 10
344.21763075593
 20
240.293117105658
 30
0.0
 10
344.2177296011442
 20
240.1629433419188
 30
0.0
 10
344.2178136917523
 20
240.0363035823333
 30
0.0
 10
344.2178815934707
 20
239.9136842590693
 30
0.0
 10
344.2179329678385
 20
239.7955269193964
 30
0.0
 10
344.2179685630348
 20
239.682244289456
 30
0.0
 10
344.2179901198209
 20
239.5741595738477
 30
0.0
 10
344.218000381748
 20
239.4717296506751
 30
0.0
 10
344.2180027606302
 20
239.3747248703253
 30
0.0
 10
344.2180024172795
 20
239.3147878451525
 30
0.0
 10
344.218002246425
 20
239.2849626255656
 30
0.0
  0
LINE
  5
153
330
1F
100
AcDbEntity
  8
0
  6
Continuous
 62
     8
370
    18
100
AcDbLine
 10
344.2172797199
 20
240.6989851264
 30
0.0
 11
350.6417130889
 21
240.811124028
 31
0.0
  0
SPLINE
  5
154
330
1F
100
AcDbEntity
  8
0
  6
Continuous
 62
     8
370
    18
100
AcDbSpline
210
0.0
220
0.0
230
1.0
 70
     8
 71
     3
 72
    10
 73
     6
 74
     0
 42
0.00000001
 43
0.00000001
 40
0.0
 40
0.0
 40
0.0
 40
0.0
 40
0.5
 40
0.5
 40
1.0
 40
1.0
 40
1.0
 40
1.0
 10
350.6525509871174
 20
239.3972780916182
 30
0.0
 10
350.6525509871206
 20
239.5823955769878
 30
0.0
 10
350.6515879234537
 20
239.8041620825853
 30
0.0
 10
350.6478807801385
 20
240.2877733327612
 30
0.0
 10
350.6451387685528
 20
240.5493482936864
 30
0.0
 10
350.6417130888887
 20
240.811124027965
 30
0.0
  0
SPLINE
  5
155
330
1F
100
AcDbEntity
  8
0
  6
Continuous
 62
     8
370
    18
100
AcDbSpline
210
0.0
220
0.0
230
1.0
 70
     8
 71
     3
 72
    19
 73
    15
 74
     0
 42
0.00000001
 43
0.00000001
 40
0.0
 40
0.0
 40
0.0
 40
0.0
 40
0.0875155696262819
 40
0.174270723500849
 40
0.2602654635968123
 40
0.3454997922149388
 40
0.4299737119930206
 40
0.5136872259156225
 40
0.5966403373243552
 40
0.6788330499285561
 40
0.7602653678165033
 40
0.8409372954671456
 40
0.9208488377623941
 40
1.0
 40
1.0
 40
1.0
 40
1.0
 10
350.6417130888887
 20
238.8114286376523
 30
0.0
 10
350.6423010176313
 20
238.8123476742849
 30
0.0
 10
350.6434717666508
 20
238.8141777621147
 30
0.0
 10
350.6450598579294
 20
238.8287241232011
 30
0.0
 10
350.6465077846258
 20
238.8515564125941
 30
0.0
 10
350.6478008955883
 20
238.8831765230045
 30
0.0
 10
350.6489393925039
 20
238.9229862785138
 30
0.0
 10
350.6499210415346
 20
238.9706435919753
 30
0.0
 10
350.6507457825737
 20
239.0257046619465
 30
0.0
 10
350.6514140454547
 20
239.0877386611093
 30
0.0
 10
350.6519285578219
 20
239.156245897368
 30
0.0
 10
350.6522884821296
 20
239.2308908578619
 30
0.0
 10
350.652510395801
 20
239.3106836985018
 30
0.0
 10
350.6525374998678
 20
239.368505430516
 30
0.0
 10
350.6525509871174
 20
239.3972780916182
 30
0.0
  0
LINE
  5
156
330
1F
100
AcDbEntity
  8
0
  6
Continuous
 62
     8
370
    18
100
AcDbLine
 10
350.6417130889
 20
316.8631845435
 30
0.0
 11
344.2172797199
 21
316.975323445
 31
0.0
  0
SPLINE
  5
157
330
1F
100
AcDbEntity
  8
0
  6
Continuous
 62
     8
370
    18
100
AcDbSpline
210
0.0
220
0.0
230
1.0
 70
     8
 71
     3
 72
    18
 73
    14
 74
     0
 42
0.00000001
 43
0.00000001
 40
0.0
 40
0.0
 40
0.0
 40
0.0
 40
0.0863807640641111
 40
0.1736665713609928
 40
0.2618576428871833
 40
0.350954192452795
 40
0.4409564269645191
 40
0.531864546694784
 40
0.6236787455377202
 40
0.716399211252778
 40
0.8100261256967214
 40
0.9045596650445288
 40
1.0
 40
1.0
 40
1.0
 40
1.0
 10
344.218002246425
 20
318.389345945861
 30
0.0
 10
344.2180024481291
 20
318.3567425551301
 30
0.0
 10
344.2180028536508
 20
318.2911941758777
 30
0.0
 10
344.2179994820685
 20
318.18444503374
 30
0.0
 10
344.2179858627076
 20
318.0712967604324
 30
0.0
 10
344.2179577984833
 20
317.9515166135429
 30
0.0
 10
344.2179121149532
 20
317.8257006794983
 30
0.0
 10
344.2178470749428
 20
317.6942946519632
 30
0.0
 10
344.2177624059836
 20
317.5578605252221
 30
0.0
 10
344.2176593651701
 20
317.4170036874601
 30
0.0
 10
344.2175410200193
 20
317.2723916979677
 30
0.0
 10
344.2174115748816
 20
317.1247475550043
 30
0.0
 10
344.2173238111847
 20
317.0252897278797
 30
0.0
 10
344.2172797198765
 20
316.9753234450447
 30
0.0
  0
SPLINE
  5
158
330
1F
100
AcDbEntity
  8
0
  6
Continuous
 62
     8
370
    18
100
AcDbSpline
210
0.0
220
0.0
230
1.0
 70
     8
 71
     3
 72
    19
 73
    15
 74
     0
 42
0.00000001
 43
0.00000001
 40
0.0
 40
0.0
 40
0.0
 40
0.0
 40
0.0875219065052871
 40
0.1742817824294003
 40
0.2602797601982955
 40
0.3455159760638881
 40
0.4299905702389579
 40
0.5137036870381324
 40
0.5966554750253019
 40
0.6788460871677461
 40
0.7602756809974174
 40
0.8409444187797314
 40
0.9208524676902834
 40
1.0
 40
1.0
 40
1.0
 40
1.0
 10
344.2172797198765
 20
318.9750188353575
 30
0.0
 10
344.217320115722
 20
318.9741093739111
 30
0.0
 10
344.2174005556968
 20
318.9722983694637
 30
0.0
 10
344.21751991157
 20
318.9577777390123
 30
0.0
 10
344.21763075593
 20
318.9349688353464
 30
0.0
 10
344.2177296011442
 20
318.9033696156512
 30
0.0
 10
344.2178136917523
 20
318.8635782894461
 30
0.0
 10
344.2178815934707
 20
318.8159369354191
 30
0.0
 10
344.2179329678385
 20
318.7608893578258
 30
0.0
 10
344.2179685630348
 20
318.6988663784467
 30
0.0
 10
344.2179901198209
 20
318.6303677073108
 30
0.0
 10
344.218000381748
 20
318.5557287928065
 30
0.0
 10
344.2180027606302
 20
318.4759397129569
 30
0.0
 10
344.2180024172795
 20
318.4181183782506
 30
0.0
 10
344.218002246425
 20
318.389345945861
 30
0.0
  0
SPLINE
  5
159
330
1F
100
AcDbEntity
  8
0
  6
Continuous
 62
     8
370
    18
100
AcDbSpline
210
0.0
220
0.0
230
1.0
 70
     8
 71
     3
 72
    10
 73
     6
 74
     0
 42
0.00000001
 43
0.00000001
 40
0.0
 40
0.0
 40
0.0
 40
0.0
 40
0.5
 40
0.5
 40
1.0
 40
1.0
 40
1.0
 40
1.0
 10
350.6525509871174
 20
318.2770304798084
 30
0.0
 10
350.6525509871206
 20
318.462147965178
 30
0.0
 10
350.6515879234537
 20
318.6103380901032
 30
0.0
 10
350.6478807801385
 20
318.8107300702785
 30
0.0
 10
350.6451387685528
 20
318.8628201383133
 30
0.0
 10
350.6417130888887
 20
318.8628799337744
 30
0.0
  0
SPLINE
  5
15A
330
1F
100
AcDbEntity
  8
0
  6
Continuous
 62
     8
370
    18
100
AcDbSpline
210
0.0
220
0.0
230
1.0
 70
     8
 71
     3
 72
    19
 73
    15
 74
     0
 42
0.00000001
 43
0.00000001
 40
0.0
 40
0.0
 40
0.0
 40
0.0
 40
0.0875155696262907
 40
0.1742707235008578
 40
0.2602654635968253
 40
0.3454997922149572
 40
0.4299737119930389
 40
0.5136872259156424
 40
0.596640337324375
 40
0.678833049928578
 40
0.7602653678165191
 40
0.8409372954671578
 40
0.9208488377623972
 40
1.0
 40
1.0
 40
1.0
 40
1.0
 10
350.6417130888887
 20
316.8631845434616
 30
0.0
 10
350.6423010176313
 20
316.9089957252372
 30
0.0
 10
350.6434717666508
 20
317.0002200391113
 30
0.0
 10
350.6450598579294
 20
317.1358177610074
 30
0.0
 10
350.6465077846258
 20
317.2689760297787
 30
0.0
 10
350.6478008955883
 20
317.3991288250964
 30
0.0
 10
350.6489393925039
 20
317.5257500665542
 30
0.0
 10
350.6499210415346
 20
317.6483533210925
 30
0.0
 10
350.6507457825737
 20
317.7664970422977
 30
0.0
 10
350.6514140454547
 20
317.8797685103523
 30
0.0
 10
350.6519285578219
 20
317.9878445043622
 30
0.0
 10
350.6522884821296
 20
318.0902682121721
 30
0.0
 10
350.652510395801
 20
318.187269051484
 30
0.0
 10
350.6525374998678
 20
318.2472055100352
 30
0.0
 10
350.6525509871174
 20
318.2770304798084
 30
0.0
  0
LINE
  5
15B
330
1F
100
AcDbEntity
  8
0
  6
Continuous
 62
     8
370
    18
100
AcDbLine
 10
344.2172797199
 20
240.6989851264
 30
0.0
 11
344.2172797199
 21
316.975323445
 31
0.0
  0
LINE
  5
15C
330
1F
100
AcDbEntity
  8
0
  6
Continuous
 62
     8
370
    18
100
AcDbLine
 10
350.6417130889
 20
240.811124028
 30
0.0
 11
350.6417130889
 21
316.8631845435
 31
0.0
  0
LINE
  5
15D
330
1F
100
AcDbEntity
  8
0
  6
Continuous
 62
     8
370
    18
100
AcDbLine
 10
344.2172797199
 20
240.6989851264
 30
0.0
 11
344.1155344792
 21
240.6989851264
 31
0.0
  0
LINE
  5
15E
330
1F
100
AcDbEntity
  8
0
  6
Continuous
 62
     8
370
    18
100
AcDbLine
 10
344.2172797199
 20
316.975323445
 30
0.0
 11
344.1155344792
 21
316.975323445
 31
0.0
  0
ARC
  5
15F
330
1F
100
AcDbEntity
  8
0
  6
Continuous
 62
     8
370
    18
100
AcDbCircle
 10
344.2037512311
 20
318.3003926905
 30
0.0
 40
0.0900875855839826
100
AcDbArc
 50
80.8981083055
 51
168.3029268393
  0
ARC
  5
160
330
1F
100
AcDbEntity
  8
0
  6
Continuous
 62
     8
370
    18
100
AcDbCircle
 10
344.2037512311
 20
239.3739158809
 30
0.0
 40
0.0900875855838874
100
AcDbArc
 50
191.6970731606
 51
279.1018916946
  0
LINE
  5
161
330
1F
100
AcDbEntity
  8
0
  6
Continuous
 62
     8
370
    18
100
AcDbLine
 10
350.6417130889
 20
240.811124028
 30
0.0
 11
352.1155344792
 21
240.811124028
 31
0.0
  0
LINE
  5
162
330
1F
100
AcDbEntity
  8
0
  6
Continuous
 62
     8
370
    18
100
AcDbLine
 10
352.1155344792
 20
316.8631845435
 30
0.0
 11
350.6417130889
 21
316.8631845435
 31
0.0
  0
ARC
  5
163
330
1F
100
AcDbEntity
  8
0
  6
Continuous
 62
     8
370
    18
100
AcDbCircle
 10
350.8139596536
 20
240.7140098201
 30
0.0
 40
1.326587804262723
100
AcDbArc
 50
263.0113884487
 51
348.8561028063
  0
ARC
  5
164
330
1F
100
AcDbEntity
  8
0
  6
Continuous
 62
     8
370
    18
100
AcDbCircle
 10
350.8139596536
 20
316.9602987513
 30
0.0
 40
1.326587804262841
100
AcDbArc
 50
11.1438971937
 51
96.9886115513
  0
SPLINE
  5
165
330
1F
100
AcDbEntity
  8
0
  6
Continuous
 62
     8
370
    18
100
AcDbSpline
210
0.0
220
0.0
230
1.0
 70
     8
 71
     3
 72
    16
 73
    12
 74
     0
 42
0.00000001
 43
0.00000001
 40
0.0
 40
0.0
 40
0.0
 40
0.0
 40
0.1057030580189527
 40
0.2127580367761575
 40
0.3211649804301464
 40
0.4309239300103874
 40
0.5420349235510591
 40
0.65449799621671
 40
0.7683131804205288
 40
0.8834805059356465
 40
1.0
 40
1.0
 40
1.0
 40
1.0
 10
368.9692366841228
 20
299.1451877457574
 30
0.0
 10
368.9692348359681
 20
299.1151337774034
 30
0.0
 10
368.9692311160211
 20
299.0546414565172
 30
0.0
 10
368.9691970200525
 20
298.9545298055153
 30
0.0
 10
368.9691373857421
 20
298.847428082143
 30
0.0
 10
368.9690478932398
 20
298.7332082221087
 30
0.0
 10
368.9689275950579
 20
298.6127107826758
 30
0.0
 10
368.968776260203
 20
298.4866382110584
 30
0.0
 10
368.9685947088472
 20
298.3558562403854
 30
0.0
 10
368.9683867911754
 20
298.2213094545436
 30
0.0
 10
368.9682308539381
 20
298.1303271443525
 30
0.0
 10
368.9681524302796
 20
298.0845704941834
 30
0.0
  0
SPLINE
  5
166
330
1F
100
AcDbEntity
  8
0
  6
Continuous
 62
     8
370
    18
100
AcDbSpline
210
0.0
220
0.0
230
1.0
 70
     8
 71
     3
 72
    10
 73
     6
 74
     0
 42
0.00000001
 43
0.00000001
 40
0.0
 40
0.0
 40
0.0
 40
0.0
 40
0.1549179056680682
 40
0.4452809041987946
 40
1.0
 40
1.0
 40
1.0
 40
1.0
 10
368.9683863650618
 20
299.5695070586866
 30
0.0
 10
368.9684735992865
 20
299.5655872277209
 30
0.0
 10
368.9687243368256
 20
299.5543204482661
 30
0.0
 10
368.9691252286468
 20
299.4461337294994
 30
0.0
 10
368.9691925160786
 20
299.264447884385
 30
0.0
 10
368.9692366841228
 20
299.1451877457574
 30
0.0
  0
ARC
  5
167
330
1F
100
AcDbEntity
  8
0
  6
Continuous
 62
     8
370
    18
100
AcDbCircle
 10
358.6040922614
 20
298.5499546601
 30
0.0
 40
42.98107558878527
100
AcDbArc
 50
359.0002023313
 51
0.9997976687
  0
LINE
  5
168
330
1F
100
AcDbEntity
  8
0
  6
Continuous
 62
     8
370
    18
100
AcDbLine
 10
401.5786242729
 20
297.7999832178
 30
0.0
 11
368.9681524303
 21
298.0845704942
 31
0.0
  0
LINE
  5
169
330
1F
100
AcDbEntity
  8
0
  6
Continuous
 62
     8
370
    18
100
AcDbLine
 10
368.9681524303
 20
259.5897380772
 30
0.0
 11
368.9681524303
 21
298.0845704942
 31
0.0
  0
LINE
  5
16A
330
1F
100
AcDbEntity
  8
0
  6
Continuous
 62
     8
370
    18
100
AcDbLine
 10
401.5786242729
 20
259.8743253536
 30
0.0
 11
401.5786242729
 21
297.7999832178
 31
0.0
  0
LINE
  5
16B
330
1F
100
AcDbEntity
  8
0
  6
Continuous
 62
     8
370
    18
100
AcDbLine
 10
368.9681524303
 20
259.5897380772
 30
0.0
 11
401.5786242729
 21
259.8743253536
 31
0.0
  0
LINE
  5
16C
330
1F
100
AcDbEntity
  8
0
  6
Continuous
 62
     8
370
    18
100
AcDbLine
 10
368.9681524303
 20
298.0845704942
 30
0.0
 11
368.6655344696
 21
298.0845704942
 31
0.0
  0
LINE
  5
16D
330
1F
100
AcDbEntity
  8
0
  6
Continuous
 62
     8
370
    18
100
AcDbLine
 10
368.9681524303
 20
259.5897380772
 30
0.0
 11
368.6655344696
 21
259.5897380772
 31
0.0
  0
SPLINE
  5
16E
330
1F
100
AcDbEntity
  8
0
  6
Continuous
 62
     8
370
    18
100
AcDbSpline
210
0.0
220
0.0
230
1.0
 70
     8
 71
     3
 72
    16
 73
    12
 74
     0
 42
0.00000001
 43
0.00000001
 40
0.0
 40
0.0
 40
0.0
 40
0.0
 40
0.1057030580186641
 40
0.2127580367756609
 40
0.3211649804295023
 40
0.4309239300096809
 40
0.5420349235503481
 40
0.6544979962160723
 40
0.7683131804200338
 40
0.8834805059353668
 40
1.0
 40
1.0
 40
1.0
 40
1.0
 10
368.9692366841227
 20
258.5291208256693
 30
0.0
 10
368.9692348359681
 20
258.5004757793117
 30
0.0
 10
368.9692311160211
 20
258.4428193222459
 30
0.0
 10
368.9691970200525
 20
258.3658160499398
 30
0.0
 10
368.9691373857421
 20
258.2961090488953
 30
0.0
 10
368.9690478932398
 20
258.2352216290295
 30
0.0
 10
368.9689275950579
 20
258.1838036460625
 30
0.0
 10
368.968776260203
 20
258.1426036499425
 30
0.0
 10
368.9685947088471
 20
258.112624209561
 30
0.0
 10
368.9683867911754
 20
258.0934088552606
 30
0.0
 10
368.9682308539381
 20
258.0910044244242
 30
0.0
 10
368.9681524302796
 20
258.089795192647
 30
0.0
  0
SPLINE
  5
16F
330
1F
100
AcDbEntity
  8
0
  6
Continuous
 62
     8
370
    18
100
AcDbSpline
210
0.0
220
0.0
230
1.0
 70
     8
 71
     3
 72
    17
 73
    13
 74
     0
 42
0.00000001
 43
0.00000001
 40
0.0
 40
0.0
 40
0.0
 40
0.0
 40
0.1049290128405677
 40
0.2087626174296021
 40
0.3115008378528416
 40
0.413143699798508
 40
0.5136912306183006
 40
0.613143459391753
 40
0.7115004169941636
 40
0.8087621361683323
 40
0.9049286516003953
 40
1.0
 40
1.0
 40
1.0
 40
1.0
 10
368.9681524302796
 20
259.5897380772433
 30
0.0
 10
368.9682231817746
 20
259.5485331797282
 30
0.0
 10
368.9683639461531
 20
259.466553543941
 30
0.0
 10
368.9685544528697
 20
259.3450563526845
 30
0.0
 10
368.9687241762368
 20
259.2264448721999
 30
0.0
 10
368.9688699254102
 20
259.1114284146727
 30
0.0
 10
368.9689908145506
 20
259.0006496924215
 30
0.0
 10
368.9690864534182
 20
258.894701438013
 30
0.0
 10
368.9691575175968
 20
258.7940592895737
 30
0.0
 10
368.9692049332297
 20
258.6993248899324
 30
0.0
 10
368.969232186353
 20
258.6103337847219
 30
0.0
 10
368.969235190601
 20
258.5560882622546
 30
0.0
 10
368.9692366841227
 20
258.5291208256693
 30
0.0
  0
ARC
  5
170
330
1F
100
AcDbEntity
  8
0
  6
Continuous
 62
     8
370
    18
100
AcDbCircle
 10
358.6040922597
 20
259.1243539113
 30
0.0
 40
42.98107559049642
100
AcDbArc
 50
359.0002023313
 51
0.9997976687
  0
ARC
  5
171
330
1F
100
AcDbEntity
  8
0
  6
Continuous
 62
     8
370
    18
100
AcDbCircle
 10
368.9291141404
 20
298.8791596416
 30
0.0
 40
0.2690367460257482
100
AcDbArc
 50
81.4232522716
 51
168.4402447738
  0
ARC
  5
172
330
1F
100
AcDbEntity
  8
0
  6
Continuous
 62
     8
370
    18
100
AcDbCircle
 10
368.9291141404
 20
258.7951489298
 30
0.0
 40
0.2690367460256518
100
AcDbArc
 50
191.5597552262
 51
278.5767477285
  0
LINE
  5
173
330
1F
100
AcDbEntity
  8
0
  6
Continuous
 62
     8
370
    18
100
AcDbLine
 10
403.0655344696
 20
297.7999832178
 30
0.0
 11
401.5786242729
 21
297.7999832178
 31
0.0
  0
LINE
  5
174
330
1F
100
AcDbEntity
  8
0
  6
Continuous
 62
     8
370
    18
100
AcDbLine
 10
401.5786242729
 20
259.8743253536
 30
0.0
 11
403.0655344696
 21
259.8743253536
 31
0.0
  0
ENDSEC
  0
SECTION
  2
OBJECTS
  0
DICTIONARY
  5
C
330
0
100
AcDbDictionary
281
     1
  3
ACAD_GROUP
350
D
  3
ACAD_LAYOUT
350
1A
  3
ACAD_MLINESTYLE
350
17
  3
ACAD_PLOTSETTINGS
350
19
  3
ACAD_PLOTSTYLENAME
350
E
  3
ACAD_SCALELIST
350
47
  3
DWGPROPS
350
175
  0
DICTIONARY
  5
D
102
{ACAD_REACTORS
330
C
102
}
330
C
100
AcDbDictionary
281
     1
  0
DICTIONARY
  5
1A
102
{ACAD_REACTORS
330
C
102
}
330
C
100
AcDbDictionary
281
     1
  3
Layout1
350
1E
  3
Layout2
350
26
  3
Model
350
22
  0
DICTIONARY
  5
17
102
{ACAD_REACTORS
330
C
102
}
330
C
100
AcDbDictionary
281
     1
  3
Standard
350
18
  0
DICTIONARY
  5
19
102
{ACAD_REACTORS
330
C
102
}
330
C
100
AcDbDictionary
281
     1
  0
ACDBDICTIONARYWDFLT
  5
E
102
{ACAD_REACTORS
330
C
102
}
330
C
100
AcDbDictionary
281
     1
  3
Normal
350
F
100
AcDbDictionaryWithDefault
340
F
  0
DICTIONARY
  5
47
102
{ACAD_REACTORS
330
C
102
}
330
C
100
AcDbDictionary
281
     1
  3
A0
350
48
  3
A1
350
49
  3
A2
350
4A
  3
A3
350
4B
  3
A4
350
4C
  3
A5
350
4D
  3
A6
350
4E
  3
A7
350
4F
  3
A8
350
50
  3
A9
350
51
  3
B0
350
52
  3
B1
350
53
  3
B2
350
54
  3
B3
350
55
  3
B4
350
56
  3
B5
350
57
  3
B6
350
58
  0
XRECORD
  5
175
102
{ACAD_REACTORS
330
C
102
}
330
C
100
AcDbXrecord
280
     1
  1
DWGPROPS COOKIE
  2

  3

  4

  6

  7

  8
fue-task
  9

300
=
301
=
302
=
303
=
304
=
305
=
306
=
307
=
308
=
309
=
 40
0.0
 41
2460384.375379931
 42
2460384.375380833
  1

 90
        0
  0
LAYOUT
  5
1E
102
{ACAD_REACTORS
330
1A
102
}
330
1A
100
AcDbPlotSettings
  1

  2
none_device
  4

  6

 40
0.0
 41
0.0
 42
0.0
 43
0.0
 44
0.0
 45
0.0
 46
0.0
 47
0.0
 48
0.0
 49
0.0
140
0.0
141
0.0
142
1.0
143
1.0
 70
   688
 72
     1
 73
     0
 74
     5
  7

 75
    16
147
1.0
148
0.0
149
0.0
100
AcDbLayout
  1
Layout1
 70
     1
 71
     1
 10
0.0
 20
0.0
 11
420.0
 21
297.0
 12
0.0
 22
0.0
 32
0.0
 14
1.0000000000E+20
 24
1.0000000000E+20
 34
1.0000000000E+20
 15
-1.0000000000E+20
 25
-1.0000000000E+20
 35
-1.0000000000E+20
146
0.0
 13
0.0
 23
0.0
 33
0.0
 16
1.0
 26
0.0
 36
0.0
 17
0.0
 27
1.0
 37
0.0
 76
     0
330
1B
  0
LAYOUT
  5
26
102
{ACAD_REACTORS
330
1A
102
}
330
1A
100
AcDbPlotSettings
  1

  2
none_device
  4

  6

 40
0.0
 41
0.0
 42
0.0
 43
0.0
 44
0.0
 45
0.0
 46
0.0
 47
0.0
 48
0.0
 49
0.0
140
0.0
141
0.0
142
1.0
143
1.0
 70
   688
 72
     1
 73
     0
 74
     5
  7

 75
    16
147
1.0
148
0.0
149
0.0
100
AcDbLayout
  1
Layout2
 70
     1
 71
     2
 10
0.0
 20
0.0
 11
0.0
 21
0.0
 12
0.0
 22
0.0
 32
0.0
 14
0.0
 24
0.0
 34
0.0
 15
0.0
 25
0.0
 35
0.0
146
0.0
 13
0.0
 23
0.0
 33
0.0
 16
1.0
 26
0.0
 36
0.0
 17
0.0
 27
1.0
 37
0.0
 76
     0
330
23
  0
LAYOUT
  5
22
102
{ACAD_REACTORS
330
1A
102
}
330
1A
100
AcDbPlotSettings
  1

  2
none_device
  4
Letter_(8.50_x_11.00_Inches)
  6

 40
6.35
 41
6.35
 42
6.35000508
 43
6.35000508
 44
215.9
 45
279.4
 46
0.0
 47
0.0
 48
0.0
 49
0.0
140
0.0
141
0.0
142
1.0
143
1.0
 70
  1712
 72
     1
 73
     0
 74
     0
  7

 75
     0
147
1.0
148
0.0
149
0.0
100
AcDbLayout
  1
Model
 70
     1
 71
     0
 10
0.0
 20
0.0
 11
594.0
 21
841.0
 12
0.0
 22
0.0
 32
0.0
 14
0.0
 24
0.0
 34
0.0
 15
594.0
 25
841.0
 35
0.0
146
0.0
 13
0.0
 23
0.0
 33
0.0
 16
1.0
 26
0.0
 36
0.0
 17
0.0
 27
1.0
 37
0.0
 76
     0
330
1F
331
29
  0
MLINESTYLE
  5
18
102
{ACAD_REACTORS
330
17
102
}
330
17
100
AcDbMlineStyle
  2
Standard
 70
     0
  3

 62
   256
 51
90.0
 52
90.0
 71
     2
 49
0.5
 62
   256
  6
BYLAYER
 49
-0.5
 62
   256
  6
BYLAYER
  0
ACDBPLACEHOLDER
  5
F
102
{ACAD_REACTORS
330
E
102
}
330
E
  0
SCALE
  5
48
102
{ACAD_REACTORS
330
47
102
}
330
47
100
AcDbScale
 70
     0
300
1:1
140
1.0
141
1.0
290
     1
  0
SCALE
  5
49
102
{ACAD_REACTORS
330
47
102
}
330
47
100
AcDbScale
 70
     0
300
1:2
140
1.0
141
2.0
290
     0
  0
SCALE
  5
4A
102
{ACAD_REACTORS
330
47
102
}
330
47
100
AcDbScale
 70
     0
300
1:4
140
1.0
141
4.0
290
     0
  0
SCALE
  5
4B
102
{ACAD_REACTORS
330
47
102
}
330
47
100
AcDbScale
 70
     0
300
1:5
140
1.0
141
5.0
290
     0
  0
SCALE
  5
4C
102
{ACAD_REACTORS
330
47
102
}
330
47
100
AcDbScale
 70
     0
300
1:8
140
1.0
141
8.0
290
     0
  0
SCALE
  5
4D
102
{ACAD_REACTORS
330
47
102
}
330
47
100
AcDbScale
 70
     0
300
1:10
140
1.0
141
10.0
290
     0
  0
SCALE
  5
4E
102
{ACAD_REACTORS
330
47
102
}
330
47
100
AcDbScale
 70
     0
300
1:16
140
1.0
141
16.0
290
     0
  0
SCALE
  5
4F
102
{ACAD_REACTORS
330
47
102
}
330
47
100
AcDbScale
 70
     0
300
1:20
140
1.0
141
20.0
290
     0
  0
SCALE
  5
50
102
{ACAD_REACTORS
330
47
102
}
330
47
100
AcDbScale
 70
     0
300
1:30
140
1.0
141
30.0
290
     0
  0
SCALE
  5
51
102
{ACAD_REACTORS
330
47
102
}
330
47
100
AcDbScale
 70
     0
300
1:40
140
1.0
141
40.0
290
     0
  0
SCALE
  5
52
102
{ACAD_REACTORS
330
47
102
}
330
47
100
AcDbScale
 70
     0
300
1:50
140
1.0
141
50.0
290
     0
  0
SCALE
  5
53
102
{ACAD_REACTORS
330
47
102
}
330
47
100
AcDbScale
 70
     0
300
1:100
140
1.0
141
100.0
290
     0
  0
SCALE
  5
54
102
{ACAD_REACTORS
330
47
102
}
330
47
100
AcDbScale
 70
     0
300
2:1
140
2.0
141
1.0
290
     0
  0
SCALE
  5
55
102
{ACAD_REACTORS
330
47
102
}
330
47
100
AcDbScale
 70
     0
300
4:1
140
4.0
141
1.0
290
     0
  0
SCALE
  5
56
102
{ACAD_REACTORS
330
47
102
}
330
47
100
AcDbScale
 70
     0
300
8:1
140
8.0
141
1.0
290
     0
  0
SCALE
  5
57
102
{ACAD_REACTORS
330
47
102
}
330
47
100
AcDbScale
 70
     0
300
10:1
140
10.0
141
1.0
290
     0
  0
SCALE
  5
58
102
{ACAD_REACTORS
330
47
102
}
330
47
100
AcDbScale
 70
     0
300
100:1
140
100.0
141
1.0
290
     0
  0
ENDSEC
  0
EOF
