  0
SECTION
  2
HEADER
  9
$ACADVER
  1
AC1024
  9
$ACADMAINTVER
 70
     6
  9
$DWGCODEPAGE
  3
ANSI_1252
  9
$INSBASE
 10
0.0
 20
0.0
 30
0.0
  9
$EXTMIN
 10
0.0
 20
0.0
 30
0.0
  9
$EXTMAX
 10
594.0
 20
841.0
 30
0.0
  9
$LIMMIN
 10
0.0
 20
0.0
  9
$LIMMAX
 10
594.0
 20
841.0
  9
$ORTHOMODE
 70
     0
  9
$REGENMODE
 70
     1
  9
$FILLMODE
 70
     1
  9
$QTEXTMODE
 70
     0
  9
$MIRRTEXT
 70
     1
  9
$LTSCALE
 40
1.0
  9
$ATTMODE
 70
     1
  9
$TEXTSIZE
 40
10.0
  9
$TRACEWID
 40
1.0
  9
$TEXTSTYLE
  7
Standard
  9
$CLAYER
  8
0
  9
$CELTYPE
  6
ByLayer
  9
$CECOLOR
 62
   256
  9
$CELTSCALE
 40
1.0
  9
$DISPSILH
 70
     0
  9
$DIMSCALE
 40
1.0
  9
$DIMASZ
 40
2.5
  9
$DIMEXO
 40
0.0
  9
$DIMDLI
 40
3.75
  9
$DIMRND
 40
0.0
  9
$DIMDLE
 40
0.0
  9
$DIMEXE
 40
1.0
  9
$DIMTP
 40
0.0
  9
$DIMTM
 40
0.0
  9
$DIMTXT
 40
3.5
  9
$DIMCEN
 40
2.5
  9
$DIMTSZ
 40
0.0
  9
$DIMTOL
 70
     0
  9
$DIMLIM
 70
     0
  9
$DIMTIH
 70
     1
  9
$DIMTOH
 70
     1
  9
$DIMSE1
 70
     0
  9
$DIMSE2
 70
     0
  9
$DIMTAD
 70
     1
  9
$DIMZIN
 70
     0
  9
$DIMBLK
  1

  9
$DIMASO
 70
     1
  9
$DIMSHO
 70
     1
  9
$DIMPOST
  1

  9
$DIMAPOST
  1

  9
$DIMALT
 70
     0
  9
$DIMALTD
 70
     3
  9
$DIMALTF
 40
0.0393700787
  9
$DIMLFAC
 40
1.0
  9
$DIMTOFL
 70
     1
  9
$DIMTVP
 40
0.0
  9
$DIMTIX
 70
     0
  9
$DIMSOXD
 70
     0
  9
$DIMSAH
 70
     0
  9
$DIMBLK1
  1

  9
$DIMBLK2
  1

  9
$DIMSTYLE
  2
ISO-25
  9
$DIMCLRD
 70
     0
  9
$DIMCLRE
 70
     0
  9
$DIMCLRT
 70
     0
  9
$DIMTFAC
 40
1.0
  9
$DIMGAP
 40
1.5
  9
$DIMJUST
 70
     0
  9
$DIMSD1
 70
     0
  9
$DIMSD2
 70
     0
  9
$DIMTOLJ
 70
     0
  9
$DIMTZIN
 70
     0
  9
$DIMALTZ
 70
     0
  9
$DIMALTTZ
 70
     0
  9
$DIMUPT
 70
     0
  9
$DIMDEC
 70
     2
  9
$DIMTDEC
 70
     2
  9
$DIMALTU
 70
     2
  9
$DIMALTTD
 70
     3
  9
$DIMTXSTY
  7
Standard
  9
$DIMAUNIT
 70
     0
  9
$DIMADEC
 70
     2
  9
$DIMALTRND
 40
0.0
  9
$DIMAZIN
 70
     0
  9
$DIMDSEP
 70
    44
  9
$DIMATFIT
 70
     3
  9
$DIMFRAC
 70
     0
  9
$DIMLDRBLK
  1

  9
$DIMLUNIT
 70
     2
  9
$DIMLWD
 70
    -2
  9
$DIMLWE
 70
    -2
  9
$DIMTMOVE
 70
     0
  9
$DIMFXL
 40
1.0
  9
$DIMFXLON
 70
     0
  9
$DIMJOGANG
 40
0.7853981634
  9
$DIMTFILL
 70
     0
  9
$DIMTFILLCLR
 70
     0
  9
$DIMARCSYM
 70
     0
  9
$DIMLTYPE
  6

  9
$DIMLTEX1
  6

  9
$DIMLTEX2
  6

  9
$DIMTXTDIRECTION
 70
     0
  9
$LUNITS
 70
     2
  9
$LUPREC
 70
     2
  9
$SKETCHINC
 40
1.0
  9
$FILLETRAD
 40
10.0
  9
$AUNITS
 70
     0
  9
$AUPREC
 70
     2
  9
$MENU
  1
.
  9
$ELEVATION
 40
0.0
  9
$PELEVATION
 40
0.0
  9
$THICKNESS
 40
0.0
  9
$LIMCHECK
 70
     0
  9
$CHAMFERA
 40
10.0
  9
$CHAMFERB
 40
10.0
  9
$CHAMFERC
 40
20.0
  9
$CHAMFERD
 40
0.0
  9
$SKPOLY
 70
     0
  9
$TDCREATE
 40
2456580.638235567
  9
$TDUCREATE
 40
2456580.554902234
  9
$TDUPDATE
 40
2456580.638235937
  9
$TDUUPDATE
 40
2456580.554902604
  9
$TDINDWG
 40
0.0000000116
  9
$TDUSRTIMER
 40
0.0000000116
  9
$USRTIMER
 70
     1
  9
$ANGBASE
 50
0.0
  9
$ANGDIR
 70
     0
  9
$PDMODE
 70
     0
  9
$PDSIZE
 40
-1.0
  9
$PLINEWID
 40
0.0
  9
$SPLFRAME
 70
     0
  9
$SPLINETYPE
 70
     6
  9
$SPLINESEGS
 70
     8
  9
$HANDSEED
  5
170
  9
$SURFTAB1
 70
     6
  9
$SURFTAB2
 70
     6
  9
$SURFTYPE
 70
     6
  9
$SURFU
 70
     6
  9
$SURFV
 70
     6
  9
$UCSBASE
  2

  9
$UCSNAME
  2

  9
$UCSORG
 10
0.0
 20
0.0
 30
0.0
  9
$UCSXDIR
 10
1.0
 20
0.0
 30
0.0
  9
$UCSYDIR
 10
0.0
 20
1.0
 30
0.0
  9
$UCSORTHOREF
  2

  9
$UCSORTHOVIEW
 70
     0
  9
$UCSORGTOP
 10
0.0
 20
0.0
 30
0.0
  9
$UCSORGBOTTOM
 10
0.0
 20
0.0
 30
0.0
  9
$UCSORGLEFT
 10
0.0
 20
0.0
 30
0.0
  9
$UCSORGRIGHT
 10
0.0
 20
0.0
 30
0.0
  9
$UCSORGFRONT
 10
0.0
 20
0.0
 30
0.0
  9
$UCSORGBACK
 10
0.0
 20
0.0
 30
0.0
  9
$PUCSBASE
  2

  9
$PUCSNAME
  2

  9
$PUCSORG
 10
0.0
 20
0.0
 30
0.0
  9
$PUCSXDIR
 10
1.0
 20
0.0
 30
0.0
  9
$PUCSYDIR
 10
0.0
 20
1.0
 30
0.0
  9
$PUCSORTHOREF
  2

  9
$PUCSORTHOVIEW
 70
     0
  9
$PUCSORGTOP
 10
0.0
 20
0.0
 30
0.0
  9
$PUCSORGBOTTOM
 10
0.0
 20
0.0
 30
0.0
  9
$PUCSORGLEFT
 10
0.0
 20
0.0
 30
0.0
  9
$PUCSORGRIGHT
 10
0.0
 20
0.0
 30
0.0
  9
$PUCSORGFRONT
 10
0.0
 20
0.0
 30
0.0
  9
$PUCSORGBACK
 10
0.0
 20
0.0
 30
0.0
  9
$USERI1
 70
     0
  9
$USERI2
 70
     0
  9
$USERI3
 70
     0
  9
$USERI4
 70
     0
  9
$USERI5
 70
     0
  9
$USERR1
 40
0.0
  9
$USERR2
 40
0.0
  9
$USERR3
 40
0.0
  9
$USERR4
 40
0.0
  9
$USERR5
 40
0.0
  9
$WORLDVIEW
 70
     1
  9
$SHADEDGE
 70
     3
  9
$SHADEDIF
 70
    70
  9
$TILEMODE
 70
     1
  9
$MAXACTVP
 70
    64
  9
$PINSBASE
 10
0.0
 20
0.0
 30
0.0
  9
$PLIMCHECK
 70
     0
  9
$PEXTMIN
 10
1.0000000000E+20
 20
1.0000000000E+20
 30
1.0000000000E+20
  9
$PEXTMAX
 10
-1.0000000000E+20
 20
-1.0000000000E+20
 30
-1.0000000000E+20
  9
$PLIMMIN
 10
0.0
 20
0.0
  9
$PLIMMAX
 10
420.0
 20
297.0
  9
$UNITMODE
 70
     0
  9
$VISRETAIN
 70
     1
  9
$PLINEGEN
 70
     0
  9
$PSLTSCALE
 70
     1
  9
$TREEDEPTH
 70
  3020
  9
$CMLSTYLE
  2
Standard
  9
$CMLJUST
 70
     0
  9
$CMLSCALE
 40
20.0
  9
$PROXYGRAPHICS
 70
     1
  9
$MEASUREMENT
 70
     1
  9
$CELWEIGHT
370
    -1
  9
$ENDCAPS
280
     0
  9
$JOINSTYLE
280
     0
  9
$LWDISPLAY
290
     1
  9
$INSUNITS
 70
     4
  9
$HYPERLINKBASE
  1

  9
$STYLESHEET
  1

  9
$XEDIT
290
     1
  9
$CEPSNTYPE
380
     0
  9
$PSTYLEMODE
290
     1
  9
$FINGERPRINTGUID
  2
{3BEBDF17-5ED8-4182-BBE8-5BD429374EF1}
  9
$VERSIONGUID
  2
{FAEB1C32-E019-11D5-929B-00C0DF256EC4}
  9
$EXTNAMES
290
     1
  9
$PSVPSCALE
 40
0.0
  9
$OLESTARTUP
290
     0
  9
$SORTENTS
280
   127
  9
$INDEXCTL
280
     0
  9
$HIDETEXT
280
     1
  9
$XCLIPFRAME
280
     2
  9
$HALOGAP
280
     0
  9
$OBSCOLOR
 70
   257
  9
$OBSLTYPE
280
     0
  9
$INTERSECTIONDISPLAY
280
     0
  9
$INTERSECTIONCOLOR
 70
   257
  9
$DIMASSOC
280
     2
  9
$PROJECTNAME
  1

  9
$CAMERADISPLAY
290
     0
  9
$LENSLENGTH
 40
50.0
  9
$CAMERAHEIGHT
 40
0.0
  9
$STEPSPERSEC
 40
2.0
  9
$STEPSIZE
 40
6.0
  9
$3DDWFPREC
 40
2.0
  9
$PSOLWIDTH
 40
5.0
  9
$PSOLHEIGHT
 40
80.0
  9
$LOFTANG1
 40
1.5707963268
  9
$LOFTANG2
 40
1.5707963268
  9
$LOFTMAG1
 40
0.0
  9
$LOFTMAG2
 40
0.0
  9
$LOFTPARAM
 70
     7
  9
$LOFTNORMALS
280
     1
  9
$LATITUDE
 40
37.795
  9
$LONGITUDE
 40
-122.394
  9
$NORTHDIRECTION
 40
0.0
  9
$TIMEZONE
 70
 -8000
  9
$LIGHTGLYPHDISPLAY
280
     1
  9
$TILEMODELIGHTSYNCH
280
     1
  9
$SOLIDHIST
280
     1
  9
$SHOWHIST
280
     1
  9
$DWFFRAME
280
     2
  9
$DGNFRAME
280
     2
  9
$REALWORLDSCALE
290
     1
  9
$INTERFERECOLOR
 62
   256
  9
$CSHADOW
280
     0
  9
$SHADOWPLANELOCATION
 40
0.0
  0
ENDSEC
  0
SECTION
  2
CLASSES
  0
CLASS
  1
ACDBDICTIONARYWDFLT
  2
AcDbDictionaryWithDefault
  3
ObjectDBX Classes
 90
        0
 91
        4
280
     0
281
     0
  0
CLASS
  1
VISUALSTYLE
  2
AcDbVisualStyle
  3
ObjectDBX Classes
 90
     4095
 91
        4
280
     0
281
     0
  0
CLASS
  1
MATERIAL
  2
AcDbMaterial
  3
ObjectDBX Classes
 90
     1153
 91
        4
280
     0
281
     0
  0
ENDSEC
  0
SECTION
  2
TABLES
  0
TABLE
  2
VPORT
  5
8
330
0
100
AcDbSymbolTable
 70
     1
  0
VPORT
  5
29
330
8
100
AcDbSymbolTableRecord
100
AcDbViewportTableRecord
  2
*Active
 70
     0
 10
0.0
 20
0.0
 11
1.0
 21
1.0
 12
297.0
 22
420.5
 13
0.0
 23
0.0
 14
10.0
 24
10.0
 15
10.0
 25
10.0
 16
0.0
 26
0.0
 36
1.0
 17
0.0
 27
0.0
 37
0.0
 40
841.0
 41
0.7063020214
 42
50.0
 43
0.0
 44
0.0
 50
0.0
 51
0.0
 71
     0
 72
  2000
 73
     1
 74
     3
 75
     0
 76
     0
 77
     0
 78
     0
281
     0
 65
     1
110
0.0
120
0.0
130
0.0
111
1.0
121
0.0
131
0.0
112
0.0
122
1.0
132
0.0
 79
     0
146
0.0
 60
     3
 61
     5
292
     1
282
     1
141
0.0
142
0.0
 63
   250
  0
ENDTAB
  0
TABLE
  2
LTYPE
  5
5
330
0
100
AcDbSymbolTable
 70
     6
  0
LTYPE
  5
14
330
5
100
AcDbSymbolTableRecord
100
AcDbLinetypeTableRecord
  2
ByBlock
 70
     0
  3

 72
    65
 73
     0
 40
0.0
  0
LTYPE
  5
15
330
5
100
AcDbSymbolTableRecord
100
AcDbLinetypeTableRecord
  2
ByLayer
 70
     0
  3

 72
    65
 73
     0
 40
0.0
  0
LTYPE
  5
16
330
5
100
AcDbSymbolTableRecord
100
AcDbLinetypeTableRecord
  2
Continuous
 70
     0
  3
Solid line
 72
    65
 73
     0
 40
0.0
  0
LTYPE
  5
3F
330
5
100
AcDbSymbolTableRecord
100
AcDbLinetypeTableRecord
  2
HIDDEN
 70
     0
  3
Hidden __ __ __ __ __ __ __ __ __ __ __ __ __ __
 72
    65
 73
     2
 40
1.905
 49
1.27
 74
     0
 49
-0.635
 74
     0
  0
LTYPE
  5
40
330
5
100
AcDbSymbolTableRecord
100
AcDbLinetypeTableRecord
  2
PHANTOM
 70
     0
  3
Phantom ______  __  __  ______  __  __  ______
 72
    65
 73
     6
 40
12.7
 49
6.35
 74
     0
 49
-1.27
 74
     0
 49
1.27
 74
     0
 49
-1.27
 74
     0
 49
1.27
 74
     0
 49
-1.27
 74
     0
  0
LTYPE
  5
41
330
5
100
AcDbSymbolTableRecord
100
AcDbLinetypeTableRecord
  2
CENTER
 70
     0
  3
Center ____ _ ____ _ ____ _ ____ _ ____ _ ____
 72
    65
 73
     4
 40
10.16
 49
6.35
 74
     0
 49
-1.27
 74
     0
 49
1.27
 74
     0
 49
-1.27
 74
     0
  0
LTYPE
  5
42
330
5
100
AcDbSymbolTableRecord
100
AcDbLinetypeTableRecord
  2
CENTERX2
 70
     0
  3
Center (2x) ________  __  ________  __  _____
 72
    65
 73
     4
 40
20.32
 49
12.7
 74
     0
 49
-2.54
 74
     0
 49
2.54
 74
     0
 49
-2.54
 74
     0
  0
LTYPE
  5
43
330
5
100
AcDbSymbolTableRecord
100
AcDbLinetypeTableRecord
  2
DOT2
 70
     0
  3
Dot (.5x) ........................................
 72
    65
 73
     2
 40
0.635
 49
0.0
 74
     0
 49
-0.635
 74
     0
  0
ENDTAB
  0
TABLE
  2
LAYER
  5
2
330
0
100
AcDbSymbolTable
 70
     1
  0
LAYER
  5
10
330
2
100
AcDbSymbolTableRecord
100
AcDbLayerTableRecord
  2
0
 70
     0
 62
     7
  6
Continuous
370
    -3
390
F
347
3E
  0
ENDTAB
  0
TABLE
  2
STYLE
  5
3
330
0
100
AcDbSymbolTable
 70
     3
  0
STYLE
  5
11
330
3
100
AcDbSymbolTableRecord
100
AcDbTextStyleTableRecord
  2
Standard
 70
     0
 40
0.0
 41
1.0
 50
0.0
 71
     0
 42
10.0
  3
txt
  4

  0
STYLE
  5
47
330
3
100
AcDbSymbolTableRecord
100
AcDbTextStyleTableRecord
  2
SLDTEXTSTYLE0
 70
     0
 40
0.0
 41
0.96
 50
0.0
 71
     0
 42
0.2
  3
ISOCP3
  4

  0
STYLE
  5
5E
330
3
100
AcDbSymbolTableRecord
100
AcDbTextStyleTableRecord
  2
SLDTEXTSTYLE1
 70
     0
 40
0.0
 41
0.605
 50
0.0
 71
     0
 42
0.2
  3
TXT
  4

  0
ENDTAB
  0
TABLE
  2
VIEW
  5
6
330
0
100
AcDbSymbolTable
 70
     0
  0
ENDTAB
  0
TABLE
  2
UCS
  5
7
330
0
100
AcDbSymbolTable
 70
     0
  0
ENDTAB
  0
TABLE
  2
APPID
  5
9
330
0
100
AcDbSymbolTable
 70
     1
  0
APPID
  5
12
330
9
100
AcDbSymbolTableRecord
100
AcDbRegAppTableRecord
  2
ACAD
 70
     0
  0
ENDTAB
  0
TABLE
  2
DIMSTYLE
  5
A
330
0
100
AcDbSymbolTable
 70
     2
100
AcDbDimStyleTable
  0
DIMSTYLE
105
27
330
A
100
AcDbSymbolTableRecord
100
AcDbDimStyleTableRecord
  2
ISO-25
 70
     0
 41
2.5
 42
0.625
 43
3.75
 44
1.25
 73
     0
 74
     0
 77
     1
 78
     8
140
2.5
141
2.5
143
0.0393700787
147
0.625
171
     3
172
     1
178
     0
271
     2
272
     2
274
     3
278
    44
283
     0
284
     8
340
11
  0
DIMSTYLE
105
48
102
{ACAD_REACTORS
330
46
330
53
102
}
330
A
100
AcDbSymbolTableRecord
100
AcDbDimStyleTableRecord
  2
SLDDIMSTYLE0
 70
     0
 41
2.5
 44
0.0
 45
0.000000001
 73
     0
 74
     0
 77
     1
 78
    12
 79
     3
140
6.0
147
1.5
173
     1
178
     0
271
     2
272
     2
276
     2
284
    12
340
47
  0
ENDTAB
  0
TABLE
  2
BLOCK_RECORD
  5
1
330
0
100
AcDbSymbolTable
 70
     3
  0
BLOCK_RECORD
  5
1F
330
1
100
AcDbSymbolTableRecord
100
AcDbBlockTableRecord
  2
*Model_Space
340
22
 70
     0
280
     1
281
     0
  0
BLOCK_RECORD
  5
1B
330
1
100
AcDbSymbolTableRecord
100
AcDbBlockTableRecord
  2
*Paper_Space
340
1E
 70
     0
280
     1
281
     0
  0
BLOCK_RECORD
  5
23
330
1
100
AcDbSymbolTableRecord
100
AcDbBlockTableRecord
  2
*Paper_Space0
340
26
 70
     0
280
     1
281
     0
  0
BLOCK_RECORD
  5
49
330
1
100
AcDbSymbolTableRecord
100
AcDbBlockTableRecord
  2
_D
340
0
 70
     0
280
     1
281
     0
  0
BLOCK_RECORD
  5
54
330
1
100
AcDbSymbolTableRecord
100
AcDbBlockTableRecord
  2
_D_1
340
0
 70
     0
280
     1
281
     0
  0
ENDTAB
  0
ENDSEC
  0
SECTION
  2
BLOCKS
  0
BLOCK
  5
20
330
1F
100
AcDbEntity
  8
0
100
AcDbBlockBegin
  2
*Model_Space
 70
     0
 10
0.0
 20
0.0
 30
0.0
  3
*Model_Space
  1

  0
ENDBLK
  5
21
330
1F
100
AcDbEntity
  8
0
100
AcDbBlockEnd
  0
BLOCK
  5
1C
330
1B
100
AcDbEntity
 67
     1
  8
0
100
AcDbBlockBegin
  2
*Paper_Space
 70
     0
 10
0.0
 20
0.0
 30
0.0
  3
*Paper_Space
  1

  0
ENDBLK
  5
1D
330
1B
100
AcDbEntity
 67
     1
  8
0
100
AcDbBlockEnd
  0
BLOCK
  5
24
330
23
100
AcDbEntity
  8
0
100
AcDbBlockBegin
  2
*Paper_Space0
 70
     0
 10
0.0
 20
0.0
 30
0.0
  3
*Paper_Space0
  1

  0
ENDBLK
  5
25
330
23
100
AcDbEntity
  8
0
100
AcDbBlockEnd
  0
BLOCK
  5
4A
330
49
100
AcDbEntity
  8
0
100
AcDbBlockBegin
  2
_D
 70
     0
 10
0.0
 20
0.0
 30
0.0
  3
_D
  1

  0
SOLID
  5
4C
330
49
100
AcDbEntity
  8
0
  6
Continuous
 62
     7
370
     0
100
AcDbTrace
 10
42.7614395004
 20
152.0299240879
 30
0.0
 11
42.4614395004
 21
149.5299240879
 31
0.0
 12
43.0614395004
 22
149.5299240879
 32
0.0
 13
43.0614395004
 23
149.5299240879
 33
0.0
  0
SOLID
  5
4D
330
49
100
AcDbEntity
  8
0
  6
Continuous
 62
     7
370
     0
100
AcDbTrace
 10
42.7614395004
 20
52.0299240879
 30
0.0
 11
43.0614395004
 21
54.5299240879
 31
0.0
 12
42.4614395004
 22
54.5299240879
 32
0.0
 13
42.4614395004
 23
54.5299240879
 33
0.0
  0
LINE
  5
4E
330
49
100
AcDbEntity
  8
0
  6
Continuous
 62
     7
370
     0
100
AcDbLine
 10
56.6850079902
 20
152.0299240879
 30
0.0
 11
41.7614395004
 21
152.0299240879
 31
0.0
  0
LINE
  5
4F
330
49
100
AcDbEntity
  8
0
  6
Continuous
 62
     7
370
     0
100
AcDbLine
 10
56.6850079902
 20
52.0299240879
 30
0.0
 11
41.7614395004
 21
52.0299240879
 31
0.0
  0
LINE
  5
50
330
49
100
AcDbEntity
  8
0
  6
Continuous
 62
     7
370
     0
100
AcDbLine
 10
42.7614395004
 20
152.0299240879
 30
0.0
 11
42.7614395004
 21
52.0299240879
 31
0.0
  0
MTEXT
  5
51
330
49
100
AcDbEntity
  8
0
  6
Continuous
 62
     7
370
     0
100
AcDbMText
 10
35.0270329453
 20
91.6722208134
 30
0.1
 40
6.0
 41
0.0
 46
0.0
 71
     1
 72
     1
  1
100
  7
SLDTEXTSTYLE0
 11
-7.044195017643634E-15
 21
1.0
 31
0.0
 73
     1
 44
1.0
  0
MTEXT
  5
52
330
49
100
AcDbEntity
  8
0
  6
Continuous
 62
     7
370
     0
100
AcDbMText
 10
35.0270329453
 20
108.4388881795
 30
0.1
 40
6.0
 41
0.0
 46
0.0
 71
     1
 72
     1
  1
mm
  7
SLDTEXTSTYLE0
 11
-7.044195017643634E-15
 21
1.0
 31
0.0
 73
     1
 44
1.0
  0
ENDBLK
  5
4B
330
49
100
AcDbEntity
  8
0
100
AcDbBlockEnd
  0
BLOCK
  5
55
330
54
100
AcDbEntity
  8
0
100
AcDbBlockBegin
  2
_D_1
 70
     0
 10
0.0
 20
0.0
 30
0.0
  3
_D_1
  1

  0
SOLID
  5
57
330
54
100
AcDbEntity
  8
0
  6
Continuous
 62
     7
370
     0
100
AcDbTrace
 10
56.6850079902
 20
38.4602342313
 30
0.0
 11
59.1850079902
 21
38.1602342313
 31
0.0
 12
59.1850079902
 22
38.7602342313
 32
0.0
 13
59.1850079902
 23
38.7602342313
 33
0.0
  0
SOLID
  5
58
330
54
100
AcDbEntity
  8
0
  6
Continuous
 62
     7
370
     0
100
AcDbTrace
 10
156.6850079902
 20
38.4602342313
 30
0.0
 11
154.1850079902
 21
38.7602342313
 31
0.0
 12
154.1850079902
 22
38.1602342313
 32
0.0
 13
154.1850079902
 23
38.1602342313
 33
0.0
  0
LINE
  5
59
330
54
100
AcDbEntity
  8
0
  6
Continuous
 62
     7
370
     0
100
AcDbLine
 10
56.6850079902
 20
52.0299240879
 30
0.0
 11
56.6850079902
 21
37.4602342313
 31
0.0
  0
LINE
  5
5A
330
54
100
AcDbEntity
  8
0
  6
Continuous
 62
     7
370
     0
100
AcDbLine
 10
156.6850079902
 20
52.0299240879
 30
0.0
 11
156.6850079902
 21
37.4602342313
 31
0.0
  0
LINE
  5
5B
330
54
100
AcDbEntity
  8
0
  6
Continuous
 62
     7
370
     0
100
AcDbLine
 10
56.6850079902
 20
38.4602342313
 30
0.0
 11
156.6850079902
 21
38.4602342313
 31
0.0
  0
MTEXT
  5
5C
330
54
100
AcDbEntity
  8
0
  6
Continuous
 62
     7
370
     0
100
AcDbMText
 10
91.2668151533
 20
46.1946407863
 30
0.1
 40
6.0
 41
0.0
 46
0.0
 71
     1
 72
     1
  1
100
  7
SLDTEXTSTYLE0
 73
     1
 44
1.0
  0
MTEXT
  5
5D
330
54
100
AcDbEntity
  8
0
  6
Continuous
 62
     7
370
     0
100
AcDbMText
 10
108.0334825193
 20
46.1946407863
 30
0.1
 40
6.0
 41
0.0
 46
0.0
 71
     1
 72
     1
  1
mm
  7
SLDTEXTSTYLE0
 73
     1
 44
1.0
  0
ENDBLK
  5
56
330
54
100
AcDbEntity
  8
0
100
AcDbBlockEnd
  0
ENDSEC
  0
SECTION
  2
ENTITIES
  0
LINE
  5
44
330
1F
100
AcDbEntity
  8
0
  6
Continuous
 62
     7
370
     0
100
AcDbLine
 10
56.6850079902
 20
152.0299240879
 30
0.0
 11
56.6850079902
 21
52.0299240879
 31
0.0
  0
LINE
  5
45
330
1F
100
AcDbEntity
  8
0
  6
Continuous
 62
     7
370
     0
100
AcDbLine
 10
56.6850079902
 20
52.0299240879
 30
0.0
 11
156.6850079902
 21
52.0299240879
 31
0.0
  0
DIMENSION
  5
46
330
1F
100
AcDbEntity
  8
0
  6
Continuous
 62
     7
370
     0
100
AcDbDimension
280
     0
  2
_D
 10
42.7614395004
 20
52.0299240879
 30
0.0
 11
42.7614395004
 21
105.4472211621
 31
0.0
 70
   160
  1
<>mm
 71
     2
 42
-1.0
 73
     0
 74
     0
 75
     0
  3
SLDDIMSTYLE0
100
AcDbAlignedDimension
 13
56.6850079902
 23
152.0299240879
 33
0.0
 14
56.6850079902
 24
52.0299240879
 34
0.0
 50
90.0
100
AcDbRotatedDimension
  0
DIMENSION
  5
53
330
1F
100
AcDbEntity
  8
0
  6
Continuous
 62
     7
370
     0
100
AcDbDimension
280
     0
  2
_D_1
 10
156.6850079902
 20
38.4602342313
 30
0.0
 11
105.0418155019
 21
38.4602342313
 31
0.0
 70
   160
  1
<>mm
 71
     2
 42
-1.0
 73
     0
 74
     0
 75
     0
  3
SLDDIMSTYLE0
100
AcDbAlignedDimension
 13
56.6850079902
 23
52.0299240879
 33
0.0
 14
156.6850079902
 24
52.0299240879
 34
0.0
100
AcDbRotatedDimension
  0
MTEXT
  5
5F
330
1F
100
AcDbEntity
  8
0
  6
Continuous
 62
     7
370
     0
100
AcDbMText
 10
222.8856995391
 20
49.3034557666
 30
0.0
 40
10.0
 41
0.0
 46
0.0
 71
     1
 72
     1
  1
32 023 05 75
  7
SLDTEXTSTYLE1
 73
     1
 44
1.0
  0
MTEXT
  5
60
330
1F
100
AcDbEntity
  8
0
  6
Continuous
 62
     7
370
     0
100
AcDbMText
 10
412.8252631579
 20
48.4342449499
 30
0.0
 40
10.0
 41
0.0
 46
0.0
 71
     1
 72
     1
  1
KLUDI GmbH & Co KG
  7
SLDTEXTSTYLE1
 73
     1
 44
1.0
  0
LINE
  5
61
330
1F
100
AcDbEntity
  8
0
  6
Continuous
 62
     7
370
    15
100
AcDbLine
 10
210.7127687608
 20
540.4053827063
 30
0.0
 11
210.7127687608
 21
553.9283442743
 31
0.0
  0
LINE
  5
62
330
1F
100
AcDbEntity
  8
0
  6
Continuous
 62
     7
370
    15
100
AcDbLine
 10
190.7127687608
 20
553.9283442743
 30
0.0
 11
190.7127687608
 21
540.4053827063
 31
0.0
  0
LINE
  5
63
330
1F
100
AcDbEntity
  8
0
  6
Continuous
 62
     7
370
    15
100
AcDbLine
 10
194.6555783323
 20
535.0428615434
 30
0.0
 11
194.9601298064
 21
534.9703981706
 31
0.0
  0
LINE
  5
64
330
1F
100
AcDbEntity
  8
0
  6
Continuous
 62
     7
370
    15
100
AcDbLine
 10
206.4654077152
 20
534.9703981706
 30
0.0
 11
206.7699591893
 21
535.0428615434
 31
0.0
  0
LINE
  5
65
330
1F
100
AcDbEntity
  8
0
  6
Continuous
 62
     7
370
    15
100
AcDbLine
 10
191.7627687608
 20
540.4053827063
 30
0.0
 11
191.7627687608
 21
536.7481814046
 31
0.0
  0
LINE
  5
66
330
1F
100
AcDbEntity
  8
0
  6
Continuous
 62
     7
370
    15
100
AcDbLine
 10
209.6627687608
 20
536.7481814046
 30
0.0
 11
209.6627687608
 21
540.4053827063
 31
0.0
  0
LINE
  5
67
330
1F
100
AcDbEntity
  8
0
  6
Continuous
 62
     7
370
    15
100
AcDbLine
 10
210.7127687608
 20
553.9283442743
 30
0.0
 11
210.7127687608
 21
563.5876025372
 31
0.0
  0
LINE
  5
68
330
1F
100
AcDbEntity
  8
0
  6
Continuous
 62
     7
370
    15
100
AcDbLine
 10
190.7127687608
 20
563.5876025372
 30
0.0
 11
190.7127687608
 21
553.9283442743
 31
0.0
  0
LINE
  5
69
330
1F
100
AcDbEntity
  8
0
  6
Continuous
 62
     7
370
    15
100
AcDbLine
 10
190.7127687608
 20
591.7524788233
 30
0.0
 11
190.7127687608
 21
563.5876025372
 31
0.0
  0
LINE
  5
6A
330
1F
100
AcDbEntity
  8
0
  6
Continuous
 62
     7
370
    15
100
AcDbLine
 10
210.7127687608
 20
563.5876025372
 30
0.0
 11
210.7127687608
 21
591.7524788233
 31
0.0
  0
LINE
  5
6B
330
1F
100
AcDbEntity
  8
0
  6
Continuous
 62
     7
370
    15
100
AcDbLine
 10
210.2972321069
 20
415.8822444329
 30
0.0
 11
210.0434621801
 21
416.8414886127
 31
0.0
  0
LINE
  5
6C
330
1F
100
AcDbEntity
  8
0
  6
Continuous
 62
     7
370
    15
100
AcDbLine
 10
185.4439314532
 20
412.3485806219
 30
0.0
 11
185.5049351958
 21
411.6169667169
 31
0.0
  0
LWPOLYLINE
  5
6D
330
1F
100
AcDbEntity
  8
0
  6
Continuous
 62
     7
370
    15
100
AcDbPolyline
 90
       15
 70
   128
 43
0.0
 10
204.9601495424
 20
441.2914554268
 10
203.2601134273
 20
450.0192588994
 10
201.1734187633
 20
460.5462832165
 10
200.5185311366
 20
463.8761905506
 10
200.1245822492
 20
465.5841128933
 10
199.5722540926
 20
467.1182873007
 10
198.7438892713
 20
468.6003659704
 10
197.6456309396
 20
469.9860538469
 10
196.3040781684
 20
471.2086997562
 10
194.7834417279
 20
472.1938096749
 10
193.1282538485
 20
472.9282072004
 10
191.3209731272
 20
473.4089481511
 10
189.4586145026
 20
473.5909361095
 10
187.6175534742
 20
473.4638036178
 10
187.373545551
 20
473.4089695366
  0
LWPOLYLINE
  5
6E
330
1F
100
AcDbEntity
  8
0
  6
Continuous
 62
     7
370
    15
100
AcDbPolyline
 90
       16
 70
   128
 43
0.0
 10
187.3715248552
 20
473.4157191225
 10
187.2507868493
 20
473.4015967035
 10
185.5838306856
 20
472.952477616
 10
183.9271504145
 20
472.2085905739
 10
182.401340296
 20
471.2069091856
 10
181.0278099292
 20
469.9558245798
 10
179.8621632983
 20
468.4871072569
 10
178.9765830319
 20
466.8787248953
 10
178.3741455925
 20
465.1694120902
 10
178.0648417433
 20
463.3849497495
 10
178.0727150179
 20
461.6179918289
 10
178.2598588202
 20
460.0973141151
 10
178.7021592206
 20
457.2183951249
 10
179.4997024264
 20
452.1215263853
 10
181.141540106
 20
441.4883363719
 10
181.8391150658
 20
437.1338677416
  0
LINE
  5
6F
330
1F
100
AcDbEntity
  8
0
  6
Continuous
 62
     7
370
    15
100
AcDbLine
 10
183.9556253899
 20
394.8876556149
 30
0.0
 11
183.9721342341
 21
394.7940293071
 31
0.0
  0
LINE
  5
70
330
1F
100
AcDbEntity
  8
0
  6
Continuous
 62
     7
370
    15
100
AcDbLine
 10
217.4555978011
 20
400.6980673415
 30
0.0
 11
217.4390846302
 21
400.7917181871
 31
0.0
  0
ARC
  5
71
330
1F
100
AcDbEntity
  8
0
  6
Continuous
 62
     7
370
    15
100
AcDbCircle
 10
175.9127687608
 20
335.9522711767
 30
0.0
 40
0.2000000000000171
100
AcDbArc
 50
180.0
 51
270.0
  0
ARC
  5
72
330
1F
100
AcDbEntity
  8
0
  6
Continuous
 62
     7
370
    15
100
AcDbCircle
 10
225.5127687608
 20
335.9522711767
 30
0.0
 40
0.2000000000000171
100
AcDbArc
 50
270.0
 51
0.0
  0
ARC
  5
73
330
1F
100
AcDbEntity
  8
0
  6
Continuous
 62
     7
370
    15
100
AcDbCircle
 10
224.7127687608
 20
339.1415445381
 30
0.0
 40
1.000000000000032
100
AcDbArc
 50
0.0
 51
63.5200440425
  0
ARC
  5
74
330
1F
100
AcDbEntity
  8
0
  6
Continuous
 62
     7
370
    15
100
AcDbCircle
 10
176.7127687608
 20
339.1415445381
 30
0.0
 40
1.000000000000044
100
AcDbArc
 50
116.4799559575
 51
180.0
  0
LINE
  5
75
330
1F
100
AcDbEntity
  8
0
  6
Continuous
 62
     7
370
    15
100
AcDbLine
 10
175.7127687608
 20
339.1415445381
 30
0.0
 11
175.7127687608
 21
335.9522711767
 31
0.0
  0
LINE
  5
76
330
1F
100
AcDbEntity
  8
0
  6
Continuous
 62
     7
370
    15
100
AcDbLine
 10
225.7127687608
 20
335.9522711767
 30
0.0
 11
225.7127687608
 21
339.1415445381
 31
0.0
  0
ARC
  5
77
330
1F
100
AcDbEntity
  8
0
  6
Continuous
 62
     7
370
    15
100
AcDbCircle
 10
187.8598864324
 20
316.7642844821
 30
0.0
 40
26.00000000000002
100
AcDbArc
 50
104.6430576274
 51
116.4799559575
  0
ARC
  5
78
330
1F
100
AcDbEntity
  8
0
  6
Continuous
 62
     7
370
    15
100
AcDbCircle
 10
213.5656510892
 20
316.7642844821
 30
0.0
 40
26.00000000000002
100
AcDbArc
 50
63.5200440425
 51
75.3569423726
  0
ARC
  5
79
330
1F
100
AcDbEntity
  8
0
  6
Continuous
 62
     7
370
    15
100
AcDbCircle
 10
219.8855640365
 20
340.9522711767
 30
0.0
 40
1.0
100
AcDbArc
 50
75.3569423726
 51
90.0
  0
ARC
  5
7A
330
1F
100
AcDbEntity
  8
0
  6
Continuous
 62
     7
370
    15
100
AcDbCircle
 10
181.5399734852
 20
340.9522711767
 30
0.0
 40
1.0
100
AcDbArc
 50
90.0
 51
104.6430576274
  0
LINE
  5
7B
330
1F
100
AcDbEntity
  8
0
  6
Continuous
 62
     7
370
    15
100
AcDbLine
 10
218.7127687608
 20
342.1522711767
 30
0.0
 11
218.7127687608
 21
435.2440932187
 31
0.0
  0
LINE
  5
7C
330
1F
100
AcDbEntity
  8
0
  6
Continuous
 62
     7
370
    15
100
AcDbLine
 10
182.7127687608
 20
431.8816360761
 30
0.0
 11
182.7127687608
 21
342.1522711767
 31
0.0
  0
ARC
  5
7D
330
1F
100
AcDbEntity
  8
0
  6
Continuous
 62
     7
370
    15
100
AcDbCircle
 10
217.7127687608
 20
435.2440932187
 30
0.0
 40
1.0
100
AcDbArc
 50
0.0
 51
54.3152174847
  0
ARC
  5
7E
330
1F
100
AcDbEntity
  8
0
  6
Continuous
 62
     7
370
    15
100
AcDbCircle
 10
218.5127687608
 20
342.1522711767
 30
0.0
 40
0.2000000000000171
100
AcDbArc
 50
270.0
 51
0.0
  0
ARC
  5
7F
330
1F
100
AcDbEntity
  8
0
  6
Continuous
 62
     7
370
    15
100
AcDbCircle
 10
182.9127687608
 20
342.1522711767
 30
0.0
 40
0.1999999999999886
100
AcDbArc
 50
180.0
 51
270.0
  0
ARC
  5
80
330
1F
100
AcDbEntity
  8
0
  6
Continuous
 62
     7
370
    15
100
AcDbCircle
 10
198.4630270866
 20
408.4402232468
 30
0.0
 40
33.99999999999999
100
AcDbArc
 50
54.3152174847
 51
66.7145656934
  0
ARC
  5
81
330
1F
100
AcDbEntity
  8
0
  6
Continuous
 62
     7
370
    15
100
AcDbCircle
 10
211.5083231849
 20
438.7522711767
 30
0.0
 40
1.0
100
AcDbArc
 50
66.7145656934
 51
90.0
  0
LINE
  5
82
330
1F
100
AcDbEntity
  8
0
  6
Continuous
 62
     7
370
    15
100
AcDbLine
 10
210.7127687608
 20
440.7522711767
 30
0.0
 11
210.7127687608
 21
540.4053827063
 31
0.0
  0
LINE
  5
83
330
1F
100
AcDbEntity
  8
0
  6
Continuous
 62
     7
370
    15
100
AcDbLine
 10
190.7127687608
 20
540.4053827063
 30
0.0
 11
190.7127687608
 21
473.468381318
 31
0.0
  0
LINE
  5
84
330
1F
100
AcDbEntity
  8
0
  6
Continuous
 62
     7
370
    15
100
AcDbLine
 10
210.7127687608
 20
439.7522711767
 30
0.0
 11
210.7127687608
 21
440.7522711767
 31
0.0
  0
LWPOLYLINE
  5
85
330
1F
100
AcDbEntity
  8
0
  6
Continuous
 62
     7
370
    15
100
AcDbPolyline
 90
        3
 70
   128
 43
0.0
 10
219.1744704848
 20
400.4885558354
 10
218.889008803
 20
399.8647567783
 10
218.7127687608
 20
399.4370797448
  0
ARC
  5
86
330
1F
100
AcDbEntity
  8
0
  6
Continuous
 62
     7
370
    15
100
AcDbCircle
 10
221.8492805434
 20
398.9813083395
 30
0.0
 40
15.00000000000001
100
AcDbArc
 50
314.9351517822
 51
335.8999877961
  0
ARC
  5
87
330
1F
100
AcDbEntity
  8
0
  6
Continuous
 62
     7
370
    15
100
AcDbCircle
 10
234.6289578071
 20
393.2646791721
 30
0.0
 40
1.000000000000002
100
AcDbArc
 50
335.8999877961
 51
48.925355596
  0
ARC
  5
88
330
1F
100
AcDbEntity
  8
0
  6
Continuous
 62
     7
370
    15
100
AcDbCircle
 10
220.0740283568
 20
400.0517542386
 30
0.0
 40
1.000000000000002
100
AcDbArc
 50
81.074644404
 51
154.1000122039
  0
ARC
  5
89
330
1F
100
AcDbEntity
  8
0
  6
Continuous
 62
     7
370
    15
100
AcDbCircle
 10
215.574748492
 20
371.4029064311
 30
0.0
 40
29.99999999999999
100
AcDbArc
 50
48.925355596
 51
81.074644404
  0
ARC
  5
8A
330
1F
100
AcDbEntity
  8
0
  6
Continuous
 62
     7
370
    15
100
AcDbCircle
 10
226.7934226446
 20
394.0259618447
 30
0.0
 40
7.999999999999985
100
AcDbArc
 50
270.0980167031
 51
314.9351517822
  0
LWPOLYLINE
  5
8B
330
1F
100
AcDbEntity
  8
0
  6
Continuous
 62
     7
370
    15
100
AcDbPolyline
 90
        3
 70
   128
 43
0.0
 10
218.7127687608
 20
390.631639742
 10
219.0847941007
 20
390.0308274064
 10
219.5566460551
 20
389.4069196448
  0
LINE
  5
8C
330
1F
100
AcDbEntity
  8
0
  6
Continuous
 62
     7
370
    15
100
AcDbLine
 10
221.3692616292
 20
388.5616831213
 30
0.0
 11
218.7127687608
 21
382.8648157807
 31
0.0
  0
LINE
  5
8D
330
1F
100
AcDbEntity
  8
0
  6
Continuous
 62
     7
370
    15
100
AcDbLine
 10
218.7127687608
 20
373.4000094481
 30
0.0
 11
224.9944927774
 21
386.8712100743
 31
0.0
  0
LWPOLYLINE
  5
8E
330
1F
100
AcDbEntity
  8
0
  6
Continuous
 62
     7
370
    15
100
AcDbPolyline
 90
       13
 70
   128
 43
0.0
 10
200.7127687608
 20
542.9935731573
 10
198.8752735826
 20
542.9495042965
 10
197.1003520989
 20
542.8187984263
 10
195.448447132
 20
542.6059065783
 10
193.9758123243
 20
542.318078529
 10
192.732596488
 20
541.9651159176
 10
191.7611358473
 20
541.5590384623
 10
191.0945123291
 20
541.113674644
 10
190.7554269979
 20
540.6441907932
 10
190.7554269979
 20
540.1665746194
 10
191.0945123291
 20
539.6970907686
 10
191.7611358473
 20
539.2517269502
 10
191.7627687608
 20
539.2508785858
  0
LWPOLYLINE
  5
8F
330
1F
100
AcDbEntity
  8
0
  6
Continuous
 62
     7
370
    15
100
AcDbPolyline
 90
       13
 70
   128
 43
0.0
 10
209.6627687608
 20
539.2508785858
 10
209.6644016744
 20
539.2517269502
 10
210.3310251925
 20
539.6970907686
 10
210.6701105238
 20
540.1665746194
 10
210.6701105238
 20
540.6441907932
 10
210.3310251925
 20
541.113674644
 10
209.6644016744
 20
541.5590384623
 10
208.6929410336
 20
541.9651159176
 10
207.4497251973
 20
542.318078529
 10
205.9770903896
 20
542.6059065783
 10
204.3251854227
 20
542.8187984263
 10
202.550263939
 20
542.9495042965
 10
200.7127687608
 20
542.9935731573
  0
LWPOLYLINE
  5
90
330
1F
100
AcDbEntity
  8
0
  6
Continuous
 62
     7
370
    15
100
AcDbPolyline
 90
       17
 70
   128
 43
0.0
 10
209.6627687608
 20
540.4053827063
 10
209.4907970204
 20
540.8572958694
 10
208.9814905768
 20
541.2918422631
 10
208.1544217909
 20
541.6923225132
 10
207.0413744524
 20
542.0433463882
 10
205.6851223463
 20
542.3314242375
 10
204.1377854805
 20
542.5454853909
 10
202.4588271429
 20
542.6773035983
 10
200.7127687608
 20
542.7218131599
 10
198.9667103788
 20
542.6773035983
 10
197.2877520411
 20
542.5454853909
 10
195.7404151753
 20
542.3314242375
 10
194.3841630692
 20
542.0433463882
 10
193.2711157307
 20
541.6923225132
 10
192.4440469448
 20
541.2918422631
 10
191.9347405012
 20
540.8572958694
 10
191.7627687608
 20
540.4053827063
  0
LINE
  5
91
330
1F
100
AcDbEntity
  8
0
  6
Continuous
 62
     7
370
    15
100
AcDbLine
 10
200.7127687608
 20
538.7899375758
 30
0.0
 11
197.910537507
 21
538.948143288
 31
0.0
  0
LWPOLYLINE
  5
92
330
1F
100
AcDbEntity
  8
0
  6
Continuous
 62
     7
370
    15
100
AcDbPolyline
 90
       16
 70
   128
 43
0.0
 10
200.7127687608
 20
534.3900138091
 10
198.9455193889
 20
534.4380882545
 10
197.2555072947
 20
534.5802105069
 10
195.7165941163
 20
534.8101691418
 10
194.3960377443
 20
535.1179138634
 10
193.3515528286
 20
535.4899947507
 10
192.6287883723
 20
535.9101500835
 10
192.2593326502
 20
536.3600170575
 10
192.2593326502
 20
536.8199343273
 10
192.6287883723
 20
537.2698013014
 10
193.3515528286
 20
537.6899566341
 10
194.3960377443
 20
538.0620375214
 10
195.7165941163
 20
538.3697822431
 10
197.2555072947
 20
538.599740878
 10
198.9455193889
 20
538.7418631304
 10
200.7127687608
 20
538.7899375758
  0
LWPOLYLINE
  5
93
330
1F
100
AcDbEntity
  8
0
  6
Continuous
 62
     7
370
    15
100
AcDbPolyline
 90
       11
 70
   128
 43
0.0
 10
194.6555783323
 20
535.0428615434
 10
193.460787317
 20
535.3906449155
 10
192.5313341896
 20
535.8090345264
 10
191.9570180959
 20
536.2681903175
 10
191.7627687608
 20
536.7481814046
 10
191.9570180959
 20
537.2281724917
 10
192.5313341896
 20
537.6873282828
 10
193.460787317
 20
538.1057178937
 10
194.705032081
 20
538.465180005
 10
196.2100587121
 20
538.7501112032
 10
197.910537507
 20
538.948143288
  0
LINE
  5
94
330
1F
100
AcDbEntity
  8
0
  6
Continuous
 62
     7
370
    15
100
AcDbLine
 10
197.910537507
 20
538.948143288
 30
0.0
 11
197.910537507
 21
541.6877150547
 31
0.0
  0
LINE
  5
95
330
1F
100
AcDbEntity
  8
0
  6
Continuous
 62
     7
370
    15
100
AcDbLine
 10
203.5150000147
 20
541.6877150547
 30
0.0
 11
197.910537507
 21
541.6877150547
 31
0.0
  0
LINE
  5
96
330
1F
100
AcDbEntity
  8
0
  6
Continuous
 62
     7
370
    15
100
AcDbLine
 10
203.5150000147
 20
541.6877150547
 30
0.0
 11
203.5150000147
 21
538.948143288
 31
0.0
  0
LINE
  5
97
330
1F
100
AcDbEntity
  8
0
  6
Continuous
 62
     7
370
    15
100
AcDbLine
 10
203.5150000147
 20
538.948143288
 30
0.0
 11
200.7127687608
 21
538.7899375758
 31
0.0
  0
LWPOLYLINE
  5
98
330
1F
100
AcDbEntity
  8
0
  6
Continuous
 62
     7
370
    15
100
AcDbPolyline
 90
       11
 70
   128
 43
0.0
 10
203.5150000147
 20
538.948143288
 10
205.2154788096
 20
538.7501112032
 10
206.7205054407
 20
538.465180005
 10
207.9647502046
 20
538.1057178937
 10
208.894203332
 20
537.6873282828
 10
209.4685194257
 20
537.2281724917
 10
209.6627687608
 20
536.7481814046
 10
209.4685194257
 20
536.2681903175
 10
208.894203332
 20
535.8090345264
 10
207.9647502046
 20
535.3906449155
 10
206.7699591893
 20
535.0428615434
  0
LWPOLYLINE
  5
99
330
1F
100
AcDbEntity
  8
0
  6
Continuous
 62
     7
370
    15
100
AcDbPolyline
 90
       16
 70
   128
 43
0.0
 10
200.7127687608
 20
538.7899375758
 10
202.4800181328
 20
538.7418631304
 10
204.170030227
 20
538.599740878
 10
205.7089434053
 20
538.3697822431
 10
207.0294997774
 20
538.0620375214
 10
208.073984693
 20
537.6899566341
 10
208.7967491493
 20
537.2698013014
 10
209.1662048714
 20
536.8199343273
 10
209.1662048714
 20
536.3600170575
 10
208.7967491493
 20
535.9101500835
 10
208.073984693
 20
535.4899947507
 10
207.0294997774
 20
535.1179138634
 10
205.7089434053
 20
534.8101691418
 10
204.170030227
 20
534.5802105069
 10
202.4800181328
 20
534.4380882545
 10
200.7127687608
 20
534.3900138091
  0
ARC
  5
9A
330
1F
100
AcDbEntity
  8
0
  6
Continuous
 62
     7
370
    15
100
AcDbCircle
 10
200.7127687608
 20
508.1711816272
 30
0.0
 40
33.63347310333761
100
AcDbArc
 50
85.2207623353
 51
94.7792376647
  0
ARC
  5
9B
330
1F
100
AcDbEntity
  8
0
  6
Continuous
 62
     7
370
    15
100
AcDbCircle
 10
200.7127687608
 20
591.7524788233
 30
0.0
 40
10.0
100
AcDbArc
 50
0.0
 51
180.0
  0
LWPOLYLINE
  5
9C
330
1F
100
AcDbEntity
  8
0
  6
Continuous
 62
     7
370
    15
100
AcDbPolyline
 90
       13
 70
   128
 43
0.0
 10
204.9212297501
 20
441.2832969118
 10
206.2620651647
 20
434.3997909212
 10
207.3036075599
 20
429.0028806363
 10
208.3928024914
 20
423.6151261841
 10
209.4272839158
 20
419.0237252594
 10
210.0214850427
 20
416.7420960599
 10
210.7431941645
 20
414.4916178389
 10
211.2061696264
 20
413.3628435774
 10
211.7521867869
 20
412.2650577943
 10
212.3826343676
 20
411.1952940455
 10
213.0533133208
 20
410.1474489163
 10
214.3843789575
 20
408.0527361794
 10
215.6295818347
 20
405.9022731026
  0
LWPOLYLINE
  5
9D
330
1F
100
AcDbEntity
  8
0
  6
Continuous
 62
     7
370
    15
100
AcDbPolyline
 90
       11
 70
   128
 43
0.0
 10
183.9080847629
 20
400.3089173005
 10
184.3214094329
 20
402.6496812607
 10
184.8302380718
 20
404.9758023177
 10
185.3237582895
 20
407.2942638283
 10
185.5554079432
 20
409.6729489698
 10
185.4922024549
 20
412.1073833402
 10
185.2718905871
 20
414.5461830022
 10
184.6502803609
 20
419.4286789416
 10
183.8311588953
 20
424.8634606371
 10
182.9639850377
 20
430.2914611593
 10
181.8820389644
 20
437.1400759394
  0
ELLIPSE
  5
9E
330
1F
100
AcDbEntity
  8
0
  6
Continuous
 62
     7
370
    15
100
AcDbEllipse
 10
200.7138660176
 20
397.7460483243
 30
0.0
 11
16.74173185263459
 21
2.952018625022674
 31
0.0
210
0.0
220
0.0
230
1.0
 40
0.999992625
 41
2.815698624023959
 42
6.609079308548378
  0
ARC
  5
9F
330
1F
100
AcDbEntity
  8
0
  6
Continuous
 62
     7
370
    15
100
AcDbCircle
 10
200.7219891326
 20
397.8513901351
 30
0.0
 40
16.97323188527285
100
AcDbArc
 50
9.9755251115
 51
25.3089707605
  0
ARC
  5
A0
330
1F
100
AcDbEntity
  8
0
  6
Continuous
 62
     7
370
    15
100
AcDbCircle
 10
199.579672143
 20
397.8224660591
 30
0.0
 40
15.88966752703486
100
AcDbArc
 50
174.256119469
 51
190.6384083635
  0
LINE
  5
A1
330
1F
100
AcDbEntity
  8
0
  6
Continuous
 62
     7
370
    15
100
AcDbLine
 10
216.0660560053
 20
405.1074367472
 30
0.0
 11
215.6762640238
 21
405.8803676655
 31
0.0
  0
LWPOLYLINE
  5
A2
330
1F
100
AcDbEntity
  8
0
  6
Continuous
 62
     7
370
    15
100
AcDbPolyline
 90
        3
 70
   128
 43
0.0
 10
184.1885392387
 20
401.8998601251
 10
184.1738701542
 20
401.8397173944
 10
183.7697832497
 20
399.4127324841
  0
LINE
  5
A3
330
1F
100
AcDbEntity
  8
0
  6
Continuous
 62
     7
370
    15
100
AcDbLine
 10
225.5127687403
 20
335.7522711767
 30
0.0
 11
175.9127687608
 21
335.7522711767
 31
0.0
  0
LINE
  5
A4
330
1F
100
AcDbEntity
  8
0
  6
Continuous
 62
     7
370
    15
100
AcDbLine
 10
181.539973541
 20
341.9522711767
 30
0.0
 11
219.8855640365
 21
341.9522711767
 31
0.0
  0
LINE
  5
A5
330
1F
100
AcDbEntity
  8
0
  6
Continuous
 62
     7
370
    15
100
AcDbLine
 10
205.2696997362
 20
439.7522711767
 30
0.0
 11
211.5083230727
 21
439.7522711767
 31
0.0
  0
LINE
  5
A6
330
1F
100
AcDbEntity
  8
0
  6
Continuous
 62
     7
370
    15
100
AcDbLine
 10
226.8071083514
 20
386.0259735508
 30
0.0
 11
219.5566460551
 21
389.4069196448
 31
0.0
  0
LWPOLYLINE
  5
A7
330
1F
100
AcDbEntity
  8
0
  6
Continuous
 62
     7
370
     0
100
AcDbPolyline
 90
        3
 70
   128
 43
0.0
 10
214.841431776
 20
405.4918331202
 10
214.8469606164
 20
405.4817410952
 10
214.8524870804
 20
405.4716479522
  0
LWPOLYLINE
  5
A8
330
1F
100
AcDbEntity
  8
0
  6
Continuous
 62
     7
370
     0
100
AcDbPolyline
 90
       55
 70
   128
 43
0.0
 10
187.5246214516
 20
472.5449233254
 10
188.7173672211
 20
472.6846838519
 10
189.3190510481
 20
472.7023397709
 10
189.9190757882
 20
472.6848288548
 10
190.5066504411
 20
472.6337797743
 10
191.1035348239
 20
472.5475274297
 10
191.6959696716
 20
472.4266063045
 10
192.2765836557
 20
472.2728912008
 10
193.4050256059
 20
471.8694347793
 10
194.4853496854
 20
471.3421278606
 10
196.4637312244
 20
469.9178513034
 10
197.3301372225
 20
469.0254863012
 10
197.7047249414
 20
468.564136453
 10
198.0601343282
 20
468.0695235118
 10
198.3811351497
 20
467.5574997767
 10
198.6653437437
 20
467.0260054377
 10
198.9088366638
 20
466.4758232901
 10
199.1110588711
 20
465.9057941991
 10
199.2767854895
 20
465.3217934409
 10
199.4149101148
 20
464.735409343
 10
199.6592262603
 20
463.5450459513
 10
200.1288137649
 20
461.1707374229
 10
200.6042821227
 20
458.7984456724
 10
201.0701348411
 20
456.4798182401
 10
202.0073962357
 20
451.7750822989
 10
202.9296040604
 20
447.1205100655
 10
203.4002249868
 20
444.7335169832
 10
203.8639534201
 20
442.3678291089
 10
204.3360269579
 20
439.9398979903
 10
204.7978784437
 20
437.5396034149
 10
205.2467819573
 20
435.1843090179
 10
205.7046771463
 20
432.774787407
 10
206.6133969519
 20
428.0469916709
 10
207.0900786634
 20
425.6397309068
 10
207.5765303981
 20
423.2680161038
 10
207.8267005034
 20
422.0925236944
 10
208.0882318297
 20
420.9030460943
 10
208.3588231389
 20
419.720932008
 10
208.6446629057
 20
418.5300930837
 10
208.945851287
 20
417.3441238626
 10
209.267758194
 20
416.1750385141
 10
209.6245032063
 20
415.0161510496
 10
209.8221267729
 20
414.4398146005
 10
210.0339658551
 20
413.8717478479
 10
210.2594701727
 20
413.3189809246
 10
210.5023130807
 20
412.7755241593
 10
210.7684260803
 20
412.2307662836
 10
211.0521932655
 20
411.6982877989
 10
211.3542600602
 20
411.1752812919
 10
211.6709586121
 20
410.6582774803
 10
212.325424676
 20
409.6374492534
 10
212.9778819442
 20
408.6251464803
 10
213.620002585
 20
407.5994914557
 10
214.245833592
 20
406.5480749133
 10
214.84143148
 20
405.4918329526
  0
LWPOLYLINE
  5
A9
330
1F
100
AcDbEntity
  8
0
  6
Continuous
 62
     7
370
     0
100
AcDbPolyline
 90
        3
 70
   128
 43
0.0
 10
184.7858032849
 20
400.1713743883
 10
184.7874468144
 20
400.1821082188
 10
184.7890926605
 20
400.1928418242
  0
LWPOLYLINE
  5
AA
330
1F
100
AcDbEntity
  8
0
  6
Continuous
 62
     7
370
     0
100
AcDbPolyline
 90
       53
 70
   128
 43
0.0
 10
184.7890893525
 20
400.1928409731
 10
184.9871375754
 20
401.3869359446
 10
185.2169466265
 20
402.5959185362
 10
185.4712765669
 20
403.7865186527
 10
185.7387128141
 20
404.9629722262
 10
186.0071670657
 20
406.1593594458
 10
186.2311382852
 20
407.3466734801
 10
186.3153813779
 20
407.94904755
 10
186.3780422367
 20
408.5518823055
 10
186.4198908812
 20
409.156530842
 10
186.4415972889
 20
409.7630382589
 10
186.4322781778
 20
410.9767106132
 10
186.3695555717
 20
412.1848205154
 10
186.3239708787
 20
412.7892130674
 10
186.2708177087
 20
413.3961873587
 10
186.1494922458
 20
414.5947031154
 10
186.010651124
 20
415.8097378668
 10
185.8568331728
 20
417.0401419558
 10
185.5304590778
 20
419.4206855396
 10
185.1743678441
 20
421.8268509372
 10
184.8002687383
 20
424.2420261062
 10
184.0610112435
 20
428.8475990382
 10
183.3157846348
 20
433.4343795428
 10
182.9228783105
 20
435.8812708888
 10
182.731855416
 20
437.0823800737
 10
182.5414729729
 20
438.2866946691
 10
182.1578657395
 20
440.7312529201
 10
181.7674911225
 20
443.2382337595
 10
181.0329134056
 20
447.9862970842
 10
180.6634488871
 20
450.3844251009
 10
180.2938166823
 20
452.797071357
 10
179.5754398097
 20
457.5177170006
 10
179.2040214338
 20
459.9135778768
 10
179.0264146192
 20
461.1127121726
 10
178.9543717514
 20
461.714511355
 10
178.9090213613
 20
462.3208945255
 10
178.9026897333
 20
462.9345944077
 10
178.9426911826
 20
463.5392351407
 10
179.0268943612
 20
464.1334871015
 10
179.1530484166
 20
464.7262187604
 10
179.5140054908
 20
465.8827250206
 10
180.0017006456
 20
466.9770220479
 10
181.3496597231
 20
468.9807017353
 10
182.1758446128
 20
469.8482023483
 10
182.628274201
 20
470.2506409684
 10
183.0981644151
 20
470.6235803536
 10
183.589550305
 20
470.9701388833
 10
184.1040422329
 20
471.2903886814
 10
184.6382743426
 20
471.581295395
 10
185.1863821609
 20
471.8398353414
 10
185.7542875933
 20
472.0679657967
 10
186.3421092943
 20
472.2640991876
 10
187.5241245148
 20
472.5448355953
  0
ARC
  5
AB
330
1F
100
AcDbEntity
  8
0
  6
Continuous
 62
     7
370
     0
100
AcDbCircle
 10
200.7146220077
 20
397.7417647666
 30
0.0
 40
16.1130652038859
100
AcDbArc
 50
171.327934959
 51
28.6672364677
  0
LINE
  5
AC
330
1F
100
AcDbEntity
  8
0
  6
Continuous
 62
     7
370
     0
100
AcDbLine
 10
182.7669779897
 20
414.83251592
 30
0.0
 11
182.7669779897
 21
380.6720264334
 31
0.0
  0
LINE
  5
AD
330
1F
100
AcDbEntity
  8
0
  6
Continuous
 62
     7
370
     0
100
AcDbLine
 10
218.658559532
 20
380.6720264334
 30
0.0
 11
218.658559532
 21
414.83251592
 31
0.0
  0
LINE
  5
AE
330
1F
100
AcDbEntity
  8
0
  6
Continuous
 62
     7
370
     0
100
AcDbLine
 10
176.2668840539
 20
340.0366349403
 30
0.0
 11
225.1586534677
 21
340.0366349403
 31
0.0
  0
LINE
  5
AF
330
1F
100
AcDbEntity
  8
0
  6
Continuous
 62
     7
370
     0
100
AcDbLine
 10
225.7127687608
 20
339.1415445381
 30
0.0
 11
175.7127687608
 21
339.1415445381
 31
0.0
  0
LINE
  5
B0
330
1F
100
AcDbEntity
  8
0
  6
Continuous
 62
     7
370
     0
100
AcDbLine
 10
220.1383605543
 20
341.9197906445
 30
0.0
 11
181.2871769673
 21
341.9197906445
 31
0.0
  0
LINE
  5
B1
330
1F
100
AcDbEntity
  8
0
  6
Continuous
 62
     7
370
     0
100
AcDbLine
 10
211.9036351879
 20
439.6708180837
 30
0.0
 11
205.2906162354
 21
439.6708180837
 31
0.0
  0
LINE
  5
B2
330
1F
100
AcDbEntity
  8
0
  6
Continuous
 62
     7
370
     0
100
AcDbLine
 10
235.5417918973
 20
392.8563485173
 30
0.0
 11
219.1744704848
 21
400.4885558354
 31
0.0
  0
LINE
  5
B3
330
1F
100
AcDbEntity
  8
0
  6
Continuous
 62
     7
370
     0
100
AcDbLine
 10
220.2291759383
 20
401.0396455424
 30
0.0
 11
235.2859995076
 21
394.0185334045
 31
0.0
  0
LWPOLYLINE
  5
B4
330
1F
100
AcDbEntity
  8
0
  6
Continuous
 62
     7
370
    15
100
AcDbPolyline
 90
       27
 70
   128
 43
0.0
 10
422.0396081051
 20
473.0930916281
 10
421.8756182429
 20
472.890652594
 10
421.0509839277
 20
471.3076668381
 10
420.2191954949
 20
468.4401710119
 10
419.8430493025
 20
466.2705920709
 10
419.6498622679
 20
464.7580357736
 10
419.4757324287
 20
463.0471437541
 10
419.315651706
 20
461.0750255514
 10
419.1273944205
 20
458.1026937744
 10
418.9804817039
 20
455.2227987899
 10
418.8718962094
 20
452.8095965418
 10
418.7582951577
 20
450.0976171977
 10
418.6252619055
 20
446.8070313221
 10
418.4600784316
 20
442.7685080776
 10
418.2623970449
 20
438.2076564717
 10
417.9904161733
 20
433.1117840802
 10
417.6026330516
 20
428.6891444993
 10
417.0233993977
 20
425.0162845075
 10
416.2181805294
 20
422.108147029
 10
415.6841730209
 20
420.7890065759
 10
414.9155558394
 20
419.3628630985
 10
413.8157792188
 20
417.9374685327
 10
412.3888809719
 20
416.731678785
 10
410.7888711118
 20
415.8890877715
 10
409.9414849436
 20
415.5848941548
 10
408.9791332105
 20
415.3244197476
 10
408.8368173012
 20
415.3001746904
  0
LWPOLYLINE
  5
B5
330
1F
100
AcDbEntity
  8
0
  6
Continuous
 62
     7
370
    15
100
AcDbPolyline
 90
       23
 70
   128
 43
0.0
 10
423.7551146094
 20
381.7174008972
 10
424.8327754631
 20
386.4540952699
 10
425.5216500132
 20
391.5027451715
 10
425.7938293028
 20
395.8982930365
 10
425.8253384591
 20
399.638714839
 10
425.7444533528
 20
403.0482720448
 10
425.650314402
 20
405.6327201568
 10
425.5715943947
 20
407.7538757831
 10
425.5020745365
 20
409.9396068159
 10
425.4503737448
 20
412.194296954
 10
425.4172273869
 20
414.5179377419
 10
425.38546738
 20
425.6080155734
 10
425.3878503193
 20
429.4586053064
 10
425.3917524068
 20
433.4831748382
 10
425.3954461579
 20
437.6817440324
 10
425.3980761974
 20
442.0544905443
 10
425.4024864505
 20
446.9114443215
 10
425.4114031123
 20
450.5068126152
 10
425.4320865359
 20
454.4306918264
 10
425.460737629
 20
458.6831256391
 10
425.4097057474
 20
463.2651219048
 10
425.0056516837
 20
468.1798236163
 10
424.0827835378
 20
472.6912722537
  0
ARC
  5
B6
330
1F
100
AcDbEntity
  8
0
  6
Continuous
 62
     7
370
    15
100
AcDbCircle
 10
375.0981321238
 20
339.1415445381
 30
0.0
 40
1.000000000000006
100
AcDbArc
 50
0.0
 51
63.5200440425
  0
ARC
  5
B7
330
1F
100
AcDbEntity
  8
0
  6
Continuous
 62
     7
370
    15
100
AcDbCircle
 10
327.0981321238
 20
339.1415445381
 30
0.0
 40
1.000000000000057
100
AcDbArc
 50
116.4799559575
 51
180.0
  0
LINE
  5
B8
330
1F
100
AcDbEntity
  8
0
  6
Continuous
 62
     7
370
    15
100
AcDbLine
 10
326.0981321238
 20
339.1415445381
 30
0.0
 11
326.0981321238
 21
335.9522711767
 31
0.0
  0
LINE
  5
B9
330
1F
100
AcDbEntity
  8
0
  6
Continuous
 62
     7
370
    15
100
AcDbLine
 10
376.0981321238
 20
335.9522711767
 30
0.0
 11
376.0981321238
 21
339.1415445381
 31
0.0
  0
ARC
  5
BA
330
1F
100
AcDbEntity
  8
0
  6
Continuous
 62
     7
370
    15
100
AcDbCircle
 10
326.2981321238
 20
335.9522711767
 30
0.0
 40
0.1999999999999886
100
AcDbArc
 50
180.0
 51
270.0
  0
ARC
  5
BB
330
1F
100
AcDbEntity
  8
0
  6
Continuous
 62
     7
370
    15
100
AcDbCircle
 10
375.8981321238
 20
335.9522711767
 30
0.0
 40
0.2000000000000455
100
AcDbArc
 50
270.0
 51
0.0
  0
ARC
  5
BC
330
1F
100
AcDbEntity
  8
0
  6
Continuous
 62
     7
370
    15
100
AcDbCircle
 10
338.2452497954
 20
316.7642844821
 30
0.0
 40
26.00000000000001
100
AcDbArc
 50
104.6430576274
 51
116.4799559575
  0
ARC
  5
BD
330
1F
100
AcDbEntity
  8
0
  6
Continuous
 62
     7
370
    15
100
AcDbCircle
 10
363.9510144522
 20
316.7642844821
 30
0.0
 40
26.00000000000001
100
AcDbArc
 50
63.5200440425
 51
75.3569423726
  0
LWPOLYLINE
  5
BE
330
1F
100
AcDbEntity
  8
0
  6
Continuous
 62
     7
370
    15
100
AcDbPolyline
 90
        3
 70
   128
 43
0.0
 10
397.282587931
 20
414.3520845358
 10
397.2845925046
 20
413.3528096789
 10
397.2910772343
 20
412.2460263968
  0
LINE
  5
BF
330
1F
100
AcDbEntity
  8
0
  6
Continuous
 62
     7
370
    15
100
AcDbLine
 10
397.2453260915
 20
402.3087409282
 30
0.0
 11
397.2435430717
 21
402.0681886326
 31
0.0
  0
ARC
  5
C0
330
1F
100
AcDbEntity
  8
0
  6
Continuous
 62
     7
370
    15
100
AcDbCircle
 10
370.2709273995
 20
340.9522711767
 30
0.0
 40
1.0
100
AcDbArc
 50
75.3569423726
 51
90.0
  0
ARC
  5
C1
330
1F
100
AcDbEntity
  8
0
  6
Continuous
 62
     7
370
    15
100
AcDbCircle
 10
331.9253368482
 20
340.9522711767
 30
0.0
 40
1.0
100
AcDbArc
 50
90.0
 51
104.6430576274
  0
LINE
  5
C2
330
1F
100
AcDbEntity
  8
0
  6
Continuous
 62
     7
370
    15
100
AcDbLine
 10
405.0889387594
 20
380.8124723999
 30
0.0
 11
422.6227375995
 21
380.7461699369
 31
0.0
  0
LINE
  5
C3
330
1F
100
AcDbEntity
  8
0
  6
Continuous
 62
     7
370
    15
100
AcDbLine
 10
403.3202043667
 20
414.8194037549
 30
0.0
 11
397.4819324069
 21
414.8414806484
 31
0.0
  0
LINE
  5
C4
330
1F
100
AcDbEntity
  8
0
  6
Continuous
 62
     7
370
    15
100
AcDbLine
 10
369.0981321238
 20
422.7522514091
 30
0.0
 11
369.0981321238
 21
435.2440932187
 31
0.0
  0
LINE
  5
C5
330
1F
100
AcDbEntity
  8
0
  6
Continuous
 62
     7
370
    15
100
AcDbLine
 10
369.0981321238
 20
342.1522711767
 30
0.0
 11
369.0981321238
 21
372.7522824418
 31
0.0
  0
LINE
  5
C6
330
1F
100
AcDbEntity
  8
0
  6
Continuous
 62
     7
370
    15
100
AcDbLine
 10
333.0981321238
 20
435.2440932187
 30
0.0
 11
333.0981321238
 21
342.1522711767
 31
0.0
  0
LWPOLYLINE
  5
C7
330
1F
100
AcDbEntity
  8
0
  6
Continuous
 62
     7
370
    15
100
AcDbPolyline
 90
        8
 70
   128
 43
0.0
 10
377.028223687
 20
414.7662590647
 10
375.0258921406
 20
414.8206300143
 10
373.2117245291
 20
415.1565651062
 10
371.9358546416
 20
415.685495402
 10
371.0857737273
 20
416.2866244838
 10
370.3211748978
 20
417.1460134087
 10
369.6360514625
 20
418.4910694867
 10
369.3917242894
 20
419.5708896571
  0
LWPOLYLINE
  5
C8
330
1F
100
AcDbEntity
  8
0
  6
Continuous
 62
     7
370
    15
100
AcDbPolyline
 90
       11
 70
   128
 43
0.0
 10
369.0881677687
 20
372.7939807983
 10
369.1035852479
 20
374.3999187958
 10
369.347234484
 20
376.2397246978
 10
369.841232079
 20
377.6873066741
 10
370.5190463668
 20
378.7680560508
 10
371.2955409286
 20
379.5243546404
 10
372.0825089877
 20
380.0192923674
 10
373.4198384059
 20
380.4974861041
 10
374.5847012907
 20
380.6854166445
 10
376.3453732387
 20
380.7719073769
 10
377.040175654
 20
380.7594503371
  0
ARC
  5
C9
330
1F
100
AcDbEntity
  8
0
  6
Continuous
 62
     7
370
    15
100
AcDbCircle
 10
368.8981321238
 20
342.1522711767
 30
0.0
 40
0.1999999999999886
100
AcDbArc
 50
270.0
 51
0.0
  0
ARC
  5
CA
330
1F
100
AcDbEntity
  8
0
  6
Continuous
 62
     7
370
    15
100
AcDbCircle
 10
333.2981321238
 20
342.1522711767
 30
0.0
 40
0.2000000000000455
100
AcDbArc
 50
180.0
 51
270.0
  0
ARC
  5
CB
330
1F
100
AcDbEntity
  8
0
  6
Continuous
 62
     7
370
    15
100
AcDbCircle
 10
334.0981321238
 20
435.2440932187
 30
0.0
 40
1.0
100
AcDbArc
 50
125.6847825153
 51
180.0
  0
ARC
  5
CC
330
1F
100
AcDbEntity
  8
0
  6
Continuous
 62
     7
370
    15
100
AcDbCircle
 10
368.0981321238
 20
435.2440932187
 30
0.0
 40
1.0
100
AcDbArc
 50
0.0
 51
54.3152174847
  0
ARC
  5
CD
330
1F
100
AcDbEntity
  8
0
  6
Continuous
 62
     7
370
    15
100
AcDbCircle
 10
353.3478737981
 20
408.4402232468
 30
0.0
 40
34.0
100
AcDbArc
 50
113.2854343066
 51
125.6847825153
  0
ARC
  5
CE
330
1F
100
AcDbEntity
  8
0
  6
Continuous
 62
     7
370
    15
100
AcDbCircle
 10
348.8483904496
 20
408.4402232468
 30
0.0
 40
33.99999999999998
100
AcDbArc
 50
54.3152174847
 51
66.7145656934
  0
LINE
  5
CF
330
1F
100
AcDbEntity
  8
0
  6
Continuous
 62
     7
370
    15
100
AcDbLine
 10
392.7981321238
 20
414.7522711767
 30
0.0
 11
377.0981234449
 21
414.7522711767
 31
0.0
  0
LINE
  5
D0
330
1F
100
AcDbEntity
  8
0
  6
Continuous
 62
     7
370
    15
100
AcDbLine
 10
377.0981057989
 20
380.7522711767
 30
0.0
 11
392.7981321238
 21
380.7522711767
 31
0.0
  0
ARC
  5
D1
330
1F
100
AcDbEntity
  8
0
  6
Continuous
 62
     7
370
    15
100
AcDbCircle
 10
392.7981321238
 20
381.0522711767
 30
0.0
 40
0.3000000000000682
100
AcDbArc
 50
270.0
 51
0.0
  0
ARC
  5
D2
330
1F
100
AcDbEntity
  8
0
  6
Continuous
 62
     7
370
    15
100
AcDbCircle
 10
392.7981321238
 20
414.4522711767
 30
0.0
 40
0.2999999999999545
100
AcDbArc
 50
0.0
 51
90.0
  0
ARC
  5
D3
330
1F
100
AcDbEntity
  8
0
  6
Continuous
 62
     7
370
    15
100
AcDbCircle
 10
422.7024420744
 20
381.8230982266
 30
0.0
 40
1.064767349021112
100
AcDbArc
 50
265.0259983323
 51
336.4084500744
  0
ARC
  5
D4
330
1F
100
AcDbEntity
  8
0
  6
Continuous
 62
     7
370
    15
100
AcDbCircle
 10
422.9783835001
 20
472.4188472907
 30
0.0
 40
1.17504541094635
100
AcDbArc
 50
13.8321377202
 51
143.2550353923
  0
ARC
  5
D5
330
1F
100
AcDbEntity
  8
0
  6
Continuous
 62
     7
370
    15
100
AcDbCircle
 10
388.3293539894
 20
384.2185620129
 30
0.0
 40
29.99999999999998
100
AcDbArc
 50
72.6232015762
 51
79.8849141309
  0
ARC
  5
D6
330
1F
100
AcDbEntity
  8
0
  6
Continuous
 62
     7
370
    15
100
AcDbCircle
 10
388.3293539894
 20
411.2859803405
 30
0.0
 40
30.00000000000005
100
AcDbArc
 50
280.1150858691
 51
297.7934047099
  0
LINE
  5
D7
330
1F
100
AcDbEntity
  8
0
  6
Continuous
 62
     7
370
    15
100
AcDbLine
 10
393.0981321238
 20
381.7522711767
 30
0.0
 11
393.5981321238
 21
381.7522711767
 31
0.0
  0
LINE
  5
D8
330
1F
100
AcDbEntity
  8
0
  6
Continuous
 62
     7
370
    15
100
AcDbLine
 10
393.5981321238
 20
413.7522711767
 30
0.0
 11
393.0981321238
 21
413.7522711767
 31
0.0
  0
ARC
  5
D9
330
1F
100
AcDbEntity
  8
0
  6
Continuous
 62
     7
370
    15
100
AcDbCircle
 10
340.3025776997
 20
438.7522711767
 30
0.0
 40
1.000000000000016
100
AcDbArc
 50
90.0
 51
113.2854343066
  0
ARC
  5
DA
330
1F
100
AcDbEntity
  8
0
  6
Continuous
 62
     7
370
    15
100
AcDbCircle
 10
361.893686548
 20
438.7522711767
 30
0.0
 40
1.0
100
AcDbArc
 50
66.7145656934
 51
90.0
  0
LWPOLYLINE
  5
DB
330
1F
100
AcDbEntity
  8
0
  6
Continuous
 62
     7
370
    15
100
AcDbPolyline
 90
        8
 70
   128
 43
0.0
 10
369.712161635
 20
377.1478758562
 10
369.7560546743
 20
377.3199061097
 10
370.6436908976
 20
378.7668359238
 10
371.6415500691
 20
379.631285875
 10
372.6639021041
 20
380.1595384923
 10
374.013052901
 20
380.548238601
 10
375.7472316403
 20
380.7389788712
 10
377.1638122348
 20
380.7578569934
  0
LINE
  5
DC
330
1F
100
AcDbEntity
  8
0
  6
Continuous
 62
     7
370
    15
100
AcDbLine
 10
376.7284832725
 20
414.8006749094
 30
0.0
 11
374.3622713095
 21
414.9419454994
 31
0.0
  0
LINE
  5
DD
330
1F
100
AcDbEntity
  8
0
  6
Continuous
 62
     7
370
    15
100
AcDbLine
 10
370.5622581151
 20
416.8750422289
 30
0.0
 11
370.0154458256
 21
417.7622044547
 31
0.0
  0
LINE
  5
DE
330
1F
100
AcDbEntity
  8
0
  6
Continuous
 62
     7
370
    15
100
AcDbLine
 10
377.0871702593
 20
414.7792601236
 30
0.0
 11
376.7284832725
 21
414.8006749094
 31
0.0
  0
LINE
  5
DF
330
1F
100
AcDbEntity
  8
0
  6
Continuous
 62
     7
370
    15
100
AcDbLine
 10
508.2209637447
 20
556.5165347253
 30
0.0
 11
505.6327732937
 21
566.1757929882
 31
0.0
  0
LINE
  5
E0
330
1F
100
AcDbEntity
  8
0
  6
Continuous
 62
     7
370
    15
100
AcDbLine
 10
486.3142567679
 20
560.9994120862
 30
0.0
 11
488.9024472189
 21
551.3401538233
 31
0.0
  0
LINE
  5
E1
330
1F
100
AcDbEntity
  8
0
  6
Continuous
 62
     7
370
    15
100
AcDbLine
 10
511.8444303762
 20
542.9935731573
 30
0.0
 11
508.2209637447
 21
556.5165347253
 31
0.0
  0
LINE
  5
E2
330
1F
100
AcDbEntity
  8
0
  6
Continuous
 62
     7
370
    15
100
AcDbLine
 10
488.9024472189
 20
551.3401538233
 30
0.0
 11
492.5259138504
 21
537.8171922552
 31
0.0
  0
LINE
  5
E3
330
1F
100
AcDbEntity
  8
0
  6
Continuous
 62
     7
370
    15
100
AcDbLine
 10
361.0981321238
 20
440.7522711767
 30
0.0
 11
361.0981321238
 21
553.7524788233
 31
0.0
  0
LINE
  5
E4
330
1F
100
AcDbEntity
  8
0
  6
Continuous
 62
     7
370
    15
100
AcDbLine
 10
341.0981321238
 20
553.7524788233
 30
0.0
 11
341.0981321238
 21
440.7522711767
 31
0.0
  0
LINE
  5
E5
330
1F
100
AcDbEntity
  8
0
  6
Continuous
 62
     7
370
    15
100
AcDbLine
 10
341.0981321238
 20
440.7522711767
 30
0.0
 11
341.0981321238
 21
439.7522711767
 31
0.0
  0
LINE
  5
E6
330
1F
100
AcDbEntity
  8
0
  6
Continuous
 62
     7
370
    15
100
AcDbLine
 10
361.0981321238
 20
439.7522711767
 30
0.0
 11
361.0981321238
 21
440.7522711767
 31
0.0
  0
ARC
  5
E7
330
1F
100
AcDbEntity
  8
0
  6
Continuous
 62
     7
370
    15
100
AcDbCircle
 10
389.0981321238
 20
553.7524788233
 30
0.0
 40
28.0
100
AcDbArc
 50
90.0
 51
180.0
  0
ARC
  5
E8
330
1F
100
AcDbEntity
  8
0
  6
Continuous
 62
     7
370
    15
100
AcDbCircle
 10
389.0981321238
 20
553.7524788233
 30
0.0
 40
48.0
100
AcDbArc
 50
90.0
 51
180.0
  0
LINE
  5
E9
330
1F
100
AcDbEntity
  8
0
  6
Continuous
 62
     7
370
    15
100
AcDbLine
 10
459.2683336318
 20
601.7524788233
 30
0.0
 11
389.0981321238
 21
601.7524788233
 31
0.0
  0
LINE
  5
EA
330
1F
100
AcDbEntity
  8
0
  6
Continuous
 62
     7
370
    15
100
AcDbLine
 10
389.0981321238
 20
581.7524788233
 30
0.0
 11
459.2683336318
 21
581.7524788233
 31
0.0
  0
ARC
  5
EB
330
1F
100
AcDbEntity
  8
0
  6
Continuous
 62
     7
370
    15
100
AcDbCircle
 10
459.2683336318
 20
553.7524788233
 30
0.0
 40
28.00000000000002
100
AcDbArc
 50
15.0
 51
90.0
  0
ARC
  5
EC
330
1F
100
AcDbEntity
  8
0
  6
Continuous
 62
     7
370
    15
100
AcDbCircle
 10
459.2683336318
 20
553.7524788233
 30
0.0
 40
47.99999999999999
100
AcDbArc
 50
15.0
 51
90.0
  0
LINE
  5
ED
330
1F
100
AcDbEntity
  8
0
  6
Continuous
 62
     7
370
    15
100
AcDbLine
 10
493.540135968
 20
538.0889522526
 30
0.0
 11
493.7860140608
 21
537.1713227176
 31
0.0
  0
LINE
  5
EE
330
1F
100
AcDbEntity
  8
0
  6
Continuous
 62
     7
370
    15
100
AcDbLine
 10
511.0760863514
 20
541.804183625
 30
0.0
 11
510.8302082586
 21
542.7218131599
 31
0.0
  0
ARC
  5
EF
330
1F
100
AcDbEntity
  8
0
  6
Continuous
 62
     7
370
    15
100
AcDbCircle
 10
404.328444652
 20
414.2791967055
 30
0.0
 40
1.199639549748015
100
AcDbArc
 50
96.6648433143
 51
140.5316607478
  0
LWPOLYLINE
  5
F0
330
1F
100
AcDbEntity
  8
0
  6
Continuous
 62
     7
370
    15
100
AcDbPolyline
 90
        9
 70
   128
 43
0.0
 10
409.1649264685
 20
415.0225468934
 10
408.8726615171
 20
415.2844531497
 10
408.614375304
 20
415.3977394112
 10
407.9344070173
 20
415.552255022
 10
407.1913159298
 20
415.6323415038
 10
406.3130485298
 20
415.6650354076
 10
405.4396082608
 20
415.6428378151
 10
404.6559831208
 20
415.5675098183
 10
404.1892129194
 20
415.4707291532
  0
LINE
  5
F1
330
1F
100
AcDbEntity
  8
0
  6
Continuous
 62
     7
370
    15
100
AcDbLine
 10
333.1064137107
 20
396.6994488237
 30
0.0
 11
333.0981321238
 21
396.446408052
 31
0.0
  0
LWPOLYLINE
  5
F2
330
1F
100
AcDbEntity
  8
0
  6
Continuous
 62
     7
370
    15
100
AcDbPolyline
 90
        3
 70
   128
 43
0.0
 10
422.036813663
 20
473.1218216826
 10
422.0372389246
 20
473.1280114382
 10
422.0392283613
 20
473.0934123808
  0
LWPOLYLINE
  5
F3
330
1F
100
AcDbEntity
  8
0
  6
Continuous
 62
     7
370
    15
100
AcDbPolyline
 90
        5
 70
   128
 43
0.0
 10
408.9121457021
 20
415.2490703402
 10
408.9917060452
 20
415.2571582348
 10
409.2089154596
 20
415.2579495462
 10
409.3449862353
 20
415.2211970669
 10
409.3852296103
 20
415.1520229772
  0
LWPOLYLINE
  5
F4
330
1F
100
AcDbEntity
  8
0
  6
Continuous
 62
     7
370
    15
100
AcDbPolyline
 90
        9
 70
   128
 43
0.0
 10
423.7714836431
 20
381.7136798487
 10
423.7719174379
 20
381.6602903186
 10
423.7770143441
 20
382.3468320769
 10
423.7851913299
 20
383.894635074
 10
423.7959909378
 20
386.2171080324
 10
423.8088089891
 20
389.1843210479
 10
423.8229283835
 20
392.6302744696
 10
423.8375592179
 20
396.3621856888
 10
423.8518829767
 20
400.1712742912
  0
LWPOLYLINE
  5
F5
330
1F
100
AcDbEntity
  8
0
  6
Continuous
 62
     7
370
    15
100
AcDbPolyline
 90
        4
 70
   128
 43
0.0
 10
424.1238029495
 20
472.5449233254
 10
424.123522728
 20
472.6846838519
 10
424.1231793514
 20
472.7023397709
 10
424.1231083756
 20
472.6995431001
  0
LINE
  5
F6
330
1F
100
AcDbEntity
  8
0
  6
Continuous
 62
     7
370
    15
100
AcDbLine
 10
351.0981321238
 20
335.7522711767
 30
0.0
 11
326.2981321238
 21
335.7522711767
 31
0.0
  0
LINE
  5
F7
330
1F
100
AcDbEntity
  8
0
  6
Continuous
 62
     7
370
    15
100
AcDbLine
 10
375.8981321238
 20
335.7522711767
 30
0.0
 11
351.0981321238
 21
335.7522711767
 31
0.0
  0
ARC
  5
F8
330
1F
100
AcDbEntity
  8
0
  6
Continuous
 62
     7
370
    15
100
AcDbCircle
 10
405.8164749238
 20
418.9703245603
 30
0.0
 40
5.226405679327203
100
AcDbArc
 50
241.462673045
 51
313.0653085
  0
LWPOLYLINE
  5
F9
330
1F
100
AcDbEntity
  8
0
  6
Continuous
 62
     7
370
    15
100
AcDbPolyline
 90
        9
 70
   128
 43
0.0
 10
397.2346752757
 20
399.3950048746
 10
397.2445444989
 20
402.08843723
 10
397.2537010696
 20
404.6693550523
 10
397.261902353
 20
407.0693680027
 10
397.2689310276
 20
409.2248794424
 10
397.2746008445
 20
411.0787716452
 10
397.2787615623
 20
412.5819193292
 10
397.2813029283
 20
413.6944914008
 10
397.2821144997
 20
414.3520833403
  0
ARC
  5
FA
330
1F
100
AcDbEntity
  8
0
  6
Continuous
 62
     7
370
    15
100
AcDbCircle
 10
619.1675187104
 20
412.2687241177
 30
0.0
 40
221.8988981177104
100
AcDbArc
 50
179.3874214476
 51
179.8507355848
  0
ARC
  5
FB
330
1F
100
AcDbEntity
  8
0
  6
Continuous
 62
     7
370
    15
100
AcDbCircle
 10
416.0145059369
 20
399.1551636816
 30
0.0
 40
18.78136213007835
100
AcDbArc
 50
179.2683032496
 51
205.5942690238
  0
LWPOLYLINE
  5
FC
330
1F
100
AcDbEntity
  8
0
  6
Continuous
 62
     7
370
    15
100
AcDbPolyline
 90
        8
 70
   128
 43
0.0
 10
404.8736840446
 20
380.9600110368
 10
404.5977896332
 20
381.1432124817
 10
404.0734897399
 20
381.8172875173
 10
403.3599611476
 20
382.9338936509
 10
402.4770109614
 20
384.4620345982
 10
401.4491493234
 20
386.3592901271
 10
400.3049090265
 20
388.5729936169
 10
399.0760534619
 20
391.0416940504
  0
LINE
  5
FD
330
1F
100
AcDbEntity
  8
0
  6
Continuous
 62
     7
370
    15
100
AcDbLine
 10
331.9253368482
 20
341.9522711767
 30
0.0
 11
370.2709273995
 21
341.9522711767
 31
0.0
  0
LWPOLYLINE
  5
FE
330
1F
100
AcDbEntity
  8
0
  6
Continuous
 62
     7
370
    15
100
AcDbPolyline
 90
       13
 70
   128
 43
0.0
 10
397.4799074227
 20
414.696554096
 10
397.4802037798
 20
414.7288430646
 10
397.4822404165
 20
414.8339948314
 10
397.4829240689
 20
414.583210575
 10
397.4822404165
 20
413.9817434196
 10
397.4802037798
 20
413.0421921695
 10
397.4768568196
 20
411.7842374042
 10
397.4722696441
 20
410.234229234
 10
397.4665383399
 20
408.4246353491
 10
397.4597829593
 20
406.3933609267
 10
397.4521450058
 20
404.1829546389
 10
397.4437844702
 20
401.8397173944
 10
397.4348764786
 20
399.4127324841
  0
LWPOLYLINE
  5
FF
330
1F
100
AcDbEntity
  8
0
  6
Continuous
 62
     7
370
    15
100
AcDbPolyline
 90
        3
 70
   128
 43
0.0
 10
403.3196416957
 20
414.6952668593
 10
403.1832440042
 20
414.5698190415
 10
403.3196401965
 20
414.3789100925
  0
LINE
  5
100
330
1F
100
AcDbEntity
  8
0
  6
Continuous
 62
     7
370
    15
100
AcDbLine
 10
377.0395929567
 20
380.824303563
 30
0.0
 11
377.0981057549
 21
380.7522711767
 31
0.0
  0
LWPOLYLINE
  5
101
330
1F
100
AcDbEntity
  8
0
  6
Continuous
 62
     7
370
    15
100
AcDbPolyline
 90
        7
 70
   128
 43
0.0
 10
369.7267541234
 20
377.1427154769
 10
369.9060251368
 20
377.6496023583
 10
370.7568718222
 20
378.8923359949
 10
371.952494424
 20
379.8146374571
 10
373.4292663373
 20
380.4008145149
 10
375.1626526561
 20
380.6935959326
 10
377.0982182832
 20
380.7521058866
  0
ARC
  5
102
330
1F
100
AcDbEntity
  8
0
  6
Continuous
 62
     7
370
    15
100
AcDbCircle
 10
379.0047154487
 20
421.9253245522
 30
0.0
 40
9.940844820518922
100
AcDbArc
 50
175.2283280862
 51
204.8402613802
  0
LINE
  5
103
330
1F
100
AcDbEntity
  8
0
  6
Continuous
 62
     7
370
    15
100
AcDbLine
 10
393.0981321238
 20
381.0522711767
 30
0.0
 11
393.0981321238
 21
414.4522711767
 31
0.0
  0
LINE
  5
104
330
1F
100
AcDbEntity
  8
0
  6
Continuous
 62
     7
370
    15
100
AcDbLine
 10
393.5981321238
 20
381.7522711767
 30
0.0
 11
393.5981321238
 21
413.7522711767
 31
0.0
  0
LINE
  5
105
330
1F
100
AcDbEntity
  8
0
  6
Continuous
 62
     7
370
    15
100
AcDbLine
 10
351.0981321238
 20
439.7522711767
 30
0.0
 11
361.893686548
 21
439.7522711767
 31
0.0
  0
LINE
  5
106
330
1F
100
AcDbEntity
  8
0
  6
Continuous
 62
     7
370
    15
100
AcDbLine
 10
340.3025776997
 20
439.7522711767
 30
0.0
 11
351.0981321238
 21
439.7522711767
 31
0.0
  0
LINE
  5
107
330
1F
100
AcDbEntity
  8
0
  6
Continuous
 62
     7
370
    15
100
AcDbLine
 10
511.8444303762
 20
542.9935731573
 30
0.0
 11
492.5259138504
 21
537.8171922552
 31
0.0
  0
LINE
  5
108
330
1F
100
AcDbEntity
  8
0
  6
Continuous
 62
     7
370
    15
100
AcDbLine
 10
510.6414197296
 20
541.6877150547
 30
0.0
 11
511.0760863514
 21
541.804183625
 31
0.0
  0
LINE
  5
109
330
1F
100
AcDbEntity
  8
0
  6
Continuous
 62
     7
370
    15
100
AcDbLine
 10
511.3754857721
 20
538.948143288
 30
0.0
 11
510.6414197296
 21
541.6877150547
 31
0.0
  0
LINE
  5
10A
330
1F
100
AcDbEntity
  8
0
  6
Continuous
 62
     7
370
    15
100
AcDbLine
 10
494.9547467252
 20
534.5482195212
 30
0.0
 11
511.3754857721
 21
538.948143288
 31
0.0
  0
LINE
  5
10B
330
1F
100
AcDbEntity
  8
0
  6
Continuous
 62
     7
370
    15
100
AcDbLine
 10
494.2206806827
 20
537.2877912879
 30
0.0
 11
494.9547467252
 21
534.5482195212
 31
0.0
  0
LINE
  5
10C
330
1F
100
AcDbEntity
  8
0
  6
Continuous
 62
     7
370
    15
100
AcDbLine
 10
493.7860140608
 20
537.1713227176
 30
0.0
 11
494.2206806827
 21
537.2877912879
 31
0.0
  0
LINE
  5
10D
330
1F
100
AcDbEntity
  8
0
  6
Continuous
 62
     7
370
    15
100
AcDbLine
 10
494.997137818
 20
534.3900138091
 30
0.0
 11
511.4178768649
 21
538.7899375758
 31
0.0
  0
ARC
  5
10E
330
1F
100
AcDbEntity
  8
0
  6
Continuous
 62
     7
370
    15
100
AcDbCircle
 10
404.0094727677
 20
414.4785597236
 30
0.0
 40
0.6999290972091551
100
AcDbArc
 50
89.0879988894
 51
178.9228060061
  0
ARC
  5
10F
330
1F
100
AcDbEntity
  8
0
  6
Continuous
 62
     7
370
    15
100
AcDbCircle
 10
408.55809143
 20
414.4713105391
 30
0.0
 40
0.690002309847377
100
AcDbArc
 50
33.3925360927
 51
90.6319912753
  0
ARC
  5
110
330
1F
100
AcDbEntity
  8
0
  6
Continuous
 62
     7
370
    15
100
AcDbCircle
 10
403.3969934174
 20
414.5652827312
 30
0.0
 40
0.1141823348522978
100
AcDbArc
 50
182.0096616024
 51
220.1112635727
  0
LINE
  5
111
330
1F
100
AcDbEntity
  8
0
  6
Continuous
 62
     7
370
    15
100
AcDbLine
 10
403.282121375
 20
414.3663716108
 30
0.0
 11
403.2828813129
 21
414.5612785828
 31
0.0
  0
LINE
  5
112
330
1F
100
AcDbEntity
  8
0
  6
Continuous
 62
     7
370
    15
100
AcDbLine
 10
408.5504806321
 20
415.1612708737
 30
0.0
 11
404.0206133642
 21
415.1784001541
 31
0.0
  0
ARC
  5
113
330
1F
100
AcDbEntity
  8
0
  6
Continuous
 62
     7
370
    15
100
AcDbCircle
 10
403.3961769232
 20
414.5573751953
 30
0.0
 40
0.1133628322930003
100
AcDbArc
 50
139.7401157324
 51
178.0267620636
  0
LINE
  5
114
330
1F
100
AcDbEntity
  8
0
  6
Continuous
 62
     7
370
    15
100
AcDbLine
 10
403.3100513375
 20
414.7291166141
 30
0.0
 11
403.309667366
 21
414.6306365648
 31
0.0
  0
ARC
  5
115
330
1F
100
AcDbEntity
  8
0
  6
Continuous
 62
     7
370
    15
100
AcDbCircle
 10
403.9074319658
 20
414.7203723997
 30
0.0
 40
0.5974446220421797
100
AcDbArc
 50
88.8778277338
 51
179.1613875941
  0
LINE
  5
116
330
1F
100
AcDbEntity
  8
0
  6
Continuous
 62
     7
370
    15
100
AcDbLine
 10
403.9191325296
 20
415.3177024368
 30
0.0
 11
408.6519614667
 21
415.2998056753
 31
0.0
  0
ARC
  5
117
330
1F
100
AcDbEntity
  8
0
  6
Continuous
 62
     7
370
    15
100
AcDbCircle
 10
408.6779284157
 20
414.7456702712
 30
0.0
 40
0.5547434799156017
100
AcDbArc
 50
34.6533501976
 51
92.6829345269
  0
LWPOLYLINE
  5
118
330
1F
100
AcDbEntity
  8
0
  6
Continuous
 62
     7
370
     0
100
AcDbPolyline
 90
        3
 70
   128
 43
0.0
 10
422.0340210841
 20
472.9601898752
 10
422.0346111479
 20
473.0897636902
 10
422.036813663
 20
473.1218216826
  0
LWPOLYLINE
  5
119
330
1F
100
AcDbEntity
  8
0
  6
Continuous
 62
     7
370
     0
100
AcDbPolyline
 90
        3
 70
   128
 43
0.0
 10
423.8518260821
 20
400.1713743883
 10
423.8518797909
 20
400.1821082188
 10
423.8519329305
 20
400.1928418242
  0
LWPOLYLINE
  5
11A
330
1F
100
AcDbEntity
  8
0
  6
Continuous
 62
     7
370
     0
100
AcDbPolyline
 90
       53
 70
   128
 43
0.0
 10
423.8519321152
 20
400.1928409731
 10
423.856304166
 20
401.3869359446
 10
423.8606907848
 20
402.5959185362
 10
423.8653834304
 20
403.7865186527
 10
423.869249935
 20
404.9629722262
 10
423.8737232153
 20
406.1593594458
 10
423.8783624868
 20
407.3466734801
 10
423.8803834138
 20
407.94904755
 10
423.8824499674
 20
408.5518823055
 10
423.8846852712
 20
409.156530842
 10
423.8869618017
 20
409.7630382589
 10
423.8915321866
 20
410.9767106132
 10
423.8961289175
 20
412.1848205154
 10
423.8984753902
 20
412.7892130674
 10
423.9008178578
 20
413.3961873587
 10
423.9054877095
 20
414.5947031154
 10
423.9104052844
 20
415.8097378668
 10
423.9152248665
 20
417.0401419558
 10
423.9243013193
 20
419.4206855396
 10
423.933618413
 20
421.8268509372
 10
423.9429638414
 20
424.2420261062
 10
423.96084085
 20
428.8475990382
 10
423.9786989368
 20
433.4343795428
 10
423.9882366254
 20
435.8812708888
 10
423.9929048456
 20
437.0823800737
 10
423.9975854482
 20
438.2866946691
 10
424.0070836956
 20
440.7312529201
 10
424.016808621
 20
443.2382337595
 10
424.0352469186
 20
447.9862970842
 10
424.044568018
 20
450.3844251009
 10
424.0539098469
 20
452.797071357
 10
424.0719411768
 20
457.5177170006
 10
424.0814707273
 20
459.9135778768
 10
424.0864487415
 20
461.1127121726
 10
424.0885089171
 20
461.714511355
 10
424.0906290343
 20
462.3208945255
 10
424.0928550874
 20
462.9345944077
 10
424.0953276693
 20
463.5392351407
 10
424.0977971492
 20
464.1334871015
 10
424.1001301703
 20
464.7262187604
 10
424.1042034027
 20
465.8827250206
 10
424.1077398529
 20
466.9770220479
 10
424.1145055992
 20
468.9807017353
 10
424.1172583671
 20
469.8482023483
 10
424.1183793869
 20
470.2506409684
 10
424.119392181
 20
470.6235803536
 10
424.1203506986
 20
470.9701388833
 10
424.1212635409
 20
471.2903886814
 10
424.1220863946
 20
471.581295395
 10
424.1226979132
 20
471.8398353414
 10
424.1231589919
 20
472.0679657967
 10
424.1235162179
 20
472.2640991876
 10
424.1238029707
 20
472.5448355953
  0
LWPOLYLINE
  5
11B
330
1F
100
AcDbEntity
  8
0
  6
Continuous
 62
     7
370
     0
100
AcDbPolyline
 90
       26
 70
   128
 43
0.0
 10
422.7078032675
 20
400.3089173005
 10
422.7042521104
 20
402.6496812607
 10
422.6900054954
 20
404.9758023177
 10
422.6711573778
 20
407.2942638283
 10
422.6450512799
 20
409.6729489698
 10
422.6234779007
 20
412.1073833402
 10
422.6096953943
 20
414.5461830022
 10
422.5791363981
 20
419.4286789416
 10
422.5503376444
 20
424.8634606371
 10
422.5318956591
 20
430.2914611593
 10
422.512960434
 20
441.1502593042
 10
422.512859321
 20
450.8929162166
 10
422.5230095711
 20
457.4179910265
 10
422.52977015
 20
460.8489263034
 10
422.5081934618
 20
461.7149875786
 10
422.4711087537
 20
462.5890825277
 10
422.4200936014
 20
463.4824232999
 10
422.3615662008
 20
464.3744357456
 10
422.2471552602
 20
466.1254972291
 10
422.1549248278
 20
467.8041184912
 10
422.0998779782
 20
469.2486635661
 10
422.0661620349
 20
470.5398812142
 10
422.0474875829
 20
471.6059449948
 10
422.0372389241
 20
472.4271744312
 10
422.0346273231
 20
472.7370858235
 10
422.0340210841
 20
472.9601363647
  0
LINE
  5
11C
330
1F
100
AcDbEntity
  8
0
  6
Continuous
 62
     7
370
     0
100
AcDbLine
 10
326.652247417
 20
340.0366349403
 30
0.0
 11
375.5440168307
 21
340.0366349403
 31
0.0
  0
LINE
  5
11D
330
1F
100
AcDbEntity
  8
0
  6
Continuous
 62
     7
370
     0
100
AcDbLine
 10
376.0981321238
 20
339.1415445381
 30
0.0
 11
326.0981321238
 21
339.1415445381
 31
0.0
  0
LINE
  5
11E
330
1F
100
AcDbEntity
  8
0
  6
Continuous
 62
     7
370
     0
100
AcDbLine
 10
370.5237239174
 20
341.9197906445
 30
0.0
 11
331.6725403303
 21
341.9197906445
 31
0.0
  0
ARC
  5
11F
330
1F
100
AcDbEntity
  8
0
  6
Continuous
 62
     7
370
     0
100
AcDbCircle
 10
397.3832235548
 20
398.8567400114
 30
0.0
 40
0.5583866529727296
100
AcDbArc
 50
84.692330896
 51
105.4282366868
  0
ELLIPSE
  5
120
330
1F
100
AcDbEntity
  8
0
  6
Continuous
 62
     7
370
     0
100
AcDbEllipse
 10
422.6870353642
 20
397.7460483243
 30
0.0
 11
0.06429776461220627
 21
16.99987838737883
 31
0.0
210
0.0
220
0.0
230
1.0
 40
0.0006669074
 41
3.141592654177593
 42
4.863751369377487
  0
LINE
  5
121
330
1F
100
AcDbEntity
  8
0
  6
Continuous
 62
     7
370
     0
100
AcDbLine
 10
351.0981321238
 20
435.2440932187
 30
0.0
 11
333.0981321238
 21
435.2440932187
 31
0.0
  0
LINE
  5
122
330
1F
100
AcDbEntity
  8
0
  6
Continuous
 62
     7
370
     0
100
AcDbLine
 10
369.0981321238
 20
435.2440932187
 30
0.0
 11
351.0981321238
 21
435.2440932187
 31
0.0
  0
LWPOLYLINE
  5
123
330
1F
100
AcDbEntity
  8
0
  6
Continuous
 62
     7
370
     0
100
AcDbPolyline
 90
       34
 70
   128
 43
0.0
 10
377.0981234449
 20
414.7522711767
 10
376.8234121159
 20
414.4140634693
 10
376.6097477489
 20
414.1450158869
 10
376.33503642
 20
413.7948386162
 10
375.9992781291
 20
413.3623790894
 10
375.638431833
 20
412.8957787051
 10
375.1960690386
 20
412.3134786228
 10
374.6721897458
 20
411.5994630406
 10
374.0667939546
 20
410.7382940364
 10
373.379881665
 20
409.7158630187
 10
372.6507733544
 20
408.552089658
 10
372.0221244831
 20
407.4621358171
 10
371.493935051
 20
406.4825019389
 10
371.0662050582
 20
405.6404250172
 10
370.7389345046
 20
404.9555264023
 10
370.5121233903
 20
404.4413665465
 10
369.4383320714
 20
401.0144602935
 10
369.079312474
 20
397.7601920098
 10
369.4339380739
 20
394.5103855934
 10
369.5903650408
 20
393.8342689768
 10
369.7752926232
 20
393.1525307746
 10
369.9887208213
 20
392.4667326986
 10
370.230649635
 20
391.7785567539
 10
370.5010790643
 20
391.0898059452
 10
370.8813014443
 20
390.2461943789
 10
371.4868571511
 20
389.0356667326
 10
372.3177461847
 20
387.5195610844
 10
373.3739685452
 20
385.7976303591
 10
374.2193074794
 20
384.5455545325
 10
374.9374814258
 20
383.5399120718
 10
375.5284903844
 20
382.7520740583
 10
375.9923343553
 20
382.1511119503
 10
376.8216628618
 20
381.0925871742
 10
377.0395929567
 20
380.824303563
  0
LWPOLYLINE
  5
124
330
1F
100
AcDbEntity
  8
0
  6
Continuous
 62
     7
370
     0
100
AcDbPolyline
 90
        7
 70
   128
 43
0.0
 10
377.0981565627
 20
414.7524034261
 10
375.2453995572
 20
414.8042412102
 10
373.5844664862
 20
415.0632269334
 10
372.1514648161
 20
415.5845532271
 10
370.95808956
 20
416.4110325967
 10
370.0564331638
 20
417.5696529142
 10
369.9835726581
 20
417.7492763607
  0
LINE
  5
125
330
1F
100
AcDbEntity
  8
0
  6
Continuous
 62
     7
370
     0
100
AcDbLine
 10
333.5148066186
 20
436.0563317027
 30
0.0
 11
368.6814576291
 21
436.0563317027
 31
0.0
  0
LINE
  5
126
330
1F
100
AcDbEntity
  8
0
  6
Continuous
 62
     7
370
     0
100
AcDbLine
 10
362.2889985509
 20
439.6708180837
 30
0.0
 11
339.9072656967
 21
439.6708180837
 31
0.0
  0
LWPOLYLINE
  5
127
330
1F
100
AcDbEntity
  8
0
  6
Continuous
 62
     7
370
     0
100
AcDbPolyline
 90
        3
 70
   128
 43
0.0
 10
333.0981321238
 20
396.9815562512
 10
333.0695083819
 20
396.7305572197
 10
333.0686661486
 20
396.6981378223
  0
LINE
  5
128
330
1F
100
AcDbEntity
  8
0
  6
Continuous
 62
     7
370
    15
100
AcDbLine
 10
190.7127687608
 20
265.8760866262
 30
0.0
 11
190.7127687608
 21
227.8760866262
 31
0.0
  0
LINE
  5
129
330
1F
100
AcDbEntity
  8
0
  6
Continuous
 62
     7
370
    15
100
AcDbLine
 10
210.7127687608
 20
227.8760866262
 30
0.0
 11
210.7127687608
 21
265.8760866262
 31
0.0
  0
LINE
  5
12A
330
1F
100
AcDbEntity
  8
0
  6
Continuous
 62
     7
370
    15
100
AcDbLine
 10
210.7127687608
 20
157.7058851182
 30
0.0
 11
210.7127687608
 21
227.8760866262
 31
0.0
  0
LINE
  5
12B
330
1F
100
AcDbEntity
  8
0
  6
Continuous
 62
     7
370
    15
100
AcDbLine
 10
190.7127687608
 20
227.8760866262
 30
0.0
 11
190.7127687608
 21
157.7058851182
 31
0.0
  0
LINE
  5
12C
330
1F
100
AcDbEntity
  8
0
  6
Continuous
 62
     7
370
    15
100
AcDbLine
 10
190.7127687608
 20
157.7058851182
 30
0.0
 11
190.7127687608
 21
121.0007037192
 31
0.0
  0
LINE
  5
12D
330
1F
100
AcDbEntity
  8
0
  6
Continuous
 62
     7
370
    15
100
AcDbLine
 10
210.7127687608
 20
121.0007037192
 30
0.0
 11
210.7127687608
 21
157.7058851182
 31
0.0
  0
LINE
  5
12E
330
1F
100
AcDbEntity
  8
0
  6
Continuous
 62
     7
370
    15
100
AcDbLine
 10
210.7127687608
 20
118.4125132682
 30
0.0
 11
210.7127687608
 21
121.0007037192
 31
0.0
  0
LINE
  5
12F
330
1F
100
AcDbEntity
  8
0
  6
Continuous
 62
     7
370
    15
100
AcDbLine
 10
190.7127687608
 20
121.0007037192
 30
0.0
 11
190.7127687608
 21
118.4125132682
 31
0.0
  0
LINE
  5
130
330
1F
100
AcDbEntity
  8
0
  6
Continuous
 62
     7
370
    15
100
AcDbLine
 10
210.7127687608
 20
114.7890466367
 30
0.0
 11
210.7127687608
 21
118.4125132682
 31
0.0
  0
LINE
  5
131
330
1F
100
AcDbEntity
  8
0
  6
Continuous
 62
     7
370
    15
100
AcDbLine
 10
190.7127687608
 20
118.4125132682
 30
0.0
 11
190.7127687608
 21
114.7890466367
 31
0.0
  0
LINE
  5
132
330
1F
100
AcDbEntity
  8
0
  6
Continuous
 62
     7
370
    15
100
AcDbLine
 10
184.7013383135
 20
193.1409894528
 30
0.0
 11
186.1454805694
 21
192.8508220256
 31
0.0
  0
LWPOLYLINE
  5
133
330
1F
100
AcDbEntity
  8
0
  6
Continuous
 62
     7
370
    15
100
AcDbPolyline
 90
        3
 70
   128
 43
0.0
 10
210.7127687608
 20
191.9232725247
 10
211.2069643925
 20
191.9795118675
 10
216.7554171866
 20
193.1684216411
  0
ARC
  5
134
330
1F
100
AcDbEntity
  8
0
  6
Continuous
 62
     7
370
    15
100
AcDbCircle
 10
189.9244240711
 20
235.7292520826
 30
0.0
 40
44.16471259653024
100
AcDbArc
 50
255.8631240969
 51
271.0227899124
  0
ARC
  5
135
330
1F
100
AcDbEntity
  8
0
  6
Continuous
 62
     7
370
    15
100
AcDbCircle
 10
179.1191535357
 20
193.9863299647
 30
0.0
 40
1.099680925694495
100
AcDbArc
 50
152.7264257593
 51
241.1180003233
  0
LWPOLYLINE
  5
136
330
1F
100
AcDbEntity
  8
0
  6
Continuous
 62
     7
370
    15
100
AcDbPolyline
 90
       14
 70
   128
 43
0.0
 10
186.0756774785
 20
197.858512201
 10
186.0665972213
 20
197.8872232452
 10
185.8819269642
 20
197.904107318
 10
185.513997275
 20
197.8746558424
 10
185.0912919442
 20
197.8147812057
 10
184.5543509343
 20
197.7227403252
 10
183.8286734355
 20
197.5836046388
 10
182.8108719947
 20
197.367122277
 10
181.5476022813
 20
197.0337007376
 10
180.8635189624
 20
196.7905316013
 10
180.1692028009
 20
196.4626272206
 10
179.3724455943
 20
195.9284872366
 10
178.5701499372
 20
195.042817723
 10
178.2552280839
 20
194.4436703815
  0
ARC
  5
137
330
1F
100
AcDbEntity
  8
0
  6
Continuous
 62
     7
370
    15
100
AcDbCircle
 10
11.2699565123
 20
246.4888161653
 30
0.0
 40
172.4468074921247
100
AcDbArc
 50
0.4645008575
 51
6.0892213985
  0
ARC
  5
138
330
1F
100
AcDbEntity
  8
0
  6
Continuous
 62
     7
370
    15
100
AcDbCircle
 10
392.7428877163
 20
246.3314553822
 30
0.0
 40
175.0352785668001
100
AcDbArc
 50
173.9614716255
 51
179.4882908709
  0
LWPOLYLINE
  5
139
330
1F
100
AcDbEntity
  8
0
  6
Continuous
 62
     7
370
    15
100
AcDbPolyline
 90
        3
 70
   128
 43
0.0
 10
186.8698319094
 20
219.7169721663
 10
186.5575908279
 20
219.7194320221
 10
184.3175077341
 20
219.738948874
  0
LWPOLYLINE
  5
13A
330
1F
100
AcDbEntity
  8
0
  6
Continuous
 62
     7
370
    15
100
AcDbPolyline
 90
        3
 70
   128
 43
0.0
 10
214.6437314865
 20
219.7391069005
 10
212.2938431864
 20
219.7239096775
 10
210.7127687608
 20
219.7176766509
  0
LINE
  5
13B
330
1F
100
AcDbEntity
  8
0
  6
Continuous
 62
     7
370
    15
100
AcDbLine
 10
183.6970643142
 20
219.4804032752
 30
0.0
 11
183.711680912
 21
197.5587207894
 31
0.0
  0
LINE
  5
13C
330
1F
100
AcDbEntity
  8
0
  6
Continuous
 62
     7
370
    15
100
AcDbLine
 10
217.713862219
 20
194.2985208935
 30
0.0
 11
217.697958595
 21
218.150459817
 31
0.0
  0
LINE
  5
13D
330
1F
100
AcDbEntity
  8
0
  6
Continuous
 62
     7
370
    15
100
AcDbLine
 10
217.7127687608
 20
224.1760866262
 30
0.0
 11
217.7127687608
 21
247.8948424733
 31
0.0
  0
LINE
  5
13E
330
1F
100
AcDbEntity
  8
0
  6
Continuous
 62
     7
370
    15
100
AcDbLine
 10
183.7127687608
 20
247.8940498501
 30
0.0
 11
183.7127687608
 21
224.1760866262
 31
0.0
  0
ARC
  5
13F
330
1F
100
AcDbEntity
  8
0
  6
Continuous
 62
     7
370
    15
100
AcDbCircle
 10
184.0127687608
 20
224.1760866262
 30
0.0
 40
0.2999999999999829
100
AcDbArc
 50
180.0
 51
270.0
  0
ARC
  5
140
330
1F
100
AcDbEntity
  8
0
  6
Continuous
 62
     7
370
    15
100
AcDbCircle
 10
217.4127687608
 20
224.1760866262
 30
0.0
 40
0.3000000000000114
100
AcDbArc
 50
270.0
 51
0.0
  0
ARC
  5
141
330
1F
100
AcDbEntity
  8
0
  6
Continuous
 62
     7
370
    15
100
AcDbCircle
 10
187.179059597
 20
228.6448647606
 30
0.0
 40
30.00000000000003
100
AcDbArc
 50
342.7146941268
 51
349.8849141309
  0
ARC
  5
142
330
1F
100
AcDbEntity
  8
0
  6
Continuous
 62
     7
370
    15
100
AcDbCircle
 10
214.2464779246
 20
228.6448647606
 30
0.0
 40
30.00000000000001
100
AcDbArc
 50
190.1150858691
 51
197.6247457038
  0
LINE
  5
143
330
1F
100
AcDbEntity
  8
0
  6
Continuous
 62
     7
370
    15
100
AcDbLine
 10
184.7127687608
 20
223.8760866262
 30
0.0
 11
184.7127687608
 21
223.3760866262
 31
0.0
  0
LINE
  5
144
330
1F
100
AcDbEntity
  8
0
  6
Continuous
 62
     7
370
    15
100
AcDbLine
 10
216.7127687608
 20
223.3760866262
 30
0.0
 11
216.7127687608
 21
223.8760866262
 31
0.0
  0
ARC
  5
145
330
1F
100
AcDbEntity
  8
0
  6
Continuous
 62
     7
370
    15
100
AcDbCircle
 10
216.5910141477
 20
194.2329407317
 30
0.0
 40
1.105645346811677
100
AcDbArc
 50
281.3163259079
 51
3.5243589291
  0
ARC
  5
146
330
1F
100
AcDbEntity
  8
0
  6
Continuous
 62
     7
370
    15
100
AcDbCircle
 10
227.0068238216
 20
274.8577393283
 30
0.0
 40
9.041218750841676
100
AcDbArc
 50
86.0700138981
 51
116.6730127207
  0
ARC
  5
147
330
1F
100
AcDbEntity
  8
0
  6
Continuous
 62
     7
370
    15
100
AcDbCircle
 10
226.9970970592
 20
275.2500693457
 30
0.0
 40
9.383482226210582
100
AcDbArc
 50
215.2013224878
 51
273.972163182
  0
ARC
  5
148
330
1F
100
AcDbEntity
  8
0
  6
Continuous
 62
     7
370
    15
100
AcDbCircle
 10
226.4951401502
 20
275.0418398999
 30
0.0
 40
8.655125584406562
100
AcDbArc
 50
114.1925060526
 51
146.9465521302
  0
ARC
  5
149
330
1F
100
AcDbEntity
  8
0
  6
Continuous
 62
     7
370
    15
100
AcDbCircle
 10
226.1470116868
 20
274.8953222609
 30
0.0
 40
8.46335439684007
100
AcDbArc
 50
144.6423422443
 51
216.4288011306
  0
LINE
  5
14A
330
1F
100
AcDbEntity
  8
0
  6
Continuous
 62
     7
370
    15
100
AcDbLine
 10
217.9369370005
 20
276.8760866262
 30
0.0
 11
214.9830487986
 21
276.8760866262
 31
0.0
  0
LINE
  5
14B
330
1F
100
AcDbEntity
  8
0
  6
Continuous
 62
     7
370
    15
100
AcDbLine
 10
217.2958927126
 20
272.8760866262
 30
0.0
 11
217.9667663082
 21
272.8760866262
 31
0.0
  0
ARC
  5
14C
330
1F
100
AcDbEntity
  8
0
  6
Continuous
 62
     7
370
    15
100
AcDbCircle
 10
200.7127687608
 20
265.8760866262
 30
0.0
 40
10.00000000000003
100
AcDbArc
 50
0.0
 51
180.0
  0
ARC
  5
14D
330
1F
100
AcDbEntity
  8
0
  6
Continuous
 62
     7
370
    15
100
AcDbCircle
 10
200.5278662517
 20
114.9443732439
 30
0.0
 40
9.81632645699572
100
AcDbArc
 50
180.9066457288
 51
271.0792998799
  0
ARC
  5
14E
330
1F
100
AcDbEntity
  8
0
  6
Continuous
 62
     7
370
    15
100
AcDbCircle
 10
200.8831185103
 20
114.9594393694
 30
0.0
 40
9.831126981743239
100
AcDbArc
 50
269.0071524674
 51
359.0069019239
  0
LWPOLYLINE
  5
14F
330
1F
100
AcDbEntity
  8
0
  6
Continuous
 62
     7
370
    15
100
AcDbPolyline
 90
       21
 70
   128
 43
0.0
 10
179.1348886261
 20
192.8908103488
 10
179.0264146192
 20
192.8877700085
 10
178.9543717514
 20
192.8857098329
 10
178.9090213613
 20
192.8835897157
 10
178.9026897333
 20
192.8813636626
 10
178.9426911826
 20
192.8788910807
 10
179.0268943612
 20
192.8764216008
 10
179.1530484166
 20
192.8740885797
 10
179.5140054908
 20
192.8700153473
 10
180.0017006456
 20
192.8664788971
 10
181.3496597231
 20
192.8597131508
 10
182.1758446128
 20
192.8569603829
 10
182.628274201
 20
192.8558393631
 10
183.0981644151
 20
192.854826569
 10
183.589550305
 20
192.8538680514
 10
184.1040422329
 20
192.8529552091
 10
184.6382743426
 20
192.8521323554
 10
185.1863821609
 20
192.8515208368
 10
185.7542875933
 20
192.8510597581
 10
186.3421092943
 20
192.8507025321
 10
187.5241245148
 20
192.8504157793
  0
ARC
  5
150
330
1F
100
AcDbEntity
  8
0
  6
Continuous
 62
     7
370
    15
100
AcDbCircle
 10
200.7127687608
 20
265.8760866262
 30
0.0
 40
17.99999999999999
100
AcDbArc
 50
303.7489885959
 51
180.0
  0
ARC
  5
151
330
1F
100
AcDbEntity
  8
0
  6
Continuous
 62
     7
370
    15
100
AcDbCircle
 10
200.7127687608
 20
265.8760866262
 30
0.0
 40
17.99999999999997
100
AcDbArc
 50
180.0
 51
236.2510114041
  0
LWPOLYLINE
  5
152
330
1F
100
AcDbEntity
  8
0
  6
Continuous
 62
     7
370
    15
100
AcDbPolyline
 90
        6
 70
   128
 43
0.0
 10
186.8698350435
 20
219.7172210837
 10
187.374488614
 20
219.7160813752
 10
187.9951971766
 20
219.7129709983
 10
189.5128700654
 20
219.7041531791
 10
190.4052200608
 20
219.6994890179
 10
190.7127687608
 20
219.698107553
  0
ARC
  5
153
330
1F
100
AcDbEntity
  8
0
  6
Continuous
 62
     7
370
    15
100
AcDbCircle
 10
190.2805364176
 20
708.2262328847
 30
0.0
 40
488.527464760916
100
AcDbArc
 50
269.2597217156
 51
270.050693347
  0
LWPOLYLINE
  5
154
330
1F
100
AcDbEntity
  8
0
  6
Continuous
 62
     7
370
    15
100
AcDbPolyline
 90
        5
 70
   128
 43
0.0
 10
210.7127687608
 20
219.71225315
 10
210.7336305198
 20
219.7123163862
 10
212.7864472306
 20
219.7205176681
 10
214.5189091741
 20
219.7296742377
 10
215.8851087826
 20
219.73954346
  0
LWPOLYLINE
  5
155
330
1F
100
AcDbEntity
  8
0
  6
Continuous
 62
     7
370
    15
100
AcDbPolyline
 90
        4
 70
   128
 43
0.0
 10
215.885110433
 20
219.7395434743
 10
216.689048958
 20
219.6317576585
 10
217.2202488704
 20
219.2854484691
 10
217.2389758122
 20
219.2432230027
  0
ARC
  5
156
330
1F
100
AcDbEntity
  8
0
  6
Continuous
 62
     7
370
    15
100
AcDbCircle
 10
216.3189706088
 20
218.185677527
 30
0.0
 40
1.377088972026783
100
AcDbArc
 50
358.5345000107
 51
100.5829515946
  0
LWPOLYLINE
  5
157
330
1F
100
AcDbEntity
  8
0
  6
Continuous
 62
     7
370
    15
100
AcDbPolyline
 90
        3
 70
   128
 43
0.0
 10
183.7697832497
 20
219.5393422714
 10
183.7054258685
 20
219.5180340858
 10
183.7050624466
 20
219.48040863
  0
LWPOLYLINE
  5
158
330
1F
100
AcDbEntity
  8
0
  6
Continuous
 62
     7
370
    15
100
AcDbPolyline
 90
        5
 70
   128
 43
0.0
 10
216.0660560053
 20
219.5393422714
 10
214.8562607962
 20
219.5304342798
 10
213.3498749339
 20
219.5220737442
 10
211.5784523619
 20
219.5144357907
 10
210.7127687608
 20
219.5113058637
  0
ARC
  5
159
330
1F
100
AcDbEntity
  8
0
  6
Continuous
 62
     7
370
    15
100
AcDbCircle
 10
190.0511985338
 20
690.0955354081
 30
0.0
 40
470.5981163129483
100
AcDbArc
 50
269.235208854
 51
270.0805468467
  0
ARC
  5
15A
330
1F
100
AcDbEntity
  8
0
  6
Continuous
 62
     7
370
    15
100
AcDbCircle
 10
183.9694372284
 20
219.5398897816
 30
0.0
 40
0.1996547293388388
100
AcDbArc
 50
90.1846397174
 51
180.1571215718
  0
LINE
  5
15B
330
1F
100
AcDbEntity
  8
0
  6
Continuous
 62
     7
370
    15
100
AcDbLine
 10
217.4127687608
 20
223.8760866262
 30
0.0
 11
210.7127687608
 21
223.8760866262
 31
0.0
  0
LINE
  5
15C
330
1F
100
AcDbEntity
  8
0
  6
Continuous
 62
     7
370
    15
100
AcDbLine
 10
190.7127687608
 20
223.8760866262
 30
0.0
 11
184.0127687608
 21
223.8760866262
 31
0.0
  0
LINE
  5
15D
330
1F
100
AcDbEntity
  8
0
  6
Continuous
 62
     7
370
    15
100
AcDbLine
 10
184.7127687608
 20
223.3760866262
 30
0.0
 11
190.7127687608
 21
223.3760866262
 31
0.0
  0
LINE
  5
15E
330
1F
100
AcDbEntity
  8
0
  6
Continuous
 62
     7
370
    15
100
AcDbLine
 10
210.7127687608
 20
223.3760866262
 30
0.0
 11
216.7127687608
 21
223.3760866262
 31
0.0
  0
ARC
  5
15F
330
1F
100
AcDbEntity
  8
0
  6
Continuous
 62
     7
370
    15
100
AcDbCircle
 10
227.3623271639
 20
276.4021857006
 30
0.0
 40
7.503364892074274
100
AcDbArc
 50
87.9678776057
 51
115.672914827
  0
LWPOLYLINE
  5
160
330
1F
100
AcDbEntity
  8
0
  6
Continuous
 62
     7
370
    15
100
AcDbPolyline
 90
       16
 70
   128
 43
0.0
 10
227.6437768261
 20
265.851918279
 10
227.4827378587
 20
265.8474628842
 10
225.8839756568
 20
265.9941227316
 10
224.3418644253
 20
266.4821114704
 10
222.9156666341
 20
267.2926759671
 10
221.6601902645
 20
268.3946666826
 10
220.6236825692
 20
269.7457347316
 10
219.8459759578
 20
271.2939593269
 10
219.3569572591
 20
272.9798430654
 10
219.1754191875
 20
274.7385983805
 10
219.3083381492
 20
276.5026372918
 10
219.7506061432
 20
278.2041687731
 10
220.4852270584
 20
279.777803924
 10
221.4839698251
 20
281.163068828
 10
222.7084533188
 20
282.3067285318
 10
224.1116213256
 20
283.1648328344
  0
ARC
  5
161
330
1F
100
AcDbEntity
  8
0
  6
Continuous
 62
     7
370
    15
100
AcDbCircle
 10
200.7127687608
 20
265.8760866262
 30
0.0
 40
25.00000000000003
100
AcDbArc
 50
312.8436430436
 51
0.0
  0
ARC
  5
162
330
1F
100
AcDbEntity
  8
0
  6
Continuous
 62
     7
370
    15
100
AcDbCircle
 10
200.7127687608
 20
265.8760866262
 30
0.0
 40
25.00000000000005
100
AcDbArc
 50
37.7631574152
 51
227.1563569564
  0
LWPOLYLINE
  5
163
330
1F
100
AcDbEntity
  8
0
  6
Continuous
 62
     7
370
     0
100
AcDbPolyline
 90
        3
 70
   128
 43
0.0
 10
214.841431776
 20
193.1222910139
 10
214.8469606164
 20
193.1223473606
 10
214.8524870804
 20
193.1224043436
  0
LWPOLYLINE
  5
164
330
1F
100
AcDbEntity
  8
0
  6
Continuous
 62
     7
370
     0
100
AcDbPolyline
 90
        4
 70
   128
 43
0.0
 10
214.8525577852
 20
193.122341038
 10
216.2725694825
 20
193.1366650109
 10
216.8221978878
 20
193.1512957687
 10
216.8072611787
 20
193.1518957392
  0
LWPOLYLINE
  5
165
330
1F
100
AcDbEntity
  8
0
  6
Continuous
 62
     7
370
     0
100
AcDbPolyline
 90
        6
 70
   128
 43
0.0
 10
187.5246214516
 20
192.8504158005
 10
188.7173672211
 20
192.850696022
 10
189.3190510481
 20
192.8510393986
 10
189.9190757882
 20
192.8514838024
 10
190.5066504411
 20
192.8520611944
 10
190.7127687608
 20
192.8523384185
  0
LWPOLYLINE
  5
166
330
1F
100
AcDbEntity
  8
0
  6
Continuous
 62
     7
370
     0
100
AcDbPolyline
 90
       10
 70
   128
 43
0.0
 10
210.7127687608
 20
193.0935084965
 10
210.7684260803
 20
193.09393774
 10
211.0521932655
 20
193.0959386167
 10
211.3542600602
 20
193.0982447305
 10
211.6709586121
 20
193.1006060715
 10
212.325424676
 20
193.1050115925
 10
212.9778819442
 20
193.1088825241
 10
213.620002585
 20
193.1135484441
 10
214.245833592
 20
193.1179113367
 10
214.84143148
 20
193.1222909263
  0
ARC
  5
167
330
1F
100
AcDbEntity
  8
0
  6
Continuous
 62
     7
370
     0
100
AcDbCircle
 10
187.7229190385
 20
-255.4114127391
 30
0.0
 40
450.3516920502184
100
AcDbArc
 50
89.6196149989
 51
90.0345006279
  0
ARC
  5
168
330
1F
100
AcDbEntity
  8
0
  6
Continuous
 62
     7
370
     0
100
AcDbCircle
 10
215.3760339717
 20
354.3805357407
 30
0.0
 40
160.1143210131726
100
AcDbArc
 50
268.33104746
 51
270.0907303509
  0
LWPOLYLINE
  5
169
330
1F
100
AcDbEntity
  8
0
  6
Continuous
 62
     7
370
     0
100
AcDbPolyline
 90
       12
 70
   128
 43
0.0
 10
178.115288376
 20
194.5002766396
 10
178.1127294097
 20
194.5031099963
 10
178.1705784296
 20
194.5541251486
 10
178.3288009833
 20
194.6126525492
 10
178.909353691
 20
194.7270634898
 10
179.8087137182
 20
194.8192939222
 10
180.9077398893
 20
194.8743407718
 10
182.2453972398
 20
194.9080567151
 10
183.7697625046
 20
194.9267311671
 10
185.4964582121
 20
194.9369798259
 10
186.4577123884
 20
194.9395914269
 10
187.4514365123
 20
194.9401976659
  0
ELLIPSE
  5
16A
330
1F
100
AcDbEntity
  8
0
  6
Continuous
 62
     7
370
     0
100
AcDbEllipse
 10
200.7138660176
 20
194.2871833858
 30
0.0
 11
16.99999620143856
 21
0.01133750771879249
 31
0.0
210
0.0
220
0.0
230
1.0
 40
0.0037822206
 41
5.782757142830698
 42
6.283185307179586
  0
ARC
  5
16B
330
1F
100
AcDbEntity
  8
0
  6
Continuous
 62
     7
370
     0
100
AcDbCircle
 10
215.8747326167
 20
219.5482922703
 30
0.0
 40
0.1915326121349197
100
AcDbArc
 50
357.3216886675
 51
86.8937341174
  0
LWPOLYLINE
  5
16C
330
1F
100
AcDbEntity
  8
0
  6
Continuous
 62
     7
370
     0
100
AcDbPolyline
 90
       32
 70
   128
 43
0.0
 10
224.7710192413
 20
282.5011699322
 10
223.4410463512
 20
281.6817422547
 10
222.2877931721
 20
280.5836902361
 10
221.3584740246
 20
279.2519682551
 10
220.6911353437
 20
277.7410971661
 10
220.3130980535
 20
276.1129322089
 10
220.2398390451
 20
274.4341306483
 10
220.4743575509
 20
272.7734228173
 10
221.0070523556
 20
271.1987982897
 10
221.8161148714
 20
269.7747223787
 10
222.8684219839
 20
268.5594969194
 10
224.1208921162
 20
267.6028733848
 10
225.5222489939
 20
266.9440160548
 10
227.0151209018
 20
266.6098986261
 10
228.5383894886
 20
266.6141999053
 10
230.0296919594
 20
266.9567437976
 10
231.4279742158
 20
267.6235065158
 10
232.6759904179
 20
268.5871907158
 10
233.7226466358
 20
269.8083430533
 10
234.5250926409
 20
271.2369694081
 10
235.0504761996
 20
272.8145816495
 10
235.2772880471
 20
274.4765921467
 10
235.1962424799
 20
276.1549579949
 10
234.8106575128
 20
277.780966699
 10
234.1363190399
 20
279.2880492716
 10
233.2008345574
 20
280.6145055752
 10
232.04250291
 20
281.7060303327
 10
230.7087463313
 20
282.5179363924
 10
229.2541689725
 20
283.0169842247
 10
227.7383214014
 20
283.1827427529
 10
226.2232625958
 20
283.0084258033
 10
224.7710192413
 20
282.5011699322
  0
ARC
  5
16D
330
1F
100
AcDbEntity
  8
0
  6
Continuous
 62
     7
370
     0
100
AcDbCircle
 10
226.4709990326
 20
274.8771969
 30
0.0
 40
8.755455331935448
100
AcDbArc
 50
145.8328063259
 51
215.1971371402
  0
ENDSEC
  0
SECTION
  2
OBJECTS
  0
DICTIONARY
  5
C
330
0
100
AcDbDictionary
281
     1
  3
ACAD_GROUP
350
D
  3
ACAD_LAYOUT
350
1A
  3
ACAD_MATERIAL
350
3B
  3
ACAD_MLEADERSTYLE
350
16F
  3
ACAD_MLINESTYLE
350
17
  3
ACAD_PLOTSETTINGS
350
19
  3
ACAD_PLOTSTYLENAME
350
E
  3
ACAD_TABLESTYLE
350
16E
  3
ACAD_VISUALSTYLE
350
2A
  0
DICTIONARY
  5
D
102
{ACAD_REACTORS
330
C
102
}
330
C
100
AcDbDictionary
281
     1
  0
DICTIONARY
  5
1A
102
{ACAD_REACTORS
330
C
102
}
330
C
100
AcDbDictionary
281
     1
  3
Layout1
350
1E
  3
Layout2
350
26
  3
Model
350
22
  0
DICTIONARY
  5
3B
102
{ACAD_REACTORS
330
C
102
}
330
C
100
AcDbDictionary
281
     1
  3
ByBlock
350
3D
  3
ByLayer
350
3C
  3
Global
350
3E
  0
DICTIONARY
  5
16F
102
{ACAD_REACTORS
330
C
102
}
330
C
100
AcDbDictionary
281
     1
  0
DICTIONARY
  5
17
102
{ACAD_REACTORS
330
C
102
}
330
C
100
AcDbDictionary
281
     1
  3
Standard
350
18
  0
DICTIONARY
  5
19
102
{ACAD_REACTORS
330
C
102
}
330
C
100
AcDbDictionary
281
     1
  0
ACDBDICTIONARYWDFLT
  5
E
102
{ACAD_REACTORS
330
C
102
}
330
C
100
AcDbDictionary
281
     1
  3
Normal
350
F
100
AcDbDictionaryWithDefault
340
F
  0
DICTIONARY
  5
16E
102
{ACAD_REACTORS
330
C
102
}
330
C
100
AcDbDictionary
281
     1
  0
DICTIONARY
  5
2A
102
{ACAD_REACTORS
330
C
102
}
330
C
100
AcDbDictionary
281
     1
  3
2dWireframe
350
2F
  3
3D Hidden
350
31
  3
3dWireframe
350
30
  3
Basic
350
32
  3
Brighten
350
36
  3
ColorChange
350
3A
  3
Conceptual
350
34
  3
Dim
350
35
  3
Facepattern
350
39
  3
Flat
350
2B
  3
FlatWithEdges
350
2C
  3
Gouraud
350
2D
  3
GouraudWithEdges
350
2E
  3
Linepattern
350
38
  3
Realistic
350
33
  3
Thicken
350
37
  0
LAYOUT
  5
1E
102
{ACAD_REACTORS
330
1A
102
}
330
1A
100
AcDbPlotSettings
  1

  2
none_device
  4

  6

 40
0.0
 41
0.0
 42
0.0
 43
0.0
 44
0.0
 45
0.0
 46
0.0
 47
0.0
 48
0.0
 49
0.0
140
0.0
141
0.0
142
1.0
143
1.0
 70
   688
 72
     0
 73
     0
 74
     5
  7

 75
    16
 76
     0
 77
     2
 78
   300
147
1.0
148
0.0
149
0.0
100
AcDbLayout
  1
Layout1
 70
     1
 71
     1
 10
0.0
 20
0.0
 11
420.0
 21
297.0
 12
0.0
 22
0.0
 32
0.0
 14
1.0000000000E+20
 24
1.0000000000E+20
 34
1.0000000000E+20
 15
-1.0000000000E+20
 25
-1.0000000000E+20
 35
-1.0000000000E+20
146
0.0
 13
0.0
 23
0.0
 33
0.0
 16
1.0
 26
0.0
 36
0.0
 17
0.0
 27
1.0
 37
0.0
 76
     0
330
1B
  0
LAYOUT
  5
26
102
{ACAD_REACTORS
330
1A
102
}
330
1A
100
AcDbPlotSettings
  1

  2
none_device
  4

  6

 40
0.0
 41
0.0
 42
0.0
 43
0.0
 44
0.0
 45
0.0
 46
0.0
 47
0.0
 48
0.0
 49
0.0
140
0.0
141
0.0
142
1.0
143
1.0
 70
   688
 72
     0
 73
     0
 74
     5
  7

 75
    16
 76
     0
 77
     2
 78
   300
147
1.0
148
0.0
149
0.0
100
AcDbLayout
  1
Layout2
 70
     1
 71
     2
 10
0.0
 20
0.0
 11
0.0
 21
0.0
 12
0.0
 22
0.0
 32
0.0
 14
0.0
 24
0.0
 34
0.0
 15
0.0
 25
0.0
 35
0.0
146
0.0
 13
0.0
 23
0.0
 33
0.0
 16
1.0
 26
0.0
 36
0.0
 17
0.0
 27
1.0
 37
0.0
 76
     0
330
23
  0
LAYOUT
  5
22
102
{ACAD_REACTORS
330
1A
102
}
330
1A
100
AcDbPlotSettings
  1

  2
none_device
  4

  6

 40
0.0
 41
0.0
 42
0.0
 43
0.0
 44
0.0
 45
0.0
 46
0.0
 47
0.0
 48
0.0
 49
0.0
140
0.0
141
0.0
142
1.0
143
1.0
 70
  1712
 72
     0
 73
     0
 74
     0
  7

 75
     0
 76
     0
 77
     2
 78
   300
147
1.0
148
0.0
149
0.0
100
AcDbLayout
  1
Model
 70
     1
 71
     0
 10
0.0
 20
0.0
 11
594.0
 21
841.0
 12
0.0
 22
0.0
 32
0.0
 14
0.0
 24
0.0
 34
0.0
 15
594.0
 25
841.0
 35
0.0
146
0.0
 13
0.0
 23
0.0
 33
0.0
 16
1.0
 26
0.0
 36
0.0
 17
0.0
 27
1.0
 37
0.0
 76
     0
330
1F
331
29
  0
MATERIAL
  5
3D
102
{ACAD_REACTORS
330
3B
102
}
330
3B
100
AcDbMaterial
  1
ByBlock
 72
     1
 94
      127
  0
MATERIAL
  5
3C
102
{ACAD_REACTORS
330
3B
102
}
330
3B
100
AcDbMaterial
  1
ByLayer
 72
     1
 94
      127
  0
MATERIAL
  5
3E
102
{ACAD_REACTORS
330
3B
102
}
330
3B
100
AcDbMaterial
  1
Global
 72
     1
 94
      127
  0
MLINESTYLE
  5
18
102
{ACAD_REACTORS
330
17
102
}
330
17
100
AcDbMlineStyle
  2
Standard
 70
     0
  3

 62
   256
 51
90.0
 52
90.0
 71
     2
 49
0.5
 62
   256
  6
BYLAYER
 49
-0.5
 62
   256
  6
BYLAYER
  0
ACDBPLACEHOLDER
  5
F
102
{ACAD_REACTORS
330
E
102
}
330
E
  0
VISUALSTYLE
  5
2F
102
{ACAD_REACTORS
330
2A
102
}
330
2A
100
AcDbVisualStyle
  2
2dWireframe
 70
     4
177
     2
291
     0
 71
     0
176
     1
 72
     2
176
     1
 73
     0
176
     1
 90
        0
176
     1
 40
-0.6
176
     1
 41
-30.0
176
     1
 62
     5
 63
     7
421
 16777215
176
     1
 74
     1
176
     1
 91
        4
176
     1
 64
     7
176
     1
 65
   257
176
     1
 75
     1
176
     1
175
     1
176
     1
 42
1.0
176
     1
 92
        0
176
     1
 66
   257
176
     1
 43
1.0
176
     1
 76
     1
176
     1
 77
     6
176
     1
 78
     2
176
     1
 67
     7
176
     1
 79
     5
176
     1
170
     0
176
     1
171
     0
176
     1
290
     0
176
     1
 93
        1
176
     1
 44
0.0
176
     1
173
     0
176
     1
  0
VISUALSTYLE
  5
31
102
{ACAD_REACTORS
330
2A
102
}
330
2A
100
AcDbVisualStyle
  2
3D Hidden
 70
     6
177
     2
291
     0
 71
     1
176
     1
 72
     2
176
     1
 73
     2
176
     1
 90
        0
176
     1
 40
-0.6
176
     1
 41
-30.0
176
     1
 62
     5
 63
     7
421
 16777215
176
     1
 74
     2
176
     1
 91
        2
176
     1
 64
     7
176
     1
 65
   257
176
     1
 75
     2
176
     1
175
     1
176
     1
 42
40.0
176
     1
 92
        0
176
     1
 66
   257
176
     1
 43
1.0
176
     1
 76
     1
176
     1
 77
     6
176
     1
 78
     2
176
     1
 67
     7
176
     1
 79
     3
176
     1
170
     0
176
     1
171
     0
176
     1
290
     0
176
     1
 93
        1
176
     1
 44
0.0
176
     1
173
     0
176
     1
  0
VISUALSTYLE
  5
30
102
{ACAD_REACTORS
330
2A
102
}
330
2A
100
AcDbVisualStyle
  2
3dWireframe
 70
     5
177
     2
291
     0
 71
     0
176
     1
 72
     2
176
     1
 73
     0
176
     1
 90
        0
176
     1
 40
-0.6
176
     1
 41
-30.0
176
     1
 62
     5
 63
     7
421
 16777215
176
     1
 74
     1
176
     1
 91
        4
176
     1
 64
     7
176
     1
 65
   257
176
     1
 75
     1
176
     1
175
     1
176
     1
 42
1.0
176
     1
 92
        0
176
     1
 66
   257
176
     1
 43
1.0
176
     1
 76
     1
176
     1
 77
     6
176
     1
 78
     2
176
     1
 67
     7
176
     1
 79
     5
176
     1
170
     0
176
     1
171
     0
176
     1
290
     0
176
     1
 93
        1
176
     1
 44
0.0
176
     1
173
     0
176
     1
  0
VISUALSTYLE
  5
32
102
{ACAD_REACTORS
330
2A
102
}
330
2A
100
AcDbVisualStyle
  2
Basic
 70
     7
177
     2
291
     1
 71
     1
176
     1
 72
     0
176
     1
 73
     1
176
     1
 90
        0
176
     1
 40
-0.6
176
     1
 41
-30.0
176
     1
 62
     5
 63
     7
421
 16777215
176
     1
 74
     0
176
     1
 91
        4
176
     1
 64
     7
176
     1
 65
   257
176
     1
 75
     1
176
     1
175
     1
176
     1
 42
1.0
176
     1
 92
        8
176
     1
 66
     7
176
     1
 43
1.0
176
     1
 76
     1
176
     1
 77
     6
176
     1
 78
     2
176
     1
 67
     7
176
     1
 79
     5
176
     1
170
     0
176
     1
171
     0
176
     1
290
     0
176
     1
 93
        1
176
     1
 44
0.0
176
     1
173
     0
176
     1
  0
VISUALSTYLE
  5
36
102
{ACAD_REACTORS
330
2A
102
}
330
2A
100
AcDbVisualStyle
  2
Brighten
 70
    12
177
     2
291
     1
 71
     2
176
     1
 72
     2
176
     1
 73
     0
176
     1
 90
        0
176
     1
 40
-0.6
176
     1
 41
-30.0
176
     1
 62
     5
 63
     7
421
 16777215
176
     1
 74
     1
176
     1
 91
        4
176
     1
 64
     7
176
     1
 65
   257
176
     1
 75
     1
176
     1
175
     1
176
     1
 42
1.0
176
     1
 92
        8
176
     1
 66
     7
176
     1
 43
1.0
176
     1
 76
     1
176
     1
 77
     6
176
     1
 78
     2
176
     1
 67
     7
176
     1
 79
     5
176
     1
170
     0
176
     1
171
     0
176
     1
290
     0
176
     1
 93
        1
176
     1
 44
50.0
176
     1
173
     0
176
     1
  0
VISUALSTYLE
  5
3A
102
{ACAD_REACTORS
330
2A
102
}
330
2A
100
AcDbVisualStyle
  2
ColorChange
 70
    16
177
     2
291
     1
 71
     2
176
     1
 72
     2
176
     1
 73
     3
176
     1
 90
        0
176
     1
 40
-0.6
176
     1
 41
-30.0
176
     1
 62
     5
 63
     8
421
  8421504
176
     1
 74
     1
176
     1
 91
        4
176
     1
 64
     7
176
     1
 65
   257
176
     1
 75
     1
176
     1
175
     1
176
     1
 42
1.0
176
     1
 92
        8
176
     1
 66
     8
424
  8421504
176
     1
 43
1.0
176
     1
 76
     1
176
     1
 77
     6
176
     1
 78
     2
176
     1
 67
     7
176
     1
 79
     5
176
     1
170
     0
176
     1
171
     0
176
     1
290
     0
176
     1
 93
        1
176
     1
 44
0.0
176
     1
173
     0
176
     1
  0
VISUALSTYLE
  5
34
102
{ACAD_REACTORS
330
2A
102
}
330
2A
100
AcDbVisualStyle
  2
Conceptual
 70
     9
177
     2
291
     0
 71
     3
176
     1
 72
     2
176
     1
 73
     0
176
     1
 90
        0
176
     1
 40
-0.6
176
     1
 41
-30.0
176
     1
 62
     5
 63
     7
421
 16777215
176
     1
 74
     2
176
     1
 91
        2
176
     1
 64
     7
176
     1
 65
   257
176
     1
 75
     1
176
     1
175
     1
176
     1
 42
40.0
176
     1
 92
        8
176
     1
 66
     7
176
     1
 43
1.0
176
     1
 76
     1
176
     1
 77
     6
176
     1
 78
     2
176
     1
 67
     7
176
     1
 79
     3
176
     1
170
     0
176
     1
171
     0
176
     1
290
     0
176
     1
 93
        1
176
     1
 44
0.0
176
     1
173
     0
176
     1
  0
VISUALSTYLE
  5
35
102
{ACAD_REACTORS
330
2A
102
}
330
2A
100
AcDbVisualStyle
  2
Dim
 70
    11
177
     2
291
     1
 71
     2
176
     1
 72
     2
176
     1
 73
     0
176
     1
 90
        0
176
     1
 40
-0.6
176
     1
 41
-30.0
176
     1
 62
     5
 63
     7
421
 16777215
176
     1
 74
     1
176
     1
 91
        4
176
     1
 64
     7
176
     1
 65
   257
176
     1
 75
     1
176
     1
175
     1
176
     1
 42
1.0
176
     1
 92
        8
176
     1
 66
     7
176
     1
 43
1.0
176
     1
 76
     1
176
     1
 77
     6
176
     1
 78
     2
176
     1
 67
     7
176
     1
 79
     5
176
     1
170
     0
176
     1
171
     0
176
     1
290
     0
176
     1
 93
        1
176
     1
 44
-50.0
176
     1
173
     0
176
     1
  0
VISUALSTYLE
  5
39
102
{ACAD_REACTORS
330
2A
102
}
330
2A
100
AcDbVisualStyle
  2
Facepattern
 70
    15
177
     2
291
     1
 71
     2
176
     1
 72
     2
176
     1
 73
     0
176
     1
 90
        0
176
     1
 40
-0.6
176
     1
 41
-30.0
176
     1
 62
     5
 63
     7
421
 16777215
176
     1
 74
     1
176
     1
 91
        4
176
     1
 64
     7
176
     1
 65
   257
176
     1
 75
     1
176
     1
175
     1
176
     1
 42
1.0
176
     1
 92
        8
176
     1
 66
     7
176
     1
 43
1.0
176
     1
 76
     1
176
     1
 77
     6
176
     1
 78
     2
176
     1
 67
     7
176
     1
 79
     5
176
     1
170
     0
176
     1
171
     0
176
     1
290
     0
176
     1
 93
        1
176
     1
 44
0.0
176
     1
173
     0
176
     1
  0
VISUALSTYLE
  5
2B
102
{ACAD_REACTORS
330
2A
102
}
330
2A
100
AcDbVisualStyle
  2
Flat
 70
     0
177
     2
291
     1
 71
     2
176
     1
 72
     1
176
     1
 73
     1
176
     1
 90
        2
176
     1
 40
-0.6
176
     1
 41
30.0
176
     1
 62
     5
 63
     7
421
 16777215
176
     1
 74
     0
176
     1
 91
        4
176
     1
 64
     7
176
     1
 65
   257
176
     1
 75
     1
176
     1
175
     1
176
     1
 42
1.0
176
     1
 92
        8
176
     1
 66
     7
176
     1
 43
1.0
176
     1
 76
     1
176
     1
 77
     6
176
     1
 78
     2
176
     1
 67
     7
176
     1
 79
     5
176
     1
170
     0
176
     1
171
     0
176
     1
290
     0
176
     1
 93
       13
176
     1
 44
0.0
176
     1
173
     0
176
     1
  0
VISUALSTYLE
  5
2C
102
{ACAD_REACTORS
330
2A
102
}
330
2A
100
AcDbVisualStyle
  2
FlatWithEdges
 70
     1
177
     2
291
     1
 71
     2
176
     1
 72
     1
176
     1
 73
     1
176
     1
 90
        2
176
     1
 40
-0.6
176
     1
 41
30.0
176
     1
 62
     5
 63
     7
421
 16777215
176
     1
 74
     1
176
     1
 91
        4
176
     1
 64
     7
176
     1
 65
   257
176
     1
 75
     1
176
     1
175
     1
176
     1
 42
1.0
176
     1
 92
        0
176
     1
 66
   257
176
     1
 43
1.0
176
     1
 76
     1
176
     1
 77
     6
176
     1
 78
     2
176
     1
 67
     7
176
     1
 79
     5
176
     1
170
     0
176
     1
171
     0
176
     1
290
     0
176
     1
 93
       13
176
     1
 44
0.0
176
     1
173
     0
176
     1
  0
VISUALSTYLE
  5
2D
102
{ACAD_REACTORS
330
2A
102
}
330
2A
100
AcDbVisualStyle
  2
Gouraud
 70
     2
177
     2
291
     1
 71
     2
176
     1
 72
     2
176
     1
 73
     1
176
     1
 90
        2
176
     1
 40
-0.6
176
     1
 41
30.0
176
     1
 62
     5
 63
     7
421
 16777215
176
     1
 74
     0
176
     1
 91
        4
176
     1
 64
     7
176
     1
 65
   257
176
     1
 75
     1
176
     1
175
     1
176
     1
 42
1.0
176
     1
 92
        0
176
     1
 66
     7
176
     1
 43
1.0
176
     1
 76
     1
176
     1
 77
     6
176
     1
 78
     2
176
     1
 67
     7
176
     1
 79
     5
176
     1
170
     0
176
     1
171
     0
176
     1
290
     0
176
     1
 93
       13
176
     1
 44
0.0
176
     1
173
     0
176
     1
  0
VISUALSTYLE
  5
2E
102
{ACAD_REACTORS
330
2A
102
}
330
2A
100
AcDbVisualStyle
  2
GouraudWithEdges
 70
     3
177
     2
291
     1
 71
     2
176
     1
 72
     2
176
     1
 73
     1
176
     1
 90
        2
176
     1
 40
-0.6
176
     1
 41
30.0
176
     1
 62
     5
 63
     7
421
 16777215
176
     1
 74
     1
176
     1
 91
        4
176
     1
 64
     7
176
     1
 65
   257
176
     1
 75
     1
176
     1
175
     1
176
     1
 42
1.0
176
     1
 92
        0
176
     1
 66
   257
176
     1
 43
1.0
176
     1
 76
     1
176
     1
 77
     6
176
     1
 78
     2
176
     1
 67
     7
176
     1
 79
     5
176
     1
170
     0
176
     1
171
     0
176
     1
290
     0
176
     1
 93
       13
176
     1
 44
0.0
176
     1
173
     0
176
     1
  0
VISUALSTYLE
  5
38
102
{ACAD_REACTORS
330
2A
102
}
330
2A
100
AcDbVisualStyle
  2
Linepattern
 70
    14
177
     2
291
     1
 71
     2
176
     1
 72
     2
176
     1
 73
     0
176
     1
 90
        0
176
     1
 40
-0.6
176
     1
 41
-30.0
176
     1
 62
     5
 63
     7
421
 16777215
176
     1
 74
     1
176
     1
 91
        4
176
     1
 64
     7
176
     1
 65
   257
176
     1
 75
     7
176
     1
175
     7
176
     1
 42
1.0
176
     1
 92
        8
176
     1
 66
     7
176
     1
 43
1.0
176
     1
 76
     1
176
     1
 77
     6
176
     1
 78
     2
176
     1
 67
     7
176
     1
 79
     5
176
     1
170
     0
176
     1
171
     0
176
     1
290
     0
176
     1
 93
        1
176
     1
 44
0.0
176
     1
173
     0
176
     1
  0
VISUALSTYLE
  5
33
102
{ACAD_REACTORS
330
2A
102
}
330
2A
100
AcDbVisualStyle
  2
Realistic
 70
     8
177
     2
291
     0
 71
     2
176
     1
 72
     2
176
     1
 73
     0
176
     1
 90
        0
176
     1
 40
-0.6
176
     1
 41
-30.0
176
     1
 62
     5
 63
     7
421
 16777215
176
     1
 74
     1
176
     1
 91
        0
176
     1
 64
     7
176
     1
 65
   257
176
     1
 75
     1
176
     1
175
     1
176
     1
 42
1.0
176
     1
 92
        8
176
     1
 66
     8
424
  7895160
176
     1
 43
1.0
176
     1
 76
     1
176
     1
 77
     6
176
     1
 78
     2
176
     1
 67
     7
176
     1
 79
     5
176
     1
170
     0
176
     1
171
     0
176
     1
290
     0
176
     1
 93
       13
176
     1
 44
0.0
176
     1
173
     0
176
     1
  0
VISUALSTYLE
  5
37
102
{ACAD_REACTORS
330
2A
102
}
330
2A
100
AcDbVisualStyle
  2
Thicken
 70
    13
177
     2
291
     1
 71
     2
176
     1
 72
     2
176
     1
 73
     0
176
     1
 90
        0
176
     1
 40
-0.6
176
     1
 41
-30.0
176
     1
 62
     5
 63
     7
421
 16777215
176
     1
 74
     1
176
     1
 91
        4
176
     1
 64
     7
176
     1
 65
   257
176
     1
 75
     1
176
     1
175
     1
176
     1
 42
1.0
176
     1
 92
       12
176
     1
 66
     7
176
     1
 43
1.0
176
     1
 76
     1
176
     1
 77
     6
176
     1
 78
     2
176
     1
 67
     7
176
     1
 79
     5
176
     1
170
     0
176
     1
171
     0
176
     1
290
     0
176
     1
 93
        1
176
     1
 44
0.0
176
     1
173
     0
176
     1
  0
ENDSEC
  0
EOF
