  0
SECTION
  2
HEADER
  9
$ACADVER
  1
AC1015
  9
$ACADMAINTVER
 70
     6
  9
$DWGCODEPAGE
  3
ANSI_1252
  9
$INSBASE
 10
0.0
 20
0.0
 30
0.0
  9
$EXTMIN
 10
0.0
 20
0.0
 30
0.0
  9
$EXTMAX
 10
594.0
 20
841.0
 30
0.0
  9
$LIMMIN
 10
0.0
 20
0.0
  9
$LIMMAX
 10
594.0
 20
841.0
  9
$ORTHOMODE
 70
     0
  9
$REGENMODE
 70
     1
  9
$FILLMODE
 70
     1
  9
$QTEXTMODE
 70
     0
  9
$MIRRTEXT
 70
     1
  9
$LTSCALE
 40
1.0
  9
$ATTMODE
 70
     1
  9
$TEXTSIZE
 40
10.0
  9
$TRACEWID
 40
1.0
  9
$TEXTSTYLE
  7
Standard
  9
$CLAYER
  8
0
  9
$CELTYPE
  6
ByLayer
  9
$CECOLOR
 62
   256
  9
$CELTSCALE
 40
1.0
  9
$DISPSILH
 70
     0
  9
$DIMSCALE
 40
1.0
  9
$DIMASZ
 40
2.5
  9
$DIMEXO
 40
0.0
  9
$DIMDLI
 40
3.75
  9
$DIMRND
 40
0.0
  9
$DIMDLE
 40
0.0
  9
$DIMEXE
 40
1.0
  9
$DIMTP
 40
0.0
  9
$DIMTM
 40
0.0
  9
$DIMTXT
 40
3.5
  9
$DIMCEN
 40
2.5
  9
$DIMTSZ
 40
0.0
  9
$DIMTOL
 70
     0
  9
$DIMLIM
 70
     0
  9
$DIMTIH
 70
     1
  9
$DIMTOH
 70
     1
  9
$DIMSE1
 70
     0
  9
$DIMSE2
 70
     0
  9
$DIMTAD
 70
     1
  9
$DIMZIN
 70
     0
  9
$DIMBLK
  1

  9
$DIMASO
 70
     1
  9
$DIMSHO
 70
     1
  9
$DIMPOST
  1

  9
$DIMAPOST
  1

  9
$DIMALT
 70
     0
  9
$DIMALTD
 70
     3
  9
$DIMALTF
 40
0.0393700787
  9
$DIMLFAC
 40
1.0
  9
$DIMTOFL
 70
     1
  9
$DIMTVP
 40
0.0
  9
$DIMTIX
 70
     0
  9
$DIMSOXD
 70
     0
  9
$DIMSAH
 70
     0
  9
$DIMBLK1
  1

  9
$DIMBLK2
  1

  9
$DIMSTYLE
  2
ISO-25
  9
$DIMCLRD
 70
     0
  9
$DIMCLRE
 70
     0
  9
$DIMCLRT
 70
     0
  9
$DIMTFAC
 40
1.0
  9
$DIMGAP
 40
1.5
  9
$DIMJUST
 70
     0
  9
$DIMSD1
 70
     0
  9
$DIMSD2
 70
     0
  9
$DIMTOLJ
 70
     0
  9
$DIMTZIN
 70
     0
  9
$DIMALTZ
 70
     0
  9
$DIMALTTZ
 70
     0
  9
$DIMUPT
 70
     0
  9
$DIMDEC
 70
     2
  9
$DIMTDEC
 70
     2
  9
$DIMALTU
 70
     2
  9
$DIMALTTD
 70
     3
  9
$DIMTXSTY
  7
Standard
  9
$DIMAUNIT
 70
     0
  9
$DIMADEC
 70
     2
  9
$DIMALTRND
 40
0.0
  9
$DIMAZIN
 70
     0
  9
$DIMDSEP
 70
    44
  9
$DIMATFIT
 70
     3
  9
$DIMFRAC
 70
     0
  9
$DIMLDRBLK
  1

  9
$DIMLUNIT
 70
     2
  9
$DIMLWD
 70
    -2
  9
$DIMLWE
 70
    -2
  9
$DIMTMOVE
 70
     0
  9
$LUNITS
 70
     2
  9
$LUPREC
 70
     2
  9
$SKETCHINC
 40
1.0
  9
$FILLETRAD
 40
0.0
  9
$AUNITS
 70
     0
  9
$AUPREC
 70
     2
  9
$MENU
  1
.
  9
$ELEVATION
 40
0.0
  9
$PELEVATION
 40
0.0
  9
$THICKNESS
 40
0.0
  9
$LIMCHECK
 70
     0
  9
$CHAMFERA
 40
0.0
  9
$CHAMFERB
 40
0.0
  9
$CHAMFERC
 40
0.0
  9
$CHAMFERD
 40
0.0
  9
$SKPOLY
 70
     0
  9
$TDCREATE
 40
2460293.440993738
  9
$TDUCREATE
 40
2460293.399327072
  9
$TDUPDATE
 40
2460293.440995903
  9
$TDUUPDATE
 40
2460293.399329236
  9
$TDINDWG
 40
0.0000000116
  9
$TDUSRTIMER
 40
0.0000000116
  9
$USRTIMER
 70
     1
  9
$ANGBASE
 50
0.0
  9
$ANGDIR
 70
     0
  9
$PDMODE
 70
     0
  9
$PDSIZE
 40
-1.0
  9
$PLINEWID
 40
0.0
  9
$SPLFRAME
 70
     0
  9
$SPLINETYPE
 70
     6
  9
$SPLINESEGS
 70
     8
  9
$HANDSEED
  5
221
  9
$SURFTAB1
 70
     6
  9
$SURFTAB2
 70
     6
  9
$SURFTYPE
 70
     6
  9
$SURFU
 70
     6
  9
$SURFV
 70
     6
  9
$UCSBASE
  2

  9
$UCSNAME
  2

  9
$UCSORG
 10
0.0
 20
0.0
 30
0.0
  9
$UCSXDIR
 10
1.0
 20
0.0
 30
0.0
  9
$UCSYDIR
 10
0.0
 20
1.0
 30
0.0
  9
$UCSORTHOREF
  2

  9
$UCSORTHOVIEW
 70
     0
  9
$UCSORGTOP
 10
0.0
 20
0.0
 30
0.0
  9
$UCSORGBOTTOM
 10
0.0
 20
0.0
 30
0.0
  9
$UCSORGLEFT
 10
0.0
 20
0.0
 30
0.0
  9
$UCSORGRIGHT
 10
0.0
 20
0.0
 30
0.0
  9
$UCSORGFRONT
 10
0.0
 20
0.0
 30
0.0
  9
$UCSORGBACK
 10
0.0
 20
0.0
 30
0.0
  9
$PUCSBASE
  2

  9
$PUCSNAME
  2

  9
$PUCSORG
 10
0.0
 20
0.0
 30
0.0
  9
$PUCSXDIR
 10
1.0
 20
0.0
 30
0.0
  9
$PUCSYDIR
 10
0.0
 20
1.0
 30
0.0
  9
$PUCSORTHOREF
  2

  9
$PUCSORTHOVIEW
 70
     0
  9
$PUCSORGTOP
 10
0.0
 20
0.0
 30
0.0
  9
$PUCSORGBOTTOM
 10
0.0
 20
0.0
 30
0.0
  9
$PUCSORGLEFT
 10
0.0
 20
0.0
 30
0.0
  9
$PUCSORGRIGHT
 10
0.0
 20
0.0
 30
0.0
  9
$PUCSORGFRONT
 10
0.0
 20
0.0
 30
0.0
  9
$PUCSORGBACK
 10
0.0
 20
0.0
 30
0.0
  9
$USERI1
 70
     0
  9
$USERI2
 70
     0
  9
$USERI3
 70
     0
  9
$USERI4
 70
     0
  9
$USERI5
 70
     0
  9
$USERR1
 40
0.0
  9
$USERR2
 40
0.0
  9
$USERR3
 40
0.0
  9
$USERR4
 40
0.0
  9
$USERR5
 40
0.0
  9
$WORLDVIEW
 70
     1
  9
$SHADEDGE
 70
     3
  9
$SHADEDIF
 70
    70
  9
$TILEMODE
 70
     1
  9
$MAXACTVP
 70
    64
  9
$PINSBASE
 10
0.0
 20
0.0
 30
0.0
  9
$PLIMCHECK
 70
     0
  9
$PEXTMIN
 10
1.0000000000E+20
 20
1.0000000000E+20
 30
1.0000000000E+20
  9
$PEXTMAX
 10
-1.0000000000E+20
 20
-1.0000000000E+20
 30
-1.0000000000E+20
  9
$PLIMMIN
 10
0.0
 20
0.0
  9
$PLIMMAX
 10
420.0
 20
297.0
  9
$UNITMODE
 70
     0
  9
$VISRETAIN
 70
     1
  9
$PLINEGEN
 70
     0
  9
$PSLTSCALE
 70
     1
  9
$TREEDEPTH
 70
  3020
  9
$CMLSTYLE
  2
Standard
  9
$CMLJUST
 70
     0
  9
$CMLSCALE
 40
20.0
  9
$PROXYGRAPHICS
 70
     1
  9
$MEASUREMENT
 70
     1
  9
$CELWEIGHT
370
    -1
  9
$ENDCAPS
280
     0
  9
$JOINSTYLE
280
     0
  9
$LWDISPLAY
290
     1
  9
$INSUNITS
 70
     4
  9
$HYPERLINKBASE
  1

  9
$STYLESHEET
  1

  9
$XEDIT
290
     1
  9
$CEPSNTYPE
380
     0
  9
$PSTYLEMODE
290
     1
  9
$FINGERPRINTGUID
  2
{717ac0a0-f3b0-4c78-a75e-81d28f21ce33}
  9
$VERSIONGUID
  2
{FAEB1C32-E019-11D5-929B-00C0DF256EC4}
  9
$EXTNAMES
290
     1
  9
$PSVPSCALE
 40
0.0
  9
$OLESTARTUP
290
     0
  0
ENDSEC
  0
SECTION
  2
CLASSES
  0
CLASS
  1
ACDBDICTIONARYWDFLT
  2
AcDbDictionaryWithDefault
  3
ObjectDBX Classes
 90
        0
280
     0
281
     0
  0
CLASS
  1
VISUALSTYLE
  2
AcDbVisualStyle
  3
ObjectDBX Classes
 90
     4095
280
     0
281
     0
  0
CLASS
  1
MATERIAL
  2
AcDbMaterial
  3
ObjectDBX Classes
 90
     1153
280
     0
281
     0
  0
CLASS
  1
SCALE
  2
AcDbScale
  3
ObjectDBX Classes
 90
     1153
280
     0
281
     0
  0
CLASS
  1
TABLESTYLE
  2
AcDbTableStyle
  3
ObjectDBX Classes
 90
     4095
280
     0
281
     0
  0
CLASS
  1
MLEADERSTYLE
  2
AcDbMLeaderStyle
  3
ACDB_MLEADERSTYLE_CLASS
 90
     4095
280
     0
281
     0
  0
CLASS
  1
SUN
  2
AcDbSun
  3
SCENEOE
 90
     1153
280
     0
281
     0
  0
CLASS
  1
ACDBPLACEHOLDER
  2
AcDbPlaceHolder
  3
ObjectDBX Classes
 90
        0
280
     0
281
     0
  0
CLASS
  1
LAYOUT
  2
AcDbLayout
  3
ObjectDBX Classes
 90
        0
280
     0
281
     0
  0
ENDSEC
  0
SECTION
  2
TABLES
  0
TABLE
  2
VPORT
  5
8
330
0
100
AcDbSymbolTable
 70
     1
  0
VPORT
  5
29
330
8
100
AcDbSymbolTableRecord
100
AcDbViewportTableRecord
  2
*Active
 70
     0
 10
0.0
 20
0.0
 11
1.0
 21
1.0
 12
297.0
 22
420.5
 13
0.0
 23
0.0
 14
10.0
 24
10.0
 15
10.0
 25
10.0
 16
0.0
 26
0.0
 36
1.0
 17
0.0
 27
0.0
 37
0.0
 40
841.0
 41
0.7063020214
 42
50.0
 43
0.0
 44
0.0
 50
0.0
 51
0.0
 71
     0
 72
  2000
 73
     1
 74
     3
 75
     0
 76
     0
 77
     0
 78
     0
281
     0
 65
     1
110
0.0
120
0.0
130
0.0
111
1.0
121
0.0
131
0.0
112
0.0
122
1.0
132
0.0
 79
     0
146
0.0
  0
ENDTAB
  0
TABLE
  2
LTYPE
  5
5
330
0
100
AcDbSymbolTable
 70
     6
  0
LTYPE
  5
14
330
5
100
AcDbSymbolTableRecord
100
AcDbLinetypeTableRecord
  2
ByBlock
 70
     0
  3

 72
    65
 73
     0
 40
0.0
  0
LTYPE
  5
15
330
5
100
AcDbSymbolTableRecord
100
AcDbLinetypeTableRecord
  2
ByLayer
 70
     0
  3

 72
    65
 73
     0
 40
0.0
  0
LTYPE
  5
16
330
5
100
AcDbSymbolTableRecord
100
AcDbLinetypeTableRecord
  2
Continuous
 70
     0
  3
Solid line
 72
    65
 73
     0
 40
0.0
  0
LTYPE
  5
5E
330
5
100
AcDbSymbolTableRecord
100
AcDbLinetypeTableRecord
  2
HIDDEN
 70
     0
  3
Hidden __ __ __ __ __ __ __ __ __ __ __ __ __ __
 72
    65
 73
     2
 40
1.905
 49
1.27
 74
     0
 49
-0.635
 74
     0
  0
LTYPE
  5
5F
330
5
100
AcDbSymbolTableRecord
100
AcDbLinetypeTableRecord
  2
PHANTOM
 70
     0
  3
Phantom ______  __  __  ______  __  __  ______
 72
    65
 73
     6
 40
12.7
 49
6.35
 74
     0
 49
-1.27
 74
     0
 49
1.27
 74
     0
 49
-1.27
 74
     0
 49
1.27
 74
     0
 49
-1.27
 74
     0
  0
LTYPE
  5
60
330
5
100
AcDbSymbolTableRecord
100
AcDbLinetypeTableRecord
  2
CENTER
 70
     0
  3
Center ____ _ ____ _ ____ _ ____ _ ____ _ ____
 72
    65
 73
     4
 40
10.16
 49
6.35
 74
     0
 49
-1.27
 74
     0
 49
1.27
 74
     0
 49
-1.27
 74
     0
  0
LTYPE
  5
61
330
5
100
AcDbSymbolTableRecord
100
AcDbLinetypeTableRecord
  2
CENTERX2
 70
     0
  3
Center (2x) ________  __  ________  __  _____
 72
    65
 73
     4
 40
20.32
 49
12.7
 74
     0
 49
-2.54
 74
     0
 49
2.54
 74
     0
 49
-2.54
 74
     0
  0
LTYPE
  5
62
330
5
100
AcDbSymbolTableRecord
100
AcDbLinetypeTableRecord
  2
DOT2
 70
     0
  3
Dot (.5x) ........................................
 72
    65
 73
     2
 40
0.635
 49
0.0
 74
     0
 49
-0.635
 74
     0
  0
ENDTAB
  0
TABLE
  2
LAYER
  5
2
330
0
100
AcDbSymbolTable
 70
     1
  0
LAYER
  5
10
330
2
100
AcDbSymbolTableRecord
100
AcDbLayerTableRecord
  2
0
 70
     0
 62
     7
  6
Continuous
370
    -3
390
F
  0
ENDTAB
  0
TABLE
  2
STYLE
  5
3
330
0
100
AcDbSymbolTable
 70
     3
  0
STYLE
  5
11
330
3
100
AcDbSymbolTableRecord
100
AcDbTextStyleTableRecord
  2
Standard
 70
     0
 40
0.0
 41
1.0
 50
0.0
 71
     0
 42
10.0
  3
txt
  4

  0
STYLE
  5
66
330
3
100
AcDbSymbolTableRecord
100
AcDbTextStyleTableRecord
  2
SLDTEXTSTYLE0
 70
     0
 40
0.0
 41
0.96
 50
0.0
 71
     0
 42
10.0
  3
ISOCP3
  4

  0
STYLE
  5
7D
330
3
100
AcDbSymbolTableRecord
100
AcDbTextStyleTableRecord
  2
SLDTEXTSTYLE1
 70
     0
 40
0.0
 41
0.605
 50
0.0
 71
     0
 42
10.0
  3
TXT
  4

  0
ENDTAB
  0
TABLE
  2
VIEW
  5
6
330
0
100
AcDbSymbolTable
 70
     0
  0
ENDTAB
  0
TABLE
  2
UCS
  5
7
330
0
100
AcDbSymbolTable
 70
     0
  0
ENDTAB
  0
TABLE
  2
APPID
  5
9
330
0
100
AcDbSymbolTable
 70
     1
  0
APPID
  5
12
330
9
100
AcDbSymbolTableRecord
100
AcDbRegAppTableRecord
  2
ACAD
 70
     0
  0
ENDTAB
  0
TABLE
  2
DIMSTYLE
  5
A
330
0
100
AcDbSymbolTable
 70
     2
100
AcDbDimStyleTable
  0
DIMSTYLE
105
27
330
A
100
AcDbSymbolTableRecord
100
AcDbDimStyleTableRecord
  2
ISO-25
 70
     0
 41
2.5
 42
0.625
 43
3.75
 44
1.25
 73
     0
 74
     0
 77
     1
 78
     8
140
2.5
141
2.5
143
0.0393700787
147
0.625
171
     3
172
     1
178
     0
271
     2
272
     2
274
     3
278
    44
283
     0
284
     8
340
11
  0
DIMSTYLE
105
67
102
{ACAD_REACTORS
330
65
330
72
102
}
330
A
100
AcDbSymbolTableRecord
100
AcDbDimStyleTableRecord
  2
SLDDIMSTYLE0
 70
     0
 41
2.5
 44
0.0
 45
0.000000001
 73
     0
 74
     0
 77
     1
 78
    12
 79
     3
140
6.0
147
1.5
173
     1
178
     0
271
     2
272
     2
276
     2
284
    12
340
66
  0
ENDTAB
  0
TABLE
  2
BLOCK_RECORD
  5
1
330
0
100
AcDbSymbolTable
 70
     3
  0
BLOCK_RECORD
  5
1F
330
1
100
AcDbSymbolTableRecord
100
AcDbBlockTableRecord
  2
*Model_Space
340
22
  0
BLOCK_RECORD
  5
1B
330
1
100
AcDbSymbolTableRecord
100
AcDbBlockTableRecord
  2
*Paper_Space
340
1E
  0
BLOCK_RECORD
  5
23
330
1
100
AcDbSymbolTableRecord
100
AcDbBlockTableRecord
  2
*Paper_Space0
340
26
  0
BLOCK_RECORD
  5
68
330
1
100
AcDbSymbolTableRecord
100
AcDbBlockTableRecord
  2
_D
340
0
  0
BLOCK_RECORD
  5
73
330
1
100
AcDbSymbolTableRecord
100
AcDbBlockTableRecord
  2
_D_1
340
0
  0
ENDTAB
  0
ENDSEC
  0
SECTION
  2
BLOCKS
  0
BLOCK
  5
20
330
1F
100
AcDbEntity
  8
0
100
AcDbBlockBegin
  2
*Model_Space
 70
     0
 10
0.0
 20
0.0
 30
0.0
  3
*Model_Space
  1

  0
ENDBLK
  5
21
330
1F
100
AcDbEntity
  8
0
100
AcDbBlockEnd
  0
BLOCK
  5
1C
330
1B
100
AcDbEntity
 67
     1
  8
0
100
AcDbBlockBegin
  2
*Paper_Space
 70
     0
 10
0.0
 20
0.0
 30
0.0
  3
*Paper_Space
  1

  0
ENDBLK
  5
1D
330
1B
100
AcDbEntity
 67
     1
  8
0
100
AcDbBlockEnd
  0
BLOCK
  5
24
330
23
100
AcDbEntity
  8
0
100
AcDbBlockBegin
  2
*Paper_Space0
 70
     0
 10
0.0
 20
0.0
 30
0.0
  3
*Paper_Space0
  1

  0
ENDBLK
  5
25
330
23
100
AcDbEntity
  8
0
100
AcDbBlockEnd
  0
BLOCK
  5
69
330
68
100
AcDbEntity
  8
0
100
AcDbBlockBegin
  2
_D
 70
     0
 10
0.0
 20
0.0
 30
0.0
  3
_D
  1

  0
SOLID
  5
6B
330
68
100
AcDbEntity
  8
0
  6
Continuous
 62
     7
370
    18
100
AcDbTrace
 10
42.7614395004
 20
152.0299240879
 30
0.0
 11
42.4614395004
 21
149.5299240879
 31
0.0
 12
43.0614395004
 22
149.5299240879
 32
0.0
 13
43.0614395004
 23
149.5299240879
 33
0.0
  0
SOLID
  5
6C
330
68
100
AcDbEntity
  8
0
  6
Continuous
 62
     7
370
    18
100
AcDbTrace
 10
42.7614395004
 20
52.0299240879
 30
0.0
 11
43.0614395004
 21
54.5299240879
 31
0.0
 12
42.4614395004
 22
54.5299240879
 32
0.0
 13
42.4614395004
 23
54.5299240879
 33
0.0
  0
LINE
  5
6D
330
68
100
AcDbEntity
  8
0
  6
Continuous
 62
     7
370
     0
100
AcDbLine
 10
56.6850079902
 20
152.0299240879
 30
0.0
 11
41.7614395004
 21
152.0299240879
 31
0.0
  0
LINE
  5
6E
330
68
100
AcDbEntity
  8
0
  6
Continuous
 62
     7
370
     0
100
AcDbLine
 10
56.6850079902
 20
52.0299240879
 30
0.0
 11
41.7614395004
 21
52.0299240879
 31
0.0
  0
LINE
  5
6F
330
68
100
AcDbEntity
  8
0
  6
Continuous
 62
     7
370
     0
100
AcDbLine
 10
42.7614395004
 20
152.0299240879
 30
0.0
 11
42.7614395004
 21
52.0299240879
 31
0.0
  0
MTEXT
  5
70
330
68
100
AcDbEntity
  8
0
  6
Continuous
 62
     7
370
    18
100
AcDbMText
 10
35.0270332946
 20
94.3680541463
 30
0.0
 40
6.0
 41
0.0
 71
     1
 72
     1
  1
100
  7
SLDTEXTSTYLE0
 11
-7.044195017643634E-15
 21
1.0
 31
0.0
 73
     1
 44
1.0
  0
MTEXT
  5
71
330
68
100
AcDbEntity
  8
0
  6
Continuous
 62
     7
370
    18
100
AcDbMText
 10
35.0270332946
 20
105.7430548466
 30
0.0
 40
6.0
 41
0.0
 71
     1
 72
     1
  1
mm
  7
SLDTEXTSTYLE0
 11
-7.044195017643634E-15
 21
1.0
 31
0.0
 73
     1
 44
1.0
  0
ENDBLK
  5
6A
330
68
100
AcDbEntity
  8
0
100
AcDbBlockEnd
  0
BLOCK
  5
74
330
73
100
AcDbEntity
  8
0
100
AcDbBlockBegin
  2
_D_1
 70
     0
 10
0.0
 20
0.0
 30
0.0
  3
_D_1
  1

  0
SOLID
  5
76
330
73
100
AcDbEntity
  8
0
  6
Continuous
 62
     7
370
    18
100
AcDbTrace
 10
56.6850079902
 20
38.4602342313
 30
0.0
 11
59.1850079902
 21
38.1602342313
 31
0.0
 12
59.1850079902
 22
38.7602342313
 32
0.0
 13
59.1850079902
 23
38.7602342313
 33
0.0
  0
SOLID
  5
77
330
73
100
AcDbEntity
  8
0
  6
Continuous
 62
     7
370
    18
100
AcDbTrace
 10
156.6850079902
 20
38.4602342313
 30
0.0
 11
154.1850079902
 21
38.7602342313
 31
0.0
 12
154.1850079902
 22
38.1602342313
 32
0.0
 13
154.1850079902
 23
38.1602342313
 33
0.0
  0
LINE
  5
78
330
73
100
AcDbEntity
  8
0
  6
Continuous
 62
     7
370
     0
100
AcDbLine
 10
56.6850079902
 20
52.0299240879
 30
0.0
 11
56.6850079902
 21
37.4602342313
 31
0.0
  0
LINE
  5
79
330
73
100
AcDbEntity
  8
0
  6
Continuous
 62
     7
370
     0
100
AcDbLine
 10
156.6850079902
 20
52.0299240879
 30
0.0
 11
156.6850079902
 21
37.4602342313
 31
0.0
  0
LINE
  5
7A
330
73
100
AcDbEntity
  8
0
  6
Continuous
 62
     7
370
     0
100
AcDbLine
 10
56.6850079902
 20
38.4602342313
 30
0.0
 11
156.6850079902
 21
38.4602342313
 31
0.0
  0
MTEXT
  5
7B
330
73
100
AcDbEntity
  8
0
  6
Continuous
 62
     7
370
    18
100
AcDbMText
 10
93.9626484861
 20
46.1946404371
 30
0.0
 40
6.0
 41
0.0
 71
     1
 72
     1
  1
100
  7
SLDTEXTSTYLE0
 73
     1
 44
1.0
  0
MTEXT
  5
7C
330
73
100
AcDbEntity
  8
0
  6
Continuous
 62
     7
370
    18
100
AcDbMText
 10
105.3376491864
 20
46.1946404371
 30
0.0
 40
6.0
 41
0.0
 71
     1
 72
     1
  1
mm
  7
SLDTEXTSTYLE0
 73
     1
 44
1.0
  0
ENDBLK
  5
75
330
73
100
AcDbEntity
  8
0
100
AcDbBlockEnd
  0
ENDSEC
  0
SECTION
  2
ENTITIES
  0
LINE
  5
63
330
1F
100
AcDbEntity
  8
0
  6
Continuous
 62
     7
370
    18
100
AcDbLine
 10
56.6850079902
 20
152.0299240879
 30
0.0
 11
56.6850079902
 21
52.0299240879
 31
0.0
  0
LINE
  5
64
330
1F
100
AcDbEntity
  8
0
  6
Continuous
 62
     7
370
    18
100
AcDbLine
 10
56.6850079902
 20
52.0299240879
 30
0.0
 11
156.6850079902
 21
52.0299240879
 31
0.0
  0
DIMENSION
  5
65
330
1F
100
AcDbEntity
  8
0
  6
Continuous
 62
     7
370
    18
100
AcDbDimension
  2
_D
 10
42.7614395004
 20
52.0299240879
 30
0.0
 11
42.7614395004
 21
105.4472211621
 31
0.0
 70
   160
  1
<>mm
 71
     2
 42
-1.0
  3
SLDDIMSTYLE0
100
AcDbAlignedDimension
 13
56.6850079902
 23
152.0299240879
 33
0.0
 14
56.6850079902
 24
52.0299240879
 34
0.0
 50
90.0
100
AcDbRotatedDimension
  0
DIMENSION
  5
72
330
1F
100
AcDbEntity
  8
0
  6
Continuous
 62
     7
370
    18
100
AcDbDimension
  2
_D_1
 10
156.6850079902
 20
38.4602342313
 30
0.0
 11
105.0418155019
 21
38.4602342313
 31
0.0
 70
   160
  1
<>mm
 71
     2
 42
-1.0
  3
SLDDIMSTYLE0
100
AcDbAlignedDimension
 13
56.6850079902
 23
52.0299240879
 33
0.0
 14
156.6850079902
 24
52.0299240879
 34
0.0
100
AcDbRotatedDimension
  0
MTEXT
  5
7E
330
1F
100
AcDbEntity
  8
0
  6
Continuous
 62
     7
370
     0
100
AcDbMText
 10
412.8252631579
 20
48.4342449499
 30
0.0
 40
10.0
 41
0.0
 71
     1
 72
     1
  1
KLUDI GmbH & Co KG
  7
SLDTEXTSTYLE1
 73
     1
 44
1.0
  0
MTEXT
  5
7F
330
1F
100
AcDbEntity
  8
0
  6
Continuous
 62
     7
370
     0
100
AcDbMText
 10
210.0873490389
 20
48.4342449499
 30
0.0
 40
10.0
 41
0.0
 71
     1
 72
     1
  1
54 759 .. 75
  7
SLDTEXTSTYLE1
 73
     1
 44
1.0
  0
LINE
  5
80
330
1F
100
AcDbEntity
  8
0
  6
Continuous
 62
     7
370
    25
100
AcDbLine
 10
209.3026353655
 20
354.284223808
 30
0.0
 11
211.3025702849
 21
354.2843756437
 31
0.0
  0
SPLINE
  5
81
330
1F
100
AcDbEntity
  8
0
  6
Continuous
 62
     7
370
    25
100
AcDbSpline
210
0.0
220
0.0
230
1.0
 70
     8
 71
     3
 72
     9
 73
     5
 74
     0
 42
0.00000001
 43
0.00000001
 40
0.0
 40
0.0
 40
0.0
 40
0.0
 40
0.3344496901982351
 40
1.0
 40
1.0
 40
1.0
 40
1.0
 10
207.3027019971016
 20
354.2843296648929
 30
0.0
 10
207.5256608620519
 20
354.2842779826589
 30
0.0
 10
208.1923048192286
 20
354.2841234534861
 30
0.0
 10
208.8589496425643
 20
354.2841860600074
 30
0.0
 10
209.3026353112632
 20
354.2842277277969
 30
0.0
  0
SPLINE
  5
82
330
1F
100
AcDbEntity
  8
0
  6
Continuous
 62
     7
370
    25
100
AcDbSpline
210
0.0
220
0.0
230
1.0
 70
     8
 71
     3
 72
     9
 73
     5
 74
     0
 42
0.00000001
 43
0.00000001
 40
0.0
 40
0.0
 40
0.0
 40
0.0
 40
0.5069390548312761
 40
1.0
 40
1.0
 40
1.0
 40
1.0
 10
234.7807515704952
 20
463.3206384837766
 30
0.0
 10
234.7471425933333
 20
463.3234591323789
 30
0.0
 10
234.6808447280543
 20
463.3290232106943
 30
0.0
 10
234.6152970574198
 20
463.325530068454
 30
0.0
 10
234.5829780609832
 20
463.3238077364396
 30
0.0
  0
SPLINE
  5
83
330
1F
100
AcDbEntity
  8
0
  6
Continuous
 62
     7
370
    25
100
AcDbSpline
210
0.0
220
0.0
230
1.0
 70
     8
 71
     3
 72
     9
 73
     5
 74
     0
 42
0.00000001
 43
0.00000001
 40
0.0
 40
0.0
 40
0.0
 40
0.0
 40
0.4930609451687053
 40
1.0
 40
1.0
 40
1.0
 40
1.0
 10
184.0222955545161
 20
463.3238077364395
 30
0.0
 10
183.9899765580795
 20
463.325530068454
 30
0.0
 10
183.9244288874451
 20
463.3290232106943
 30
0.0
 10
183.8581310221661
 20
463.3234591323789
 30
0.0
 10
183.8245220450042
 20
463.3206384837766
 30
0.0
  0
SPLINE
  5
84
330
1F
100
AcDbEntity
  8
0
  6
Continuous
 62
     7
370
    25
100
AcDbSpline
210
0.0
220
0.0
230
1.0
 70
     8
 71
     3
 72
     8
 73
     4
 74
     0
 42
0.00000001
 43
0.00000001
 40
100.8387172381202
 40
100.8387172381202
 40
100.8387172381202
 40
100.8387172381202
 40
107.789198199788
 40
107.789198199788
 40
107.789198199788
 40
107.789198199788
 10
235.5863545105325
 20
355.7455810232934
 30
0.0
 10
235.5842585025857
 20
358.0364672214742
 30
0.0
 10
235.5820294970852
 20
360.3277087678869
 30
0.0
 10
235.5798512112383
 20
362.6191137717331
 30
0.0
  0
LINE
  5
85
330
1F
100
AcDbEntity
  8
0
  6
Continuous
 62
     7
370
    25
100
AcDbLine
 10
235.5863545105
 20
355.7455810233
 30
0.0
 11
235.5864882113
 21
355.603110224
 31
0.0
  0
SPLINE
  5
86
330
1F
100
AcDbEntity
  8
0
  6
Continuous
 62
     7
370
    25
100
AcDbSpline
210
0.0
220
0.0
230
1.0
 70
     8
 71
     3
 72
     9
 73
     5
 74
     0
 42
0.00000001
 43
0.00000001
 40
0.0
 40
0.0
 40
0.0
 40
0.0
 40
0.500005969123153
 40
1.0
 40
1.0
 40
1.0
 40
1.0
 10
183.0254173357244
 20
362.6191137740253
 30
0.0
 10
183.0243355696167
 20
361.4734345339756
 30
0.0
 10
183.0221720632299
 20
359.1821034083516
 30
0.0
 10
183.020003415758
 20
356.891079368043
 30
0.0
 10
183.0189191049669
 20
355.7455810232934
 30
0.0
  0
LINE
  5
87
330
1F
100
AcDbEntity
  8
0
  6
Continuous
 62
     7
370
    25
100
AcDbLine
 10
183.018919105
 20
355.7455810233
 30
0.0
 11
183.0187855281
 21
355.6032422651
 31
0.0
  0
SPLINE
  5
88
330
1F
100
AcDbEntity
  8
0
  6
Continuous
 62
     7
370
    25
100
AcDbSpline
210
0.0
220
0.0
230
1.0
 70
     8
 71
     3
 72
    12
 73
     8
 74
     0
 42
0.00000001
 43
0.00000001
 40
0.0
 40
0.0
 40
0.0
 40
0.0
 40
0.5000000000000008
 40
0.5000000000000008
 40
0.7500000000000003
 40
0.7500000000000003
 40
1.0
 40
1.0
 40
1.0
 40
1.0
 10
183.0176455946252
 20
355.2751865685697
 30
0.0
 10
183.0174077810004
 20
355.0146153136111
 30
0.0
 10
183.1257480237417
 20
354.7595587307306
 30
0.0
 10
183.4019189196927
 20
354.4871310374082
 30
0.0
 10
183.5126232004937
 20
354.4140109685398
 30
0.0
 10
183.7543382995226
 20
354.3152039410504
 30
0.0
 10
183.8837357839255
 20
354.2896003211194
 30
0.0
 10
184.0156035552
 20
354.2896357817133
 30
0.0
  0
SPLINE
  5
89
330
1F
100
AcDbEntity
  8
0
  6
Continuous
 62
     7
370
    25
100
AcDbSpline
210
0.0
220
0.0
230
1.0
 70
     8
 71
     3
 72
    12
 73
     8
 74
     0
 42
0.00000001
 43
0.00000001
 40
0.0
 40
0.0
 40
0.0
 40
0.0
 40
0.4999999999999891
 40
0.4999999999999891
 40
0.7499999999999946
 40
0.7499999999999946
 40
1.0
 40
1.0
 40
1.0
 40
1.0
 10
234.589670178215
 20
354.2896388001888
 30
0.0
 10
234.8534062568483
 20
354.2895679089315
 30
0.0
 10
235.1119331924455
 20
354.3966927824487
 30
0.0
 10
235.3879058246039
 20
354.6693137689731
 30
0.0
 10
235.4619423801998
 20
354.7785607018777
 30
0.0
 10
235.5619034099468
 20
355.0171498950397
 30
0.0
 10
235.58774692536
 20
355.1449034950297
 30
0.0
 10
235.5876280181199
 20
355.2751895886833
 30
0.0
  0
SPLINE
  5
8A
330
1F
100
AcDbEntity
  8
0
  6
Continuous
 62
     7
370
    25
100
AcDbSpline
210
0.0
220
0.0
230
1.0
 70
     8
 71
     3
 72
    10
 73
     6
 74
     0
 42
0.00000001
 43
0.00000001
 40
0.0
 40
0.0
 40
0.0
 40
0.0
 40
0.5
 40
0.5
 40
1.0
 40
1.0
 40
1.0
 40
1.0
 10
184.0156035552
 20
354.2896357817133
 30
0.0
 10
187.8967977137712
 20
354.2910147106164
 30
0.0
 10
191.7779890496454
 20
354.2901560376367
 30
0.0
 10
199.5403717689279
 20
354.288476405556
 30
0.0
 10
203.4215606818138
 20
354.2874193863993
 30
0.0
 10
207.3027506622139
 20
354.2864571324939
 30
0.0
  0
SPLINE
  5
8B
330
1F
100
AcDbEntity
  8
0
  6
Continuous
 62
     7
370
    25
100
AcDbSpline
210
0.0
220
0.0
230
1.0
 70
     8
 71
     3
 72
    10
 73
     6
 74
     0
 42
0.00000001
 43
0.00000001
 40
0.0
 40
0.0
 40
0.0
 40
0.0
 40
0.4999999999999999
 40
0.4999999999999999
 40
1.0
 40
1.0
 40
1.0
 40
1.0
 10
211.3025185576333
 20
354.2864573659186
 30
0.0
 10
215.1837092904037
 20
354.2874200765511
 30
0.0
 10
219.0648989555673
 20
354.2884775607171
 30
0.0
 10
226.8272831792954
 20
354.2901581323248
 30
0.0
 10
230.7084752673728
 20
354.2910172921746
 30
0.0
 10
234.589670178215
 20
354.2896388001888
 30
0.0
  0
LINE
  5
8C
330
1F
100
AcDbEntity
  8
0
  6
Continuous
 62
     7
370
    25
100
AcDbLine
 10
235.5753122233
 20
428.9761595343
 30
0.0
 11
235.5744016308
 21
426.2706717832
 31
0.0
  0
LINE
  5
8D
330
1F
100
AcDbEntity
  8
0
  6
Continuous
 62
     7
370
    25
100
AcDbLine
 10
235.5703428646
 20
382.7052825973
 30
0.0
 11
235.5798512112
 21
362.6191137717
 31
0.0
  0
LWPOLYLINE
  5
8E
330
1F
100
AcDbEntity
  8
0
  6
Continuous
 62
     7
370
    25
100
AcDbPolyline
 90
        3
 70
   128
 43
0.0
 10
235.5780299543
 20
436.1440140816
 10
235.5767219177
 20
432.5600874431
 10
235.5753122233
 20
428.9761595343
  0
LWPOLYLINE
  5
8F
330
1F
100
AcDbEntity
  8
0
  6
Continuous
 62
     7
370
    25
100
AcDbPolyline
 90
        3
 70
   128
 43
0.0
 10
235.5782328071
 20
436.144013251
 10
235.5811608349
 20
449.249488391
 10
235.581081886
 20
461.3630325559
  0
LINE
  5
90
330
1F
100
AcDbEntity
  8
0
  6
Continuous
 62
     7
370
    25
100
AcDbLine
 10
235.5810756247
 20
462.3551050009
 30
0.0
 11
235.5810756247
 21
462.3551166544
 31
0.0
  0
SPLINE
  5
91
330
1F
100
AcDbEntity
  8
0
  6
Continuous
 62
     7
370
    25
100
AcDbSpline
210
0.0
220
0.0
230
1.0
 70
     8
 71
     3
 72
    30
 73
    26
 74
     0
 42
0.00000001
 43
0.00000001
 40
0.0
 40
0.0
 40
0.0
 40
0.0
 40
0.015625
 40
0.015625
 40
0.0312499999999999
 40
0.0312499999999999
 40
0.0624999999999999
 40
0.0624999999999999
 40
0.1250000000000001
 40
0.1250000000000001
 40
0.2500000000000003
 40
0.2500000000000003
 40
0.5000000000000001
 40
0.5000000000000001
 40
0.75
 40
0.75
 40
0.875
 40
0.875
 40
0.9375
 40
0.9375
 40
0.9687500000000001
 40
0.9687500000000001
 40
0.984375
 40
0.984375
 40
1.0
 40
1.0
 40
1.0
 40
1.0
 10
235.5876280181199
 20
355.2751895886833
 30
0.0
 10
235.587118288779
 20
355.8341017447676
 30
0.0
 10
235.5865984807374
 20
356.3942927575223
 30
0.0
 10
235.5855482463847
 20
357.5134525377333
 30
0.0
 10
235.5850182285251
 20
358.0726904363911
 30
0.0
 10
235.5834181177497
 20
359.7504779125427
 30
0.0
 10
235.5823394286604
 20
360.8686466670898
 30
0.0
 10
235.5791326054186
 20
364.2219079519805
 30
0.0
 10
235.5770330972535
 20
366.4559739409905
 30
0.0
 10
235.5713574797008
 20
373.1547794529108
 30
0.0
 10
235.568452384768
 20
377.6160548246144
 30
0.0
 10
235.5633515401063
 20
390.9909953010002
 30
0.0
 10
235.5650295904518
 20
399.8957733163863
 30
0.0
 10
235.571009930072
 20
417.702039356301
 30
0.0
 10
235.575205421345
 20
426.6037429279501
 30
0.0
 10
235.5796819294188
 20
439.9832171468271
 30
0.0
 10
235.5808738801726
 20
444.4475478911492
 30
0.0
 10
235.581751741292
 20
451.1544518011081
 30
0.0
 10
235.5818925398646
 20
453.3919737995714
 30
0.0
 10
235.5818166552654
 20
456.7511951876725
 30
0.0
 10
235.5817434971581
 20
457.8714441866334
 30
0.0
 10
235.581554428487
 20
459.5524562985661
 30
0.0
 10
235.5814781794574
 20
460.1129190251999
 30
0.0
 10
235.5812979840942
 20
461.2339615435554
 30
0.0
 10
235.5811940806042
 20
461.7943375994148
 30
0.0
 10
235.5810756247368
 20
462.3551166544471
 30
0.0
  0
LWPOLYLINE
  5
92
330
1F
100
AcDbEntity
  8
0
  6
Continuous
 62
     7
370
    25
100
AcDbPolyline
 90
        3
 70
   128
 43
0.0
 10
183.0272436612
 20
436.1440140816
 10
183.0239095305
 20
449.2495936535
 10
183.0241761552
 20
461.3630598295
  0
LWPOLYLINE
  5
93
330
1F
100
AcDbEntity
  8
0
  6
Continuous
 62
     7
370
    25
100
AcDbPolyline
 90
        3
 70
   128
 43
0.0
 10
183.0270408057
 20
436.1440139977
 10
183.0283517948
 20
432.5600815948
 10
183.0297949059
 20
428.9761592863
  0
LINE
  5
94
330
1F
100
AcDbEntity
  8
0
  6
Continuous
 62
     7
370
    25
100
AcDbLine
 10
183.0297949056
 20
428.9761594612
 30
0.0
 11
183.0307222278
 21
426.2706761906
 31
0.0
  0
LINE
  5
95
330
1F
100
AcDbEntity
  8
0
  6
Continuous
 62
     7
370
    25
100
AcDbLine
 10
183.0349522081
 20
382.7053612909
 30
0.0
 11
183.0254173364
 21
362.619113774
 31
0.0
  0
SPLINE
  5
96
330
1F
100
AcDbEntity
  8
0
  6
Continuous
 62
     7
370
    25
100
AcDbSpline
210
0.0
220
0.0
230
1.0
 70
     8
 71
     3
 72
     9
 73
     5
 74
     0
 42
0.00000001
 43
0.00000001
 40
0.0
 40
0.0
 40
0.0
 40
0.0
 40
0.7859683263948516
 40
1.0
 40
1.0
 40
1.0
 40
1.0
 10
183.0241979907626
 20
462.3551166544471
 30
0.0
 10
183.0236465065177
 20
459.1042820905029
 30
0.0
 10
183.0229448443433
 20
454.9681935806066
 30
0.0
 10
183.0237524525797
 20
450.8481503276436
 30
0.0
 10
183.0239253063222
 20
449.9663305748864
 30
0.0
  0
SPLINE
  5
97
330
1F
100
AcDbEntity
  8
0
  6
Continuous
 62
     7
370
    25
100
AcDbSpline
210
0.0
220
0.0
230
1.0
 70
     8
 71
     3
 72
    10
 73
     6
 74
     0
 42
0.00000001
 43
0.00000001
 40
0.0
 40
0.0
 40
0.0
 40
0.0
 40
0.1746296687471778
 40
0.5872764818655426
 40
1.0
 40
1.0
 40
1.0
 40
1.0
 10
183.038737659859
 20
402.8854737982655
 30
0.0
 10
183.039421782593
 20
400.1197689044704
 30
0.0
 10
183.0417224752261
 20
390.8187523500739
 30
0.0
 10
183.0371387641432
 20
374.9690512869191
 30
0.0
 10
183.0241437203586
 20
361.8402148467117
 30
0.0
 10
183.0176455946252
 20
355.2751865685697
 30
0.0
  0
LINE
  5
98
330
1F
100
AcDbEntity
  8
0
  6
Continuous
 62
     7
370
    25
100
AcDbLine
 10
183.0241979908
 20
462.3551050009
 30
0.0
 11
183.0241979908
 21
462.3551166544
 31
0.0
  0
SPLINE
  5
99
330
1F
100
AcDbEntity
  8
0
  6
Continuous
 62
     7
370
    25
100
AcDbSpline
210
0.0
220
0.0
230
1.0
 70
     8
 71
     3
 72
    14
 73
    10
 74
     0
 42
0.00000001
 43
0.00000001
 40
0.0
 40
0.0
 40
0.0
 40
0.0
 40
0.1722961927377374
 40
0.3152421173588569
 40
0.458195321690906
 40
0.7398431467815523
 40
0.744125599399304
 40
0.8904525764260437
 40
1.0
 40
1.0
 40
1.0
 40
1.0
 10
183.2098635710114
 20
380.6264206543318
 30
0.0
 10
183.1946620306001
 20
385.2708075724533
 30
0.0
 10
183.1668484979257
 20
393.7684205645813
 30
0.0
 10
183.1264720614253
 20
406.0954399154919
 30
0.0
 10
183.0548345841078
 20
421.3709799350133
 30
0.0
 10
183.0327740509798
 20
432.9246568232596
 30
0.0
 10
183.0395019560128
 20
444.578269906313
 30
0.0
 10
183.0506791117771
 20
451.5903538248081
 30
0.0
 10
183.1565315188406
 20
458.5157019787845
 30
0.0
 10
183.2018500753109
 20
461.4806490224894
 30
0.0
  0
SPLINE
  5
9A
330
1F
100
AcDbEntity
  8
0
  6
Continuous
 62
     7
370
    25
100
AcDbSpline
210
0.0
220
0.0
230
1.0
 70
     8
 71
     3
 72
    14
 73
    10
 74
     0
 42
0.00000001
 43
0.00000001
 40
0.0
 40
0.0
 40
0.0
 40
0.0
 40
0.1072545994925844
 40
0.2487249925570822
 40
0.3901914310139116
 40
0.5346240140045266
 40
0.6759605251781997
 40
0.8172898389689945
 40
1.0
 40
1.0
 40
1.0
 40
1.0
 10
235.4045774039928
 20
461.3941466699102
 30
0.0
 10
235.4494198803143
 20
458.4581136413638
 30
0.0
 10
235.5534102419591
 20
451.6494098969332
 30
0.0
 10
235.5721732885403
 20
441.0104877985254
 30
0.0
 10
235.5663388297707
 20
429.3597330225746
 30
0.0
 10
235.5332049750475
 20
417.7223360840484
 30
0.0
 10
235.4788338154649
 20
406.0954633349712
 30
0.0
 10
235.4373120977839
 20
393.431872280518
 30
0.0
 10
235.4084021104028
 20
384.5971117996972
 30
0.0
 10
235.392101169128
 20
379.6156183844001
 30
0.0
  0
SPLINE
  5
9B
330
1F
100
AcDbEntity
  8
0
  6
Continuous
 62
     7
370
    25
100
AcDbSpline
210
0.0
220
0.0
230
1.0
 70
     8
 71
     3
 72
     8
 73
     4
 74
     0
 42
0.00000001
 43
0.00000001
 40
0.0
 40
0.0
 40
0.0
 40
0.0
 40
1.64806382406154
 40
1.64806382406154
 40
1.64806382406154
 40
1.64806382406154
 10
183.0241981952317
 20
462.3551048203452
 30
0.0
 10
183.0248039234097
 20
462.3813290388785
 30
0.0
 10
183.3853805594278
 20
462.3109473722075
 30
0.0
 10
184.0544403584702
 20
462.3104341183207
 30
0.0
  0
SPLINE
  5
9C
330
1F
100
AcDbEntity
  8
0
  6
Continuous
 62
     7
370
    25
100
AcDbSpline
210
0.0
220
0.0
230
1.0
 70
     8
 71
     3
 72
     8
 73
     4
 74
     0
 42
0.00000001
 43
0.00000001
 40
0.0
 40
0.0
 40
0.0
 40
0.0
 40
1.64806382406154
 40
1.64806382406154
 40
1.64806382406154
 40
1.64806382406154
 10
235.5810754202677
 20
462.3551048203452
 30
0.0
 10
235.5804696920897
 20
462.3813290388785
 30
0.0
 10
235.2198930560715
 20
462.3109473722075
 30
0.0
 10
234.5508332570291
 20
462.3104341183207
 30
0.0
  0
SPLINE
  5
9D
330
1F
100
AcDbEntity
  8
0
  6
Continuous
 62
     7
370
    25
100
AcDbSpline
210
0.0
220
0.0
230
1.0
 70
     8
 71
     3
 72
     9
 73
     5
 74
     0
 42
0.00000001
 43
0.00000001
 40
-50.4965858787939
 40
-50.4965858787939
 40
-50.4965858787939
 40
-50.4965858787939
 40
-37.8724394091055
 40
-25.24838417087861
 40
-25.24838417087861
 40
-25.24838417087861
 40
-25.24838417087861
 10
234.5841980264113
 20
463.3378855448695
 30
0.0
 10
230.3821027609889
 20
463.3373886455128
 30
0.0
 10
221.949912778645
 20
463.3404196832834
 30
0.0
 10
213.5184032938918
 20
463.337921550754
 30
0.0
 10
209.3026384711836
 20
463.3379218084432
 30
0.0
  0
SPLINE
  5
9E
330
1F
100
AcDbEntity
  8
0
  6
Continuous
 62
     7
370
    25
100
AcDbSpline
210
0.0
220
0.0
230
1.0
 70
     8
 71
     3
 72
    20
 73
    16
 74
     0
 42
0.00000001
 43
0.00000001
 40
0.0
 40
0.0
 40
0.0
 40
0.0
 40
0.428079751137956
 40
0.428079751137956
 40
0.428079751137956
 40
0.641265942922062
 40
0.641265942922062
 40
0.854197011142565
 40
0.854197011142565
 40
1.06777084677066
 40
1.06777084677066
 40
1.28269742240267
 40
1.28269742240267
 40
1.28269742240267
 40
1.71218222231151
 40
1.71218222231151
 40
1.71218222231151
 40
1.71218222231151
 10
234.5508332574821
 20
462.3104346848017
 30
0.0
 10
234.5508363484566
 20
462.4515585286406
 30
0.0
 10
234.5524112955221
 20
462.591000424603
 30
0.0
 10
234.5553822983968
 20
462.7210214458634
 30
0.0
 10
234.5568618380206
 20
462.7857710476139
 30
0.0
 10
234.5586774988348
 20
462.8480541579137
 30
0.0
 10
234.5627422528286
 20
462.9642206989001
 30
0.0
 10
234.5649896653027
 20
463.0180621899613
 30
0.0
 10
234.5695309417498
 20
463.1140291810191
 30
0.0
 10
234.5718183379181
 20
463.1560633147579
 30
0.0
 10
234.5760091032316
 20
463.2265970325604
 30
0.0
 10
234.5779053775962
 20
463.2550224988333
 30
0.0
 10
234.5794526316883
 20
463.2768650598422
 30
0.0
 10
234.5825445496015
 20
463.32051361506
 30
0.0
 10
234.5841806080501
 20
463.3380635577346
 30
0.0
 10
234.5841980264113
 20
463.3378855448695
 30
0.0
  0
SPLINE
  5
9F
330
1F
100
AcDbEntity
  8
0
  6
Continuous
 62
     7
370
    25
100
AcDbSpline
210
0.0
220
0.0
230
1.0
 70
     8
 71
     3
 72
    20
 73
    16
 74
     0
 42
0.00000001
 43
0.00000001
 40
0.0
 40
0.0
 40
0.0
 40
0.0
 40
0.428079751137956
 40
0.428079751137956
 40
0.428079751137956
 40
0.641265942922062
 40
0.641265942922062
 40
0.854197011142565
 40
0.854197011142565
 40
1.06777084677066
 40
1.06777084677066
 40
1.28269742240267
 40
1.28269742240267
 40
1.28269742240267
 40
1.71218222231151
 40
1.71218222231151
 40
1.71218222231151
 40
1.71218222231151
 10
184.0544403580172
 20
462.3104346848017
 30
0.0
 10
184.0544372670428
 20
462.4515585286406
 30
0.0
 10
184.0528623199773
 20
462.591000424603
 30
0.0
 10
184.0498913171026
 20
462.7210214458634
 30
0.0
 10
184.0484117774788
 20
462.7857710476139
 30
0.0
 10
184.0465961166645
 20
462.8480541579137
 30
0.0
 10
184.0425313626707
 20
462.9642206989001
 30
0.0
 10
184.0402839501967
 20
463.0180621899613
 30
0.0
 10
184.0357426737496
 20
463.1140291810191
 30
0.0
 10
184.0334552775813
 20
463.1560633147579
 30
0.0
 10
184.0292645122678
 20
463.2265970325604
 30
0.0
 10
184.0273682379032
 20
463.2550224988333
 30
0.0
 10
184.0258209838111
 20
463.2768650598422
 30
0.0
 10
184.0227290658979
 20
463.32051361506
 30
0.0
 10
184.0210930074493
 20
463.3380635577346
 30
0.0
 10
184.0210755890881
 20
463.3378855448694
 30
0.0
  0
SPLINE
  5
A0
330
1F
100
AcDbEntity
  8
0
  6
Continuous
 62
     7
370
    25
100
AcDbSpline
210
0.0
220
0.0
230
1.0
 70
     8
 71
     3
 72
     9
 73
     5
 74
     0
 42
0.00000001
 43
0.00000001
 40
25.24838417087859
 40
25.24838417087859
 40
25.24838417087859
 40
25.24838417087859
 40
37.8724394091055
 40
50.4965858787939
 40
50.4965858787939
 40
50.4965858787939
 40
50.4965858787939
 10
209.3026351443157
 20
463.3379218084432
 30
0.0
 10
205.0868703216076
 20
463.337921550754
 30
0.0
 10
196.6553608368544
 20
463.3404196832834
 30
0.0
 10
188.2231708545105
 20
463.3373886455128
 30
0.0
 10
184.0210755890881
 20
463.3378855448694
 30
0.0
  0
SPLINE
  5
A1
330
1F
100
AcDbEntity
  8
0
  6
Continuous
 62
     7
370
    25
100
AcDbSpline
210
0.0
220
0.0
230
1.0
 70
     8
 71
     3
 72
    70
 73
    66
 74
     0
 42
0.00000001
 43
0.00000001
 40
0.0
 40
0.0
 40
0.0
 40
0.0
 40
0.0011811911385867
 40
0.0011811911385867
 40
0.0061427812072904
 40
0.0061427812072904
 40
0.0259891414820978
 40
0.0259891414820978
 40
0.0458355017569089
 40
0.0458355017569089
 40
0.0855282223065275
 40
0.0855282223065275
 40
0.12522094285615
 40
0.12522094285615
 40
0.164913663405768
 40
0.164913663405768
 40
0.244299104505005
 40
0.244299104505005
 40
0.323684545604246
 40
0.323684545604246
 40
0.403069986703483
 40
0.403069986703483
 40
0.482455427802724
 40
0.482455427802724
 40
0.561840868901961
 40
0.561840868901961
 40
0.641226310001202
 40
0.641226310001202
 40
0.720611751100439
 40
0.720611751100439
 40
0.79999719219968
 40
0.79999719219968
 40
0.879382633298917
 40
0.879382633298917
 40
0.958768074398158
 40
0.958768074398158
 40
0.998460794947776
 40
0.998460794947776
 40
1.03815351549739
 40
1.03815351549739
 40
1.11753895659664
 40
1.11753895659664
 40
1.19692439769587
 40
1.19692439769587
 40
1.23661711824549
 40
1.23661711824549
 40
1.27630983879511
 40
1.27630983879511
 40
1.35569527989435
 40
1.35569527989435
 40
1.43508072099359
 40
1.43508072099359
 40
1.47477344154321
 40
1.47477344154321
 40
1.51446616209283
 40
1.51446616209283
 40
1.55415888264245
 40
1.55415888264245
 40
1.59385160319207
 40
1.59385160319207
 40
1.63354432374169
 40
1.63354432374169
 40
1.6434675038791
 40
1.6434675038791
 40
1.64809139665317
 40
1.64809139665317
 40
1.64809139665317
 40
1.64809139665317
 10
234.5841980264113
 20
463.3378855448696
 30
0.0
 10
234.5845592869352
 20
463.3378835983021
 30
0.0
 10
234.5849349361889
 20
463.3378804193489
 30
0.0
 10
234.5870304814413
 20
463.3378542769199
 30
0.0
 10
234.5885758917661
 20
463.337833630161
 30
0.0
 10
234.5965150125983
 20
463.337706808398
 30
0.0
 10
234.6027144003302
 20
463.3375569949567
 30
0.0
 10
234.6153531210591
 20
463.3371618062928
 30
0.0
 10
234.6214683065429
 20
463.3369291445212
 30
0.0
 10
234.640563774134
 20
463.3360822471853
 30
0.0
 10
234.6528864065353
 20
463.3353983755821
 30
0.0
 10
234.6782629867376
 20
463.3336689802921
 30
0.0
 10
234.6905114124351
 20
463.3326633469453
 30
0.0
 10
234.7155948220935
 20
463.3301680339663
 30
0.0
 10
234.7284447594928
 20
463.3286511943063
 30
0.0
 10
234.7655164840252
 20
463.3235544471632
 30
0.0
 10
234.7902132077464
 20
463.3192367794654
 30
0.0
 10
234.8395540013515
 20
463.3085413709487
 30
0.0
 10
234.8636805714618
 20
463.3022974520869
 30
0.0
 10
234.9123198505404
 20
463.2875321670468
 30
0.0
 10
234.9354786928167
 20
463.279456645929
 30
0.0
 10
234.9826361454642
 20
463.2607811436329
 30
0.0
 10
235.0056207037196
 20
463.2505133968471
 30
0.0
 10
235.0502268988127
 20
463.2284138474118
 30
0.0
 10
235.0724814875822
 20
463.2162509668798
 30
0.0
 10
235.1157087702499
 20
463.1903002009185
 30
0.0
 10
235.1362995324389
 20
463.1768186793072
 30
0.0
 10
235.177395484699
 20
463.1475198215926
 30
0.0
 10
235.197099927103
 20
463.1322573304424
 30
0.0
 10
235.2355988619435
 20
463.1003306798883
 30
0.0
 10
235.2545279810156
 20
463.083498182386
 30
0.0
 10
235.2905495320715
 20
463.0494041154059
 30
0.0
 10
235.3086130702803
 20
463.031209124135
 30
0.0
 10
235.3426063358854
 20
462.9946798823871
 30
0.0
 10
235.3587136259157
 20
462.976263847002
 30
0.0
 10
235.3827170722966
 20
462.9467002978245
 30
0.0
 10
235.3901923887547
 20
462.9371312049537
 30
0.0
 10
235.4051823440041
 20
462.9171954406105
 30
0.0
 10
235.4127611320339
 20
462.9066895054245
 30
0.0
 10
235.4340285632765
 20
462.8758770664
 30
0.0
 10
235.4471777489298
 20
462.8551060267298
 30
0.0
 10
235.4721912594438
 20
462.8118181189346
 30
0.0
 10
235.483734282398
 20
462.7898336889992
 30
0.0
 10
235.4998346360884
 20
462.7557151972927
 30
0.0
 10
235.5048586348485
 20
462.7444590820708
 30
0.0
 10
235.5146813092327
 20
462.7210860449818
 30
0.0
 10
235.5190323136976
 20
462.7100732840735
 30
0.0
 10
235.5320765362115
 20
462.674931770297
 30
0.0
 10
235.5397453741678
 20
462.6511179234132
 30
0.0
 10
235.5530759217334
 20
462.6029809703049
 30
0.0
 10
235.5586578269694
 20
462.5788842462508
 30
0.0
 10
235.5656466556935
 20
462.5416989751067
 30
0.0
 10
235.5675815326352
 20
462.5301124545083
 30
0.0
 10
235.5712398738877
 20
462.5054338403195
 30
0.0
 10
235.572886809927
 20
462.4925152369041
 30
0.0
 10
235.5755215737767
 20
462.4680505644533
 30
0.0
 10
235.5766018969394
 20
462.4558759965615
 30
0.0
 10
235.5784014486732
 20
462.4304982147975
 30
0.0
 10
235.5790485303181
 20
462.4186509238075
 30
0.0
 10
235.5802102315649
 20
462.3934707961895
 30
0.0
 10
235.5806923827814
 20
462.3813759497178
 30
0.0
 10
235.5809962074601
 20
462.36572879585
 30
0.0
 10
235.5810403619017
 20
462.3622058311392
 30
0.0
 10
235.5810708255621
 20
462.3579257144179
 30
0.0
 10
235.5810744534957
 20
462.3565280837713
 30
0.0
 10
235.5810756247297
 20
462.3551050309294
 30
0.0
  0
SPLINE
  5
A2
330
1F
100
AcDbEntity
  8
0
  6
Continuous
 62
     7
370
    25
100
AcDbSpline
210
0.0
220
0.0
230
1.0
 70
     8
 71
     3
 72
    70
 73
    66
 74
     0
 42
0.00000001
 43
0.00000001
 40
0.0
 40
0.0
 40
0.0
 40
0.0
 40
0.004623925331678
 40
0.004623925331678
 40
0.014547105469088
 40
0.014547105469088
 40
0.054239826018708
 40
0.054239826018708
 40
0.0939325465683281
 40
0.0939325465683281
 40
0.1336252671179481
 40
0.1336252671179481
 40
0.1733179876675679
 40
0.1733179876675679
 40
0.2130107082171879
 40
0.2130107082171879
 40
0.292396149316428
 40
0.292396149316428
 40
0.3717815904156681
 40
0.3717815904156681
 40
0.4114743109652881
 40
0.4114743109652881
 40
0.4511670315149081
 40
0.4511670315149081
 40
0.530552472614138
 40
0.530552472614138
 40
0.609937913713388
 40
0.609937913713388
 40
0.649630634263002
 40
0.649630634263002
 40
0.68932335481262
 40
0.68932335481262
 40
0.768708795911861
 40
0.768708795911861
 40
0.848094237011098
 40
0.848094237011098
 40
0.927479678110339
 40
0.927479678110339
 40
1.006865119209576
 40
1.006865119209576
 40
1.086250560308817
 40
1.086250560308817
 40
1.165636001408054
 40
1.165636001408054
 40
1.245021442507295
 40
1.245021442507295
 40
1.324406883606532
 40
1.324406883606532
 40
1.403792324705773
 40
1.403792324705773
 40
1.48317776580501
 40
1.48317776580501
 40
1.522870486354628
 40
1.522870486354628
 40
1.562563206904251
 40
1.562563206904251
 40
1.602255927453869
 40
1.602255927453869
 40
1.62210228772868
 40
1.62210228772868
 40
1.641948648003488
 40
1.641948648003488
 40
1.646910238072191
 40
1.646910238072191
 40
1.648091429210778
 40
1.648091429210778
 40
1.648091429210778
 40
1.648091429210778
 10
183.0241979907696
 20
462.3551050309298
 30
0.0
 10
183.0241991620036
 20
462.3565280837718
 30
0.0
 10
183.0242027899372
 20
462.3579257144185
 30
0.0
 10
183.0242332535977
 20
462.3622058311398
 30
0.0
 10
183.0242774080393
 20
462.3657287958506
 30
0.0
 10
183.0245812327179
 20
462.3813759497182
 30
0.0
 10
183.0250633839345
 20
462.39347079619
 30
0.0
 10
183.0262250851813
 20
462.4186509238081
 30
0.0
 10
183.0268721668262
 20
462.430498214798
 30
0.0
 10
183.0286717185599
 20
462.455875996562
 30
0.0
 10
183.0297520417227
 20
462.4680505644539
 30
0.0
 10
183.0323868055723
 20
462.4925152369046
 30
0.0
 10
183.0340337416116
 20
462.5054338403201
 30
0.0
 10
183.0376920828642
 20
462.5301124545089
 30
0.0
 10
183.0396269598059
 20
462.5416989751073
 30
0.0
 10
183.0466157885299
 20
462.5788842462514
 30
0.0
 10
183.0521976937659
 20
462.6029809703054
 30
0.0
 10
183.0655282413316
 20
462.6511179234137
 30
0.0
 10
183.0731970792879
 20
462.6749317702975
 30
0.0
 10
183.0862413018018
 20
462.710073284074
 30
0.0
 10
183.0905923062667
 20
462.7210860449824
 30
0.0
 10
183.1004149806509
 20
462.7444590820713
 30
0.0
 10
183.105438979411
 20
462.7557151972931
 30
0.0
 10
183.1215393331013
 20
462.7898336889997
 30
0.0
 10
183.1330823560556
 20
462.8118181189352
 30
0.0
 10
183.1580958665696
 20
462.8551060267303
 30
0.0
 10
183.1712450522228
 20
462.8758770664005
 30
0.0
 10
183.1925124834655
 20
462.906689505425
 30
0.0
 10
183.2000912714952
 20
462.917195440611
 30
0.0
 10
183.2150812267447
 20
462.9371312049541
 30
0.0
 10
183.2225565432028
 20
462.9467002978251
 30
0.0
 10
183.2465599895836
 20
462.9762638470025
 30
0.0
 10
183.2626672796139
 20
462.9946798823876
 30
0.0
 10
183.296660545219
 20
463.0312091241356
 30
0.0
 10
183.3147240834278
 20
463.0494041154064
 30
0.0
 10
183.3507456344838
 20
463.0834981823864
 30
0.0
 10
183.3696747535559
 20
463.1003306798888
 30
0.0
 10
183.4081736883963
 20
463.1322573304429
 30
0.0
 10
183.4278781308004
 20
463.1475198215931
 30
0.0
 10
183.4689740830605
 20
463.1768186793077
 30
0.0
 10
183.4895648452495
 20
463.190300200919
 30
0.0
 10
183.5327921279172
 20
463.2162509668804
 30
0.0
 10
183.5550467166867
 20
463.2284138474124
 30
0.0
 10
183.5996529117798
 20
463.2505133968476
 30
0.0
 10
183.6226374700352
 20
463.2607811436334
 30
0.0
 10
183.6697949226827
 20
463.2794566459295
 30
0.0
 10
183.692953764959
 20
463.2875321670472
 30
0.0
 10
183.7415930440375
 20
463.3022974520873
 30
0.0
 10
183.7657196141478
 20
463.3085413709493
 30
0.0
 10
183.815060407753
 20
463.3192367794659
 30
0.0
 10
183.8397571314742
 20
463.3235544471637
 30
0.0
 10
183.8768288560066
 20
463.3286511943068
 30
0.0
 10
183.8896787934058
 20
463.3301680339668
 30
0.0
 10
183.9147622030643
 20
463.3326633469458
 30
0.0
 10
183.9270106287618
 20
463.3336689802926
 30
0.0
 10
183.9523872089641
 20
463.3353983755826
 30
0.0
 10
183.9647098413654
 20
463.3360822471859
 30
0.0
 10
183.9838053089565
 20
463.3369291445216
 30
0.0
 10
183.9899204944403
 20
463.3371618062934
 30
0.0
 10
184.0025592151692
 20
463.3375569949572
 30
0.0
 10
184.008758602901
 20
463.3377068083985
 30
0.0
 10
184.0166977237332
 20
463.3378336301614
 30
0.0
 10
184.0182431340581
 20
463.3378542769204
 30
0.0
 10
184.0203386793104
 20
463.3378804193493
 30
0.0
 10
184.0207143285642
 20
463.3378835983027
 30
0.0
 10
184.0210755890881
 20
463.33788554487
 30
0.0
  0
SPLINE
  5
A3
330
1F
100
AcDbEntity
  8
0
  6
Continuous
 62
     7
370
    25
100
AcDbSpline
210
0.0
220
0.0
230
1.0
 70
     8
 71
     3
 72
    14
 73
    10
 74
     0
 42
0.00000001
 43
0.00000001
 40
-0.0000000599999896
 40
-0.0000000599999896
 40
-0.0000000599999896
 40
-0.0000000599999896
 40
0.0
 40
0.0
 40
0.0
 40
0.0000040798732374
 40
0.0000040798732374
 40
0.0000040798732374
 40
0.0000041398732322
 40
0.0000041398732322
 40
0.0000041398732322
 40
0.0000041398732322
 10
183.0242124730322
 20
462.359297833576
 30
0.0
 10
183.0242123310764
 20
462.3592778889131
 30
0.0
 10
183.0242121904753
 20
462.3592579437471
 30
0.0
 10
183.0242120512244
 20
462.3592379995583
 30
0.0
 10
183.0242025824556
 20
462.3578818366186
 30
0.0
 10
183.0241992199965
 20
462.3565277051974
 30
0.0
 10
183.0241980412997
 20
462.3551763053175
 30
0.0
 10
183.0241980239654
 20
462.3551564311741
 30
0.0
 10
183.0241980071258
 20
462.3551365580951
 30
0.0
 10
183.0241979907689
 20
462.3551166844833
 30
0.0
  0
SPLINE
  5
A4
330
1F
100
AcDbEntity
  8
0
  6
Continuous
 62
     7
370
    25
100
AcDbSpline
210
0.0
220
0.0
230
1.0
 70
     8
 71
     3
 72
    14
 73
    10
 74
     0
 42
0.00000001
 43
0.00000001
 40
-0.000000059999997
 40
-0.000000059999997
 40
-0.000000059999997
 40
-0.000000059999997
 40
0.0
 40
0.0
 40
0.0
 40
0.0000095015652516
 40
0.0000095015652516
 40
0.0000095015652516
 40
0.000009561551458
 40
0.000009561551458
 40
0.000009561551458
 40
0.000009561551458
 10
183.0243381729743
 20
462.3688698784252
 30
0.0
 10
183.0243377863151
 20
462.3688499652494
 30
0.0
 10
183.0243374006313
 20
462.368830051733
 30
0.0
 10
183.0243370159337
 20
462.3688101388406
 30
0.0
 10
183.0242760954345
 20
462.3656567445709
 30
0.0
 10
183.0242356202811
 20
462.3625103210375
 30
0.0
 10
183.0242129006998
 20
462.3593575477235
 30
0.0
 10
183.0242127572643
 20
462.3593376433282
 30
0.0
 10
183.0242126147038
 20
462.3593177382982
 30
0.0
 10
183.0242124730322
 20
462.359297833576
 30
0.0
  0
SPLINE
  5
A5
330
1F
100
AcDbEntity
  8
0
  6
Continuous
 62
     7
370
    25
100
AcDbSpline
210
0.0
220
0.0
230
1.0
 70
     8
 71
     3
 72
     9
 73
     5
 74
     0
 42
0.00000001
 43
0.00000001
 40
0.0
 40
0.0
 40
0.0
 40
0.0
 40
0.9888794710717196
 40
1.0
 40
1.0
 40
1.0
 40
1.0
 10
184.0179732379312
 20
463.3378616633655
 30
0.0
 10
183.8846907182736
 20
463.3381348688433
 30
0.0
 10
183.7499093586068
 20
463.3384111466768
 30
0.0
 10
183.6435382233391
 20
463.2684610949307
 30
0.0
 10
183.6423553200522
 20
463.2676832133567
 30
0.0
  0
LWPOLYLINE
  5
A6
330
1F
100
AcDbEntity
  8
0
  6
Continuous
 62
     7
370
    25
100
AcDbPolyline
 90
        5
 70
   128
 43
0.0
 10
183.0742776389
 20
462.6199334975
 10
183.029977242
 20
462.4696065931
 10
183.0243393328
 20
462.3689295153
 10
183.024338173
 20
462.3688698784
 10
183.024338173
 20
462.3688698784
  0
SPLINE
  5
A7
330
1F
100
AcDbEntity
  8
0
  6
Continuous
 62
     7
370
    25
100
AcDbSpline
210
0.0
220
0.0
230
1.0
 70
     8
 71
     3
 72
    10
 73
     6
 74
     0
 42
0.00000001
 43
0.00000001
 40
0.0000118637587369
 40
0.0000118637587369
 40
0.0000118637587369
 40
0.0000118637587369
 40
0.0011811911385867
 40
0.0011811911385867
 40
0.0031553966097474
 40
0.0031553966097474
 40
0.0031553966097474
 40
0.0031553966097474
 10
184.0210646993323
 20
463.3378970664973
 30
0.0
 10
184.0207067798466
 20
463.3378951149123
 30
0.0
 10
184.0203346321131
 20
463.3378919495138
 30
0.0
 10
184.0192622489174
 20
463.3378785712766
 30
0.0
 10
184.0186120720211
 20
463.3378702436746
 30
0.0
 10
184.0179732537333
 20
463.3378616635672
 30
0.0
  0
SPLINE
  5
A8
330
1F
100
AcDbEntity
  8
0
  6
Continuous
 62
     7
370
    25
100
AcDbSpline
210
0.0
220
0.0
230
1.0
 70
     8
 71
     3
 72
    10
 73
     6
 74
     0
 42
0.00000001
 43
0.00000001
 40
0.0000118721701076
 40
0.0000118721701076
 40
0.0000118721701076
 40
0.0000118721701076
 40
0.0019860939172837
 40
0.0019860939172837
 40
0.0031554128857627
 40
0.0031554128857627
 40
0.0031554128857627
 40
0.0031554128857627
 10
234.587300377566
 20
463.3378616633655
 30
0.0
 10
234.5866615541988
 20
463.3378702435477
 30
0.0
 10
234.5860113721344
 20
463.3378785712179
 30
0.0
 10
234.5849389862557
 20
463.3378919494886
 30
0.0
 10
234.5845668410067
 20
463.3378951148772
 30
0.0
 10
234.5842089238909
 20
463.3378970664656
 30
0.0
  0
SPLINE
  5
A9
330
1F
100
AcDbEntity
  8
0
  6
Continuous
 62
     7
370
    25
100
AcDbSpline
210
0.0
220
0.0
230
1.0
 70
     8
 71
     3
 72
    18
 73
    14
 74
     0
 42
0.00000001
 43
0.00000001
 40
0.0
 40
0.0
 40
0.0
 40
0.0
 40
0.1250000000000014
 40
0.1250000000000014
 40
0.2500000000000029
 40
0.2500000000000029
 40
0.5000000000000043
 40
0.5000000000000043
 40
0.6250000000000033
 40
0.6250000000000033
 40
0.7500000000000022
 40
0.7500000000000022
 40
1.0
 40
1.0
 40
1.0
 40
1.0
 10
235.5809354425251
 20
462.3688698784253
 30
0.0
 10
235.5797006916414
 20
462.4324602855888
 30
0.0
 10
235.5744195739458
 20
462.4969689050914
 30
0.0
 10
235.5501936415651
 20
462.6218239854906
 30
0.0
 10
235.5312725930219
 20
462.6835093914491
 30
0.0
 10
235.4540105201986
 20
462.8611670851232
 30
0.0
 10
235.3772823937736
 20
462.9645648931989
 30
0.0
 10
235.2387709495378
 20
463.0995429183201
 30
0.0
 10
235.1894755460594
 20
463.1405959110072
 30
0.0
 10
235.08279465363
 20
463.2124885352298
 30
0.0
 10
235.0249101295644
 20
463.2434860825913
 30
0.0
 10
234.8466754410551
 20
463.3156795974248
 30
0.0
 10
234.7174660096971
 20
463.3361133757674
 30
0.0
 10
234.5873003775684
 20
463.3378616633655
 30
0.0
  0
SPLINE
  5
AA
330
1F
100
AcDbEntity
  8
0
  6
Continuous
 62
     7
370
    25
100
AcDbSpline
210
0.0
220
0.0
230
1.0
 70
     8
 71
     3
 72
    14
 73
    10
 74
     0
 42
0.00000001
 43
0.00000001
 40
-0.0000000599862064
 40
-0.0000000599862064
 40
-0.0000000599862064
 40
-0.0000000599862064
 40
0.0
 40
0.0
 40
0.0
 40
0.0000095015652474
 40
0.0000095015652474
 40
0.0000095015652474
 40
0.0000095615652486
 40
0.0000095615652486
 40
0.0000095615652486
 40
0.0000095615652486
 10
235.5810611424671
 20
462.359297833576
 30
0.0
 10
235.5810610007956
 20
462.3593177382982
 30
0.0
 10
235.581060858235
 20
462.3593376433282
 30
0.0
 10
235.5810607147995
 20
462.3593575477235
 30
0.0
 10
235.5810379952182
 20
462.3625103210362
 30
0.0
 10
235.5809975200649
 20
462.3656567445681
 30
0.0
 10
235.5809365995657
 20
462.3688101388364
 30
0.0
 10
235.5809362148681
 20
462.3688300517302
 30
0.0
 10
235.5809358291843
 20
462.368849965248
 30
0.0
 10
235.5809354425251
 20
462.3688698784253
 30
0.0
  0
SPLINE
  5
AB
330
1F
100
AcDbEntity
  8
0
  6
Continuous
 62
     7
370
    25
100
AcDbSpline
210
0.0
220
0.0
230
1.0
 70
     8
 71
     3
 72
    14
 73
    10
 74
     0
 42
0.00000001
 43
0.00000001
 40
-0.0000000599999949
 40
-0.0000000599999949
 40
-0.0000000599999949
 40
-0.0000000599999949
 40
0.0
 40
0.0
 40
0.0
 40
0.0000040798732373
 40
0.0000040798732373
 40
0.0000040798732373
 40
0.0000041398732269
 40
0.0000041398732269
 40
0.0000041398732269
 40
0.0000041398732269
 10
235.5810756247304
 20
462.3551166844833
 30
0.0
 10
235.5810756083736
 20
462.3551365580951
 30
0.0
 10
235.581075591534
 20
462.3551564311741
 30
0.0
 10
235.5810755741997
 20
462.3551763053175
 30
0.0
 10
235.5810743955028
 20
462.3565277051975
 30
0.0
 10
235.5810710330438
 20
462.3578818366186
 30
0.0
 10
235.581061564275
 20
462.3592379995583
 30
0.0
 10
235.5810614250241
 20
462.3592579437471
 30
0.0
 10
235.581061284423
 20
462.3592778889131
 30
0.0
 10
235.5810611424671
 20
462.359297833576
 30
0.0
  0
LINE
  5
AC
330
1F
100
AcDbEntity
  8
0
  6
Continuous
 62
     7
370
    25
100
AcDbLine
 10
209.3026384712
 20
463.3379218084
 30
0.0
 11
209.3026384712
 21
463.3379337417
 31
0.0
  0
SPLINE
  5
AD
330
1F
100
AcDbEntity
  8
0
  6
Continuous
 62
     7
370
    25
100
AcDbSpline
210
0.0
220
0.0
230
1.0
 70
     8
 71
     3
 72
     8
 73
     4
 74
     0
 42
0.00000001
 43
0.00000001
 40
0.0
 40
0.0
 40
0.0
 40
0.0
 40
0.0020001311197508
 40
0.0020001311197508
 40
0.0020001311197508
 40
0.0020001311197508
 10
211.302769252929
 20
463.3380169458145
 30
0.0
 10
210.6360590106144
 20
463.3379649043346
 30
0.0
 10
209.9693488444346
 20
463.3379337009154
 30
0.0
 10
209.3026384711844
 20
463.3379337416689
 30
0.0
  0
SPLINE
  5
AE
330
1F
100
AcDbEntity
  8
0
  6
Continuous
 62
     7
370
    25
100
AcDbSpline
210
0.0
220
0.0
230
1.0
 70
     8
 71
     3
 72
    14
 73
    10
 74
     0
 42
0.00000001
 43
0.00000001
 40
0.0
 40
0.0
 40
0.0
 40
0.0
 40
0.125
 40
0.125
 40
0.2500000000000001
 40
0.2500000000000001
 40
0.5000000000000001
 40
0.5000000000000001
 40
1.0
 40
1.0
 40
1.0
 40
1.0
 10
234.5842089163701
 20
463.3378971268119
 30
0.0
 10
233.6142225330148
 20
463.3377824618224
 30
0.0
 10
232.6441999613184
 20
463.3377750649615
 30
0.0
 10
230.7041824319707
 20
463.3378908014975
 30
0.0
 10
229.7341638891916
 20
463.3380139372483
 30
0.0
 10
226.8240599758714
 20
463.3384542411794
 30
0.0
 10
224.8839146214288
 20
463.3388422545049
 30
0.0
 10
219.0634593835992
 20
463.339297201462
 30
0.0
 10
215.183116904778
 20
463.3383198344545
 30
0.0
 10
211.3027692214806
 20
463.338016945684
 30
0.0
  0
SPLINE
  5
AF
330
1F
100
AcDbEntity
  8
0
  6
Continuous
 62
     7
370
    25
100
AcDbSpline
210
0.0
220
0.0
230
1.0
 70
    11
 71
     3
 72
    95
 73
    91
 74
     0
 42
0.00000001
 43
0.00000001
 40
0.0
 40
0.0
 40
0.0
 40
0.0
 40
0.0312500000000001
 40
0.0312500000000001
 40
0.0468750000000001
 40
0.0468750000000001
 40
0.0625000000000001
 40
0.0625000000000001
 40
0.0937500000000001
 40
0.0937500000000001
 40
0.1093750000000001
 40
0.1093750000000001
 40
0.1250000000000001
 40
0.1250000000000001
 40
0.1562500000000001
 40
0.1562500000000001
 40
0.1718750000000001
 40
0.1718750000000001
 40
0.1875000000000001
 40
0.203125
 40
0.203125
 40
0.21875
 40
0.21875
 40
0.25
 40
0.25
 40
0.2656250000000001
 40
0.2656250000000001
 40
0.2812500000000001
 40
0.2812500000000001
 40
0.3125000000000003
 40
0.3125000000000003
 40
0.3281250000000006
 40
0.3281250000000006
 40
0.3437500000000008
 40
0.3437500000000008
 40
0.3750000000000011
 40
0.3750000000000011
 40
0.4062500000000014
 40
0.4062500000000014
 40
0.4218750000000013
 40
0.4218750000000013
 40
0.4375000000000013
 40
0.4375000000000013
 40
0.4687500000000013
 40
0.4687500000000013
 40
0.5000000000000012
 40
0.5000000000000012
 40
0.5312500000000013
 40
0.5312500000000013
 40
0.5468750000000013
 40
0.5468750000000013
 40
0.5625000000000013
 40
0.5781250000000014
 40
0.5781250000000014
 40
0.5937500000000014
 40
0.5937500000000014
 40
0.6250000000000016
 40
0.6250000000000016
 40
0.6406250000000016
 40
0.6406250000000016
 40
0.6562500000000017
 40
0.6562500000000017
 40
0.6875000000000016
 40
0.6875000000000016
 40
0.7031250000000016
 40
0.7031250000000016
 40
0.7187500000000014
 40
0.7187500000000014
 40
0.7500000000000014
 40
0.7500000000000014
 40
0.7656250000000013
 40
0.7656250000000013
 40
0.7812500000000013
 40
0.7968750000000012
 40
0.7968750000000012
 40
0.8125000000000011
 40
0.8125000000000011
 40
0.8437500000000011
 40
0.8437500000000011
 40
0.8750000000000011
 40
0.8750000000000011
 40
0.9062500000000011
 40
0.9062500000000011
 40
0.9218750000000009
 40
0.9218750000000009
 40
0.9375000000000007
 40
0.9375000000000007
 40
0.9687500000000003
 40
0.9687500000000003
 40
1.0
 40
1.0
 40
1.0
 40
1.0
 10
201.2542448652069
 20
497.0756641235287
 30
0.0
 10
201.7873685975111
 20
496.54394814574
 30
0.0
 10
202.3637580350547
 20
496.0734285830051
 30
0.0
 10
203.2905871679912
 20
495.4556905502272
 30
0.0
 10
203.609981515615
 20
495.2645605346028
 30
0.0
 10
204.2701498421062
 20
494.9125405463674
 30
0.0
 10
204.6120438627411
 20
494.7513982646153
 30
0.0
 10
205.6479780366401
 20
494.3241711163203
 30
0.0
 10
206.3586959738825
 20
494.1097569578247
 30
0.0
 10
207.4546457872846
 20
493.8927962931602
 30
0.0
 10
207.8262689757771
 20
493.8379256428843
 30
0.0
 10
208.5741705120101
 20
493.7652426944545
 30
0.0
 10
208.9470087157393
 20
493.7476274314733
 30
0.0
 10
210.0622898551302
 20
493.7492060664753
 30
0.0
 10
210.801529929231
 20
493.8223091699174
 30
0.0
 10
211.9038157335281
 20
494.0426197657775
 30
0.0
 10
212.2698043202456
 20
494.1348357615687
 30
0.0
 10
212.9834273409973
 20
494.3524221818452
 30
0.0
 10
213.6828603454754
 20
494.603880895693
 30
0.0
 10
214.3543420928857
 20
494.9220606877137
 30
0.0
 10
215.0116579030465
 20
495.2740552954435
 30
0.0
 10
215.3348690387324
 20
495.4680983994295
 30
0.0
 10
216.2695036277063
 20
496.0942895589484
 30
0.0
 10
216.8429652088652
 20
496.5667522675107
 30
0.0
 10
217.6307017017856
 20
497.3557478123197
 30
0.0
 10
217.8811176222275
 20
497.6322262512683
 30
0.0
 10
218.3568837877527
 20
498.2129629437296
 30
0.0
 10
218.5806370246345
 20
498.5155672389525
 30
0.0
 10
219.2004351860355
 20
499.4457545530892
 30
0.0
 10
219.5498391420584
 20
500.1006768602246
 30
0.0
 10
219.9777192265921
 20
501.1355475362592
 30
0.0
 10
220.1047155669787
 20
501.4913369704933
 30
0.0
 10
220.321216675396
 20
502.2080662836185
 30
0.0
 10
220.4111516786629
 20
502.5694240809842
 30
0.0
 10
220.6273289751163
 20
503.6622613534298
 30
0.0
 10
220.7004670176575
 20
504.4024191641989
 30
0.0
 10
220.6992441332012
 20
505.9068391757959
 30
0.0
 10
220.6246210845376
 20
506.6488834887339
 30
0.0
 10
220.4065659213782
 20
507.7409848736849
 30
0.0
 10
220.3160622723351
 20
508.101861322487
 30
0.0
 10
220.0986677265079
 20
508.817166621955
 30
0.0
 10
219.9710284117359
 20
509.1729956256266
 30
0.0
 10
219.540806895443
 20
510.2085047433686
 30
0.0
 10
219.1900636770704
 20
510.8628546352288
 30
0.0
 10
218.3622993193786
 20
512.1004647616497
 30
0.0
 10
217.8803214441951
 20
512.6867981644622
 30
0.0
 10
216.8274393586702
 20
513.7376425933811
 30
0.0
 10
216.2533170865827
 20
514.2087754120321
 30
0.0
 10
215.3191568895172
 20
514.8323839597765
 30
0.0
 10
214.9949875598789
 20
515.0263134013901
 30
0.0
 10
214.3362873713922
 20
515.3775861723087
 30
0.0
 10
213.6638279654593
 20
515.694738431168
 30
0.0
 10
212.9643114341719
 20
515.9447936348688
 30
0.0
 10
212.2511056463883
 20
516.1609018177338
 30
0.0
 10
211.8859494433381
 20
516.2523019993588
 30
0.0
 10
210.7814213468406
 20
516.4711486517181
 30
0.0
 10
210.0416589947646
 20
516.542850600864
 30
0.0
 10
208.9270537791952
 20
516.5424547259969
 30
0.0
 10
208.5546857641727
 20
516.5242008656594
 30
0.0
 10
207.8082361998209
 20
516.4504126892075
 30
0.0
 10
207.4354378337192
 20
516.3947747749918
 30
0.0
 10
206.3387330632964
 20
516.1756799645804
 30
0.0
 10
205.6285107433883
 20
515.9598993976009
 30
0.0
 10
204.5946148518205
 20
515.5314315039053
 30
0.0
 10
204.2534212717643
 20
515.3699662359105
 30
0.0
 10
203.5928247142424
 20
515.0162866327993
 30
0.0
 10
203.2734684119154
 20
514.8244021422977
 30
0.0
 10
202.3473813845081
 20
514.204775131549
 30
0.0
 10
201.7723228023341
 20
513.7334849450119
 30
0.0
 10
200.9754814756809
 20
512.9361513400867
 30
0.0
 10
200.723532821391
 20
512.6576431249914
 30
0.0
 10
200.2514545031062
 20
512.0816078953447
 30
0.0
 10
199.8094366399236
 20
511.4848027218193
 30
0.0
 10
199.4269526819057
 20
510.8468632452693
 30
0.0
 10
199.0748094203044
 20
510.1879601951554
 30
0.0
 10
198.913293797191
 20
509.8462308840198
 30
0.0
 10
198.4844955285701
 20
508.8092608433543
 30
0.0
 10
198.2695400716125
 20
508.0985317492691
 30
0.0
 10
197.9792138270794
 20
506.6388541753689
 30
0.0
 10
197.905023774916
 20
505.8834226932574
 30
0.0
 10
197.905807939295
 20
504.3952954697318
 30
0.0
 10
197.9783625471834
 20
503.6562990434185
 30
0.0
 10
198.1972593387017
 20
502.5555330574499
 30
0.0
 10
198.2892025321981
 20
502.1889407951833
 30
0.0
 10
198.5063903583575
 20
501.4742287268372
 30
0.0
 10
198.6319060433077
 20
501.1241765617005
 30
0.0
 10
199.0582782626219
 20
500.0955258801472
 30
0.0
 10
199.4098436449973
 20
499.436179925692
 30
0.0
 10
200.2457062542746
 20
498.1858994787276
 30
0.0
 10
200.7211211329026
 20
497.6073801013173
 30
0.0
 10
201.2542448652069
 20
497.0756641235287
 30
0.0
  0
ARC
  5
B0
330
1F
100
AcDbEntity
  8
0
  6
Continuous
 62
     7
370
    25
100
AcDbCircle
 10
209.3026368077
 20
-9458.2557123473
 30
0.0
 40
10000.0
100
AcDbArc
 50
89.5831904602
 51
90.4168095398
  0
ARC
  5
B1
330
1F
100
AcDbEntity
  8
0
  6
Continuous
 62
     7
370
    25
100
AcDbCircle
 10
209.3026368077
 20
10392.7442876527
 30
0.0
 40
10000.0
100
AcDbArc
 50
269.5831904602
 51
269.8502671786
  0
ARC
  5
B2
330
1F
100
AcDbEntity
  8
0
  6
Continuous
 62
     7
370
    25
100
AcDbCircle
 10
209.3026368077
 20
10392.7442876527
 30
0.0
 40
10000.0
100
AcDbArc
 50
270.1497289294
 51
270.4168095398
  0
ARC
  5
B3
330
1F
100
AcDbEntity
  8
0
  6
Continuous
 62
     7
370
    25
100
AcDbCircle
 10
-9716.1973631923
 20
467.2442876527
 30
0.0
 40
10000.0
100
AcDbArc
 50
359.5831904602
 51
0.4168095398
  0
ARC
  5
B4
330
1F
100
AcDbEntity
  8
0
  6
Continuous
 62
     7
370
    25
100
AcDbCircle
 10
10134.8026368077
 20
467.2442876527
 30
0.0
 40
9999.999999999995
100
AcDbArc
 50
179.5831904602
 51
180.4168095398
  0
ARC
  5
B5
330
1F
100
AcDbEntity
  8
0
  6
Continuous
 62
     7
370
    25
100
AcDbCircle
 10
282.0380714506
 20
539.9797222955
 30
0.0
 40
1.500000000000152
100
AcDbArc
 50
0.4168095398
 51
89.5831904602
  0
ARC
  5
B6
330
1F
100
AcDbEntity
  8
0
  6
Continuous
 62
     7
370
    25
100
AcDbCircle
 10
282.0380714506
 20
394.5088530099
 30
0.0
 40
1.500000000000095
100
AcDbArc
 50
270.4168095398
 51
359.5831904602
  0
ARC
  5
B7
330
1F
100
AcDbEntity
  8
0
  6
Continuous
 62
     7
370
    25
100
AcDbCircle
 10
136.5672021649
 20
394.5088530099
 30
0.0
 40
1.500000000000095
100
AcDbArc
 50
180.4168095398
 51
269.5831904602
  0
ARC
  5
B8
330
1F
100
AcDbEntity
  8
0
  6
Continuous
 62
     7
370
    25
100
AcDbCircle
 10
136.5672021649
 20
539.9797222955
 30
0.0
 40
1.500000000000152
100
AcDbArc
 50
90.4168095398
 51
179.5831904602
  0
LWPOLYLINE
  5
B9
330
1F
100
AcDbEntity
  8
0
  6
Continuous
 62
     8
370
    18
100
AcDbPolyline
 90
        5
 70
   128
 43
0.0
 10
234.5570938856
 20
354.6143467407
 10
221.9300861025
 20
354.6143272197
 10
209.303078314
 20
354.6143320575
 10
196.6756845637
 20
354.6143256762
 10
184.0482908133
 20
354.6143436537
  0
SPLINE
  5
BA
330
1F
100
AcDbEntity
  8
0
  6
Continuous
 62
     8
370
    18
100
AcDbSpline
210
0.0
220
0.0
230
1.0
 70
     8
 71
     3
 72
    10
 73
     6
 74
     0
 42
0.00000001
 43
0.00000001
 40
0.0
 40
0.0
 40
0.0
 40
0.0
 40
0.5
 40
0.5
 40
1.0
 40
1.0
 40
1.0
 40
1.0
 10
184.0483230451137
 20
355.7485318070606
 30
0.0
 10
184.0483230277356
 20
355.4901558298119
 30
0.0
 10
184.0482476766946
 20
355.2175121704258
 30
0.0
 10
184.0479888439105
 20
354.7976003088387
 30
0.0
 10
184.0478069552915
 20
354.6529166780276
 30
0.0
 10
184.0476239336679
 20
354.6143432242288
 30
0.0
  0
SPLINE
  5
BB
330
1F
100
AcDbEntity
  8
0
  6
Continuous
 62
     8
370
    18
100
AcDbSpline
210
0.0
220
0.0
230
1.0
 70
     8
 71
     3
 72
    17
 73
    13
 74
     0
 42
0.00000001
 43
0.00000001
 40
0.0
 40
0.0
 40
0.0
 40
0.0
 40
0.0019959000010736
 40
0.0019959000010736
 40
0.0019959000010736
 40
0.0099795000695275
 40
0.0099795000695275
 40
0.0099795000695275
 40
0.0259467000977572
 40
0.0259467000977572
 40
0.0259467000977572
 40
0.0505087386333678
 40
0.0505087386333678
 40
0.0505087386333678
 40
0.0505087386333678
 10
184.0483230483707
 20
355.7485333440757
 30
0.0
 10
184.7136230315374
 20
355.748382102711
 30
0.0
 10
185.3789230201851
 20
355.7482536814079
 30
0.0
 10
186.0442230116792
 20
355.7481450823872
 30
0.0
 10
188.7054229882853
 20
355.7477106863027
 30
0.0
 10
191.3666230173399
 20
355.7475935295497
 30
0.0
 10
194.0278230293872
 20
355.7476019675943
 30
0.0
 10
199.3502230300535
 20
355.7476188436832
 30
0.0
 10
204.6726230278134
 20
355.7479235117539
 30
0.0
 10
209.9950230284899
 20
355.7479102675743
 30
0.0
 10
218.1823691923323
 20
355.747889894306
 30
0.0
 10
226.3697155600191
 20
355.7466742487098
 30
0.0
 10
234.5570615121119
 20
355.7485364130214
 30
0.0
  0
SPLINE
  5
BC
330
1F
100
AcDbEntity
  8
0
  6
Continuous
 62
     8
370
    18
100
AcDbSpline
210
0.0
220
0.0
230
1.0
 70
     8
 71
     3
 72
    10
 73
     6
 74
     0
 42
0.00000001
 43
0.00000001
 40
0.0
 40
0.0
 40
0.0
 40
0.0
 40
0.5
 40
0.5
 40
1.0
 40
1.0
 40
1.0
 40
1.0
 10
234.5577051914296
 20
354.6143467436819
 30
0.0
 10
234.5575948493852
 20
354.6529202360201
 30
0.0
 10
234.5574845528999
 20
354.797604070796
 30
0.0
 10
234.5572688003797
 20
355.2175164066858
 30
0.0
 10
234.557163418017
 20
355.4901603244923
 30
0.0
 10
234.5570615178459
 20
355.7485364130227
 30
0.0
  0
SPLINE
  5
BD
330
1F
100
AcDbEntity
  8
0
  6
Continuous
 62
     8
370
    18
100
AcDbSpline
210
0.0
220
0.0
230
1.0
 70
     8
 71
     3
 72
     8
 73
     4
 74
     0
 42
0.00000001
 43
0.00000001
 40
0.0
 40
0.0
 40
0.0
 40
0.0
 40
0.000030896217016
 40
0.000030896217016
 40
0.000030896217016
 40
0.000030896217016
 10
184.0476239358766
 20
354.6143436897506
 30
0.0
 10
184.0373251993989
 20
354.614344754554
 30
0.0
 10
184.0270246597702
 20
354.6143218519296
 30
0.0
 10
184.0167316046706
 20
354.6142713349757
 30
0.0
  0
SPLINE
  5
BE
330
1F
100
AcDbEntity
  8
0
  6
Continuous
 62
     8
370
    18
100
AcDbSpline
210
0.0
220
0.0
230
1.0
 70
     8
 71
     3
 72
    22
 73
    18
 74
     0
 42
0.00000001
 43
0.00000001
 40
0.0
 40
0.0
 40
0.0
 40
0.0
 40
0.125
 40
0.125
 40
0.25
 40
0.25
 40
0.375
 40
0.375
 40
0.5
 40
0.5
 40
0.625
 40
0.625
 40
0.75
 40
0.75
 40
0.875
 40
0.875
 40
1.0
 40
1.0
 40
1.0
 40
1.0
 10
183.9294123932076
 20
355.7480533357385
 30
0.0
 10
183.9294130772919
 20
355.6831043619168
 30
0.0
 10
183.9299931475037
 20
355.6171471004442
 30
0.0
 10
183.9322432790402
 20
355.486201931942
 30
0.0
 10
183.9339133403648
 20
355.4212140249124
 30
0.0
 10
183.9382746729844
 20
355.2951934950414
 30
0.0
 10
183.9409910644542
 20
355.2331987199181
 30
0.0
 10
183.9473768447407
 20
355.1146876995808
 30
0.0
 10
183.9509920444839
 20
355.0589717904116
 30
0.0
 10
183.9590478625855
 20
354.9544582437738
 30
0.0
 10
183.9635414791746
 20
354.9052658789862
 30
0.0
 10
183.9730290445723
 20
354.8178012436874
 30
0.0
 10
183.9780418365621
 20
354.7791067531408
 30
0.0
 10
183.9886103296656
 20
354.7118850130715
 30
0.0
 10
183.9941508689576
 20
354.6836365158842
 30
0.0
 10
184.0053011151336
 20
354.639876241868
 30
0.0
 10
184.0109687362673
 20
354.623965623418
 30
0.0
 10
184.0167316046702
 20
354.6142713349757
 30
0.0
  0
SPLINE
  5
BF
330
1F
100
AcDbEntity
  8
0
  6
Continuous
 62
     8
370
    18
100
AcDbSpline
210
0.0
220
0.0
230
1.0
 70
     8
 71
     3
 72
    11
 73
     7
 74
     0
 42
0.00000001
 43
0.00000001
 40
0.0
 40
0.0
 40
0.0
 40
0.0
 40
0.0001189070178923
 40
0.0001189070178923
 40
0.0001189070178923
 40
0.0001189670178923
 40
0.0001189670178923
 40
0.0001189670178923
 40
0.0001189670178923
 10
183.9294123932076
 20
355.7480533357385
 30
0.0
 10
183.968967191512
 20
355.7484046540353
 30
0.0
 10
184.0086273833153
 20
355.7485547585195
 30
0.0
 10
184.0482630423826
 20
355.748531841884
 30
0.0
 10
184.0482830423758
 20
355.7485318303204
 30
0.0
 10
184.0483030423687
 20
355.748531818713
 30
0.0
 10
184.0483230423615
 20
355.7485318070609
 30
0.0
  0
SPLINE
  5
C0
330
1F
100
AcDbEntity
  8
0
  6
Continuous
 62
     8
370
    18
100
AcDbSpline
210
0.0
220
0.0
230
1.0
 70
     8
 71
     3
 72
     8
 73
     4
 74
     0
 42
0.00000001
 43
0.00000001
 40
0.0
 40
0.0
 40
0.0
 40
0.0
 40
0.0000308407806364
 40
0.0000308407806364
 40
0.0000308407806364
 40
0.0000308407806364
 10
234.588542128725
 20
354.614274358916
 30
0.0
 10
234.5782675422202
 20
354.614324784
 30
0.0
 10
234.567985449612
 20
354.6143472295939
 30
0.0
 10
234.5577051915379
 20
354.6143462499816
 30
0.0
  0
SPLINE
  5
C1
330
1F
100
AcDbEntity
  8
0
  6
Continuous
 62
     8
370
    18
100
AcDbSpline
210
0.0
220
0.0
230
1.0
 70
     8
 71
     3
 72
     8
 73
     4
 74
     0
 42
0.00000001
 43
0.00000001
 40
0.0
 40
0.0
 40
0.0
 40
0.0
 40
0.0001146398046333
 40
0.0001146398046333
 40
0.0001146398046333
 40
0.0001146398046333
 10
234.5570615179602
 20
355.7485348914992
 30
0.0
 10
234.5952747737356
 20
355.7485568450946
 30
0.0
 10
234.6335098058823
 20
355.7484179674565
 30
0.0
 10
234.6716509886928
 20
355.74809299503
 30
0.0
  0
SPLINE
  5
C2
330
1F
100
AcDbEntity
  8
0
  6
Continuous
 62
     8
370
    18
100
AcDbSpline
210
0.0
220
0.0
230
1.0
 70
     8
 71
     3
 72
    18
 73
    14
 74
     0
 42
0.00000001
 43
0.00000001
 40
0.0
 40
0.0
 40
0.0
 40
0.0
 40
0.0585927991096655
 40
0.1248472710093827
 40
0.1987615293743509
 40
0.28033263675453
 40
0.3695570063738841
 40
0.4664308153982543
 40
0.5709504272317087
 40
0.6705238674346183
 40
0.7752236510405216
 40
0.8850491402353241
 40
0.9999999999999999
 40
0.9999999999999999
 40
0.9999999999999999
 40
0.9999999999999999
 10
234.5885421287254
 20
354.614274358916
 30
0.0
 10
234.5910745389701
 20
354.6195879251404
 30
0.0
 10
234.5964705008107
 20
354.6309098666165
 30
0.0
 10
234.6049175774573
 20
354.6613428751076
 30
0.0
 10
234.6142031544749
 20
354.7064979720734
 30
0.0
 10
234.6241312063699
 20
354.7705848441054
 30
0.0
 10
234.6343959774039
 20
354.8562501060568
 30
0.0
 10
234.6445534676878
 20
354.9659008068177
 30
0.0
 10
234.6536121049972
 20
355.0953795990933
 30
0.0
 10
234.6611927160633
 20
355.2412522923929
 30
0.0
 10
234.6669660350084
 20
355.3991390912346
 30
0.0
 10
234.6708928555563
 20
355.5710406192689
 30
0.0
 10
234.671394465066
 20
355.6881851563451
 30
0.0
 10
234.6716509886934
 20
355.74809299503
 30
0.0
  0
SPLINE
  5
C3
330
1F
100
AcDbEntity
  8
0
  6
Continuous
 62
     8
370
    18
100
AcDbSpline
210
0.0
220
0.0
230
1.0
 70
     8
 71
     3
 72
    14
 73
    10
 74
     0
 42
0.00000001
 43
0.00000001
 40
0.0
 40
0.0
 40
0.0
 40
0.0
 40
0.25
 40
0.25
 40
0.5
 40
0.5
 40
0.75
 40
0.75
 40
1.0
 40
1.0
 40
1.0
 40
1.0
 10
234.6716509886927
 20
355.7480929950302
 30
0.0
 10
234.798279189481
 20
355.7470240718775
 30
0.0
 10
234.9247790682591
 20
355.7439311708175
 30
0.0
 10
235.162639388088
 20
355.7310146725229
 30
0.0
 10
235.2732663180533
 20
355.7208882638861
 30
0.0
 10
235.444913929633
 20
355.6935256184307
 30
0.0
 10
235.5043589543762
 20
355.6764485357525
 30
0.0
 10
235.574577391604
 20
355.6406741547485
 30
0.0
 10
235.5865532983849
 20
355.6219207457007
 30
0.0
 10
235.586488084549
 20
355.6032453164129
 30
0.0
  0
SPLINE
  5
C4
330
1F
100
AcDbEntity
  8
0
  6
Continuous
 62
     8
370
    18
100
AcDbSpline
210
0.0
220
0.0
230
1.0
 70
     8
 71
     3
 72
    22
 73
    18
 74
     0
 42
0.00000001
 43
0.00000001
 40
0.0
 40
0.0
 40
0.0
 40
0.0
 40
0.125
 40
0.125
 40
0.25
 40
0.25
 40
0.375
 40
0.375
 40
0.5
 40
0.5
 40
0.625
 40
0.625
 40
0.75
 40
0.75
 40
0.875
 40
0.875
 40
1.0
 40
1.0
 40
1.0
 40
1.0
 10
234.588542128725
 20
354.614274358916
 30
0.0
 10
234.6544670096245
 20
354.6143448215302
 30
0.0
 10
234.7192982373328
 20
354.6208123596411
 30
0.0
 10
234.8468394031048
 20
354.6460183540303
 30
0.0
 10
234.9102136484221
 20
354.6650615795447
 30
0.0
 10
235.03106757497
 20
354.7147320506702
 30
0.0
 10
235.0883871198664
 20
354.745109789619
 30
0.0
 10
235.196867022105
 20
354.8168510163694
 30
0.0
 10
235.2482291085417
 20
354.8585961031889
 30
0.0
 10
235.3402906181487
 20
354.9497634661442
 30
0.0
 10
235.3816008974225
 20
354.9994982626799
 30
0.0
 10
235.4545551513915
 20
355.1074682583568
 30
0.0
 10
235.4855581580722
 20
355.164953630076
 30
0.0
 10
235.5353284030998
 20
355.2837748359692
 30
0.0
 10
235.5543713825023
 20
355.3460174530957
 30
0.0
 10
235.5799830016387
 20
355.4732750395964
 30
0.0
 10
235.5865516413726
 20
355.5382900089708
 30
0.0
 10
235.586488084549
 20
355.6032453164129
 30
0.0
  0
SPLINE
  5
C5
330
1F
100
AcDbEntity
  8
0
  6
Continuous
 62
     8
370
    18
100
AcDbSpline
210
0.0
220
0.0
230
1.0
 70
     8
 71
     3
 72
    19
 73
    15
 74
     0
 42
0.00000001
 43
0.00000001
 40
0.0
 40
0.0
 40
0.0
 40
0.0
 40
0.0624894014124913
 40
0.1287707147465773
 40
0.1988433957153783
 40
0.2727068594256384
 40
0.3503604817339785
 40
0.4318036002888241
 40
0.5170355153421109
 40
0.6060554903896045
 40
0.698862752681919
 40
0.7954564936369698
 40
0.8958358691759707
 40
1.0
 40
1.0
 40
1.0
 40
1.0
 10
183.018785528087
 20
355.6032422651346
 30
0.0
 10
183.01968648133
 20
355.5709388276097
 30
0.0
 10
183.0215430584524
 20
355.5043717515163
 30
0.0
 10
183.0376189201866
 20
355.4025645257441
 30
0.0
 10
183.0653609948225
 20
355.2972483644299
 30
0.0
 10
183.1073186972664
 20
355.190190458399
 30
0.0
 10
183.164573084324
 20
355.0835731811013
 30
0.0
 10
183.2382783156051
 20
354.9799966161352
 30
0.0
 10
183.3290718716823
 20
354.8824484018285
 30
0.0
 10
183.437091157073
 20
354.794315259804
 30
0.0
 10
183.5618098744778
 20
354.7190839583777
 30
0.0
 10
183.7019306562343
 20
354.6611167232271
 30
0.0
 10
183.8552748864631
 20
354.6219871340826
 30
0.0
 10
183.9622528788732
 20
354.6168747999075
 30
0.0
 10
184.0167316046702
 20
354.6142713349757
 30
0.0
  0
SPLINE
  5
C6
330
1F
100
AcDbEntity
  8
0
  6
Continuous
 62
     8
370
    18
100
AcDbSpline
210
0.0
220
0.0
230
1.0
 70
     8
 71
     3
 72
    14
 73
    10
 74
     0
 42
0.00000001
 43
0.00000001
 40
0.0
 40
0.0
 40
0.0
 40
0.0
 40
0.25
 40
0.25
 40
0.5
 40
0.5
 40
0.75
 40
0.75
 40
1.0
 40
1.0
 40
1.0
 40
1.0
 10
183.018785528087
 20
355.6032422651347
 30
0.0
 10
183.0187204949196
 20
355.6218659191046
 30
0.0
 10
183.0306280721937
 20
355.6405663265791
 30
0.0
 10
183.1004000638574
 20
355.6762526697372
 30
0.0
 10
183.1594428633677
 20
355.6932955814308
 30
0.0
 10
183.3300747239595
 20
355.7206563458801
 30
0.0
 10
183.4401426414659
 20
355.7308121576168
 30
0.0
 10
183.677057709222
 20
355.74380361012
 30
0.0
 10
183.8031556774985
 20
355.74694258487
 30
0.0
 10
183.9294123932076
 20
355.7480533357385
 30
0.0
  0
LINE
  5
C7
330
1F
100
AcDbEntity
  8
0
  6
Continuous
 62
     8
370
    18
100
AcDbLine
 10
234.5500006926
 20
362.8524342045
 30
0.0
 11
234.5568116853
 21
355.8904931275
 31
0.0
  0
LINE
  5
C8
330
1F
100
AcDbEntity
  8
0
  6
Continuous
 62
     8
370
    18
100
AcDbLine
 10
234.5500005011
 20
362.8524342044
 30
0.0
 11
234.5499972335
 21
362.8557741738
 31
0.0
  0
LINE
  5
C9
330
1F
100
AcDbEntity
  8
0
  6
Continuous
 62
     8
370
    18
100
AcDbLine
 10
234.5570615121
 20
355.748536413
 30
0.0
 11
234.5568116062
 21
355.8904935341
 31
0.0
  0
LINE
  5
CA
330
1F
100
AcDbEntity
  8
0
  6
Continuous
 62
     8
370
    18
100
AcDbLine
 10
184.0552731144
 20
362.8524342044
 30
0.0
 11
184.055276382
 21
362.8557741738
 31
0.0
  0
LINE
  5
CB
330
1F
100
AcDbEntity
  8
0
  6
Continuous
 62
     8
370
    18
100
AcDbLine
 10
184.0552729229
 20
362.8524342045
 30
0.0
 11
184.0483230484
 21
355.7485333441
 31
0.0
  0
LINE
  5
CC
330
1F
100
AcDbEntity
  8
0
  6
Continuous
 62
     8
370
    18
100
AcDbLine
 10
184.0167316047
 20
354.614271335
 30
0.0
 11
184.0156035552
 21
354.2896357817
 31
0.0
  0
LINE
  5
CD
330
1F
100
AcDbEntity
  8
0
  6
Continuous
 62
     8
370
    18
100
AcDbLine
 10
183.0176455946
 20
355.2751865686
 30
0.0
 11
183.0187855281
 21
355.6032422651
 31
0.0
  0
LINE
  5
CE
330
1F
100
AcDbEntity
  8
0
  6
Continuous
 62
     8
370
    18
100
AcDbLine
 10
235.5864880845
 20
355.6032453164
 30
0.0
 11
235.5876280181
 21
355.2751895887
 31
0.0
  0
LINE
  5
CF
330
1F
100
AcDbEntity
  8
0
  6
Continuous
 62
     8
370
    18
100
AcDbLine
 10
234.5896701782
 20
354.2896388002
 30
0.0
 11
234.5885421287
 21
354.6142743589
 31
0.0
  0
SPLINE
  5
D0
330
1F
100
AcDbEntity
  8
0
  6
Continuous
 62
     8
370
    18
100
AcDbSpline
210
0.0
220
0.0
230
1.0
 70
     8
 71
     3
 72
     8
 73
     4
 74
     0
 42
0.00000001
 43
0.00000001
 40
0.0
 40
0.0
 40
0.0
 40
0.0
 40
0.0019998841022027
 40
0.0019998841022027
 40
0.0019998841022027
 40
0.0019998841022027
 10
207.3027511796984
 20
354.2865026303064
 30
0.0
 10
207.9693782888733
 20
354.2863387004545
 30
0.0
 10
208.6360069947195
 20
354.2863550203332
 30
0.0
 10
209.3026350287598
 20
354.2863541699472
 30
0.0
  0
SPLINE
  5
D1
330
1F
100
AcDbEntity
  8
0
  6
Continuous
 62
     8
370
    18
100
AcDbSpline
210
0.0
220
0.0
230
1.0
 70
     8
 71
     3
 72
     8
 73
     4
 74
     0
 42
0.00000001
 43
0.00000001
 40
0.0
 40
0.0
 40
0.0
 40
0.0
 40
0.0019998832687284
 40
0.0019998832687284
 40
0.0019998832687284
 40
0.0019998832687284
 10
209.3026350287598
 20
354.2863541699425
 30
0.0
 10
209.9692627849755
 20
354.2863550983757
 30
0.0
 10
210.635891212991
 20
354.2863388564867
 30
0.0
 10
211.3025180443662
 20
354.2865028638047
 30
0.0
  0
SPLINE
  5
D2
330
1F
100
AcDbEntity
  8
0
  6
Continuous
 62
     8
370
    18
100
AcDbSpline
210
0.0
220
0.0
230
1.0
 70
     8
 71
     3
 72
     9
 73
     5
 74
     0
 42
0.00000001
 43
0.00000001
 40
0.0
 40
0.0
 40
0.0
 40
0.0
 40
0.6994779454583201
 40
0.9999999999999999
 40
0.9999999999999999
 40
0.9999999999999999
 40
0.9999999999999999
 10
235.5744016308433
 20
426.2706717831745
 30
0.0
 10
235.568105460502
 20
416.1129781686452
 30
0.0
 10
235.5591042183869
 20
401.5911570297762
 30
0.0
 10
235.5677458605705
 20
387.0693929685445
 30
0.0
 10
235.5703428646341
 20
382.7052825972937
 30
0.0
  0
LINE
  5
D3
330
1F
100
AcDbEntity
  8
0
  6
Continuous
 62
     8
370
    18
100
AcDbLine
 10
235.581081886
 20
461.3630325559
 30
0.0
 11
235.5810754203
 21
462.3551048203
 31
0.0
  0
SPLINE
  5
D4
330
1F
100
AcDbEntity
  8
0
  6
Continuous
 62
     8
370
    18
100
AcDbSpline
210
0.0
220
0.0
230
1.0
 70
     8
 71
     3
 72
     8
 73
     4
 74
     0
 42
0.00000001
 43
0.00000001
 40
0.0000000304106937
 40
0.0000000304106937
 40
0.0000000304106937
 40
0.0000000304106937
 40
25.49800359297944
 40
25.49800359297944
 40
25.49800359297944
 40
25.49800359297944
 10
183.0269044561547
 20
437.1359810764482
 30
0.0
 10
183.0240768417873
 20
445.5423908091136
 30
0.0
 10
183.0224711399365
 20
453.9487813887649
 30
0.0
 10
183.0241979907696
 20
462.3551050309293
 30
0.0
  0
SPLINE
  5
D5
330
1F
100
AcDbEntity
  8
0
  6
Continuous
 62
     8
370
    18
100
AcDbSpline
210
0.0
220
0.0
230
1.0
 70
     8
 71
     3
 72
     9
 73
     5
 74
     0
 42
0.00000001
 43
0.00000001
 40
0.0
 40
0.0
 40
0.0
 40
0.0
 40
0.6994794625126329
 40
1.0
 40
1.0
 40
1.0
 40
1.0
 10
183.0307222278143
 20
426.27067619061
 30
0.0
 10
183.0371078784423
 20
416.1129952126743
 30
0.0
 10
183.0462370251439
 20
401.5912236349244
 30
0.0
 10
183.0375598710694
 20
387.0694519291852
 30
0.0
 10
183.0349522080631
 20
382.7053612909077
 30
0.0
  0
SPLINE
  5
D6
330
1F
100
AcDbEntity
  8
0
  6
Continuous
 62
     8
370
    18
100
AcDbSpline
210
0.0
220
0.0
230
1.0
 70
     8
 71
     3
 72
    20
 73
    16
 74
     0
 42
0.00000001
 43
0.00000001
 40
0.0033827405399668
 40
0.0033827405399668
 40
0.0033827405399668
 40
0.0033827405399668
 40
12.5909745770832
 40
12.5909745770832
 40
18.8864618656249
 40
18.8864618656249
 40
25.1819491541665
 40
25.1819491541665
 40
31.4774364427081
 40
31.4774364427081
 40
37.7729237312497
 40
37.7729237312497
 40
50.363898308333
 40
50.363898308333
 40
74.22739611255612
 40
74.22739611255612
 40
74.22739611255612
 40
74.22739611255612
 10
234.5499972334669
 20
362.8557741735723
 30
0.0
 10
234.5459442462032
 20
366.9985855426248
 30
0.0
 10
234.5422597741357
 20
371.1417828999247
 30
0.0
 10
234.5381955867227
 20
377.3565692382809
 30
0.0
 10
234.5370704795881
 20
379.4288974107532
 30
0.0
 10
234.5353159694584
 20
383.5726940235886
 30
0.0
 10
234.5346938944569
 20
385.6450085450326
 30
0.0
 10
234.5339439050351
 20
389.7888212599053
 30
0.0
 10
234.5338017667868
 20
391.8609224379006
 30
0.0
 10
234.5338907850626
 20
396.0050399473085
 30
0.0
 10
234.534117962727
 20
398.0771380587115
 30
0.0
 10
234.53522628973
 20
404.2932357135607
 30
0.0
 10
234.53654174139
 20
408.4372893024273
 30
0.0
 10
234.5411258662777
 20
420.4359395469265
 30
0.0
 10
234.5450739641274
 20
428.2896137191333
 30
0.0
 10
234.547786818676
 20
436.1440110349599
 30
0.0
  0
SPLINE
  5
D7
330
1F
100
AcDbEntity
  8
0
  6
Continuous
 62
     8
370
    18
100
AcDbSpline
210
0.0
220
0.0
230
1.0
 70
     8
 71
     3
 72
    14
 73
    10
 74
     0
 42
0.00000001
 43
0.00000001
 40
0.003383834180105
 40
0.003383834180105
 40
0.003383834180105
 40
0.003383834180105
 40
6.933820444382824
 40
18.15533585749842
 40
29.37685127061392
 40
40.59836668372952
 40
51.81988209684512
 40
63.04139750996062
 40
74.25952908889612
 40
74.25952908889612
 40
74.25952908889612
 40
74.25952908889612
 10
184.0574867399646
 20
436.1440110348748
 30
0.0
 10
184.0582739853171
 20
433.8638420239119
 30
0.0
 10
184.0606069423702
 20
427.9011032614524
 30
0.0
 10
184.0649503006469
 20
418.231394391729
 30
0.0
 10
184.0693643180812
 20
407.1569991818151
 30
0.0
 10
184.0718507522073
 20
396.0805363496276
 30
0.0
 10
184.0711398223127
 20
385.0045137589242
 30
0.0
 10
184.0655271908359
 20
373.9296022751498
 30
0.0
 10
184.0588871835201
 20
366.5466769224439
 30
0.0
 10
184.0552767773943
 20
362.8557741732707
 30
0.0
  0
LINE
  5
D8
330
1F
100
AcDbEntity
  8
0
  6
Continuous
 62
     8
370
    18
100
AcDbLine
 10
209.3026352916
 20
354.2841622312
 30
0.0
 11
209.3026350288
 21
354.2863541699
 31
0.0
  0
LWPOLYLINE
  5
D9
330
1F
100
AcDbEntity
  8
0
  6
Continuous
 62
     8
370
    18
100
AcDbPolyline
 90
        3
 70
   128
 43
0.0
 10
184.0544403585
 20
462.3104345904
 10
184.0544860834
 20
449.2221450757
 10
184.057486342
 20
436.1440110348
  0
SPLINE
  5
DA
330
1F
100
AcDbEntity
  8
0
  6
Continuous
 62
     8
370
    18
100
AcDbSpline
210
0.0
220
0.0
230
1.0
 70
     8
 71
     3
 72
    18
 73
    14
 74
     0
 42
0.00000001
 43
0.00000001
 40
74.22739611233006
 40
74.22739611233006
 40
74.22739611233006
 40
74.22739611233006
 40
75.5458474624995
 40
75.5458474624995
 40
81.8413347510411
 40
81.8413347510411
 40
88.1368220395827
 40
88.1368220395827
 40
94.4323093281243
 40
94.4323093281243
 40
97.5800529723951
 40
97.5800529723951
 40
100.727796616666
 40
100.727796616666
 40
100.727796616666
 40
100.727796616666
 10
234.5477868755342
 20
436.1440110349509
 30
0.0
 10
234.5479367599693
 20
436.5779642144121
 30
0.0
 10
234.5480828737866
 20
437.0119196012906
 30
0.0
 10
234.5489027673728
 20
439.5179873578474
 30
0.0
 10
234.5494847991636
 20
441.5899117704765
 30
0.0
 10
234.5503835373472
 20
445.7341373415541
 30
0.0
 10
234.5506891443034
 20
447.8062666062918
 30
0.0
 10
234.5509938133416
 20
451.9502042608273
 30
0.0
 10
234.5510056279864
 20
454.0221361209186
 30
0.0
 10
234.5509606476114
 20
457.1302230199329
 30
0.0
 10
234.5509345060909
 20
458.1662928885808
 30
0.0
 10
234.5508666850231
 20
460.2384722334754
 30
0.0
 10
234.5508253295392
 20
461.2744059351615
 30
0.0
 10
234.5508333143309
 20
462.3104341183646
 30
0.0
  0
LWPOLYLINE
  5
DB
330
1F
100
AcDbEntity
  8
0
  6
Continuous
 62
     8
370
    18
100
AcDbPolyline
 90
        3
 70
   128
 43
0.0
 10
209.3026352286
 20
462.3104971813
 10
196.6785763974
 20
462.3116092397
 10
184.054440358
 20
462.3104346848
  0
SPLINE
  5
DC
330
1F
100
AcDbEntity
  8
0
  6
Continuous
 62
     8
370
    18
100
AcDbSpline
210
0.0
220
0.0
230
1.0
 70
     8
 71
     3
 72
     9
 73
     5
 74
     0
 42
0.00000001
 43
0.00000001
 40
25.24838425676529
 40
25.24838425676529
 40
25.24838425676529
 40
25.24838425676529
 40
37.87253072645369
 40
50.4965858787939
 40
50.4965858787939
 40
50.4965858787939
 40
50.4965858787939
 10
234.5508332574821
 20
462.3104346848017
 30
0.0
 10
230.3427710037333
 20
462.3101087615788
 30
0.0
 10
221.926653448934
 20
462.3129156736273
 30
0.0
 10
213.5106500928034
 20
462.3104968515597
 30
0.0
 10
209.3026383868699
 20
462.3104971812781
 30
0.0
  0
LINE
  5
DD
330
1F
100
AcDbEntity
  8
0
  6
Continuous
 62
     8
370
    18
100
AcDbLine
 10
184.0210755891
 20
463.3378855449
 30
0.0
 11
184.0210646992
 21
463.3378970665
 31
0.0
  0
LINE
  5
DE
330
1F
100
AcDbEntity
  8
0
  6
Continuous
 62
     8
370
    18
100
AcDbLine
 10
234.5841980264
 20
463.3378855449
 30
0.0
 11
234.5842089163
 21
463.3378970665
 31
0.0
  0
CIRCLE
  5
DF
330
1F
100
AcDbEntity
  8
0
  6
Continuous
 62
     8
370
    18
100
AcDbCircle
 10
209.3026368077
 20
505.1442876527
 30
0.0
 40
10.77434613606403
  0
CIRCLE
  5
E0
330
1F
100
AcDbEntity
  8
0
  6
Continuous
 62
     8
370
    18
100
AcDbCircle
 10
209.3026368077
 20
505.1442876527
 30
0.0
 40
11.25844862367717
  0
SPLINE
  5
E1
330
1F
100
AcDbEntity
  8
0
  6
Continuous
 62
     8
370
    18
100
AcDbSpline
210
0.0
220
0.0
230
1.0
 70
     8
 71
     3
 72
     8
 73
     4
 74
     0
 42
0.00000001
 43
0.00000001
 40
0.0
 40
0.0
 40
0.0
 40
0.0
 40
1.0
 40
1.0
 40
1.0
 40
1.0
 10
135.2056236419965
 20
394.4989477614396
 30
0.0
 10
134.8659229121496
 20
442.9958410222606
 30
0.0
 10
134.8659229121506
 20
491.4927342830816
 30
0.0
 10
135.2056236419973
 20
539.9896275439025
 30
0.0
  0
SPLINE
  5
E2
330
1F
100
AcDbEntity
  8
0
  6
Continuous
 62
     8
370
    18
100
AcDbSpline
210
0.0
220
0.0
230
1.0
 70
     8
 71
     3
 72
    21
 73
    17
 74
     0
 42
0.00000001
 43
0.00000001
 40
0.0
 40
0.0
 40
0.0
 40
0.0
 40
0.0527050579358687
 40
0.1061279058763646
 40
0.1602714789034673
 40
0.2151385958224243
 40
0.2707319647143954
 40
0.3270541881746168
 40
0.3841077682623359
 40
0.4418951111699304
 40
0.5004185316408615
 40
0.6190410088381959
 40
0.7500271579309324
 40
0.8150588915859941
 40
0.8983884735132143
 40
1.0
 40
1.0
 40
1.0
 40
1.0
 10
135.2056236419957
 20
539.9896275439025
 30
0.0
 10
135.2076330318559
 20
539.9898043734564
 30
0.0
 10
135.21167917745
 20
539.9901604408055
 30
0.0
 10
135.2304415254637
 20
539.9894135623501
 30
0.0
 10
135.2588505174947
 20
539.9877265239619
 30
0.0
 10
135.2980283572311
 20
539.9849930047092
 30
0.0
 10
135.3478408512079
 20
539.9812280319514
 30
0.0
 10
135.4083823927599
 20
539.9764137801633
 30
0.0
 10
135.4795564497048
 20
539.970541615992
 30
0.0
 10
135.5611951498695
 20
539.9636018549498
 30
0.0
 10
135.6839915530142
 20
539.9528714555145
 30
0.0
 10
135.8677154534446
 20
539.936253061641
 30
0.0
 10
136.0813106044276
 20
539.9165464731088
 30
0.0
 10
136.2827514833864
 20
539.897425063616
 30
0.0
 10
136.4693655512692
 20
539.8796138689303
 30
0.0
 10
136.6108328179797
 20
539.8659003573243
 30
0.0
 10
136.6885586683417
 20
539.8583657920797
 30
0.0
  0
SPLINE
  5
E3
330
1F
100
AcDbEntity
  8
0
  6
Continuous
 62
     8
370
    18
100
AcDbSpline
210
0.0
220
0.0
230
1.0
 70
     8
 71
     3
 72
     8
 73
     4
 74
     0
 42
0.00000001
 43
0.00000001
 40
0.0
 40
0.0
 40
0.0
 40
0.0
 40
1.0
 40
1.0
 40
1.0
 40
1.0
 10
136.6885586683433
 20
539.8583657920797
 30
0.0
 10
136.3501065108011
 20
491.4489803658071
 30
0.0
 10
136.3501065108005
 20
443.0395949395346
 30
0.0
 10
136.6885586683427
 20
394.630209513262
 30
0.0
  0
SPLINE
  5
E4
330
1F
100
AcDbEntity
  8
0
  6
Continuous
 62
     8
370
    18
100
AcDbSpline
210
0.0
220
0.0
230
1.0
 70
     8
 71
     3
 72
    21
 73
    17
 74
     0
 42
0.00000001
 43
0.00000001
 40
0.0
 40
0.0
 40
0.0
 40
0.0
 40
0.0527015852614039
 40
0.1061218296410508
 40
0.1602636681738332
 40
0.2151299194777506
 40
0.2707232913178144
 40
0.3270463858586259
 40
0.3841017046256711
 40
0.4418916531890858
 40
0.5004185455849779
 40
0.6190205634991585
 40
0.750027166911104
 40
0.8150462982105847
 40
0.8983758845578759
 40
1.0
 40
1.0
 40
1.0
 40
1.0
 10
135.2056236419951
 20
394.4989477614396
 30
0.0
 10
135.2076328378592
 20
394.4987709507815
 30
0.0
 10
135.2116786277562
 20
394.498414918407
 30
0.0
 10
135.2304391284392
 20
394.499161833748
 30
0.0
 10
135.258845914391
 20
394.50084888663
 30
0.0
 10
135.2980216024725
 20
394.5035824060353
 30
0.0
 10
135.3478325189283
 20
394.5073473664219
 30
0.0
 10
135.4083735393297
 20
394.5121616038664
 30
0.0
 10
135.4795485933353
 20
394.5180337408458
 30
0.0
 10
135.5611902113515
 20
394.5249735327328
 30
0.0
 10
135.6839788288696
 20
394.5357024414535
 30
0.0
 10
135.8677019232143
 20
394.552321009496
 30
0.0
 10
136.08128733975
 20
394.5720267233746
 30
0.0
 10
136.2827330427487
 20
394.5911483323135
 30
0.0
 10
136.4693462473048
 20
394.6089595748923
 30
0.0
 10
136.6108231736789
 20
394.6226740165827
 30
0.0
 10
136.6885586683413
 20
394.6302095132615
 30
0.0
  0
SPLINE
  5
E5
330
1F
100
AcDbEntity
  8
0
  6
Continuous
 62
     8
370
    18
100
AcDbSpline
210
0.0
220
0.0
230
1.0
 70
     8
 71
     3
 72
     8
 73
     4
 74
     0
 42
0.00000001
 43
0.00000001
 40
0.0
 40
0.0
 40
0.0
 40
0.0
 40
1.0
 40
1.0
 40
1.0
 40
1.0
 10
281.9167149471564
 20
394.6302095132612
 30
0.0
 10
282.2551671046987
 20
443.0395949395344
 30
0.0
 10
282.2551671047004
 20
491.4489803658075
 30
0.0
 10
281.9167149471581
 20
539.8583657920807
 30
0.0
  0
LINE
  5
E6
330
1F
100
AcDbEntity
  8
0
  6
Continuous
 62
     8
370
    18
100
AcDbLine
 10
136.6885586683
 20
394.6302095133
 30
0.0
 11
183.1645536869
 21
394.4677312659
 31
0.0
  0
LINE
  5
E7
330
1F
100
AcDbEntity
  8
0
  6
Continuous
 62
     8
370
    18
100
AcDbLine
 10
235.4407200111
 20
394.4677564496
 30
0.0
 11
281.9167149472
 21
394.6302095133
 31
0.0
  0
SPLINE
  5
E8
330
1F
100
AcDbEntity
  8
0
  6
Continuous
 62
     8
370
    18
100
AcDbSpline
210
0.0
220
0.0
230
1.0
 70
     8
 71
     3
 72
     8
 73
     4
 74
     0
 42
0.00000001
 43
0.00000001
 40
0.0
 40
0.0
 40
0.0
 40
0.0
 40
1.0
 40
1.0
 40
1.0
 40
1.0
 10
281.9167149471567
 20
539.8583657920803
 30
0.0
 10
233.5073295208853
 20
540.1968179496226
 30
0.0
 10
185.097944094614
 20
540.1968179496228
 30
0.0
 10
136.6885586683426
 20
539.8583657920805
 30
0.0
  0
SPLINE
  5
E9
330
1F
100
AcDbEntity
  8
0
  6
Continuous
 62
     8
370
    18
100
AcDbSpline
210
0.0
220
0.0
230
1.0
 70
     8
 71
     3
 72
    26
 73
    22
 74
     0
 42
0.00000001
 43
0.00000001
 40
0.0
 40
0.0
 40
0.0
 40
0.0
 40
0.03125
 40
0.03125
 40
0.0625
 40
0.0625
 40
0.125
 40
0.125
 40
0.25
 40
0.25
 40
0.375
 40
0.375
 40
0.5
 40
0.5
 40
0.625
 40
0.625
 40
0.75
 40
0.75
 40
0.875
 40
0.875
 40
1.0
 40
1.0
 40
1.0
 40
1.0
 10
136.5572969165151
 20
541.341300818427
 30
0.0
 10
136.5571321147677
 20
541.3406646104859
 30
0.0
 10
136.5570256951085
 20
541.3394353242855
 30
0.0
 10
136.556928321011
 20
541.3358087928702
 30
0.0
 10
136.5569373665726
 20
541.3334115476553
 30
0.0
 10
136.5571357526556
 20
541.3244951697437
 30
0.0
 10
136.557496342575
 20
541.3162513947806
 30
0.0
 10
136.5592475224591
 20
541.2848398708697
 30
0.0
 10
136.5613075225499
 20
541.2549919229004
 30
0.0
 10
136.567129483249
 20
541.1786468031416
 30
0.0
 10
136.5709484900019
 20
541.1314223073942
 30
0.0
 10
136.5801128194809
 20
541.0225139892494
 30
0.0
 10
136.5854278035444
 20
540.9611408970255
 30
0.0
 10
136.5975075903365
 20
540.824706211062
 30
0.0
 10
136.6043351246192
 20
540.7489798302648
 30
0.0
 10
136.6189089791948
 20
540.5897771058499
 30
0.0
 10
136.6267051005004
 20
540.505720600984
 30
0.0
 10
136.6433311254445
 20
540.3285626150533
 30
0.0
 10
136.6521064346634
 20
540.2360654301976
 30
0.0
 10
136.6699700811592
 20
540.0496365815383
 30
0.0
 10
136.6791407009688
 20
539.9548253310679
 30
0.0
 10
136.6885586683422
 20
539.8583657920797
 30
0.0
  0
SPLINE
  5
EA
330
1F
100
AcDbEntity
  8
0
  6
Continuous
 62
     8
370
    18
100
AcDbSpline
210
0.0
220
0.0
230
1.0
 70
     8
 71
     3
 72
     8
 73
     4
 74
     0
 42
0.00000001
 43
0.00000001
 40
0.0
 40
0.0
 40
0.0
 40
0.0
 40
1.0
 40
1.0
 40
1.0
 40
1.0
 10
136.5572969165152
 20
541.341300818426
 30
0.0
 10
185.0541901773367
 20
541.6810015482728
 30
0.0
 10
233.5510834381581
 20
541.681001548274
 30
0.0
 10
282.0479766989795
 20
541.3413008184273
 30
0.0
  0
SPLINE
  5
EB
330
1F
100
AcDbEntity
  8
0
  6
Continuous
 62
     8
370
    18
100
AcDbSpline
210
0.0
220
0.0
230
1.0
 70
     8
 71
     3
 72
    21
 73
    17
 74
     0
 42
0.00000001
 43
0.00000001
 40
0.0
 40
0.0
 40
0.0
 40
0.0
 40
0.0527050586770556
 40
0.1061279071733056
 40
0.1602714805704691
 40
0.2151385976736925
 40
0.2707319665648298
 40
0.3270541898392457
 40
0.3841077695541224
 40
0.4418951119056008
 40
0.5004185316341355
 40
0.6190410166261843
 40
0.7500271579263771
 40
0.8150588969040813
 40
0.8983884788299031
 40
1.0
 40
1.0
 40
1.0
 40
1.0
 10
282.0479766989795
 20
541.3413008184262
 30
0.0
 10
282.0481535285375
 20
541.3392914285255
 30
0.0
 10
282.0485095958938
 20
541.3352452828573
 30
0.0
 10
282.0477627174461
 20
541.3164829344456
 30
0.0
 10
282.0460756790608
 20
541.2880739419437
 30
0.0
 10
282.0433421598082
 20
541.2488961017497
 30
0.0
 10
282.0395771870478
 20
541.1990836074342
 30
0.0
 10
282.034762935257
 20
541.138542065769
 30
0.0
 10
282.0288907710789
 20
541.0673680090412
 30
0.0
 10
282.0219510100474
 20
540.9857293094968
 30
0.0
 10
282.0112206101192
 20
540.8629329029048
 30
0.0
 10
281.9946022163808
 20
540.6792090018139
 30
0.0
 10
281.9748956273651
 20
540.4656138467777
 30
0.0
 10
281.9557742178351
 20
540.2641729692539
 30
0.0
 10
281.937963023177
 20
540.0775589010054
 30
0.0
 10
281.9242495119928
 20
539.936091638372
 30
0.0
 10
281.9167149471574
 20
539.8583657920819
 30
0.0
  0
SPLINE
  5
EC
330
1F
100
AcDbEntity
  8
0
  6
Continuous
 62
     8
370
    18
100
AcDbSpline
210
0.0
220
0.0
230
1.0
 70
     8
 71
     3
 72
     9
 73
     5
 74
     0
 42
0.00000001
 43
0.00000001
 40
0.0
 40
0.0
 40
0.0
 40
0.0
 40
0.7802396793146913
 40
1.0
 40
1.0
 40
1.0
 40
1.0
 10
282.0479766989785
 20
393.147274486916
 30
0.0
 10
269.9253517087799
 20
393.0670241796065
 30
0.0
 10
254.3882990420323
 20
392.9641707751501
 30
0.0
 10
238.8503400402616
 20
392.942933427403
 30
0.0
 10
235.4357131872372
 20
392.9382663010517
 30
0.0
  0
SPLINE
  5
ED
330
1F
100
AcDbEntity
  8
0
  6
Continuous
 62
     8
370
    18
100
AcDbSpline
210
0.0
220
0.0
230
1.0
 70
     8
 71
     3
 72
     9
 73
     5
 74
     0
 42
0.00000001
 43
0.00000001
 40
0.0
 40
0.0
 40
0.0
 40
0.0
 40
0.219608597194047
 40
1.0
 40
1.0
 40
1.0
 40
1.0
 10
183.1695604403949
 20
392.9382629818446
 30
0.0
 10
179.7572910520989
 20
392.9429245675439
 30
0.0
 10
164.2193320109008
 20
392.9641513581105
 30
0.0
 10
148.6822792871095
 20
393.0670069035357
 30
0.0
 10
136.5572969165198
 20
393.1472744869165
 30
0.0
  0
SPLINE
  5
EE
330
1F
100
AcDbEntity
  8
0
  6
Continuous
 62
     8
370
    18
100
AcDbSpline
210
0.0
220
0.0
230
1.0
 70
     8
 71
     3
 72
    26
 73
    22
 74
     0
 42
0.00000001
 43
0.00000001
 40
0.0
 40
0.0
 40
0.0
 40
0.0
 40
0.03125
 40
0.03125
 40
0.0625
 40
0.0625
 40
0.125
 40
0.125
 40
0.25
 40
0.25
 40
0.375
 40
0.375
 40
0.5
 40
0.5
 40
0.625
 40
0.625
 40
0.75
 40
0.75
 40
0.875
 40
0.875
 40
1.0
 40
1.0
 40
1.0
 40
1.0
 10
136.5572969165197
 20
393.1472744869149
 30
0.0
 10
136.5571321147723
 20
393.147910694856
 30
0.0
 10
136.5570256951131
 20
393.1491399810563
 30
0.0
 10
136.5569283210156
 20
393.1527665124716
 30
0.0
 10
136.5569373665772
 20
393.1551637576866
 30
0.0
 10
136.5571357526601
 20
393.1640801355982
 30
0.0
 10
136.5574963425795
 20
393.1723239105612
 30
0.0
 10
136.5592475224635
 20
393.2037354344719
 30
0.0
 10
136.5613075225542
 20
393.2335833824411
 30
0.0
 10
136.5671294832531
 20
393.3099285021998
 30
0.0
 10
136.5709484900058
 20
393.3571529979474
 30
0.0
 10
136.5801128194845
 20
393.4660613160921
 30
0.0
 10
136.5854278035478
 20
393.5274344083159
 30
0.0
 10
136.5975075903395
 20
393.6638690942793
 30
0.0
 10
136.604335124622
 20
393.7395954750767
 30
0.0
 10
136.6189089791971
 20
393.8987981994915
 30
0.0
 10
136.6267051005023
 20
393.9828547043574
 30
0.0
 10
136.643331125446
 20
394.160012690288
 30
0.0
 10
136.6521064346646
 20
394.2525098751438
 30
0.0
 10
136.6699700811598
 20
394.4389387238032
 30
0.0
 10
136.679140700969
 20
394.5337499742732
 30
0.0
 10
136.6885586683422
 20
394.6302095132615
 30
0.0
  0
SPLINE
  5
EF
330
1F
100
AcDbEntity
  8
0
  6
Continuous
 62
     8
370
    18
100
AcDbSpline
210
0.0
220
0.0
230
1.0
 70
     8
 71
     3
 72
    21
 73
    17
 74
     0
 42
0.00000001
 43
0.00000001
 40
0.0
 40
0.0
 40
0.0
 40
0.0
 40
0.0527015849058357
 40
0.1061218290191246
 40
0.1602636673752022
 40
0.2151299185911719
 40
0.2707232904326057
 40
0.3270463850642149
 40
0.3841017040108592
 40
0.4418916528425454
 40
0.5004185455961063
 40
0.6190205570885858
 40
0.75002716692301
 40
0.8150462880617826
 40
0.8983758744109456
 40
1.0
 40
1.0
 40
1.0
 40
1.0
 10
282.0479766989785
 20
393.1472744869156
 30
0.0
 10
282.0481535096346
 20
393.1492836827599
 30
0.0
 10
282.0485095420055
 20
393.1533294726204
 30
0.0
 10
282.0477626266606
 20
393.172089973112
 30
0.0
 10
282.0460755737773
 20
393.2004967588362
 30
0.0
 10
282.0433420543719
 20
393.2396724467
 30
0.0
 10
282.0395770939867
 20
393.2894833629932
 30
0.0
 10
282.0347628565433
 20
393.3500243833403
 30
0.0
 10
282.0288907195681
 20
393.4211994374492
 30
0.0
 10
282.0219509276733
 20
393.5028410557612
 30
0.0
 10
282.0112220193272
 20
393.6256296702311
 30
0.0
 10
281.9946034511352
 20
393.8093527638692
 30
0.0
 10
281.9748977381017
 20
394.0229381731664
 30
0.0
 10
281.9557761295942
 20
394.2243838728014
 30
0.0
 10
281.937964886995
 20
394.4109970766592
 30
0.0
 10
281.9242504445757
 20
394.552474010823
 30
0.0
 10
281.9167149471575
 20
394.6302095132617
 30
0.0
  0
SPLINE
  5
F0
330
1F
100
AcDbEntity
  8
0
  6
Continuous
 62
     8
370
    18
100
AcDbSpline
210
0.0
220
0.0
230
1.0
 70
     8
 71
     3
 72
    26
 73
    22
 74
     0
 42
0.00000001
 43
0.00000001
 40
0.0
 40
0.0
 40
0.0
 40
0.0
 40
0.03125
 40
0.03125
 40
0.0625
 40
0.0625
 40
0.125
 40
0.125
 40
0.25
 40
0.25
 40
0.375
 40
0.375
 40
0.5
 40
0.5
 40
0.625
 40
0.625
 40
0.75
 40
0.75
 40
0.875
 40
0.875
 40
1.0
 40
1.0
 40
1.0
 40
1.0
 10
283.3996499735032
 20
539.9896275439029
 30
0.0
 10
283.3990137655621
 20
539.9897923456502
 30
0.0
 10
283.3977844793618
 20
539.9898987653096
 30
0.0
 10
283.3941579479464
 20
539.989996139407
 30
0.0
 10
283.3917607027314
 20
539.9899870938453
 30
0.0
 10
283.3828443248198
 20
539.9897887077625
 30
0.0
 10
283.3746005498567
 20
539.9894281178431
 30
0.0
 10
283.3431890259459
 20
539.9876769379591
 30
0.0
 10
283.3133410779766
 20
539.9856169378683
 30
0.0
 10
283.236995958218
 20
539.9797949771694
 30
0.0
 10
283.1897714624708
 20
539.9759759704168
 30
0.0
 10
283.080863144326
 20
539.966811640938
 30
0.0
 10
283.0194900521024
 20
539.9614966568747
 30
0.0
 10
282.8830553661389
 20
539.9494168700829
 30
0.0
 10
282.8073289853433
 20
539.9425893358007
 30
0.0
 10
282.6481262609284
 20
539.9280154812255
 30
0.0
 10
282.5640697560612
 20
539.92021935992
 30
0.0
 10
282.3869117701306
 20
539.9035933349763
 30
0.0
 10
282.2944145852754
 20
539.8948180257577
 30
0.0
 10
282.107985736616
 20
539.8769543792624
 30
0.0
 10
282.0131744861459
 20
539.8677837594532
 30
0.0
 10
281.9167149471574
 20
539.8583657920799
 30
0.0
  0
SPLINE
  5
F1
330
1F
100
AcDbEntity
  8
0
  6
Continuous
 62
     8
370
    18
100
AcDbSpline
210
0.0
220
0.0
230
1.0
 70
     8
 71
     3
 72
     8
 73
     4
 74
     0
 42
0.00000001
 43
0.00000001
 40
0.0
 40
0.0
 40
0.0
 40
0.0
 40
1.0
 40
1.0
 40
1.0
 40
1.0
 10
283.3996499735029
 20
539.9896275439028
 30
0.0
 10
283.7393507033498
 20
491.4927342830817
 30
0.0
 10
283.7393507033487
 20
442.9958410222605
 30
0.0
 10
283.399649973502
 20
394.4989477614394
 30
0.0
  0
SPLINE
  5
F2
330
1F
100
AcDbEntity
  8
0
  6
Continuous
 62
     8
370
    18
100
AcDbSpline
210
0.0
220
0.0
230
1.0
 70
     8
 71
     3
 72
    26
 73
    22
 74
     0
 42
0.00000001
 43
0.00000001
 40
0.0
 40
0.0
 40
0.0
 40
0.0
 40
0.03125
 40
0.03125
 40
0.0625
 40
0.0625
 40
0.125
 40
0.125
 40
0.25
 40
0.25
 40
0.375
 40
0.375
 40
0.5
 40
0.5
 40
0.625
 40
0.625
 40
0.75
 40
0.75
 40
0.875
 40
0.875
 40
1.0
 40
1.0
 40
1.0
 40
1.0
 10
283.3996499735034
 20
394.4989477614394
 30
0.0
 10
283.3990137655623
 20
394.4987829596919
 30
0.0
 10
283.397784479362
 20
394.4986765400328
 30
0.0
 10
283.3941579479467
 20
394.4985791659352
 30
0.0
 10
283.3917607027316
 20
394.4985882114968
 30
0.0
 10
283.38284432482
 20
394.4987865975797
 30
0.0
 10
283.374600549857
 20
394.4991471874991
 30
0.0
 10
283.3431890259462
 20
394.5008983673831
 30
0.0
 10
283.313341077977
 20
394.5029583674739
 30
0.0
 10
283.2369959582184
 20
394.5087803281726
 30
0.0
 10
283.1897714624711
 20
394.5125993349254
 30
0.0
 10
283.0808631443265
 20
394.521763664404
 30
0.0
 10
283.0194900521026
 20
394.5270786484672
 30
0.0
 10
282.8830553661392
 20
394.539158435259
 30
0.0
 10
282.8073289853431
 20
394.5459859695414
 30
0.0
 10
282.6481262609284
 20
394.5605598241164
 30
0.0
 10
282.5640697560609
 20
394.5683559454219
 30
0.0
 10
282.3869117701306
 20
394.5849819703654
 30
0.0
 10
282.2944145852752
 20
394.5937572795839
 30
0.0
 10
282.1079857366159
 20
394.6116209260791
 30
0.0
 10
282.0131744861459
 20
394.6207915458883
 30
0.0
 10
281.9167149471575
 20
394.6302095132614
 30
0.0
  0
LINE
  5
F3
330
1F
100
AcDbEntity
  8
0
  6
Continuous
 62
     8
370
    18
100
AcDbLine
 10
282.0489834026
 20
541.4796826047
 30
0.0
 11
282.047976699
 21
541.3413008184
 31
0.0
  0
LINE
  5
F4
330
1F
100
AcDbEntity
  8
0
  6
Continuous
 62
     8
370
    18
100
AcDbLine
 10
136.5562902129
 20
541.4796826047
 30
0.0
 11
136.5572969165
 21
541.3413008184
 31
0.0
  0
LINE
  5
F5
330
1F
100
AcDbEntity
  8
0
  6
Continuous
 62
     8
370
    18
100
AcDbLine
 10
136.5562902129
 20
393.0088927006
 30
0.0
 11
136.5572969165
 21
393.1472744869
 31
0.0
  0
LINE
  5
F6
330
1F
100
AcDbEntity
  8
0
  6
Continuous
 62
     8
370
    18
100
AcDbLine
 10
282.0489834026
 20
393.0088927006
 30
0.0
 11
282.047976699
 21
393.1472744869
 31
0.0
  0
LINE
  5
F7
330
1F
100
AcDbEntity
  8
0
  6
Continuous
 62
     8
370
    18
100
AcDbLine
 10
283.5380317598
 20
394.4979410579
 30
0.0
 11
283.3996499735
 21
394.4989477614
 31
0.0
  0
LINE
  5
F8
330
1F
100
AcDbEntity
  8
0
  6
Continuous
 62
     8
370
    18
100
AcDbLine
 10
283.5380317598
 20
539.9906342475
 30
0.0
 11
283.3996499735
 21
539.9896275439
 31
0.0
  0
LINE
  5
F9
330
1F
100
AcDbEntity
  8
0
  6
Continuous
 62
     8
370
    18
100
AcDbLine
 10
135.0672418557
 20
539.9906342475
 30
0.0
 11
135.205623642
 21
539.9896275439
 31
0.0
  0
LINE
  5
FA
330
1F
100
AcDbEntity
  8
0
  6
Continuous
 62
     8
370
    18
100
AcDbLine
 10
135.0672418557
 20
394.4979410579
 30
0.0
 11
135.205623642
 21
394.4989477614
 31
0.0
  0
SPLINE
  5
FB
330
1F
100
AcDbEntity
  8
0
  6
Continuous
 62
     8
370
    18
100
AcDbSpline
210
0.0
220
0.0
230
1.0
 70
     8
 71
     3
 72
    25
 73
    21
 74
     0
 42
0.00000001
 43
0.00000001
 40
0.0
 40
0.0
 40
0.0
 40
0.0
 40
0.0555740769933567
 40
0.1111416178191767
 40
0.166703438990585
 40
0.2222603572237527
 40
0.2778131894090246
 40
0.3333627525819137
 40
0.3889098638941365
 40
0.4444553405845487
 40
0.4999999999501492
 40
0.5555446593169768
 40
0.6110901360110872
 40
0.6666372473294612
 40
0.7221868105109712
 40
0.7777396427073171
 40
0.8332965609540268
 40
0.8888583821414351
 40
0.9444259229857193
 40
1.0
 40
1.0
 40
1.0
 40
1.0
 10
136.5572969165197
 20
393.1472744869161
 30
0.0
 10
136.51806670421
 20
393.148565420976
 30
0.0
 10
136.4396108935268
 20
393.1511471372667
 30
0.0
 10
136.3229034907144
 20
393.167875381466
 30
0.0
 10
136.2080248725276
 20
393.1938813143062
 30
0.0
 10
136.0958373697764
 20
393.2298951607804
 30
0.0
 10
135.987174914939
 20
393.2754001167636
 30
0.0
 10
135.8828473956319
 20
393.3301229572573
 30
0.0
 10
135.7836318154925
 20
393.3936377464495
 30
0.0
 10
135.6902672938867
 20
393.4654757213384
 30
0.0
 10
135.6034493370497
 20
393.5451001818206
 30
0.0
 10
135.5238248765523
 20
393.6319181386473
 30
0.0
 10
135.4519869016447
 20
393.7252826602486
 30
0.0
 10
135.3884721124314
 20
393.8244982403901
 30
0.0
 10
135.3337492719157
 20
393.9288257597063
 30
0.0
 10
135.2882443159109
 20
394.0374882145603
 30
0.0
 10
135.2522304694171
 20
394.1496757173353
 30
0.0
 10
135.2262245365612
 20
394.2645543355535
 30
0.0
 10
135.2094962923507
 20
394.381261738404
 30
0.0
 10
135.2069145760584
 20
394.4597175491151
 30
0.0
 10
135.2056236419978
 20
394.4989477614396
 30
0.0
  0
SPLINE
  5
FC
330
1F
100
AcDbEntity
  8
0
  6
Continuous
 62
     8
370
    18
100
AcDbSpline
210
0.0
220
0.0
230
1.0
 70
     8
 71
     3
 72
    25
 73
    21
 74
     0
 42
0.00000001
 43
0.00000001
 40
0.0
 40
0.0
 40
0.0
 40
0.0
 40
0.0555740770039923
 40
0.1111416178392035
 40
0.1667034390187419
 40
0.2222603572587845
 40
0.2778131894496883
 40
0.3333627526269551
 40
0.3889098639422987
 40
0.444455340634592
 40
0.5000000000008085
 40
0.555544659367012
 40
0.6110901360592382
 40
0.6666372473744839
 40
0.7221868105516139
 40
0.7777396427423311
 40
0.8332965609821632
 40
0.8888583821614405
 40
0.944425922996349
 40
1.0
 40
1.0
 40
1.0
 40
1.0
 10
283.3996499735016
 20
394.4989477614394
 30
0.0
 10
283.3983590394413
 20
394.4597175491221
 30
0.0
 10
283.3957773231499
 20
394.3812617384247
 30
0.0
 10
283.3790490789448
 20
394.2645543355929
 30
0.0
 10
283.3530431460967
 20
394.1496757173901
 30
0.0
 10
283.3170292996126
 20
394.0374882146267
 30
0.0
 10
283.2715243436184
 20
393.9288257597809
 30
0.0
 10
283.2168015031135
 20
393.8244982404691
 30
0.0
 10
283.1532867139106
 20
393.7252826603286
 30
0.0
 10
283.0814487390122
 20
393.631918138725
 30
0.0
 10
283.0018242785222
 20
393.5451001818932
 30
0.0
 10
282.9150063216902
 20
393.4654757214035
 30
0.0
 10
282.8216418000866
 20
393.3936377465054
 30
0.0
 10
282.7224262199462
 20
393.3301229573028
 30
0.0
 10
282.6180987006346
 20
393.2754001167982
 30
0.0
 10
282.5094362457889
 20
393.2298951608045
 30
0.0
 10
282.397248743026
 20
393.1938813143205
 30
0.0
 10
282.2823701248237
 20
393.1678753814727
 30
0.0
 10
282.1656627219925
 20
393.1511471372678
 30
0.0
 10
282.0872069112955
 20
393.1485654209764
 30
0.0
 10
282.0479766989786
 20
393.1472744869161
 30
0.0
  0
SPLINE
  5
FD
330
1F
100
AcDbEntity
  8
0
  6
Continuous
 62
     8
370
    18
100
AcDbSpline
210
0.0
220
0.0
230
1.0
 70
     8
 71
     3
 72
    25
 73
    21
 74
     0
 42
0.00000001
 43
0.00000001
 40
0.0
 40
0.0
 40
0.0
 40
0.0
 40
0.0555740769952393
 40
0.1111416178227195
 40
0.16670343899556
 40
0.2222603572299375
 40
0.2778131894161981
 40
0.3333627525898603
 40
0.3889098639026277
 40
0.4444553405933714
 40
0.499999999959071
 40
0.5555446593257898
 40
0.6110901360195594
 40
0.6666372473373772
 40
0.7221868105181174
 40
0.7777396427134698
 40
0.83329656095897
 40
0.8888583821449412
 40
0.9444259229875819
 40
1.0
 40
1.0
 40
1.0
 40
1.0
 10
282.0479766989797
 20
541.3413008184259
 30
0.0
 10
282.0872069112907
 20
541.3400098843659
 30
0.0
 10
282.1656627219763
 20
541.337428168075
 30
0.0
 10
282.2823701247921
 20
541.3206999238746
 30
0.0
 10
282.3972487429818
 20
541.2946939910331
 30
0.0
 10
282.5094362457349
 20
541.258680144557
 30
0.0
 10
282.6180987005739
 20
541.2131751885719
 30
0.0
 10
282.7224262198818
 20
541.1584523480764
 30
0.0
 10
282.8216418000213
 20
541.0949375588823
 30
0.0
 10
282.9150063216267
 20
541.0230995839918
 30
0.0
 10
283.0018242784628
 20
540.9434751235082
 30
0.0
 10
283.0814487389587
 20
540.8566571666805
 30
0.0
 10
283.1532867138646
 20
540.7632926450789
 30
0.0
 10
283.2168015030761
 20
540.6640770649377
 30
0.0
 10
283.2715243435898
 20
540.5597495456223
 30
0.0
 10
283.3170292995927
 20
540.4510870907699
 30
0.0
 10
283.3530431460848
 20
540.3388995879969
 30
0.0
 10
283.3790490789393
 20
540.2240209697816
 30
0.0
 10
283.3957773231489
 20
540.1073135669346
 30
0.0
 10
283.398359039441
 20
540.028857756226
 30
0.0
 10
283.3996499735016
 20
539.9896275439029
 30
0.0
  0
SPLINE
  5
FE
330
1F
100
AcDbEntity
  8
0
  6
Continuous
 62
     8
370
    18
100
AcDbSpline
210
0.0
220
0.0
230
1.0
 70
     8
 71
     3
 72
    25
 73
    21
 74
     0
 42
0.00000001
 43
0.00000001
 40
0.0
 40
0.0
 40
0.0
 40
0.0
 40
0.0555740770111256
 40
0.1111416178526282
 40
0.1667034390376245
 40
0.2222603572822918
 40
0.2778131894769695
 40
0.3333627526571794
 40
0.388909863974627
 40
0.4444553406681827
 40
0.5000000000348206
 40
0.5555446594006126
 40
0.6110901360915847
 40
0.6666372474047327
 40
0.7221868105789202
 40
0.7777396427658615
 40
0.8332965610010724
 40
0.8888583821748843
 40
0.9444259230034925
 40
1.0
 40
1.0
 40
1.0
 40
1.0
 10
135.2056236419978
 20
539.9896275439027
 30
0.0
 10
135.2069145760583
 20
540.0288577562247
 30
0.0
 10
135.2094962923503
 20
540.1073135669316
 30
0.0
 10
135.2262245365591
 20
540.224020969776
 30
0.0
 10
135.2522304694125
 20
540.3388995879892
 30
0.0
 10
135.2882443159032
 20
540.4510870907604
 30
0.0
 10
135.3337492719045
 20
540.5597495456117
 30
0.0
 10
135.3884721124167
 20
540.6640770649263
 30
0.0
 10
135.4519869016265
 20
540.7632926450674
 30
0.0
 10
135.523824876531
 20
540.8566571666692
 30
0.0
 10
135.6034493370257
 20
540.9434751234975
 30
0.0
 10
135.6902672938608
 20
541.023099583982
 30
0.0
 10
135.7836318154656
 20
541.0949375588738
 30
0.0
 10
135.882847395605
 20
541.1584523480691
 30
0.0
 10
135.9871749149131
 20
541.2131751885663
 30
0.0
 10
136.0958373697527
 20
541.2586801445528
 30
0.0
 10
136.208024872507
 20
541.2946939910304
 30
0.0
 10
136.3229034906983
 20
541.3206999238731
 30
0.0
 10
136.439610893516
 20
541.3374281680746
 30
0.0
 10
136.5180667042033
 20
541.3400098843657
 30
0.0
 10
136.5572969165151
 20
541.3413008184258
 30
0.0
  0
ARC
  5
FF
330
1F
100
AcDbEntity
  8
0
  6
Continuous
 62
     7
370
    25
100
AcDbCircle
 10
209.3026368078
 20
7218.4705075526
 30
0.0
 40
7000.000000000001
100
AcDbArc
 50
269.4035565777
 51
269.9067270829
  0
ARC
  5
100
330
1F
100
AcDbEntity
  8
0
  6
Continuous
 62
     7
370
    25
100
AcDbCircle
 10
209.3026368078
 20
7218.4705075526
 30
0.0
 40
7000.0
100
AcDbArc
 50
270.0932729171
 51
270.5964433715
  0
ARC
  5
101
330
1F
100
AcDbEntity
  8
0
  6
Continuous
 62
     7
370
    25
100
AcDbCircle
 10
282.1549366769
 20
220.3497031935
 30
0.0
 40
1.50000000000005
100
AcDbArc
 50
270.6099342096
 51
358.4893102131
  0
ARC
  5
102
330
1F
100
AcDbEntity
  8
0
  6
Continuous
 62
     7
370
    25
100
AcDbCircle
 10
136.4503369386
 20
220.3497031935
 30
0.0
 40
1.500000000000021
100
AcDbArc
 50
181.5241076744
 51
269.4065979698
  0
LINE
  5
103
330
1F
100
AcDbEntity
  8
0
  6
Continuous
 62
     7
370
    25
100
AcDbLine
 10
283.6544230395
 20
220.310452097
 30
0.0
 11
283.8026368077
 21
225.9705075526
 31
0.0
  0
LINE
  5
104
330
1F
100
AcDbEntity
  8
0
  6
Continuous
 62
     7
370
    25
100
AcDbLine
 10
134.8026368078
 20
225.9705075526
 30
0.0
 11
134.950850576
 21
220.310452097
 31
0.0
  0
LINE
  5
105
330
1F
100
AcDbEntity
  8
0
  6
Continuous
 62
     7
370
    25
100
AcDbLine
 10
197.9054265639
 20
218.5816863645
 30
0.0
 11
198.0441881841
 21
210.6320384713
 31
0.0
  0
LINE
  5
106
330
1F
100
AcDbEntity
  8
0
  6
Continuous
 62
     7
370
    25
100
AcDbLine
 10
220.5610854314
 20
210.6320384713
 30
0.0
 11
220.6998574232
 21
218.5822805573
 31
0.0
  0
ARC
  5
107
330
1F
100
AcDbEntity
  8
0
  6
Continuous
 62
     7
370
    25
100
AcDbCircle
 10
198.5441120317
 20
210.6407646745
 30
0.0
 40
0.5000000000000063
100
AcDbArc
 50
181.0
 51
268.1867030124
  0
ARC
  5
108
330
1F
100
AcDbEntity
  8
0
  6
Continuous
 62
     7
370
    25
100
AcDbCircle
 10
220.0611615838
 20
210.6407646745
 30
0.0
 40
0.4999999999999983
100
AcDbArc
 50
271.8132969877
 51
359.0
  0
ARC
  5
109
330
1F
100
AcDbEntity
  8
0
  6
Continuous
 62
     7
370
    25
100
AcDbCircle
 10
209.3026368077
 20
550.4705075526
 30
0.0
 40
340.5000000000001
100
AcDbArc
 50
268.1867030123
 51
270.0
  0
ARC
  5
10A
330
1F
100
AcDbEntity
  8
0
  6
Continuous
 62
     7
370
    25
100
AcDbCircle
 10
209.3026368077
 20
550.4705075526
 30
0.0
 40
340.5000000000001
100
AcDbArc
 50
270.0
 51
271.8132969877
  0
SPLINE
  5
10B
330
1F
100
AcDbEntity
  8
0
  6
Continuous
 62
     7
370
    25
100
AcDbSpline
210
0.0
220
0.0
230
1.0
 70
     8
 71
     3
 72
    16
 73
    12
 74
     0
 42
0.00000001
 43
0.00000001
 40
0.0
 40
0.0
 40
0.0
 40
0.0
 40
0.020748249666525
 40
0.1169598952734669
 40
0.2152304338109518
 40
0.3234811116488338
 40
0.443101396984004
 40
0.6043044166259895
 40
0.7657082139289754
 40
0.9185479155525157
 40
1.0
 40
1.0
 40
1.0
 40
1.0
 10
234.6313098665891
 20
163.8446319606778
 30
0.0
 10
234.6245618971056
 20
163.8852133801456
 30
0.0
 10
234.5865229387945
 20
164.1139747767594
 30
0.0
 10
234.4844726990557
 20
164.9035621233269
 30
0.0
 10
234.3501643305205
 20
166.2753412723523
 30
0.0
 10
234.2291157244051
 20
168.0478760750111
 30
0.0
 10
234.1271868600738
 20
170.2642616119854
 30
0.0
 10
234.0436552166037
 20
172.8145849981285
 30
0.0
 10
233.9385739111349
 20
175.5960366676602
 30
0.0
 10
233.8179362858138
 20
177.9217523472717
 30
0.0
 10
233.7072754559815
 20
179.2940109538294
 30
0.0
 10
233.6688039610661
 20
179.7710798506077
 30
0.0
  0
SPLINE
  5
10C
330
1F
100
AcDbEntity
  8
0
  6
Continuous
 62
     7
370
    25
100
AcDbSpline
210
0.0
220
0.0
230
1.0
 70
     8
 71
     3
 72
    16
 73
    12
 74
     0
 42
0.00000001
 43
0.00000001
 40
0.0
 40
0.0
 40
0.0
 40
0.0
 40
0.0814187627914969
 40
0.2342890296828039
 40
0.3957250787394185
 40
0.5569603005503965
 40
0.6766044733081961
 40
0.7848767428292716
 40
0.8831668815322611
 40
0.9793977213960358
 40
1.0
 40
1.0
 40
1.0
 40
1.0
 10
184.936400824285
 20
179.7701902993392
 30
0.0
 10
184.8979534489434
 20
179.2934119810124
 30
0.0
 10
184.7873180382127
 20
177.9214440740493
 30
0.0
 10
184.6667000836533
 20
175.5960200351551
 30
0.0
 10
184.5616176504944
 20
172.8145704599837
 30
0.0
 10
184.4780861358419
 20
170.2642460454055
 30
0.0
 10
184.3761576424657
 20
168.0478691341051
 30
0.0
 10
184.2551070743851
 20
166.2753155194962
 30
0.0
 10
184.1208046790594
 20
164.9036082431894
 30
0.0
 10
184.0188096380825
 20
164.1143893475735
 30
0.0
 10
183.9808136279346
 20
163.8858537533621
 30
0.0
 10
183.9741134354107
 20
163.8455539304642
 30
0.0
  0
SPLINE
  5
10D
330
1F
100
AcDbEntity
  8
0
  6
Continuous
 62
     7
370
    25
100
AcDbSpline
210
0.0
220
0.0
230
1.0
 70
     8
 71
     3
 72
    11
 73
     7
 74
     0
 42
0.00000001
 43
0.00000001
 40
0.0
 40
0.0
 40
0.0
 40
0.0
 40
0.1316234455638645
 40
0.5332888988516108
 40
0.8446358803831899
 40
1.0
 40
1.0
 40
1.0
 40
1.0
 10
235.4355822304854
 20
163.7404613273846
 30
0.0
 10
235.4123855285639
 20
163.7504365240244
 30
0.0
 10
235.3184011812332
 20
163.7908522843705
 30
0.0
 10
235.1316270025065
 20
163.8163444992157
 30
0.0
 10
234.8719598803936
 20
163.8400445010791
 30
0.0
 10
234.7185218338104
 20
163.8430202595349
 30
0.0
 10
234.6674436251188
 20
163.8440108639827
 30
0.0
  0
SPLINE
  5
10E
330
1F
100
AcDbEntity
  8
0
  6
Continuous
 62
     7
370
    25
100
AcDbSpline
210
0.0
220
0.0
230
1.0
 70
     8
 71
     3
 72
    14
 73
    10
 74
     0
 42
0.00000001
 43
0.00000001
 40
0.0
 40
0.0
 40
0.0
 40
0.0
 40
0.0184067345921323
 40
0.2264042996827658
 40
0.4516908755037307
 40
0.6937154539501088
 40
0.8198769351793437
 40
0.9322003860792503
 40
1.0
 40
1.0
 40
1.0
 40
1.0
 10
184.0186643530405
 20
163.8466235782627
 30
0.0
 10
184.0096150757427
 20
163.8464957554945
 30
0.0
 10
183.8983082451371
 20
163.8449235252782
 30
0.0
 10
183.6741636453191
 20
163.8373700661934
 30
0.0
 10
183.3926494958843
 20
163.8054684914604
 30
0.0
 10
183.2234767658236
 20
163.7720113090881
 30
0.0
 10
183.0895940208906
 20
163.7034485037692
 30
0.0
 10
183.0244077522775
 20
163.5919802478025
 30
0.0
 10
183.0234466969336
 20
163.5372984175657
 30
0.0
 10
183.0230849488069
 20
163.5167157843409
 30
0.0
  0
LWPOLYLINE
  5
10F
330
1F
100
AcDbEntity
  8
0
  6
Continuous
 62
     7
370
    25
100
AcDbPolyline
 90
        3
 70
   128
 43
0.0
 10
235.5816826334
 20
157.421705463
 10
235.5817234383
 20
159.7709043706
 10
235.5817653958
 20
162.1187709606
  0
LWPOLYLINE
  5
110
330
1F
100
AcDbEntity
  8
0
  6
Continuous
 62
     7
370
    25
100
AcDbPolyline
 90
        3
 70
   128
 43
0.0
 10
183.0235082224
 20
162.1186224605
 10
183.0235501785
 20
159.7708300631
 10
183.0235909821
 20
157.4217054345
  0
LINE
  5
111
330
1F
100
AcDbEntity
  8
0
  6
Continuous
 62
     7
370
    25
100
AcDbLine
 10
233.8026368077
 20
190.4705075526
 30
0.0
 11
233.8026368077
 21
218.513382684
 31
0.0
  0
LINE
  5
112
330
1F
100
AcDbEntity
  8
0
  6
Continuous
 62
     7
370
    25
100
AcDbLine
 10
184.8026368077
 20
218.513382684
 30
0.0
 11
184.8026368077
 21
190.4705075526
 31
0.0
  0
ARC
  5
113
330
1F
100
AcDbEntity
  8
0
  6
Continuous
 62
     7
370
    25
100
AcDbCircle
 10
209.3026368077
 20
190.4705075526
 30
0.0
 40
24.5
100
AcDbArc
 50
180.0
 51
206.6189045036
  0
ARC
  5
114
330
1F
100
AcDbEntity
  8
0
  6
Continuous
 62
     7
370
    25
100
AcDbCircle
 10
209.3026368077
 20
190.4705075526
 30
0.0
 40
24.5
100
AcDbArc
 50
333.3810954964
 51
0.0
  0
LWPOLYLINE
  5
115
330
1F
100
AcDbEntity
  8
0
  6
Continuous
 62
     7
370
    25
100
AcDbPolyline
 90
        3
 70
   128
 43
0.0
 10
184.0483034432
 20
142.0198308337
 10
186.9792192342
 20
142.0198994949
 10
234.5571197707
 20
142.019527949
  0
SPLINE
  5
116
330
1F
100
AcDbEntity
  8
0
  6
Continuous
 62
     7
370
    25
100
AcDbSpline
210
0.0
220
0.0
230
1.0
 70
     8
 71
     3
 72
    13
 73
     9
 74
     0
 42
0.00000001
 43
0.00000001
 40
0.0
 40
0.0
 40
0.0
 40
0.0
 40
0.2419246417704503
 40
0.3679322060930637
 40
0.4989914401086737
 40
0.6302114509748509
 40
0.7567002875384169
 40
1.0
 40
1.0
 40
1.0
 40
1.0
 10
234.6688431610665
 20
142.0296041647485
 30
0.0
 10
234.7881672364137
 20
142.043639271206
 30
0.0
 10
234.9696418061856
 20
142.0649846275279
 30
0.0
 10
235.1937360013025
 20
142.1718777607267
 30
0.0
 10
235.3441336484705
 20
142.2928815319147
 30
0.0
 10
235.4554952765715
 20
142.450396597844
 30
0.0
 10
235.5484040095074
 20
142.680428355495
 30
0.0
 10
235.5596776674833
 20
142.8626791313265
 30
0.0
 10
235.5670950895511
 20
142.9825897166396
 30
0.0
  0
SPLINE
  5
117
330
1F
100
AcDbEntity
  8
0
  6
Continuous
 62
     7
370
    25
100
AcDbSpline
210
0.0
220
0.0
230
1.0
 70
     8
 71
     3
 72
    13
 73
     9
 74
     0
 42
0.00000001
 43
0.00000001
 40
0.0
 40
0.0
 40
0.0
 40
0.0
 40
0.2433768934289918
 40
0.3698724188700381
 40
0.501036966562402
 40
0.6320457073707092
 40
0.7580405084591766
 40
1.0
 40
1.0
 40
1.0
 40
1.0
 10
183.0381785260691
 20
142.9825894430505
 30
0.0
 10
183.0455614046598
 20
142.8629743539478
 30
0.0
 10
183.0567815460796
 20
142.6811891330238
 30
0.0
 10
183.149141417066
 20
142.4516737316235
 30
0.0
 10
183.259790679348
 20
142.2943858621482
 30
0.0
 10
183.4093290119513
 20
142.1732767411763
 30
0.0
 10
183.6324385636563
 20
142.0659252430258
 30
0.0
 10
183.8133792700263
 20
142.0441639680207
 30
0.0
 10
183.9323623127284
 20
142.0298541824279
 30
0.0
  0
LINE
  5
118
330
1F
100
AcDbEntity
  8
0
  6
Continuous
 62
     7
370
    25
100
AcDbLine
 10
136.5562902129
 20
225.9705075526
 30
0.0
 11
282.0489834026
 21
225.9705075526
 31
0.0
  0
SPLINE
  5
119
330
1F
100
AcDbEntity
  8
0
  6
Continuous
 62
     7
370
    25
100
AcDbSpline
210
0.0
220
0.0
230
1.0
 70
     8
 71
     3
 72
    27
 73
    23
 74
     0
 42
0.00000001
 43
0.00000001
 40
0.0
 40
0.0
 40
0.0
 40
0.0
 40
0.0021555288793236
 40
0.0558472503634154
 40
0.1095389705764246
 40
0.1632307010239404
 40
0.2169224283084935
 40
0.2706136830659235
 40
0.3243049341547582
 40
0.3779954370477528
 40
0.431685937374439
 40
0.4853757417570337
 40
0.5390655458002812
 40
0.5927550111603264
 40
0.6464444785565333
 40
0.7001341129507808
 40
0.7538237508642391
 40
0.8075139882610873
 40
0.8612042291179349
 40
0.9148952392206151
 40
0.9685862512077584
 40
0.9999999999999999
 40
0.9999999999999999
 40
0.9999999999999999
 40
0.9999999999999999
 10
220.693578400884
 20
218.5823901580701
 30
0.0
 10
220.6956636863302
 20
218.5825288533443
 30
0.0
 10
220.7496910109053
 20
218.5861222868529
 30
0.0
 10
220.5527053324376
 20
218.5932159638905
 30
0.0
 10
220.0902208812122
 20
218.6033086972691
 30
0.0
 10
219.2776954372067
 20
218.6128055402273
 30
0.0
 10
218.1978816912467
 20
218.6214541369584
 30
0.0
 10
216.8576587782413
 20
218.6289717665799
 30
0.0
 10
215.3081129302413
 20
218.6351941528214
 30
0.0
 10
213.5843863867761
 20
218.6398868210143
 30
0.0
 10
211.7416814085171
 20
218.6429809844809
 30
0.0
 10
209.8283064062644
 20
218.6443198163547
 30
0.0
 10
207.9003309702839
 20
218.6439369663358
 30
0.0
 10
206.012991529878
 20
218.6417711284449
 30
0.0
 10
204.2170936362284
 20
218.6379545039291
 30
0.0
 10
202.568604500675
 20
218.6325282262852
 30
0.0
 10
201.1070471209461
 20
218.6257081253162
 30
0.0
 10
199.8839671831711
 20
218.6176331035941
 30
0.0
 10
198.9188331965442
 20
218.6085784804851
 30
0.0
 10
198.269092945146
 20
218.5987645813448
 30
0.0
 10
197.9267022106303
 20
218.5899178277976
 30
0.0
 10
197.9403765457559
 20
218.5844155246621
 30
0.0
 10
197.9454239969749
 20
218.5823845223199
 30
0.0
  0
LINE
  5
11A
330
1F
100
AcDbEntity
  8
0
  6
Continuous
 62
     7
370
    25
100
AcDbLine
 10
283.5380317598
 20
225.9705075526
 30
0.0
 11
283.3996499735
 21
220.6857805022
 31
0.0
  0
LINE
  5
11B
330
1F
100
AcDbEntity
  8
0
  6
Continuous
 62
     7
370
    25
100
AcDbLine
 10
282.0489834026
 20
225.9705075526
 30
0.0
 11
283.5380317598
 21
225.9705075526
 31
0.0
  0
LINE
  5
11C
330
1F
100
AcDbEntity
  8
0
  6
Continuous
 62
     7
370
    25
100
AcDbLine
 10
135.0672418557
 20
225.9705075526
 30
0.0
 11
135.205623642
 21
220.6857805022
 31
0.0
  0
LINE
  5
11D
330
1F
100
AcDbEntity
  8
0
  6
Continuous
 62
     7
370
    25
100
AcDbLine
 10
136.5562902129
 20
225.9705075526
 30
0.0
 11
135.0672418557
 21
225.9705075526
 31
0.0
  0
LINE
  5
11E
330
1F
100
AcDbEntity
  8
0
  6
Continuous
 62
     7
370
    25
100
AcDbLine
 10
283.8026368077
 20
225.9705075526
 30
0.0
 11
283.5380317598
 21
225.9705075526
 31
0.0
  0
LINE
  5
11F
330
1F
100
AcDbEntity
  8
0
  6
Continuous
 62
     7
370
    25
100
AcDbLine
 10
134.8026368078
 20
225.9705075526
 30
0.0
 11
135.0672418557
 21
225.9705075526
 31
0.0
  0
SPLINE
  5
120
330
1F
100
AcDbEntity
  8
0
  6
Continuous
 62
     7
370
    25
100
AcDbSpline
210
0.0
220
0.0
230
1.0
 70
     8
 71
     3
 72
    11
 73
     7
 74
     0
 42
0.00000001
 43
0.00000001
 40
0.0
 40
0.0
 40
0.0
 40
0.0
 40
0.2250656671647001
 40
0.5436576034234474
 40
0.946893865560676
 40
1.0
 40
1.0
 40
1.0
 40
1.0
 10
234.5862236069756
 20
163.8458007423149
 30
0.0
 10
234.6447345468281
 20
163.8446179493632
 30
0.0
 10
234.7860707076697
 20
163.8417608526341
 30
0.0
 10
235.0133641788645
 20
163.8270908714369
 30
0.0
 10
235.1836291048097
 20
163.808249487292
 30
0.0
 10
235.2377713625569
 20
163.79275680302
 30
0.0
 10
235.2440720833322
 20
163.7909538660587
 30
0.0
  0
SPLINE
  5
121
330
1F
100
AcDbEntity
  8
0
  6
Continuous
 62
     7
370
    25
100
AcDbSpline
210
0.0
220
0.0
230
1.0
 70
     8
 71
     3
 72
    14
 73
    10
 74
     0
 42
0.00000001
 43
0.00000001
 40
0.0
 40
0.0
 40
0.0
 40
0.0
 40
0.5000000000000003
 40
0.5000000000000003
 40
0.7500000000000003
 40
0.7500000000000003
 40
0.8750000000000002
 40
0.8750000000000002
 40
1.0
 40
1.0
 40
1.0
 40
1.0
 10
211.3028602710277
 20
163.924415197972
 30
0.0
 10
215.1836333777961
 20
163.9255333139994
 30
0.0
 10
219.0644036254975
 20
163.9286799841156
 30
0.0
 10
224.8854536534723
 20
163.9245025537125
 30
0.0
 10
226.8257946386753
 20
163.9212091428577
 30
0.0
 10
229.7360496592925
 20
163.9027194378215
 30
0.0
 10
230.7060968869803
 20
163.8941571949745
 30
0.0
 10
232.6461611994323
 20
163.8722306411234
 30
0.0
 10
233.6161860746379
 20
163.8610568043068
 30
0.0
 10
234.5862236069756
 20
163.8458007423149
 30
0.0
  0
SPLINE
  5
122
330
1F
100
AcDbEntity
  8
0
  6
Continuous
 62
     7
370
    25
100
AcDbSpline
210
0.0
220
0.0
230
1.0
 70
     8
 71
     3
 72
    30
 73
    26
 74
     0
 42
0.00000001
 43
0.00000001
 40
0.0
 40
0.0
 40
0.0
 40
0.0
 40
0.1249999999999999
 40
0.1249999999999999
 40
0.2499999999999999
 40
0.2499999999999999
 40
0.3124999999999999
 40
0.3124999999999999
 40
0.3750000000000001
 40
0.3750000000000001
 40
0.4375000000000001
 40
0.4375000000000001
 40
0.5000000000000001
 40
0.5000000000000001
 40
0.5625000000000001
 40
0.5625000000000001
 40
0.625
 40
0.625
 40
0.6875
 40
0.6875
 40
0.75
 40
0.75
 40
0.875
 40
0.875
 40
1.0
 40
1.0
 40
1.0
 40
1.0
 10
233.6736884528833
 20
179.7705076545768
 30
0.0
 10
233.7082560822485
 20
179.3434329459245
 30
0.0
 10
233.5995427443252
 20
178.9223353810778
 30
0.0
 10
233.1324525282787
 20
178.0905552895465
 30
0.0
 10
232.7738965242744
 20
177.6798802318577
 30
0.0
 10
232.0573008949952
 20
177.0713249131621
 30
0.0
 10
231.7891413571899
 20
176.8704884426032
 30
0.0
 10
231.2017894653232
 20
176.4779091155672
 30
0.0
 10
230.8817568612834
 20
176.2854001092931
 30
0.0
 10
230.1861523259886
 20
175.9083487804916
 30
0.0
 10
229.8106781781995
 20
175.7237924316879
 30
0.0
 10
228.9955436553726
 20
175.3638867482635
 30
0.0
 10
228.5559236612536
 20
175.1885316213146
 30
0.0
 10
227.5959615372153
 20
174.8494003288399
 30
0.0
 10
227.0724188818268
 20
174.6850897588053
 30
0.0
 10
225.9613156136606
 20
174.3813076071924
 30
0.0
 10
225.3705110388743
 20
174.2406281177525
 30
0.0
 10
224.1144862359494
 20
173.9829357467616
 30
0.0
 10
223.4475845303451
 20
173.8656627067239
 30
0.0
 10
222.0483442625967
 20
173.6552463536393
 30
0.0
 10
221.3300215212613
 20
173.5640083991859
 30
0.0
 10
219.129975070794
 20
173.3239664629272
 30
0.0
 10
217.6043395235512
 20
173.2079631551465
 30
0.0
 10
214.472543371909
 20
173.0361060633635
 30
0.0
 10
212.8922434697036
 20
172.981896042823
 30
0.0
 10
211.3028559186124
 20
172.9532221170191
 30
0.0
  0
SPLINE
  5
123
330
1F
100
AcDbEntity
  8
0
  6
Continuous
 62
     7
370
    25
100
AcDbSpline
210
0.0
220
0.0
230
1.0
 70
     8
 71
     3
 72
    30
 73
    26
 74
     0
 42
0.00000001
 43
0.00000001
 40
0.0
 40
0.0
 40
0.0
 40
0.0
 40
0.125
 40
0.125
 40
0.25
 40
0.25
 40
0.3125000000000001
 40
0.3125000000000001
 40
0.3750000000000001
 40
0.3750000000000001
 40
0.4375000000000002
 40
0.4375000000000002
 40
0.5000000000000002
 40
0.5000000000000002
 40
0.5625000000000002
 40
0.5625000000000002
 40
0.6250000000000002
 40
0.6250000000000002
 40
0.6875000000000002
 40
0.6875000000000002
 40
0.7500000000000002
 40
0.7500000000000002
 40
0.8750000000000001
 40
0.8750000000000001
 40
1.0
 40
1.0
 40
1.0
 40
1.0
 10
184.9315851626161
 20
179.7705076545768
 30
0.0
 10
184.8970175332391
 20
179.3434329457795
 30
0.0
 10
185.0057308700286
 20
178.9223353842086
 30
0.0
 10
185.4728210850364
 20
178.0905552923451
 30
0.0
 10
185.8313770886343
 20
177.6798802344949
 30
0.0
 10
186.5479727174209
 20
177.0713249155621
 30
0.0
 10
186.8161322551182
 20
176.8704884448971
 30
0.0
 10
187.4034841467878
 20
176.477909117671
 30
0.0
 10
187.7235167507459
 20
176.2854001113042
 30
0.0
 10
188.419121285897
 20
175.9083487823202
 30
0.0
 10
188.794595433624
 20
175.7237924334267
 30
0.0
 10
189.6097299563317
 20
175.3638867498234
 30
0.0
 10
190.0493499503932
 20
175.1885316227854
 30
0.0
 10
191.0093120743157
 20
174.8494003301322
 30
0.0
 10
191.5328547296901
 20
174.6850897599926
 30
0.0
 10
192.6439579979005
 20
174.3813076081708
 30
0.0
 10
193.2347625727251
 20
174.2406281186313
 30
0.0
 10
194.4907873757752
 20
173.9829357474572
 30
0.0
 10
195.157689081418
 20
173.8656627073429
 30
0.0
 10
196.5569293495142
 20
173.6552463540918
 30
0.0
 10
197.2752520910427
 20
173.5640083995696
 30
0.0
 10
199.475298542134
 20
173.3239664631377
 30
0.0
 10
201.0009340898501
 20
173.2079631552843
 30
0.0
 10
204.1327302424989
 20
173.0361060634006
 30
0.0
 10
205.7130301452562
 20
172.9818960428328
 30
0.0
 10
207.3024176968869
 20
172.9532221170192
 30
0.0
  0
SPLINE
  5
124
330
1F
100
AcDbEntity
  8
0
  6
Continuous
 62
     7
370
    25
100
AcDbSpline
210
0.0
220
0.0
230
1.0
 70
     8
 71
     3
 72
    14
 73
    10
 74
     0
 42
0.00000001
 43
0.00000001
 40
0.0
 40
0.0
 40
0.0
 40
0.0
 40
0.125
 40
0.125
 40
0.25
 40
0.25
 40
0.5
 40
0.5
 40
1.0
 40
1.0
 40
1.0
 40
1.0
 10
184.0190500085235
 20
163.8458007423149
 30
0.0
 10
184.9890844567741
 20
163.8610567558025
 30
0.0
 10
185.9591062480209
 20
163.8722305560596
 30
0.0
 10
187.8991643921446
 20
163.8941570709016
 30
0.0
 10
188.8692085354664
 20
163.9027193100297
 30
0.0
 10
191.7794543020192
 20
163.9212090457294
 30
0.0
 10
193.7197866881613
 20
163.9245025016185
 30
0.0
 10
199.540833333308
 20
163.9286800142389
 30
0.0
 10
203.4216301406299
 20
163.9255333169084
 30
0.0
 10
207.3024133444716
 20
163.924415197972
 30
0.0
  0
SPLINE
  5
125
330
1F
100
AcDbEntity
  8
0
  6
Continuous
 62
     7
370
    18
100
AcDbSpline
210
0.0
220
0.0
230
1.0
 70
     8
 71
     3
 72
    70
 73
    66
 74
     0
 42
0.00000001
 43
0.00000001
 40
0.0
 40
0.0
 40
0.0
 40
0.0
 40
0.004623925331678
 40
0.004623925331678
 40
0.014547105469088
 40
0.014547105469088
 40
0.054239826018708
 40
0.054239826018708
 40
0.0939325465683281
 40
0.0939325465683281
 40
0.1336252671179481
 40
0.1336252671179481
 40
0.1733179876675679
 40
0.1733179876675679
 40
0.2130107082171879
 40
0.2130107082171879
 40
0.292396149316428
 40
0.292396149316428
 40
0.3717815904156681
 40
0.3717815904156681
 40
0.4114743109652881
 40
0.4114743109652881
 40
0.4511670315149081
 40
0.4511670315149081
 40
0.530552472614138
 40
0.530552472614138
 40
0.609937913713388
 40
0.609937913713388
 40
0.649630634263002
 40
0.649630634263002
 40
0.68932335481262
 40
0.68932335481262
 40
0.768708795911861
 40
0.768708795911861
 40
0.848094237011098
 40
0.848094237011098
 40
0.927479678110339
 40
0.927479678110339
 40
1.006865119209576
 40
1.006865119209576
 40
1.086250560308817
 40
1.086250560308817
 40
1.165636001408054
 40
1.165636001408054
 40
1.245021442507295
 40
1.245021442507295
 40
1.324406883606532
 40
1.324406883606532
 40
1.403792324705773
 40
1.403792324705773
 40
1.48317776580501
 40
1.48317776580501
 40
1.522870486354628
 40
1.522870486354628
 40
1.562563206904251
 40
1.562563206904251
 40
1.602255927453869
 40
1.602255927453869
 40
1.62210228772868
 40
1.62210228772868
 40
1.641948648003488
 40
1.641948648003488
 40
1.646910238072191
 40
1.646910238072191
 40
1.648091429210778
 40
1.648091429210778
 40
1.648091429210778
 40
1.648091429210778
 10
183.0241979907696
 20
158.9272823827106
 30
0.0
 10
183.0241991620036
 20
158.9274947153119
 30
0.0
 10
183.0242027899372
 20
158.9277034748914
 30
0.0
 10
183.0242332535977
 20
158.9283443998726
 30
0.0
 10
183.0242774080393
 20
158.9288693430866
 30
0.0
 10
183.0245812327179
 20
158.9312053776288
 30
0.0
 10
183.0250633839345
 20
158.9330065594188
 30
0.0
 10
183.0262250851813
 20
158.9367603874452
 30
0.0
 10
183.0268721668262
 20
158.9385267443145
 30
0.0
 10
183.0286717185599
 20
158.9423114065414
 30
0.0
 10
183.0297520417227
 20
158.94412704819
 30
0.0
 10
183.0323868055723
 20
158.9477751399216
 30
0.0
 10
183.0340337416116
 20
158.9497014588477
 30
0.0
 10
183.0376920828642
 20
158.9533809353673
 30
0.0
 10
183.0396269598059
 20
158.9551092797054
 30
0.0
 10
183.0466157885299
 20
158.9606532936262
 30
0.0
 10
183.0521976937659
 20
158.9642452194485
 30
0.0
 10
183.0655282413316
 20
158.9714239933642
 30
0.0
 10
183.0731970792879
 20
158.9749740409771
 30
0.0
 10
183.0862413018018
 20
158.9802150400381
 30
0.0
 10
183.0905923062667
 20
158.9818575805208
 30
0.0
 10
183.1004149806509
 20
158.9853435721217
 30
0.0
 10
183.105438979411
 20
158.9870219227569
 30
0.0
 10
183.1215393331013
 20
158.9921087709057
 30
0.0
 10
183.1330823560556
 20
158.9953864197081
 30
0.0
 10
183.1580958665696
 20
159.0018414497195
 30
0.0
 10
183.1712450522228
 20
159.0049389961769
 30
0.0
 10
183.1925124834655
 20
159.0095344173959
 30
0.0
 10
183.2000912714952
 20
159.0111009618369
 30
0.0
 10
183.2150812267447
 20
159.0140731750605
 30
0.0
 10
183.2225565432028
 20
159.0154998302249
 30
0.0
 10
183.2465599895836
 20
159.0199079391305
 30
0.0
 10
183.2626672796139
 20
159.0226546001122
 30
0.0
 10
183.296660545219
 20
159.0281020401051
 30
0.0
 10
183.3147240834278
 20
159.0308141136758
 30
0.0
 10
183.3507456344838
 20
159.0358985299223
 30
0.0
 10
183.3696747535559
 20
159.038408904415
 30
0.0
 10
183.4081736883963
 20
159.043169456407
 30
0.0
 10
183.4278781308004
 20
159.0454441728522
 30
0.0
 10
183.4689740830605
 20
159.0498145955216
 30
0.0
 10
183.4895648452495
 20
159.0518251197596
 30
0.0
 10
183.5327921279172
 20
159.0556932994325
 30
0.0
 10
183.5550467166867
 20
159.0575061994789
 30
0.0
 10
183.5996529117798
 20
159.0608025131987
 30
0.0
 10
183.6226374700352
 20
159.0623357207264
 30
0.0
 10
183.6697949226827
 20
159.0651179059548
 30
0.0
 10
183.692953764959
 20
159.0663219430633
 30
0.0
 10
183.7415930440375
 20
159.0685232907806
 30
0.0
 10
183.7657196141478
 20
159.0694544428003
 30
0.0
 10
183.815060407753
 20
159.0710533924097
 30
0.0
 10
183.8397571314742
 20
159.0716898241755
 30
0.0
 10
183.8768288560066
 20
159.0724549517823
 30
0.0
 10
183.8896787934058
 20
159.0726818098869
 30
0.0
 10
183.9147622030643
 20
159.0730567894682
 30
0.0
 10
183.9270106287618
 20
159.0732076392178
 30
0.0
 10
183.9523872089641
 20
159.0734614904273
 30
0.0
 10
183.9647098413654
 20
159.0735567708643
 30
0.0
 10
183.9838053089565
 20
159.0736742438318
 30
0.0
 10
183.9899204944403
 20
159.0737076773288
 30
0.0
 10
184.0025592151692
 20
159.073767604729
 30
0.0
 10
184.008758602901
 20
159.0737950864558
 30
0.0
 10
184.0166977237332
 20
159.073826999863
 30
0.0
 10
184.0182431340581
 20
159.0738321380408
 30
0.0
 10
184.0203386793104
 20
159.0738412275162
 30
0.0
 10
184.0207143285642
 20
159.0738423264579
 30
0.0
 10
184.0210755890881
 20
159.0738429929666
 30
0.0
  0
SPLINE
  5
126
330
1F
100
AcDbEntity
  8
0
  6
Continuous
 62
     7
370
    25
100
AcDbSpline
210
0.0
220
0.0
230
1.0
 70
     8
 71
     3
 72
    14
 73
    10
 74
     0
 42
0.00000001
 43
0.00000001
 40
-0.0000000599999896
 40
-0.0000000599999896
 40
-0.0000000599999896
 40
-0.0000000599999896
 40
0.0
 40
0.0
 40
0.0
 40
0.0000040798732374
 40
0.0000040798732374
 40
0.0000040798732374
 40
0.0000041398732322
 40
0.0000041398732322
 40
0.0000041398732322
 40
0.0000041398732322
 10
183.0242124730322
 20
163.5293246600863
 30
0.0
 10
183.0242123310764
 20
163.529323180178
 30
0.0
 10
183.0242121904753
 20
163.5293217069018
 30
0.0
 10
183.0242120512244
 20
163.5293202203615
 30
0.0
 10
183.0242025824556
 20
163.5292191387426
 30
0.0
 10
183.0241992199965
 20
163.529088082854
 30
0.0
 10
183.0241980412997
 20
163.5289357606775
 30
0.0
 10
183.0241980239654
 20
163.5289335205761
 30
0.0
 10
183.0241980071258
 20
163.5289312710371
 30
0.0
 10
183.0241979907689
 20
163.528929026217
 30
0.0
  0
SPLINE
  5
127
330
1F
100
AcDbEntity
  8
0
  6
Continuous
 62
     7
370
    25
100
AcDbSpline
210
0.0
220
0.0
230
1.0
 70
     8
 71
     3
 72
    14
 73
    10
 74
     0
 42
0.00000001
 43
0.00000001
 40
-0.000000059999997
 40
-0.000000059999997
 40
-0.000000059999997
 40
-0.000000059999997
 40
0.0
 40
0.0
 40
0.0
 40
0.0000095015652516
 40
0.0000095015652516
 40
0.0000095015652516
 40
0.000009561551458
 40
0.000009561551458
 40
0.000009561551458
 40
0.000009561551458
 10
183.0243381729743
 20
163.5302912499804
 30
0.0
 10
183.0243377863151
 20
163.5302894290246
 30
0.0
 10
183.0243374006313
 20
163.5302876115809
 30
0.0
 10
183.0243370159337
 20
163.530285787113
 30
0.0
 10
183.0242760954345
 20
163.5299968654232
 30
0.0
 10
183.0242356202811
 20
163.5296313269416
 30
0.0
 10
183.0242129006998
 20
163.5293303506623
 30
0.0
 10
183.0242127572643
 20
163.5293284505095
 30
0.0
 10
183.0242126147038
 20
163.5293265569449
 30
0.0
 10
183.0242124730322
 20
163.5293246600863
 30
0.0
  0
SPLINE
  5
128
330
1F
100
AcDbEntity
  8
0
  6
Continuous
 62
     7
370
    18
100
AcDbSpline
210
0.0
220
0.0
230
1.0
 70
     8
 71
     3
 72
    70
 73
    66
 74
     0
 42
0.00000001
 43
0.00000001
 40
0.0
 40
0.0
 40
0.0
 40
0.0
 40
0.0011811911385867
 40
0.0011811911385867
 40
0.0061427812072904
 40
0.0061427812072904
 40
0.0259891414820978
 40
0.0259891414820978
 40
0.0458355017569089
 40
0.0458355017569089
 40
0.0855282223065275
 40
0.0855282223065275
 40
0.12522094285615
 40
0.12522094285615
 40
0.164913663405768
 40
0.164913663405768
 40
0.244299104505005
 40
0.244299104505005
 40
0.323684545604246
 40
0.323684545604246
 40
0.403069986703483
 40
0.403069986703483
 40
0.482455427802724
 40
0.482455427802724
 40
0.561840868901961
 40
0.561840868901961
 40
0.641226310001202
 40
0.641226310001202
 40
0.720611751100439
 40
0.720611751100439
 40
0.79999719219968
 40
0.79999719219968
 40
0.879382633298917
 40
0.879382633298917
 40
0.958768074398158
 40
0.958768074398158
 40
0.998460794947776
 40
0.998460794947776
 40
1.03815351549739
 40
1.03815351549739
 40
1.11753895659664
 40
1.11753895659664
 40
1.19692439769587
 40
1.19692439769587
 40
1.23661711824549
 40
1.23661711824549
 40
1.27630983879511
 40
1.27630983879511
 40
1.35569527989435
 40
1.35569527989435
 40
1.43508072099359
 40
1.43508072099359
 40
1.47477344154321
 40
1.47477344154321
 40
1.51446616209283
 40
1.51446616209283
 40
1.55415888264245
 40
1.55415888264245
 40
1.59385160319207
 40
1.59385160319207
 40
1.63354432374169
 40
1.63354432374169
 40
1.6434675038791
 40
1.6434675038791
 40
1.64809139665317
 40
1.64809139665317
 40
1.64809139665317
 40
1.64809139665317
 10
234.5841980264113
 20
159.0738427870321
 30
0.0
 10
234.5845592869352
 20
159.0738421205234
 30
0.0
 10
234.5849349361889
 20
159.0738410215817
 30
0.0
 10
234.5870304814413
 20
159.0738319321063
 30
0.0
 10
234.5885758917661
 20
159.0738267939286
 30
0.0
 10
234.5965150125983
 20
159.0737948805213
 30
0.0
 10
234.6027144003302
 20
159.0737673987945
 30
0.0
 10
234.6153531210591
 20
159.0737074713942
 30
0.0
 10
234.6214683065429
 20
159.0736740378973
 30
0.0
 10
234.640563774134
 20
159.0735565649298
 30
0.0
 10
234.6528864065353
 20
159.0734612844929
 30
0.0
 10
234.6782629867376
 20
159.0732074332833
 30
0.0
 10
234.6905114124351
 20
159.0730565835337
 30
0.0
 10
234.7155948220935
 20
159.0726816039523
 30
0.0
 10
234.7284447594928
 20
159.0724547458478
 30
0.0
 10
234.7655164840252
 20
159.0716896182411
 30
0.0
 10
234.7902132077464
 20
159.0710531864751
 30
0.0
 10
234.8395540013515
 20
159.0694542368658
 30
0.0
 10
234.8636805714618
 20
159.0685230848461
 30
0.0
 10
234.9123198505404
 20
159.0663217371288
 30
0.0
 10
234.9354786928167
 20
159.0651177000203
 30
0.0
 10
234.9826361454642
 20
159.0623355147919
 30
0.0
 10
235.0056207037196
 20
159.0608023072642
 30
0.0
 10
235.0502268988127
 20
159.0575059935443
 30
0.0
 10
235.0724814875822
 20
159.055693093498
 30
0.0
 10
235.1157087702499
 20
159.0518249138252
 30
0.0
 10
235.1362995324389
 20
159.0498143895871
 30
0.0
 10
235.177395484699
 20
159.0454439669177
 30
0.0
 10
235.197099927103
 20
159.0431692504725
 30
0.0
 10
235.2355988619435
 20
159.0384086984805
 30
0.0
 10
235.2545279810156
 20
159.0358983239878
 30
0.0
 10
235.2905495320715
 20
159.0308139077413
 30
0.0
 10
235.3086130702803
 20
159.0281018341705
 30
0.0
 10
235.3426063358854
 20
159.0226543941777
 30
0.0
 10
235.3587136259157
 20
159.019907733196
 30
0.0
 10
235.3827170722966
 20
159.0154996242904
 30
0.0
 10
235.3901923887547
 20
159.014072969126
 30
0.0
 10
235.4051823440041
 20
159.0111007559024
 30
0.0
 10
235.4127611320339
 20
159.0095342114614
 30
0.0
 10
235.4340285632765
 20
159.0049387902424
 30
0.0
 10
235.4471777489298
 20
159.001841243785
 30
0.0
 10
235.4721912594438
 20
158.9953862137736
 30
0.0
 10
235.483734282398
 20
158.9921085649711
 30
0.0
 10
235.4998346360884
 20
158.9870217168224
 30
0.0
 10
235.5048586348485
 20
158.9853433661872
 30
0.0
 10
235.5146813092327
 20
158.9818573745863
 30
0.0
 10
235.5190323136976
 20
158.9802148341036
 30
0.0
 10
235.5320765362115
 20
158.9749738350426
 30
0.0
 10
235.5397453741678
 20
158.9714237874297
 30
0.0
 10
235.5530759217334
 20
158.9642450135139
 30
0.0
 10
235.5586578269694
 20
158.9606530876917
 30
0.0
 10
235.5656466556935
 20
158.9551090737709
 30
0.0
 10
235.5675815326352
 20
158.9533807294328
 30
0.0
 10
235.5712398738877
 20
158.9497012529131
 30
0.0
 10
235.572886809927
 20
158.9477749339871
 30
0.0
 10
235.5755215737767
 20
158.9441268422556
 30
0.0
 10
235.5766018969394
 20
158.9423112006069
 30
0.0
 10
235.5784014486732
 20
158.93852653838
 30
0.0
 10
235.5790485303181
 20
158.9367601815106
 30
0.0
 10
235.5802102315649
 20
158.9330063534843
 30
0.0
 10
235.5806923827814
 20
158.9312051716944
 30
0.0
 10
235.5809962074601
 20
158.9288691371522
 30
0.0
 10
235.5810403619017
 20
158.9283441939381
 30
0.0
 10
235.5810708255621
 20
158.9277032689569
 30
0.0
 10
235.5810744534957
 20
158.9274945093774
 30
0.0
 10
235.5810756247297
 20
158.9272821767761
 30
0.0
  0
SPLINE
  5
129
330
1F
100
AcDbEntity
  8
0
  6
Continuous
 62
     7
370
    25
100
AcDbSpline
210
0.0
220
0.0
230
1.0
 70
     8
 71
     3
 72
    14
 73
    10
 74
     0
 42
0.00000001
 43
0.00000001
 40
-0.0000000599862064
 40
-0.0000000599862064
 40
-0.0000000599862064
 40
-0.0000000599862064
 40
0.0
 40
0.0
 40
0.0
 40
0.0000095015652474
 40
0.0000095015652474
 40
0.0000095015652474
 40
0.0000095615652486
 40
0.0000095615652486
 40
0.0000095615652486
 40
0.0000095615652486
 10
235.5810611424671
 20
163.5293246600862
 30
0.0
 10
235.5810610007956
 20
163.5293265569449
 30
0.0
 10
235.581060858235
 20
163.5293284505095
 30
0.0
 10
235.5810607147995
 20
163.5293303506623
 30
0.0
 10
235.5810379952182
 20
163.5296313269417
 30
0.0
 10
235.5809975200649
 20
163.5299968654236
 30
0.0
 10
235.5809365995657
 20
163.5302857871133
 30
0.0
 10
235.5809362148681
 20
163.5302876115813
 30
0.0
 10
235.5809358291843
 20
163.5302894290247
 30
0.0
 10
235.5809354425251
 20
163.5302912499804
 30
0.0
  0
SPLINE
  5
12A
330
1F
100
AcDbEntity
  8
0
  6
Continuous
 62
     7
370
    25
100
AcDbSpline
210
0.0
220
0.0
230
1.0
 70
     8
 71
     3
 72
    14
 73
    10
 74
     0
 42
0.00000001
 43
0.00000001
 40
-0.0000000599999949
 40
-0.0000000599999949
 40
-0.0000000599999949
 40
-0.0000000599999949
 40
0.0
 40
0.0
 40
0.0
 40
0.0000040798732373
 40
0.0000040798732373
 40
0.0000040798732373
 40
0.0000041398732269
 40
0.0000041398732269
 40
0.0000041398732269
 40
0.0000041398732269
 10
235.5810756247304
 20
163.528929026217
 30
0.0
 10
235.5810756083736
 20
163.5289312710373
 30
0.0
 10
235.581075591534
 20
163.5289335205763
 30
0.0
 10
235.5810755741997
 20
163.5289357606777
 30
0.0
 10
235.5810743955028
 20
163.5290880828541
 30
0.0
 10
235.5810710330438
 20
163.5292191387429
 30
0.0
 10
235.581061564275
 20
163.5293202203618
 30
0.0
 10
235.5810614250241
 20
163.5293217069021
 30
0.0
 10
235.581061284423
 20
163.5293231801781
 30
0.0
 10
235.5810611424671
 20
163.5293246600862
 30
0.0
  0
SPLINE
  5
12B
330
1F
100
AcDbEntity
  8
0
  6
Continuous
 62
     7
370
    25
100
AcDbSpline
210
0.0
220
0.0
230
1.0
 70
     8
 71
     3
 72
    10
 73
     6
 74
     0
 42
0.00000001
 43
0.00000001
 40
0.0
 40
0.0
 40
0.0
 40
0.0
 40
0.5
 40
0.5
 40
1.0
 40
1.0
 40
1.0
 40
1.0
 10
235.5810756240809
 20
163.5289455710151
 30
0.0
 10
235.5810770352844
 20
163.5790117220634
 30
0.0
 10
235.5610730307811
 20
163.6288089726505
 30
0.0
 10
235.4916293144455
 20
163.7015372230287
 30
0.0
 10
235.4425608785405
 20
163.7240792492739
 30
0.0
 10
235.3921176314445
 20
163.7268396965703
 30
0.0
  0
SPLINE
  5
12C
330
1F
100
AcDbEntity
  8
0
  6
Continuous
 62
     7
370
    18
100
AcDbSpline
210
0.0
220
0.0
230
1.0
 70
     8
 71
     3
 72
    20
 73
    16
 74
     0
 42
0.00000001
 43
0.00000001
 40
0.0
 40
0.0
 40
0.0
 40
0.0
 40
0.428079751137956
 40
0.428079751137956
 40
0.428079751137956
 40
0.641265942922062
 40
0.641265942922062
 40
0.854197011142565
 40
0.854197011142565
 40
1.06777084677066
 40
1.06777084677066
 40
1.28269742240267
 40
1.28269742240267
 40
1.28269742240267
 40
1.71218222231151
 40
1.71218222231151
 40
1.71218222231151
 40
1.71218222231151
 10
234.5508332574821
 20
157.9206032610194
 30
0.0
 10
234.5508363484566
 20
157.9416417452854
 30
0.0
 10
234.5524112955221
 20
157.9779960867345
 30
0.0
 10
234.5553822983968
 20
158.0367108846788
 30
0.0
 10
234.5568618380206
 20
158.0659504626094
 30
0.0
 10
234.5586774988348
 20
158.1007698385545
 30
0.0
 10
234.5627422528286
 20
158.1824028214182
 30
0.0
 10
234.5649896653027
 20
158.2292338729233
 30
0.0
 10
234.5695309417498
 20
158.3340292895656
 30
0.0
 10
234.5718183379181
 20
158.3919964704589
 30
0.0
 10
234.5760091032316
 20
158.5161310791325
 30
0.0
 10
234.5779053775962
 20
158.5822831941294
 30
0.0
 10
234.5794526316883
 20
158.6504969691985
 30
0.0
 10
234.5825445496015
 20
158.7868103221291
 30
0.0
 10
234.5841806080501
 20
158.930705970975
 30
0.0
 10
234.5841980264113
 20
159.0738427870321
 30
0.0
  0
SPLINE
  5
12D
330
1F
100
AcDbEntity
  8
0
  6
Continuous
 62
     7
370
    18
100
AcDbSpline
210
0.0
220
0.0
230
1.0
 70
     8
 71
     3
 72
    20
 73
    16
 74
     0
 42
0.00000001
 43
0.00000001
 40
0.0
 40
0.0
 40
0.0
 40
0.0
 40
0.428079751137956
 40
0.428079751137956
 40
0.428079751137956
 40
0.641265942922062
 40
0.641265942922062
 40
0.854197011142565
 40
0.854197011142565
 40
1.06777084677066
 40
1.06777084677066
 40
1.28269742240267
 40
1.28269742240267
 40
1.28269742240267
 40
1.71218222231151
 40
1.71218222231151
 40
1.71218222231151
 40
1.71218222231151
 10
184.0544403580172
 20
157.9206032610194
 30
0.0
 10
184.0544372670428
 20
157.9416417452854
 30
0.0
 10
184.0528623199773
 20
157.9779960867345
 30
0.0
 10
184.0498913171026
 20
158.0367108846788
 30
0.0
 10
184.0484117774788
 20
158.0659504626094
 30
0.0
 10
184.0465961166645
 20
158.1007698385545
 30
0.0
 10
184.0425313626707
 20
158.1824028214182
 30
0.0
 10
184.0402839501967
 20
158.2292338729233
 30
0.0
 10
184.0357426737496
 20
158.3340292895656
 30
0.0
 10
184.0334552775813
 20
158.3919964704589
 30
0.0
 10
184.0292645122678
 20
158.5161310791325
 30
0.0
 10
184.0273682379032
 20
158.5822831941294
 30
0.0
 10
184.0258209838111
 20
158.6504969691985
 30
0.0
 10
184.0227290658979
 20
158.7868103221291
 30
0.0
 10
184.0210930074493
 20
158.930705970975
 30
0.0
 10
184.0210755890881
 20
159.0738427870321
 30
0.0
  0
SPLINE
  5
12E
330
1F
100
AcDbEntity
  8
0
  6
Continuous
 62
     7
370
    18
100
AcDbSpline
210
0.0
220
0.0
230
1.0
 70
     8
 71
     3
 72
     8
 73
     4
 74
     0
 42
0.00000001
 43
0.00000001
 40
0.0
 40
0.0
 40
0.0
 40
0.0
 40
1.64806382406154
 40
1.64806382406154
 40
1.64806382406154
 40
1.64806382406154
 10
235.5810754202677
 20
158.9272835869382
 30
0.0
 10
235.5804696920897
 20
158.2639111828291
 30
0.0
 10
235.2198930560715
 20
157.9206797179564
 30
0.0
 10
234.5508332570291
 20
157.9206031765499
 30
0.0
  0
SPLINE
  5
12F
330
1F
100
AcDbEntity
  8
0
  6
Continuous
 62
     7
370
    18
100
AcDbSpline
210
0.0
220
0.0
230
1.0
 70
     8
 71
     3
 72
     8
 73
     4
 74
     0
 42
0.00000001
 43
0.00000001
 40
0.0
 40
0.0
 40
0.0
 40
0.0
 40
1.64806382406154
 40
1.64806382406154
 40
1.64806382406154
 40
1.64806382406154
 10
183.0241981952317
 20
158.9272835869382
 30
0.0
 10
183.0248039234097
 20
158.2639111828291
 30
0.0
 10
183.3853805594278
 20
157.9206797179564
 30
0.0
 10
184.0544403584702
 20
157.9206031765499
 30
0.0
  0
SPLINE
  5
130
330
1F
100
AcDbEntity
  8
0
  6
Continuous
 62
     7
370
    25
100
AcDbSpline
210
0.0
220
0.0
230
1.0
 70
     8
 71
     3
 72
     8
 73
     4
 74
     0
 42
0.00000001
 43
0.00000001
 40
0.0
 40
0.0
 40
0.0
 40
0.0
 40
1.0
 40
1.0
 40
1.0
 40
1.0
 10
207.3024142160622
 20
172.9532258721904
 30
0.0
 10
207.9681448948594
 20
172.9412169298551
 30
0.0
 10
208.6354393963018
 20
172.9376140664662
 30
0.0
 10
209.3026368077497
 20
172.9376135997885
 30
0.0
  0
SPLINE
  5
131
330
1F
100
AcDbEntity
  8
0
  6
Continuous
 62
     7
370
    25
100
AcDbSpline
210
0.0
220
0.0
230
1.0
 70
     8
 71
     3
 72
     8
 73
     4
 74
     0
 42
0.00000001
 43
0.00000001
 40
0.0
 40
0.0
 40
0.0
 40
0.0
 40
1.0
 40
1.0
 40
1.0
 40
1.0
 10
211.3028593994371
 20
172.9532258721904
 30
0.0
 10
210.63712872064
 20
172.9412169298551
 30
0.0
 10
209.9698342191975
 20
172.9376140664662
 30
0.0
 10
209.3026368077496
 20
172.9376135997885
 30
0.0
  0
LINE
  5
132
330
1F
100
AcDbEntity
  8
0
  6
Continuous
 62
     7
370
    25
100
AcDbLine
 10
233.673688457
 20
179.7705076036
 30
0.0
 11
231.3426005101
 21
179.7705075526
 31
0.0
  0
LINE
  5
133
330
1F
100
AcDbEntity
  8
0
  6
Continuous
 62
     7
370
    25
100
AcDbLine
 10
184.9315851297
 20
179.7705076036
 30
0.0
 11
187.2626731054
 21
179.7705075526
 31
0.0
  0
LWPOLYLINE
  5
134
330
1F
100
AcDbEntity
  8
0
  6
Continuous
 62
     7
370
    25
100
AcDbPolyline
 90
       28
 70
   128
 43
0.0
 10
187.3994787355
 20
179.4931824475
 10
187.6265302094
 20
179.1276909
 10
188.2296710557
 20
178.4987676413
 10
189.0875041342
 20
177.891338195
 10
190.1896614964
 20
177.3127440794
 10
191.52282224
 20
176.7699783028
 10
193.0708735081
 20
176.2696008449
 10
194.8151052319
 20
175.8176593715
 10
196.7344362654
 20
175.4196161407
 10
198.8056691759
 20
175.0802819858
 10
201.003770613
 20
174.8037581694
 10
203.3021738671
 20
174.5933868159
 10
205.6730999602
 20
174.4517105171
 10
208.087893388
 20
174.3804416019
 10
210.5173684565
 20
174.3804414414
 10
212.9321620265
 20
174.4517100374
 10
215.3030884024
 20
174.5933860229
 10
217.6014920765
 20
174.8037570727
 10
219.7995940656
 20
175.0802805985
 10
221.8708276535
 20
175.4196144798
 10
223.7901594816
 20
175.8176574568
 10
225.5343921076
 20
176.2695986998
 10
227.0824443744
 20
176.769975953
 10
228.4156062016
 20
177.3127415534
 10
229.5177647188
 20
177.8913355234
 10
230.3755990098
 20
178.4987648563
 10
230.9787411115
 20
179.1276880353
 10
231.20579488
 20
179.4931824475
  0
SPLINE
  5
135
330
1F
100
AcDbEntity
  8
0
  6
Continuous
 62
     7
370
    25
100
AcDbSpline
210
0.0
220
0.0
230
1.0
 70
     8
 71
     3
 72
     9
 73
     5
 74
     0
 42
0.00000001
 43
0.00000001
 40
0.0
 40
0.0
 40
0.0
 40
0.0
 40
0.5458490474407809
 40
1.0
 40
1.0
 40
1.0
 40
1.0
 10
235.5782328071332
 20
155.0188829318747
 30
0.0
 10
235.5794829637522
 20
155.6702799922042
 30
0.0
 10
235.5817732610879
 20
156.8636448306765
 30
0.0
 10
235.5813032334694
 20
158.0570080766426
 30
0.0
 10
235.5810897699787
 20
158.5989751315472
 30
0.0
  0
LWPOLYLINE
  5
136
330
1F
100
AcDbEntity
  8
0
  6
Continuous
 62
     7
370
    25
100
AcDbPolyline
 90
        3
 70
   128
 43
0.0
 10
183.0272436612
 20
155.0188778279
 10
183.0239095305
 20
156.9730891121
 10
183.0241495306
 20
158.5989854452
  0
SPLINE
  5
137
330
1F
100
AcDbEntity
  8
0
  6
Continuous
 62
     7
370
    25
100
AcDbSpline
210
0.0
220
0.0
230
1.0
 70
     8
 71
     3
 72
     9
 73
     5
 74
     0
 42
0.00000001
 43
0.00000001
 40
0.0
 40
0.0
 40
0.0
 40
0.0
 40
0.6232756525778551
 40
1.0
 40
1.0
 40
1.0
 40
1.0
 10
235.5876280181199
 20
145.2087618698822
 30
0.0
 10
235.58125665306
 20
146.2560686704327
 30
0.0
 10
235.5710342658489
 20
147.9363954988895
 30
0.0
 10
235.56848431703
 20
149.7981415827332
 30
0.0
 10
235.5675236892252
 20
150.4995066612349
 30
0.0
  0
LINE
  5
138
330
1F
100
AcDbEntity
  8
0
  6
Continuous
 62
     7
370
    25
100
AcDbLine
 10
235.5686760002
 20
154.7516921495
 30
0.0
 11
235.569073177
 21
154.9557757244
 31
0.0
  0
SPLINE
  5
139
330
1F
100
AcDbEntity
  8
0
  6
Continuous
 62
     7
370
    25
100
AcDbSpline
210
0.0
220
0.0
230
1.0
 70
     8
 71
     3
 72
     9
 73
     5
 74
     0
 42
0.00000001
 43
0.00000001
 40
0.0
 40
0.0
 40
0.0
 40
0.0
 40
0.0570372276276612
 40
0.9999999999999999
 40
0.9999999999999999
 40
0.9999999999999999
 40
0.9999999999999999
 10
235.5816982572152
 20
162.0333990147523
 30
0.0
 10
235.5817327761114
 20
162.0650646651598
 30
0.0
 10
235.5823379755173
 20
162.6202397976935
 30
0.0
 10
235.5816882714682
 20
163.0879305770759
 30
0.0
 10
235.5810756247368
 20
163.5289455710153
 30
0.0
  0
LINE
  5
13A
330
1F
100
AcDbEntity
  8
0
  6
Continuous
 62
     7
370
    25
100
AcDbLine
 10
235.5753122233
 20
153.9500590252
 30
0.0
 11
235.5656633603
 21
149.675325564
 31
0.0
  0
LWPOLYLINE
  5
13B
330
1F
100
AcDbEntity
  8
0
  6
Continuous
 62
     7
370
    25
100
AcDbPolyline
 90
        3
 70
   128
 43
0.0
 10
235.5780299543
 20
155.0188778279
 10
235.5767219177
 20
154.4844682456
 10
235.5753122233
 20
153.9500590252
  0
LINE
  5
13C
330
1F
100
AcDbEntity
  8
0
  6
Continuous
 62
     7
370
    25
100
AcDbLine
 10
235.5864880845
 20
143.0114121789
 30
0.0
 11
235.5876280181
 21
145.2087618699
 31
0.0
  0
LWPOLYLINE
  5
13D
330
1F
100
AcDbEntity
  8
0
  6
Continuous
 62
     7
370
    25
100
AcDbPolyline
 90
        3
 70
   128
 43
0.0
 10
183.0270408057
 20
155.0188779239
 10
183.0283517948
 20
154.4844683611
 10
183.0297949059
 20
153.9500602229
  0
SPLINE
  5
13E
330
1F
100
AcDbEntity
  8
0
  6
Continuous
 62
     7
370
    25
100
AcDbSpline
210
0.0
220
0.0
230
1.0
 70
     8
 71
     3
 72
     9
 73
     5
 74
     0
 42
0.00000001
 43
0.00000001
 40
0.0
 40
0.0
 40
0.0
 40
0.0
 40
0.9502334367928017
 40
1.0
 40
1.0
 40
1.0
 40
1.0
 10
183.0297949056154
 20
153.9500590498763
 30
0.0
 10
183.0378809793476
 20
152.3008566559375
 30
0.0
 10
183.0463905449124
 20
150.5652806068508
 30
0.0
 10
183.0406289387722
 20
148.8297115591412
 30
0.0
 10
183.040342203436
 20
148.7433382524279
 30
0.0
  0
LINE
  5
13F
330
1F
100
AcDbEntity
  8
0
  6
Continuous
 62
     7
370
    25
100
AcDbLine
 10
183.0176455946
 20
145.2087613924
 30
0.0
 11
183.0187855281
 21
143.0114119111
 31
0.0
  0
SPLINE
  5
140
330
1F
100
AcDbEntity
  8
0
  6
Continuous
 62
     7
370
    25
100
AcDbSpline
210
0.0
220
0.0
230
1.0
 70
     8
 71
     3
 72
     9
 73
     5
 74
     0
 42
0.00000001
 43
0.00000001
 40
0.0
 40
0.0
 40
0.0
 40
0.0
 40
0.9429625180120674
 40
1.0
 40
1.0
 40
1.0
 40
1.0
 10
183.0241979907626
 20
163.5289455710153
 30
0.0
 10
183.023584428987
 20
163.0879984935087
 30
0.0
 10
183.0229337543698
 20
162.6203796124993
 30
0.0
 10
183.0235410711532
 20
162.0650471877897
 30
0.0
 10
183.0235757109733
 20
162.033372424618
 30
0.0
  0
SPLINE
  5
141
330
1F
100
AcDbEntity
  8
0
  6
Continuous
 62
     7
370
    25
100
AcDbSpline
210
0.0
220
0.0
230
1.0
 70
     8
 71
     3
 72
     9
 73
     5
 74
     0
 42
0.00000001
 43
0.00000001
 40
0.0
 40
0.0
 40
0.0
 40
0.0
 40
0.3646696006260312
 40
1.0
 40
1.0
 40
1.0
 40
1.0
 10
183.0380009776706
 20
150.3799039205251
 30
0.0
 10
183.037353580047
 20
149.7046199653985
 30
0.0
 10
183.03557828092
 20
147.8528507091528
 30
0.0
 10
183.0246124930268
 20
146.235997431213
 30
0.0
 10
183.0176455946252
 20
145.2087613924105
 30
0.0
  0
SPLINE
  5
142
330
1F
100
AcDbEntity
  8
0
  6
Continuous
 62
     7
370
    25
100
AcDbSpline
210
0.0
220
0.0
230
1.0
 70
     8
 71
     3
 72
    14
 73
    10
 74
     0
 42
0.00000001
 43
0.00000001
 40
0.0
 40
0.0
 40
0.0
 40
0.0
 40
0.25
 40
0.25
 40
0.5
 40
0.5
 40
0.75
 40
0.75
 40
1.0
 40
1.0
 40
1.0
 40
1.0
 10
234.6716509886927
 20
142.0342719433874
 30
0.0
 10
234.798279189481
 20
142.0419872643536
 30
0.0
 10
234.9247790682591
 20
142.063224619881
 30
0.0
 10
235.162639388088
 20
142.1507742898909
 30
0.0
 10
235.2732663180533
 20
142.2189163269085
 30
0.0
 10
235.444913929633
 20
142.403827551911
 30
0.0
 10
235.5043589543762
 20
142.5184890846546
 30
0.0
 10
235.574577391604
 20
142.7596565197329
 30
0.0
 10
235.5865532983849
 20
142.885855802886
 30
0.0
 10
235.586488084549
 20
143.0114121789335
 30
0.0
  0
SPLINE
  5
143
330
1F
100
AcDbEntity
  8
0
  6
Continuous
 62
     7
370
    25
100
AcDbSpline
210
0.0
220
0.0
230
1.0
 70
     8
 71
     3
 72
    14
 73
    10
 74
     0
 42
0.00000001
 43
0.00000001
 40
0.0
 40
0.0
 40
0.0
 40
0.0
 40
0.25
 40
0.25
 40
0.5
 40
0.5
 40
0.75
 40
0.75
 40
1.0
 40
1.0
 40
1.0
 40
1.0
 10
183.018785528087
 20
143.0114119111392
 30
0.0
 10
183.0187204949196
 20
142.8862034265262
 30
0.0
 10
183.0306280721937
 20
142.7603598437433
 30
0.0
 10
183.1004000638574
 20
142.5197901826057
 30
0.0
 10
183.1594428633677
 20
142.405355682154
 30
0.0
 10
183.3300747239595
 20
142.2204657578293
 30
0.0
 10
183.4401426414659
 20
142.1521233396116
 30
0.0
 10
183.677057709222
 20
142.0640673475962
 30
0.0
 10
183.8031556774985
 20
142.0425343517236
 30
0.0
 10
183.9294123932076
 20
142.0345331056056
 30
0.0
  0
LINE
  5
144
330
1F
100
AcDbEntity
  8
0
  6
Continuous
 62
     7
370
    25
100
AcDbLine
 10
183.9338351287
 20
142.0469509273
 30
0.0
 11
183.9294123932
 21
142.0345331056
 31
0.0
  0
LINE
  5
145
330
1F
100
AcDbEntity
  8
0
  6
Continuous
 62
     7
370
    25
100
AcDbLine
 10
184.0483030211
 20
142.0379753102
 30
0.0
 11
184.0483230451
 21
142.0309036618
 31
0.0
  0
LINE
  5
146
330
1F
100
AcDbEntity
  8
0
  6
Continuous
 62
     7
370
    25
100
AcDbLine
 10
234.667441499
 20
142.0467035436
 30
0.0
 11
234.6716509887
 21
142.0342719434
 31
0.0
  0
LINE
  5
147
330
1F
100
AcDbEntity
  8
0
  6
Continuous
 62
     7
370
    25
100
AcDbLine
 10
235.5482580079
 20
142.9832547612
 30
0.0
 11
235.5864880845
 21
143.0114121789
 31
0.0
  0
LINE
  5
148
330
1F
100
AcDbEntity
  8
0
  6
Continuous
 62
     7
370
    25
100
AcDbLine
 10
183.0570155512
 20
142.9832545279
 30
0.0
 11
183.0187855281
 21
143.0114119111
 31
0.0
  0
LINE
  5
149
330
1F
100
AcDbEntity
  8
0
  6
Continuous
 62
     8
370
    18
100
AcDbLine
 10
282.0489834026
 20
225.9705075526
 30
0.0
 11
282.047976699
 21
220.6857805022
 31
0.0
  0
SPLINE
  5
14A
330
1F
100
AcDbEntity
  8
0
  6
Continuous
 62
     8
370
    18
100
AcDbSpline
210
0.0
220
0.0
230
1.0
 70
     8
 71
     3
 72
     8
 73
     4
 74
     0
 42
0.00000001
 43
0.00000001
 40
0.0
 40
0.0
 40
0.0
 40
0.0
 40
1.0
 40
1.0
 40
1.0
 40
1.0
 10
136.5572969165152
 20
220.6857805022
 30
0.0
 10
185.0541901773367
 20
220.1853039631693
 30
0.0
 10
233.5510834381581
 20
220.1853039631692
 30
0.0
 10
282.0479766989795
 20
220.6857805021999
 30
0.0
  0
LINE
  5
14B
330
1F
100
AcDbEntity
  8
0
  6
Continuous
 62
     8
370
    18
100
AcDbLine
 10
136.5562902129
 20
225.9705075526
 30
0.0
 11
136.5572969165
 21
220.6857805022
 31
0.0
  0
SPLINE
  5
14C
330
1F
100
AcDbEntity
  8
0
  6
Continuous
 62
     8
370
    18
100
AcDbSpline
210
0.0
220
0.0
230
1.0
 70
     8
 71
     3
 72
     8
 73
     4
 74
     0
 42
0.00000001
 43
0.00000001
 40
0.0
 40
0.0
 40
0.0
 40
0.0
 40
1.0
 40
1.0
 40
1.0
 40
1.0
 10
281.9167149471567
 20
219.2238058488178
 30
0.0
 10
233.5073295208853
 20
218.725091250894
 30
0.0
 10
185.097944094614
 20
218.7250912508943
 30
0.0
 10
136.6885586683426
 20
219.2238058488181
 30
0.0
  0
SPLINE
  5
14D
330
1F
100
AcDbEntity
  8
0
  6
Continuous
 62
     8
370
    18
100
AcDbSpline
210
0.0
220
0.0
230
1.0
 70
     8
 71
     3
 72
    26
 73
    22
 74
     0
 42
0.00000001
 43
0.00000001
 40
0.0
 40
0.0
 40
0.0
 40
0.0
 40
0.03125
 40
0.03125
 40
0.0625
 40
0.0625
 40
0.125
 40
0.125
 40
0.25
 40
0.25
 40
0.375
 40
0.375
 40
0.5
 40
0.5
 40
0.625
 40
0.625
 40
0.75
 40
0.75
 40
0.875
 40
0.875
 40
1.0
 40
1.0
 40
1.0
 40
1.0
 10
136.5572969165151
 20
220.6857805021999
 30
0.0
 10
136.5571321147677
 20
220.6615311271094
 30
0.0
 10
136.5570256951085
 20
220.6373258534304
 30
0.0
 10
136.556928321011
 20
220.5890547586329
 30
0.0
 10
136.5569373665726
 20
220.5649889375142
 30
0.0
 10
136.5571357526556
 20
220.4930775276053
 30
0.0
 10
136.557496342575
 20
220.4455179922618
 30
0.0
 10
136.5592475224591
 20
220.3045985968682
 30
0.0
 10
136.5613075225499
 20
220.2129979474552
 30
0.0
 10
136.567129483249
 20
220.0377678601931
 30
0.0
 10
136.5709484900019
 20
219.9526380012053
 30
0.0
 10
136.5801128194809
 20
219.7944521191099
 30
0.0
 10
136.5854278035444
 20
219.7213996269253
 30
0.0
 10
136.5975075903365
 20
219.5872451400691
 30
0.0
 10
136.6043351246192
 20
219.5259031202971
 30
0.0
 10
136.6189089791948
 20
219.4204490110766
 30
0.0
 10
136.6267051005004
 20
219.3755991721387
 30
0.0
 10
136.6433311254445
 20
219.301892074913
 30
0.0
 10
136.6521064346634
 20
219.273512496851
 30
0.0
 10
136.6699700811592
 20
219.2352157550553
 30
0.0
 10
136.6791407009688
 20
219.2249042809566
 30
0.0
 10
136.6885586683422
 20
219.2238058488185
 30
0.0
  0
SPLINE
  5
14E
330
1F
100
AcDbEntity
  8
0
  6
Continuous
 62
     8
370
    18
100
AcDbSpline
210
0.0
220
0.0
230
1.0
 70
     8
 71
     3
 72
    21
 73
    17
 74
     0
 42
0.00000001
 43
0.00000001
 40
0.0
 40
0.0
 40
0.0
 40
0.0
 40
0.0527050586770556
 40
0.1061279071733056
 40
0.1602714805704691
 40
0.2151385976736925
 40
0.2707319665648298
 40
0.3270541898392457
 40
0.3841077695541224
 40
0.4418951119056008
 40
0.5004185316341355
 40
0.6190410166261843
 40
0.7500271579263771
 40
0.8150588969040813
 40
0.8983884788299031
 40
1.0
 40
1.0
 40
1.0
 40
1.0
 10
282.0479766989795
 20
220.6857805022001
 30
0.0
 10
282.0481535285375
 20
220.6453235367561
 30
0.0
 10
282.0485095958938
 20
220.5638586227436
 30
0.0
 10
282.0477627174461
 20
220.4419748285274
 30
0.0
 10
282.0460756790608
 20
220.3203755603562
 30
0.0
 10
282.0433421598082
 20
220.2000189589902
 30
0.0
 10
282.0395771870478
 20
220.0818816821485
 30
0.0
 10
282.034762935257
 20
219.9669893570342
 30
0.0
 10
282.0288907710789
 20
219.8564002601633
 30
0.0
 10
282.0219510100474
 20
219.7511905292001
 30
0.0
 10
282.0112206101192
 20
219.6190988189503
 30
0.0
 10
281.9946022163808
 20
219.4686846018997
 30
0.0
 10
281.9748956273651
 20
219.3533650768777
 30
0.0
 10
281.9557742178351
 20
219.281470906864
 30
0.0
 10
281.937963023177
 20
219.2360317191047
 30
0.0
 10
281.9242495119928
 20
219.2281411407409
 30
0.0
 10
281.9167149471574
 20
219.2238058488181
 30
0.0
  0
LINE
  5
14F
330
1F
100
AcDbEntity
  8
0
  6
Continuous
 62
     8
370
    18
100
AcDbLine
 10
282.1705303638
 20
218.849815213
 30
0.0
 11
281.9167149472
 21
219.2238058488
 31
0.0
  0
SPLINE
  5
150
330
1F
100
AcDbEntity
  8
0
  6
Continuous
 62
     8
370
    18
100
AcDbSpline
210
0.0
220
0.0
230
1.0
 70
    24
 71
     3
 72
     9
 73
     5
 74
     0
 42
0.00000001
 43
0.00000001
 40
0.0
 40
0.0
 40
0.0
 40
0.0
 40
0.9999157619959718
 40
1.0
 40
1.0
 40
1.0
 40
1.0
 10
136.6885586683418
 20
219.2238058488183
 30
0.0
 10
136.5193481647823
 20
218.9744784255656
 30
0.0
 10
136.350123406067
 20
218.725129997699
 30
0.0
 10
136.4347366405229
 20
218.8498054715815
 30
0.0
 10
136.4347437681729
 20
218.8498159739946
 30
0.0
  0
SPLINE
  5
151
330
1F
100
AcDbEntity
  8
0
  6
Continuous
 62
     8
370
    18
100
AcDbSpline
210
0.0
220
0.0
230
1.0
 70
     8
 71
     3
 72
    25
 73
    21
 74
     0
 42
0.00000001
 43
0.00000001
 40
0.0
 40
0.0
 40
0.0
 40
0.0
 40
0.0555740769952393
 40
0.1111416178227195
 40
0.16670343899556
 40
0.2222603572299375
 40
0.2778131894161981
 40
0.3333627525898603
 40
0.3889098639026277
 40
0.4444553405933714
 40
0.499999999959071
 40
0.5555446593257898
 40
0.6110901360195594
 40
0.6666372473373772
 40
0.7221868105181174
 40
0.7777396427134698
 40
0.83329656095897
 40
0.8888583821449412
 40
0.9444259229875819
 40
1.0
 40
1.0
 40
1.0
 40
1.0
 10
282.0479766989797
 20
220.6857805021999
 30
0.0
 10
282.0872069112907
 20
220.684800997785
 30
0.0
 10
282.1656627219763
 20
220.6828421041565
 30
0.0
 10
282.2823701247921
 20
220.6803311762934
 30
0.0
 10
282.3972487429818
 20
220.6781333992527
 30
0.0
 10
282.5094362457349
 20
220.6762794343552
 30
0.0
 10
282.6180987005739
 20
220.6747610671361
 30
0.0
 10
282.7224262198818
 20
220.6735804983983
 30
0.0
 10
282.8216418000213
 20
220.6727371384487
 30
0.0
 10
282.9150063216267
 20
220.6722311454876
 30
0.0
 10
283.0018242784628
 20
220.6720624763737
 30
0.0
 10
283.0814487389587
 20
220.6722311454876
 30
0.0
 10
283.1532867138646
 20
220.6727371384487
 30
0.0
 10
283.2168015030761
 20
220.6735804983983
 30
0.0
 10
283.2715243435898
 20
220.6747610671361
 30
0.0
 10
283.3170292995927
 20
220.6762794343553
 30
0.0
 10
283.3530431460848
 20
220.6781333992527
 30
0.0
 10
283.3790490789393
 20
220.6803311762935
 30
0.0
 10
283.3957773231489
 20
220.6828421041566
 30
0.0
 10
283.398359039441
 20
220.6848009977851
 30
0.0
 10
283.3996499735016
 20
220.6857805022
 30
0.0
  0
SPLINE
  5
152
330
1F
100
AcDbEntity
  8
0
  6
Continuous
 62
     8
370
    18
100
AcDbSpline
210
0.0
220
0.0
230
1.0
 70
     8
 71
     3
 72
    25
 73
    21
 74
     0
 42
0.00000001
 43
0.00000001
 40
0.0
 40
0.0
 40
0.0
 40
0.0
 40
0.0555740770111256
 40
0.1111416178526282
 40
0.1667034390376245
 40
0.2222603572822918
 40
0.2778131894769695
 40
0.3333627526571794
 40
0.388909863974627
 40
0.4444553406681827
 40
0.5000000000348206
 40
0.5555446594006126
 40
0.6110901360915847
 40
0.6666372474047327
 40
0.7221868105789202
 40
0.7777396427658615
 40
0.8332965610010724
 40
0.8888583821748843
 40
0.9444259230034925
 40
1.0
 40
1.0
 40
1.0
 40
1.0
 10
135.2056236419978
 20
220.6857805022
 30
0.0
 10
135.2069145760583
 20
220.6848009977855
 30
0.0
 10
135.2094962923503
 20
220.6828421041578
 30
0.0
 10
135.2262245365591
 20
220.6803311762956
 30
0.0
 10
135.2522304694125
 20
220.6781333992557
 30
0.0
 10
135.2882443159032
 20
220.6762794343589
 30
0.0
 10
135.3337492719045
 20
220.6747610671404
 30
0.0
 10
135.3884721124167
 20
220.6735804984031
 30
0.0
 10
135.4519869016265
 20
220.6727371384538
 30
0.0
 10
135.523824876531
 20
220.6722311454928
 30
0.0
 10
135.6034493370257
 20
220.6720624763789
 30
0.0
 10
135.6902672938608
 20
220.6722311454928
 30
0.0
 10
135.7836318154656
 20
220.6727371384538
 30
0.0
 10
135.882847395605
 20
220.673580498403
 30
0.0
 10
135.9871749149131
 20
220.6747610671403
 30
0.0
 10
136.0958373697527
 20
220.6762794343589
 30
0.0
 10
136.208024872507
 20
220.6781333992556
 30
0.0
 10
136.3229034906983
 20
220.6803311762955
 30
0.0
 10
136.439610893516
 20
220.6828421041577
 30
0.0
 10
136.5180667042033
 20
220.6848009977854
 30
0.0
 10
136.5572969165151
 20
220.6857805021999
 30
0.0
  0
SPLINE
  5
153
330
1F
100
AcDbEntity
  8
0
  6
Continuous
 62
     8
370
    18
100
AcDbSpline
210
0.0
220
0.0
230
1.0
 70
     8
 71
     3
 72
    21
 73
    17
 74
     0
 42
0.00000001
 43
0.00000001
 40
0.0
 40
0.0
 40
0.0
 40
0.0
 40
0.0527050579358687
 40
0.1061279058763646
 40
0.1602714789034673
 40
0.2151385958224243
 40
0.2707319647143954
 40
0.3270541881746168
 40
0.3841077682623359
 40
0.4418951111699304
 40
0.5004185316408615
 40
0.6190410088381959
 40
0.7500271579309324
 40
0.8150588915859941
 40
0.8983884735132143
 40
1.0
 40
1.0
 40
1.0
 40
1.0
 10
135.2056236419957
 20
220.6857805022001
 30
0.0
 10
135.2076330318559
 20
220.6453235373259
 30
0.0
 10
135.21167917745
 20
220.5638586243105
 30
0.0
 10
135.2304415254637
 20
220.441974831338
 30
0.0
 10
135.2588505174947
 20
220.320375563937
 30
0.0
 10
135.2980283572311
 20
220.2000189628737
 30
0.0
 10
135.3478408512079
 20
220.0818816858898
 30
0.0
 10
135.4083823927599
 20
219.9669893602307
 30
0.0
 10
135.4795564497048
 20
219.8564002624781
 30
0.0
 10
135.5611951498695
 20
219.7511905303695
 30
0.0
 10
135.6839915530142
 20
219.6190988236884
 30
0.0
 10
135.8677154534446
 20
219.4686846053225
 30
0.0
 10
136.0813106044276
 20
219.353365080823
 30
0.0
 10
136.2827514833864
 20
219.2814709093657
 30
0.0
 10
136.4693655512692
 20
219.2360317200315
 30
0.0
 10
136.6108328179797
 20
219.2281411411356
 30
0.0
 10
136.6885586683417
 20
219.2238058488181
 30
0.0
  0
SPLINE
  5
154
330
1F
100
AcDbEntity
  8
0
  6
Continuous
 62
     8
370
    18
100
AcDbSpline
210
0.0
220
0.0
230
1.0
 70
     8
 71
     3
 72
    26
 73
    22
 74
     0
 42
0.00000001
 43
0.00000001
 40
0.0
 40
0.0
 40
0.0
 40
0.0
 40
0.03125
 40
0.03125
 40
0.0625
 40
0.0625
 40
0.125
 40
0.125
 40
0.25
 40
0.25
 40
0.375
 40
0.375
 40
0.5
 40
0.5
 40
0.625
 40
0.625
 40
0.75
 40
0.75
 40
0.875
 40
0.875
 40
1.0
 40
1.0
 40
1.0
 40
1.0
 10
283.3996499735032
 20
220.6857805021999
 30
0.0
 10
283.3990137655621
 20
220.6615311271094
 30
0.0
 10
283.3977844793618
 20
220.6373258534304
 30
0.0
 10
283.3941579479464
 20
220.5890547586327
 30
0.0
 10
283.3917607027314
 20
220.5649889375141
 30
0.0
 10
283.3828443248198
 20
220.4930775276052
 30
0.0
 10
283.3746005498567
 20
220.4455179922617
 30
0.0
 10
283.3431890259459
 20
220.3045985968684
 30
0.0
 10
283.3133410779766
 20
220.2129979474557
 30
0.0
 10
283.236995958218
 20
220.0377678601936
 30
0.0
 10
283.1897714624708
 20
219.9526380012063
 30
0.0
 10
283.080863144326
 20
219.794452119111
 30
0.0
 10
283.0194900521024
 20
219.7213996269262
 30
0.0
 10
282.8830553661389
 20
219.5872451400699
 30
0.0
 10
282.8073289853433
 20
219.525903120296
 30
0.0
 10
282.6481262609284
 20
219.4204490110753
 30
0.0
 10
282.5640697560612
 20
219.3755991721401
 30
0.0
 10
282.3869117701306
 20
219.3018920749144
 30
0.0
 10
282.2944145852754
 20
219.2735124968515
 30
0.0
 10
282.107985736616
 20
219.2352157550557
 30
0.0
 10
282.0131744861459
 20
219.2249042809563
 30
0.0
 10
281.9167149471574
 20
219.2238058488182
 30
0.0
  0
SPLINE
  5
155
330
1F
100
AcDbEntity
  8
0
  6
Continuous
 62
     8
370
    18
100
AcDbSpline
210
0.0
220
0.0
230
1.0
 70
     8
 71
     3
 72
    10
 73
     6
 74
     0
 42
0.00000001
 43
0.00000001
 40
0.0
 40
0.0
 40
0.0
 40
0.0
 40
0.499951041325879
 40
0.9999215213102968
 40
1.0
 40
1.0
 40
1.0
 40
1.0
 10
283.3996499735029
 20
220.6857805022
 30
0.0
 10
283.4694030143776
 20
220.5830159309783
 30
0.0
 10
283.6089118082035
 20
220.377482792933
 30
0.0
 10
283.6756472876825
 20
220.2791693433854
 30
0.0
 10
283.6544160000136
 20
220.3104475891077
 30
0.0
 10
283.6544126679325
 20
220.3104524979785
 30
0.0
  0
SPLINE
  5
156
330
1F
100
AcDbEntity
  8
0
  6
Continuous
 62
     8
370
    18
100
AcDbSpline
210
0.0
220
0.0
230
1.0
 70
     8
 71
     3
 72
     9
 73
     5
 74
     0
 42
0.00000001
 43
0.00000001
 40
0.0
 40
0.0
 40
0.0
 40
0.0
 40
0.4999510989238518
 40
1.0
 40
1.0
 40
1.0
 40
1.0
 10
134.9508609316815
 20
220.3104524745762
 30
0.0
 10
134.9614712328733
 20
220.3260830727861
 30
0.0
 10
134.9826939108805
 20
220.3573473269173
 30
0.0
 10
135.1313088866696
 20
220.5762956392337
 30
0.0
 10
135.2056236419964
 20
220.6857805022
 30
0.0
  0
LINE
  5
157
330
1F
100
AcDbEntity
  8
0
  6
Continuous
 62
     8
370
    18
100
AcDbLine
 10
198.0441881841
 20
210.6320384713
 30
0.0
 11
220.5610854314
 21
210.6320384713
 31
0.0
  0
LINE
  5
158
330
1F
100
AcDbEntity
  8
0
  6
Continuous
 62
     8
370
    18
100
AcDbLine
 10
209.3026368077
 20
210.1410150526
 30
0.0
 11
198.5282906717
 21
210.1410150526
 31
0.0
  0
LINE
  5
159
330
1F
100
AcDbEntity
  8
0
  6
Continuous
 62
     8
370
    18
100
AcDbLine
 10
220.0769829438
 20
210.1410150526
 30
0.0
 11
209.3026368077
 21
210.1410150526
 31
0.0
  0
SPLINE
  5
15A
330
1F
100
AcDbEntity
  8
0
  6
Continuous
 62
     8
370
    18
100
AcDbSpline
210
0.0
220
0.0
230
1.0
 70
     8
 71
     3
 72
    10
 73
     6
 74
     0
 42
0.00000001
 43
0.00000001
 40
0.0
 40
0.0
 40
0.0
 40
0.0
 40
0.2902592547193231
 40
0.6374960640814767
 40
1.0
 40
1.0
 40
1.0
 40
1.0
 10
183.32724405273
 20
163.7844100891277
 30
0.0
 10
183.3750019392792
 20
163.7940880071306
 30
0.0
 10
183.4798925300491
 20
163.815343607202
 30
0.0
 10
183.7206193476379
 20
163.8384062673936
 30
0.0
 10
183.9181567226287
 20
163.8433008219982
 30
0.0
 10
184.0190500085241
 20
163.8458007423149
 30
0.0
  0
SPLINE
  5
15B
330
1F
100
AcDbEntity
  8
0
  6
Continuous
 62
     8
370
    18
100
AcDbSpline
210
0.0
220
0.0
230
1.0
 70
     8
 71
     3
 72
    14
 73
    10
 74
     0
 42
0.00000001
 43
0.00000001
 40
0.0
 40
0.0
 40
0.0
 40
0.0
 40
0.125
 40
0.125
 40
0.2500000000000001
 40
0.2500000000000001
 40
0.5000000000000001
 40
0.5000000000000001
 40
1.0
 40
1.0
 40
1.0
 40
1.0
 10
234.5842089163701
 20
163.6467038429556
 30
0.0
 10
233.6142225330148
 20
163.6610077826722
 30
0.0
 10
232.6441999613184
 20
163.6718587408876
 30
0.0
 10
230.7041824319707
 20
163.6961936724351
 30
0.0
 10
229.7341638891916
 20
163.7074278279531
 30
0.0
 10
226.8240599758714
 20
163.7365237116362
 30
0.0
 10
224.8839146214288
 20
163.7496674686883
 30
0.0
 10
219.0634593835992
 20
163.7779826736615
 30
0.0
 10
215.183116904778
 20
163.7823128191198
 30
0.0
 10
211.3027692214806
 20
163.7847186003002
 30
0.0
  0
SPLINE
  5
15C
330
1F
100
AcDbEntity
  8
0
  6
Continuous
 62
     8
370
    18
100
AcDbSpline
210
0.0
220
0.0
230
1.0
 70
     8
 71
     3
 72
     8
 73
     4
 74
     0
 42
0.00000001
 43
0.00000001
 40
0.0
 40
0.0
 40
0.0
 40
0.0
 40
1.0
 40
1.0
 40
1.0
 40
1.0
 10
211.3027684128694
 20
163.7847691737512
 30
0.0
 10
211.3028004008165
 20
163.8362100729071
 30
0.0
 10
211.3028338266067
 20
163.8873556168689
 30
0.0
 10
211.3028595550485
 20
163.9242278459734
 30
0.0
  0
SPLINE
  5
15D
330
1F
100
AcDbEntity
  8
0
  6
Continuous
 62
     8
370
    18
100
AcDbSpline
210
0.0
220
0.0
230
1.0
 70
     8
 71
     3
 72
    10
 73
     6
 74
     0
 42
0.00000001
 43
0.00000001
 40
0.0
 40
0.0
 40
0.0
 40
0.0
 40
0.5
 40
0.5
 40
1.0
 40
1.0
 40
1.0
 40
1.0
 10
234.5842089163701
 20
163.6467038429556
 30
0.0
 10
234.584869873913
 20
163.7022180278237
 30
0.0
 10
234.5855271884037
 20
163.7573007295152
 30
0.0
 10
234.5863226865465
 20
163.8320045112766
 30
0.0
 10
234.5864522705288
 20
163.8510465959685
 30
0.0
 10
234.5862236069756
 20
163.8458007423149
 30
0.0
  0
SPLINE
  5
15E
330
1F
100
AcDbEntity
  8
0
  6
Continuous
 62
     8
370
    18
100
AcDbSpline
210
0.0
220
0.0
230
1.0
 70
     8
 71
     3
 72
    14
 73
    10
 74
     0
 42
0.00000001
 43
0.00000001
 40
0.0
 40
0.0
 40
0.0
 40
0.0
 40
0.5
 40
0.5
 40
0.75
 40
0.75
 40
0.875
 40
0.875
 40
1.0
 40
1.0
 40
1.0
 40
1.0
 10
207.3025043940188
 20
163.7847186003002
 30
0.0
 10
203.4221567107214
 20
163.7823128191199
 30
0.0
 10
199.5418142319002
 20
163.7779826736615
 30
0.0
 10
193.7213589940706
 20
163.7496674686883
 30
0.0
 10
191.7812136396279
 20
163.7365237116362
 30
0.0
 10
188.8711097263078
 20
163.7074278279531
 30
0.0
 10
187.9010911835286
 20
163.696193672435
 30
0.0
 10
185.961073654181
 20
163.6718587408876
 30
0.0
 10
184.9910510824846
 20
163.6610077826723
 30
0.0
 10
184.0210646991292
 20
163.6467038429556
 30
0.0
  0
SPLINE
  5
15F
330
1F
100
AcDbEntity
  8
0
  6
Continuous
 62
     8
370
    18
100
AcDbSpline
210
0.0
220
0.0
230
1.0
 70
     8
 71
     3
 72
    14
 73
    10
 74
     0
 42
0.00000001
 43
0.00000001
 40
0.0
 40
0.0
 40
0.0
 40
0.0
 40
0.25
 40
0.25
 40
0.5
 40
0.5
 40
0.75
 40
0.75
 40
1.0
 40
1.0
 40
1.0
 40
1.0
 10
184.0210646991679
 20
163.6467038429572
 30
0.0
 10
184.0206439855259
 20
163.6743996948262
 30
0.0
 10
184.0202463386317
 20
163.7023750152328
 30
0.0
 10
184.0195807929847
 20
163.7529962025662
 30
0.0
 10
184.0193069688175
 20
163.7760841017785
 30
0.0
 10
184.0189309526461
 20
163.8132481425798
 30
0.0
 10
184.0188254037165
 20
163.8276456078794
 30
0.0
 10
184.0188015150293
 20
163.8451936170393
 30
0.0
 10
184.018883083539
 20
163.8484172522261
 30
0.0
 10
184.0190500085235
 20
163.8458007423149
 30
0.0
  0
SPLINE
  5
160
330
1F
100
AcDbEntity
  8
0
  6
Continuous
 62
     8
370
    18
100
AcDbSpline
210
0.0
220
0.0
230
1.0
 70
     8
 71
     3
 72
     8
 73
     4
 74
     0
 42
0.00000001
 43
0.00000001
 40
0.0
 40
0.0
 40
0.0
 40
0.0
 40
1.0
 40
1.0
 40
1.0
 40
1.0
 10
207.3025043940188
 20
163.7847186003002
 30
0.0
 10
207.3024724326734
 20
163.8362702331925
 30
0.0
 10
207.3024390276115
 20
163.887523354492
 30
0.0
 10
207.3024133444716
 20
163.924415197972
 30
0.0
  0
SPLINE
  5
161
330
1F
100
AcDbEntity
  8
0
  6
Continuous
 62
     8
370
    18
100
AcDbSpline
210
0.0
220
0.0
230
1.0
 70
     8
 71
     3
 72
     9
 73
     5
 74
     0
 42
0.00000001
 43
0.00000001
 40
25.24838417087859
 40
25.24838417087859
 40
25.24838417087859
 40
25.24838417087859
 40
37.8724394091055
 40
50.4965858787939
 40
50.4965858787939
 40
50.4965858787939
 40
50.4965858787939
 10
209.3026351443157
 20
159.0738479661776
 30
0.0
 10
205.0868703216076
 20
159.0738479661772
 30
0.0
 10
196.6553608368544
 20
159.0742205400968
 30
0.0
 10
188.2231708545105
 20
159.0737686538798
 30
0.0
 10
184.0210755890881
 20
159.0738427870321
 30
0.0
  0
LINE
  5
162
330
1F
100
AcDbEntity
  8
0
  6
Continuous
 62
     8
370
    18
100
AcDbLine
 10
184.0210755891
 20
159.073842787
 30
0.0
 11
184.0210646992
 21
163.646703843
 31
0.0
  0
SPLINE
  5
163
330
1F
100
AcDbEntity
  8
0
  6
Continuous
 62
     8
370
    18
100
AcDbSpline
210
0.0
220
0.0
230
1.0
 70
     8
 71
     3
 72
    11
 73
     7
 74
     0
 42
0.00000001
 43
0.00000001
 40
0.0
 40
0.0
 40
0.0
 40
0.0
 40
0.0001451962376342
 40
0.0001451962376342
 40
0.0001451962376342
 40
0.002000134701928
 40
0.002000134701928
 40
0.002000134701928
 40
0.002000134701928
 10
209.3026384711844
 20
163.7859289966803
 30
0.0
 10
209.2542397253063
 20
163.7859289742198
 30
0.0
 10
209.2058409793479
 20
163.7859261401767
 30
0.0
 10
209.1574422337996
 20
163.7859204993
 30
0.0
 10
208.5391294945538
 20
163.7858484349144
 30
0.0
 10
207.9208169845986
 20
163.7851536665549
 30
0.0
 10
207.3025043625704
 20
163.7847691732288
 30
0.0
  0
LINE
  5
164
330
1F
100
AcDbEntity
  8
0
  6
Continuous
 62
     8
370
    18
100
AcDbLine
 10
183.0241979908
 20
158.9272821723
 30
0.0
 11
183.0241979908
 21
163.5289290262
 31
0.0
  0
SPLINE
  5
165
330
1F
100
AcDbEntity
  8
0
  6
Continuous
 62
     8
370
    18
100
AcDbSpline
210
0.0
220
0.0
230
1.0
 70
     8
 71
     3
 72
    16
 73
    12
 74
     0
 42
0.00000001
 43
0.00000001
 40
0.0
 40
0.0
 40
0.0
 40
0.0
 40
0.25
 40
0.25
 40
0.5
 40
0.5
 40
0.75
 40
0.75
 40
0.875
 40
0.875
 40
1.0
 40
1.0
 40
1.0
 40
1.0
 10
184.0179732379312
 20
163.6466965514205
 30
0.0
 10
183.8881836515024
 20
163.6448904532784
 30
0.0
 10
183.7613306405324
 20
163.6417760275743
 30
0.0
 10
183.5198250936283
 20
163.6298409908395
 30
0.0
 10
183.4147033902322
 20
163.6214020152561
 30
0.0
 10
183.2289817093442
 20
163.5988007306618
 30
0.0
 10
183.1513024372513
 20
163.5860570529915
 30
0.0
 10
183.0744172183337
 20
163.5660350481771
 30
0.0
 10
183.0555946430997
 20
163.559208111316
 30
0.0
 10
183.0310143711546
 20
163.5452632945081
 30
0.0
 10
183.0255734851296
 20
163.5371353869714
 30
0.0
 10
183.0243381729743
 20
163.5302912499804
 30
0.0
  0
SPLINE
  5
166
330
1F
100
AcDbEntity
  8
0
  6
Continuous
 62
     8
370
    18
100
AcDbSpline
210
0.0
220
0.0
230
1.0
 70
     8
 71
     3
 72
    10
 73
     6
 74
     0
 42
0.00000001
 43
0.00000001
 40
0.0000118637587369
 40
0.0000118637587369
 40
0.0000118637587369
 40
0.0000118637587369
 40
0.0011811911385867
 40
0.0011811911385867
 40
0.0031553966097474
 40
0.0031553966097474
 40
0.0031553966097474
 40
0.0031553966097474
 10
184.0210646993323
 20
163.6467038429572
 30
0.0
 10
184.0207067798466
 20
163.6467031745219
 30
0.0
 10
184.0203346321131
 20
163.6467020801662
 30
0.0
 10
184.0192622489174
 20
163.6466974286795
 30
0.0
 10
184.0186120720211
 20
163.6466948563091
 30
0.0
 10
184.0179732537333
 20
163.6466924155904
 30
0.0
  0
SPLINE
  5
167
330
1F
100
AcDbEntity
  8
0
  6
Continuous
 62
     8
370
    18
100
AcDbSpline
210
0.0
220
0.0
230
1.0
 70
     8
 71
     3
 72
     9
 73
     5
 74
     0
 42
0.00000001
 43
0.00000001
 40
-50.4965858787939
 40
-50.4965858787939
 40
-50.4965858787939
 40
-50.4965858787939
 40
-37.8724394091055
 40
-25.24838417087861
 40
-25.24838417087861
 40
-25.24838417087861
 40
-25.24838417087861
 10
234.5841980264113
 20
159.0738427870321
 30
0.0
 10
230.3821027609889
 20
159.0737686538798
 30
0.0
 10
221.949912778645
 20
159.0742205400968
 30
0.0
 10
213.5184032938918
 20
159.0738479661772
 30
0.0
 10
209.3026384711836
 20
159.0738479661776
 30
0.0
  0
SPLINE
  5
168
330
1F
100
AcDbEntity
  8
0
  6
Continuous
 62
     8
370
    18
100
AcDbSpline
210
0.0
220
0.0
230
1.0
 70
     8
 71
     3
 72
     8
 73
     4
 74
     0
 42
0.00000001
 43
0.00000001
 40
0.0
 40
0.0
 40
0.0
 40
0.0
 40
0.0020001311197508
 40
0.0020001311197508
 40
0.0020001311197508
 40
0.0020001311197508
 10
211.302769252929
 20
163.7847691732288
 30
0.0
 10
210.6360590106144
 20
163.7851837622724
 30
0.0
 10
209.9693488444346
 20
163.7859286855024
 30
0.0
 10
209.3026384711844
 20
163.7859289966787
 30
0.0
  0
LINE
  5
169
330
1F
100
AcDbEntity
  8
0
  6
Continuous
 62
     8
370
    18
100
AcDbLine
 10
234.5841980264
 20
159.073842787
 30
0.0
 11
234.5842089163
 21
163.646703843
 31
0.0
  0
SPLINE
  5
16A
330
1F
100
AcDbEntity
  8
0
  6
Continuous
 62
     8
370
    18
100
AcDbSpline
210
0.0
220
0.0
230
1.0
 70
     8
 71
     3
 72
    10
 73
     6
 74
     0
 42
0.00000001
 43
0.00000001
 40
0.0000118721701076
 40
0.0000118721701076
 40
0.0000118721701076
 40
0.0000118721701076
 40
0.0019860939172837
 40
0.0019860939172837
 40
0.0031554128857627
 40
0.0031554128857627
 40
0.0031554128857627
 40
0.0031554128857627
 10
234.587300377566
 20
163.6466965514205
 30
0.0
 10
234.5866615541988
 20
163.6466989921572
 30
0.0
 10
234.5860113721344
 20
163.6467015645459
 30
0.0
 10
234.5849389862557
 20
163.6467062160442
 30
0.0
 10
234.5845668410067
 20
163.6467073103967
 30
0.0
 10
234.5842089238909
 20
163.6467079788333
 30
0.0
  0
SPLINE
  5
16B
330
1F
100
AcDbEntity
  8
0
  6
Continuous
 62
     8
370
    18
100
AcDbSpline
210
0.0
220
0.0
230
1.0
 70
     8
 71
     3
 72
    18
 73
    14
 74
     0
 42
0.00000001
 43
0.00000001
 40
0.0
 40
0.0
 40
0.0
 40
0.0
 40
0.1250000000000014
 40
0.1250000000000014
 40
0.2500000000000029
 40
0.2500000000000029
 40
0.5000000000000043
 40
0.5000000000000043
 40
0.6250000000000033
 40
0.6250000000000033
 40
0.7500000000000022
 40
0.7500000000000022
 40
1.0
 40
1.0
 40
1.0
 40
1.0
 10
235.5809354425251
 20
163.5302912499804
 30
0.0
 10
235.5797006916414
 20
163.5371322773261
 30
0.0
 10
235.5744195739458
 20
163.5450968566505
 30
0.0
 10
235.5501936415651
 20
163.5589895465682
 30
0.0
 10
235.5312725930219
 20
163.5659095967473
 30
0.0
 10
235.4540105201986
 20
163.5860806578022
 30
0.0
 10
235.3772823937736
 20
163.5986319478826
 30
0.0
 10
235.2387709495378
 20
163.6155597925617
 30
0.0
 10
235.1894755460594
 20
163.6205757191658
 30
0.0
 10
235.08279465363
 20
163.6290993593692
 30
0.0
 10
235.0249101295644
 20
163.632825298076
 30
0.0
 10
234.8466754410551
 20
163.6416557571678
 30
0.0
 10
234.7174660096971
 20
163.6448852203813
 30
0.0
 10
234.5873003775684
 20
163.6466965514205
 30
0.0
  0
LINE
  5
16C
330
1F
100
AcDbEntity
  8
0
  6
Continuous
 62
     8
370
    18
100
AcDbLine
 10
235.5810756247
 20
158.9272821723
 30
0.0
 11
235.5810756247
 21
163.5289290262
 31
0.0
  0
SPLINE
  5
16D
330
1F
100
AcDbEntity
  8
0
  6
Continuous
 62
     8
370
    18
100
AcDbSpline
210
0.0
220
0.0
230
1.0
 70
     8
 71
     3
 72
    10
 73
     6
 74
     0
 42
0.00000001
 43
0.00000001
 40
0.0
 40
0.0
 40
0.0
 40
0.0
 40
0.5
 40
0.5
 40
1.0
 40
1.0
 40
1.0
 40
1.0
 10
234.5873003775676
 20
163.6466965514205
 30
0.0
 10
234.5879339403702
 20
163.7020813600601
 30
0.0
 10
234.5880635212605
 20
163.7574868355312
 30
0.0
 10
234.5875532189387
 20
163.8318174772579
 30
0.0
 10
234.5869359841062
 20
163.8510276347434
 30
0.0
 10
234.5862236069756
 20
163.8458007423149
 30
0.0
  0
SPLINE
  5
16E
330
1F
100
AcDbEntity
  8
0
  6
Continuous
 62
     8
370
    18
100
AcDbSpline
210
0.0
220
0.0
230
1.0
 70
     8
 71
     3
 72
    10
 73
     6
 74
     0
 42
0.00000001
 43
0.00000001
 40
0.0
 40
0.0
 40
0.0
 40
0.0
 40
0.5
 40
0.5
 40
1.0
 40
1.0
 40
1.0
 40
1.0
 10
184.0179732379372
 20
163.6466965514205
 30
0.0
 10
184.0173382691129
 20
163.7022045667226
 30
0.0
 10
184.0170340548381
 20
163.7572812977913
 30
0.0
 10
184.0173877156847
 20
163.8319852545491
 30
0.0
 10
184.0180337451617
 20
163.8510335757313
 30
0.0
 10
184.0190500085238
 20
163.8458007423149
 30
0.0
  0
SPLINE
  5
16F
330
1F
100
AcDbEntity
  8
0
  6
Continuous
 62
     8
370
    25
100
AcDbSpline
210
0.0
220
0.0
230
1.0
 70
     8
 71
     3
 72
    14
 73
    10
 74
     0
 42
0.00000001
 43
0.00000001
 40
0.0
 40
0.0
 40
0.0
 40
0.0
 40
0.0010001115344504
 40
0.0010001115344504
 40
0.0010001115344504
 40
0.0018550121572648
 40
0.0018550121572648
 40
0.0018550121572648
 40
0.0020002231980166
 40
0.0020002231980166
 40
0.0020002231980166
 40
0.0020002231980166
 10
207.3024140604509
 20
163.9242278459734
 30
0.0
 10
207.6357844631483
 20
163.9241449810663
 30
0.0
 10
207.9691548275259
 20
163.9241080080001
 30
0.0
 10
208.3025252517908
 20
163.9240878110543
 30
0.0
 10
208.5874920418363
 20
163.924070546599
 30
0.0
 10
208.872458901949
 20
163.9240635933733
 30
0.0
 10
209.1574257647817
 20
163.9240616501207
 30
0.0
 10
209.2058294455454
 20
163.9240613200453
 30
0.0
 10
209.2542331266857
 20
163.9240611752917
 30
0.0
 10
209.3026368077497
 20
163.9240612125996
 30
0.0
  0
LINE
  5
170
330
1F
100
AcDbEntity
  8
0
  6
Continuous
 62
     8
370
    18
100
AcDbLine
 10
209.3026384712
 20
163.7859289967
 30
0.0
 11
209.3026368077
 21
163.9240612126
 31
0.0
  0
SPLINE
  5
171
330
1F
100
AcDbEntity
  8
0
  6
Continuous
 62
     8
370
    25
100
AcDbSpline
210
0.0
220
0.0
230
1.0
 70
     8
 71
     3
 72
    11
 73
     7
 74
     0
 42
0.00000001
 43
0.00000001
 40
0.0
 40
0.0
 40
0.0
 40
0.0
 40
0.0001452110431921
 40
0.0001452110431921
 40
0.0001452110431921
 40
0.0020002233978265
 40
0.0020002233978265
 40
0.0020002233978265
 40
0.0020002233978265
 10
209.3026368077497
 20
163.9240612126006
 30
0.0
 10
209.3510404888137
 20
163.9240611752927
 30
0.0
 10
209.399444169954
 20
163.9240613200453
 30
0.0
 10
209.4478478507178
 20
163.9240616501207
 30
0.0
 10
210.0661852107957
 20
163.9240658667009
 30
0.0
 10
210.6845223929119
 20
163.9240741477113
 30
0.0
 10
211.3028595550485
 20
163.9242278459734
 30
0.0
  0
SPLINE
  5
172
330
1F
100
AcDbEntity
  8
0
  6
Continuous
 62
     8
370
    18
100
AcDbSpline
210
0.0
220
0.0
230
1.0
 70
     8
 71
     3
 72
     9
 73
     5
 74
     0
 42
0.00000001
 43
0.00000001
 40
25.24838425676529
 40
25.24838425676529
 40
25.24838425676529
 40
25.24838425676529
 40
37.87253072645369
 40
50.4965858787939
 40
50.4965858787939
 40
50.4965858787939
 40
50.4965858787939
 10
234.5508332574821
 20
157.9206032610194
 30
0.0
 10
230.3427710037333
 20
157.9205546226447
 30
0.0
 10
221.926653448934
 20
157.9209730889456
 30
0.0
 10
213.5106500928034
 20
157.9206123413932
 30
0.0
 10
209.3026383868699
 20
157.9206123522046
 30
0.0
  0
LWPOLYLINE
  5
173
330
1F
100
AcDbEntity
  8
0
  6
Continuous
 62
     8
370
    18
100
AcDbPolyline
 90
        3
 70
   128
 43
0.0
 10
209.3026352286
 20
157.9206123522
 10
196.6785763974
 20
157.9207782854
 10
184.054440358
 20
157.920603261
  0
SPLINE
  5
174
330
1F
100
AcDbEntity
  8
0
  6
Continuous
 62
     8
370
    18
100
AcDbSpline
210
0.0
220
0.0
230
1.0
 70
     8
 71
     3
 72
    18
 73
    14
 74
     0
 42
0.00000001
 43
0.00000001
 40
74.22739611233006
 40
74.22739611233006
 40
74.22739611233006
 40
74.22739611233006
 40
75.5458474624995
 40
75.5458474624995
 40
81.8413347510411
 40
81.8413347510411
 40
88.1368220395827
 40
88.1368220395827
 40
94.4323093281243
 40
94.4323093281243
 40
97.5800529723951
 40
97.5800529723951
 40
100.727796616666
 40
100.727796616666
 40
100.727796616666
 40
100.727796616666
 10
234.5477868755342
 20
154.0188629689604
 30
0.0
 10
234.5479367599693
 20
154.0835708673223
 30
0.0
 10
234.5480828737866
 20
154.1482790924335
 30
0.0
 10
234.5489027673728
 20
154.5219654088032
 30
0.0
 10
234.5494847991636
 20
154.8309154167225
 30
0.0
 10
234.5503835373472
 20
155.4488714487827
 30
0.0
 10
234.5506891443034
 20
155.7578518373427
 30
0.0
 10
234.5509938133416
 20
156.3757645790741
 30
0.0
 10
234.5510056279864
 20
156.6847153515695
 30
0.0
 10
234.5509606476114
 20
157.1481696285726
 30
0.0
 10
234.5509345060909
 20
157.3026604720463
 30
0.0
 10
234.5508666850231
 20
157.6116480503012
 30
0.0
 10
234.5508253295392
 20
157.7661185746215
 30
0.0
 10
234.5508333143309
 20
157.9206031765565
 30
0.0
  0
LWPOLYLINE
  5
175
330
1F
100
AcDbEntity
  8
0
  6
Continuous
 62
     8
370
    18
100
AcDbPolyline
 90
        3
 70
   128
 43
0.0
 10
184.0544403585
 20
157.9206032469
 10
184.0544860834
 20
155.9689769571
 10
184.057486342
 20
154.018862969
  0
LINE
  5
176
330
1F
100
AcDbEntity
  8
0
  6
Continuous
 62
     8
370
    18
100
AcDbLine
 10
235.58108977
 20
158.5989751315
 30
0.0
 11
235.5810754203
 21
158.9272835869
 31
0.0
  0
SPLINE
  5
177
330
1F
100
AcDbEntity
  8
0
  6
Continuous
 62
     8
370
    18
100
AcDbSpline
210
0.0
220
0.0
230
1.0
 70
     8
 71
     3
 72
     8
 73
     4
 74
     0
 42
0.00000001
 43
0.00000001
 40
0.0000000304106937
 40
0.0000000304106937
 40
0.0000000304106937
 40
0.0000000304106937
 40
24.27495287722807
 40
24.27495287722807
 40
24.27495287722807
 40
24.27495287722807
 10
183.0265062306358
 20
155.3471717054097
 30
0.0
 10
183.0239304693969
 20
156.5405498141844
 30
0.0
 10
183.0225539709762
 20
157.7339261582144
 30
0.0
 10
183.0241979907696
 20
158.9272821767761
 30
0.0
  0
LINE
  5
178
330
1F
100
AcDbEntity
  8
0
  6
Continuous
 62
     8
370
    18
100
AcDbLine
 10
235.5863545105
 20
143.0239049725
 30
0.0
 11
235.5864882113
 21
143.011400322
 31
0.0
  0
SPLINE
  5
179
330
1F
100
AcDbEntity
  8
0
  6
Continuous
 62
     8
370
    18
100
AcDbSpline
210
0.0
220
0.0
230
1.0
 70
     8
 71
     3
 72
     8
 73
     4
 74
     0
 42
0.00000001
 43
0.00000001
 40
100.8387172381202
 40
100.8387172381202
 40
100.8387172381202
 40
100.8387172381202
 40
107.789198199788
 40
107.789198199788
 40
107.789198199788
 40
107.789198199788
 10
235.5863545105325
 20
143.0239049725491
 30
0.0
 10
235.5842585025857
 20
143.3690721499314
 30
0.0
 10
235.5820294970852
 20
143.7124180581557
 30
0.0
 10
235.5798512112383
 20
144.0548716680465
 30
0.0
  0
SPLINE
  5
17A
330
1F
100
AcDbEntity
  8
0
  6
Continuous
 62
     8
370
    18
100
AcDbSpline
210
0.0
220
0.0
230
1.0
 70
     8
 71
     3
 72
     9
 73
     5
 74
     0
 42
0.00000001
 43
0.00000001
 40
0.0
 40
0.0
 40
0.0
 40
0.0
 40
0.1196770504438591
 40
1.0
 40
1.0
 40
1.0
 40
1.0
 10
235.5656633602523
 20
149.6753255640111
 30
0.0
 10
235.5650844520118
 20
149.4511367625173
 30
0.0
 10
235.5602471984337
 20
147.5778552882301
 30
0.0
 10
235.5706730738447
 20
145.7042496818021
 30
0.0
 10
235.5798512112382
 20
144.0548716680464
 30
0.0
  0
LINE
  5
17B
330
1F
100
AcDbEntity
  8
0
  6
Continuous
 62
     8
370
    18
100
AcDbLine
 10
183.0403422034
 20
148.7433382524
 30
0.0
 11
183.0254173364
 21
144.0548716859
 31
0.0
  0
SPLINE
  5
17C
330
1F
100
AcDbEntity
  8
0
  6
Continuous
 62
     8
370
    18
100
AcDbSpline
210
0.0
220
0.0
230
1.0
 70
     8
 71
     3
 72
     9
 73
     5
 74
     0
 42
0.00000001
 43
0.00000001
 40
0.0
 40
0.0
 40
0.0
 40
0.0
 40
0.500005969123153
 40
1.0
 40
1.0
 40
1.0
 40
1.0
 10
183.0254173357244
 20
144.0548716859113
 30
0.0
 10
183.0243355696167
 20
143.883553685222
 30
0.0
 10
183.0221720632299
 20
143.5409217742679
 30
0.0
 10
183.020003415758
 20
143.1962425348334
 30
0.0
 10
183.0189191049669
 20
143.0239049725491
 30
0.0
  0
LINE
  5
17D
330
1F
100
AcDbEntity
  8
0
  6
Continuous
 62
     8
370
    18
100
AcDbLine
 10
183.018919105
 20
143.0239049725
 30
0.0
 11
183.0187855281
 21
143.0114119111
 31
0.0
  0
LINE
  5
17E
330
1F
100
AcDbEntity
  8
0
  6
Continuous
 62
     8
370
    18
100
AcDbLine
 10
209.3026368077
 20
190.4705075526
 30
0.0
 11
184.8026368077
 21
190.4705075526
 31
0.0
  0
LINE
  5
17F
330
1F
100
AcDbEntity
  8
0
  6
Continuous
 62
     8
370
    18
100
AcDbLine
 10
233.8026368077
 20
190.4705075526
 30
0.0
 11
209.3026368077
 21
190.4705075526
 31
0.0
  0
SPLINE
  5
180
330
1F
100
AcDbEntity
  8
0
  6
Continuous
 62
     8
370
    18
100
AcDbSpline
210
0.0
220
0.0
230
1.0
 70
     8
 71
     3
 72
    12
 73
     8
 74
     0
 42
0.00000001
 43
0.00000001
 40
0.0
 40
0.0
 40
0.0
 40
0.0
 40
0.5000000000000023
 40
0.5000000000000023
 40
0.7500000000000011
 40
0.7500000000000011
 40
1.0
 40
1.0
 40
1.0
 40
1.0
 10
234.5499972334671
 20
143.0906748152545
 30
0.0
 10
234.8227296186301
 20
143.0906737582634
 30
0.0
 10
235.1117071388606
 20
143.1451308358287
 30
0.0
 10
235.4136697964563
 20
143.4201010126917
 30
0.0
 10
235.481339749384
 20
143.5333842599053
 30
0.0
 10
235.565306370543
 20
143.7864932993822
 30
0.0
 10
235.5803081865135
 20
143.9224873167128
 30
0.0
 10
235.579856279775
 20
144.0548716859113
 30
0.0
  0
SPLINE
  5
181
330
1F
100
AcDbEntity
  8
0
  6
Continuous
 62
     8
370
    18
100
AcDbSpline
210
0.0
220
0.0
230
1.0
 70
     8
 71
     3
 72
    20
 73
    16
 74
     0
 42
0.00000001
 43
0.00000001
 40
0.0033827405399668
 40
0.0033827405399668
 40
0.0033827405399668
 40
0.0033827405399668
 40
12.5909745770832
 40
12.5909745770832
 40
18.8864618656249
 40
18.8864618656249
 40
25.1819491541665
 40
25.1819491541665
 40
31.4774364427081
 40
31.4774364427081
 40
37.7729237312497
 40
37.7729237312497
 40
50.363898308333
 40
50.363898308333
 40
74.22739611255612
 40
74.22739611255612
 40
74.22739611255612
 40
74.22739611255612
 10
234.5499972334669
 20
143.0906748152445
 30
0.0
 10
234.5459442462032
 20
143.7084172478247
 30
0.0
 10
234.5422597741357
 20
144.3262175577619
 30
0.0
 10
234.5381955867227
 20
145.2529174658813
 30
0.0
 10
234.5370704795881
 20
145.561926833419
 30
0.0
 10
234.5353159694584
 20
146.1798176498105
 30
0.0
 10
234.5346938944569
 20
146.4888252622708
 30
0.0
 10
234.5339439050351
 20
147.1067190232185
 30
0.0
 10
234.5338017667868
 20
147.41569507889
 30
0.0
 10
234.5338907850626
 20
148.0336347380087
 30
0.0
 10
234.534117962727
 20
148.3426105343783
 30
0.0
 10
234.53522628973
 20
149.2695088213824
 30
0.0
 10
234.53654174139
 20
149.8874395978493
 30
0.0
 10
234.5411258662777
 20
151.6765903847708
 30
0.0
 10
234.5450739641274
 20
152.8476731558239
 30
0.0
 10
234.547786818676
 20
154.0188629690321
 30
0.0
  0
SPLINE
  5
182
330
1F
100
AcDbEntity
  8
0
  6
Continuous
 62
     8
370
    18
100
AcDbSpline
210
0.0
220
0.0
230
1.0
 70
     8
 71
     3
 72
    14
 73
    10
 74
     0
 42
0.00000001
 43
0.00000001
 40
0.003383834180105
 40
0.003383834180105
 40
0.003383834180105
 40
0.003383834180105
 40
6.933820444382824
 40
18.15533585749842
 40
29.37685127061392
 40
40.59836668372952
 40
51.81988209684512
 40
63.04139750996062
 40
74.25952908889612
 40
74.25952908889612
 40
74.25952908889612
 40
74.25952908889612
 10
184.0574867399646
 20
154.018862969472
 30
0.0
 10
184.0582739853171
 20
153.6788609795105
 30
0.0
 10
184.0606069423702
 20
152.789741168291
 30
0.0
 10
184.0649503006469
 20
151.3478647961099
 30
0.0
 10
184.0693643180812
 20
149.6965320438263
 30
0.0
 10
184.0718507522073
 20
148.0448919426528
 30
0.0
 10
184.0711398223127
 20
146.3933191997003
 30
0.0
 10
184.0655271908359
 20
144.7419147616376
 30
0.0
 10
184.0588871835201
 20
143.6410322993994
 30
0.0
 10
184.0552767773943
 20
143.0906748151995
 30
0.0
  0
SPLINE
  5
183
330
1F
100
AcDbEntity
  8
0
  6
Continuous
 62
     8
370
    18
100
AcDbSpline
210
0.0
220
0.0
230
1.0
 70
     8
 71
     3
 72
    16
 73
    12
 74
     0
 42
0.00000001
 43
0.00000001
 40
0.0
 40
0.0
 40
0.0
 40
0.0
 40
0.084317372251047
 40
0.1683268488687966
 40
0.2517102411851013
 40
0.3628060242332554
 40
0.49890816656413
 40
0.6477599993557198
 40
0.7477355654966354
 40
0.8744140009592978
 40
0.9999999999999999
 40
0.9999999999999999
 40
0.9999999999999999
 40
0.9999999999999999
 10
183.0254173364131
 20
144.0548716858945
 30
0.0
 10
183.0262751480181
 20
144.0102148378725
 30
0.0
 10
183.0279876388197
 20
143.9210642120019
 30
0.0
 10
183.0461029995323
 20
143.788630959833
 30
0.0
 10
183.0823851130431
 20
143.6451570495069
 30
0.0
 10
183.1536868286767
 20
143.4829834092908
 30
0.0
 10
183.2884166039122
 20
143.3149406777727
 30
0.0
 10
183.4666316872074
 20
143.2006232266407
 30
0.0
 10
183.6595384666441
 20
143.1321340182552
 30
0.0
 10
183.8491598951057
 20
143.0964694127099
 30
0.0
 10
183.9867695268553
 20
143.0926007633105
 30
0.0
 10
184.0552763820324
 20
143.0906748152445
 30
0.0
  0
LINE
  5
184
330
1F
100
AcDbEntity
  8
0
  6
Continuous
 62
     8
370
    18
100
AcDbLine
 10
234.5500005011
 20
143.0901767869
 30
0.0
 11
234.5499972335
 21
143.0906748145
 31
0.0
  0
LINE
  5
185
330
1F
100
AcDbEntity
  8
0
  6
Continuous
 62
     8
370
    18
100
AcDbLine
 10
234.5500006926
 20
143.0901767862
 30
0.0
 11
209.3025403869
 21
143.0901824727
 31
0.0
  0
LWPOLYLINE
  5
186
330
1F
100
AcDbEntity
  8
0
  6
Continuous
 62
     8
370
    18
100
AcDbPolyline
 90
        3
 70
   128
 43
0.0
 10
184.0552731144
 20
143.0901767862
 10
196.6790029993
 20
143.0901786757
 10
209.3027332286
 20
143.0901796625
  0
LINE
  5
187
330
1F
100
AcDbEntity
  8
0
  6
Continuous
 62
     8
370
    18
100
AcDbLine
 10
184.0552731144
 20
143.0901767869
 30
0.0
 11
184.055276382
 21
143.0906748145
 31
0.0
  0
LINE
  5
188
330
1F
100
AcDbEntity
  8
0
  6
Continuous
 62
     8
370
    18
100
AcDbLine
 10
234.5500006926
 20
143.0901767861
 30
0.0
 11
234.5568116853
 21
142.0520685951
 31
0.0
  0
SPLINE
  5
189
330
1F
100
AcDbEntity
  8
0
  6
Continuous
 62
     8
370
    18
100
AcDbSpline
210
0.0
220
0.0
230
1.0
 70
     8
 71
     3
 72
     8
 73
     4
 74
     0
 42
0.00000001
 43
0.00000001
 40
0.0
 40
0.0
 40
0.0
 40
0.0
 40
0.0001146398046333
 40
0.0001146398046333
 40
0.0001146398046333
 40
0.0001146398046333
 10
234.5570615179602
 20
142.0309040462511
 30
0.0
 10
234.5952747737356
 20
142.0308824022106
 30
0.0
 10
234.6335098058823
 20
142.0319484903285
 30
0.0
 10
234.6716509886928
 20
142.0342719433874
 30
0.0
  0
LINE
  5
18A
330
1F
100
AcDbEntity
  8
0
  6
Continuous
 62
     8
370
    18
100
AcDbLine
 10
234.5570615121
 20
142.0309007034
 30
0.0
 11
234.5568116062
 21
142.0520681953
 31
0.0
  0
LINE
  5
18B
330
1F
100
AcDbEntity
  8
0
  6
Continuous
 62
     8
370
    18
100
AcDbLine
 10
184.0552729229
 20
143.0901767861
 30
0.0
 11
184.0483230484
 21
142.0309007035
 31
0.0
  0
SPLINE
  5
18C
330
1F
100
AcDbEntity
  8
0
  6
Continuous
 62
     8
370
    18
100
AcDbSpline
210
0.0
220
0.0
230
1.0
 70
     8
 71
     3
 72
    11
 73
     7
 74
     0
 42
0.00000001
 43
0.00000001
 40
0.0
 40
0.0
 40
0.0
 40
0.0
 40
0.0001189070178923
 40
0.0001189070178923
 40
0.0001189070178923
 40
0.0001189670178923
 40
0.0001189670178923
 40
0.0001189670178923
 40
0.0001189670178923
 10
183.9294123932076
 20
142.0345331056056
 30
0.0
 10
183.968967191512
 20
142.0320269030112
 30
0.0
 10
184.0086273833153
 20
142.0308801729189
 30
0.0
 10
184.0482630423826
 20
142.0309036253983
 30
0.0
 10
184.0482830423758
 20
142.0309036372324
 30
0.0
 10
184.0483030423687
 20
142.0309036493643
 30
0.0
 10
184.0483230423615
 20
142.0309036617939
 30
0.0
  0
LINE
  5
18D
330
1F
100
AcDbEntity
  8
0
  6
Continuous
 62
     8
370
    18
100
AcDbLine
 10
234.5568116853
 20
142.0520685951
 30
0.0
 11
209.3026368077
 21
142.0520685951
 31
0.0
  0
SPLINE
  5
18E
330
1F
100
AcDbEntity
  8
0
  6
Continuous
 62
     8
370
    18
100
AcDbSpline
210
0.0
220
0.0
230
1.0
 70
     8
 71
     3
 72
    17
 73
    13
 74
     0
 42
0.00000001
 43
0.00000001
 40
0.0
 40
0.0
 40
0.0
 40
0.0
 40
0.0019959000010736
 40
0.0019959000010736
 40
0.0019959000010736
 40
0.0099795000695275
 40
0.0099795000695275
 40
0.0099795000695275
 40
0.0259467000977572
 40
0.0259467000977572
 40
0.0259467000977572
 40
0.0505087386333678
 40
0.0505087386333678
 40
0.0505087386333678
 40
0.0505087386333678
 10
184.0483230483707
 20
142.0309007034539
 30
0.0
 10
184.7136230315374
 20
142.0308999198679
 30
0.0
 10
185.3789230201851
 20
142.0308993199079
 30
0.0
 10
186.0442230116792
 20
142.0308988395498
 30
0.0
 10
188.7054229882853
 20
142.0308969181173
 30
0.0
 10
191.3666230173399
 20
142.0308966955577
 30
0.0
 10
194.0278230293872
 20
142.0308967238124
 30
0.0
 10
199.3502230300535
 20
142.030896780322
 30
0.0
 10
204.6726230278134
 20
142.0308979048648
 30
0.0
 10
209.9950230284899
 20
142.0308978510618
 30
0.0
 10
218.1823691923323
 20
142.0308977682977
 30
0.0
 10
226.3697155600191
 20
142.0308910661888
 30
0.0
 10
234.5570615121119
 20
142.0309007033583
 30
0.0
  0
LINE
  5
18F
330
1F
100
AcDbEntity
  8
0
  6
Continuous
 62
     8
370
    18
100
AcDbLine
 10
234.5571199136
 20
142.037969412
 30
0.0
 11
234.5570615178
 21
142.0309007034
 31
0.0
  0
ARC
  5
190
330
1F
100
AcDbEntity
  8
0
  6
Continuous
 62
     7
370
    25
100
AcDbCircle
 10
-6597.1146759965
 20
467.2442876527
 30
0.0
 40
7000.0
100
AcDbArc
 50
359.953559659
 51
0.0
  0
ARC
  5
191
330
1F
100
AcDbEntity
  8
0
  6
Continuous
 62
     7
370
    25
100
AcDbCircle
 10
-6597.1146759965
 20
467.2442876527
 30
0.0
 40
7000.000000000001
100
AcDbArc
 50
359.4035565777
 51
359.5537057471
  0
ARC
  5
192
330
1F
100
AcDbEntity
  8
0
  6
Continuous
 62
     7
370
    25
100
AcDbCircle
 10
-6597.1146759965
 20
467.2442876527
 30
0.0
 40
7000.0
100
AcDbArc
 50
0.4032389196
 51
0.5964433715
  0
ARC
  5
193
330
1F
100
AcDbEntity
  8
0
  6
Continuous
 62
     7
370
    25
100
AcDbCircle
 10
-6597.1146759965
 20
467.2442876527
 30
0.0
 40
7000.0
100
AcDbArc
 50
0.0
 51
0.2172270512
  0
ARC
  5
194
330
1F
100
AcDbEntity
  8
0
  6
Continuous
 62
     7
370
    25
100
AcDbCircle
 10
401.0061283626
 20
540.0965875218
 30
0.0
 40
1.500000000000066
100
AcDbArc
 50
0.6099342096
 51
88.4893102131
  0
ARC
  5
195
330
1F
100
AcDbEntity
  8
0
  6
Continuous
 62
     7
370
    25
100
AcDbCircle
 10
401.0061283626
 20
394.3919877835
 30
0.0
 40
1.500000000000015
100
AcDbArc
 50
271.5241076745
 51
359.4065979698
  0
LINE
  5
196
330
1F
100
AcDbEntity
  8
0
  6
Continuous
 62
     7
370
    25
100
AcDbLine
 10
401.0453794591
 20
541.5960738844
 30
0.0
 11
395.3853240035
 21
541.7442876527
 31
0.0
  0
LINE
  5
197
330
1F
100
AcDbEntity
  8
0
  6
Continuous
 62
     7
370
    25
100
AcDbLine
 10
395.3853240035
 20
392.7442876527
 30
0.0
 11
401.0453794591
 21
392.8925014209
 31
0.0
  0
LINE
  5
198
330
1F
100
AcDbEntity
  8
0
  6
Continuous
 62
     7
370
    25
100
AcDbLine
 10
479.3249282726
 20
355.7485325558
 30
0.0
 11
478.805884653
 21
359.2294409512
 31
0.0
  0
SPLINE
  5
199
330
1F
100
AcDbEntity
  8
0
  6
Continuous
 62
     7
370
    25
100
AcDbSpline
210
0.0
220
0.0
230
1.0
 70
     8
 71
     3
 72
     9
 73
     5
 74
     0
 42
0.00000001
 43
0.00000001
 40
0.0
 40
0.0
 40
0.0
 40
0.0
 40
0.5079069397932076
 40
0.9999999999999999
 40
0.9999999999999999
 40
0.9999999999999999
 40
0.9999999999999999
 10
478.4833318830243
 20
354.6334123119304
 30
0.0
 10
478.4921144759119
 20
354.6290868846502
 30
0.0
 10
478.509406212251
 20
354.620570703946
 30
0.0
 10
478.4928923445056
 20
354.6163488701085
 30
0.0
 10
478.484765984791
 20
354.6142713349758
 30
0.0
  0
SPLINE
  5
19A
330
1F
100
AcDbEntity
  8
0
  6
Continuous
 62
     7
370
    25
100
AcDbSpline
210
0.0
220
0.0
230
1.0
 70
     8
 71
     3
 72
    10
 73
     6
 74
     0
 42
0.00000001
 43
0.00000001
 40
0.0
 40
0.0
 40
0.0
 40
0.0
 40
0.2447733703674606
 40
0.493128967419778
 40
1.0
 40
1.0
 40
1.0
 40
1.0
 10
478.484765984791
 20
354.6142713349758
 30
0.0
 10
478.4996358231324
 20
354.6167368859912
 30
0.0
 10
478.5295931179802
 20
354.621704071043
 30
0.0
 10
478.5941509967271
 20
354.6361437222477
 30
0.0
 10
478.641668177951
 20
354.6514701819993
 30
0.0
 10
478.6735593769199
 20
354.6617565492634
 30
0.0
  0
SPLINE
  5
19B
330
1F
100
AcDbEntity
  8
0
  6
Continuous
 62
     7
370
    25
100
AcDbSpline
210
0.0
220
0.0
230
1.0
 70
     8
 71
     3
 72
    11
 73
     7
 74
     0
 42
0.00000001
 43
0.00000001
 40
0.0
 40
0.0
 40
0.0
 40
0.0
 40
0.2392021797168112
 40
0.4925406460558419
 40
0.7492859725932726
 40
1.0
 40
1.0
 40
1.0
 40
1.0
 10
463.4191592744831
 20
462.3135770590079
 30
0.0
 10
463.4158887028137
 20
462.3370678410824
 30
0.0
 10
463.4091542763761
 20
462.3854376552417
 30
0.0
 10
463.401014663465
 20
462.4445376616272
 30
0.0
 10
463.3942579135067
 20
462.4944172637359
 30
0.0
 10
463.3920820010432
 20
462.5121817755373
 30
0.0
 10
463.3910069754814
 20
462.5209584632937
 30
0.0
  0
LINE
  5
19C
330
1F
100
AcDbEntity
  8
0
  6
Continuous
 62
     7
370
    25
100
AcDbLine
 10
462.2818157868
 20
463.3390464558
 30
0.0
 11
457.5921230525
 21
463.3390583323
 31
0.0
  0
LINE
  5
19D
330
1F
100
AcDbEntity
  8
0
  6
Continuous
 62
     7
370
    25
100
AcDbLine
 10
476.3150050585
 20
354.2903349342
 30
0.0
 11
476.3151881127
 21
354.290362293
 31
0.0
  0
LWPOLYLINE
  5
19E
330
1F
100
AcDbEntity
  8
0
  6
Continuous
 62
     7
370
    25
100
AcDbPolyline
 90
        3
 70
   128
 43
0.0
 10
479.17315401
 20
356.7664055125
 10
479.0995300414
 20
357.2629162219
 10
479.0253988856
 20
357.7593509668
  0
LINE
  5
19F
330
1F
100
AcDbEntity
  8
0
  6
Continuous
 62
     7
370
    25
100
AcDbLine
 10
479.3249275824
 20
355.7478945801
 30
0.0
 11
479.3248334184
 21
355.7485279349
 31
0.0
  0
LINE
  5
1A0
330
1F
100
AcDbEntity
  8
0
  6
Continuous
 62
     7
370
    25
100
AcDbLine
 10
479.0654775171
 20
357.4912237175
 30
0.0
 11
478.7643157388
 21
359.5082275868
 31
0.0
  0
LINE
  5
1A1
330
1F
100
AcDbEntity
  8
0
  6
Continuous
 62
     7
370
    25
100
AcDbLine
 10
430.8853240035
 20
461.6442876527
 30
0.0
 11
402.8827672585
 21
461.6442876527
 31
0.0
  0
LINE
  5
1A2
330
1F
100
AcDbEntity
  8
0
  6
Continuous
 62
     7
370
    25
100
AcDbLine
 10
402.6727049644
 20
412.6442876527
 30
0.0
 11
430.8853240035
 21
412.6442876527
 31
0.0
  0
ARC
  5
1A3
330
1F
100
AcDbEntity
  8
0
  6
Continuous
 62
     7
370
    25
100
AcDbCircle
 10
430.8853240035
 20
437.1442876527
 30
0.0
 40
24.5
100
AcDbArc
 50
270.0
 51
295.8957266097
  0
ARC
  5
1A4
330
1F
100
AcDbEntity
  8
0
  6
Continuous
 62
     7
370
    25
100
AcDbCircle
 10
430.8853240035
 20
437.1442876527
 30
0.0
 40
24.50000000000006
100
AcDbArc
 50
48.9207852351
 51
90.0
  0
LINE
  5
1A5
330
1F
100
AcDbEntity
  8
0
  6
Continuous
 62
     7
370
    25
100
AcDbLine
 10
402.8355750391
 20
493.7481496708
 30
0.0
 11
410.7237930848
 21
493.885839029
 31
0.0
  0
LINE
  5
1A6
330
1F
100
AcDbEntity
  8
0
  6
Continuous
 62
     7
370
    25
100
AcDbLine
 10
410.7237930848
 20
516.4027362763
 30
0.0
 11
402.7124995059
 21
516.5425739259
 31
0.0
  0
ARC
  5
1A7
330
1F
100
AcDbEntity
  8
0
  6
Continuous
 62
     7
370
    25
100
AcDbCircle
 10
410.7150668816
 20
494.3857628766
 30
0.0
 40
0.5000000000000058
100
AcDbArc
 50
271.0
 51
358.1867030123
  0
ARC
  5
1A8
330
1F
100
AcDbEntity
  8
0
  6
Continuous
 62
     7
370
    25
100
AcDbCircle
 10
410.7150668816
 20
515.9028124288
 30
0.0
 40
0.4999999999999681
100
AcDbArc
 50
1.8132969876
 51
89.0
  0
ARC
  5
1A9
330
1F
100
AcDbEntity
  8
0
  6
Continuous
 62
     7
370
    25
100
AcDbCircle
 10
70.8853240035
 20
505.1442876527
 30
0.0
 40
340.5
100
AcDbArc
 50
358.1867030123
 51
0.0
  0
ARC
  5
1AA
330
1F
100
AcDbEntity
  8
0
  6
Continuous
 62
     7
370
    25
100
AcDbCircle
 10
70.8853240035
 20
505.1442876527
 30
0.0
 40
340.5
100
AcDbArc
 50
0.0
 51
1.8132969877
  0
LINE
  5
1AB
330
1F
100
AcDbEntity
  8
0
  6
Continuous
 62
     7
370
    25
100
AcDbLine
 10
446.5853240035
 20
410.3506706632
 30
0.0
 11
446.8039053704
 21
409.7501232933
 31
0.0
  0
LINE
  5
1AC
330
1F
100
AcDbEntity
  8
0
  6
Continuous
 62
     7
370
    25
100
AcDbLine
 10
446.5853240035
 20
410.6315329191
 30
0.0
 11
446.5853240035
 21
410.3506706632
 31
0.0
  0
ARC
  5
1AD
330
1F
100
AcDbEntity
  8
0
  6
Continuous
 62
     7
370
    25
100
AcDbCircle
 10
446.9918438945
 20
409.818527322
 30
0.0
 40
0.2000000000000455
100
AcDbArc
 50
200.0
 51
270.0
  0
LINE
  5
1AE
330
1F
100
AcDbEntity
  8
0
  6
Continuous
 62
     7
370
    25
100
AcDbLine
 10
446.9918438945
 20
409.618527322
 30
0.0
 11
449.0800065528
 21
409.618527322
 31
0.0
  0
ARC
  5
1AF
330
1F
100
AcDbEntity
  8
0
  6
Continuous
 62
     7
370
    25
100
AcDbCircle
 10
457.5699025101
 20
463.1379337655
 30
0.0
 40
0.2000000000000055
100
AcDbArc
 50
93.334095393
 51
133.6967892399
  0
SPLINE
  5
1B0
330
1F
100
AcDbEntity
  8
0
  6
Continuous
 62
     7
370
    25
100
AcDbSpline
210
0.0
220
0.0
230
1.0
 70
     8
 71
     3
 72
     9
 73
     5
 74
     0
 42
0.00000001
 43
0.00000001
 40
0.0
 40
0.0
 40
0.0
 40
0.0
 40
0.4623803206990929
 40
1.0
 40
1.0
 40
1.0
 40
1.0
 10
474.8689589040998
 20
358.5159639447736
 30
0.0
 10
475.0471799496465
 20
357.9129391682739
 30
0.0
 10
475.4326224902744
 20
356.6087643375025
 30
0.0
 10
475.7231437103283
 20
355.621941749071
 30
0.0
 10
475.8793336354839
 20
355.0914065055516
 30
0.0
  0
LINE
  5
1B1
330
1F
100
AcDbEntity
  8
0
  6
Continuous
 62
     7
370
    25
100
AcDbLine
 10
457.4725383425
 20
463.3220795914
 30
0.0
 11
456.8606097798
 21
462.8672588969
 31
0.0
  0
LINE
  5
1B2
330
1F
100
AcDbEntity
  8
0
  6
Continuous
 62
     7
370
    25
100
AcDbLine
 10
452.5855018561
 20
461.360476171
 30
0.0
 11
448.3450083156
 21
460.7761939907
 31
0.0
  0
LWPOLYLINE
  5
1B3
330
1F
100
AcDbEntity
  8
0
  6
Continuous
 62
     7
370
    25
100
AcDbPolyline
 90
        3
 70
   128
 43
0.0
 10
478.2661441262
 20
362.8491523989
 10
478.331431656
 20
362.4172045725
 10
478.3954881349
 20
361.9817231896
  0
LINE
  5
1B4
330
1F
100
AcDbEntity
  8
0
  6
Continuous
 62
     7
370
    25
100
AcDbLine
 10
395.3853240035
 20
394.4979410579
 30
0.0
 11
395.3853240035
 21
539.9906342475
 31
0.0
  0
SPLINE
  5
1B5
330
1F
100
AcDbEntity
  8
0
  6
Continuous
 62
     7
370
    25
100
AcDbSpline
210
0.0
220
0.0
230
1.0
 70
     8
 71
     3
 72
    12
 73
     8
 74
     0
 42
0.00000001
 43
0.00000001
 40
0.0
 40
0.0
 40
0.0
 40
0.0
 40
0.2117563141931242
 40
0.4296535404679241
 40
0.6414098668716571
 40
0.8593072019985685
 40
1.0
 40
1.0
 40
1.0
 40
1.0
 10
402.7032277827506
 20
419.817810394861
 30
0.0
 10
402.6993002988179
 20
418.9044662886171
 30
0.0
 10
402.6913314343086
 20
417.0512911877543
 30
0.0
 10
402.6824000301867
 20
414.9742799777729
 30
0.0
 10
402.676068002186
 20
413.501758758239
 30
0.0
 10
402.6726941356138
 20
412.7171624282255
 30
0.0
 10
402.6727020886294
 20
412.7190119124236
 30
0.0
 10
402.6727052089942
 20
412.7197375573386
 30
0.0
  0
SPLINE
  5
1B6
330
1F
100
AcDbEntity
  8
0
  6
Continuous
 62
     7
370
    25
100
AcDbSpline
210
0.0
220
0.0
230
1.0
 70
     8
 71
     3
 72
    22
 73
    18
 74
     0
 42
0.00000001
 43
0.00000001
 40
0.0
 40
0.0
 40
0.0
 40
0.0
 40
0.0515585270584498
 40
0.122119822844479
 40
0.1947273937499203
 40
0.2652888387217598
 40
0.3378965426629392
 40
0.4084584903420636
 40
0.4810667032381438
 40
0.5516292868456604
 40
0.6242381615777518
 40
0.6948012356452032
 40
0.7674106350521698
 40
0.8379738391562324
 40
0.9105833961277839
 40
0.9550435012267343
 40
1.0
 40
1.0
 40
1.0
 40
1.0
 10
402.8827668472029
 20
461.570530493373
 30
0.0
 10
402.8827432101114
 20
461.5650334942772
 30
0.0
 10
402.8826872240776
 20
461.5520134839303
 30
0.0
 10
402.879113863754
 20
460.7209998474708
 30
0.0
 10
402.8727243857667
 20
459.2350765373548
 30
0.0
 10
402.8634587984423
 20
457.0802938261787
 30
0.0
 10
402.8518830259114
 20
454.3882640405404
 30
0.0
 10
402.8380795948707
 20
451.1781820115166
 30
0.0
 10
402.8226974157099
 20
447.6009588550515
 30
0.0
 10
402.8058923503844
 20
443.6928435946232
 30
0.0
 10
402.7884433335732
 20
439.6349837022099
 30
0.0
 10
402.7705294253965
 20
435.469021524274
 30
0.0
 10
402.7529824745903
 20
431.3884074175356
 30
0.0
 10
402.7359745927482
 20
427.4331658075795
 30
0.0
 10
402.7222371205646
 20
424.2384768314365
 30
0.0
 10
402.7113250067083
 20
421.7008373443137
 30
0.0
 10
402.7059368281753
 20
420.447804769304
 30
0.0
 10
402.7032277827506
 20
419.817810394861
 30
0.0
  0
SPLINE
  5
1B7
330
1F
100
AcDbEntity
  8
0
  6
Continuous
 62
     7
370
    25
100
AcDbSpline
210
0.0
220
0.0
230
1.0
 70
     8
 71
     3
 72
    12
 73
     8
 74
     0
 42
0.00000001
 43
0.00000001
 40
0.0
 40
0.0
 40
0.0
 40
0.0
 40
0.2120754903899755
 40
0.4303011302320799
 40
0.6423766399945176
 40
0.86060245245119
 40
1.0
 40
1.0
 40
1.0
 40
1.0
 10
402.8171316973763
 20
497.0756641235287
 30
0.0
 10
402.8194291847568
 20
496.6513421442644
 30
0.0
 10
402.8240907862209
 20
495.7903929279074
 30
0.0
 10
402.8293117951854
 20
494.8261257884289
 30
0.0
 10
402.8330084501112
 20
494.1433909677335
 30
0.0
 10
402.834971077455
 20
493.7809133455417
 30
0.0
 10
402.834960606249
 20
493.7828472721158
 30
0.0
 10
402.8349565246911
 20
493.783601094857
 30
0.0
  0
SPLINE
  5
1B8
330
1F
100
AcDbEntity
  8
0
  6
Continuous
 62
     7
370
    25
100
AcDbSpline
210
0.0
220
0.0
230
1.0
 70
     8
 71
     3
 72
    21
 73
    17
 74
     0
 42
0.00000001
 43
0.00000001
 40
0.0
 40
0.0
 40
0.0
 40
0.0
 40
0.0520401989211646
 40
0.1225741851154955
 40
0.1951536500783551
 40
0.2656878751303636
 40
0.3382675534586415
 40
0.4088025770167724
 40
0.4813830638843667
 40
0.5519190956529199
 40
0.624500631892104
 40
0.6950374397257605
 40
0.7676198062815771
 40
0.8381568179091073
 40
0.9107394318251529
 40
0.9999999999999999
 40
0.9999999999999999
 40
0.9999999999999999
 40
0.9999999999999999
 10
402.7119105094614
 20
516.5087689111584
 30
0.0
 10
402.7119270760041
 20
516.5057092911942
 30
0.0
 10
402.711966096425
 20
516.4985027387281
 30
0.0
 10
402.7140734402144
 20
516.1093042487599
 30
0.0
 10
402.7178282971092
 20
515.4158316038673
 30
0.0
 10
402.7232662080125
 20
514.411520373695
 30
0.0
 10
402.7300562458994
 20
513.1574878167827
 30
0.0
 10
402.7381496679124
 20
511.6627353887135
 30
0.0
 10
402.7471661402881
 20
509.9975052099113
 30
0.0
 10
402.7570140705225
 20
508.1787126402962
 30
0.0
 10
402.7672377424593
 20
506.2905224297633
 30
0.0
 10
402.7777294990017
 20
504.3528172955579
 30
0.0
 10
402.7880122943433
 20
502.4537020149693
 30
0.0
 10
402.7979473219125
 20
500.6188127954705
 30
0.0
 10
402.8080072711257
 20
498.7608494475554
 30
0.0
 10
402.8138882114843
 20
497.6747017696943
 30
0.0
 10
402.8171316973763
 20
497.0756641235287
 30
0.0
  0
LINE
  5
1B9
330
1F
100
AcDbEntity
  8
0
  6
Continuous
 62
     7
370
    25
100
AcDbLine
 10
395.3853240035
 20
393.0088927006
 30
0.0
 11
400.6700510539
 21
393.1472744869
 31
0.0
  0
LINE
  5
1BA
330
1F
100
AcDbEntity
  8
0
  6
Continuous
 62
     7
370
    25
100
AcDbLine
 10
395.3853240035
 20
393.0088927006
 30
0.0
 11
395.3853240035
 21
394.4979410579
 31
0.0
  0
LINE
  5
1BB
330
1F
100
AcDbEntity
  8
0
  6
Continuous
 62
     7
370
    25
100
AcDbLine
 10
395.3853240035
 20
541.4796826047
 30
0.0
 11
400.6700510539
 21
541.3413008184
 31
0.0
  0
LINE
  5
1BC
330
1F
100
AcDbEntity
  8
0
  6
Continuous
 62
     7
370
    25
100
AcDbLine
 10
395.3853240035
 20
541.4796826047
 30
0.0
 11
395.3853240035
 21
539.9906342475
 31
0.0
  0
LINE
  5
1BD
330
1F
100
AcDbEntity
  8
0
  6
Continuous
 62
     7
370
    25
100
AcDbLine
 10
395.3853240035
 20
541.4796826047
 30
0.0
 11
395.3853240035
 21
541.7442876527
 31
0.0
  0
LINE
  5
1BE
330
1F
100
AcDbEntity
  8
0
  6
Continuous
 62
     7
370
    25
100
AcDbLine
 10
395.3853240035
 20
393.0088927006
 30
0.0
 11
395.3853240035
 21
392.7442876527
 31
0.0
  0
LINE
  5
1BF
330
1F
100
AcDbEntity
  8
0
  6
Continuous
 62
     7
370
    25
100
AcDbLine
 10
475.821209874
 20
355.2469130749
 30
0.0
 11
476.0673890093
 21
354.4297270284
 31
0.0
  0
SPLINE
  5
1C0
330
1F
100
AcDbEntity
  8
0
  6
Continuous
 62
     7
370
    25
100
AcDbSpline
210
0.0
220
0.0
230
1.0
 70
     8
 71
     3
 72
    32
 73
    28
 74
     0
 42
0.00000001
 43
0.00000001
 40
0.0
 40
0.0
 40
0.0
 40
0.0
 40
0.0624999999999999
 40
0.0624999999999999
 40
0.1249999999999998
 40
0.1249999999999998
 40
0.2499999999999988
 40
0.2499999999999988
 40
0.3124999999999984
 40
0.3124999999999984
 40
0.3749999999999979
 40
0.3749999999999979
 40
0.4999999999999969
 40
0.4999999999999969
 40
0.6249999999999959
 40
0.6249999999999959
 40
0.6874999999999966
 40
0.6874999999999966
 40
0.7499999999999972
 40
0.7499999999999972
 40
0.8124999999999979
 40
0.8124999999999979
 40
0.8749999999999987
 40
0.8749999999999987
 40
0.9374999999999993
 40
0.9374999999999993
 40
1.0
 40
1.0
 40
1.0
 40
1.0
 10
454.3352259128264
 20
404.3471541652264
 30
0.0
 10
454.2503698124535
 20
404.4989034843255
 30
0.0
 10
454.1576977716248
 20
404.6557204519615
 30
0.0
 10
453.9579146331484
 20
404.9770824425634
 30
0.0
 10
453.8502491446064
 20
405.1424186171578
 30
0.0
 10
453.5102153224737
 20
405.6411883465061
 30
0.0
 10
453.2617339266433
 20
405.9766492827021
 30
0.0
 10
452.8551540518984
 20
406.4790234616191
 30
0.0
 10
452.7139161567318
 20
406.6463764591925
 30
0.0
 10
452.4190210552561
 20
406.980271093947
 30
0.0
 10
452.2646263353382
 20
407.1475658159108
 30
0.0
 10
451.7862045560101
 20
407.6416122016375
 30
0.0
 10
451.4490027891733
 20
407.9588584720584
 30
0.0
 10
450.7315121632051
 20
408.564822477901
 30
0.0
 10
450.3472925757729
 20
408.8554438793394
 30
0.0
 10
449.763623664388
 20
409.2454063422343
 30
0.0
 10
449.5669457690301
 20
409.3686201266752
 30
0.0
 10
449.1699424424647
 20
409.6012761723181
 30
0.0
 10
448.9700745340235
 20
409.7102687921992
 30
0.0
 10
448.5829584753754
 20
409.9072334872187
 30
0.0
 10
448.393871706014
 20
409.9963149307655
 30
0.0
 10
448.0268989410696
 20
410.157288227742
 30
0.0
 10
447.8471547684409
 20
410.2298429442009
 30
0.0
 10
447.512538060259
 20
410.3552353793638
 30
0.0
 10
447.3579245779824
 20
410.4081614246668
 30
0.0
 10
447.075470625151
 20
410.4978801693267
 30
0.0
 10
446.9465821330248
 20
410.5349356508851
 30
0.0
 10
446.8353681442797
 20
410.5641556373466
 30
0.0
  0
SPLINE
  5
1C1
330
1F
100
AcDbEntity
  8
0
  6
Continuous
 62
     7
370
    25
100
AcDbSpline
210
0.0
220
0.0
230
1.0
 70
    24
 71
     3
 72
    32
 73
    28
 74
     0
 42
0.00000001
 43
0.00000001
 40
0.0
 40
0.0
 40
0.0
 40
0.0
 40
0.1250000000000007
 40
0.1250000000000007
 40
0.1875000000000011
 40
0.1875000000000011
 40
0.2500000000000014
 40
0.2500000000000014
 40
0.3750000000000022
 40
0.3750000000000022
 40
0.4375000000000023
 40
0.4375000000000023
 40
0.4687500000000023
 40
0.4687500000000023
 40
0.5000000000000022
 40
0.5000000000000022
 40
0.6250000000000017
 40
0.6250000000000017
 40
0.6875000000000013
 40
0.6875000000000013
 40
0.750000000000001
 40
0.750000000000001
 40
0.8750000000000006
 40
0.8750000000000006
 40
0.9375000000000003
 40
0.9375000000000003
 40
1.0
 40
1.0
 40
1.0
 40
1.0
 10
441.5853240034612
 20
436.1442852620016
 30
0.0
 10
441.5853240034612
 20
434.6192636781248
 30
0.0
 10
441.5853240034612
 20
433.1184053832968
 30
0.0
 10
441.5853240034612
 20
430.9018523641506
 30
0.0
 10
441.5853240034612
 20
430.1688296455263
 30
0.0
 10
441.5853240034612
 20
428.7146512206622
 30
0.0
 10
441.5853240034611
 20
427.9898030596406
 30
0.0
 10
441.5853240034611
 20
425.8700913492107
 30
0.0
 10
441.5853240034612
 20
424.525623823172
 30
0.0
 10
441.5853240034612
 20
422.6095985537319
 30
0.0
 10
441.5853240034612
 20
421.9878100036119
 30
0.0
 10
441.5853240034612
 20
421.0811602021849
 30
0.0
 10
441.5853240034611
 20
420.7826924109679
 30
0.0
 10
441.5853240034611
 20
420.2003432493751
 30
0.0
 10
441.5853240034612
 20
419.915869998182
 30
0.0
 10
441.5853240034612
 20
418.5264398753569
 30
0.0
 10
441.5853240034612
 20
417.5194646408629
 30
0.0
 10
441.5853240034612
 20
416.1652197159531
 30
0.0
 10
441.5853240034611
 20
415.7388159976068
 30
0.0
 10
441.5853240034611
 20
414.9456689525055
 30
0.0
 10
441.5853240034612
 20
414.5824154203394
 30
0.0
 10
441.5853240034612
 20
413.589525477881
 30
0.0
 10
441.5853240034612
 20
413.0559743105267
 30
0.0
 10
441.5853240034612
 20
412.4511831017776
 30
0.0
 10
441.5853240034611
 20
412.2821662664101
 30
0.0
 10
441.5853240034611
 20
412.0159274708412
 30
0.0
 10
441.5853240034612
 20
411.9179268975584
 30
0.0
 10
441.5853240034612
 20
411.8553428514203
 30
0.0
  0
SPLINE
  5
1C2
330
1F
100
AcDbEntity
  8
0
  6
Continuous
 62
     7
370
    25
100
AcDbSpline
210
0.0
220
0.0
230
1.0
 70
    24
 71
     3
 72
    30
 73
    26
 74
     0
 42
0.00000001
 43
0.00000001
 40
0.0
 40
0.0
 40
0.0
 40
0.0
 40
0.125
 40
0.125
 40
0.25
 40
0.25
 40
0.3125000000000001
 40
0.3125000000000001
 40
0.3750000000000001
 40
0.3750000000000001
 40
0.4375000000000002
 40
0.4375000000000002
 40
0.5000000000000002
 40
0.5000000000000002
 40
0.5625000000000002
 40
0.5625000000000002
 40
0.6250000000000002
 40
0.6250000000000002
 40
0.6875000000000002
 40
0.6875000000000002
 40
0.7500000000000002
 40
0.7500000000000002
 40
0.8750000000000001
 40
0.8750000000000001
 40
1.0
 40
1.0
 40
1.0
 40
1.0
 10
441.5853239015318
 20
436.1442852620016
 30
0.0
 10
442.0123986103291
 20
437.6842669114627
 30
0.0
 10
442.4334961719
 20
439.2026956643105
 30
0.0
 10
443.2652762637635
 20
442.2019977804767
 30
0.0
 10
443.6759513216138
 20
443.6828441990383
 30
0.0
 10
444.2845066405465
 20
445.8772237877469
 30
0.0
 10
444.4853431112116
 20
446.6014167052755
 30
0.0
 10
444.8779224384376
 20
448.0170120272004
 30
0.0
 10
445.0704314448044
 20
448.7111770785463
 30
0.0
 10
445.4474827737884
 20
450.070780247686
 30
0.0
 10
445.6320391226819
 20
450.7362689425983
 30
0.0
 10
445.9919448062852
 20
452.0340469118128
 30
0.0
 10
446.1672999333232
 20
452.6663570725758
 30
0.0
 10
446.5064312259764
 20
453.8892250080588
 30
0.0
 10
446.670741796116
 20
454.48170978324
 30
0.0
 10
446.9745239479378
 20
455.5771128347503
 30
0.0
 10
447.1152034374773
 20
456.0843866861015
 30
0.0
 10
447.3728958086514
 20
457.0135953576519
 30
0.0
 10
447.4901688487657
 20
457.4364682790223
 30
0.0
 10
447.7005852020168
 20
458.195205137184
 30
0.0
 10
447.791823156539
 20
458.5241985727686
 30
0.0
 10
448.0318650929709
 20
459.3897618327593
 30
0.0
 10
448.1478684008243
 20
459.8080562475097
 30
0.0
 10
448.319725492708
 20
460.4277529009965
 30
0.0
 10
448.3739355132759
 20
460.6232279201721
 30
0.0
 10
448.4026094390894
 20
460.7266227563946
 30
0.0
  0
SPLINE
  5
1C3
330
1F
100
AcDbEntity
  8
0
  6
Continuous
 62
     7
370
    25
100
AcDbSpline
210
0.0
220
0.0
230
1.0
 70
     8
 71
     3
 72
    10
 73
     6
 74
     0
 42
0.00000001
 43
0.00000001
 40
0.0
 40
0.0
 40
0.0
 40
0.0
 40
0.2640265116284349
 40
0.6140511680371534
 40
1.0
 40
1.0
 40
1.0
 40
1.0
 10
457.4315537649724
 20
463.2417308506954
 30
0.0
 10
457.4305258036619
 20
463.2492566349363
 30
0.0
 10
457.4281350557045
 20
463.266759485597
 30
0.0
 10
457.4303485238346
 20
463.2768633749767
 30
0.0
 10
457.4310490159471
 20
463.2796706178582
 30
0.0
 10
457.4314163581367
 20
463.2811427525591
 30
0.0
  0
SPLINE
  5
1C4
330
1F
100
AcDbEntity
  8
0
  6
Continuous
 62
     7
370
    18
100
AcDbSpline
210
0.0
220
0.0
230
1.0
 70
     8
 71
     3
 72
    34
 73
    30
 74
     0
 42
0.00000001
 43
0.00000001
 40
0.0
 40
0.0
 40
0.0
 40
0.0
 40
0.0156249999999999
 40
0.0156249999999999
 40
0.0312499999999998
 40
0.0312499999999998
 40
0.0624999999999997
 40
0.0624999999999997
 40
0.1249999999999997
 40
0.1249999999999997
 40
0.2499999999999998
 40
0.2499999999999998
 40
0.4999999999999998
 40
0.4999999999999998
 40
0.6249999999999998
 40
0.6249999999999998
 40
0.7499999999999999
 40
0.7499999999999999
 40
0.8124999999999999
 40
0.8124999999999999
 40
0.8749999999999999
 40
0.8749999999999999
 40
0.9375
 40
0.9375
 40
0.96875
 40
0.96875
 40
0.9843750000000001
 40
0.9843750000000001
 40
1.0
 40
1.0
 40
1.0
 40
1.0
 10
475.9494855592633
 20
355.2437630873376
 30
0.0
 10
475.8611545285619
 20
355.8027016233063
 30
0.0
 10
475.7803742857734
 20
356.3629128299237
 30
0.0
 10
475.6115598367317
 20
357.4821096784819
 30
0.0
 10
475.5251177504287
 20
358.0413643336191
 30
0.0
 10
475.2662175884281
 20
359.7191997816082
 30
0.0
 10
475.0914896315525
 20
360.8373968171612
 30
0.0
 10
474.5599653609883
 20
364.1907475048166
 30
0.0
 10
474.1971470494302
 20
366.4248830749448
 30
0.0
 10
473.0893257747214
 20
373.1240204707717
 30
0.0
 10
472.3244235494806
 20
377.5856628537345
 30
0.0
 10
469.9805767407396
 20
390.9622919702684
 30
0.0
 10
468.3501140690876
 20
399.8685242332932
 30
0.0
 10
465.922614833733
 20
413.2307782850986
 30
0.0
 10
465.1184078795466
 20
417.685774217172
 30
0.0
 10
463.5317267746344
 20
426.5996268082748
 30
0.0
 10
462.7475575082104
 20
431.0581757988786
 30
0.0
 10
461.5865241024131
 20
437.7486858215686
 30
0.0
 10
461.2022148722006
 20
439.9793449358992
 30
0.0
 10
460.4403757883074
 20
444.4417984556754
 30
0.0
 10
460.0625952582485
 20
446.673542331971
 30
0.0
 10
459.3200748907717
 20
451.139163149532
 30
0.0
 10
458.955106746484
 20
453.3731160227325
 30
0.0
 10
458.4351980103079
 20
456.72792887716
 30
0.0
 10
458.2668064777062
 20
457.8469048014044
 30
0.0
 10
458.0224513073689
 20
459.5265949765616
 30
0.0
 10
457.9424930968098
 20
460.0867149457814
 30
0.0
 10
457.7845670555711
 20
461.2072639174297
 30
0.0
 10
457.7051751543663
 20
461.767475466696
 30
0.0
 10
457.6290085026471
 20
462.3281939270651
 30
0.0
  0
SPLINE
  5
1C5
330
1F
100
AcDbEntity
  8
0
  6
Continuous
 62
     7
370
    18
100
AcDbSpline
210
0.0
220
0.0
230
1.0
 70
     8
 71
     3
 72
    12
 73
     8
 74
     0
 42
0.00000001
 43
0.00000001
 40
0.0
 40
0.0
 40
0.0
 40
0.0
 40
0.2500000000000054
 40
0.2500000000000054
 40
0.5000000000000108
 40
0.5000000000000108
 40
1.0
 40
1.0
 40
1.0
 40
1.0
 10
476.0833583824391
 20
354.4555104441586
 30
0.0
 10
476.0831577338674
 20
354.4551628212835
 30
0.0
 10
476.0796269720303
 20
354.4753672377906
 30
0.0
 10
476.0658872586819
 20
354.5541931697906
 30
0.0
 10
476.0556738116368
 20
354.6127673909237
 30
0.0
 10
476.0177194810429
 20
354.8311521691636
 30
0.0
 10
475.9823918749284
 20
355.0355394567983
 30
0.0
 10
475.9494855592632
 20
355.2437630873389
 30
0.0
  0
LINE
  5
1C6
330
1F
100
AcDbEntity
  8
0
  6
Continuous
 62
     7
370
    25
100
AcDbLine
 10
478.4847659848
 20
354.614271335
 30
0.0
 11
478.4805250334
 21
354.6520292117
 31
0.0
  0
LINE
  5
1C7
330
1F
100
AcDbEntity
  8
0
  6
Continuous
 62
     7
370
    25
100
AcDbLine
 10
478.4847659848
 20
354.614271335
 30
0.0
 11
476.3103239452
 21
354.2896357817
 31
0.0
  0
ARC
  5
1C8
330
1F
100
AcDbEntity
  8
0
  6
Continuous
 62
     7
370
    25
100
AcDbCircle
 10
476.2807923746
 20
354.4874431812
 30
0.0
 40
0.1999997023978012
100
AcDbArc
 50
189.1873896463
 51
278.4912327536
  0
LINE
  5
1C9
330
1F
100
AcDbEntity
  8
0
  6
Continuous
 62
     7
370
    25
100
AcDbLine
 10
478.26565477
 20
362.8524342045
 30
0.0
 11
478.8059853155
 21
359.2287758497
 31
0.0
  0
LINE
  5
1CA
330
1F
100
AcDbEntity
  8
0
  6
Continuous
 62
     7
370
    25
100
AcDbLine
 10
478.4847659848
 20
354.614271335
 30
0.0
 11
478.6671086757
 21
354.6797918243
 31
0.0
  0
SPLINE
  5
1CB
330
1F
100
AcDbEntity
  8
0
  6
Continuous
 62
     7
370
    25
100
AcDbSpline
210
0.0
220
0.0
230
1.0
 70
     8
 71
     3
 72
    70
 73
    66
 74
     0
 42
0.00000001
 43
0.00000001
 40
0.0
 40
0.0
 40
0.0
 40
0.0
 40
0.004623925331678
 40
0.004623925331678
 40
0.014547105469088
 40
0.014547105469088
 40
0.054239826018708
 40
0.054239826018708
 40
0.0939325465683281
 40
0.0939325465683281
 40
0.1336252671179481
 40
0.1336252671179481
 40
0.1733179876675679
 40
0.1733179876675679
 40
0.2130107082171879
 40
0.2130107082171879
 40
0.292396149316428
 40
0.292396149316428
 40
0.3717815904156681
 40
0.3717815904156681
 40
0.4114743109652881
 40
0.4114743109652881
 40
0.4511670315149081
 40
0.4511670315149081
 40
0.530552472614138
 40
0.530552472614138
 40
0.609937913713388
 40
0.609937913713388
 40
0.649630634263002
 40
0.649630634263002
 40
0.68932335481262
 40
0.68932335481262
 40
0.768708795911861
 40
0.768708795911861
 40
0.848094237011098
 40
0.848094237011098
 40
0.927479678110339
 40
0.927479678110339
 40
1.006865119209576
 40
1.006865119209576
 40
1.086250560308817
 40
1.086250560308817
 40
1.165636001408054
 40
1.165636001408054
 40
1.245021442507295
 40
1.245021442507295
 40
1.324406883606532
 40
1.324406883606532
 40
1.403792324705773
 40
1.403792324705773
 40
1.48317776580501
 40
1.48317776580501
 40
1.522870486354628
 40
1.522870486354628
 40
1.562563206904251
 40
1.562563206904251
 40
1.602255927453869
 40
1.602255927453869
 40
1.62210228772868
 40
1.62210228772868
 40
1.641948648003488
 40
1.641948648003488
 40
1.646910238072191
 40
1.646910238072191
 40
1.648091429210778
 40
1.648091429210778
 40
1.648091429210778
 40
1.648091429210778
 10
462.428549173398
 20
462.3551050309299
 30
0.0
 10
462.4283368407966
 20
462.3565280837719
 30
0.0
 10
462.4281280812172
 20
462.3579257144185
 30
0.0
 10
462.427487156236
 20
462.3622058311398
 30
0.0
 10
462.426962213022
 20
462.3657287958506
 30
0.0
 10
462.4246261784797
 20
462.3813759497183
 30
0.0
 10
462.4228249966898
 20
462.3934707961901
 30
0.0
 10
462.4190711686634
 20
462.4186509238081
 30
0.0
 10
462.4173048117941
 20
462.430498214798
 30
0.0
 10
462.4135201495672
 20
462.4558759965621
 30
0.0
 10
462.4117045079186
 20
462.468050564454
 30
0.0
 10
462.408056416187
 20
462.4925152369046
 30
0.0
 10
462.4061300972609
 20
462.5054338403201
 30
0.0
 10
462.4024506207413
 20
462.5301124545089
 30
0.0
 10
462.4007222764032
 20
462.5416989751074
 30
0.0
 10
462.3951782624824
 20
462.5788842462514
 30
0.0
 10
462.3915863366601
 20
462.6029809703055
 30
0.0
 10
462.3844075627445
 20
462.6511179234138
 30
0.0
 10
462.3808575151316
 20
462.6749317702976
 30
0.0
 10
462.3756165160705
 20
462.7100732840741
 30
0.0
 10
462.3739739755878
 20
462.7210860449824
 30
0.0
 10
462.3704879839869
 20
462.7444590820713
 30
0.0
 10
462.3688096333518
 20
462.7557151972932
 30
0.0
 10
462.3637227852029
 20
462.7898336889997
 30
0.0
 10
462.3604451364005
 20
462.8118181189352
 30
0.0
 10
462.3539901063891
 20
462.8551060267303
 30
0.0
 10
462.3508925599317
 20
462.8758770664006
 30
0.0
 10
462.3462971387128
 20
462.906689505425
 30
0.0
 10
462.3447305942717
 20
462.9171954406111
 30
0.0
 10
462.3417583810481
 20
462.9371312049541
 30
0.0
 10
462.3403317258837
 20
462.9467002978251
 30
0.0
 10
462.3359236169781
 20
462.9762638470026
 30
0.0
 10
462.3331769559965
 20
462.9946798823877
 30
0.0
 10
462.3277295160036
 20
463.0312091241356
 30
0.0
 10
462.3250174424327
 20
463.0494041154065
 30
0.0
 10
462.3199330261863
 20
463.0834981823865
 30
0.0
 10
462.3174226516937
 20
463.1003306798888
 30
0.0
 10
462.3126620997016
 20
463.132257330443
 30
0.0
 10
462.3103873832564
 20
463.1475198215932
 30
0.0
 10
462.3060169605869
 20
463.1768186793078
 30
0.0
 10
462.304006436349
 20
463.1903002009191
 30
0.0
 10
462.3001382566761
 20
463.2162509668805
 30
0.0
 10
462.2983253566297
 20
463.2284138474124
 30
0.0
 10
462.2950290429099
 20
463.2505133968476
 30
0.0
 10
462.2934958353823
 20
463.2607811436334
 30
0.0
 10
462.2907136501539
 20
463.2794566459295
 30
0.0
 10
462.2895096130454
 20
463.2875321670473
 30
0.0
 10
462.287308265328
 20
463.3022974520874
 30
0.0
 10
462.2863771133083
 20
463.3085413709493
 30
0.0
 10
462.2847781636989
 20
463.319236779466
 30
0.0
 10
462.2841417319331
 20
463.3235544471638
 30
0.0
 10
462.2833766043263
 20
463.3286511943069
 30
0.0
 10
462.2831497462216
 20
463.3301680339669
 30
0.0
 10
462.2827747666404
 20
463.3326633469458
 30
0.0
 10
462.2826239168908
 20
463.3336689802927
 30
0.0
 10
462.2823700656812
 20
463.3353983755827
 30
0.0
 10
462.2822747852443
 20
463.336082247186
 30
0.0
 10
462.2821573122768
 20
463.3369291445217
 30
0.0
 10
462.2821238787798
 20
463.3371618062935
 30
0.0
 10
462.2820639513796
 20
463.3375569949573
 30
0.0
 10
462.2820364696528
 20
463.3377068083985
 30
0.0
 10
462.2820045562456
 20
463.3378336301615
 30
0.0
 10
462.2819994180679
 20
463.3378542769204
 30
0.0
 10
462.2819903285924
 20
463.3378804193494
 30
0.0
 10
462.2819892296507
 20
463.3378835983027
 30
0.0
 10
462.2819885631421
 20
463.3378855448701
 30
0.0
  0
SPLINE
  5
1CC
330
1F
100
AcDbEntity
  8
0
  6
Continuous
 62
     7
370
    25
100
AcDbSpline
210
0.0
220
0.0
230
1.0
 70
     8
 71
     3
 72
    10
 73
     6
 74
     0
 42
0.00000001
 43
0.00000001
 40
0.0000118637587369
 40
0.0000118637587369
 40
0.0000118637587369
 40
0.0000118637587369
 40
0.0011811911385867
 40
0.0011811911385867
 40
0.0031553966097474
 40
0.0031553966097474
 40
0.0031553966097474
 40
0.0031553966097474
 10
457.7091277131514
 20
463.3378970664974
 30
0.0
 10
457.7091283815867
 20
463.3378951149124
 30
0.0
 10
457.7091294759425
 20
463.3378919495139
 30
0.0
 10
457.7091341274291
 20
463.3378785712767
 30
0.0
 10
457.7091366997994
 20
463.3378702436746
 30
0.0
 10
457.7091391405182
 20
463.3378616635673
 30
0.0
  0
SPLINE
  5
1CD
330
1F
100
AcDbEntity
  8
0
  6
Continuous
 62
     7
370
    25
100
AcDbSpline
210
0.0
220
0.0
230
1.0
 70
     8
 71
     3
 72
    14
 73
    10
 74
     0
 42
0.00000001
 43
0.00000001
 40
0.003383834180105
 40
0.003383834180105
 40
0.003383834180105
 40
0.003383834180105
 40
6.933820444382824
 40
18.15533585749842
 40
29.37685127061392
 40
40.59836668372952
 40
51.81988209684512
 40
63.04139750996062
 40
74.25952908889612
 40
74.25952908889612
 40
74.25952908889612
 40
74.25952908889612
 10
467.3369685866367
 20
436.1440110348749
 30
0.0
 10
467.6769705765981
 20
433.8638420239119
 30
0.0
 10
468.5660903878176
 20
427.9011032614524
 30
0.0
 10
470.0079667599987
 20
418.2313943917291
 30
0.0
 10
471.6592995122823
 20
407.1569991818152
 30
0.0
 10
473.3109396134558
 20
396.0805363496277
 30
0.0
 10
474.9625123564083
 20
385.0045137589242
 30
0.0
 10
476.613916794471
 20
373.9296022751498
 30
0.0
 10
477.7147992567092
 20
366.546676922444
 30
0.0
 10
478.2651567409091
 20
362.8557741732707
 30
0.0
  0
SPLINE
  5
1CE
330
1F
100
AcDbEntity
  8
0
  6
Continuous
 62
     7
370
    25
100
AcDbSpline
210
0.0
220
0.0
230
1.0
 70
     8
 71
     3
 72
     8
 73
     4
 74
     0
 42
0.00000001
 43
0.00000001
 40
0.0
 40
0.0
 40
0.0
 40
0.0
 40
1.64806382406154
 40
1.64806382406154
 40
1.64806382406154
 40
1.64806382406154
 10
462.4285479691704
 20
462.3551048203453
 30
0.0
 10
463.0919203732794
 20
462.3813290388786
 30
0.0
 10
463.4351518381523
 20
462.3109473722075
 30
0.0
 10
463.4352283795586
 20
462.3104341183208
 30
0.0
  0
LWPOLYLINE
  5
1CF
330
1F
100
AcDbEntity
  8
0
  6
Continuous
 62
     7
370
    25
100
AcDbPolyline
 90
        3
 70
   128
 43
0.0
 10
463.4352283092
 20
462.3104345904
 10
465.386854599
 20
449.2221450757
 10
467.3369685871
 20
436.1440110348
  0
SPLINE
  5
1D0
330
1F
100
AcDbEntity
  8
0
  6
Continuous
 62
     7
370
    25
100
AcDbSpline
210
0.0
220
0.0
230
1.0
 70
     8
 71
     3
 72
    20
 73
    16
 74
     0
 42
0.00000001
 43
0.00000001
 40
0.0
 40
0.0
 40
0.0
 40
0.0
 40
0.428079751137956
 40
0.428079751137956
 40
0.428079751137956
 40
0.641265942922062
 40
0.641265942922062
 40
0.854197011142565
 40
0.854197011142565
 40
1.06777084677066
 40
1.06777084677066
 40
1.28269742240267
 40
1.28269742240267
 40
1.28269742240267
 40
1.71218222231151
 40
1.71218222231151
 40
1.71218222231151
 40
1.71218222231151
 10
463.4352282950892
 20
462.3104346848017
 30
0.0
 10
463.4141898108232
 20
462.4515585286407
 30
0.0
 10
463.3778354693741
 20
462.591000424603
 30
0.0
 10
463.3191206714298
 20
462.7210214458635
 30
0.0
 10
463.2898810934993
 20
462.7857710476139
 30
0.0
 10
463.255061717554
 20
462.8480541579137
 30
0.0
 10
463.1734287346904
 20
462.9642206989002
 30
0.0
 10
463.1265976831853
 20
463.0180621899613
 30
0.0
 10
463.021802266543
 20
463.1140291810191
 30
0.0
 10
462.9638350856497
 20
463.1560633147579
 30
0.0
 10
462.8397004769761
 20
463.2265970325604
 30
0.0
 10
462.7735483619791
 20
463.2550224988334
 30
0.0
 10
462.7053345869102
 20
463.2768650598422
 30
0.0
 10
462.5690212339795
 20
463.32051361506
 30
0.0
 10
462.4251255851336
 20
463.3380635577347
 30
0.0
 10
462.2819887690766
 20
463.3378855448696
 30
0.0
  0
SPLINE
  5
1D1
330
1F
100
AcDbEntity
  8
0
  6
Continuous
 62
     7
370
    25
100
AcDbSpline
210
0.0
220
0.0
230
1.0
 70
     8
 71
     3
 72
     8
 73
     4
 74
     0
 42
0.00000001
 43
0.00000001
 40
0.0
 40
0.0
 40
0.0
 40
0.0
 40
0.000030896217016
 40
0.000030896217016
 40
0.000030896217016
 40
0.000030896217016
 10
478.4852506118031
 20
354.6143436897507
 30
0.0
 10
478.4852577481811
 20
354.614344754554
 30
0.0
 10
478.4851043482848
 20
354.6143218519297
 30
0.0
 10
478.484765984791
 20
354.6142713349758
 30
0.0
  0
SPLINE
  5
1D2
330
1F
100
AcDbEntity
  8
0
  6
Continuous
 62
     7
370
    25
100
AcDbSpline
210
0.0
220
0.0
230
1.0
 70
     8
 71
     3
 72
    10
 73
     6
 74
     0
 42
0.00000001
 43
0.00000001
 40
0.0
 40
0.0
 40
0.0
 40
0.0
 40
0.5
 40
0.5
 40
1.0
 40
1.0
 40
1.0
 40
1.0
 10
479.3249278943128
 20
355.7485318070607
 30
0.0
 10
479.3634545295956
 20
355.490155829812
 30
0.0
 10
479.2953935844855
 20
355.2175121704259
 30
0.0
 10
478.9845178046542
 20
354.7976003088387
 30
0.0
 10
478.7436164206351
 20
354.6529166780276
 30
0.0
 10
478.4852474936904
 20
354.6143432242288
 30
0.0
  0
SPLINE
  5
1D3
330
1F
100
AcDbEntity
  8
0
  6
Continuous
 62
     7
370
    25
100
AcDbSpline
210
0.0
220
0.0
230
1.0
 70
     8
 71
     3
 72
     9
 73
     5
 74
     0
 42
0.00000001
 43
0.00000001
 40
0.0
 40
0.0
 40
0.0
 40
0.0
 40
0.6929981798598466
 40
1.0
 40
1.0
 40
1.0
 40
1.0
 10
457.5711129558084
 20
463.338016945684
 30
0.0
 10
457.5717935424875
 20
463.338406029082
 30
0.0
 10
457.5727756326267
 20
463.3389674784613
 30
0.0
 10
457.5875785342072
 20
463.3388563300981
 30
0.0
 10
457.5921230519357
 20
463.3388222073482
 30
0.0
  0
LINE
  5
1D4
330
1F
100
AcDbEntity
  8
0
  6
Continuous
 62
     7
370
    25
100
AcDbLine
 10
457.6803967049
 20
463.3379568895
 30
0.0
 11
457.7091277132
 21
463.3378971268
 31
0.0
  0
LINE
  5
1D5
330
1F
100
AcDbEntity
  8
0
  6
Continuous
 62
     7
370
    25
100
AcDbLine
 10
457.5710420372
 20
463.3380149906
 30
0.0
 11
457.5710623829
 21
463.3380169458
 31
0.0
  0
SPLINE
  5
1D6
330
1F
100
AcDbEntity
  8
0
  6
Continuous
 62
     7
370
    25
100
AcDbSpline
210
0.0
220
0.0
230
1.0
 70
     8
 71
     3
 72
    10
 73
     6
 74
     0
 42
0.00000001
 43
0.00000001
 40
0.0
 40
0.0
 40
0.0
 40
0.0
 40
0.5
 40
0.5
 40
1.0
 40
1.0
 40
1.0
 40
1.0
 10
476.0671375743927
 20
354.4294941842049
 30
0.0
 10
476.0802971306274
 20
354.3832778372698
 30
0.0
 10
476.1107395477678
 20
354.3422018665696
 30
0.0
 10
476.1915167186735
 20
354.2901294845879
 30
0.0
 10
476.2414969564391
 20
354.279361609319
 30
0.0
 10
476.2890234941874
 20
354.2864571324939
 30
0.0
  0
LINE
  5
1D7
330
1F
100
AcDbEntity
  8
0
  6
Continuous
 62
     7
370
    25
100
AcDbLine
 10
463.4351420701
 20
462.3110133239
 30
0.0
 11
463.4351860888
 21
462.3107179229
 31
0.0
  0
LINE
  5
1D8
330
1F
100
AcDbEntity
  8
0
  6
Continuous
 62
     7
370
    25
100
AcDbLine
 10
478.2656521508
 20
362.8524314116
 30
0.0
 11
478.2656519153
 21
362.8524312234
 31
0.0
  0
LINE
  5
1D9
330
1F
100
AcDbEntity
  8
0
  6
Continuous
 62
     7
370
    25
100
AcDbLine
 10
475.8212098788
 20
355.2469130853
 30
0.0
 11
476.06738887
 21
354.429727521
 31
0.0
  0
SPLINE
  5
1DA
330
1F
100
AcDbEntity
  8
0
  6
Continuous
 62
     7
370
    25
100
AcDbSpline
210
0.0
220
0.0
230
1.0
 70
     8
 71
     3
 72
    14
 73
    10
 74
     0
 42
0.00000001
 43
0.00000001
 40
0.0
 40
0.0
 40
0.0
 40
0.0
 40
0.25
 40
0.25
 40
0.5
 40
0.5
 40
0.75
 40
0.75
 40
1.0
 40
1.0
 40
1.0
 40
1.0
 10
454.8353240034612
 20
403.5656045029169
 30
0.0
 10
454.8353240034612
 20
403.5656704819291
 30
0.0
 10
454.8225052006932
 20
403.583197057515
 30
0.0
 10
454.7734215365538
 20
403.6498021570716
 30
0.0
 10
454.7363544188004
 20
403.6991803234584
 30
0.0
 10
454.6448325532095
 20
403.8314425698284
 30
0.0
 10
454.5905992772251
 20
403.9141756075986
 30
0.0
 10
454.469924947972
 20
404.1109723698425
 30
0.0
 10
454.4039026025251
 20
404.2242997400286
 30
0.0
 10
454.3352071173573
 20
404.34715866572
 30
0.0
  0
SPLINE
  5
1DB
330
1F
100
AcDbEntity
  8
0
  6
Continuous
 62
     7
370
    25
100
AcDbSpline
210
0.0
220
0.0
230
1.0
 70
     8
 71
     3
 72
    10
 73
     6
 74
     0
 42
0.00000001
 43
0.00000001
 40
0.0
 40
0.0
 40
0.0
 40
0.0
 40
0.5
 40
0.5
 40
1.0
 40
1.0
 40
1.0
 40
1.0
 10
446.8354410923371
 20
410.5638080435851
 30
0.0
 10
446.671733986325
 20
410.6068069574711
 30
0.0
 10
446.5480554819885
 20
410.6416548981551
 30
0.0
 10
446.3792844903394
 20
410.6890220201207
 30
0.0
 10
446.3353240034612
 20
410.7008619642238
 30
0.0
 10
446.3353240034612
 20
410.7007303995831
 30
0.0
  0
LINE
  5
1DC
330
1F
100
AcDbEntity
  8
0
  6
Continuous
 62
     7
370
    25
100
AcDbLine
 10
446.5853240035
 20
410.3506706632
 30
0.0
 11
447.4590439384
 21
410.3506706632
 31
0.0
  0
SPLINE
  5
1DD
330
1F
100
AcDbEntity
  8
0
  6
Continuous
 62
     7
370
    25
100
AcDbSpline
210
0.0
220
0.0
230
1.0
 70
     8
 71
     3
 72
    11
 73
     7
 74
     0
 42
0.00000001
 43
0.00000001
 40
0.0002844145706274
 40
0.0002844145706274
 40
0.0002844145706274
 40
0.0002844145706274
 40
0.000400000000754
 40
0.000400000000754
 40
0.000400000000754
 40
0.0020002170917157
 40
0.0020002170917157
 40
0.0020002170917157
 40
0.0020002170917157
 10
476.0666644021554
 20
354.4286746721287
 30
0.0
 10
476.0666663652436
 20
354.4286780002421
 30
0.0
 10
476.0666686807834
 20
354.4286819148884
 30
0.0
 10
476.0666713492011
 20
354.4286864164301
 30
0.0
 10
476.0667082919759
 20
354.4287487377973
 30
0.0
 10
476.0667379723766
 20
354.4287905869718
 30
0.0
 10
476.0673465075351
 20
354.4298772950899
 30
0.0
  0
SPLINE
  5
1DE
330
1F
100
AcDbEntity
  8
0
  6
Continuous
 62
     7
370
    25
100
AcDbSpline
210
0.0
220
0.0
230
1.0
 70
     8
 71
     3
 72
     8
 73
     4
 74
     0
 42
0.00000001
 43
0.00000001
 40
0.0
 40
0.0
 40
0.0
 40
0.0
 40
0.0017169733782518
 40
0.0017169733782518
 40
0.0017169733782518
 40
0.0017169733782518
 10
476.2893282431755
 20
354.2865026303065
 30
0.0
 10
476.288385319639
 20
354.2863618905545
 30
0.0
 10
476.2883859932062
 20
354.2863620260995
 30
0.0
 10
476.2883445325667
 20
354.2863558711748
 30
0.0
  0
SPLINE
  5
1DF
330
1F
100
AcDbEntity
  8
0
  6
Continuous
 62
     7
370
    25
100
AcDbSpline
210
0.0
220
0.0
230
1.0
 70
     8
 71
     3
 72
    12
 73
     8
 74
     0
 42
0.00000001
 43
0.00000001
 40
0.0
 40
0.0
 40
0.0
 40
0.0
 40
0.249999999999999
 40
0.249999999999999
 40
0.499999999999998
 40
0.499999999999998
 40
1.0
 40
1.0
 40
1.0
 40
1.0
 10
446.3353240034612
 20
410.7007303995831
 30
0.0
 10
445.9587375392545
 20
410.8666254446068
 30
0.0
 10
445.573812047701
 20
411.0163608387265
 30
0.0
 10
444.7974269053532
 20
411.2763028287052
 30
0.0
 10
444.4054163184894
 20
411.3868811262276
 30
0.0
 10
443.2172935609769
 20
411.6572026919753
 30
0.0
 10
442.4093617704222
 20
411.7569115479584
 30
0.0
 10
441.5853237996026
 20
411.7748123937786
 30
0.0
  0
SPLINE
  5
1E0
330
1F
100
AcDbEntity
  8
0
  6
Continuous
 62
     7
370
    25
100
AcDbSpline
210
0.0
220
0.0
230
1.0
 70
     8
 71
     3
 72
    10
 73
     6
 74
     0
 42
0.00000001
 43
0.00000001
 40
0.0
 40
0.0
 40
0.0
 40
0.0
 40
0.4216639593723556
 40
0.7965125834479992
 40
1.0
 40
1.0
 40
1.0
 40
1.0
 10
448.4182179563013
 20
460.7829052512714
 30
0.0
 10
449.6408627799692
 20
460.9141419688016
 30
0.0
 10
451.9504080125962
 20
461.1620448179779
 30
0.0
 10
454.8651870397204
 20
461.7324188556309
 30
0.0
 10
456.3412554235181
 20
462.5718908492038
 30
0.0
 10
456.8606097797626
 20
462.8672588969127
 30
0.0
  0
LINE
  5
1E1
330
1F
100
AcDbEntity
  8
0
  6
Continuous
 62
     7
370
    25
100
AcDbLine
 10
463.4352283796
 20
462.3104341184
 30
0.0
 11
463.8164157018
 21
459.7540584126
 31
0.0
  0
LINE
  5
1E2
330
1F
100
AcDbEntity
  8
0
  6
Continuous
 62
     7
370
    25
100
AcDbLine
 10
476.3135481416
 20
354.2901199613
 30
0.0
 11
476.3103234568
 21
354.2896388002
 31
0.0
  0
LINE
  5
1E3
330
1F
100
AcDbEntity
  8
0
  6
Continuous
 62
     8
370
    18
100
AcDbLine
 10
395.3853240035
 20
539.9906342475
 30
0.0
 11
400.6700510539
 21
539.9896275439
 31
0.0
  0
SPLINE
  5
1E4
330
1F
100
AcDbEntity
  8
0
  6
Continuous
 62
     8
370
    18
100
AcDbSpline
210
0.0
220
0.0
230
1.0
 70
     8
 71
     3
 72
     8
 73
     4
 74
     0
 42
0.00000001
 43
0.00000001
 40
0.0
 40
0.0
 40
0.0
 40
0.0
 40
1.0
 40
1.0
 40
1.0
 40
1.0
 10
400.6700510539087
 20
394.4989477614397
 30
0.0
 10
401.1705275929393
 20
442.9958410222607
 30
0.0
 10
401.1705275929394
 20
491.4927342830816
 30
0.0
 10
400.6700510539088
 20
539.9896275439027
 30
0.0
  0
LINE
  5
1E5
330
1F
100
AcDbEntity
  8
0
  6
Continuous
 62
     8
370
    18
100
AcDbLine
 10
395.3853240035
 20
394.4979410579
 30
0.0
 11
400.6700510539
 21
394.4989477614
 31
0.0
  0
SPLINE
  5
1E6
330
1F
100
AcDbEntity
  8
0
  6
Continuous
 62
     8
370
    18
100
AcDbSpline
210
0.0
220
0.0
230
1.0
 70
     8
 71
     3
 72
    21
 73
    17
 74
     0
 42
0.00000001
 43
0.00000001
 40
0.0
 40
0.0
 40
0.0
 40
0.0
 40
0.0527050579358687
 40
0.1061279058763646
 40
0.1602714789034673
 40
0.2151385958224243
 40
0.2707319647143954
 40
0.3270541881746168
 40
0.3841077682623359
 40
0.4418951111699304
 40
0.5004185316408615
 40
0.6190410088381959
 40
0.7500271579309324
 40
0.8150588915859941
 40
0.8983884735132143
 40
1.0
 40
1.0
 40
1.0
 40
1.0
 10
400.6700510539085
 20
539.9896275439025
 30
0.0
 10
400.7105080187827
 20
539.9898043734565
 30
0.0
 10
400.791972931798
 20
539.9901604408055
 30
0.0
 10
400.9138567247705
 20
539.9894135623503
 30
0.0
 10
401.0354559921716
 20
539.9877265239619
 30
0.0
 10
401.1558125932349
 20
539.9849930047092
 30
0.0
 10
401.2739498702188
 20
539.9812280319516
 30
0.0
 10
401.3888421958779
 20
539.9764137801633
 30
0.0
 10
401.4994312936305
 20
539.9705416159921
 30
0.0
 10
401.6046410257391
 20
539.9636018549498
 30
0.0
 10
401.7367327324201
 20
539.9528714555145
 30
0.0
 10
401.8871469507861
 20
539.936253061641
 30
0.0
 10
402.0024664752856
 20
539.916546473109
 30
0.0
 10
402.0743606467428
 20
539.897425063616
 30
0.0
 10
402.119799836077
 20
539.8796138689304
 30
0.0
 10
402.127690414973
 20
539.8659003573244
 30
0.0
 10
402.1320257072905
 20
539.8583657920797
 30
0.0
  0
SPLINE
  5
1E7
330
1F
100
AcDbEntity
  8
0
  6
Continuous
 62
     8
370
    18
100
AcDbSpline
210
0.0
220
0.0
230
1.0
 70
     8
 71
     3
 72
     8
 73
     4
 74
     0
 42
0.00000001
 43
0.00000001
 40
0.0
 40
0.0
 40
0.0
 40
0.0
 40
1.0
 40
1.0
 40
1.0
 40
1.0
 10
402.1320257072908
 20
539.8583657920798
 30
0.0
 10
402.6307403052146
 20
491.4489803658072
 30
0.0
 10
402.6307403052152
 20
443.0395949395347
 30
0.0
 10
402.1320257072915
 20
394.6302095132621
 30
0.0
  0
SPLINE
  5
1E8
330
1F
100
AcDbEntity
  8
0
  6
Continuous
 62
     8
370
    18
100
AcDbSpline
210
0.0
220
0.0
230
1.0
 70
     8
 71
     3
 72
    21
 73
    17
 74
     0
 42
0.00000001
 43
0.00000001
 40
0.0
 40
0.0
 40
0.0
 40
0.0
 40
0.0527015852614039
 40
0.1061218296410508
 40
0.1602636681738332
 40
0.2151299194777506
 40
0.2707232913178144
 40
0.3270463858586259
 40
0.3841017046256711
 40
0.4418916531890858
 40
0.5004185455849779
 40
0.6190205634991585
 40
0.750027166911104
 40
0.8150462982105847
 40
0.8983758845578759
 40
1.0
 40
1.0
 40
1.0
 40
1.0
 10
400.6700510539089
 20
394.4989477614396
 30
0.0
 10
400.7105053511106
 20
394.4987709507815
 30
0.0
 10
400.7919655958942
 20
394.4984149184071
 30
0.0
 10
400.9138435635092
 20
394.4991618337481
 30
0.0
 10
401.0354392241483
 20
394.50084888663
 30
0.0
 10
401.1557944111242
 20
394.5035824060353
 30
0.0
 10
401.2739323535518
 20
394.507347366422
 30
0.0
 10
401.3888272244391
 20
394.5121616038665
 30
0.0
 10
401.4994204624069
 20
394.5180337408459
 30
0.0
 10
401.6046355515153
 20
394.5249735327329
 30
0.0
 10
401.7367195571837
 20
394.5357024414536
 30
0.0
 10
401.8871379771904
 20
394.5523210094961
 30
0.0
 10
402.0024566180837
 20
394.5720267233746
 30
0.0
 10
402.0743547222205
 20
394.5911483323135
 30
0.0
 10
402.1197976387872
 20
394.6089595748923
 30
0.0
 10
402.1276894796742
 20
394.6226740165827
 30
0.0
 10
402.13202570729
 20
394.6302095132616
 30
0.0
  0
SPLINE
  5
1E9
330
1F
100
AcDbEntity
  8
0
  6
Continuous
 62
     8
370
    18
100
AcDbSpline
210
0.0
220
0.0
230
1.0
 70
    24
 71
     3
 72
     9
 73
     5
 74
     0
 42
0.00000001
 43
0.00000001
 40
0.0
 40
0.0
 40
0.0
 40
0.0
 40
0.9999157619959631
 40
1.0
 40
1.0
 40
1.0
 40
1.0
 10
402.1320257072907
 20
394.6302095132621
 30
0.0
 10
402.3813531305441
 20
394.4609990097045
 30
0.0
 10
402.6307015584114
 20
394.2917742509911
 30
0.0
 10
402.5060260845266
 20
394.3763874854431
 30
0.0
 10
402.5060155821135
 20
394.3763946130931
 30
0.0
  0
LINE
  5
1EA
330
1F
100
AcDbEntity
  8
0
  6
Continuous
 62
     8
370
    18
100
AcDbLine
 10
402.5060163431
 20
540.1121812087
 30
0.0
 11
402.1320257073
 21
539.8583657921
 31
0.0
  0
SPLINE
  5
1EB
330
1F
100
AcDbEntity
  8
0
  6
Continuous
 62
     8
370
    18
100
AcDbSpline
210
0.0
220
0.0
230
1.0
 70
     8
 71
     3
 72
    25
 73
    21
 74
     0
 42
0.00000001
 43
0.00000001
 40
0.0
 40
0.0
 40
0.0
 40
0.0
 40
0.0555740769933567
 40
0.1111416178191767
 40
0.166703438990585
 40
0.2222603572237527
 40
0.2778131894090246
 40
0.3333627525819137
 40
0.3889098638941365
 40
0.4444553405845487
 40
0.4999999999501492
 40
0.5555446593169768
 40
0.6110901360110872
 40
0.6666372473294612
 40
0.7221868105109712
 40
0.7777396427073171
 40
0.8332965609540268
 40
0.8888583821414351
 40
0.9444259229857193
 40
1.0
 40
1.0
 40
1.0
 40
1.0
 10
400.6700510539087
 20
393.1472744869162
 30
0.0
 10
400.6710305583233
 20
393.148565420976
 30
0.0
 10
400.6729894519511
 20
393.1511471372667
 30
0.0
 10
400.6755003798135
 20
393.1678753814662
 30
0.0
 10
400.6776981568535
 20
393.1938813143062
 30
0.0
 10
400.6795521217504
 20
393.2298951607805
 30
0.0
 10
400.681070488969
 20
393.2754001167637
 30
0.0
 10
400.6822510577064
 20
393.3301229572573
 30
0.0
 10
400.6830944176557
 20
393.3936377464495
 30
0.0
 10
400.6836004106167
 20
393.4654757213384
 30
0.0
 10
400.6837690797305
 20
393.5451001818207
 30
0.0
 10
400.6836004106167
 20
393.6319181386474
 30
0.0
 10
400.6830944176556
 20
393.7252826602488
 30
0.0
 10
400.6822510577063
 20
393.8244982403901
 30
0.0
 10
400.6810704889689
 20
393.9288257597064
 30
0.0
 10
400.6795521217502
 20
394.0374882145603
 30
0.0
 10
400.6776981568534
 20
394.1496757173354
 30
0.0
 10
400.6755003798132
 20
394.2645543355536
 30
0.0
 10
400.6729894519509
 20
394.381261738404
 30
0.0
 10
400.671030558323
 20
394.4597175491151
 30
0.0
 10
400.6700510539085
 20
394.4989477614396
 30
0.0
  0
SPLINE
  5
1EC
330
1F
100
AcDbEntity
  8
0
  6
Continuous
 62
     8
370
    18
100
AcDbSpline
210
0.0
220
0.0
230
1.0
 70
     8
 71
     3
 72
    25
 73
    21
 74
     0
 42
0.00000001
 43
0.00000001
 40
0.0
 40
0.0
 40
0.0
 40
0.0
 40
0.0555740770111256
 40
0.1111416178526282
 40
0.1667034390376245
 40
0.2222603572822918
 40
0.2778131894769695
 40
0.3333627526571794
 40
0.388909863974627
 40
0.4444553406681827
 40
0.5000000000348206
 40
0.5555446594006126
 40
0.6110901360915847
 40
0.6666372474047327
 40
0.7221868105789202
 40
0.7777396427658615
 40
0.8332965610010724
 40
0.8888583821748843
 40
0.9444259230034925
 40
1.0
 40
1.0
 40
1.0
 40
1.0
 10
400.6700510539087
 20
539.9896275439027
 30
0.0
 10
400.6710305583231
 20
540.0288577562247
 30
0.0
 10
400.6729894519509
 20
540.1073135669316
 30
0.0
 10
400.6755003798131
 20
540.2240209697761
 30
0.0
 10
400.677698156853
 20
540.3388995879893
 30
0.0
 10
400.6795521217497
 20
540.4510870907606
 30
0.0
 10
400.6810704889682
 20
540.5597495456117
 30
0.0
 10
400.6822510577056
 20
540.6640770649263
 30
0.0
 10
400.6830944176548
 20
540.7632926450674
 30
0.0
 10
400.6836004106158
 20
540.8566571666692
 30
0.0
 10
400.6837690797296
 20
540.9434751234975
 30
0.0
 10
400.6836004106158
 20
541.023099583982
 30
0.0
 10
400.6830944176548
 20
541.0949375588738
 30
0.0
 10
400.6822510577056
 20
541.1584523480691
 30
0.0
 10
400.6810704889682
 20
541.2131751885663
 30
0.0
 10
400.6795521217497
 20
541.258680144553
 30
0.0
 10
400.677698156853
 20
541.2946939910304
 30
0.0
 10
400.6755003798131
 20
541.3206999238731
 30
0.0
 10
400.6729894519509
 20
541.3374281680747
 30
0.0
 10
400.6710305583232
 20
541.3400098843657
 30
0.0
 10
400.6700510539087
 20
541.3413008184259
 30
0.0
  0
SPLINE
  5
1ED
330
1F
100
AcDbEntity
  8
0
  6
Continuous
 62
     8
370
    18
100
AcDbSpline
210
0.0
220
0.0
230
1.0
 70
     8
 71
     3
 72
    26
 73
    22
 74
     0
 42
0.00000001
 43
0.00000001
 40
0.0
 40
0.0
 40
0.0
 40
0.0
 40
0.03125
 40
0.03125
 40
0.0625
 40
0.0625
 40
0.125
 40
0.125
 40
0.25
 40
0.25
 40
0.375
 40
0.375
 40
0.5
 40
0.5
 40
0.625
 40
0.625
 40
0.75
 40
0.75
 40
0.875
 40
0.875
 40
1.0
 40
1.0
 40
1.0
 40
1.0
 10
400.6700510539088
 20
541.3413008184272
 30
0.0
 10
400.6943004289992
 20
541.340664610486
 30
0.0
 10
400.7185057026782
 20
541.3394353242857
 30
0.0
 10
400.7667767974758
 20
541.3358087928704
 30
0.0
 10
400.7908426185943
 20
541.3334115476554
 30
0.0
 10
400.8627540285033
 20
541.3244951697437
 30
0.0
 10
400.9103135638468
 20
541.3162513947806
 30
0.0
 10
401.0512329592404
 20
541.2848398708699
 30
0.0
 10
401.1428336086534
 20
541.2549919229004
 30
0.0
 10
401.3180636959155
 20
541.1786468031418
 30
0.0
 10
401.4031935549033
 20
541.1314223073942
 30
0.0
 10
401.5613794369987
 20
541.0225139892494
 30
0.0
 10
401.6344319291833
 20
540.9611408970256
 30
0.0
 10
401.7685864160396
 20
540.824706211062
 30
0.0
 10
401.8299284358115
 20
540.748979830265
 30
0.0
 10
401.935382545032
 20
540.5897771058499
 30
0.0
 10
401.9802323839698
 20
540.505720600984
 30
0.0
 10
402.0539394811955
 20
540.3285626150534
 30
0.0
 10
402.0823190592575
 20
540.2360654301978
 30
0.0
 10
402.1206158010532
 20
540.0496365815384
 30
0.0
 10
402.130927275152
 20
539.954825331068
 30
0.0
 10
402.1320257072901
 20
539.8583657920797
 30
0.0
  0
SPLINE
  5
1EE
330
1F
100
AcDbEntity
  8
0
  6
Continuous
 62
     8
370
    18
100
AcDbSpline
210
0.0
220
0.0
230
1.0
 70
     8
 71
     3
 72
    26
 73
    22
 74
     0
 42
0.00000001
 43
0.00000001
 40
0.0
 40
0.0
 40
0.0
 40
0.0
 40
0.03125
 40
0.03125
 40
0.0625
 40
0.0625
 40
0.125
 40
0.125
 40
0.25
 40
0.25
 40
0.375
 40
0.375
 40
0.5
 40
0.5
 40
0.625
 40
0.625
 40
0.75
 40
0.75
 40
0.875
 40
0.875
 40
1.0
 40
1.0
 40
1.0
 40
1.0
 10
400.6700510539088
 20
393.1472744869149
 30
0.0
 10
400.6943004289992
 20
393.147910694856
 30
0.0
 10
400.7185057026781
 20
393.1491399810564
 30
0.0
 10
400.7667767974756
 20
393.1527665124717
 30
0.0
 10
400.7908426185942
 20
393.1551637576866
 30
0.0
 10
400.8627540285031
 20
393.1640801355982
 30
0.0
 10
400.9103135638467
 20
393.1723239105613
 30
0.0
 10
401.0512329592403
 20
393.203735434472
 30
0.0
 10
401.1428336086533
 20
393.2335833824411
 30
0.0
 10
401.3180636959154
 20
393.3099285021999
 30
0.0
 10
401.4031935549033
 20
393.3571529979475
 30
0.0
 10
401.5613794369985
 20
393.4660613160922
 30
0.0
 10
401.6344319291832
 20
393.527434408316
 30
0.0
 10
401.7685864160394
 20
393.6638690942793
 30
0.0
 10
401.8299284358114
 20
393.7395954750767
 30
0.0
 10
401.935382545032
 20
393.8987981994916
 30
0.0
 10
401.9802323839698
 20
393.9828547043575
 30
0.0
 10
402.0539394811955
 20
394.1600126902881
 30
0.0
 10
402.0823190592565
 20
394.2525098751439
 30
0.0
 10
402.1206158010523
 20
394.4389387238032
 30
0.0
 10
402.1309272751526
 20
394.5337499742732
 30
0.0
 10
402.1320257072907
 20
394.6302095132616
 30
0.0
  0
SPLINE
  5
1EF
330
1F
100
AcDbEntity
  8
0
  6
Continuous
 62
     8
370
    18
100
AcDbSpline
210
0.0
220
0.0
230
1.0
 70
     8
 71
     3
 72
    10
 73
     6
 74
     0
 42
0.00000001
 43
0.00000001
 40
0.0
 40
0.0
 40
0.0
 40
0.0
 40
0.4999510413258573
 40
0.9999215213102534
 40
1.0
 40
1.0
 40
1.0
 40
1.0
 10
400.6700510539087
 20
541.341300818426
 30
0.0
 10
400.7728156251314
 20
541.4110538593144
 30
0.0
 10
400.978348763179
 20
541.5505626531681
 30
0.0
 10
401.0766622127153
 20
541.6172981325093
 30
0.0
 10
401.0453839670009
 20
541.5960668449368
 30
0.0
 10
401.0453790581302
 20
541.5960635128557
 30
0.0
  0
SPLINE
  5
1F0
330
1F
100
AcDbEntity
  8
0
  6
Continuous
 62
     8
370
    18
100
AcDbSpline
210
0.0
220
0.0
230
1.0
 70
     8
 71
     3
 72
     9
 73
     5
 74
     0
 42
0.00000001
 43
0.00000001
 40
0.0
 40
0.0
 40
0.0
 40
0.0
 40
0.4999510989262043
 40
1.0
 40
1.0
 40
1.0
 40
1.0
 10
401.0453790815333
 20
392.8925117766005
 30
0.0
 10
401.0297484833233
 20
392.9031220777915
 30
0.0
 10
400.998484229192
 20
392.9243447557968
 30
0.0
 10
400.7795359168748
 20
393.0729597315887
 30
0.0
 10
400.6700510539087
 20
393.1472744869166
 30
0.0
  0
SPLINE
  5
1F1
330
1F
100
AcDbEntity
  8
0
  6
Continuous
 62
     8
370
    25
100
AcDbSpline
210
0.0
220
0.0
230
1.0
 70
     8
 71
     3
 72
    14
 73
    10
 74
     0
 42
0.00000001
 43
0.00000001
 40
0.0
 40
0.0
 40
0.0
 40
0.0
 40
0.0424102783767301
 40
0.1509067632476001
 40
0.2594836515984812
 40
0.3678621288649462
 40
0.583892968507272
 40
0.7998744782375561
 40
1.0
 40
1.0
 40
1.0
 40
1.0
 10
454.335212125885
 20
404.3471527190746
 30
0.0
 10
454.8154388088867
 20
403.7551465577535
 30
0.0
 10
456.5242098222046
 20
401.6486351872313
 30
0.0
 10
459.0824440956124
 20
397.7358225627769
 30
0.0
 10
461.9169750482334
 20
392.6180941035594
 30
0.0
 10
465.2914166733219
 20
385.6029013680242
 30
0.0
 10
468.959284080353
 20
376.6040162448963
 30
0.0
 10
472.7164343760653
 20
365.8780803396164
 30
0.0
 10
474.8129138773357
 20
358.6994536532408
 30
0.0
 10
475.8212098740433
 20
355.2469130749308
 30
0.0
  0
SPLINE
  5
1F2
330
1F
100
AcDbEntity
  8
0
  6
Continuous
 62
     8
370
    18
100
AcDbSpline
210
0.0
220
0.0
230
1.0
 70
     8
 71
     3
 72
    22
 73
    18
 74
     0
 42
0.00000001
 43
0.00000001
 40
0.0
 40
0.0
 40
0.0
 40
0.0
 40
0.0644336722450228
 40
0.1283829988871705
 40
0.1918649426833004
 40
0.2548980739204448
 40
0.3175022856269132
 40
0.3796976421719896
 40
0.4414974104241454
 40
0.5029098246326371
 40
0.5639429899567863
 40
0.6246042256717509
 40
0.6849006526907172
 40
0.7448396698289674
 40
0.8044288951178736
 40
0.9023260666888667
 40
1.0
 40
1.0
 40
1.0
 40
1.0
 10
441.58532435106
 20
411.8553428432954
 30
0.0
 10
441.7022929335603
 20
411.8516815706953
 30
0.0
 10
441.9353508499224
 20
411.8443865471501
 30
0.0
 10
442.2831042054337
 20
411.8213626976199
 30
0.0
 10
442.6275772393425
 20
411.7895413334195
 30
0.0
 10
442.9685850067484
 20
411.74815263396
 30
0.0
 10
443.3059794573034
 20
411.6975451283831
 30
0.0
 10
443.6396027000253
 20
411.6378039155376
 30
0.0
 10
443.9693028203562
 20
411.5691941768943
 30
0.0
 10
444.2949404399448
 20
411.4920497063993
 30
0.0
 10
444.6163857929955
 20
411.4067097911267
 30
0.0
 10
444.9335330439471
 20
411.3135288270827
 30
0.0
 10
445.246288160445
 20
411.2128466687007
 30
0.0
 10
445.5546125829193
 20
411.1050691307678
 30
0.0
 10
445.9240352543968
 20
410.9655577442003
 30
0.0
 10
446.3528331880304
 20
410.7893907810244
 30
0.0
 10
446.6747105499736
 20
410.639145735772
 30
0.0
 10
446.835465524507
 20
410.5641089631406
 30
0.0
  0
SPLINE
  5
1F3
330
1F
100
AcDbEntity
  8
0
  6
Continuous
 62
     8
370
    18
100
AcDbSpline
210
0.0
220
0.0
230
1.0
 70
     8
 71
     3
 72
    35
 73
    31
 74
     0
 42
0.00000001
 43
0.00000001
 40
0.0
 40
0.0
 40
0.0
 40
0.0
 40
0.0220321316428343
 40
0.0439342004617926
 40
0.0657299673873439
 40
0.0874200316548618
 40
0.1090045630383518
 40
0.1304910115285653
 40
0.1518934490489074
 40
0.1732271392273717
 40
0.1945048570851903
 40
0.2157350916056645
 40
0.236922287619207
 40
0.2580678648293963
 40
0.2791714541435791
 40
0.3002318901321488
 40
0.3212477644073685
 40
0.3422176110996513
 40
0.3631399698280361
 40
0.3840133472039046
 40
0.4048360833924453
 40
0.4256065497926557
 40
0.4463231981956827
 40
0.4669845600331749
 40
0.4875892393005259
 40
0.5081359009940917
 40
0.6287528264962846
 40
0.7510021822672962
 40
0.8747875025714804
 40
1.0
 40
1.0
 40
1.0
 40
1.0
 10
457.4315221928159
 20
463.2812460548051
 30
0.0
 10
457.3807172842611
 20
463.2330846670305
 30
0.0
 10
457.2794073850161
 20
463.1370462037848
 30
0.0
 10
457.1187967014363
 20
463.0034051265357
 30
0.0
 10
456.9532251242201
 20
462.8778833252022
 30
0.0
 10
456.7829757507868
 20
462.7605318958265
 30
0.0
 10
456.6091011723667
 20
462.6504892194686
 30
0.0
 10
456.4322515345634
 20
462.5471064105516
 30
0.0
 10
456.252933658807
 20
462.4497422595962
 30
0.0
 10
456.0715003015998
 20
462.3578489118512
 30
0.0
 10
455.8882279711665
 20
462.270959368384
 30
0.0
 10
455.7033546145417
 20
462.1886763351153
 30
0.0
 10
455.5171008902744
 20
462.1106545404412
 30
0.0
 10
455.3296744262863
 20
462.0365873792265
 30
0.0
 10
455.1412675882358
 20
461.966198537578
 30
0.0
 10
454.9520544353069
 20
461.8992365394983
 30
0.0
 10
454.7621892554714
 20
461.8354725466849
 30
0.0
 10
454.5718076253734
 20
461.7746982081696
 30
0.0
 10
454.3810287557683
 20
461.7167239117553
 30
0.0
 10
454.189958081382
 20
461.6613782128991
 30
0.0
 10
453.9986890995663
 20
461.6085072767685
 30
0.0
 10
453.8073061041685
 20
461.5579688409124
 30
0.0
 10
453.6158845179101
 20
461.5096314553946
 30
0.0
 10
453.4244919256425
 20
461.463374346543
 30
0.0
 10
453.2331889751185
 20
461.419083464435
 30
0.0
 10
452.7315015520553
 20
461.3077519648032
 30
0.0
 10
451.9093049144971
 20
461.1504175388923
 30
0.0
 10
450.7574982837915
 20
460.9761441847637
 30
0.0
 10
449.5865607684037
 20
460.8339087724409
 30
0.0
 10
448.7987650146005
 20
460.7625211521977
 30
0.0
 10
448.4026094390397
 20
460.7266227563905
 30
0.0
  0
SPLINE
  5
1F4
330
1F
100
AcDbEntity
  8
0
  6
Continuous
 62
     8
370
    18
100
AcDbSpline
210
0.0
220
0.0
230
1.0
 70
     8
 71
     3
 72
    10
 73
     6
 74
     0
 42
0.00000001
 43
0.00000001
 40
0.0
 40
0.0
 40
0.0
 40
0.0
 40
0.4499511663579888
 40
0.8999252548395758
 40
0.9999999999999999
 40
0.9999999999999999
 40
0.9999999999999999
 40
0.9999999999999999
 10
457.5100308137937
 20
463.1189879230126
 30
0.0
 10
457.488843120852
 20
463.1402284090538
 30
0.0
 10
457.4464666555915
 20
463.1827104632027
 30
0.0
 10
457.4327739698099
 20
463.2282593807807
 30
0.0
 10
457.4317415933978
 20
463.2396571619959
 30
0.0
 10
457.4315537649724
 20
463.2417308506954
 30
0.0
  0
SPLINE
  5
1F5
330
1F
100
AcDbEntity
  8
0
  6
Continuous
 62
     8
370
    18
100
AcDbSpline
210
0.0
220
0.0
230
1.0
 70
     8
 71
     3
 72
    14
 73
    10
 74
     0
 42
0.00000001
 43
0.00000001
 40
0.0
 40
0.0
 40
0.0
 40
0.0
 40
0.25
 40
0.25
 40
0.5
 40
0.5
 40
0.75
 40
0.75
 40
1.0
 40
1.0
 40
1.0
 40
1.0
 10
457.6290085046579
 20
462.3281939276163
 30
0.0
 10
457.6147329173383
 20
462.4332606335296
 30
0.0
 10
457.5996655870959
 20
462.5382602459865
 30
0.0
 10
457.5715010453539
 20
462.7285363802318
 30
0.0
 10
457.5585064842351
 20
462.8137362637169
 30
0.0
 10
457.5364953566159
 20
462.9599913047114
 30
0.0
 10
457.5275020363731
 20
463.0207562143623
 30
0.0
 10
457.5149342046629
 20
463.1008763126989
 30
0.0
 10
457.5118181578428
 20
463.1165418488035
 30
0.0
 10
457.5100308137937
 20
463.1189879230126
 30
0.0
  0
SPLINE
  5
1F6
330
1F
100
AcDbEntity
  8
0
  6
Continuous
 62
     8
370
    18
100
AcDbSpline
210
0.0
220
0.0
230
1.0
 70
     8
 71
     3
 72
    10
 73
     6
 74
     0
 42
0.00000001
 43
0.00000001
 40
0.0
 40
0.0
 40
0.0
 40
0.0
 40
0.4264466655981144
 40
0.8528933368818559
 40
1.0
 40
1.0
 40
1.0
 40
1.0
 10
476.0671375693079
 20
354.4294941751864
 30
0.0
 10
476.0694075255467
 20
354.4334322266349
 30
0.0
 10
476.0739474380546
 20
354.4413083295843
 30
0.0
 10
476.0806558402787
 20
354.4512374677692
 30
0.0
 10
476.0829167374294
 20
354.4543465286069
 30
0.0
 10
476.0834966190473
 20
354.455143949767
 30
0.0
  0
ARC
  5
1F7
330
1F
100
AcDbEntity
  8
0
  6
Continuous
 62
     8
370
    18
100
AcDbCircle
 10
467.0810793272
 20
393.5920308389
 30
0.0
 40
69.38300771072994
100
AcDbArc
 50
97.6648462612
 51
97.8297705788
  0
SPLINE
  5
1F8
330
1F
100
AcDbEntity
  8
0
  6
Continuous
 62
     8
370
    18
100
AcDbSpline
210
0.0
220
0.0
230
1.0
 70
     8
 71
     3
 72
    30
 73
    26
 74
     0
 42
0.00000001
 43
0.00000001
 40
0.0
 40
0.0
 40
0.0
 40
0.0
 40
0.015625
 40
0.015625
 40
0.0312499999999999
 40
0.0312499999999999
 40
0.0624999999999999
 40
0.0624999999999999
 40
0.1249999999999999
 40
0.1249999999999999
 40
0.2499999999999998
 40
0.2499999999999998
 40
0.4999999999999997
 40
0.4999999999999997
 40
0.7499999999999997
 40
0.7499999999999997
 40
0.8749999999999998
 40
0.8749999999999998
 40
0.9374999999999999
 40
0.9374999999999999
 40
0.9687499999999999
 40
0.9687499999999999
 40
0.984375
 40
0.984375
 40
1.0
 40
1.0
 40
1.0
 40
1.0
 10
457.8268859850933
 20
462.3551166544472
 30
0.0
 10
457.9027172225862
 20
461.7943376255908
 30
0.0
 10
457.9813512662104
 20
461.2339615958845
 30
0.0
 10
458.1365996332375
 20
460.1129191298548
 30
0.0
 10
458.2146309087981
 20
459.5524564293618
 30
0.0
 10
458.4513402521521
 20
457.8714443958393
 30
0.0
 10
458.6121074819737
 20
456.7511954490999
 30
0.0
 10
459.1050196246983
 20
453.3919742175257
 30
0.0
 10
459.447501664224
 20
451.1544522313806
 30
0.0
 10
460.5087964677422
 20
444.4475503955127
 30
0.0
 10
461.260295710756
 20
439.9832221393831
 30
0.0
 10
463.5888320518388
 20
426.603743631661
 30
0.0
 10
465.2420393598921
 20
417.7020399702148
 30
0.0
 10
468.5318542803876
 20
399.8957728957355
 30
0.0
 10
470.1692746000619
 20
390.9909943628921
 30
0.0
 10
472.5202334784405
 20
377.6160531074885
 30
0.0
 10
473.2863751029195
 20
373.1547774756261
 30
0.0
 10
474.3948427845902
 20
366.4559715722502
 30
0.0
 10
474.7576472063653
 20
364.2219054525227
 30
0.0
 10
475.2890726061599
 20
360.8686439712192
 30
0.0
 10
475.4637614096841
 20
359.7504751506682
 30
0.0
 10
475.7226362548786
 20
358.0726875766539
 30
0.0
 10
475.8090732475221
 20
357.5134496450933
 30
0.0
 10
475.9779043394159
 20
356.3942897977167
 30
0.0
 10
476.0587076523776
 20
355.8340987516968
 30
0.0
 10
476.147070163698
 20
355.2751865685697
 30
0.0
  0
ARC
  5
1F9
330
1F
100
AcDbEntity
  8
0
  6
Continuous
 62
     8
370
    18
100
AcDbCircle
 10
484.384532474
 20
302.8427626912
 30
0.0
 40
53.07555801843028
100
AcDbArc
 50
98.9285440705
 51
99.1445200458
  0
SPLINE
  5
1FA
330
1F
100
AcDbEntity
  8
0
  6
Continuous
 62
     8
370
    18
100
AcDbSpline
210
0.0
220
0.0
230
1.0
 70
     8
 71
     3
 72
    11
 73
     7
 74
     0
 42
0.00000001
 43
0.00000001
 40
0.0
 40
0.0
 40
0.0
 40
0.0
 40
0.1430280753866904
 40
0.4284309345301225
 40
0.7137071034310377
 40
1.0
 40
1.0
 40
1.0
 40
1.0
 10
478.480525033401
 20
354.6520292117411
 30
0.0
 10
478.4796381442801
 20
354.6611539765703
 30
0.0
 10
478.4769815278513
 20
354.6884865929991
 30
0.0
 10
478.4487561712168
 20
354.8908181236416
 30
0.0
 10
478.402242398064
 20
355.213753809462
 30
0.0
 10
478.3637167396112
 20
355.4732589075679
 30
0.0
 10
478.3444196449694
 20
355.6032422651348
 30
0.0
  0
SPLINE
  5
1FB
330
1F
100
AcDbEntity
  8
0
  6
Continuous
 62
     8
370
    18
100
AcDbSpline
210
0.0
220
0.0
230
1.0
 70
     8
 71
     3
 72
    12
 73
     8
 74
     0
 42
0.00000001
 43
0.00000001
 40
0.0
 40
0.0
 40
0.0
 40
0.0
 40
0.5000000000000008
 40
0.5000000000000008
 40
0.7500000000000003
 40
0.7500000000000003
 40
1.0
 40
1.0
 40
1.0
 40
1.0
 10
476.1470701636981
 20
355.2751865685697
 30
0.0
 10
476.1878057186055
 20
355.0146153136112
 30
0.0
 10
476.2307032110918
 20
354.7595587307307
 30
0.0
 10
476.2766897192196
 20
354.4871310374082
 30
0.0
 10
476.289060036018
 20
354.4140109685399
 30
0.0
 10
476.3057591977611
 20
354.3152039410504
 30
0.0
 10
476.3100864805501
 20
354.2896003211195
 30
0.0
 10
476.3103239452337
 20
354.2896357817133
 30
0.0
  0
LINE
  5
1FC
330
1F
100
AcDbEntity
  8
0
  6
Continuous
 62
     8
370
    18
100
AcDbLine
 10
476.1470701637
 20
355.2751865686
 30
0.0
 11
478.344419645
 21
355.6032422651
 31
0.0
  0
SPLINE
  5
1FD
330
1F
100
AcDbEntity
  8
0
  6
Continuous
 62
     8
370
    18
100
AcDbSpline
210
0.0
220
0.0
230
1.0
 70
     8
 71
     3
 72
     8
 73
     4
 74
     0
 42
0.00000001
 43
0.00000001
 40
0.0000000304106937
 40
0.0000000304106937
 40
0.0000000304106937
 40
0.0000000304106937
 40
26.5009357447489
 40
26.5009357447489
 40
26.5009357447489
 40
26.5009357447489
 10
466.3369537282348
 20
436.1440140816268
 30
0.0
 10
465.0341441540711
 20
444.8810809397169
 30
0.0
 10
463.7313346546925
 20
453.6181291387501
 30
0.0
 10
462.4285493793325
 20
462.3551050309293
 30
0.0
  0
LWPOLYLINE
  5
1FE
330
1F
100
AcDbEntity
  8
0
  6
Continuous
 62
     8
370
    18
100
AcDbPolyline
 90
        3
 70
   128
 43
0.0
 10
466.3369536322
 20
436.1440139977
 10
466.871363195
 20
432.5600815948
 10
467.4057713332
 20
428.9761592863
  0
SPLINE
  5
1FF
330
1F
100
AcDbEntity
  8
0
  6
Continuous
 62
     8
370
    18
100
AcDbSpline
210
0.0
220
0.0
230
1.0
 70
     8
 71
     3
 72
    10
 73
     6
 74
     0
 42
0.00000001
 43
0.00000001
 40
0.0
 40
0.0
 40
0.0
 40
0.0
 40
0.5
 40
0.5
 40
1.0
 40
1.0
 40
1.0
 40
1.0
 10
467.4057725062323
 20
428.9761594612112
 30
0.0
 10
469.0549767149003
 20
417.9166259237418
 30
0.0
 10
470.7042041632484
 20
406.8569414664103
 30
0.0
 10
474.0025425691524
 20
384.7383249219525
 30
0.0
 10
475.6516831522223
 20
373.6791885813974
 30
0.0
 10
477.3009598702142
 20
362.6191137739687
 30
0.0
  0
SPLINE
  5
200
330
1F
100
AcDbEntity
  8
0
  6
Continuous
 62
     8
370
    18
100
AcDbSpline
210
0.0
220
0.0
230
1.0
 70
     8
 71
     3
 72
     9
 73
     5
 74
     0
 42
0.00000001
 43
0.00000001
 40
0.0
 40
0.0
 40
0.0
 40
0.0
 40
0.500005969123153
 40
1.0
 40
1.0
 40
1.0
 40
1.0
 10
477.3009598701974
 20
362.6191137740253
 30
0.0
 10
477.4722778708866
 20
361.4734345339756
 30
0.0
 10
477.8149097818408
 20
359.1821034083516
 30
0.0
 10
478.1595890212752
 20
356.8910793680431
 30
0.0
 10
478.3319265835596
 20
355.7455810232934
 30
0.0
  0
LINE
  5
201
330
1F
100
AcDbEntity
  8
0
  6
Continuous
 62
     8
370
    18
100
AcDbLine
 10
478.3319265836
 20
355.7455810233
 30
0.0
 11
478.344419645
 21
355.6032422651
 31
0.0
  0
LINE
  5
202
330
1F
100
AcDbEntity
  8
0
  6
Continuous
 62
     8
370
    18
100
AcDbLine
 10
462.4285493838
 20
462.3551050009
 30
0.0
 11
457.8269025299
 21
462.3551166544
 31
0.0
  0
SPLINE
  5
203
330
1F
100
AcDbEntity
  8
0
  6
Continuous
 62
     8
370
    18
100
AcDbSpline
210
0.0
220
0.0
230
1.0
 70
     8
 71
     3
 72
    16
 73
    12
 74
     0
 42
0.00000001
 43
0.00000001
 40
0.0
 40
0.0
 40
0.0
 40
0.0
 40
0.084317372251047
 40
0.1683268488687966
 40
0.2517102411851013
 40
0.3628060242332554
 40
0.49890816656413
 40
0.6477599993557198
 40
0.7477355654966354
 40
0.8744140009592978
 40
0.9999999999999999
 40
0.9999999999999999
 40
0.9999999999999999
 40
0.9999999999999999
 10
477.3009598702142
 20
362.6191137739687
 30
0.0
 10
477.3456167182361
 20
362.6300881999858
 30
0.0
 10
477.4347673441068
 20
362.6519969775042
 30
0.0
 10
477.5672005962756
 20
362.6844685679139
 30
0.0
 10
477.7106745066017
 20
362.7197486887622
 30
0.0
 10
477.8728481468178
 20
362.7593060113817
 30
0.0
 10
478.040890878336
 20
362.8007040640874
 30
0.0
 10
478.1552083294679
 20
362.8291580679499
 30
0.0
 10
478.2236975378534
 20
362.8454859646868
 30
0.0
 10
478.2593621433987
 20
362.8544290290017
 30
0.0
 10
478.2632307927981
 20
362.8553270884038
 30
0.0
 10
478.2651567408641
 20
362.8557741735723
 30
0.0
  0
LINE
  5
204
330
1F
100
AcDbEntity
  8
0
  6
Continuous
 62
     8
370
    18
100
AcDbLine
 10
478.2656547692
 20
362.8524342044
 30
0.0
 11
478.2651567416
 21
362.8557741738
 31
0.0
  0
SPLINE
  5
205
330
1F
100
AcDbEntity
  8
0
  6
Continuous
 62
     8
370
    18
100
AcDbSpline
210
0.0
220
0.0
230
1.0
 70
     8
 71
     3
 72
    11
 73
     7
 74
     0
 42
0.00000001
 43
0.00000001
 40
0.0
 40
0.0
 40
0.0
 40
0.0
 40
0.0001189070178923
 40
0.0001189070178923
 40
0.0001189070178923
 40
0.0001189670178923
 40
0.0001189670178923
 40
0.0001189670178923
 40
0.0001189670178923
 10
479.321298450503
 20
355.7480533357386
 30
0.0
 10
479.3238046530974
 20
355.7484046540354
 30
0.0
 10
479.3249513831897
 20
355.7485547585196
 30
0.0
 10
479.3249279307103
 20
355.748531841884
 30
0.0
 10
479.3249279188763
 20
355.7485318303204
 30
0.0
 10
479.3249279067443
 20
355.7485318187131
 30
0.0
 10
479.3249278943147
 20
355.748531807061
 30
0.0
  0
SPLINE
  5
206
330
1F
100
AcDbEntity
  8
0
  6
Continuous
 62
     8
370
    18
100
AcDbSpline
210
0.0
220
0.0
230
1.0
 70
     8
 71
     3
 72
    14
 73
    10
 74
     0
 42
0.00000001
 43
0.00000001
 40
0.0
 40
0.0
 40
0.0
 40
0.0
 40
0.25
 40
0.25
 40
0.5
 40
0.5
 40
0.75
 40
0.75
 40
1.0
 40
1.0
 40
1.0
 40
1.0
 10
478.3444196449693
 20
355.6032422651348
 30
0.0
 10
478.4696281295824
 20
355.6218659191046
 30
0.0
 10
478.5954717123653
 20
355.6405663265792
 30
0.0
 10
478.8360413735029
 20
355.6762526697373
 30
0.0
 10
478.9504758739546
 20
355.6932955814309
 30
0.0
 10
479.1353657982793
 20
355.7206563458802
 30
0.0
 10
479.203708216497
 20
355.7308121576169
 30
0.0
 10
479.2917642085125
 20
355.74380361012
 30
0.0
 10
479.313297204385
 20
355.7469425848701
 30
0.0
 10
479.321298450503
 20
355.7480533357385
 30
0.0
  0
SPLINE
  5
207
330
1F
100
AcDbEntity
  8
0
  6
Continuous
 62
     8
370
    18
100
AcDbSpline
210
0.0
220
0.0
230
1.0
 70
     8
 71
     3
 72
    11
 73
     7
 74
     0
 42
0.00000001
 43
0.00000001
 40
0.0
 40
0.0
 40
0.0
 40
0.0
 40
0.1430281817352909
 40
0.4284309801487292
 40
0.7137082839727905
 40
1.0
 40
1.0
 40
1.0
 40
1.0
 10
478.6671086757037
 20
354.6797918243399
 30
0.0
 10
478.7297493529543
 20
354.6983741143195
 30
0.0
 10
478.9173851491038
 20
354.7540360727726
 30
0.0
 10
479.1542019323188
 20
354.9955929824537
 30
0.0
 10
479.3350990041214
 20
355.3521599136583
 30
0.0
 10
479.3259040747171
 20
355.6159328149699
 30
0.0
 10
479.321298450503
 20
355.7480533357386
 30
0.0
  0
SPLINE
  5
208
330
1F
100
AcDbEntity
  8
0
  6
Continuous
 62
     8
370
    18
100
AcDbSpline
210
0.0
220
0.0
230
1.0
 70
     8
 71
     3
 72
    14
 73
    10
 74
     0
 42
0.00000001
 43
0.00000001
 40
-0.0000000599999896
 40
-0.0000000599999896
 40
-0.0000000599999896
 40
-0.0000000599999896
 40
0.0
 40
0.0
 40
0.0
 40
0.0000040798732374
 40
0.0000040798732374
 40
0.0000040798732374
 40
0.0000041398732322
 40
0.0000041398732322
 40
0.0000041398732322
 40
0.0000041398732322
 10
457.8265068960224
 20
462.3592978335761
 30
0.0
 10
457.8265083759306
 20
462.3592778889131
 30
0.0
 10
457.8265098492067
 20
462.3592579437472
 30
0.0
 10
457.8265113357471
 20
462.3592379995584
 30
0.0
 10
457.826612417366
 20
462.3578818366187
 30
0.0
 10
457.8267434732546
 20
462.3565277051975
 30
0.0
 10
457.8268957954311
 20
462.3551763053175
 30
0.0
 10
457.8268980355326
 20
462.3551564311741
 30
0.0
 10
457.8269002850715
 20
462.3551365580951
 30
0.0
 10
457.8269025298916
 20
462.3551166844834
 30
0.0
  0
SPLINE
  5
209
330
1F
100
AcDbEntity
  8
0
  6
Continuous
 62
     8
370
    18
100
AcDbSpline
210
0.0
220
0.0
230
1.0
 70
     8
 71
     3
 72
    14
 73
    10
 74
     0
 42
0.00000001
 43
0.00000001
 40
-0.000000059999997
 40
-0.000000059999997
 40
-0.000000059999997
 40
-0.000000059999997
 40
0.0
 40
0.0
 40
0.0
 40
0.0000095015652516
 40
0.0000095015652516
 40
0.0000095015652516
 40
0.000009561551458
 40
0.000009561551458
 40
0.000009561551458
 40
0.000009561551458
 10
457.8255403061283
 20
462.3688698784253
 30
0.0
 10
457.825542127084
 20
462.3688499652494
 30
0.0
 10
457.8255439445277
 20
462.3688300517331
 30
0.0
 10
457.8255457689956
 20
462.3688101388406
 30
0.0
 10
457.8258346906854
 20
462.365656744571
 30
0.0
 10
457.826200229167
 20
462.3625103210376
 30
0.0
 10
457.8265012054464
 20
462.3593575477236
 30
0.0
 10
457.8265031055991
 20
462.3593376433283
 30
0.0
 10
457.8265049991637
 20
462.3593177382983
 30
0.0
 10
457.8265068960224
 20
462.3592978335761
 30
0.0
  0
SPLINE
  5
20A
330
1F
100
AcDbEntity
  8
0
  6
Continuous
 62
     8
370
    18
100
AcDbSpline
210
0.0
220
0.0
230
1.0
 70
     8
 71
     3
 72
    16
 73
    12
 74
     0
 42
0.00000001
 43
0.00000001
 40
0.0
 40
0.0
 40
0.0
 40
0.0
 40
0.25
 40
0.25
 40
0.5
 40
0.5
 40
0.75
 40
0.75
 40
0.875
 40
0.875
 40
1.0
 40
1.0
 40
1.0
 40
1.0
 10
457.7091350046881
 20
463.3378616633655
 30
0.0
 10
457.7109411028302
 20
463.3361184265328
 30
0.0
 10
457.7140555285342
 20
463.3166498181479
 30
0.0
 10
457.7259905652691
 20
463.219100811034
 30
0.0
 10
457.7344295408525
 20
463.1461936495057
 30
0.0
 10
457.7570308254467
 20
462.9658453379881
 30
0.0
 10
457.7697745031172
 20
462.8609850486735
 30
0.0
 10
457.7897965079315
 20
462.6846014928591
 30
0.0
 10
457.7966234447926
 20
462.6238185439468
 30
0.0
 10
457.8105682616006
 20
462.4984352398511
 30
0.0
 10
457.8186961691373
 20
462.4324891914143
 30
0.0
 10
457.8255403061283
 20
462.3688698784253
 30
0.0
  0
LINE
  5
20B
330
1F
100
AcDbEntity
  8
0
  6
Continuous
 62
     8
370
    18
100
AcDbLine
 10
462.2819887691
 20
463.3378855449
 30
0.0
 11
457.7091277131
 21
463.3378970665
 31
0.0
  0
SPLINE
  5
20C
330
1F
100
AcDbEntity
  8
0
  6
Continuous
 62
     8
370
    18
100
AcDbSpline
210
0.0
220
0.0
230
1.0
 70
     8
 71
     3
 72
    19
 73
    15
 74
     0
 42
0.00000001
 43
0.00000001
 40
0.0
 40
0.0
 40
0.0
 40
0.0
 40
0.0897175062225706
 40
0.1694255543623823
 40
0.2404769257467339
 40
0.3041142401171804
 40
0.3614469344145113
 40
0.4134295207755649
 40
0.4608454547040139
 40
0.5043005611962975
 40
0.6230867349029037
 40
0.7427480379001039
 40
0.8677158295854612
 40
1.0
 40
1.0
 40
1.0
 40
1.0
 10
467.3369685871482
 20
436.144011034951
 30
0.0
 10
467.3359803632835
 20
436.1440210762801
 30
0.0
 10
467.3341141681209
 20
436.1440400386635
 30
0.0
 10
467.317490772764
 20
436.1441332116501
 30
0.0
 10
467.2925040481217
 20
436.1442007091688
 30
0.0
 10
467.2600056322855
 20
436.1442223766517
 30
0.0
 10
467.2217334155828
 20
436.1441908339874
 30
0.0
 10
467.1791284002631
 20
436.1441222648057
 30
0.0
 10
467.1335627893839
 20
436.1440406066468
 30
0.0
 10
467.0579481583982
 20
436.1439852253931
 30
0.0
 10
466.9355760279753
 20
436.1440680166477
 30
0.0
 10
466.7526394811813
 20
436.1441022278207
 30
0.0
 10
466.5502457175478
 20
436.1440507705616
 30
0.0
 10
466.4093863648936
 20
436.1440264855573
 30
0.0
 10
466.3369536321795
 20
436.1440139977161
 30
0.0
  0
SPLINE
  5
20D
330
1F
100
AcDbEntity
  8
0
  6
Continuous
 62
     8
370
    18
100
AcDbSpline
210
0.0
220
0.0
230
1.0
 70
     8
 71
     3
 72
    10
 73
     6
 74
     0
 42
0.00000001
 43
0.00000001
 40
0.0
 40
0.0
 40
0.0
 40
0.0
 40
0.5
 40
0.5
 40
1.0
 40
1.0
 40
1.0
 40
1.0
 10
457.7091350046881
 20
463.3378616633656
 30
0.0
 10
457.6536269893861
 20
463.3378532755334
 30
0.0
 10
457.5985502583173
 20
463.3134914949727
 30
0.0
 10
457.5238463015595
 20
463.2313661618034
 30
0.0
 10
457.5047979803772
 20
463.174239116833
 30
0.0
 10
457.5100308137937
 20
463.1189879230126
 30
0.0
  0
SPLINE
  5
20E
330
1F
100
AcDbEntity
  8
0
  6
Continuous
 62
     8
370
    18
100
AcDbSpline
210
0.0
220
0.0
230
1.0
 70
     8
 71
     3
 72
    14
 73
    10
 74
     0
 42
0.00000001
 43
0.00000001
 40
0.0
 40
0.0
 40
0.0
 40
0.0
 40
0.25
 40
0.25
 40
0.5
 40
0.5
 40
0.75
 40
0.75
 40
1.0
 40
1.0
 40
1.0
 40
1.0
 10
457.7091277131514
 20
463.3378970966543
 30
0.0
 10
457.6814318612824
 20
463.3378972165429
 30
0.0
 10
457.6534565408758
 20
463.3319758404651
 30
0.0
 10
457.6028353535424
 20
463.3095546986798
 30
0.0
 10
457.5797474543302
 20
463.292883812925
 30
0.0
 10
457.5425834135287
 20
463.2520102373974
 30
0.0
 10
457.5281859482292
 20
463.2274771012229
 30
0.0
 10
457.5106379390693
 20
463.1748631517494
 30
0.0
 10
457.5074143038825
 20
463.1465615053228
 30
0.0
 10
457.5100308137937
 20
463.1189879230126
 30
0.0
  0
SPLINE
  5
20F
330
1F
100
AcDbEntity
  8
0
  6
Continuous
 62
     8
370
    18
100
AcDbSpline
210
0.0
220
0.0
230
1.0
 70
     8
 71
     3
 72
     8
 73
     4
 74
     0
 42
0.00000001
 43
0.00000001
 40
0.0
 40
0.0
 40
0.0
 40
0.0
 40
1.0
 40
1.0
 40
1.0
 40
1.0
 10
457.5711129558084
 20
463.338016945684
 30
0.0
 10
457.5195613229161
 20
463.3380170787321
 30
0.0
 10
457.4683082016166
 20
463.3171505725492
 30
0.0
 10
457.4314163581367
 20
463.2811427525591
 30
0.0
  0
LINE
  5
210
330
1F
100
AcDbEntity
  8
0
  6
Continuous
 62
     8
370
    18
100
AcDbLine
 10
462.2819835899
 20
463.3379218084
 30
0.0
 11
462.2819626498
 21
463.3380621461
 31
0.0
  0
SPLINE
  5
211
330
1F
100
AcDbEntity
  8
0
  6
Continuous
 62
     8
370
    18
100
AcDbSpline
210
0.0
220
0.0
230
1.0
 70
     8
 71
     3
 72
     9
 73
     5
 74
     0
 42
0.00000001
 43
0.00000001
 40
0.0
 40
0.0
 40
0.0
 40
0.0
 40
0.0620300540777478
 40
0.9999999999999999
 40
0.9999999999999999
 40
0.9999999999999999
 40
0.9999999999999999
 10
462.2818281277836
 20
463.3389636922352
 30
0.0
 10
462.2818242311924
 20
463.3389898076616
 30
0.0
 10
462.2817614133991
 20
463.3394108201339
 30
0.0
 10
462.2818787298095
 20
463.3386237721884
 30
0.0
 10
462.2819887690766
 20
463.3378855448696
 30
0.0
  0
LINE
  5
212
330
1F
100
AcDbEntity
  8
0
  6
Continuous
 62
     8
370
    18
100
AcDbLine
 10
463.4351860888
 20
462.3107179229
 30
0.0
 11
463.4352282951
 21
462.3104346848
 31
0.0
  0
LWPOLYLINE
  5
213
330
1F
100
AcDbEntity
  8
0
  6
Continuous
 62
     8
370
    18
100
AcDbPolyline
 90
        4
 70
   128
 43
0.0
 10
479.3249308527
 20
355.7485333441
 10
479.3249327166
 20
355.7481450824
 10
479.3249348323
 20
355.7476019676
 10
479.3249347126
 20
355.7476347099
  0
LINE
  5
214
330
1F
100
AcDbEntity
  8
0
  6
Continuous
 62
     8
370
    18
100
AcDbLine
 10
479.3249321811
 20
355.7482448137
 30
0.0
 11
479.3249308528
 21
355.748536413
 31
0.0
  0
LWPOLYLINE
  5
215
330
1F
100
AcDbEntity
  8
0
  6
Continuous
 62
     8
370
    18
100
AcDbPolyline
 90
        3
 70
   128
 43
0.0
 10
478.26565477
 20
362.8524342045
 10
478.2656528804
 20
362.8524319946
 10
478.2656521508
 20
362.8524314116
  0
LINE
  5
216
330
1F
100
AcDbEntity
  8
0
  6
Continuous
 62
     8
370
    18
100
AcDbLine
 10
430.8853240035
 20
461.6442876527
 30
0.0
 11
430.8853240035
 21
412.6442876527
 31
0.0
  0
LINE
  5
217
330
1F
100
AcDbEntity
  8
0
  6
Continuous
 62
     8
370
    18
100
AcDbLine
 10
410.7237930848
 20
493.885839029
 30
0.0
 11
410.7237930848
 21
516.4027362763
 31
0.0
  0
LINE
  5
218
330
1F
100
AcDbEntity
  8
0
  6
Continuous
 62
     8
370
    18
100
AcDbLine
 10
411.2148165035
 20
515.9186337887
 30
0.0
 11
411.2148165035
 21
494.3699415166
 31
0.0
  0
LINE
  5
219
330
1F
100
AcDbEntity
  8
0
  6
Continuous
 62
     8
370
    18
100
AcDbLine
 10
446.8039053704
 20
409.7501232933
 30
0.0
 11
448.8388827835
 21
409.7501232933
 31
0.0
  0
SPLINE
  5
21A
330
1F
100
AcDbEntity
  8
0
  6
Continuous
 62
     8
370
    18
100
AcDbSpline
210
0.0
220
0.0
230
1.0
 70
     8
 71
     3
 72
    14
 73
    10
 74
     0
 42
0.00000001
 43
0.00000001
 40
0.0
 40
0.0
 40
0.0
 40
0.0
 40
0.0010001115344504
 40
0.0010001115344504
 40
0.0010001115344504
 40
0.0018550121572648
 40
0.0018550121572648
 40
0.0018550121572648
 40
0.0019669918211254
 40
0.0019669918211254
 40
0.0019669918211254
 40
0.0019669918211254
 10
457.4316037101352
 20
463.2813745911049
 30
0.0
 10
457.4316865750424
 20
463.2816308439415
 30
0.0
 10
457.4317235481084
 20
463.2819508000584
 30
0.0
 10
457.4317437450543
 20
463.2821911004318
 30
0.0
 10
457.4317610095097
 20
463.2823965104533
 30
0.0
 10
457.4317679627353
 20
463.2825302090963
 30
0.0
 10
457.4317699059878
 20
463.28256189008
 30
0.0
 10
457.431770160526
 20
463.2825660398327
 30
0.0
 10
457.4317703048858
 20
463.2825685851528
 30
0.0
 10
457.431770340489
 20
463.2825695276881
 30
0.0
  0
LINE
  5
21B
330
1F
100
AcDbEntity
  8
0
  6
Continuous
 62
     8
370
    18
100
AcDbLine
 10
478.26565477
 20
362.8524342045
 30
0.0
 11
478.2656490834
 21
362.8524268072
 31
0.0
  0
LINE
  5
21C
330
1F
100
AcDbEntity
  8
0
  6
Continuous
 62
     8
370
    18
100
AcDbLine
 10
462.2819835899
 20
463.3379218084
 30
0.0
 11
462.2819838992
 21
463.3379196433
 31
0.0
  0
LINE
  5
21D
330
1F
100
AcDbEntity
  8
0
  6
Continuous
 62
     8
370
    18
100
AcDbLine
 10
476.0666670058
 20
354.4286790557
 30
0.0
 11
476.066656307
 21
354.4286607524
 31
0.0
  0
LINE
  5
21E
330
1F
100
AcDbEntity
  8
0
  6
Continuous
 62
     8
370
    18
100
AcDbLine
 10
457.4317703435
 20
463.2825699434
 30
0.0
 11
457.4317702434
 21
463.2825681004
 31
0.0
  0
LINE
  5
21F
330
1F
100
AcDbEntity
  8
0
  6
Continuous
 62
     8
370
    18
100
AcDbLine
 10
457.5699092076
 20
463.3379341181
 30
0.0
 11
457.5699025594
 21
463.3379337417
 31
0.0
  0
ENDSEC
  0
SECTION
  2
OBJECTS
  0
DICTIONARY
  5
C
330
0
100
AcDbDictionary
281
     1
  3
ACAD_GROUP
350
D
  3
ACAD_LAYOUT
350
1A
  3
ACAD_MLINESTYLE
350
17
  3
ACAD_PLOTSETTINGS
350
19
  3
ACAD_PLOTSTYLENAME
350
E
  3
ACAD_SCALELIST
350
47
  3
DWGPROPS
350
220
  0
DICTIONARY
  5
D
102
{ACAD_REACTORS
330
C
102
}
330
C
100
AcDbDictionary
281
     1
  0
DICTIONARY
  5
1A
102
{ACAD_REACTORS
330
C
102
}
330
C
100
AcDbDictionary
281
     1
  3
Layout1
350
1E
  3
Layout2
350
26
  3
Model
350
22
  0
DICTIONARY
  5
17
102
{ACAD_REACTORS
330
C
102
}
330
C
100
AcDbDictionary
281
     1
  3
Standard
350
18
  0
DICTIONARY
  5
19
102
{ACAD_REACTORS
330
C
102
}
330
C
100
AcDbDictionary
281
     1
  0
ACDBDICTIONARYWDFLT
  5
E
102
{ACAD_REACTORS
330
C
102
}
330
C
100
AcDbDictionary
281
     1
  3
Normal
350
F
100
AcDbDictionaryWithDefault
340
F
  0
DICTIONARY
  5
47
102
{ACAD_REACTORS
330
C
102
}
330
C
100
AcDbDictionary
281
     1
  3
A0
350
48
  3
A1
350
49
  3
A2
350
4A
  3
A3
350
4B
  3
A4
350
4C
  3
A5
350
4D
  3
A6
350
4E
  3
A7
350
4F
  3
A8
350
50
  3
A9
350
51
  3
B0
350
52
  3
B1
350
53
  3
B2
350
54
  3
B3
350
55
  3
B4
350
56
  3
B5
350
57
  3
B6
350
58
  0
XRECORD
  5
220
102
{ACAD_REACTORS
330
C
102
}
330
C
100
AcDbXrecord
280
     1
  1
DWGPROPS COOKIE
  2

  3

  4

  6

  7

  8
fue-task
  9

300
=
301
=
302
=
303
=
304
=
305
=
306
=
307
=
308
=
309
=
 40
0.0
 41
2460293.399327072
 42
2460293.399329236
  1

 90
        0
  0
LAYOUT
  5
1E
102
{ACAD_REACTORS
330
1A
102
}
330
1A
100
AcDbPlotSettings
  1

  2
none_device
  4

  6

 40
0.0
 41
0.0
 42
0.0
 43
0.0
 44
0.0
 45
0.0
 46
0.0
 47
0.0
 48
0.0
 49
0.0
140
0.0
141
0.0
142
1.0
143
1.0
 70
   688
 72
     1
 73
     0
 74
     5
  7

 75
    16
147
1.0
148
0.0
149
0.0
100
AcDbLayout
  1
Layout1
 70
     1
 71
     1
 10
0.0
 20
0.0
 11
420.0
 21
297.0
 12
0.0
 22
0.0
 32
0.0
 14
1.0000000000E+20
 24
1.0000000000E+20
 34
1.0000000000E+20
 15
-1.0000000000E+20
 25
-1.0000000000E+20
 35
-1.0000000000E+20
146
0.0
 13
0.0
 23
0.0
 33
0.0
 16
1.0
 26
0.0
 36
0.0
 17
0.0
 27
1.0
 37
0.0
 76
     0
330
1B
  0
LAYOUT
  5
26
102
{ACAD_REACTORS
330
1A
102
}
330
1A
100
AcDbPlotSettings
  1

  2
none_device
  4

  6

 40
0.0
 41
0.0
 42
0.0
 43
0.0
 44
0.0
 45
0.0
 46
0.0
 47
0.0
 48
0.0
 49
0.0
140
0.0
141
0.0
142
1.0
143
1.0
 70
   688
 72
     1
 73
     0
 74
     5
  7

 75
    16
147
1.0
148
0.0
149
0.0
100
AcDbLayout
  1
Layout2
 70
     1
 71
     2
 10
0.0
 20
0.0
 11
0.0
 21
0.0
 12
0.0
 22
0.0
 32
0.0
 14
0.0
 24
0.0
 34
0.0
 15
0.0
 25
0.0
 35
0.0
146
0.0
 13
0.0
 23
0.0
 33
0.0
 16
1.0
 26
0.0
 36
0.0
 17
0.0
 27
1.0
 37
0.0
 76
     0
330
23
  0
LAYOUT
  5
22
102
{ACAD_REACTORS
330
1A
102
}
330
1A
100
AcDbPlotSettings
  1

  2
none_device
  4
Letter_(8.50_x_11.00_Inches)
  6

 40
6.35
 41
6.35
 42
6.35000508
 43
6.35000508
 44
215.9
 45
279.4
 46
0.0
 47
0.0
 48
0.0
 49
0.0
140
0.0
141
0.0
142
1.0
143
1.0
 70
  1712
 72
     1
 73
     0
 74
     0
  7

 75
     0
147
1.0
148
0.0
149
0.0
100
AcDbLayout
  1
Model
 70
     1
 71
     0
 10
0.0
 20
0.0
 11
594.0
 21
841.0
 12
0.0
 22
0.0
 32
0.0
 14
0.0
 24
0.0
 34
0.0
 15
594.0
 25
841.0
 35
0.0
146
0.0
 13
0.0
 23
0.0
 33
0.0
 16
1.0
 26
0.0
 36
0.0
 17
0.0
 27
1.0
 37
0.0
 76
     0
330
1F
331
29
  0
MLINESTYLE
  5
18
102
{ACAD_REACTORS
330
17
102
}
330
17
100
AcDbMlineStyle
  2
Standard
 70
     0
  3

 62
   256
 51
90.0
 52
90.0
 71
     2
 49
0.5
 62
   256
  6
BYLAYER
 49
-0.5
 62
   256
  6
BYLAYER
  0
ACDBPLACEHOLDER
  5
F
102
{ACAD_REACTORS
330
E
102
}
330
E
  0
SCALE
  5
48
102
{ACAD_REACTORS
330
47
102
}
330
47
100
AcDbScale
 70
     0
300
1:1
140
1.0
141
1.0
290
     1
  0
SCALE
  5
49
102
{ACAD_REACTORS
330
47
102
}
330
47
100
AcDbScale
 70
     0
300
1:2
140
1.0
141
2.0
290
     0
  0
SCALE
  5
4A
102
{ACAD_REACTORS
330
47
102
}
330
47
100
AcDbScale
 70
     0
300
1:4
140
1.0
141
4.0
290
     0
  0
SCALE
  5
4B
102
{ACAD_REACTORS
330
47
102
}
330
47
100
AcDbScale
 70
     0
300
1:5
140
1.0
141
5.0
290
     0
  0
SCALE
  5
4C
102
{ACAD_REACTORS
330
47
102
}
330
47
100
AcDbScale
 70
     0
300
1:8
140
1.0
141
8.0
290
     0
  0
SCALE
  5
4D
102
{ACAD_REACTORS
330
47
102
}
330
47
100
AcDbScale
 70
     0
300
1:10
140
1.0
141
10.0
290
     0
  0
SCALE
  5
4E
102
{ACAD_REACTORS
330
47
102
}
330
47
100
AcDbScale
 70
     0
300
1:16
140
1.0
141
16.0
290
     0
  0
SCALE
  5
4F
102
{ACAD_REACTORS
330
47
102
}
330
47
100
AcDbScale
 70
     0
300
1:20
140
1.0
141
20.0
290
     0
  0
SCALE
  5
50
102
{ACAD_REACTORS
330
47
102
}
330
47
100
AcDbScale
 70
     0
300
1:30
140
1.0
141
30.0
290
     0
  0
SCALE
  5
51
102
{ACAD_REACTORS
330
47
102
}
330
47
100
AcDbScale
 70
     0
300
1:40
140
1.0
141
40.0
290
     0
  0
SCALE
  5
52
102
{ACAD_REACTORS
330
47
102
}
330
47
100
AcDbScale
 70
     0
300
1:50
140
1.0
141
50.0
290
     0
  0
SCALE
  5
53
102
{ACAD_REACTORS
330
47
102
}
330
47
100
AcDbScale
 70
     0
300
1:100
140
1.0
141
100.0
290
     0
  0
SCALE
  5
54
102
{ACAD_REACTORS
330
47
102
}
330
47
100
AcDbScale
 70
     0
300
2:1
140
2.0
141
1.0
290
     0
  0
SCALE
  5
55
102
{ACAD_REACTORS
330
47
102
}
330
47
100
AcDbScale
 70
     0
300
4:1
140
4.0
141
1.0
290
     0
  0
SCALE
  5
56
102
{ACAD_REACTORS
330
47
102
}
330
47
100
AcDbScale
 70
     0
300
8:1
140
8.0
141
1.0
290
     0
  0
SCALE
  5
57
102
{ACAD_REACTORS
330
47
102
}
330
47
100
AcDbScale
 70
     0
300
10:1
140
10.0
141
1.0
290
     0
  0
SCALE
  5
58
102
{ACAD_REACTORS
330
47
102
}
330
47
100
AcDbScale
 70
     0
300
100:1
140
100.0
141
1.0
290
     0
  0
ENDSEC
  0
EOF
