  0
SECTION
  2
HEADER
  9
$ACADVER
  1
AC1015
  9
$ACADMAINTVER
 70
     6
  9
$DWGCODEPAGE
  3
ANSI_1252
  9
$INSBASE
 10
0.0
 20
0.0
 30
0.0
  9
$EXTMIN
 10
0.0
 20
0.0
 30
0.0
  9
$EXTMAX
 10
841.0
 20
594.0
 30
0.0
  9
$LIMMIN
 10
0.0
 20
0.0
  9
$LIMMAX
 10
841.0
 20
594.0
  9
$ORTHOMODE
 70
     0
  9
$REGENMODE
 70
     1
  9
$FILLMODE
 70
     1
  9
$QTEXTMODE
 70
     0
  9
$MIRRTEXT
 70
     1
  9
$LTSCALE
 40
1.0
  9
$ATTMODE
 70
     1
  9
$TEXTSIZE
 40
10.0
  9
$TRACEWID
 40
1.0
  9
$TEXTSTYLE
  7
Standard
  9
$CLAYER
  8
0
  9
$CELTYPE
  6
ByLayer
  9
$CECOLOR
 62
   256
  9
$CELTSCALE
 40
1.0
  9
$DISPSILH
 70
     0
  9
$DIMSCALE
 40
1.0
  9
$DIMASZ
 40
2.5
  9
$DIMEXO
 40
0.0
  9
$DIMDLI
 40
3.75
  9
$DIMRND
 40
0.0
  9
$DIMDLE
 40
0.0
  9
$DIMEXE
 40
1.0
  9
$DIMTP
 40
0.0
  9
$DIMTM
 40
0.0
  9
$DIMTXT
 40
3.5
  9
$DIMCEN
 40
2.5
  9
$DIMTSZ
 40
0.0
  9
$DIMTOL
 70
     0
  9
$DIMLIM
 70
     0
  9
$DIMTIH
 70
     1
  9
$DIMTOH
 70
     1
  9
$DIMSE1
 70
     0
  9
$DIMSE2
 70
     0
  9
$DIMTAD
 70
     1
  9
$DIMZIN
 70
     0
  9
$DIMBLK
  1

  9
$DIMASO
 70
     1
  9
$DIMSHO
 70
     1
  9
$DIMPOST
  1

  9
$DIMAPOST
  1

  9
$DIMALT
 70
     0
  9
$DIMALTD
 70
     3
  9
$DIMALTF
 40
0.0393700787
  9
$DIMLFAC
 40
1.0
  9
$DIMTOFL
 70
     1
  9
$DIMTVP
 40
0.0
  9
$DIMTIX
 70
     0
  9
$DIMSOXD
 70
     0
  9
$DIMSAH
 70
     0
  9
$DIMBLK1
  1

  9
$DIMBLK2
  1

  9
$DIMSTYLE
  2
ISO-25
  9
$DIMCLRD
 70
     0
  9
$DIMCLRE
 70
     0
  9
$DIMCLRT
 70
     0
  9
$DIMTFAC
 40
1.0
  9
$DIMGAP
 40
1.5
  9
$DIMJUST
 70
     0
  9
$DIMSD1
 70
     0
  9
$DIMSD2
 70
     0
  9
$DIMTOLJ
 70
     0
  9
$DIMTZIN
 70
     0
  9
$DIMALTZ
 70
     0
  9
$DIMALTTZ
 70
     0
  9
$DIMUPT
 70
     0
  9
$DIMDEC
 70
     2
  9
$DIMTDEC
 70
     2
  9
$DIMALTU
 70
     2
  9
$DIMALTTD
 70
     3
  9
$DIMTXSTY
  7
Standard
  9
$DIMAUNIT
 70
     0
  9
$DIMADEC
 70
     2
  9
$DIMALTRND
 40
0.0
  9
$DIMAZIN
 70
     0
  9
$DIMDSEP
 70
    44
  9
$DIMATFIT
 70
     3
  9
$DIMFRAC
 70
     0
  9
$DIMLDRBLK
  1

  9
$DIMLUNIT
 70
     2
  9
$DIMLWD
 70
    -2
  9
$DIMLWE
 70
    -2
  9
$DIMTMOVE
 70
     0
  9
$LUNITS
 70
     2
  9
$LUPREC
 70
     2
  9
$SKETCHINC
 40
1.0
  9
$FILLETRAD
 40
0.0
  9
$AUNITS
 70
     0
  9
$AUPREC
 70
     2
  9
$MENU
  1
.
  9
$ELEVATION
 40
0.0
  9
$PELEVATION
 40
0.0
  9
$THICKNESS
 40
0.0
  9
$LIMCHECK
 70
     0
  9
$CHAMFERA
 40
0.0
  9
$CHAMFERB
 40
0.0
  9
$CHAMFERC
 40
0.0
  9
$CHAMFERD
 40
0.0
  9
$SKPOLY
 70
     0
  9
$TDCREATE
 40
2460507.489509132
  9
$TDUCREATE
 40
2460507.406175799
  9
$TDUPDATE
 40
2460507.489510209
  9
$TDUUPDATE
 40
2460507.406176875
  9
$TDINDWG
 40
0.0000000116
  9
$TDUSRTIMER
 40
0.0000000116
  9
$USRTIMER
 70
     1
  9
$ANGBASE
 50
0.0
  9
$ANGDIR
 70
     0
  9
$PDMODE
 70
     0
  9
$PDSIZE
 40
-1.0
  9
$PLINEWID
 40
0.0
  9
$SPLFRAME
 70
     0
  9
$SPLINETYPE
 70
     6
  9
$SPLINESEGS
 70
     8
  9
$HANDSEED
  5
1B9
  9
$SURFTAB1
 70
     6
  9
$SURFTAB2
 70
     6
  9
$SURFTYPE
 70
     6
  9
$SURFU
 70
     6
  9
$SURFV
 70
     6
  9
$UCSBASE
  2

  9
$UCSNAME
  2

  9
$UCSORG
 10
0.0
 20
0.0
 30
0.0
  9
$UCSXDIR
 10
1.0
 20
0.0
 30
0.0
  9
$UCSYDIR
 10
0.0
 20
1.0
 30
0.0
  9
$UCSORTHOREF
  2

  9
$UCSORTHOVIEW
 70
     0
  9
$UCSORGTOP
 10
0.0
 20
0.0
 30
0.0
  9
$UCSORGBOTTOM
 10
0.0
 20
0.0
 30
0.0
  9
$UCSORGLEFT
 10
0.0
 20
0.0
 30
0.0
  9
$UCSORGRIGHT
 10
0.0
 20
0.0
 30
0.0
  9
$UCSORGFRONT
 10
0.0
 20
0.0
 30
0.0
  9
$UCSORGBACK
 10
0.0
 20
0.0
 30
0.0
  9
$PUCSBASE
  2

  9
$PUCSNAME
  2

  9
$PUCSORG
 10
0.0
 20
0.0
 30
0.0
  9
$PUCSXDIR
 10
1.0
 20
0.0
 30
0.0
  9
$PUCSYDIR
 10
0.0
 20
1.0
 30
0.0
  9
$PUCSORTHOREF
  2

  9
$PUCSORTHOVIEW
 70
     0
  9
$PUCSORGTOP
 10
0.0
 20
0.0
 30
0.0
  9
$PUCSORGBOTTOM
 10
0.0
 20
0.0
 30
0.0
  9
$PUCSORGLEFT
 10
0.0
 20
0.0
 30
0.0
  9
$PUCSORGRIGHT
 10
0.0
 20
0.0
 30
0.0
  9
$PUCSORGFRONT
 10
0.0
 20
0.0
 30
0.0
  9
$PUCSORGBACK
 10
0.0
 20
0.0
 30
0.0
  9
$USERI1
 70
     0
  9
$USERI2
 70
     0
  9
$USERI3
 70
     0
  9
$USERI4
 70
     0
  9
$USERI5
 70
     0
  9
$USERR1
 40
0.0
  9
$USERR2
 40
0.0
  9
$USERR3
 40
0.0
  9
$USERR4
 40
0.0
  9
$USERR5
 40
0.0
  9
$WORLDVIEW
 70
     1
  9
$SHADEDGE
 70
     3
  9
$SHADEDIF
 70
    70
  9
$TILEMODE
 70
     1
  9
$MAXACTVP
 70
    64
  9
$PINSBASE
 10
0.0
 20
0.0
 30
0.0
  9
$PLIMCHECK
 70
     0
  9
$PEXTMIN
 10
1.0000000000E+20
 20
1.0000000000E+20
 30
1.0000000000E+20
  9
$PEXTMAX
 10
-1.0000000000E+20
 20
-1.0000000000E+20
 30
-1.0000000000E+20
  9
$PLIMMIN
 10
0.0
 20
0.0
  9
$PLIMMAX
 10
420.0
 20
297.0
  9
$UNITMODE
 70
     0
  9
$VISRETAIN
 70
     1
  9
$PLINEGEN
 70
     0
  9
$PSLTSCALE
 70
     1
  9
$TREEDEPTH
 70
  3020
  9
$CMLSTYLE
  2
Standard
  9
$CMLJUST
 70
     0
  9
$CMLSCALE
 40
20.0
  9
$PROXYGRAPHICS
 70
     1
  9
$MEASUREMENT
 70
     1
  9
$CELWEIGHT
370
    -1
  9
$ENDCAPS
280
     0
  9
$JOINSTYLE
280
     0
  9
$LWDISPLAY
290
     1
  9
$INSUNITS
 70
     4
  9
$HYPERLINKBASE
  1

  9
$STYLESHEET
  1

  9
$XEDIT
290
     1
  9
$CEPSNTYPE
380
     0
  9
$PSTYLEMODE
290
     1
  9
$FINGERPRINTGUID
  2
{35e876a0-9c77-40f0-bc2d-128b2932dec7}
  9
$VERSIONGUID
  2
{FAEB1C32-E019-11D5-929B-00C0DF256EC4}
  9
$EXTNAMES
290
     1
  9
$PSVPSCALE
 40
0.0
  9
$OLESTARTUP
290
     0
  0
ENDSEC
  0
SECTION
  2
CLASSES
  0
CLASS
  1
ACDBDICTIONARYWDFLT
  2
AcDbDictionaryWithDefault
  3
ObjectDBX Classes
 90
        0
280
     0
281
     0
  0
CLASS
  1
VISUALSTYLE
  2
AcDbVisualStyle
  3
ObjectDBX Classes
 90
     4095
280
     0
281
     0
  0
CLASS
  1
MATERIAL
  2
AcDbMaterial
  3
ObjectDBX Classes
 90
     1153
280
     0
281
     0
  0
CLASS
  1
SCALE
  2
AcDbScale
  3
ObjectDBX Classes
 90
     1153
280
     0
281
     0
  0
CLASS
  1
TABLESTYLE
  2
AcDbTableStyle
  3
ObjectDBX Classes
 90
     4095
280
     0
281
     0
  0
CLASS
  1
MLEADERSTYLE
  2
AcDbMLeaderStyle
  3
ACDB_MLEADERSTYLE_CLASS
 90
     4095
280
     0
281
     0
  0
CLASS
  1
SUN
  2
AcDbSun
  3
SCENEOE
 90
     1153
280
     0
281
     0
  0
CLASS
  1
ACDBPLACEHOLDER
  2
AcDbPlaceHolder
  3
ObjectDBX Classes
 90
        0
280
     0
281
     0
  0
CLASS
  1
LAYOUT
  2
AcDbLayout
  3
ObjectDBX Classes
 90
        0
280
     0
281
     0
  0
ENDSEC
  0
SECTION
  2
TABLES
  0
TABLE
  2
VPORT
  5
8
330
0
100
AcDbSymbolTable
 70
     1
  0
VPORT
  5
29
330
8
100
AcDbSymbolTableRecord
100
AcDbViewportTableRecord
  2
*Active
 70
     0
 10
0.0
 20
0.0
 11
1.0
 21
1.0
 12
420.5
 22
297.0
 13
0.0
 23
0.0
 14
10.0
 24
10.0
 15
10.0
 25
10.0
 16
0.0
 26
0.0
 36
1.0
 17
0.0
 27
0.0
 37
0.0
 40
594.0
 41
1.4158249158
 42
50.0
 43
0.0
 44
0.0
 50
0.0
 51
0.0
 71
     0
 72
  2000
 73
     1
 74
     3
 75
     0
 76
     0
 77
     0
 78
     0
281
     0
 65
     1
110
0.0
120
0.0
130
0.0
111
1.0
121
0.0
131
0.0
112
0.0
122
1.0
132
0.0
 79
     0
146
0.0
  0
ENDTAB
  0
TABLE
  2
LTYPE
  5
5
330
0
100
AcDbSymbolTable
 70
     6
  0
LTYPE
  5
14
330
5
100
AcDbSymbolTableRecord
100
AcDbLinetypeTableRecord
  2
ByBlock
 70
     0
  3

 72
    65
 73
     0
 40
0.0
  0
LTYPE
  5
15
330
5
100
AcDbSymbolTableRecord
100
AcDbLinetypeTableRecord
  2
ByLayer
 70
     0
  3

 72
    65
 73
     0
 40
0.0
  0
LTYPE
  5
16
330
5
100
AcDbSymbolTableRecord
100
AcDbLinetypeTableRecord
  2
Continuous
 70
     0
  3
Solid line
 72
    65
 73
     0
 40
0.0
  0
LTYPE
  5
5E
330
5
100
AcDbSymbolTableRecord
100
AcDbLinetypeTableRecord
  2
HIDDEN
 70
     0
  3
Hidden __ __ __ __ __ __ __ __ __ __ __ __ __ __
 72
    65
 73
     2
 40
1.905
 49
1.27
 74
     0
 49
-0.635
 74
     0
  0
LTYPE
  5
5F
330
5
100
AcDbSymbolTableRecord
100
AcDbLinetypeTableRecord
  2
PHANTOM
 70
     0
  3
Phantom ______  __  __  ______  __  __  ______
 72
    65
 73
     6
 40
12.7
 49
6.35
 74
     0
 49
-1.27
 74
     0
 49
1.27
 74
     0
 49
-1.27
 74
     0
 49
1.27
 74
     0
 49
-1.27
 74
     0
  0
LTYPE
  5
60
330
5
100
AcDbSymbolTableRecord
100
AcDbLinetypeTableRecord
  2
CENTER
 70
     0
  3
Center ____ _ ____ _ ____ _ ____ _ ____ _ ____
 72
    65
 73
     4
 40
10.16
 49
6.35
 74
     0
 49
-1.27
 74
     0
 49
1.27
 74
     0
 49
-1.27
 74
     0
  0
LTYPE
  5
61
330
5
100
AcDbSymbolTableRecord
100
AcDbLinetypeTableRecord
  2
CENTERX2
 70
     0
  3
Center (2x) ________  __  ________  __  _____
 72
    65
 73
     4
 40
20.32
 49
12.7
 74
     0
 49
-2.54
 74
     0
 49
2.54
 74
     0
 49
-2.54
 74
     0
  0
LTYPE
  5
62
330
5
100
AcDbSymbolTableRecord
100
AcDbLinetypeTableRecord
  2
DOT2
 70
     0
  3
Dot (.5x) ........................................
 72
    65
 73
     2
 40
0.635
 49
0.0
 74
     0
 49
-0.635
 74
     0
  0
ENDTAB
  0
TABLE
  2
LAYER
  5
2
330
0
100
AcDbSymbolTable
 70
     1
  0
LAYER
  5
10
330
2
100
AcDbSymbolTableRecord
100
AcDbLayerTableRecord
  2
0
 70
     0
 62
     7
  6
Continuous
370
    -3
390
F
  0
ENDTAB
  0
TABLE
  2
STYLE
  5
3
330
0
100
AcDbSymbolTable
 70
     3
  0
STYLE
  5
11
330
3
100
AcDbSymbolTableRecord
100
AcDbTextStyleTableRecord
  2
Standard
 70
     0
 40
0.0
 41
1.0
 50
0.0
 71
     0
 42
10.0
  3
txt
  4

  0
STYLE
  5
66
330
3
100
AcDbSymbolTableRecord
100
AcDbTextStyleTableRecord
  2
SLDTEXTSTYLE0
 70
     0
 40
0.0
 41
0.96
 50
0.0
 71
     0
 42
10.0
  3
ISOCP3
  4

  0
STYLE
  5
7D
330
3
100
AcDbSymbolTableRecord
100
AcDbTextStyleTableRecord
  2
SLDTEXTSTYLE1
 70
     0
 40
0.0
 41
0.605
 50
0.0
 71
     0
 42
10.0
  3
TXT
  4

  0
ENDTAB
  0
TABLE
  2
VIEW
  5
6
330
0
100
AcDbSymbolTable
 70
     0
  0
ENDTAB
  0
TABLE
  2
UCS
  5
7
330
0
100
AcDbSymbolTable
 70
     0
  0
ENDTAB
  0
TABLE
  2
APPID
  5
9
330
0
100
AcDbSymbolTable
 70
     1
  0
APPID
  5
12
330
9
100
AcDbSymbolTableRecord
100
AcDbRegAppTableRecord
  2
ACAD
 70
     0
  0
ENDTAB
  0
TABLE
  2
DIMSTYLE
  5
A
330
0
100
AcDbSymbolTable
 70
     2
100
AcDbDimStyleTable
  0
DIMSTYLE
105
27
330
A
100
AcDbSymbolTableRecord
100
AcDbDimStyleTableRecord
  2
ISO-25
 70
     0
 41
2.5
 42
0.625
 43
3.75
 44
1.25
 73
     0
 74
     0
 77
     1
 78
     8
140
2.5
141
2.5
143
0.0393700787
147
0.625
171
     3
172
     1
178
     0
271
     2
272
     2
274
     3
278
    44
283
     0
284
     8
340
11
  0
DIMSTYLE
105
67
102
{ACAD_REACTORS
330
65
330
72
102
}
330
A
100
AcDbSymbolTableRecord
100
AcDbDimStyleTableRecord
  2
SLDDIMSTYLE0
 70
     0
 41
2.5
 44
0.0
 45
0.000000001
 73
     0
 74
     0
 77
     1
 78
    12
 79
     3
140
6.0
147
1.5
173
     1
178
     0
271
     2
272
     2
276
     2
284
    12
340
66
  0
ENDTAB
  0
TABLE
  2
BLOCK_RECORD
  5
1
330
0
100
AcDbSymbolTable
 70
     3
  0
BLOCK_RECORD
  5
1F
330
1
100
AcDbSymbolTableRecord
100
AcDbBlockTableRecord
  2
*Model_Space
340
22
  0
BLOCK_RECORD
  5
1B
330
1
100
AcDbSymbolTableRecord
100
AcDbBlockTableRecord
  2
*Paper_Space
340
1E
  0
BLOCK_RECORD
  5
23
330
1
100
AcDbSymbolTableRecord
100
AcDbBlockTableRecord
  2
*Paper_Space0
340
26
  0
BLOCK_RECORD
  5
68
330
1
100
AcDbSymbolTableRecord
100
AcDbBlockTableRecord
  2
_D
340
0
  0
BLOCK_RECORD
  5
73
330
1
100
AcDbSymbolTableRecord
100
AcDbBlockTableRecord
  2
_D_1
340
0
  0
ENDTAB
  0
ENDSEC
  0
SECTION
  2
BLOCKS
  0
BLOCK
  5
20
330
1F
100
AcDbEntity
  8
0
100
AcDbBlockBegin
  2
*Model_Space
 70
     0
 10
0.0
 20
0.0
 30
0.0
  3
*Model_Space
  1

  0
ENDBLK
  5
21
330
1F
100
AcDbEntity
  8
0
100
AcDbBlockEnd
  0
BLOCK
  5
1C
330
1B
100
AcDbEntity
 67
     1
  8
0
100
AcDbBlockBegin
  2
*Paper_Space
 70
     0
 10
0.0
 20
0.0
 30
0.0
  3
*Paper_Space
  1

  0
ENDBLK
  5
1D
330
1B
100
AcDbEntity
 67
     1
  8
0
100
AcDbBlockEnd
  0
BLOCK
  5
24
330
23
100
AcDbEntity
  8
0
100
AcDbBlockBegin
  2
*Paper_Space0
 70
     0
 10
0.0
 20
0.0
 30
0.0
  3
*Paper_Space0
  1

  0
ENDBLK
  5
25
330
23
100
AcDbEntity
  8
0
100
AcDbBlockEnd
  0
BLOCK
  5
69
330
68
100
AcDbEntity
  8
0
100
AcDbBlockBegin
  2
_D
 70
     0
 10
0.0
 20
0.0
 30
0.0
  3
_D
  1

  0
SOLID
  5
6B
330
68
100
AcDbEntity
  8
0
  6
Continuous
 62
     7
370
    18
100
AcDbTrace
 10
42.7614395004
 20
152.0299240879
 30
0.0
 11
42.4614395004
 21
149.5299240879
 31
0.0
 12
43.0614395004
 22
149.5299240879
 32
0.0
 13
43.0614395004
 23
149.5299240879
 33
0.0
  0
SOLID
  5
6C
330
68
100
AcDbEntity
  8
0
  6
Continuous
 62
     7
370
    18
100
AcDbTrace
 10
42.7614395004
 20
52.0299240879
 30
0.0
 11
43.0614395004
 21
54.5299240879
 31
0.0
 12
42.4614395004
 22
54.5299240879
 32
0.0
 13
42.4614395004
 23
54.5299240879
 33
0.0
  0
LINE
  5
6D
330
68
100
AcDbEntity
  8
0
  6
Continuous
 62
     7
370
     0
100
AcDbLine
 10
56.6850079902
 20
152.0299240879
 30
0.0
 11
41.7614395004
 21
152.0299240879
 31
0.0
  0
LINE
  5
6E
330
68
100
AcDbEntity
  8
0
  6
Continuous
 62
     7
370
     0
100
AcDbLine
 10
56.6850079902
 20
52.0299240879
 30
0.0
 11
41.7614395004
 21
52.0299240879
 31
0.0
  0
LINE
  5
6F
330
68
100
AcDbEntity
  8
0
  6
Continuous
 62
     7
370
     0
100
AcDbLine
 10
42.7614395004
 20
152.0299240879
 30
0.0
 11
42.7614395004
 21
52.0299240879
 31
0.0
  0
MTEXT
  5
70
330
68
100
AcDbEntity
  8
0
  6
Continuous
 62
     7
370
    18
100
AcDbMText
 10
35.0270332946
 20
94.3680541463
 30
0.0
 40
6.0
 41
0.0
 71
     1
 72
     1
  1
100
  7
SLDTEXTSTYLE0
 11
-7.044195017643634E-15
 21
1.0
 31
0.0
 73
     1
 44
1.0
  0
MTEXT
  5
71
330
68
100
AcDbEntity
  8
0
  6
Continuous
 62
     7
370
    18
100
AcDbMText
 10
35.0270332946
 20
105.7430548466
 30
0.0
 40
6.0
 41
0.0
 71
     1
 72
     1
  1
mm
  7
SLDTEXTSTYLE0
 11
-7.044195017643634E-15
 21
1.0
 31
0.0
 73
     1
 44
1.0
  0
ENDBLK
  5
6A
330
68
100
AcDbEntity
  8
0
100
AcDbBlockEnd
  0
BLOCK
  5
74
330
73
100
AcDbEntity
  8
0
100
AcDbBlockBegin
  2
_D_1
 70
     0
 10
0.0
 20
0.0
 30
0.0
  3
_D_1
  1

  0
SOLID
  5
76
330
73
100
AcDbEntity
  8
0
  6
Continuous
 62
     7
370
    18
100
AcDbTrace
 10
56.6850079902
 20
38.4602342313
 30
0.0
 11
59.1850079902
 21
38.1602342313
 31
0.0
 12
59.1850079902
 22
38.7602342313
 32
0.0
 13
59.1850079902
 23
38.7602342313
 33
0.0
  0
SOLID
  5
77
330
73
100
AcDbEntity
  8
0
  6
Continuous
 62
     7
370
    18
100
AcDbTrace
 10
156.6850079902
 20
38.4602342313
 30
0.0
 11
154.1850079902
 21
38.7602342313
 31
0.0
 12
154.1850079902
 22
38.1602342313
 32
0.0
 13
154.1850079902
 23
38.1602342313
 33
0.0
  0
LINE
  5
78
330
73
100
AcDbEntity
  8
0
  6
Continuous
 62
     7
370
     0
100
AcDbLine
 10
56.6850079902
 20
52.0299240879
 30
0.0
 11
56.6850079902
 21
37.4602342313
 31
0.0
  0
LINE
  5
79
330
73
100
AcDbEntity
  8
0
  6
Continuous
 62
     7
370
     0
100
AcDbLine
 10
156.6850079902
 20
52.0299240879
 30
0.0
 11
156.6850079902
 21
37.4602342313
 31
0.0
  0
LINE
  5
7A
330
73
100
AcDbEntity
  8
0
  6
Continuous
 62
     7
370
     0
100
AcDbLine
 10
56.6850079902
 20
38.4602342313
 30
0.0
 11
156.6850079902
 21
38.4602342313
 31
0.0
  0
MTEXT
  5
7B
330
73
100
AcDbEntity
  8
0
  6
Continuous
 62
     7
370
    18
100
AcDbMText
 10
93.9626484861
 20
46.1946404371
 30
0.0
 40
6.0
 41
0.0
 71
     1
 72
     1
  1
100
  7
SLDTEXTSTYLE0
 73
     1
 44
1.0
  0
MTEXT
  5
7C
330
73
100
AcDbEntity
  8
0
  6
Continuous
 62
     7
370
    18
100
AcDbMText
 10
105.3376491864
 20
46.1946404371
 30
0.0
 40
6.0
 41
0.0
 71
     1
 72
     1
  1
mm
  7
SLDTEXTSTYLE0
 73
     1
 44
1.0
  0
ENDBLK
  5
75
330
73
100
AcDbEntity
  8
0
100
AcDbBlockEnd
  0
ENDSEC
  0
SECTION
  2
ENTITIES
  0
LINE
  5
63
330
1F
100
AcDbEntity
  8
0
  6
Continuous
 62
     7
370
    18
100
AcDbLine
 10
56.6850079902
 20
152.0299240879
 30
0.0
 11
56.6850079902
 21
52.0299240879
 31
0.0
  0
LINE
  5
64
330
1F
100
AcDbEntity
  8
0
  6
Continuous
 62
     7
370
    18
100
AcDbLine
 10
56.6850079902
 20
52.0299240879
 30
0.0
 11
156.6850079902
 21
52.0299240879
 31
0.0
  0
DIMENSION
  5
65
330
1F
100
AcDbEntity
  8
0
  6
Continuous
 62
     7
370
    18
100
AcDbDimension
  2
_D
 10
42.7614395004
 20
52.0299240879
 30
0.0
 11
42.7614395004
 21
105.4472211621
 31
0.0
 70
   160
  1
<>mm
 71
     2
 42
-1.0
  3
SLDDIMSTYLE0
100
AcDbAlignedDimension
 13
56.6850079902
 23
152.0299240879
 33
0.0
 14
56.6850079902
 24
52.0299240879
 34
0.0
 50
90.0
100
AcDbRotatedDimension
  0
DIMENSION
  5
72
330
1F
100
AcDbEntity
  8
0
  6
Continuous
 62
     7
370
    18
100
AcDbDimension
  2
_D_1
 10
156.6850079902
 20
38.4602342313
 30
0.0
 11
105.0418155019
 21
38.4602342313
 31
0.0
 70
   160
  1
<>mm
 71
     2
 42
-1.0
  3
SLDDIMSTYLE0
100
AcDbAlignedDimension
 13
56.6850079902
 23
52.0299240879
 33
0.0
 14
156.6850079902
 24
52.0299240879
 34
0.0
100
AcDbRotatedDimension
  0
MTEXT
  5
7E
330
1F
100
AcDbEntity
  8
0
  6
Continuous
 62
     7
370
     0
100
AcDbMText
 10
664.658399795
 20
48.4342449499
 30
0.0
 40
10.0
 41
0.0
 71
     1
 72
     1
  1
KLUDI GmbH & Co KG
  7
SLDTEXTSTYLE1
 73
     1
 44
1.0
  0
MTEXT
  5
7F
330
1F
100
AcDbEntity
  8
0
  6
Continuous
 62
     7
370
     0
100
AcDbMText
 10
349.0758972247
 20
48.4342449499
 30
0.0
 40
10.0
 41
0.0
 71
     1
 72
     1
  1
42 245 .. 75
  7
SLDTEXTSTYLE1
 73
     1
 44
1.0
  0
SPLINE
  5
80
330
1F
100
AcDbEntity
  8
0
  6
Continuous
 62
     7
370
    25
100
AcDbSpline
210
0.0
220
0.0
230
1.0
 70
     8
 71
     3
 72
    11
 73
     7
 74
     0
 42
0.00000001
 43
0.00000001
 40
0.0
 40
0.0
 40
0.0
 40
0.0
 40
0.2475190040792948
 40
0.5024140289607723
 40
0.7557671124119532
 40
1.0
 40
1.0
 40
1.0
 40
1.0
 10
201.3918643349289
 20
468.8875323178801
 30
0.0
 10
201.2979125011329
 20
468.8428512892333
 30
0.0
 10
201.1072090861717
 20
468.752157745503
 30
0.0
 10
200.9111492776801
 20
468.5143504108007
 30
0.0
 10
200.8045188129408
 20
468.2353290592392
 30
0.0
 10
200.8198563496156
 20
468.0435369897913
 30
0.0
 10
200.8273845579827
 20
467.9493986224256
 30
0.0
  0
SPLINE
  5
81
330
1F
100
AcDbEntity
  8
0
  6
Continuous
 62
     7
370
    25
100
AcDbSpline
210
0.0
220
0.0
230
1.0
 70
     8
 71
     3
 72
    11
 73
     7
 74
     0
 42
0.00000001
 43
0.00000001
 40
0.0
 40
0.0
 40
0.0
 40
0.0
 40
0.2607062856024228
 40
0.5382637929738944
 40
0.8219751726413929
 40
1.0
 40
1.0
 40
1.0
 40
1.0
 10
236.4381213098187
 20
467.9409133204264
 30
0.0
 10
236.4346106105668
 20
468.03740011889
 30
0.0
 10
236.4273622916743
 20
468.2366103143516
 30
0.0
 10
236.2948171079849
 20
468.5179302828853
 30
0.0
 10
236.1094883243548
 20
468.7342911419238
 30
0.0
 10
235.9501307662748
 20
468.8099208382952
 30
0.0
 10
235.8886896201532
 20
468.8390802661997
 30
0.0
  0
SPLINE
  5
82
330
1F
100
AcDbEntity
  8
0
  6
Continuous
 62
     7
370
    25
100
AcDbSpline
210
0.0
220
0.0
230
1.0
 70
     8
 71
     3
 72
    14
 73
    10
 74
     0
 42
0.00000001
 43
0.00000001
 40
0.0
 40
0.0
 40
0.0
 40
0.0
 40
0.1281505789134059
 40
0.2569586325892391
 40
0.3836854498932389
 40
0.5072804892619034
 40
0.7561109367444755
 40
0.8795649747528516
 40
1.0
 40
1.0
 40
1.0
 40
1.0
 10
200.82132982366
 20
457.949398682371
 30
0.0
 10
200.8497195990825
 20
457.6142139511423
 30
0.0
 10
200.9066448032754
 20
456.9421248280842
 30
0.0
 10
201.2252658856922
 20
455.9696203341433
 30
0.0
 10
201.6984094884898
 20
455.0893680497674
 30
0.0
 10
202.5276606051585
 20
454.0796307978337
 30
0.0
 10
203.6186010076994
 20
453.357938023691
 30
0.0
 10
204.8471623340248
 20
452.9910027762746
 30
0.0
 10
205.4874148542196
 20
452.9634409883902
 30
0.0
 10
205.8035783894144
 20
452.9498306830515
 30
0.0
  0
LINE
  5
83
330
1F
100
AcDbEntity
  8
0
  6
Continuous
 62
     7
370
    25
100
AcDbLine
 10
227.7979125044
 20
452.0993986824
 30
0.0
 11
227.7979125044
 21
452.9493986824
 31
0.0
  0
LINE
  5
84
330
1F
100
AcDbEntity
  8
0
  6
Continuous
 62
     7
370
    25
100
AcDbLine
 10
209.3979125044
 20
452.9493986824
 30
0.0
 11
209.3979125044
 21
452.0993986824
 31
0.0
  0
ARC
  5
85
330
1F
100
AcDbEntity
  8
0
  6
Continuous
 62
     7
370
    25
100
AcDbCircle
 10
218.5979125044
 20
454.7493986824
 30
0.0
 40
8.760000000000034
100
AcDbArc
 50
339.312319413
 51
342.3914928214
  0
LINE
  5
86
330
1F
100
AcDbEntity
  8
0
  6
Continuous
 62
     7
370
    25
100
AcDbLine
 10
207.3479125044
 20
452.9493986824
 30
0.0
 11
207.3479125044
 21
452.8993986824
 31
0.0
  0
LINE
  5
87
330
1F
100
AcDbEntity
  8
0
  6
Continuous
 62
     7
370
    25
100
AcDbLine
 10
229.8479125044
 20
452.8993986824
 30
0.0
 11
229.8479125044
 21
452.9493986824
 31
0.0
  0
LINE
  5
88
330
1F
100
AcDbEntity
  8
0
  6
Continuous
 62
     7
370
    25
100
AcDbLine
 10
323.8041132137
 20
389.6115204921
 30
0.0
 11
324.1898817175
 21
389.6108036595
 31
0.0
  0
LINE
  5
89
330
1F
100
AcDbEntity
  8
0
  6
Continuous
 62
     7
370
    25
100
AcDbLine
 10
333.0063101061
 20
389.6108036595
 30
0.0
 11
333.3916839572
 21
389.6115212337
 31
0.0
  0
SPLINE
  5
8A
330
1F
100
AcDbEntity
  8
0
  6
Continuous
 62
     7
370
    25
100
AcDbSpline
210
0.0
220
0.0
230
1.0
 70
    24
 71
     3
 72
    23
 73
    19
 74
     0
 42
0.00000001
 43
0.00000001
 40
0.0
 40
0.0
 40
0.0
 40
0.0
 40
0.0310461970488199
 40
0.0621836812647857
 40
0.0934957966487671
 40
0.1250645041097148
 40
0.1873739725607073
 40
0.25012449095503
 40
0.3126781415528316
 40
0.375220900942648
 40
0.5000204023860928
 40
0.6248199038292985
 40
0.6872808487472476
 40
0.7499163149992759
 40
0.8125850606511668
 40
0.874976296658351
 40
0.9377971086001374
 40
1.0
 40
1.0
 40
1.0
 40
1.0
 10
201.7378566657428
 20
468.9493986223553
 30
0.0
 10
201.738390784633
 20
468.9493986223553
 30
0.0
 10
201.7394605929182
 20
468.9493986223553
 30
0.0
 10
201.7539723990671
 20
468.9493986223553
 30
0.0
 10
201.777934175665
 20
468.9493986223553
 30
0.0
 10
201.8232519807905
 20
468.9493986223553
 30
0.0
 10
201.9037703964444
 20
468.9493986223553
 30
0.0
 10
202.0372035439533
 20
468.9493986223553
 30
0.0
 10
202.2055602358188
 20
468.9493986223553
 30
0.0
 10
202.4741960566178
 20
468.9493986223553
 30
0.0
 10
202.889686865909
 20
468.9493986223553
 30
0.0
 10
203.3997567668589
 20
468.9493986223553
 30
0.0
 10
203.8492919538293
 20
468.9493986223553
 30
0.0
 10
204.205142905578
 20
468.9493986223553
 30
0.0
 10
204.5752710599971
 20
468.9493986223553
 30
0.0
 10
204.9571175125877
 20
468.9493986223553
 30
0.0
 10
205.3457261168639
 20
468.9493986223553
 30
0.0
 10
205.607577877197
 20
468.9493986223553
 30
0.0
 10
205.7378566657428
 20
468.9493986223553
 30
0.0
  0
SPLINE
  5
8B
330
1F
100
AcDbEntity
  8
0
  6
Continuous
 62
     7
370
    25
100
AcDbSpline
210
0.0
220
0.0
230
1.0
 70
     8
 71
     3
 72
    10
 73
     6
 74
     0
 42
0.00000001
 43
0.00000001
 40
0.0
 40
0.0
 40
0.0
 40
0.0
 40
0.187576393946197
 40
0.5415886148301549
 40
1.0
 40
1.0
 40
1.0
 40
1.0
 10
201.7378566657383
 20
468.9493986224256
 30
0.0
 10
201.712358273498
 20
468.9487044721319
 30
0.0
 10
201.6387368617449
 20
468.9467002546065
 30
0.0
 10
201.5020081069244
 20
468.9298920101301
 30
0.0
 10
201.4017566953434
 20
468.8812683290264
 30
0.0
 10
201.3451896678647
 20
468.853832335241
 30
0.0
  0
SPLINE
  5
8C
330
1F
100
AcDbEntity
  8
0
  6
Continuous
 62
     7
370
    25
100
AcDbSpline
210
0.0
220
0.0
230
1.0
 70
     8
 71
     3
 72
    10
 73
     6
 74
     0
 42
0.00000001
 43
0.00000001
 40
0.0
 40
0.0
 40
0.0
 40
0.0
 40
0.1883341859642939
 40
0.5941670929819189
 40
0.9999999999999999
 40
0.9999999999999999
 40
0.9999999999999999
 40
0.9999999999999999
 10
201.0733722782252
 20
468.677698322793
 30
0.0
 10
201.0329299856467
 20
468.6448004505258
 30
0.0
 10
200.905340407091
 20
468.5410124259022
 30
0.0
 10
200.7733665034322
 20
468.284030233251
 30
0.0
 10
200.7496932787741
 20
468.0609424926248
 30
0.0
 10
200.7378566664451
 20
467.9493986223117
 30
0.0
  0
LINE
  5
8D
330
1F
100
AcDbEntity
  8
0
  6
Continuous
 62
     7
370
    25
100
AcDbLine
 10
205.7378566657
 20
468.9493986224
 30
0.0
 11
231.4579125141
 21
468.9493986224
 31
0.0
  0
SPLINE
  5
8E
330
1F
100
AcDbEntity
  8
0
  6
Continuous
 62
     7
370
    25
100
AcDbSpline
210
0.0
220
0.0
230
1.0
 70
    24
 71
     3
 72
    23
 73
    19
 74
     0
 42
0.00000001
 43
0.00000001
 40
0.0
 40
0.0
 40
0.0
 40
0.0
 40
0.0310461971587403
 40
0.0621836814112983
 40
0.0934957967590339
 40
0.1250645041119527
 40
0.1873739726855405
 40
0.2501244909554855
 40
0.3126781418415992
 40
0.3752209009458246
 40
0.5000204023883648
 40
0.6248199038310492
 40
0.6872808485693782
 40
0.749916314998861
 40
0.8125850605073057
 40
0.87497629665898
 40
0.9377971086133507
 40
1.0
 40
1.0
 40
1.0
 40
1.0
 10
231.4579125141329
 20
468.9493986223553
 30
0.0
 10
231.5229074087895
 20
468.9493986223553
 30
0.0
 10
231.6530883066954
 20
468.9493986223553
 30
0.0
 10
231.8483771270897
 20
468.9493986223553
 30
0.0
 10
232.0437716147425
 20
468.9493986223553
 30
0.0
 10
232.3019585361864
 20
468.9493986223553
 30
0.0
 10
232.620346991386
 20
468.9493986223553
 30
0.0
 10
232.9903065498133
 20
468.9493986223553
 30
0.0
 10
233.3463256823364
 20
468.9493986223553
 30
0.0
 10
233.7958784145716
 20
468.9493986223553
 30
0.0
 10
234.3060841167942
 20
468.9493986223553
 30
0.0
 10
234.7214590803709
 20
468.9493986223553
 30
0.0
 10
234.9901369017765
 20
468.9493986223553
 30
0.0
 10
235.1583989553675
 20
468.9493986223553
 30
0.0
 10
235.2920798676565
 20
468.9493986223553
 30
0.0
 10
235.3880651518562
 20
468.9493986223553
 30
0.0
 10
235.4487569518953
 20
468.9493986223553
 30
0.0
 10
235.4548707323589
 20
468.9493986223553
 30
0.0
 10
235.4579125141329
 20
468.9493986223553
 30
0.0
  0
SPLINE
  5
8F
330
1F
100
AcDbEntity
  8
0
  6
Continuous
 62
     7
370
    25
100
AcDbSpline
210
0.0
220
0.0
230
1.0
 70
     8
 71
     3
 72
     9
 73
     5
 74
     0
 42
0.00000001
 43
0.00000001
 40
0.0
 40
0.0
 40
0.0
 40
0.0
 40
0.6627073272118612
 40
1.0
 40
1.0
 40
1.0
 40
1.0
 10
236.4579124752424
 20
467.9493986019236
 30
0.0
 10
236.450872650938
 20
468.0638556559208
 30
0.0
 10
236.4402498254231
 20
468.2365669710026
 30
0.0
 10
236.3493600532738
 20
468.3811222945591
 30
0.0
 10
236.3187035990965
 20
468.4298797460073
 30
0.0
  0
SPLINE
  5
90
330
1F
100
AcDbEntity
  8
0
  6
Continuous
 62
     7
370
    25
100
AcDbSpline
210
0.0
220
0.0
230
1.0
 70
     8
 71
     3
 72
    10
 73
     6
 74
     0
 42
0.00000001
 43
0.00000001
 40
0.0
 40
0.0
 40
0.0
 40
0.0
 40
0.5076671638412127
 40
0.8294832905568529
 40
0.9999999999999999
 40
0.9999999999999999
 40
0.9999999999999999
 40
0.9999999999999999
 10
235.8883683949787
 20
468.8382988125439
 30
0.0
 10
235.8195618275607
 20
468.8720644898021
 30
0.0
 10
235.7071379758347
 20
468.9272346230604
 30
0.0
 10
235.5570609215589
 20
468.9467926708896
 30
0.0
 10
235.4834182420777
 20
468.948728246633
 30
0.0
 10
235.4579125141282
 20
468.9493986224081
 30
0.0
  0
LINE
  5
91
330
1F
100
AcDbEntity
  8
0
  6
Continuous
 62
     7
370
    25
100
AcDbLine
 10
236.3703212344
 20
467.9493986224
 30
0.0
 11
236.4579125142
 21
467.9493986224
 31
0.0
  0
LINE
  5
92
330
1F
100
AcDbEntity
  8
0
  6
Continuous
 62
     7
370
    25
100
AcDbLine
 10
200.7378566657
 20
457.9493986823
 30
0.0
 11
200.7378567633
 21
467.9493986223
 31
0.0
  0
LINE
  5
93
330
1F
100
AcDbEntity
  8
0
  6
Continuous
 62
     7
370
    25
100
AcDbLine
 10
236.4579124751
 20
467.9493986019
 30
0.0
 11
236.4579125727
 21
457.9493986823
 31
0.0
  0
LINE
  5
94
330
1F
100
AcDbEntity
  8
0
  6
Continuous
 62
     7
370
    25
100
AcDbLine
 10
231.4579125142
 20
452.9493986824
 30
0.0
 11
205.7378566657
 21
452.9493986824
 31
0.0
  0
ARC
  5
95
330
1F
100
AcDbEntity
  8
0
  6
Continuous
 62
     7
370
    25
100
AcDbCircle
 10
231.4579125142
 20
457.9493986823
 30
0.0
 40
4.999999999923261
100
AcDbArc
 50
269.9999999996
 51
0.0
  0
LINE
  5
96
330
1F
100
AcDbEntity
  8
0
  6
Continuous
 62
     7
370
    25
100
AcDbLine
 10
217.0876858309
 20
452.9493986824
 30
0.0
 11
217.0876858309
 21
452.8993986824
 31
0.0
  0
LINE
  5
97
330
1F
100
AcDbEntity
  8
0
  6
Continuous
 62
     7
370
    25
100
AcDbLine
 10
216.8989074967
 20
452.8993986824
 30
0.0
 11
217.0876858309
 21
452.8993986824
 31
0.0
  0
LINE
  5
98
330
1F
100
AcDbEntity
  8
0
  6
Continuous
 62
     7
370
    25
100
AcDbLine
 10
216.8989074967
 20
452.9493986824
 30
0.0
 11
216.8989074967
 21
452.8993986824
 31
0.0
  0
LINE
  5
99
330
1F
100
AcDbEntity
  8
0
  6
Continuous
 62
     7
370
    25
100
AcDbLine
 10
216.8989074967
 20
452.8993986824
 30
0.0
 11
214.7731588047
 21
452.8993986824
 31
0.0
  0
LINE
  5
9A
330
1F
100
AcDbEntity
  8
0
  6
Continuous
 62
     7
370
    25
100
AcDbLine
 10
214.7731588047
 20
452.8993986824
 30
0.0
 11
214.7731588047
 21
452.9493986824
 31
0.0
  0
LINE
  5
9B
330
1F
100
AcDbEntity
  8
0
  6
Continuous
 62
     7
370
    25
100
AcDbLine
 10
227.3794489626
 20
452.8993986824
 30
0.0
 11
222.4951975759
 21
452.8993986824
 31
0.0
  0
LINE
  5
9C
330
1F
100
AcDbEntity
  8
0
  6
Continuous
 62
     7
370
    25
100
AcDbLine
 10
222.4951975759
 20
452.8993986824
 30
0.0
 11
222.4951975759
 21
452.9493986824
 31
0.0
  0
LINE
  5
9D
330
1F
100
AcDbEntity
  8
0
  6
Continuous
 62
     7
370
    25
100
AcDbLine
 10
227.3794489626
 20
452.9493986824
 30
0.0
 11
227.3794489626
 21
452.8993986824
 31
0.0
  0
LINE
  5
9E
330
1F
100
AcDbEntity
  8
0
  6
Continuous
 62
     7
370
    25
100
AcDbLine
 10
222.0621659013
 20
452.8993986824
 30
0.0
 11
222.4951975759
 21
452.8993986824
 31
0.0
  0
LINE
  5
9F
330
1F
100
AcDbEntity
  8
0
  6
Continuous
 62
     7
370
    25
100
AcDbLine
 10
222.0621659013
 20
452.9493986824
 30
0.0
 11
222.0621659013
 21
452.8993986824
 31
0.0
  0
LINE
  5
A0
330
1F
100
AcDbEntity
  8
0
  6
Continuous
 62
     7
370
    25
100
AcDbLine
 10
213.7368907891
 20
452.8993986824
 30
0.0
 11
213.7368907891
 21
452.9493986824
 31
0.0
  0
LINE
  5
A1
330
1F
100
AcDbEntity
  8
0
  6
Continuous
 62
     7
370
    25
100
AcDbLine
 10
213.2226602466
 20
452.9493986824
 30
0.0
 11
213.2226602466
 21
452.8993986824
 31
0.0
  0
LINE
  5
A2
330
1F
100
AcDbEntity
  8
0
  6
Continuous
 62
     7
370
    25
100
AcDbLine
 10
213.2226602466
 20
452.8993986824
 30
0.0
 11
213.7368907891
 21
452.8993986824
 31
0.0
  0
LINE
  5
A3
330
1F
100
AcDbEntity
  8
0
  6
Continuous
 62
     7
370
    25
100
AcDbLine
 10
211.4070664438
 20
452.8993986824
 30
0.0
 11
211.4070664438
 21
452.9493986824
 31
0.0
  0
LINE
  5
A4
330
1F
100
AcDbEntity
  8
0
  6
Continuous
 62
     7
370
    25
100
AcDbLine
 10
213.2226602466
 20
452.8993986824
 30
0.0
 11
211.4070664438
 21
452.8993986824
 31
0.0
  0
LINE
  5
A5
330
1F
100
AcDbEntity
  8
0
  6
Continuous
 62
     7
370
    25
100
AcDbLine
 10
210.0271585945
 20
452.0993986824
 30
0.0
 11
209.3979125044
 21
452.0993986824
 31
0.0
  0
LINE
  5
A6
330
1F
100
AcDbEntity
  8
0
  6
Continuous
 62
     7
370
    25
100
AcDbLine
 10
227.7979125044
 20
452.0993986824
 30
0.0
 11
210.0271585945
 21
452.0993986824
 31
0.0
  0
LWPOLYLINE
  5
A7
330
1F
100
AcDbEntity
  8
0
  6
Continuous
 62
     7
370
    25
100
AcDbPolyline
 90
       15
 70
   128
 43
0.0
 10
210.7539961906
 20
452.0993986824
 10
211.5691450771
 20
451.8617695759
 10
212.6772006543
 20
451.6353312311
 10
214.0310896323
 20
451.4297033803
 10
215.5732950326
 20
451.2536216679
 10
217.2382996704
 20
451.1145665359
 10
218.9553695066
 20
451.018445434
 10
220.6515586277
 20
450.9693418546
 10
222.2548081908
 20
450.9693418546
 10
223.6970076848
 20
451.018445434
 10
224.9168884544
 20
451.1145665359
 10
225.8626265635
 20
451.2536216679
 10
226.4940444208
 20
451.4297033803
 10
226.7843176351
 20
451.6353312311
 10
226.7930678039
 20
451.6547210551
  0
LINE
  5
A8
330
1F
100
AcDbEntity
  8
0
  6
Continuous
 62
     7
370
    25
100
AcDbLine
 10
208.1173710385
 20
452.8993986824
 30
0.0
 11
207.3479125044
 21
452.8993986824
 31
0.0
  0
LINE
  5
A9
330
1F
100
AcDbEntity
  8
0
  6
Continuous
 62
     7
370
    25
100
AcDbLine
 10
208.1173710385
 20
452.9493986824
 30
0.0
 11
208.1173710385
 21
452.8993986824
 31
0.0
  0
LINE
  5
AA
330
1F
100
AcDbEntity
  8
0
  6
Continuous
 62
     7
370
    25
100
AcDbLine
 10
209.2818756458
 20
452.9493986824
 30
0.0
 11
209.2818756458
 21
452.8993986824
 31
0.0
  0
LINE
  5
AB
330
1F
100
AcDbEntity
  8
0
  6
Continuous
 62
     7
370
    25
100
AcDbLine
 10
208.1173710385
 20
452.8993986824
 30
0.0
 11
209.2818756458
 21
452.8993986824
 31
0.0
  0
LINE
  5
AC
330
1F
100
AcDbEntity
  8
0
  6
Continuous
 62
     7
370
    25
100
AcDbLine
 10
229.6860436365
 20
452.8993986824
 30
0.0
 11
229.6860436365
 21
452.9493986824
 31
0.0
  0
LINE
  5
AD
330
1F
100
AcDbEntity
  8
0
  6
Continuous
 62
     7
370
    25
100
AcDbLine
 10
229.8479125044
 20
452.8993986824
 30
0.0
 11
229.6860436365
 21
452.8993986824
 31
0.0
  0
LINE
  5
AE
330
1F
100
AcDbEntity
  8
0
  6
Continuous
 62
     7
370
    25
100
AcDbLine
 10
228.4540290663
 20
452.9493986824
 30
0.0
 11
228.4540290663
 21
452.8993986824
 31
0.0
  0
LINE
  5
AF
330
1F
100
AcDbEntity
  8
0
  6
Continuous
 62
     7
370
    25
100
AcDbLine
 10
228.4540290663
 20
452.8993986824
 30
0.0
 11
229.6860436365
 21
452.8993986824
 31
0.0
  0
LINE
  5
B0
330
1F
100
AcDbEntity
  8
0
  6
Continuous
 62
     7
370
    25
100
AcDbLine
 10
228.4250971932
 20
452.8993986824
 30
0.0
 11
228.4540290663
 21
452.8993986824
 31
0.0
  0
LINE
  5
B1
330
1F
100
AcDbEntity
  8
0
  6
Continuous
 62
     7
370
    25
100
AcDbLine
 10
228.4250971932
 20
452.9493986824
 30
0.0
 11
228.4250971932
 21
452.8993986824
 31
0.0
  0
LINE
  5
B2
330
1F
100
AcDbEntity
  8
0
  6
Continuous
 62
     7
370
    25
100
AcDbLine
 10
227.9139493629
 20
452.9493986824
 30
0.0
 11
227.9139493629
 21
452.8993986824
 31
0.0
  0
LINE
  5
B3
330
1F
100
AcDbEntity
  8
0
  6
Continuous
 62
     7
370
    25
100
AcDbLine
 10
227.9139493629
 20
452.8993986824
 30
0.0
 11
228.4250971932
 21
452.8993986824
 31
0.0
  0
LINE
  5
B4
330
1F
100
AcDbEntity
  8
0
  6
Continuous
 62
     7
370
    25
100
AcDbLine
 10
334.5488285119
 20
389.6108034349
 30
0.0
 11
333.557008269
 21
389.6108040705
 31
0.0
  0
LINE
  5
B5
330
1F
100
AcDbEntity
  8
0
  6
Continuous
 62
     7
370
    25
100
AcDbLine
 10
332.5652231801
 20
389.6108036582
 30
0.0
 11
331.5734017067
 21
389.6108036591
 31
0.0
  0
LINE
  5
B6
330
1F
100
AcDbEntity
  8
0
  6
Continuous
 62
     7
370
    25
100
AcDbLine
 10
331.5734017067
 20
389.6108036591
 30
0.0
 11
325.6224698224
 21
389.6108036591
 31
0.0
  0
LINE
  5
B7
330
1F
100
AcDbEntity
  8
0
  6
Continuous
 62
     7
370
    25
100
AcDbLine
 10
325.6224698224
 20
389.6108036483
 30
0.0
 11
324.6306193488
 21
389.6108036474
 31
0.0
  0
LINE
  5
B8
330
1F
100
AcDbEntity
  8
0
  6
Continuous
 62
     7
370
    25
100
AcDbLine
 10
323.6387889054
 20
389.6108065369
 30
0.0
 11
322.6470059414
 21
389.6108009667
 31
0.0
  0
SPLINE
  5
B9
330
1F
100
AcDbEntity
  8
0
  6
Continuous
 62
     7
370
    25
100
AcDbSpline
210
0.0
220
0.0
230
1.0
 70
     8
 71
     3
 72
    98
 73
    94
 74
     0
 42
0.00000001
 43
0.00000001
 40
-54.3861539522409
 40
-54.3861539522409
 40
-54.3861539522409
 40
-54.3861539522409
 40
-53.91730779748021
 40
-53.91730779748021
 40
-53.44846164271951
 40
-53.44846164271951
 40
-52.9796154879588
 40
-52.9796154879588
 40
-52.51076933319811
 40
-52.51076933319811
 40
-52.27634625581771
 40
-52.27634625581771
 40
-52.04192317843741
 40
-52.04192317843741
 40
-51.80750010105701
 40
-51.80750010105701
 40
-51.5730770236767
 40
-51.5730770236767
 40
-51.10423086891601
 40
-51.10423086891601
 40
-50.63538471415531
 40
-50.63538471415531
 40
-50.1665385593946
 40
-50.1665385593946
 40
-49.69769240463391
 40
-49.69769240463391
 40
-49.22884624987321
 40
-49.22884624987321
 40
-48.7600000951125
 40
-48.7600000951125
 40
-48.2911539403518
 40
-48.2911539403518
 40
-47.82230778559111
 40
-47.82230778559111
 40
-47.35346163083041
 40
-47.35346163083041
 40
-46.8846154760697
 40
-46.8846154760697
 40
-46.41576932130901
 40
-46.41576932130901
 40
-46.18134624392871
 40
-46.18134624392871
 40
-45.94692316654831
 40
-45.94692316654831
 40
-45.4780770117876
 40
-45.4780770117876
 40
-45.00923085702691
 40
-45.00923085702691
 40
-44.77480777964661
 40
-44.77480777964661
 40
-44.54038470226621
 40
-44.54038470226621
 40
-44.0715385475055
 40
-44.0715385475055
 40
-43.83711547012521
 40
-43.83711547012521
 40
-43.60269239274481
 40
-43.60269239274481
 40
-43.36826931536451
 40
-43.36826931536451
 40
-43.13384623798411
 40
-43.13384623798411
 40
-42.8994231606038
 40
-42.8994231606038
 40
-42.6650000832234
 40
-42.6650000832234
 40
-42.19615392846281
 40
-42.19615392846281
 40
-41.72730777370211
 40
-41.72730777370211
 40
-41.2584616189414
 40
-41.2584616189414
 40
-40.78961546418071
 40
-40.78961546418071
 40
-40.32076930942001
 40
-40.32076930942001
 40
-39.8519231546593
 40
-39.8519231546593
 40
-39.38307699989861
 40
-39.38307699989861
 40
-38.91423084513791
 40
-38.91423084513791
 40
-38.4453846903772
 40
-38.4453846903772
 40
-37.97653853561651
 40
-37.97653853561651
 40
-37.50769238085581
 40
-37.50769238085581
 40
-36.57000007133441
 40
-36.57000007133441
 40
-36.10115391657371
 40
-36.10115391657371
 40
-35.632307761813
 40
-35.632307761813
 40
-35.632307761813
 40
-35.632307761813
 10
322.6470059414185
 20
389.6108027191833
 30
0.0
 10
322.4816216077836
 20
389.6108017903332
 30
0.0
 10
322.3164609535216
 20
389.6108179045451
 30
0.0
 10
321.9857728990426
 20
389.6117616460423
 30
0.0
 10
321.8205128477506
 20
389.6126884237195
 30
0.0
 10
321.4898888264436
 20
389.6162420150707
 30
0.0
 10
321.3246446415926
 20
389.6188685698892
 30
0.0
 10
320.9940348448516
 20
389.6266055506339
 30
0.0
 10
320.8289801798876
 20
389.6316994100957
 30
0.0
 10
320.5811147372296
 20
389.6417610251623
 30
0.0
 10
320.4985313146726
 20
389.6455153241137
 30
0.0
 10
320.3333693883626
 20
389.6539233788042
 30
0.0
 10
320.2510709626466
 20
389.6585564224473
 30
0.0
 10
320.0857796687406
 20
389.6688229722018
 30
0.0
 10
320.0036024667495
 20
389.6744054848315
 30
0.0
 10
319.8386105255425
 20
389.6866070420059
 30
0.0
 10
319.7562753774675
 20
389.6932018244372
 30
0.0
 10
319.5092877451206
 20
389.7146039239379
 30
0.0
 10
319.3445572049106
 20
389.7310461038036
 30
0.0
 10
319.0164242210496
 20
389.7686281196049
 30
0.0
 10
318.8521782217156
 20
389.7898655758961
 30
0.0
 10
318.5251180652796
 20
389.8375136291915
 30
0.0
 10
318.3619823370816
 20
389.8639509503807
 30
0.0
 10
318.0365813421286
 20
389.9225028043205
 30
0.0
 10
317.8742220705596
 20
389.9546318191052
 30
0.0
 10
317.5514436719146
 20
390.0248030943723
 30
0.0
 10
317.3904172829646
 20
390.063003811937
 30
0.0
 10
317.0703877531396
 20
390.145820437143
 30
0.0
 10
316.9111578103546
 20
390.1905066136455
 30
0.0
 10
316.5949366541925
 20
390.2867894389512
 30
0.0
 10
316.4377579818085
 20
390.3384482748496
 30
0.0
 10
316.1263588069556
 20
390.4490314235609
 30
0.0
 10
315.9718930825116
 20
390.5080785870167
 30
0.0
 10
315.6662217825105
 20
390.6340563054263
 30
0.0
 10
315.5149745029855
 20
390.7010121510226
 30
0.0
 10
315.2164097766586
 20
390.8431109641371
 30
0.0
 10
315.0692184609355
 20
390.9182098750699
 30
0.0
 10
314.7792708647186
 20
391.0772900660246
 30
0.0
 10
314.6368382992875
 20
391.1610901442777
 30
0.0
 10
314.4272154863996
 20
391.2936119290615
 30
0.0
 10
314.3579599827346
 20
391.338950217279
 30
0.0
 10
314.2213106278026
 20
391.4316229632876
 30
0.0
 10
314.1535603329076
 20
391.4792199096354
 30
0.0
 10
313.9531296856296
 20
391.6252013898494
 30
0.0
 10
313.8228960121216
 20
391.7269311850442
 30
0.0
 10
313.5694369549915
 20
391.939522049304
 30
0.0
 10
313.4466441479105
 20
392.0500095553577
 30
0.0
 10
313.2682949147446
 20
392.2224813549982
 30
0.0
 10
313.2100171545716
 20
392.2809210248788
 30
0.0
 10
313.0953163108056
 20
392.4001411708775
 30
0.0
 10
313.0391586471416
 20
392.4606486791375
 30
0.0
 10
312.8735700730586
 20
392.6454924181651
 30
0.0
 10
312.7678174399086
 20
392.7722867543527
 30
0.0
 10
312.6155095860336
 20
392.9681477704422
 30
0.0
 10
312.5659349395096
 20
393.0341952138438
 30
0.0
 10
312.4689161440025
 20
393.1681026982716
 30
0.0
 10
312.4215513695506
 20
393.2358609544326
 30
0.0
 10
312.3291056565076
 20
393.3728439221908
 30
0.0
 10
312.2839566688655
 20
393.4421892380875
 30
0.0
 10
312.1959964911726
 20
393.5820558519785
 30
0.0
 10
312.1531171783286
 20
393.6526861419331
 30
0.0
 10
312.0694921708046
 20
393.7953238450787
 30
0.0
 10
312.0288065335266
 20
393.8672468790645
 30
0.0
 10
311.9495134961115
 20
394.0124076519998
 30
0.0
 10
311.9110353303656
 20
394.0854039224315
 30
0.0
 10
311.7985736519756
 20
394.3063989009275
 30
0.0
 10
311.7278253938535
 20
394.4558985706039
 30
0.0
 10
311.5942944895316
 20
394.7584590746236
 30
0.0
 10
311.5316143446655
 20
394.9114014355691
 30
0.0
 10
311.4138782374555
 20
395.2202208292842
 30
0.0
 10
311.3587965187166
 20
395.3761901854206
 30
0.0
 10
311.2557741117085
 20
395.6904126493004
 30
0.0
 10
311.2078889717665
 20
395.8484872107222
 30
0.0
 10
311.1187069593556
 20
396.1669547179147
 30
0.0
 10
311.0774933529516
 20
396.3270113458056
 30
0.0
 10
311.0013123896326
 20
396.64868714267
 30
0.0
 10
310.9663574432296
 20
396.8103219860462
 30
0.0
 10
310.9022562690436
 20
397.1345444899976
 30
0.0
 10
310.8730925885416
 20
397.2973520350433
 30
0.0
 10
310.8201992710966
 20
397.6237192302116
 30
0.0
 10
310.7964819669986
 20
397.7872430513762
 30
0.0
 10
310.7540042311816
 20
398.1151149388235
 30
0.0
 10
310.7352574223416
 20
398.2793568884942
 30
0.0
 10
310.7022792958415
 20
398.6082548041478
 30
0.0
 10
310.6880210857526
 20
398.7732054472495
 30
0.0
 10
310.6635463680886
 20
399.1026861656514
 30
0.0
 10
310.6532704321866
 20
399.2676864252297
 30
0.0
 10
310.6277984979646
 20
399.7629326946798
 30
0.0
 10
310.6178611658526
 20
400.0934165534076
 30
0.0
 10
310.6091246814025
 20
400.5892337168843
 30
0.0
 10
310.6072318468446
 20
400.7544549678071
 30
0.0
 10
310.6047231262496
 20
401.0853299082253
 30
0.0
 10
310.6041054160815
 20
401.2502711216152
 30
0.0
 10
310.6037095861625
 20
401.4156580464656
 30
0.0
  0
SPLINE
  5
BA
330
1F
100
AcDbEntity
  8
0
  6
Continuous
 62
     7
370
    25
100
AcDbSpline
210
0.0
220
0.0
230
1.0
 70
     8
 71
     3
 72
     8
 73
     4
 74
     0
 42
0.00000001
 43
0.00000001
 40
0.0
 40
0.0
 40
0.0
 40
0.0
 40
1.0
 40
1.0
 40
1.0
 40
1.0
 10
310.6033605896096
 20
401.5893303169529
 30
0.0
 10
310.6034611467969
 20
401.5314303748748
 30
0.0
 10
310.6035717178381
 20
401.4735409855119
 30
0.0
 10
310.6037098809898
 20
401.4156580472006
 30
0.0
  0
SPLINE
  5
BB
330
1F
100
AcDbEntity
  8
0
  6
Continuous
 62
     7
370
    18
100
AcDbSpline
210
0.0
220
0.0
230
1.0
 70
     8
 71
     3
 72
    37
 73
    33
 74
     0
 42
0.00000001
 43
0.00000001
 40
0.0
 40
0.0
 40
0.0
 40
0.0
 40
0.031030964815701
 40
0.0620554091606851
 40
0.0945736174160356
 40
0.1240818308117384
 40
0.1563078393846787
 40
0.1860277215770733
 40
0.2158356168864424
 40
0.2479650481358395
 40
0.2774773934225536
 40
0.3099869081509456
 40
0.3410107334392684
 40
0.3720402086948523
 40
0.3871605279268011
 40
0.4298139920221598
 40
0.5000006010187228
 40
0.5701811937920317
 40
0.6128342345816737
 40
0.6279597234253796
 40
0.6589905053910049
 40
0.6900138118742483
 40
0.7225125019365919
 40
0.7520361682168925
 40
0.7841540482745326
 40
0.8139716994367597
 40
0.8436817280051573
 40
0.8759191626415166
 40
0.9054141321615046
 40
0.937942073426147
 40
0.968969540111994
 40
1.0
 40
1.0
 40
1.0
 40
1.0
 10
311.6033590558466
 20
401.5998082206725
 30
0.0
 10
311.6046374247302
 20
401.0955395160344
 30
0.0
 10
311.6071938938767
 20
400.0871080676698
 30
0.0
 10
311.6902245516646
 20
398.5513614158933
 30
0.0
 10
311.9094558141888
 20
397.052123790369
 30
0.0
 10
312.3126503298103
 20
395.5703511495402
 30
0.0
 10
312.9288587693307
 20
394.2077402936342
 30
0.0
 10
313.8281903213204
 20
393.0009923887158
 30
0.0
 10
314.9991797241823
 20
392.056799226178
 30
0.0
 10
316.3444169855861
 20
391.4014357372213
 30
0.0
 10
317.8161272902513
 20
390.9671645441834
 30
0.0
 10
319.312135163018
 20
390.7250414221527
 30
0.0
 10
320.8470274990096
 20
390.6261243246972
 30
0.0
 10
322.1013111025672
 20
390.6188921184079
 30
0.0
 10
323.5443441009368
 20
390.6199299492332
 30
0.0
 10
325.6237387845362
 20
390.6192258695285
 30
0.0
 10
328.5978439842506
 20
390.6196577536241
 30
0.0
 10
331.5719423322597
 20
390.6192257659171
 30
0.0
 10
333.6513163381221
 20
390.6199301703921
 30
0.0
 10
335.0944477590211
 20
390.6188915229806
 30
0.0
 10
336.3488277551198
 20
390.6261260950219
 30
0.0
 10
337.8835589447535
 20
390.725029433106
 30
0.0
 10
339.379560926226
 20
390.967155545978
 30
0.0
 10
340.8511207929043
 20
391.401318722286
 30
0.0
 10
342.1965009298234
 20
392.0567215142597
 30
0.0
 10
343.3673945578853
 20
393.0007438232429
 30
0.0
 10
344.2668938092336
 20
394.2075868663023
 30
0.0
 10
344.8830499451275
 20
395.5700235765091
 30
0.0
 10
345.2863301558642
 20
397.0519001642326
 30
0.0
 10
345.5055860710531
 20
398.5511304764711
 30
0.0
 10
345.5886320963705
 20
400.0870751947334
 30
0.0
 10
345.5911879596794
 20
401.0955476650134
 30
0.0
 10
345.5924659529716
 20
401.5998082206725
 30
0.0
  0
SPLINE
  5
BC
330
1F
100
AcDbEntity
  8
0
  6
Continuous
 62
     7
370
    25
100
AcDbSpline
210
0.0
220
0.0
230
1.0
 70
     8
 71
     3
 72
     8
 73
     4
 74
     0
 42
0.00000001
 43
0.00000001
 40
0.0
 40
0.0
 40
0.0
 40
0.0
 40
1.0
 40
1.0
 40
1.0
 40
1.0
 10
346.5921153336907
 20
401.4157652707838
 30
0.0
 10
346.5922534242463
 20
401.4736230397468
 30
0.0
 10
346.5923639338974
 20
401.5314781813096
 30
0.0
 10
346.5924644192086
 20
401.5893303169529
 30
0.0
  0
SPLINE
  5
BD
330
1F
100
AcDbEntity
  8
0
  6
Continuous
 62
     7
370
    25
100
AcDbSpline
210
0.0
220
0.0
230
1.0
 70
     8
 71
     3
 72
   106
 73
   102
 74
     0
 42
0.00000001
 43
0.00000001
 40
-24.3800000475563
 40
-24.3800000475563
 40
-24.3800000475563
 40
-24.3800000475563
 40
-23.9111538927956
 40
-23.9111538927956
 40
-23.4423077380349
 40
-23.4423077380349
 40
-22.97346158327421
 40
-22.97346158327421
 40
-22.73903850589386
 40
-22.73903850589386
 40
-22.50461542851351
 40
-22.50461542851351
 40
-22.03576927375281
 40
-22.03576927375281
 40
-21.56692311899211
 40
-21.56692311899211
 40
-21.09807696423142
 40
-21.09807696423142
 40
-20.62923080947072
 40
-20.62923080947072
 40
-20.16038465471002
 40
-20.16038465471002
 40
-19.69153849994937
 40
-19.69153849994937
 40
-19.22269234518867
 40
-19.22269234518867
 40
-18.75384619042797
 40
-18.75384619042797
 40
-18.51942311304757
 40
-18.51942311304757
 40
-18.28500003566727
 40
-18.28500003566727
 40
-17.81615388090657
 40
-17.81615388090657
 40
-17.34730772614587
 40
-17.34730772614587
 40
-16.87846157138517
 40
-16.87846157138517
 40
-16.64403849400477
 40
-16.64403849400477
 40
-16.40961541662447
 40
-16.40961541662447
 40
-16.17519233924407
 40
-16.17519233924407
 40
-15.94076926186377
 40
-15.94076926186377
 40
-15.47192310710307
 40
-15.47192310710307
 40
-15.23750002972267
 40
-15.23750002972267
 40
-15.00307695234237
 40
-15.00307695234237
 40
-14.76865387496197
 40
-14.76865387496197
 40
-14.53423079758167
 40
-14.53423079758167
 40
-14.06538464282097
 40
-14.06538464282097
 40
-13.83096156544057
 40
-13.83096156544057
 40
-13.59653848806027
 40
-13.59653848806027
 40
-13.12769233329957
 40
-13.12769233329957
 40
-12.65884617853887
 40
-12.65884617853887
 40
-12.19000002377817
 40
-12.19000002377817
 40
-11.72115386901747
 40
-11.72115386901747
 40
-11.48673079163707
 40
-11.48673079163707
 40
-11.25230771425677
 40
-11.25230771425677
 40
-10.78346155949607
 40
-10.78346155949607
 40
-10.31461540473537
 40
-10.31461540473537
 40
-9.84576924997467
 40
-9.84576924997467
 40
-9.376923095213968
 40
-9.376923095213968
 40
-8.90807694045327
 40
-8.90807694045327
 40
-8.439230785692569
 40
-8.439230785692569
 40
-8.20480770831227
 40
-8.20480770831227
 40
-7.970384630931871
 40
-7.970384630931871
 40
-7.735961553551569
 40
-7.735961553551569
 40
-7.50153847617117
 40
-7.50153847617117
 40
-7.032692321410469
 40
-7.032692321410469
 40
-6.563846166649771
 40
-6.563846166649771
 40
-6.09500001188907
 40
-6.09500001188907
 40
-5.626153857128369
 40
-5.626153857128369
 40
-5.626153857128369
 40
-5.626153857128369
 10
346.5921157009185
 20
401.4157652699085
 30
0.0
 10
346.5917205558816
 20
401.2505402075376
 30
0.0
 10
346.5911009756126
 20
401.0851874857938
 30
0.0
 10
346.5885950422036
 20
400.7546527931564
 30
0.0
 10
346.5867010720886
 20
400.5892330720448
 30
0.0
 10
346.5808770506886
 20
400.2588597345917
 30
0.0
 10
346.5769326149975
 20
400.0932854505007
 30
0.0
 10
346.5689395083036
 20
399.8457718589696
 30
0.0
 10
346.5659151044286
 20
399.7629831535166
 30
0.0
 10
346.5590997713766
 20
399.5979913670208
 30
0.0
 10
346.5552968330406
 20
399.5153822094853
 30
0.0
 10
346.5425499834566
 20
399.2676289376396
 30
0.0
 10
346.5322890142696
 20
399.1028431020163
 30
0.0
 10
346.5077960135486
 20
398.7730878266268
 30
0.0
 10
346.4935454176525
 20
398.6082673992181
 30
0.0
 10
346.4605828782956
 20
398.2795106411404
 30
0.0
 10
346.4418239454205
 20
398.1151309865597
 30
0.0
 10
346.3993518792936
 20
397.7873092600829
 30
0.0
 10
346.3756414007336
 20
397.6238268260423
 30
0.0
 10
346.3227153056626
 20
397.2972550437976
 30
0.0
 10
346.2936097936176
 20
397.134765992718
 30
0.0
 10
346.2294657945786
 20
396.8103142679653
 30
0.0
 10
346.1945034089346
 20
396.6486613926987
 30
0.0
 10
346.1183543746305
 20
396.3270906366173
 30
0.0
 10
346.0770961241305
 20
396.1668828573119
 30
0.0
 10
345.9879907352025
 20
395.8486717292317
 30
0.0
 10
345.9400283464186
 20
395.6903372761395
 30
0.0
 10
345.8627887405726
 20
395.4547581020717
 30
0.0
 10
345.8361639115305
 20
395.3765572203978
 30
0.0
 10
345.7810224159585
 20
395.2206779756859
 30
0.0
 10
345.7525648043556
 20
395.1431381199613
 30
0.0
 10
345.6641987325076
 20
394.9113724140294
 30
0.0
 10
345.6014787835386
 20
394.7583333263299
 30
0.0
 10
345.4680187744926
 20
394.4559505792143
 30
0.0
 10
345.3972949601606
 20
394.3064829127249
 30
0.0
 10
345.2473192849696
 20
394.0117788995673
 30
0.0
 10
345.1681954921795
 20
393.8667404392344
 30
0.0
 10
345.0427420183266
 20
393.652743306565
 30
0.0
 10
344.9998424806885
 20
393.5820777722274
 30
0.0
 10
344.9118928577406
 20
393.4422279725972
 30
0.0
 10
344.8667441100655
 20
393.372881945101
 30
0.0
 10
344.7743212341076
 20
393.2359250068102
 30
0.0
 10
344.7269018282036
 20
393.1680949142196
 30
0.0
 10
344.6299718106836
 20
393.0343062308952
 30
0.0
 10
344.5802949284605
 20
392.968115393127
 30
0.0
 10
344.4281585434036
 20
392.7724721873468
 30
0.0
 10
344.3222321852616
 20
392.6454625280991
 30
0.0
 10
344.1567085772546
 20
392.4606901645659
 30
0.0
 10
344.1005561286196
 20
392.4001863500008
 30
0.0
 10
343.9858761172266
 20
392.2809920756878
 30
0.0
 10
343.9275876162686
 20
392.2225390405434
 30
0.0
 10
343.8086780734945
 20
392.1075382142299
 30
0.0
 10
343.7482787090666
 20
392.0512010409055
 30
0.0
 10
343.6254031400526
 20
391.9405692003606
 30
0.0
 10
343.5629851172166
 20
391.8863384962206
 30
0.0
 10
343.3728859377435
 20
391.7268999303505
 30
0.0
 10
343.2428206575686
 20
391.6252975635624
 30
0.0
 10
343.0422724734586
 20
391.4792270483129
 30
0.0
 10
342.9746287318036
 20
391.431699891797
 30
0.0
 10
342.8377724718755
 20
391.3388910774615
 30
0.0
 10
342.7686842293536
 20
391.2936594718772
 30
0.0
 10
342.5589537683876
 20
391.1610713965637
 30
0.0
 10
342.4165766486695
 20
391.0773045775394
 30
0.0
 10
342.1267184266506
 20
390.9182671484604
 30
0.0
 10
341.9794081971316
 20
390.8431065916926
 30
0.0
 10
341.6807979674236
 20
390.7009878217827
 30
0.0
 10
341.5297005793076
 20
390.6341031078096
 30
0.0
 10
341.2241215570565
 20
390.5081485937076
 30
0.0
 10
341.0693196834696
 20
390.4489799256185
 30
0.0
 10
340.8360467236396
 20
390.3661371272321
 30
0.0
 10
340.7574839111085
 20
390.3392848655843
 30
0.0
 10
340.6007319547785
 20
390.287696543564
 30
0.0
 10
340.5219065223585
 20
390.2627407976075
 30
0.0
 10
340.2845689872116
 20
390.1904739259024
 30
0.0
 10
340.1254378565166
 20
390.1458244159623
 30
0.0
 10
339.8053508754396
 20
390.0629909308761
 30
0.0
 10
339.6446438288016
 20
390.0248629815546
 30
0.0
 10
339.3213524725635
 20
389.9545768927484
 30
0.0
 10
339.1592447380496
 20
389.9225074551682
 30
0.0
 10
338.8339041179196
 20
389.8639604433762
 30
0.0
 10
338.6707510190345
 20
389.8375199951509
 30
0.0
 10
338.3434840761956
 20
389.7898422027188
 30
0.0
 10
338.1795121055976
 20
389.7686410070776
 30
0.0
 10
337.8511385246226
 20
389.7310336067293
 30
0.0
 10
337.6866611195926
 20
389.7146154513242
 30
0.0
 10
337.4396209638276
 20
389.6932071499415
 30
0.0
 10
337.3571367224445
 20
389.6866015914953
 30
0.0
 10
337.1925089676936
 20
389.6744252212166
 30
0.0
 10
337.1097550159876
 20
389.6688051708196
 30
0.0
 10
336.9449677353855
 20
389.6585699350788
 30
0.0
 10
336.8622785642736
 20
389.6539130606079
 30
0.0
 10
336.6973401194476
 20
389.6455177483165
 30
0.0
 10
336.6147875053686
 20
389.6417645249171
 30
0.0
 10
336.3669364739086
 20
389.6317031184618
 30
0.0
 10
336.2016881913216
 20
389.6266031513
 30
0.0
 10
335.8713296943656
 20
389.6188712685863
 30
0.0
 10
335.7059415557406
 20
389.6162423842442
 30
0.0
 10
335.3753620478035
 20
389.6126889165076
 30
0.0
 10
335.2100840056256
 20
389.6117616282741
 30
0.0
 10
334.8795001823446
 20
389.6108180994131
 30
0.0
 10
334.7141418192716
 20
389.6108017675699
 30
0.0
 10
334.5488285119166
 20
389.6108027071657
 30
0.0
  0
SPLINE
  5
BE
330
1F
100
AcDbEntity
  8
0
  6
Continuous
 62
     7
370
    25
100
AcDbSpline
210
0.0
220
0.0
230
1.0
 70
     8
 71
     3
 72
   262
 73
   258
 74
     0
 42
0.00000001
 43
0.00000001
 40
5.666953204607805
 40
5.666953204607805
 40
5.666953204607805
 40
5.666953204607805
 40
5.669836879042177
 40
5.669836879042177
 40
5.677190721554173
 40
5.677190721554173
 40
5.706606091602379
 40
5.706606091602379
 40
5.765436831698776
 40
5.765436831698776
 40
5.883098311891577
 40
5.883098311891577
 40
6.118421272277073
 40
6.118421272277073
 40
6.589067193048277
 40
6.589067193048277
 40
7.059713113819375
 40
7.059713113819375
 40
7.530359034590473
 40
7.530359034590473
 40
7.765681994976075
 40
7.765681994976075
 40
8.001004955361577
 40
8.001004955361577
 40
8.471650876132674
 40
8.471650876132674
 40
8.942296796903872
 40
8.942296796903872
 40
9.412942717674976
 40
9.412942717674976
 40
9.883588638446074
 40
9.883588638446074
 40
10.11891159883168
 40
10.11891159883168
 40
10.35423455921717
 40
10.35423455921717
 40
10.82488047998838
 40
10.82488047998838
 40
11.29552640075947
 40
11.29552640075947
 40
11.53084936114498
 40
11.53084936114498
 40
11.76617232153057
 40
11.76617232153057
 40
12.23681824230168
 40
12.23681824230168
 40
12.47214120268727
 40
12.47214120268727
 40
12.70746416307277
 40
12.70746416307277
 40
13.17811008384397
 40
13.17811008384397
 40
13.41343304422947
 40
13.41343304422947
 40
13.64875600461508
 40
13.64875600461508
 40
13.88407896500057
 40
13.88407896500057
 40
14.11940192538617
 40
14.11940192538617
 40
14.59004784615727
 40
14.59004784615727
 40
15.06069376692838
 40
15.06069376692838
 40
15.53133968769957
 40
15.53133968769957
 40
16.00198560847067
 40
16.00198560847067
 40
16.23730856885627
 40
16.23730856885627
 40
16.47263152924178
 40
16.47263152924178
 40
16.70795448962737
 40
16.70795448962737
 40
16.94327745001288
 40
16.94327745001288
 40
17.41392337078397
 40
17.41392337078397
 40
17.88456929155518
 40
17.88456929155518
 40
18.35521521232628
 40
18.35521521232628
 40
18.59053817271188
 40
18.59053817271188
 40
18.82586113309737
 40
18.82586113309737
 40
19.29650705386848
 40
19.29650705386848
 40
19.76715297463968
 40
19.76715297463968
 40
20.00247593502518
 40
20.00247593502518
 40
20.23779889541077
 40
20.23779889541077
 40
20.70844481618188
 40
20.70844481618188
 40
21.17909073695298
 40
21.17909073695298
 40
21.64973665772407
 40
21.64973665772407
 40
22.12038257849528
 40
22.12038257849528
 40
22.35570553888077
 40
22.35570553888077
 40
22.59102849926638
 40
22.59102849926638
 40
23.06167442003747
 40
23.06167442003747
 40
23.53232034080858
 40
23.53232034080858
 40
24.00296626157968
 40
24.00296626157968
 40
24.47361218235087
 40
24.47361218235087
 40
24.94425810312198
 40
24.94425810312198
 40
25.41490402389308
 40
25.41490402389308
 40
26.35619586543538
 40
26.35619586543538
 40
27.29748770697757
 40
27.29748770697757
 40
28.23877954851978
 40
28.23877954851978
 40
29.18007139006207
 40
29.18007139006207
 40
30.12136323160427
 40
30.12136323160427
 40
31.06265507314658
 40
31.06265507314658
 40
32.00394691468878
 40
32.00394691468878
 40
32.94523875623108
 40
32.94523875623108
 40
33.88653059777327
 40
33.88653059777327
 40
34.82782243931548
 40
34.82782243931548
 40
35.29846836008667
 40
35.29846836008667
 40
35.76911428085778
 40
35.76911428085778
 40
36.00443724124327
 40
36.00443724124327
 40
36.23976020162888
 40
36.23976020162888
 40
36.71040612239997
 40
36.71040612239997
 40
37.18105204317118
 40
37.18105204317118
 40
37.65169796394228
 40
37.65169796394228
 40
37.88702092432778
 40
37.88702092432778
 40
38.12234388471337
 40
38.12234388471337
 40
38.59298980548448
 40
38.59298980548448
 40
39.06363572625558
 40
39.06363572625558
 40
39.53428164702677
 40
39.53428164702677
 40
40.00492756779788
 40
40.00492756779788
 40
40.47557348856898
 40
40.47557348856898
 40
40.94621940934007
 40
40.94621940934007
 40
41.41686533011118
 40
41.41686533011118
 40
41.65218829049678
 40
41.65218829049678
 40
41.88751125088238
 40
41.88751125088238
 40
42.35815717165347
 40
42.35815717165347
 40
42.59348013203898
 40
42.59348013203898
 40
42.82880309242458
 40
42.82880309242458
 40
43.29944901319568
 40
43.29944901319568
 40
43.53477197358128
 40
43.53477197358128
 40
43.77009493396677
 40
43.77009493396677
 40
44.00541789435238
 40
44.00541789435238
 40
44.24074085473798
 40
44.24074085473798
 40
44.71138677550908
 40
44.71138677550908
 40
45.18203269628017
 40
45.18203269628017
 40
45.41735565666578
 40
45.41735565666578
 40
45.65267861705128
 40
45.65267861705128
 40
46.12332453782248
 40
46.12332453782248
 40
46.35864749820798
 40
46.35864749820798
 40
46.59397045859357
 40
46.59397045859357
 40
47.06461637936468
 40
47.06461637936468
 40
47.53526230013578
 40
47.53526230013578
 40
47.77058526052138
 40
47.77058526052138
 40
48.00590822090687
 40
48.00590822090687
 40
48.24123118129248
 40
48.24123118129248
 40
48.47655414167808
 40
48.47655414167808
 40
48.94720006244918
 40
48.94720006244918
 40
49.41784598322027
 40
49.41784598322027
 40
49.88849190399138
 40
49.88849190399138
 40
50.12381486437698
 40
50.12381486437698
 40
50.35913782476253
 40
50.35913782476253
 40
50.82978374553365
 40
50.82978374553365
 40
51.30042966630477
 40
51.30042966630477
 40
51.77107558707588
 40
51.77107558707588
 40
52.24172150784702
 40
52.24172150784702
 40
52.47704446823258
 40
52.47704446823258
 40
52.71236742861814
 40
52.71236742861814
 40
53.18301334938926
 40
53.18301334938926
 40
53.65365927016038
 40
53.65365927016038
 40
54.12430519093149
 40
54.12430519093149
 40
54.35962815131706
 40
54.35962815131706
 40
54.47728963150984
 40
54.47728963150984
 40
54.53612037160623
 40
54.53612037160623
 40
54.56553574165443
 40
54.56553574165443
 40
54.56921266291045
 40
54.56921266291045
 40
54.57288958416648
 40
54.57288958416648
 40
54.57574895634827
 40
54.57574895634827
 40
54.57574895634827
 40
54.57574895634827
 10
310.6033611896699
 20
467.6654238791225
 30
0.0
 10
310.6033617601541
 20
467.6664415122975
 30
0.0
 10
310.6033629399818
 20
467.6674661575988
 30
0.0
 10
310.6033713047399
 20
467.6711720428553
 30
0.0
 10
310.6033748407321
 20
467.6736277568974
 30
0.0
 10
310.603398362573
 20
467.6868521220497
 30
0.0
 10
310.6034167755293
 20
467.6971743189408
 30
0.0
 10
310.6034740156448
 20
467.728286057453
 30
0.0
 10
310.6035141978468
 20
467.7491509332619
 30
0.0
 10
310.6036429815636
 20
467.8117799736469
 30
0.0
 10
310.6037385066232
 20
467.8531040847911
 30
0.0
 10
310.6040792235765
 20
467.9782089142203
 30
0.0
 10
310.6043753633759
 20
468.0614915366424
 30
0.0
 10
310.6056242657265
 20
468.3110988758698
 30
0.0
 10
310.6069453460391
 20
468.4777656379645
 30
0.0
 10
310.6113812756923
 20
468.8109194862431
 30
0.0
 10
310.6144829730908
 20
468.9771601835289
 30
0.0
 10
310.6232669426189
 20
469.310465923439
 30
0.0
 10
310.6289290352539
 20
469.4766076211654
 30
0.0
 10
310.6399131688951
 20
469.7263392141205
 30
0.0
 10
310.6439948828042
 20
469.8095982219594
 30
0.0
 10
310.6530580806495
 20
469.9757587890965
 30
0.0
 10
310.6580580250408
 20
470.0589887804264
 30
0.0
 10
310.6744867487889
 20
470.3081312328325
 30
0.0
 10
310.6873768452073
 20
470.4743284395689
 30
0.0
 10
310.717525272658
 20
470.8060119936388
 30
0.0
 10
310.7347923908315
 20
470.9715939055355
 30
0.0
 10
310.7742352603099
 20
471.3022570711744
 30
0.0
 10
310.7964252497566
 20
471.4674782308638
 30
0.0
 10
310.8461631677611
 20
471.7969204849674
 30
0.0
 10
310.8736341821672
 20
471.9608033716102
 30
0.0
 10
310.9193440357524
 20
472.2068066665097
 30
0.0
 10
310.9352323296974
 20
472.2882973349808
 30
0.0
 10
310.9685900534049
 20
472.4514627106091
 30
0.0
 10
310.9860625300203
 20
472.5331202493674
 30
0.0
 10
311.0405837029857
 20
472.7765269736279
 30
0.0
 10
311.0801932685798
 20
472.9387254945331
 30
0.0
 10
311.1658147197244
 20
473.2602781847735
 30
0.0
 10
311.2120913212692
 20
473.4206819796261
 30
0.0
 10
311.286629550912
 20
473.6588080559584
 30
0.0
 10
311.3124445050115
 20
473.738174138183
 30
0.0
 10
311.3657755937837
 20
473.8958689359542
 30
0.0
 10
311.3933190305453
 20
473.9742986067487
 30
0.0
 10
311.4790339946578
 20
474.2092204919629
 30
0.0
 10
311.5399244086516
 20
474.364222814999
 30
0.0
 10
311.6372861168581
 20
474.5941594175508
 30
0.0
 10
311.6708005884016
 20
474.6704898846954
 30
0.0
 10
311.7397978729722
 20
474.8220386048705
 30
0.0
 10
311.7753510717892
 20
474.8974044514081
 30
0.0
 10
311.88511343813
 20
475.1218074255542
 30
0.0
 10
311.9625143594404
 20
475.2692963801102
 30
0.0
 10
312.0853171419558
 20
475.4869452782274
 30
0.0
 10
312.1272127915478
 20
475.5586133462105
 30
0.0
 10
312.2136038532312
 20
475.7012303605537
 30
0.0
 10
312.2578949821829
 20
475.7718196778677
 30
0.0
 10
312.3485304438228
 20
475.9112371526798
 30
0.0
 10
312.3951877634065
 20
475.9805058741348
 30
0.0
 10
312.4905202121743
 20
476.1170263483377
 30
0.0
 10
312.5393199300609
 20
476.1844692847846
 30
0.0
 10
312.6892245054371
 20
476.3843260355802
 30
0.0
 10
312.7936810792923
 20
476.5141093834271
 30
0.0
 10
313.0115082119319
 20
476.7659894217977
 30
0.0
 10
313.1250516498061
 20
476.8882789753933
 30
0.0
 10
313.3603750576103
 20
477.1239078320586
 30
0.0
 10
313.4823353057441
 20
477.2374115067902
 30
0.0
 10
313.7340896187954
 20
477.4556504543948
 30
0.0
 10
313.8636960772608
 20
477.5602190911441
 30
0.0
 10
314.0633944085807
 20
477.7103804653575
 30
0.0
 10
314.1308500668479
 20
477.7593220735024
 30
0.0
 10
314.2673030564312
 20
477.8548283992053
 30
0.0
 10
314.3362626020934
 20
477.901376967644
 30
0.0
 10
314.4757557204985
 20
477.9923098112308
 30
0.0
 10
314.5461830673414
 20
478.0366165252765
 30
0.0
 10
314.6887815286221
 20
478.1231961423885
 30
0.0
 10
314.7604119227128
 20
478.1651482280665
 30
0.0
 10
314.9779396900735
 20
478.2881310133576
 30
0.0
 10
315.1255272930975
 20
478.3656822110305
 30
0.0
 10
315.4246308575154
 20
478.512192501139
 30
0.0
 10
315.5762304600718
 20
478.5812430851032
 30
0.0
 10
315.8829490994914
 20
478.7113167467184
 30
0.0
 10
316.0379379479045
 20
478.7722752861748
 30
0.0
 10
316.2725481139321
 20
478.8579886499544
 30
0.0
 10
316.3512043444264
 20
478.8856416069771
 30
0.0
 10
316.5088533179895
 20
478.9390109396297
 30
0.0
 10
316.5881211163069
 20
478.9648217308581
 30
0.0
 10
316.8264747949689
 20
479.0394794269806
 30
0.0
 10
316.9864763637248
 20
479.0856831167817
 30
0.0
 10
317.3083288340496
 20
479.1714137257876
 30
0.0
 10
317.4703338390003
 20
479.2109832647039
 30
0.0
 10
317.7139274016543
 20
479.2655454504614
 30
0.0
 10
317.7954898466239
 20
479.2829925411351
 30
0.0
 10
317.9585755188873
 20
479.3163145601088
 30
0.0
 10
318.0402655187442
 20
479.3322279476692
 30
0.0
 10
318.2859788759632
 20
479.3778416323495
 30
0.0
 10
318.4501256837454
 20
479.4053170165764
 30
0.0
 10
318.7796619624573
 20
479.4549573534564
 30
0.0
 10
318.9447569422912
 20
479.4770650347921
 30
0.0
 10
319.2755222974353
 20
479.5163536712872
 30
0.0
 10
319.4411829101896
 20
479.5335335087541
 30
0.0
 10
319.7730534854448
 20
479.5634810181147
 30
0.0
 10
319.9387476500197
 20
479.5762018137125
 30
0.0
 10
320.1883658617301
 20
479.5924587827246
 30
0.0
 10
320.2713500471236
 20
479.5973652968333
 30
0.0
 10
320.437668939403
 20
479.6062836804272
 30
0.0
 10
320.5209664595252
 20
479.6102837274179
 30
0.0
 10
320.7704715069674
 20
479.6210047012939
 30
0.0
 10
320.9369851120715
 20
479.6264814826657
 30
0.0
 10
321.2698330653524
 20
479.6348407886355
 30
0.0
 10
321.4365652048918
 20
479.6377268920413
 30
0.0
 10
321.7695088076688
 20
479.6416729006532
 30
0.0
 10
321.9361149935026
 20
479.6427443242687
 30
0.0
 10
322.2691045191165
 20
479.6438806284824
 30
0.0
 10
322.4358007573336
 20
479.6439470062033
 30
0.0
 10
322.768630752105
 20
479.6439513636888
 30
0.0
 10
322.9353630447116
 20
479.6439500205665
 30
0.0
 10
323.268385676656
 20
479.6439505861788
 30
0.0
 10
323.435000660083
 20
479.6439504267624
 30
0.0
 10
323.9347114885703
 20
479.6439504800917
 30
0.0
 10
324.2676855294182
 20
479.6439504838135
 30
0.0
 10
324.9338898342589
 20
479.643950499654
 30
0.0
 10
325.2670235235082
 20
479.643950503795
 30
0.0
 10
325.9331416170905
 20
479.6439505175766
 30
0.0
 10
326.2662688592904
 20
479.643950522216
 30
0.0
 10
326.9324067344446
 20
479.6439505301511
 30
0.0
 10
327.2655721140019
 20
479.6439505329179
 30
0.0
 10
327.9317015617546
 20
479.6439505365752
 30
0.0
 10
328.2649302172845
 20
479.6439505374171
 30
0.0
 10
328.9310000169357
 20
479.6439505374174
 30
0.0
 10
329.2641299448839
 20
479.6439505365748
 30
0.0
 10
329.9303712777333
 20
479.6439505329177
 30
0.0
 10
330.2632898114166
 20
479.643950530148
 30
0.0
 10
330.9296182164781
 20
479.643950522227
 30
0.0
 10
331.2627326116979
 20
479.6439505175433
 30
0.0
 10
331.9288664698446
 20
479.6439505039049
 30
0.0
 10
332.2619347378389
 20
479.643950499323
 30
0.0
 10
332.9282257868378
 20
479.6439504849564
 30
0.0
 10
333.2611870627256
 20
479.6439504765074
 30
0.0
 10
333.7609530536699
 20
479.6439504352665
 30
0.0
 10
333.9273784242721
 20
479.6439505570976
 30
0.0
 10
334.2605831663716
 20
479.6439501229686
 30
0.0
 10
334.4270079161574
 20
479.6439510435787
 30
0.0
 10
334.6769647717296
 20
479.6439488575641
 30
0.0
 10
334.7600113962829
 20
479.6439304805594
 30
0.0
 10
334.9267586670416
 20
479.6437555030408
 30
0.0
 10
335.0099762698729
 20
479.6435958451544
 30
0.0
 10
335.2598987495742
 20
479.642743379028
 30
0.0
 10
335.4261305134912
 20
479.6416748740991
 30
0.0
 10
335.7596005336528
 20
479.6377207864176
 30
0.0
 10
335.9257353401439
 20
479.6348466640158
 30
0.0
 10
336.2590477346857
 20
479.6264751541881
 30
0.0
 10
336.4253109364318
 20
479.6210052158721
 30
0.0
 10
336.6750698869636
 20
479.6102743266278
 30
0.0
 10
336.7580716062706
 20
479.6062875121074
 30
0.0
 10
336.9243337555963
 20
479.5973739950381
 30
0.0
 10
337.0076925842433
 20
479.5924430146831
 30
0.0
 10
337.2569315018816
 20
479.5762118536053
 30
0.0
 10
337.4229116620767
 20
479.5634710596624
 30
0.0
 10
337.7547860839857
 20
479.5335186691416
 30
0.0
 10
337.9202322507562
 20
479.5163598739802
 30
0.0
 10
338.2511902446647
 20
479.4770519046822
 30
0.0
 10
338.4161131546983
 20
479.4549640210688
 30
0.0
 10
338.7456563341351
 20
479.4053241129821
 30
0.0
 10
338.909939256046
 20
479.3778272037096
 30
0.0
 10
339.2374573345652
 20
479.3170191717871
 30
0.0
 10
339.4005193505371
 20
479.2837725505267
 30
0.0
 10
339.7257980712884
 20
479.2109120786502
 30
0.0
 10
339.8872916952652
 20
479.1714598264876
 30
0.0
 10
340.2093225541883
 20
479.0856937445116
 30
0.0
 10
340.369498966143
 20
479.0394376246427
 30
0.0
 10
340.6077027938874
 20
478.9648197965294
 30
0.0
 10
340.6869188607735
 20
478.9390269713726
 30
0.0
 10
340.844720351142
 20
478.8856084487018
 30
0.0
 10
340.9233306526842
 20
478.8579699726304
 30
0.0
 10
341.1579214328173
 20
478.7722606309939
 30
0.0
 10
341.3129944550796
 20
478.7112700254207
 30
0.0
 10
341.5429279211575
 20
478.6137565328487
 30
0.0
 10
341.6192397149758
 20
478.5802009024536
 30
0.0
 10
341.770566811086
 20
478.5111939800308
 30
0.0
 10
341.8461680871014
 20
478.4754755464715
 30
0.0
 10
342.070319010017
 20
478.3656669233987
 30
0.0
 10
342.2179080125462
 20
478.2881188052262
 30
0.0
 10
342.4353606802975
 20
478.1651791471034
 30
0.0
 10
342.5071674846412
 20
478.1231226462204
 30
0.0
 10
342.6495958092878
 20
478.0366430310368
 30
0.0
 10
342.720105227154
 20
477.9922890593893
 30
0.0
 10
342.8595570202176
 20
477.9013778546685
 30
0.0
 10
342.9286051369818
 20
477.8547726892189
 30
0.0
 10
343.0649942333458
 20
477.7593068357788
 30
0.0
 10
343.1324473531629
 20
477.7103657838117
 30
0.0
 10
343.3320504041187
 20
477.5602840117752
 30
0.0
 10
343.4618211422448
 20
477.4555810950071
 30
0.0
 10
343.713617066431
 20
477.2372876662654
 30
0.0
 10
343.8353460440755
 20
477.1240185452813
 30
0.0
 10
344.0120801998227
 20
476.9470386324248
 30
0.0
 10
344.0698112160301
 20
476.8870929788691
 30
0.0
 10
344.1831559854385
 20
476.7650835970864
 30
0.0
 10
344.2387140164024
 20
476.70309035248
 30
0.0
 10
344.402139351721
 20
476.5141136632207
 30
0.0
 10
344.5065838082978
 20
476.3843589655334
 30
0.0
 10
344.6565633537522
 20
476.1843869109998
 30
0.0
 10
344.7053488036664
 20
476.1169643891506
 30
0.0
 10
344.8007243501463
 20
475.9803803170478
 30
0.0
 10
344.8472227992669
 20
475.9113461825856
 30
0.0
 10
344.983397426477
 20
475.7018789346891
 30
0.0
 10
345.0696769582231
 20
475.5593075707855
 30
0.0
 10
345.2333142956513
 20
475.2692928120264
 30
0.0
 10
345.310758490272
 20
475.1217104161567
 30
0.0
 10
345.4205050784044
 20
474.8973406685912
 30
0.0
 10
345.4560397255608
 20
474.8220099080975
 30
0.0
 10
345.5250735882936
 20
474.670378793673
 30
0.0
 10
345.5584971386899
 20
474.5942539783888
 30
0.0
 10
345.6234126300271
 20
474.4409601118389
 30
0.0
 10
345.6549594193556
 20
474.3636347073694
 30
0.0
 10
345.7158573860344
 20
474.2088130711155
 30
0.0
 10
345.7454162775247
 20
474.1307767006476
 30
0.0
 10
345.8310211298075
 20
473.8961428570053
 30
0.0
 10
345.8843123308314
 20
473.738314019221
 30
0.0
 10
345.9837831953965
 20
473.4205123310007
 30
0.0
 10
346.02995041218
 20
473.2604830460431
 30
0.0
 10
346.115650835695
 20
472.9386558972473
 30
0.0
 10
346.1551896449512
 20
472.7767468481979
 30
0.0
 10
346.2097774135016
 20
472.5330437972187
 30
0.0
 10
346.2272115571756
 20
472.4515621047859
 30
0.0
 10
346.2605892137364
 20
472.2883158793993
 30
0.0
 10
346.2765115342177
 20
472.206646111572
 30
0.0
 10
346.322180644511
 20
471.9608546160218
 30
0.0
 10
346.3496543189705
 20
471.7969718611453
 30
0.0
 10
346.399431126098
 20
471.4672505888288
 30
0.0
 10
346.421573995406
 20
471.3023775760598
 30
0.0
 10
346.4610230749634
 20
470.9716773211995
 30
0.0
 10
346.4783024639631
 20
470.8059814332172
 30
0.0
 10
346.5084590504306
 20
470.4742028707471
 30
0.0
 10
346.5213364826337
 20
470.3081583892966
 30
0.0
 10
346.537772600855
 20
470.0588936073829
 30
0.0
 10
346.5427681311591
 20
469.9757366837683
 30
0.0
 10
346.5518357740135
 20
469.8095107012407
 30
0.0
 10
346.555917478343
 20
469.726214250178
 30
0.0
 10
346.5668853413117
 20
469.47688714672
 30
0.0
 10
346.572568281086
 20
469.3101829435767
 30
0.0
 10
346.5813380150567
 20
468.977297111056
 30
0.0
 10
346.5844463249562
 20
468.8107964667017
 30
0.0
 10
346.5888787244807
 20
468.4778194206684
 30
0.0
 10
346.5901997645479
 20
468.3112787527754
 30
0.0
 10
346.5914498522046
 20
468.0614318140363
 30
0.0
 10
346.5917458767354
 20
467.9781211898242
 30
0.0
 10
346.5920861379859
 20
467.8532362535141
 30
0.0
 10
346.5921824361156
 20
467.8115821905653
 30
0.0
 10
346.5923106346031
 20
467.7492226091431
 30
0.0
 10
346.5923509015477
 20
467.7283358212231
 30
0.0
 10
346.5924082041824
 20
467.6971730185551
 30
0.0
 10
346.5924270080585
 20
467.6866974902681
 30
0.0
 10
346.592447759818
 20
467.6749017548279
 30
0.0
 10
346.5924497973111
 20
467.6737475838653
 30
0.0
 10
346.5924544054676
 20
467.6710931244863
 30
0.0
 10
346.5924568814218
 20
467.6697519004859
 30
0.0
 10
346.5924603484062
 20
467.667532353096
 30
0.0
 10
346.5924630606135
 20
467.6664555185076
 30
0.0
 10
346.5924640731606
 20
467.665423885634
 30
0.0
  0
LINE
  5
BF
330
1F
100
AcDbEntity
  8
0
  6
Continuous
 62
     7
370
    25
100
AcDbLine
 10
310.6033605896
 20
434.727282943
 30
0.0
 11
310.6033605896
 21
461.6493986223
 31
0.0
  0
LINE
  5
C0
330
1F
100
AcDbEntity
  8
0
  6
Continuous
 62
     7
370
    25
100
AcDbLine
 10
310.6033605896
 20
461.8883200097
 30
0.0
 11
310.6033605896
 21
461.6493986223
 31
0.0
  0
LWPOLYLINE
  5
C1
330
1F
100
AcDbEntity
  8
0
  6
Continuous
 62
     7
370
    25
100
AcDbPolyline
 90
        3
 70
   128
 43
0.0
 10
310.6033605896
 20
461.8883200097
 10
310.6033605896
 20
464.7769630224
 10
310.6033610862
 20
467.6654238722
  0
SPLINE
  5
C2
330
1F
100
AcDbEntity
  8
0
  6
Continuous
 62
     7
370
    25
100
AcDbSpline
210
0.0
220
0.0
230
1.0
 70
     8
 71
     3
 72
    32
 73
    28
 74
     0
 42
0.00000001
 43
0.00000001
 40
0.2250858375981555
 40
0.2250858375981555
 40
0.2250858375981555
 40
0.2250858375981555
 40
0.2259033326362474
 40
0.2259033326362474
 40
0.2295802538922678
 40
0.2295802538922678
 40
0.244287938916367
 40
0.244287938916367
 40
0.3031186790127578
 40
0.3031186790127578
 40
0.3619494191091477
 40
0.3619494191091477
 40
0.4796108993019275
 40
0.4796108993019275
 40
0.714933859687487
 40
0.714933859687487
 40
1.185579780458618
 40
1.185579780458618
 40
2.126871622000857
 40
2.126871622000857
 40
3.068163463543097
 40
3.068163463543097
 40
4.009455305085337
 40
4.009455305085337
 40
4.950747146627585
 40
4.950747146627585
 40
5.666953150571672
 40
5.666953150571672
 40
5.666953150571672
 40
5.666953150571672
 10
346.5924641260928
 20
467.66542387969
 30
0.0
 10
346.5924644155566
 20
467.6651289361452
 30
0.0
 10
346.5924645660875
 20
467.6648376875737
 30
0.0
 10
346.5924642578778
 20
467.6632761876549
 30
0.0
 10
346.5924643986459
 20
467.6619473618035
 30
0.0
 10
346.5924643526611
 20
467.6556648334433
 30
0.0
 10
346.5924643733332
 20
467.6501506006948
 30
0.0
 10
346.5924643669712
 20
467.6241877676499
 30
0.0
 10
346.5924643705076
 20
467.6035063409891
 30
0.0
 10
346.5924643702003
 20
467.5616750577781
 30
0.0
 10
346.5924643708231
 20
467.5411215983102
 30
0.0
 10
346.5924643717482
 20
467.4784330800406
 30
0.0
 10
346.592464372456
 20
467.4369226951856
 30
0.0
 10
346.5924643744342
 20
467.3118741824651
 30
0.0
 10
346.5924643757391
 20
467.2288146614956
 30
0.0
 10
346.5924643795498
 20
466.9789820155426
 30
0.0
 10
346.5924643819793
 20
466.8121981560152
 30
0.0
 10
346.5924643889251
 20
466.3128157389835
 30
0.0
 10
346.5924643931066
 20
465.9794999393581
 30
0.0
 10
346.5924644005424
 20
465.3134717987013
 30
0.0
 10
346.5924644038024
 20
464.9801965205265
 30
0.0
 10
346.592464409396
 20
464.3141972410094
 30
0.0
 10
346.5924644117294
 20
463.9810366340562
 30
0.0
 10
346.5924644154666
 20
463.3147922873081
 30
0.0
 10
346.5924644168691
 20
462.9817471756076
 30
0.0
 10
346.5924644185161
 20
462.3951757939157
 30
0.0
 10
346.592464418957
 20
462.1417369051674
 30
0.0
 10
346.5924644191272
 20
461.8883200079039
 30
0.0
  0
LINE
  5
C3
330
1F
100
AcDbEntity
  8
0
  6
Continuous
 62
     7
370
    25
100
AcDbLine
 10
346.5924644192
 20
461.6493986223
 30
0.0
 11
346.5924644192
 21
461.8883200097
 31
0.0
  0
LINE
  5
C4
330
1F
100
AcDbEntity
  8
0
  6
Continuous
 62
     7
370
    25
100
AcDbLine
 10
346.5924644192
 20
461.6493986223
 30
0.0
 11
346.5924644192
 21
434.727282943
 31
0.0
  0
LINE
  5
C5
330
1F
100
AcDbEntity
  8
0
  6
Continuous
 62
     7
370
    25
100
AcDbLine
 10
310.6033605896
 20
434.727282943
 30
0.0
 11
310.6033605896
 21
401.589330317
 31
0.0
  0
LINE
  5
C6
330
1F
100
AcDbEntity
  8
0
  6
Continuous
 62
     7
370
    25
100
AcDbLine
 10
346.5924644192
 20
434.727282943
 30
0.0
 11
346.5924644192
 21
401.589330317
 31
0.0
  0
LINE
  5
C7
330
1F
100
AcDbEntity
  8
0
  6
Continuous
 62
     7
370
    25
100
AcDbLine
 10
332.5652231801
 20
389.622550788
 30
0.0
 11
332.5652231801
 21
389.610803655
 31
0.0
  0
LINE
  5
C8
330
1F
100
AcDbEntity
  8
0
  6
Continuous
 62
     7
370
    25
100
AcDbLine
 10
333.5570082645
 20
389.6108045363
 30
0.0
 11
333.5570082645
 21
389.6225496854
 31
0.0
  0
LINE
  5
C9
330
1F
100
AcDbEntity
  8
0
  6
Continuous
 62
     7
370
    25
100
AcDbLine
 10
333.5570082639
 20
389.6108045363
 30
0.0
 11
332.5652231824
 21
389.6108046359
 31
0.0
  0
LINE
  5
CA
330
1F
100
AcDbEntity
  8
0
  6
Continuous
 62
     7
370
    25
100
AcDbLine
 10
324.6306193459
 20
389.6108049013
 30
0.0
 11
323.638788909
 21
389.6108048028
 31
0.0
  0
LINE
  5
CB
330
1F
100
AcDbEntity
  8
0
  6
Continuous
 62
     7
370
    25
100
AcDbLine
 10
323.6387888992
 20
389.6225488933
 30
0.0
 11
323.6387889095
 21
389.6108053382
 31
0.0
  0
LINE
  5
CC
330
1F
100
AcDbEntity
  8
0
  6
Continuous
 62
     7
370
    25
100
AcDbLine
 10
324.6306193467
 20
389.6108049013
 30
0.0
 11
324.6306193467
 21
389.6225495097
 31
0.0
  0
LINE
  5
CD
330
1F
100
AcDbEntity
  8
0
  6
Continuous
 62
     7
370
    25
100
AcDbLine
 10
346.5979125044
 20
461.6493986224
 30
0.0
 11
346.5924644192
 21
461.2065652628
 31
0.0
  0
LINE
  5
CE
330
1F
100
AcDbEntity
  8
0
  6
Continuous
 62
     7
370
    25
100
AcDbLine
 10
368.1229125044
 20
426.5409407003
 30
0.0
 11
346.5924644192
 21
426.5409407003
 31
0.0
  0
LINE
  5
CF
330
1F
100
AcDbEntity
  8
0
  6
Continuous
 62
     7
370
    25
100
AcDbLine
 10
310.6033605896
 20
426.5409407003
 30
0.0
 11
179.070505789
 21
426.5409407003
 31
0.0
  0
ARC
  5
D0
330
1F
100
AcDbEntity
  8
0
  6
Continuous
 62
     7
370
    25
100
AcDbCircle
 10
179.070505789
 20
431.6543986224
 30
0.0
 40
5.113457922033604
100
AcDbArc
 50
180.0
 51
270.0
  0
LINE
  5
D1
330
1F
100
AcDbEntity
  8
0
  6
Continuous
 62
     7
370
    25
100
AcDbLine
 10
173.9570478669
 20
431.6543986224
 30
0.0
 11
173.9570478669
 21
491.64873026
 31
0.0
  0
ARC
  5
D2
330
1F
100
AcDbEntity
  8
0
  6
Continuous
 62
     7
370
    25
100
AcDbCircle
 10
179.070505789
 20
491.64873026
 30
0.0
 40
5.113457922033263
100
AcDbArc
 50
90.0
 51
180.0
  0
LINE
  5
D3
330
1F
100
AcDbEntity
  8
0
  6
Continuous
 62
     7
370
    25
100
AcDbLine
 10
179.070505789
 20
496.7621881821
 30
0.0
 11
368.1229125044
 21
496.7621881821
 31
0.0
  0
ARC
  5
D4
330
1F
100
AcDbEntity
  8
0
  6
Continuous
 62
     7
370
    25
100
AcDbCircle
 10
368.1229125044
 20
431.6543986224
 30
0.0
 40
5.113457922034229
100
AcDbArc
 50
270.0
 51
360.0
  0
LINE
  5
D5
330
1F
100
AcDbEntity
  8
0
  6
Continuous
 62
     7
370
    25
100
AcDbLine
 10
373.2363704264
 20
491.64873026
 30
0.0
 11
373.2363704264
 21
431.6543986224
 31
0.0
  0
ARC
  5
D6
330
1F
100
AcDbEntity
  8
0
  6
Continuous
 62
     7
370
    25
100
AcDbCircle
 10
368.1229125044
 20
491.64873026
 30
0.0
 40
5.113457922033376
100
AcDbArc
 50
360.0
 51
90.0
  0
SPLINE
  5
D7
330
1F
100
AcDbEntity
  8
0
  6
Continuous
 62
     8
370
    18
100
AcDbSpline
210
0.0
220
0.0
230
1.0
 70
    24
 71
     3
 72
     9
 73
     5
 74
     0
 42
0.00000001
 43
0.00000001
 40
0.0
 40
0.0
 40
0.0
 40
0.0
 40
0.5
 40
1.0
 40
1.0
 40
1.0
 40
1.0
 10
200.7378566657429
 20
467.9493986224256
 30
0.0
 10
200.7288798178432
 20
467.9493986224256
 30
0.0
 10
201.8244933358628
 20
467.9493986224256
 30
0.0
 10
204.4273806007635
 20
467.9493986224256
 30
0.0
 10
205.7378566657428
 20
467.9493986224256
 30
0.0
  0
LINE
  5
D8
330
1F
100
AcDbEntity
  8
0
  6
Continuous
 62
     8
370
    18
100
AcDbLine
 10
205.7378566657
 20
467.9493986224
 30
0.0
 11
231.4579125141
 21
467.9493986222
 31
0.0
  0
SPLINE
  5
D9
330
1F
100
AcDbEntity
  8
0
  6
Continuous
 62
     8
370
    18
100
AcDbSpline
210
0.0
220
0.0
230
1.0
 70
    24
 71
     3
 72
    11
 73
     7
 74
     0
 42
0.00000001
 43
0.00000001
 40
0.0
 40
0.0
 40
0.0
 40
0.0
 40
0.2652617397295253
 40
0.5305234794590524
 40
0.7957852191885795
 40
1.0
 40
1.0
 40
1.0
 40
1.0
 10
231.4579125141329
 20
467.9493986224256
 30
0.0
 10
232.1135825143134
 20
467.9493986224186
 30
0.0
 10
233.4249225146745
 20
467.9493986224045
 30
0.0
 10
235.0703754829456
 20
467.9493986223985
 30
0.0
 10
236.1634353631982
 20
467.9493986224037
 30
0.0
 10
236.3076083082433
 20
467.949398622416
 30
0.0
 10
236.3703212344136
 20
467.9493986224213
 30
0.0
  0
LINE
  5
DA
330
1F
100
AcDbEntity
  8
0
  6
Continuous
 62
     8
370
    18
100
AcDbLine
 10
333.5570082736
 20
389.6225496854
 30
0.0
 11
332.5652231782
 21
389.622549785
 31
0.0
  0
LINE
  5
DB
330
1F
100
AcDbEntity
  8
0
  6
Continuous
 62
     8
370
    18
100
AcDbLine
 10
324.630619351
 20
389.6225495097
 30
0.0
 11
323.6387889001
 21
389.6225494112
 31
0.0
  0
SPLINE
  5
DC
330
1F
100
AcDbEntity
  8
0
  6
Continuous
 62
     8
370
    18
100
AcDbSpline
210
0.0
220
0.0
230
1.0
 70
     8
 71
     3
 72
    70
 73
    66
 74
     0
 42
0.00000001
 43
0.00000001
 40
0.0
 40
0.0
 40
0.0
 40
0.0
 40
0.0009765624999998
 40
0.0009765624999998
 40
0.0019531249999997
 40
0.0019531249999997
 40
0.0039062499999994
 40
0.0039062499999994
 40
0.0078124999999991
 40
0.0078124999999991
 40
0.0156249999999992
 40
0.0156249999999992
 40
0.0312499999999992
 40
0.0312499999999992
 40
0.0624999999999992
 40
0.0624999999999992
 40
0.0937499999999992
 40
0.0937499999999992
 40
0.1249999999999992
 40
0.1249999999999992
 40
0.1562499999999993
 40
0.1562499999999993
 40
0.1874999999999993
 40
0.1874999999999993
 40
0.2187499999999993
 40
0.2187499999999993
 40
0.2499999999999993
 40
0.2499999999999993
 40
0.2812499999999993
 40
0.2812499999999993
 40
0.3124999999999993
 40
0.3124999999999993
 40
0.3749999999999992
 40
0.3749999999999992
 40
0.4374999999999992
 40
0.4374999999999992
 40
0.4999999999999992
 40
0.4999999999999992
 40
0.6249999999999992
 40
0.6249999999999992
 40
0.6874999999999992
 40
0.6874999999999992
 40
0.7187499999999993
 40
0.7187499999999993
 40
0.7499999999999993
 40
0.7499999999999993
 40
0.7812499999999993
 40
0.7812499999999993
 40
0.8124999999999993
 40
0.8124999999999993
 40
0.8437499999999993
 40
0.8437499999999993
 40
0.8749999999999993
 40
0.8749999999999993
 40
0.9374999999999994
 40
0.9374999999999994
 40
0.9687499999999997
 40
0.9687499999999997
 40
0.9843749999999998
 40
0.9843749999999998
 40
0.9921874999999999
 40
0.9921874999999999
 40
0.9960937499999999
 40
0.9960937499999999
 40
1.0
 40
1.0
 40
1.0
 40
1.0
 10
311.6033590558424
 20
467.6549459758065
 30
0.0
 10
311.6033847774182
 20
467.6696155096384
 30
0.0
 10
311.6034156791196
 20
467.6867503764926
 30
0.0
 10
311.6034753500943
 20
467.7184499851125
 30
0.0
 10
311.6035063820564
 20
467.7343002692045
 30
0.0
 10
311.6036042946133
 20
467.7819184398485
 30
0.0
 10
311.6036760116033
 20
467.8137452996455
 30
0.0
 10
311.6039181454144
 20
467.9089754998965
 30
0.0
 10
311.6041160637063
 20
467.9724606540436
 30
0.0
 10
311.6048915615684
 20
468.1632608521766
 30
0.0
 10
311.6056461389883
 20
468.2899941150566
 30
0.0
 10
311.6091884322973
 20
468.6712265279397
 30
0.0
 10
311.6132500064793
 20
468.9252513733397
 30
0.0
 10
311.6350236257334
 20
469.687081373206
 30
0.0
 10
311.6629567016553
 20
470.1948966559494
 30
0.0
 10
311.7642794166274
 20
471.2060703969918
 30
0.0
 10
311.8375417353764
 20
471.7095539691439
 30
0.0
 10
312.0448252969244
 20
472.7046045875382
 30
0.0
 10
312.1787757504904
 20
473.1961695068653
 30
0.0
 10
312.5241419235068
 20
474.1517579886298
 30
0.0
 10
312.7361594347547
 20
474.6162605442829
 30
0.0
 10
313.255300326923
 20
475.4898973116394
 30
0.0
 10
313.563601263383
 20
475.898170561332
 30
0.0
 10
314.2769867822741
 20
476.6228369546924
 30
0.0
 10
314.6805153254041
 20
476.9372505468955
 30
0.0
 10
315.5472283939043
 20
477.4680319143438
 30
0.0
 10
316.0094815597355
 20
477.6850737643925
 30
0.0
 10
316.9618307931159
 20
478.0395589748607
 30
0.0
 10
317.4524076600679
 20
478.1773763735923
 30
0.0
 10
318.4459879712504
 20
478.3913165157405
 30
0.0
 10
318.9491845986199
 20
478.4673841911116
 30
0.0
 10
320.4653850141864
 20
478.6259518368117
 30
0.0
 10
321.4845712062994
 20
478.6349259465287
 30
0.0
 10
323.515228655151
 20
478.6355700120968
 30
0.0
 10
324.532427927616
 20
478.6352620790581
 30
0.0
 10
326.5653317169163
 20
478.6352620790927
 30
0.0
 10
327.5815061544785
 20
478.6352620790838
 30
0.0
 10
330.6305888179283
 20
478.6352620790822
 30
0.0
 10
332.6635607603538
 20
478.6358952657258
 30
0.0
 10
335.7120284407893
 20
478.6349242687817
 30
0.0
 10
336.7304614035979
 20
478.6259478651967
 30
0.0
 10
338.2465474031542
 20
478.4673951300065
 30
0.0
 10
338.7497703003555
 20
478.3913313113935
 30
0.0
 10
339.7433521505716
 20
478.1773998336174
 30
0.0
 10
340.2340870141567
 20
478.0395263524558
 30
0.0
 10
341.1862076115971
 20
477.6851234575715
 30
0.0
 10
341.6486595846172
 20
477.4679792630858
 30
0.0
 10
342.5150705882657
 20
476.9374115738216
 30
0.0
 10
342.9189602227494
 20
476.6227243106599
 30
0.0
 10
343.6320505128495
 20
475.8983389430314
 30
0.0
 10
343.9406037608307
 20
475.4897677247688
 30
0.0
 10
344.4595614219868
 20
474.6164335014325
 30
0.0
 10
344.6715789937025
 20
474.1520283493142
 30
0.0
 10
345.1898576012825
 20
472.7180589994738
 30
0.0
 10
345.3808795393592
 20
471.7116679905658
 30
0.0
 10
345.5328626860742
 20
470.1949754587285
 30
0.0
 10
345.5607992203649
 20
469.6871608640989
 30
0.0
 10
345.5825746730448
 20
468.9252642605728
 30
0.0
 10
345.5866351086548
 20
468.6713067496046
 30
0.0
 10
345.5901787048288
 20
468.2900819762556
 30
0.0
 10
345.5909339891629
 20
468.1631271344526
 30
0.0
 10
345.5917083998048
 20
467.9725955929206
 30
0.0
 10
345.5919067937598
 20
467.9090210892305
 30
0.0
 10
345.5922298627332
 20
467.7819387342639
 30
0.0
 10
345.5923507339361
 20
467.720664076607
 30
0.0
 10
345.5924659529758
 20
467.6549459758065
 30
0.0
  0
LINE
  5
DD
330
1F
100
AcDbEntity
  8
0
  6
Continuous
 62
     8
370
    18
100
AcDbLine
 10
345.592465953
 20
467.6549459758
 30
0.0
 11
345.592465953
 21
434.727282943
 31
0.0
  0
LINE
  5
DE
330
1F
100
AcDbEntity
  8
0
  6
Continuous
 62
     8
370
    18
100
AcDbLine
 10
345.592465953
 20
401.5998082207
 30
0.0
 11
345.592465953
 21
434.727282943
 31
0.0
  0
LINE
  5
DF
330
1F
100
AcDbEntity
  8
0
  6
Continuous
 62
     8
370
    18
100
AcDbLine
 10
311.6033590558
 20
401.5998082207
 30
0.0
 11
311.6033590558
 21
434.727282943
 31
0.0
  0
LINE
  5
E0
330
1F
100
AcDbEntity
  8
0
  6
Continuous
 62
     8
370
    18
100
AcDbLine
 10
311.6033590558
 20
434.727282943
 30
0.0
 11
311.6033590558
 21
467.6549459758
 31
0.0
  0
SPLINE
  5
E1
330
1F
100
AcDbEntity
  8
0
  6
Continuous
 62
     8
370
    18
100
AcDbSpline
210
0.0
220
0.0
230
1.0
 70
     8
 71
     3
 72
    30
 73
    26
 74
     0
 42
0.00000001
 43
0.00000001
 40
0.0
 40
0.0
 40
0.0
 40
0.0
 40
0.0636728629411901
 40
0.1274242133578797
 40
0.1908189145218255
 40
0.2534264262878593
 40
0.3148356034756111
 40
0.3746677516104989
 40
0.4325869353992066
 40
0.4883069416676252
 40
0.5415947448479838
 40
0.592270721339218
 40
0.6402061481384327
 40
0.685318676785735
 40
0.7275665047410796
 40
0.7669419029571213
 40
0.8034646384269132
 40
0.8371756886711895
 40
0.8681315074455139
 40
0.8963989830437123
 40
0.922051139168185
 40
0.9451635638132312
 40
0.9658115106660234
 40
0.9840675953096023
 40
1.0
 40
1.0
 40
1.0
 40
1.0
 10
310.6033605896096
 20
434.7272829430474
 30
0.0
 10
310.6043243276299
 20
434.7272771012694
 30
0.0
 10
310.6062529916392
 20
434.7272654105122
 30
0.0
 10
310.6217832853447
 20
434.7271860345797
 30
0.0
 10
310.6462463625209
 20
434.7270803246276
 30
0.0
 10
310.6798842084686
 20
434.7269573627374
 30
0.0
 10
310.7214847831236
 20
434.7268319768083
 30
0.0
 10
310.7699062040982
 20
434.72671522605
 30
0.0
 10
310.8237781983619
 20
434.726616235554
 30
0.0
 10
310.8816896565131
 20
434.726541350175
 30
0.0
 10
310.9422431006896
 20
434.7264942919452
 30
0.0
 10
311.0041271959038
 20
434.7264763204225
 30
0.0
 10
311.0661627013586
 20
434.7264865839595
 30
0.0
 10
311.1273316490378
 20
434.7265225355166
 30
0.0
 10
311.1867889747104
 20
434.7265803720833
 30
0.0
 10
311.243860574947
 20
434.7266554511509
 30
0.0
 10
311.2980314794749
 20
434.7267426545964
 30
0.0
 10
311.3489278726724
 20
434.7268366944222
 30
0.0
 10
311.3962960721431
 20
434.7269323286827
 30
0.0
 10
311.4399808381863
 20
434.7270245869605
 30
0.0
 10
311.4799046374793
 20
434.7271087044626
 30
0.0
 10
311.5160488513382
 20
434.7271807791748
 30
0.0
 10
311.5484373910767
 20
434.7272359458261
 30
0.0
 10
311.5771229187663
 20
434.7272742707937
 30
0.0
 10
311.5950191257314
 20
434.7272801863158
 30
0.0
 10
311.6033590558466
 20
434.7272829430474
 30
0.0
  0
SPLINE
  5
E2
330
1F
100
AcDbEntity
  8
0
  6
Continuous
 62
     8
370
    18
100
AcDbSpline
210
0.0
220
0.0
230
1.0
 70
    24
 71
     3
 72
    10
 73
     6
 74
     0
 42
0.00000001
 43
0.00000001
 40
0.0
 40
0.0
 40
0.0
 40
0.0
 40
0.5
 40
0.5
 40
1.0
 40
1.0
 40
1.0
 40
1.0
 10
346.5924644192086
 20
434.7272829430474
 30
0.0
 10
346.5924644192086
 20
434.7272829430475
 30
0.0
 10
346.4854580103855
 20
434.7272829430475
 30
0.0
 10
346.1143805035589
 20
434.7272829430475
 30
0.0
 10
345.8548864478449
 20
434.7272829430475
 30
0.0
 10
345.5924659529716
 20
434.7272829430475
 30
0.0
  0
ARC
  5
E3
330
1F
100
AcDbEntity
  8
0
  6
Continuous
 62
     8
370
    18
100
AcDbCircle
 10
368.1229125044
 20
431.6543986224
 30
0.0
 40
3.820763284262
100
AcDbArc
 50
270.0
 51
360.0
  0
LINE
  5
E4
330
1F
100
AcDbEntity
  8
0
  6
Continuous
 62
     8
370
    18
100
AcDbLine
 10
179.070505789
 20
427.8336353381
 30
0.0
 11
310.6033605896
 21
427.8336353381
 31
0.0
  0
LINE
  5
E5
330
1F
100
AcDbEntity
  8
0
  6
Continuous
 62
     8
370
    18
100
AcDbLine
 10
346.5924644192
 20
427.8336353381
 30
0.0
 11
368.1229125044
 21
427.8336353381
 31
0.0
  0
ARC
  5
E6
330
1F
100
AcDbEntity
  8
0
  6
Continuous
 62
     8
370
    18
100
AcDbCircle
 10
179.070505789
 20
431.6543986224
 30
0.0
 40
3.820763284261432
100
AcDbArc
 50
180.0
 51
270.0
  0
LINE
  5
E7
330
1F
100
AcDbEntity
  8
0
  6
Continuous
 62
     8
370
    18
100
AcDbLine
 10
175.2497425047
 20
491.64873026
 30
0.0
 11
175.2497425047
 21
431.6543986224
 31
0.0
  0
ARC
  5
E8
330
1F
100
AcDbEntity
  8
0
  6
Continuous
 62
     8
370
    18
100
AcDbCircle
 10
179.070505789
 20
491.64873026
 30
0.0
 40
3.820763284260352
100
AcDbArc
 50
90.0
 51
180.0
  0
LINE
  5
E9
330
1F
100
AcDbEntity
  8
0
  6
Continuous
 62
     8
370
    18
100
AcDbLine
 10
368.1229125044
 20
495.4694935443
 30
0.0
 11
179.070505789
 21
495.4694935443
 31
0.0
  0
ARC
  5
EA
330
1F
100
AcDbEntity
  8
0
  6
Continuous
 62
     8
370
    18
100
AcDbCircle
 10
368.1229125044
 20
491.64873026
 30
0.0
 40
3.820763284261204
100
AcDbArc
 50
360.0
 51
90.0
  0
LINE
  5
EB
330
1F
100
AcDbEntity
  8
0
  6
Continuous
 62
     8
370
    18
100
AcDbLine
 10
371.9436757886
 20
431.6543986224
 30
0.0
 11
371.9436757886
 21
491.64873026
 31
0.0
  0
LINE
  5
EC
330
1F
100
AcDbEntity
  8
0
  6
Continuous
 62
     8
370
    18
100
AcDbLine
 10
179.070505789
 20
427.8336353381
 30
0.0
 11
179.070505789
 21
426.6338181039
 31
0.0
  0
ARC
  5
ED
330
1F
100
AcDbEntity
  8
0
  6
Continuous
 62
     8
370
    18
100
AcDbCircle
 10
179.070505789
 20
431.6543986224
 30
0.0
 40
5.020580518449037
100
AcDbArc
 50
180.0
 51
270.0
  0
LINE
  5
EE
330
1F
100
AcDbEntity
  8
0
  6
Continuous
 62
     8
370
    18
100
AcDbLine
 10
174.0499252705
 20
431.6543986224
 30
0.0
 11
175.2497425047
 21
431.6543986224
 31
0.0
  0
LINE
  5
EF
330
1F
100
AcDbEntity
  8
0
  6
Continuous
 62
     8
370
    18
100
AcDbLine
 10
368.1229125044
 20
427.8336353381
 30
0.0
 11
368.1229125044
 21
426.6338181039
 31
0.0
  0
LINE
  5
F0
330
1F
100
AcDbEntity
  8
0
  6
Continuous
 62
     8
370
    18
100
AcDbLine
 10
368.1229125044
 20
426.6338181039
 30
0.0
 11
346.5924644192
 21
426.6338181039
 31
0.0
  0
LINE
  5
F1
330
1F
100
AcDbEntity
  8
0
  6
Continuous
 62
     8
370
    18
100
AcDbLine
 10
310.6033605896
 20
426.6338181039
 30
0.0
 11
179.070505789
 21
426.6338181039
 31
0.0
  0
LINE
  5
F2
330
1F
100
AcDbEntity
  8
0
  6
Continuous
 62
     8
370
    18
100
AcDbLine
 10
174.0499252705
 20
431.6543986224
 30
0.0
 11
174.0499252705
 21
491.64873026
 31
0.0
  0
LINE
  5
F3
330
1F
100
AcDbEntity
  8
0
  6
Continuous
 62
     8
370
    18
100
AcDbLine
 10
174.0499252705
 20
491.64873026
 30
0.0
 11
175.2497425047
 21
491.64873026
 31
0.0
  0
ARC
  5
F4
330
1F
100
AcDbEntity
  8
0
  6
Continuous
 62
     8
370
    18
100
AcDbCircle
 10
179.070505789
 20
491.64873026
 30
0.0
 40
5.020580518448725
100
AcDbArc
 50
90.0
 51
180.0
  0
LINE
  5
F5
330
1F
100
AcDbEntity
  8
0
  6
Continuous
 62
     8
370
    18
100
AcDbLine
 10
179.070505789
 20
496.6693107785
 30
0.0
 11
179.070505789
 21
495.4694935443
 31
0.0
  0
LINE
  5
F6
330
1F
100
AcDbEntity
  8
0
  6
Continuous
 62
     8
370
    18
100
AcDbLine
 10
179.070505789
 20
496.6693107785
 30
0.0
 11
368.1229125044
 21
496.6693107785
 31
0.0
  0
LINE
  5
F7
330
1F
100
AcDbEntity
  8
0
  6
Continuous
 62
     8
370
    18
100
AcDbLine
 10
368.1229125044
 20
496.6693107785
 30
0.0
 11
368.1229125044
 21
495.4694935443
 31
0.0
  0
LINE
  5
F8
330
1F
100
AcDbEntity
  8
0
  6
Continuous
 62
     8
370
    18
100
AcDbLine
 10
371.9436757886
 20
431.6543986224
 30
0.0
 11
373.1434930228
 21
431.6543986224
 31
0.0
  0
ARC
  5
F9
330
1F
100
AcDbEntity
  8
0
  6
Continuous
 62
     8
370
    18
100
AcDbCircle
 10
368.1229125044
 20
431.6543986224
 30
0.0
 40
5.020580518449663
100
AcDbArc
 50
270.0
 51
360.0
  0
LINE
  5
FA
330
1F
100
AcDbEntity
  8
0
  6
Continuous
 62
     8
370
    18
100
AcDbLine
 10
371.9436757886
 20
491.64873026
 30
0.0
 11
373.1434930228
 21
491.64873026
 31
0.0
  0
LINE
  5
FB
330
1F
100
AcDbEntity
  8
0
  6
Continuous
 62
     8
370
    18
100
AcDbLine
 10
373.1434930228
 20
491.64873026
 30
0.0
 11
373.1434930228
 21
431.6543986224
 31
0.0
  0
ARC
  5
FC
330
1F
100
AcDbEntity
  8
0
  6
Continuous
 62
     8
370
    18
100
AcDbCircle
 10
368.1229125044
 20
491.64873026
 30
0.0
 40
5.02058051844881
100
AcDbArc
 50
360.0
 51
90.0
  0
LINE
  5
FD
330
1F
100
AcDbEntity
  8
0
  6
Continuous
 62
     8
370
    18
100
AcDbLine
 10
179.070505789
 20
426.5409407003
 30
0.0
 11
179.070505789
 21
426.6338181039
 31
0.0
  0
LINE
  5
FE
330
1F
100
AcDbEntity
  8
0
  6
Continuous
 62
     8
370
    18
100
AcDbLine
 10
368.1229125044
 20
426.5409407003
 30
0.0
 11
368.1229125044
 21
426.6338181039
 31
0.0
  0
LINE
  5
FF
330
1F
100
AcDbEntity
  8
0
  6
Continuous
 62
     8
370
    18
100
AcDbLine
 10
173.9570478669
 20
431.6543986224
 30
0.0
 11
174.0499252705
 21
431.6543986224
 31
0.0
  0
LINE
  5
100
330
1F
100
AcDbEntity
  8
0
  6
Continuous
 62
     8
370
    18
100
AcDbLine
 10
174.0499252705
 20
491.64873026
 30
0.0
 11
173.9570478669
 21
491.64873026
 31
0.0
  0
LINE
  5
101
330
1F
100
AcDbEntity
  8
0
  6
Continuous
 62
     8
370
    18
100
AcDbLine
 10
179.070505789
 20
496.7621881821
 30
0.0
 11
179.070505789
 21
496.6693107785
 31
0.0
  0
LINE
  5
102
330
1F
100
AcDbEntity
  8
0
  6
Continuous
 62
     8
370
    18
100
AcDbLine
 10
368.1229125044
 20
496.7621881821
 30
0.0
 11
368.1229125044
 21
496.6693107785
 31
0.0
  0
LINE
  5
103
330
1F
100
AcDbEntity
  8
0
  6
Continuous
 62
     8
370
    18
100
AcDbLine
 10
373.2363704264
 20
431.6543986224
 30
0.0
 11
373.1434930228
 21
431.6543986224
 31
0.0
  0
LINE
  5
104
330
1F
100
AcDbEntity
  8
0
  6
Continuous
 62
     8
370
    18
100
AcDbLine
 10
373.2363704264
 20
491.64873026
 30
0.0
 11
373.1434930228
 21
491.64873026
 31
0.0
  0
LINE
  5
105
330
1F
100
AcDbEntity
  8
0
  6
Continuous
 62
     7
370
    25
100
AcDbLine
 10
310.5979125044
 20
326.9906349536
 30
0.0
 11
310.5979125044
 21
307.5013315736
 31
0.0
  0
LINE
  5
106
330
1F
100
AcDbEntity
  8
0
  6
Continuous
 62
     7
370
    25
100
AcDbLine
 10
346.5979125044
 20
307.5013315736
 30
0.0
 11
346.5979125044
 21
326.9906349536
 31
0.0
  0
ARC
  5
107
330
1F
100
AcDbEntity
  8
0
  6
Continuous
 62
     7
370
    25
100
AcDbCircle
 10
312.5979125044
 20
307.5013315736
 30
0.0
 40
2.0
100
AcDbArc
 50
180.0
 51
270.0
  0
ARC
  5
108
330
1F
100
AcDbEntity
  8
0
  6
Continuous
 62
     7
370
    25
100
AcDbCircle
 10
344.5979125044
 20
307.5013315736
 30
0.0
 40
2.0
100
AcDbArc
 50
270.0
 51
0.0
  0
SPLINE
  5
109
330
1F
100
AcDbEntity
  8
0
  6
Continuous
 62
     7
370
    25
100
AcDbSpline
210
0.0
220
0.0
230
1.0
 70
     8
 71
     3
 72
    15
 73
    11
 74
     0
 42
0.00000001
 43
0.00000001
 40
0.0
 40
0.0
 40
0.0
 40
0.0
 40
0.1675757645210731
 40
0.315478262895332
 40
0.4273562112813157
 40
0.5228172154679753
 40
0.6207178904960482
 40
0.7224000547779069
 40
0.8462308674576794
 40
0.9999999999999999
 40
0.9999999999999999
 40
0.9999999999999999
 40
0.9999999999999999
 10
310.6047266190399
 20
304.4464613783143
 30
0.0
 10
310.6047108956277
 20
302.9026125789896
 30
0.0
 10
310.6046812947197
 20
299.9961616445364
 30
0.0
 10
310.6045636741337
 20
296.0589968175693
 30
0.0
 10
310.6044385332859
 20
292.7862167643542
 30
0.0
 10
310.6043136140964
 20
289.9740881351883
 30
0.0
 10
310.6041686012201
 20
287.2559191870296
 30
0.0
 10
310.6040317791067
 20
284.2762726788022
 30
0.0
 10
310.603442834315
 20
280.7824441068182
 30
0.0
 10
310.6033911381784
 20
278.2271541562084
 30
0.0
 10
310.6033625024737
 20
276.8117190098324
 30
0.0
  0
SPLINE
  5
10A
330
1F
100
AcDbEntity
  8
0
  6
Continuous
 62
     7
370
    25
100
AcDbSpline
210
0.0
220
0.0
230
1.0
 70
     8
 71
     3
 72
    15
 73
    11
 74
     0
 42
0.00000001
 43
0.00000001
 40
0.0
 40
0.0
 40
0.0
 40
0.0
 40
0.1056060959105768
 40
0.5771763114813023
 40
0.8079234769198114
 40
0.9142894847720539
 40
0.9620703493289308
 40
0.9832840724629317
 40
0.9926521458053593
 40
1.0
 40
1.0
 40
1.0
 40
1.0
 10
345.5182812366544
 20
273.6278952642717
 30
0.0
 10
345.5837997402776
 20
273.6346883967834
 30
0.0
 10
345.9418825566998
 20
273.6718153744708
 30
0.0
 10
346.2484933153642
 20
273.8327809267058
 30
0.0
 10
346.4530511504561
 20
274.0746406630862
 30
0.0
 10
346.5152133734633
 20
274.2064449849789
 30
0.0
 10
346.5377857700302
 20
274.2685558596368
 30
0.0
 10
346.5467175696684
 20
274.2966820148029
 30
0.0
 10
346.5508105287378
 20
274.3103423336529
 30
0.0
 10
346.5525553879314
 20
274.3164143724572
 30
0.0
 10
346.5533223792285
 20
274.3190834708785
 30
0.0
  0
SPLINE
  5
10B
330
1F
100
AcDbEntity
  8
0
  6
Continuous
 62
     7
370
    25
100
AcDbSpline
210
0.0
220
0.0
230
1.0
 70
     8
 71
     3
 72
    16
 73
    12
 74
     0
 42
0.00000001
 43
0.00000001
 40
0.0
 40
0.0
 40
0.0
 40
0.0
 40
0.0148855237371785
 40
0.0266992317895599
 40
0.0479555381245771
 40
0.0864363254711654
 40
0.1568440262357292
 40
0.2881144091536732
 40
0.5423760225704666
 40
0.8657153918072266
 40
1.0
 40
1.0
 40
1.0
 40
1.0
 10
310.6302297676297
 20
274.365870102393
 30
0.0
 10
310.6328182898231
 20
274.3553245598865
 30
0.0
 10
310.6374611599873
 20
274.3364096806588
 30
0.0
 10
310.6468132364308
 20
274.3035416345155
 30
0.0
 10
310.6621268464239
 20
274.2557221179936
 30
0.0
 10
310.6942867987771
 20
274.1735453464734
 30
0.0
 10
310.7656326206371
 20
274.0385725031628
 30
0.0
 10
310.9265761811528
 20
273.8423626489982
 30
0.0
 10
311.2106751109362
 20
273.6864083256775
 30
0.0
 10
311.447228877142
 20
273.6357872329814
 30
0.0
 10
311.7434387677001
 20
273.6150913255377
 30
0.0
 10
311.8303582279081
 20
273.6090183443144
 30
0.0
  0
ARC
  5
10C
330
1F
100
AcDbEntity
  8
0
  6
Continuous
 62
     7
370
    25
100
AcDbCircle
 10
313.1602945944
 20
304.5227248171
 30
0.0
 40
0.9786067564917573
100
AcDbArc
 50
5.1312373238
 51
90.0
  0
ARC
  5
10D
330
1F
100
AcDbEntity
  8
0
  6
Continuous
 62
     7
370
    25
100
AcDbCircle
 10
344.0355304144
 20
304.5227248171
 30
0.0
 40
0.9786067564917289
100
AcDbArc
 50
90.0
 51
174.8687626762
  0
LINE
  5
10E
330
1F
100
AcDbEntity
  8
0
  6
Continuous
 62
     7
370
    25
100
AcDbLine
 10
173.9570478669
 20
333.4906349536
 30
0.0
 11
179.070505789
 21
333.4906349536
 31
0.0
  0
LINE
  5
10F
330
1F
100
AcDbEntity
  8
0
  6
Continuous
 62
     7
370
    25
100
AcDbLine
 10
174.0499252705
 20
328.1696920658
 30
0.0
 11
173.9570478669
 21
333.4906349536
 31
0.0
  0
LINE
  5
110
330
1F
100
AcDbEntity
  8
0
  6
Continuous
 62
     7
370
    25
100
AcDbLine
 10
179.070505789
 20
333.4906349536
 30
0.0
 11
368.1229125044
 21
333.4906349536
 31
0.0
  0
LINE
  5
111
330
1F
100
AcDbEntity
  8
0
  6
Continuous
 62
     7
370
    25
100
AcDbLine
 10
373.2363704264
 20
333.4906349536
 30
0.0
 11
373.1434930228
 21
328.1696920658
 31
0.0
  0
LINE
  5
112
330
1F
100
AcDbEntity
  8
0
  6
Continuous
 62
     7
370
    25
100
AcDbLine
 10
368.1229125044
 20
333.4906349536
 30
0.0
 11
373.2363704264
 21
333.4906349536
 31
0.0
  0
LINE
  5
113
330
1F
100
AcDbEntity
  8
0
  6
Continuous
 62
     7
370
    25
100
AcDbLine
 10
179.070505789
 20
326.9906349536
 30
0.0
 11
175.2497425047
 21
326.9906349536
 31
0.0
  0
ARC
  5
114
330
1F
100
AcDbEntity
  8
0
  6
Continuous
 62
     7
370
    25
100
AcDbCircle
 10
175.2497425047
 20
328.1906349536
 30
0.0
 40
1.200000000000045
100
AcDbArc
 50
181.0
 51
270.0
  0
LINE
  5
115
330
1F
100
AcDbEntity
  8
0
  6
Continuous
 62
     7
370
    25
100
AcDbLine
 10
368.1229125044
 20
326.9906349536
 30
0.0
 11
179.070505789
 21
326.9906349536
 31
0.0
  0
LINE
  5
116
330
1F
100
AcDbEntity
  8
0
  6
Continuous
 62
     7
370
    25
100
AcDbLine
 10
371.9436757886
 20
326.9906349536
 30
0.0
 11
368.1229125044
 21
326.9906349536
 31
0.0
  0
ARC
  5
117
330
1F
100
AcDbEntity
  8
0
  6
Continuous
 62
     7
370
    25
100
AcDbCircle
 10
371.9436757886
 20
328.1906349536
 30
0.0
 40
1.199999999999993
100
AcDbArc
 50
270.0
 51
359.0
  0
ELLIPSE
  5
118
330
1F
100
AcDbEntity
  8
0
  6
Continuous
 62
     7
370
    25
100
AcDbEllipse
 10
328.5979125044
 20
304.5389592679
 30
0.0
 11
17.99455191479962
 21
1.136868377216160E-13
 31
0.0
210
0.0
220
0.0
230
1.0
 40
0.4222134409
 41
0.0000000000059705
 42
0.0493645957433304
  0
SPLINE
  5
119
330
1F
100
AcDbEntity
  8
0
  6
Continuous
 62
     7
370
    25
100
AcDbSpline
210
0.0
220
0.0
230
1.0
 70
     8
 71
     3
 72
    56
 73
    52
 74
     0
 42
0.00000001
 43
0.00000001
 40
0.0
 40
0.0
 40
0.0
 40
0.0
 40
0.0625000000000007
 40
0.0625000000000007
 40
0.093750000000001
 40
0.093750000000001
 40
0.1250000000000013
 40
0.1250000000000013
 40
0.1875000000000018
 40
0.1875000000000018
 40
0.2187500000000021
 40
0.2187500000000021
 40
0.2500000000000023
 40
0.2500000000000023
 40
0.3125000000000029
 40
0.3125000000000029
 40
0.3437500000000031
 40
0.3437500000000031
 40
0.3750000000000033
 40
0.3750000000000033
 40
0.4062500000000035
 40
0.4062500000000035
 40
0.4375000000000037
 40
0.4375000000000037
 40
0.5000000000000042
 40
0.5000000000000042
 40
0.5312500000000044
 40
0.5312500000000044
 40
0.5625000000000047
 40
0.5625000000000047
 40
0.5937500000000049
 40
0.5937500000000049
 40
0.6093750000000049
 40
0.6093750000000049
 40
0.625000000000005
 40
0.625000000000005
 40
0.6875000000000052
 40
0.6875000000000052
 40
0.7187500000000053
 40
0.7187500000000053
 40
0.7343750000000051
 40
0.7343750000000051
 40
0.7500000000000049
 40
0.7500000000000049
 40
0.8125000000000037
 40
0.8125000000000037
 40
0.8750000000000024
 40
0.8750000000000024
 40
0.9375000000000012
 40
0.9375000000000012
 40
1.0
 40
1.0
 40
1.0
 40
1.0
 10
346.5924480100585
 20
304.5389592679681
 30
0.0
 10
346.592434216957
 20
304.054981906386
 30
0.0
 10
346.4838346629191
 20
303.5773967073118
 30
0.0
 10
346.1685663566283
 20
302.8699884756354
 30
0.0
 10
346.0379723898246
 20
302.6356871174481
 30
0.0
 10
345.7261554436919
 20
302.1700647999114
 30
0.0
 10
345.544132102744
 20
301.9379680936739
 30
0.0
 10
344.9304458605456
 20
301.2574055273103
 30
0.0
 10
344.4308151877515
 20
300.8214349867931
 30
0.0
 10
343.5387172345149
 20
300.1954366887134
 30
0.0
 10
343.2173452037011
 20
299.9914753927234
 30
0.0
 10
342.5210419749426
 20
299.594049545846
 30
0.0
 10
342.1438638665183
 20
299.3997299756762
 30
0.0
 10
340.9465227976417
 20
298.8479720818843
 30
0.0
 10
340.0549224270816
 20
298.5185294786161
 30
0.0
 10
338.566011318365
 20
298.0866683658211
 30
0.0
 10
338.042047331306
 20
297.9527061164652
 30
0.0
 10
336.9702018911583
 20
297.7125112916769
 30
0.0
 10
336.4195276328713
 20
297.6053503427678
 30
0.0
 10
335.2900739712189
 20
297.4156754463534
 30
0.0
 10
334.7112634891962
 20
297.3331887534912
 30
0.0
 10
333.5273502663686
 20
297.1912725459926
 30
0.0
 10
332.921142911318
 20
297.1316685545044
 30
0.0
 10
331.1014714733815
 20
296.9897873185929
 30
0.0
 10
329.8751160414907
 20
296.9423881781859
 30
0.0
 10
328.0160346224078
 20
296.9409549702477
 30
0.0
 10
327.3917040300804
 20
296.9523751452328
 30
0.0
 10
326.161770842232
 20
296.9984145767515
 30
0.0
 10
325.5530717174691
 20
297.0329678375755
 30
0.0
 10
324.3481684828233
 20
297.1250679812889
 30
0.0
 10
323.7519565132048
 20
297.1826004005071
 30
0.0
 10
322.8673502123327
 20
297.2867706440248
 30
0.0
 10
322.574120291486
 20
297.3245099019255
 30
0.0
 10
321.9911860242764
 20
297.4064762633213
 30
0.0
 10
321.7004686614677
 20
297.4508704003327
 30
0.0
 10
320.2706269568758
 20
297.6877922645813
 30
0.0
 10
319.2051997198192
 20
297.923896152973
 30
0.0
 10
317.7241423429535
 20
298.3475538970822
 30
0.0
 10
317.2500455748582
 20
298.5004013837152
 30
0.0
 10
316.5690718064297
 20
298.7475826455869
 30
0.0
 10
316.3467782405214
 20
298.8331342808673
 30
0.0
 10
315.9179404117304
 20
299.0078844583867
 30
0.0
 10
315.7106582317688
 20
299.0973303347255
 30
0.0
 10
314.7080701069306
 20
299.5543736982832
 30
0.0
 10
314.0122009547449
 20
299.9508236637781
 30
0.0
 10
312.7968032748888
 20
300.7948904103933
 30
0.0
 10
312.2863580521339
 20
301.2372929411958
 30
0.0
 10
311.4576521850108
 20
302.1501201651028
 30
0.0
 10
311.1399882531357
 20
302.6200302715324
 30
0.0
 10
310.7121816553288
 20
303.5740366874771
 30
0.0
 10
310.6033755775205
 20
304.0546362953601
 30
0.0
 10
310.6033769987482
 20
304.538959267908
 30
0.0
  0
ELLIPSE
  5
11A
330
1F
100
AcDbEntity
  8
0
  6
Continuous
 62
     7
370
    25
100
AcDbEllipse
 10
328.5979125044
 20
304.5389592679
 30
0.0
 11
17.99455191479962
 21
1.136868377216160E-13
 31
0.0
210
0.0
220
0.0
230
1.0
 40
0.4222134409
 41
3.092228057825273
 42
3.141592653586673
  0
SPLINE
  5
11B
330
1F
100
AcDbEntity
  8
0
  6
Continuous
 62
     7
370
    25
100
AcDbSpline
210
0.0
220
0.0
230
1.0
 70
     8
 71
     3
 72
    54
 73
    50
 74
     0
 42
0.00000001
 43
0.00000001
 40
0.0
 40
0.0
 40
0.0
 40
0.0
 40
0.0624999999999998
 40
0.0624999999999998
 40
0.0937499999999996
 40
0.0937499999999996
 40
0.1249999999999995
 40
0.1249999999999995
 40
0.1874999999999992
 40
0.1874999999999992
 40
0.2187499999999992
 40
0.2187499999999992
 40
0.2499999999999992
 40
0.2499999999999992
 40
0.3124999999999991
 40
0.3124999999999991
 40
0.3437499999999991
 40
0.3437499999999991
 40
0.3749999999999991
 40
0.3749999999999991
 40
0.437499999999999
 40
0.437499999999999
 40
0.499999999999999
 40
0.499999999999999
 40
0.531249999999999
 40
0.531249999999999
 40
0.562499999999999
 40
0.562499999999999
 40
0.6249999999999989
 40
0.6249999999999989
 40
0.656249999999999
 40
0.656249999999999
 40
0.6874999999999991
 40
0.6874999999999991
 40
0.7499999999999989
 40
0.7499999999999989
 40
0.7812499999999989
 40
0.7812499999999989
 40
0.8124999999999989
 40
0.8124999999999989
 40
0.8437499999999989
 40
0.8437499999999989
 40
0.8749999999999988
 40
0.8749999999999988
 40
0.9374999999999992
 40
0.9374999999999992
 40
0.9687499999999997
 40
0.9687499999999997
 40
1.0
 40
1.0
 40
1.0
 40
1.0
 10
314.1359651719332
 20
304.610248782159
 30
0.0
 10
314.1588111938597
 20
304.2426585270402
 30
0.0
 10
314.271349570013
 20
303.881872031365
 30
0.0
 10
314.5692649391372
 20
303.3504859704279
 30
0.0
 10
314.690241641467
 20
303.1750012163516
 30
0.0
 10
314.9764605154009
 20
302.8273895373831
 30
0.0
 10
315.1427135707167
 20
302.6545020794049
 30
0.0
 10
315.6991142411352
 20
302.1511367884476
 30
0.0
 10
316.1476158688893
 20
301.8332572539778
 30
0.0
 10
316.9352841359334
 20
301.3826563263861
 30
0.0
 10
317.2171227316366
 20
301.2368553762186
 30
0.0
 10
317.8207770622915
 20
300.9543743744981
 30
0.0
 10
318.1389592772501
 20
300.8194543243972
 30
0.0
 10
319.1352380140814
 20
300.4356777577631
 30
0.0
 10
319.8571500999183
 20
300.2064527423669
 30
0.0
 10
321.027960017736
 20
299.9031780510963
 30
0.0
 10
321.4352812123777
 20
299.8084744498715
 30
0.0
 10
322.2646217954371
 20
299.6365453386059
 30
0.0
 10
322.6874280305456
 20
299.5589922101649
 30
0.0
 10
323.9797424434327
 20
299.3510376427163
 30
0.0
 10
324.8729164330031
 20
299.2451033415268
 30
0.0
 10
326.7252627230885
 20
299.1014677574714
 30
0.0
 10
327.6579470276804
 20
299.0660005152645
 30
0.0
 10
329.0562822656304
 20
299.0657062297124
 30
0.0
 10
329.5228448674638
 20
299.0744456784272
 30
0.0
 10
330.456889783005
 20
299.1099524977785
 30
0.0
 10
330.926518610317
 20
299.136952551769
 30
0.0
 10
332.3083161326163
 20
299.2437182082076
 30
0.0
 10
333.200706988522
 20
299.3489456984209
 30
0.0
 10
334.4968556317154
 20
299.5569481219306
 30
0.0
 10
334.9222325190527
 20
299.6347936788678
 30
0.0
 10
335.7564114899598
 20
299.80751143404
 30
0.0
 10
336.1592320352726
 20
299.9011224739673
 30
0.0
 10
337.3264316921478
 20
300.202926918019
 30
0.0
 10
338.0499224964445
 20
300.4319017284161
 30
0.0
 10
339.0522381338857
 20
300.8175081692939
 30
0.0
 10
339.3729464327955
 20
300.953513908352
 30
0.0
 10
339.9728201096458
 20
301.2339814919168
 30
0.0
 10
340.2538129906041
 20
301.3790794075322
 30
0.0
 10
340.7786836269177
 20
301.6788050620496
 30
0.0
 10
341.0225602027955
 20
301.8334331037988
 30
0.0
 10
341.4729248449501
 20
302.1522892057174
 30
0.0
 10
341.6799590319566
 20
302.3170151978637
 30
0.0
 10
342.2393884911259
 20
302.8228301339807
 30
0.0
 10
342.523923918962
 20
303.1687826922472
 30
0.0
 10
342.8230740600679
 20
303.7003336764542
 30
0.0
 10
342.9013641273417
 20
303.879635974124
 30
0.0
 10
343.0141119548149
 20
304.2425746455289
 30
0.0
 10
343.0484366662089
 20
304.4264510859211
 30
0.0
 10
343.0598598368176
 20
304.6102487821591
 30
0.0
  0
LINE
  5
11C
330
1F
100
AcDbEntity
  8
0
  6
Continuous
 62
     7
370
    25
100
AcDbLine
 10
312.5979125044
 20
305.5013315736
 30
0.0
 11
344.5979125044
 21
305.5013315736
 31
0.0
  0
LINE
  5
11D
330
1F
100
AcDbEntity
  8
0
  6
Continuous
 62
     7
370
    25
100
AcDbLine
 10
346.5924644192
 20
274.5961140102
 30
0.0
 11
346.5924644192
 21
287.7634650777
 31
0.0
  0
SPLINE
  5
11E
330
1F
100
AcDbEntity
  8
0
  6
Continuous
 62
     7
370
    25
100
AcDbSpline
210
0.0
220
0.0
230
1.0
 70
     8
 71
     3
 72
   262
 73
   258
 74
     0
 42
0.00000001
 43
0.00000001
 40
5.666953204607805
 40
5.666953204607805
 40
5.666953204607805
 40
5.666953204607805
 40
5.669836879042177
 40
5.669836879042177
 40
5.677190721554173
 40
5.677190721554173
 40
5.706606091602379
 40
5.706606091602379
 40
5.765436831698776
 40
5.765436831698776
 40
5.883098311891577
 40
5.883098311891577
 40
6.118421272277073
 40
6.118421272277073
 40
6.589067193048277
 40
6.589067193048277
 40
7.059713113819375
 40
7.059713113819375
 40
7.530359034590473
 40
7.530359034590473
 40
7.765681994976075
 40
7.765681994976075
 40
8.001004955361577
 40
8.001004955361577
 40
8.471650876132674
 40
8.471650876132674
 40
8.942296796903872
 40
8.942296796903872
 40
9.412942717674976
 40
9.412942717674976
 40
9.883588638446074
 40
9.883588638446074
 40
10.11891159883168
 40
10.11891159883168
 40
10.35423455921717
 40
10.35423455921717
 40
10.82488047998838
 40
10.82488047998838
 40
11.29552640075947
 40
11.29552640075947
 40
11.53084936114498
 40
11.53084936114498
 40
11.76617232153057
 40
11.76617232153057
 40
12.23681824230168
 40
12.23681824230168
 40
12.47214120268727
 40
12.47214120268727
 40
12.70746416307277
 40
12.70746416307277
 40
13.17811008384397
 40
13.17811008384397
 40
13.41343304422947
 40
13.41343304422947
 40
13.64875600461508
 40
13.64875600461508
 40
13.88407896500057
 40
13.88407896500057
 40
14.11940192538617
 40
14.11940192538617
 40
14.59004784615727
 40
14.59004784615727
 40
15.06069376692838
 40
15.06069376692838
 40
15.53133968769957
 40
15.53133968769957
 40
16.00198560847067
 40
16.00198560847067
 40
16.23730856885627
 40
16.23730856885627
 40
16.47263152924178
 40
16.47263152924178
 40
16.70795448962737
 40
16.70795448962737
 40
16.94327745001288
 40
16.94327745001288
 40
17.41392337078397
 40
17.41392337078397
 40
17.88456929155518
 40
17.88456929155518
 40
18.35521521232628
 40
18.35521521232628
 40
18.59053817271188
 40
18.59053817271188
 40
18.82586113309737
 40
18.82586113309737
 40
19.29650705386848
 40
19.29650705386848
 40
19.76715297463968
 40
19.76715297463968
 40
20.00247593502518
 40
20.00247593502518
 40
20.23779889541077
 40
20.23779889541077
 40
20.70844481618188
 40
20.70844481618188
 40
21.17909073695298
 40
21.17909073695298
 40
21.64973665772407
 40
21.64973665772407
 40
22.12038257849528
 40
22.12038257849528
 40
22.35570553888077
 40
22.35570553888077
 40
22.59102849926638
 40
22.59102849926638
 40
23.06167442003747
 40
23.06167442003747
 40
23.53232034080858
 40
23.53232034080858
 40
24.00296626157968
 40
24.00296626157968
 40
24.47361218235087
 40
24.47361218235087
 40
24.94425810312198
 40
24.94425810312198
 40
25.41490402389308
 40
25.41490402389308
 40
26.35619586543538
 40
26.35619586543538
 40
27.29748770697757
 40
27.29748770697757
 40
28.23877954851978
 40
28.23877954851978
 40
29.18007139006207
 40
29.18007139006207
 40
30.12136323160427
 40
30.12136323160427
 40
31.06265507314658
 40
31.06265507314658
 40
32.00394691468878
 40
32.00394691468878
 40
32.94523875623108
 40
32.94523875623108
 40
33.88653059777327
 40
33.88653059777327
 40
34.82782243931548
 40
34.82782243931548
 40
35.29846836008667
 40
35.29846836008667
 40
35.76911428085778
 40
35.76911428085778
 40
36.00443724124327
 40
36.00443724124327
 40
36.23976020162888
 40
36.23976020162888
 40
36.71040612239997
 40
36.71040612239997
 40
37.18105204317118
 40
37.18105204317118
 40
37.65169796394228
 40
37.65169796394228
 40
37.88702092432778
 40
37.88702092432778
 40
38.12234388471337
 40
38.12234388471337
 40
38.59298980548448
 40
38.59298980548448
 40
39.06363572625558
 40
39.06363572625558
 40
39.53428164702677
 40
39.53428164702677
 40
40.00492756779788
 40
40.00492756779788
 40
40.47557348856898
 40
40.47557348856898
 40
40.94621940934007
 40
40.94621940934007
 40
41.41686533011118
 40
41.41686533011118
 40
41.65218829049678
 40
41.65218829049678
 40
41.88751125088238
 40
41.88751125088238
 40
42.35815717165347
 40
42.35815717165347
 40
42.59348013203898
 40
42.59348013203898
 40
42.82880309242458
 40
42.82880309242458
 40
43.29944901319568
 40
43.29944901319568
 40
43.53477197358128
 40
43.53477197358128
 40
43.77009493396677
 40
43.77009493396677
 40
44.00541789435238
 40
44.00541789435238
 40
44.24074085473798
 40
44.24074085473798
 40
44.71138677550908
 40
44.71138677550908
 40
45.18203269628017
 40
45.18203269628017
 40
45.41735565666578
 40
45.41735565666578
 40
45.65267861705128
 40
45.65267861705128
 40
46.12332453782248
 40
46.12332453782248
 40
46.35864749820798
 40
46.35864749820798
 40
46.59397045859357
 40
46.59397045859357
 40
47.06461637936468
 40
47.06461637936468
 40
47.53526230013578
 40
47.53526230013578
 40
47.77058526052138
 40
47.77058526052138
 40
48.00590822090687
 40
48.00590822090687
 40
48.24123118129248
 40
48.24123118129248
 40
48.47655414167808
 40
48.47655414167808
 40
48.94720006244918
 40
48.94720006244918
 40
49.41784598322027
 40
49.41784598322027
 40
49.88849190399138
 40
49.88849190399138
 40
50.12381486437698
 40
50.12381486437698
 40
50.35913782476253
 40
50.35913782476253
 40
50.82978374553365
 40
50.82978374553365
 40
51.30042966630477
 40
51.30042966630477
 40
51.77107558707588
 40
51.77107558707588
 40
52.24172150784702
 40
52.24172150784702
 40
52.47704446823258
 40
52.47704446823258
 40
52.71236742861814
 40
52.71236742861814
 40
53.18301334938926
 40
53.18301334938926
 40
53.65365927016038
 40
53.65365927016038
 40
54.12430519093149
 40
54.12430519093149
 40
54.35962815131706
 40
54.35962815131706
 40
54.47728963150984
 40
54.47728963150984
 40
54.53612037160623
 40
54.53612037160623
 40
54.56553574165443
 40
54.56553574165443
 40
54.56921266291045
 40
54.56921266291045
 40
54.57288958416648
 40
54.57288958416648
 40
54.57574895634827
 40
54.57574895634827
 40
54.57574895634827
 40
54.57574895634827
 10
310.6033611896699
 20
274.5961139850808
 30
0.0
 10
310.6033617601541
 20
274.5961111226346
 30
0.0
 10
310.6033629399818
 20
274.5961052075216
 30
0.0
 10
310.6033713047399
 20
274.5960632949212
 30
0.0
 10
310.6033748407321
 20
274.5960457023446
 30
0.0
 10
310.603398362573
 20
274.5959290337327
 30
0.0
 10
310.6034167755293
 20
274.5958395297974
 30
0.0
 10
310.6034740156448
 20
274.5955678369297
 30
0.0
 10
310.6035141978468
 20
274.5953858223148
 30
0.0
 10
310.6036429815636
 20
274.5948392443767
 30
0.0
 10
310.6037385066232
 20
274.594478622912
 30
0.0
 10
310.6040792235765
 20
274.5933868468266
 30
0.0
 10
310.6043753633759
 20
274.5926600514267
 30
0.0
 10
310.6056242657265
 20
274.590481760795
 30
0.0
 10
310.6069453460391
 20
274.5890272820973
 30
0.0
 10
310.6113812756923
 20
274.5861198923895
 30
0.0
 10
310.6144829730908
 20
274.5846691317693
 30
0.0
 10
310.6232669426189
 20
274.5817604165238
 30
0.0
 10
310.6289290352539
 20
274.5803105198253
 30
0.0
 10
310.6399131688951
 20
274.5781311451033
 30
0.0
 10
310.6439948828042
 20
274.5774045547026
 30
0.0
 10
310.6530580806495
 20
274.5759544933003
 30
0.0
 10
310.6580580250408
 20
274.5752281561141
 30
0.0
 10
310.6744867487889
 20
274.5730539227009
 30
0.0
 10
310.6873768452073
 20
274.571603541531
 30
0.0
 10
310.717525272658
 20
274.5687089827544
 30
0.0
 10
310.7347923908315
 20
274.5672639711669
 30
0.0
 10
310.7742352603099
 20
274.5643783171553
 30
0.0
 10
310.7964252497566
 20
274.5629364537893
 30
0.0
 10
310.8461631677611
 20
274.5600614544804
 30
0.0
 10
310.8736341821672
 20
274.5586312700314
 30
0.0
 10
310.9193440357524
 20
274.5564844315412
 30
0.0
 10
310.9352323296974
 20
274.5557732731637
 30
0.0
 10
310.9685900534049
 20
274.5543493503237
 30
0.0
 10
310.9860625300203
 20
274.5536367356862
 30
0.0
 10
311.0405837029857
 20
274.5515125571131
 30
0.0
 10
311.0801932685798
 20
274.550097071885
 30
0.0
 10
311.1658147197244
 20
274.5472909237115
 30
0.0
 10
311.2120913212692
 20
274.5458911008199
 30
0.0
 10
311.286629550912
 20
274.5438130057662
 30
0.0
 10
311.3124445050115
 20
274.5431203883692
 30
0.0
 10
311.3657755937837
 20
274.5417442065413
 30
0.0
 10
311.3933190305453
 20
274.5410597610863
 30
0.0
 10
311.4790339946578
 20
274.539009628594
 30
0.0
 10
311.5399244086516
 20
274.5376569436468
 30
0.0
 10
311.6372861168581
 20
274.5356503170769
 30
0.0
 10
311.6708005884016
 20
274.5349841911041
 30
0.0
 10
311.7397978729722
 20
274.5336616453077
 30
0.0
 10
311.7753510717892
 20
274.5330039374555
 30
0.0
 10
311.88511343813
 20
274.5310456021579
 30
0.0
 10
311.9625143594404
 20
274.5297584854255
 30
0.0
 10
312.0853171419558
 20
274.527859092103
 30
0.0
 10
312.1272127915478
 20
274.5272336542989
 30
0.0
 10
312.2136038532312
 20
274.5259890543765
 30
0.0
 10
312.2578949821829
 20
274.525373030694
 30
0.0
 10
312.3485304438228
 20
274.5241563527474
 30
0.0
 10
312.3951877634065
 20
274.5235518537391
 30
0.0
 10
312.4905202121743
 20
274.5223604575538
 30
0.0
 10
312.5393199300609
 20
274.5217718919412
 30
0.0
 10
312.6892245054371
 20
274.5200277684499
 30
0.0
 10
312.7936810792923
 20
274.5188951663222
 30
0.0
 10
313.0115082119319
 20
274.5166970425586
 30
0.0
 10
313.1250516498061
 20
274.5156298378319
 30
0.0
 10
313.3603750576103
 20
274.5135735360834
 30
0.0
 10
313.4823353057441
 20
274.5125830046121
 30
0.0
 10
313.7340896187954
 20
274.5106784624036
 30
0.0
 10
313.8636960772608
 20
274.5097659058775
 30
0.0
 10
314.0633944085807
 20
274.5084554676648
 30
0.0
 10
314.1308500668479
 20
274.5080283608094
 30
0.0
 10
314.2673030564312
 20
274.5071948899191
 30
0.0
 10
314.3362626020934
 20
274.5067886668159
 30
0.0
 10
314.4757557204985
 20
274.5059951081203
 30
0.0
 10
314.5461830673414
 20
274.5056084493936
 30
0.0
 10
314.6887815286221
 20
274.5048528807495
 30
0.0
 10
314.7604119227128
 20
274.5044867705623
 30
0.0
 10
314.9779396900735
 20
274.5034135164223
 30
0.0
 10
315.1255272930975
 20
274.5027367376349
 30
0.0
 10
315.4246308575154
 20
274.5014581622526
 30
0.0
 10
315.5762304600718
 20
274.5008555672223
 30
0.0
 10
315.8829490994914
 20
274.4997204321672
 30
0.0
 10
316.0379379479045
 20
274.499188455358
 30
0.0
 10
316.2725481139321
 20
274.4984404466315
 30
0.0
 10
316.3512043444264
 20
274.4981991230889
 30
0.0
 10
316.5088533179895
 20
274.497733376295
 30
0.0
 10
316.5881211163069
 20
274.4975081290917
 30
0.0
 10
316.8264747949689
 20
274.4968566017276
 30
0.0
 10
316.9864763637248
 20
274.4964533885575
 30
0.0
 10
317.3083288340496
 20
274.4957052295118
 30
0.0
 10
317.4703338390003
 20
274.4953599116996
 30
0.0
 10
317.7139274016543
 20
274.4948837551973
 30
0.0
 10
317.7954898466239
 20
274.4947314969032
 30
0.0
 10
317.9585755188873
 20
274.4944407003655
 30
0.0
 10
318.0402655187442
 20
274.4943018264934
 30
0.0
 10
318.2859788759632
 20
274.4939037623669
 30
0.0
 10
318.4501256837454
 20
274.4936639886289
 30
0.0
 10
318.7796619624573
 20
274.4932307845755
 30
0.0
 10
318.9447569422912
 20
274.4930378540588
 30
0.0
 10
319.2755222974353
 20
274.4926949878976
 30
0.0
 10
319.4411829101896
 20
274.4925450620071
 30
0.0
 10
319.7730534854448
 20
274.4922837145938
 30
0.0
 10
319.9387476500197
 20
274.4921727021535
 30
0.0
 10
320.1883658617301
 20
274.4920308301118
 30
0.0
 10
320.2713500471236
 20
274.491988011735
 30
0.0
 10
320.437668939403
 20
274.4919101824217
 30
0.0
 10
320.5209664595252
 20
274.4918752746587
 30
0.0
 10
320.7704715069674
 20
274.491781714483
 30
0.0
 10
320.9369851120715
 20
274.4917339195558
 30
0.0
 10
321.2698330653524
 20
274.4916609694146
 30
0.0
 10
321.4365652048918
 20
274.4916357829688
 30
0.0
 10
321.7695088076688
 20
274.4916013470438
 30
0.0
 10
321.9361149935026
 20
274.4915919970452
 30
0.0
 10
322.2691045191165
 20
274.4915820809926
 30
0.0
 10
322.4358007573336
 20
274.4915815018736
 30
0.0
 10
322.768630752105
 20
274.4915814641246
 30
0.0
 10
322.9353630447116
 20
274.4915814759743
 30
0.0
 10
323.268385676656
 20
274.4915814712741
 30
0.0
 10
323.435000660083
 20
274.4915814727735
 30
0.0
 10
323.9347114885703
 20
274.4915814726059
 30
0.0
 10
324.2676855294182
 20
274.4915814727368
 30
0.0
 10
324.9338898342589
 20
274.4915814728722
 30
0.0
 10
325.2670235235082
 20
274.4915814729461
 30
0.0
 10
325.9331416170905
 20
274.4915814730051
 30
0.0
 10
326.2662688592904
 20
274.491581473034
 30
0.0
 10
326.9324067344446
 20
274.4915814730719
 30
0.0
 10
327.2655721140019
 20
274.4915814730857
 30
0.0
 10
327.9317015617546
 20
274.4915814731037
 30
0.0
 10
328.2649302172845
 20
274.4915814731085
 30
0.0
 10
328.9310000169357
 20
274.4915814731083
 30
0.0
 10
329.2641299448839
 20
274.4915814731037
 30
0.0
 10
329.9303712777333
 20
274.4915814730857
 30
0.0
 10
330.2632898114166
 20
274.491581473072
 30
0.0
 10
330.9296182164781
 20
274.491581473034
 30
0.0
 10
331.2627326116979
 20
274.4915814730055
 30
0.0
 10
331.9288664698446
 20
274.4915814729451
 30
0.0
 10
332.2619347378389
 20
274.4915814728752
 30
0.0
 10
332.9282257868378
 20
274.491581472727
 30
0.0
 10
333.2611870627256
 20
274.4915814726372
 30
0.0
 10
333.7609530536699
 20
274.4915814726992
 30
0.0
 10
333.9273784242721
 20
274.4915814715281
 30
0.0
 10
334.2605831663716
 20
274.4915814750804
 30
0.0
 10
334.4270079161574
 20
274.4915814669184
 30
0.0
 10
334.6769647717296
 20
274.4915814857866
 30
0.0
 10
334.7600113962829
 20
274.491581646088
 30
0.0
 10
334.9267586670416
 20
274.491583172943
 30
0.0
 10
335.0099762698729
 20
274.4915845661782
 30
0.0
 10
335.2598987495742
 20
274.491592005294
 30
0.0
 10
335.4261305134912
 20
274.4916013298223
 30
0.0
 10
335.7596005336528
 20
274.4916358362515
 30
0.0
 10
335.9257353401439
 20
274.4916609181413
 30
0.0
 10
336.2590477346857
 20
274.4917339747834
 30
0.0
 10
336.4253109364318
 20
274.4917817099924
 30
0.0
 10
336.6750698869636
 20
274.4918753566978
 30
0.0
 10
336.7580716062706
 20
274.4919101489833
 30
0.0
 10
336.9243337555963
 20
274.4919879358272
 30
0.0
 10
337.0076925842433
 20
274.4920309677172
 30
0.0
 10
337.2569315018816
 20
274.492172614537
 30
0.0
 10
337.4229116620767
 20
274.4922838014997
 30
0.0
 10
337.7547860839857
 20
274.4925451915103
 30
0.0
 10
337.9202322507562
 20
274.4926949337678
 30
0.0
 10
338.2511902446647
 20
274.4930379686434
 30
0.0
 10
338.4161131546983
 20
274.4932307263884
 30
0.0
 10
338.7456563341351
 20
274.4936639266997
 30
0.0
 10
338.909939256046
 20
274.4939038882836
 30
0.0
 10
339.2374573345652
 20
274.4944345513136
 30
0.0
 10
339.4005193505371
 20
274.4947246898651
 30
0.0
 10
339.7257980712884
 20
274.4953605329304
 30
0.0
 10
339.8872916952652
 20
274.4957048271975
 30
0.0
 10
340.2093225541883
 20
274.496453295811
 30
0.0
 10
340.369498966143
 20
274.4968569665308
 30
0.0
 10
340.6077027938874
 20
274.4975081459725
 30
0.0
 10
340.6869188607735
 20
274.4977332363884
 30
0.0
 10
340.844720351142
 20
274.4981994124568
 30
0.0
 10
340.9233306526842
 20
274.498440609626
 30
0.0
 10
341.1579214328173
 20
274.499188583252
 30
0.0
 10
341.3129944550796
 20
274.4997208398976
 30
0.0
 10
341.5429279211575
 20
274.5005718268108
 30
0.0
 10
341.6192397149758
 20
274.5008646622149
 30
0.0
 10
341.770566811086
 20
274.5014668762175
 30
0.0
 10
341.8461680871014
 20
274.5017785861241
 30
0.0
 10
342.070319010017
 20
274.5027368710483
 30
0.0
 10
342.2179080125462
 20
274.5034136229611
 30
0.0
 10
342.4353606802975
 20
274.5044865007362
 30
0.0
 10
342.5071674846412
 20
274.5048535221409
 30
0.0
 10
342.6495958092878
 20
274.5056082180815
 30
0.0
 10
342.720105227154
 20
274.5059952892189
 30
0.0
 10
342.8595570202176
 20
274.506788659075
 30
0.0
 10
342.9286051369818
 20
274.507195376093
 30
0.0
 10
343.0649942333458
 20
274.508028493787
 30
0.0
 10
343.1324473531629
 20
274.5084555957889
 30
0.0
 10
343.3320504041187
 20
274.5097653393238
 30
0.0
 10
343.4618211422448
 20
274.5106790676939
 30
0.0
 10
343.713617066431
 20
274.5125840853522
 30
0.0
 10
343.8353460440755
 20
274.5135725699038
 30
0.0
 10
344.0120801998227
 20
274.5151170501066
 30
0.0
 10
344.0698112160301
 20
274.5156401878734
 30
0.0
 10
344.1831559854385
 20
274.5167049475774
 30
0.0
 10
344.2387140164024
 20
274.5172459544131
 30
0.0
 10
344.402139351721
 20
274.5188951289732
 30
0.0
 10
344.5065838082978
 20
274.5200274810748
 30
0.0
 10
344.6565633537522
 20
274.5217726108066
 30
0.0
 10
344.7053488036664
 20
274.5223609982637
 30
0.0
 10
344.8007243501463
 20
274.5235529494595
 30
0.0
 10
344.8472227992669
 20
274.5241554012578
 30
0.0
 10
344.983397426477
 20
274.525983394352
 30
0.0
 10
345.0696769582231
 20
274.527227595889
 30
0.0
 10
345.2333142956513
 20
274.5297585165642
 30
0.0
 10
345.310758490272
 20
274.5310464487463
 30
0.0
 10
345.4205050784044
 20
274.5330044940802
 30
0.0
 10
345.4560397255608
 20
274.5336618957409
 30
0.0
 10
345.5250735882936
 20
274.5349851605811
 30
0.0
 10
345.5584971386899
 20
274.5356494918571
 30
0.0
 10
345.6234126300271
 20
274.5369872673228
 30
0.0
 10
345.6549594193556
 20
274.5376620759865
 30
0.0
 10
345.7158573860344
 20
274.5390131841035
 30
0.0
 10
345.7454162775247
 20
274.5396941972766
 30
0.0
 10
345.8310211298075
 20
274.5417418160674
 30
0.0
 10
345.8843123308314
 20
274.5431191676463
 30
0.0
 10
345.9837831953965
 20
274.5458925813215
 30
0.0
 10
346.02995041218
 20
274.547289135914
 30
0.0
 10
346.115650835695
 20
274.5500976792516
 30
0.0
 10
346.1551896449512
 20
274.5515106382965
 30
0.0
 10
346.2097774135016
 20
274.5536374028744
 30
0.0
 10
346.2272115571756
 20
274.5543484829238
 30
0.0
 10
346.2605892137364
 20
274.5557731113292
 30
0.0
 10
346.2765115342177
 20
274.5564858326834
 30
0.0
 10
346.322180644511
 20
274.5586308228281
 30
0.0
 10
346.3496543189705
 20
274.5600610061275
 30
0.0
 10
346.399431126098
 20
274.5629384403921
 30
0.0
 10
346.421573995406
 20
274.5643772655253
 30
0.0
 10
346.4610230749634
 20
274.5672632432094
 30
0.0
 10
346.4783024639631
 20
274.5687092494515
 30
0.0
 10
346.5084590504306
 20
274.5716046373537
 30
0.0
 10
346.5213364826337
 20
274.5730536857102
 30
0.0
 10
346.537772600855
 20
274.5752289866772
 30
0.0
 10
346.5427681311591
 20
274.5759546862108
 30
0.0
 10
346.5518357740135
 20
274.5774053184848
 30
0.0
 10
346.555917478343
 20
274.5781322356474
 30
0.0
 10
346.5668853413117
 20
274.5803080804423
 30
0.0
 10
346.572568281086
 20
274.581762886053
 30
0.0
 10
346.5813380150567
 20
274.5846679368178
 30
0.0
 10
346.5844463249562
 20
274.5861209659743
 30
0.0
 10
346.5888787244807
 20
274.5890268127101
 30
0.0
 10
346.5901997645479
 20
274.590480191135
 30
0.0
 10
346.5914498522046
 20
274.5926605723768
 30
0.0
 10
346.5917458767354
 20
274.5933876132121
 30
0.0
 10
346.5920861379859
 20
274.5944774675166
 30
0.0
 10
346.5921824361156
 20
274.5948409771686
 30
0.0
 10
346.5923106346031
 20
274.5953851806242
 30
0.0
 10
346.5923509015477
 20
274.5955674580451
 30
0.0
 10
346.5924082041824
 20
274.5958394086113
 30
0.0
 10
346.5924270080585
 20
274.5959308368285
 30
0.0
 10
346.592447759818
 20
274.5960337576245
 30
0.0
 10
346.5924497973111
 20
274.5960438868628
 30
0.0
 10
346.5924544054676
 20
274.5960668447137
 30
0.0
 10
346.5924568814218
 20
274.5960792178885
 30
0.0
 10
346.5924603484062
 20
274.5960965648835
 30
0.0
 10
346.5924630606135
 20
274.596110178032
 30
0.0
 10
346.5924640731606
 20
274.5961152619313
 30
0.0
  0
LINE
  5
11F
330
1F
100
AcDbEntity
  8
0
  6
Continuous
 62
     7
370
    25
100
AcDbLine
 10
310.6033605896
 20
287.7634650777
 30
0.0
 11
310.6033605896
 21
274.5961140102
 31
0.0
  0
LINE
  5
120
330
1F
100
AcDbEntity
  8
0
  6
Continuous
 62
     7
370
    25
100
AcDbLine
 10
310.6033605896
 20
304.5389592679
 30
0.0
 11
310.6033605896
 21
287.7634650777
 31
0.0
  0
LINE
  5
121
330
1F
100
AcDbEntity
  8
0
  6
Continuous
 62
     7
370
    25
100
AcDbLine
 10
346.5924644192
 20
287.7634650777
 30
0.0
 11
346.5924644192
 21
304.5389592679
 31
0.0
  0
LWPOLYLINE
  5
122
330
1F
100
AcDbEntity
  8
0
  6
Continuous
 62
     7
370
    25
100
AcDbPolyline
 90
       48
 70
   128
 43
0.0
 10
312.1432605576
 20
273.5500583648
 10
312.351458837
 20
273.5436401988
 10
312.6622421338
 20
273.537093672
 10
313.0273090971
 20
273.531149431
 10
313.9202940228
 20
273.5210678061
 10
315.0644471544
 20
273.5131165278
 10
316.4856561764
 20
273.5070889992
 10
317.8772022957
 20
273.5035447789
 10
319.4545847371
 20
273.501347386
 10
320.9755570698
 20
273.500494036
 10
322.4998999307
 20
273.5003437272
 10
322.4999067342
 20
273.5003437272
 10
322.499912128
 20
273.5003437272
 10
322.499921865
 20
273.5003437271
 10
322.4999395885
 20
273.5003437271
 10
322.4999723087
 20
273.500343727
 10
322.5000341536
 20
273.5003437269
 10
322.5001554831
 20
273.5003437266
 10
322.5004068761
 20
273.5003437261
 10
322.5009665482
 20
273.5003437253
 10
322.5027666106
 20
273.5003437234
 10
322.50856707
 20
273.5003437196
 10
322.5289693276
 20
273.5003437123
 10
322.6049791975
 20
273.5003436984
 10
322.8978203563
 20
273.5003436734
 10
324.0467883501
 20
273.5003436349
 10
325.9468039121
 20
273.5003436118
 10
328.5978670423
 20
273.5003436042
 10
331.2492025546
 20
273.5003436119
 10
333.1493153096
 20
273.500343635
 10
334.2982053071
 20
273.5003436736
 10
334.5909417719
 20
273.5003436987
 10
334.6668828708
 20
273.5003437126
 10
334.6872466368
 20
273.50034372
 10
334.6948164937
 20
273.5003437257
 10
334.6958725473
 20
273.5003437276
 10
335.4788380808
 20
273.5003752274
 10
336.0993834018
 20
273.5004648902
 10
336.772241052
 20
273.5006930839
 10
337.4458580666
 20
273.5011008757
 10
338.1369357539
 20
273.5017522767
 10
340.7101473129
 20
273.5070889247
 10
341.4557400849
 20
273.5098640495
 10
342.1318306847
 20
273.5131188642
 10
343.2755053678
 20
273.5210675628
 10
344.1687546279
 20
273.5311531225
 10
344.8443385296
 20
273.5436395458
 10
345.2389985091
 20
273.5558067413
  0
ARC
  5
123
330
1F
100
AcDbEntity
  8
0
  6
Continuous
 62
     7
370
    25
100
AcDbCircle
 10
311.6032825355
 20
274.5961139354
 30
0.0
 40
0.9999219458922567
100
AcDbArc
 50
179.9999957169
 51
202.9395157036
  0
ARC
  5
124
330
1F
100
AcDbEntity
  8
0
  6
Continuous
 62
     7
370
    25
100
AcDbCircle
 10
311.6033376834
 20
274.5961659881
 30
0.0
 40
0.9999986172715651
100
AcDbArc
 50
224.3533029718
 51
270.0012265961
  0
ARC
  5
125
330
1F
100
AcDbEntity
  8
0
  6
Continuous
 62
     7
370
    25
100
AcDbCircle
 10
345.5925424976
 20
274.5961139314
 30
0.0
 40
0.999921921630933
100
AcDbArc
 50
337.3001047085
 51
0.0000045121
  0
ARC
  5
126
330
1F
100
AcDbEntity
  8
0
  6
Continuous
 62
     7
370
    25
100
AcDbCircle
 10
345.5924883909
 20
274.5961614359
 30
0.0
 40
0.9999940651028694
100
AcDbArc
 50
269.9987143924
 51
322.542871565
  0
LINE
  5
127
330
1F
100
AcDbEntity
  8
0
  6
Continuous
 62
     7
370
    25
100
AcDbLine
 10
205.7378566657
 20
93.4906349535
 30
0.0
 11
231.4579125141
 21
93.4906349537
 31
0.0
  0
LINE
  5
128
330
1F
100
AcDbEntity
  8
0
  6
Continuous
 62
     7
370
    25
100
AcDbLine
 10
200.7378566849
 20
192.0032810011
 30
0.0
 11
200.7378566664
 21
98.4906349536
 31
0.0
  0
SPLINE
  5
129
330
1F
100
AcDbEntity
  8
0
  6
Continuous
 62
     7
370
    25
100
AcDbSpline
210
0.0
220
0.0
230
1.0
 70
     8
 71
     3
 72
     9
 73
     5
 74
     0
 42
0.00000001
 43
0.00000001
 40
0.0
 40
0.0
 40
0.0
 40
0.0
 40
0.5
 40
1.0
 40
1.0
 40
1.0
 40
1.0
 10
231.4579125141329
 20
93.49063495357801
 30
0.0
 10
232.7683885791214
 20
93.48165810567826
 30
0.0
 10
235.3712758440147
 20
94.57727162370777
 30
0.0
 10
236.466889362033
 20
97.18015888859874
 30
0.0
 10
236.4579125141328
 20
98.49063495357794
 30
0.0
  0
SPLINE
  5
12A
330
1F
100
AcDbEntity
  8
0
  6
Continuous
 62
     7
370
    25
100
AcDbSpline
210
0.0
220
0.0
230
1.0
 70
     8
 71
     3
 72
     9
 73
     5
 74
     0
 42
0.00000001
 43
0.00000001
 40
0.0
 40
0.0
 40
0.0
 40
0.0
 40
0.5
 40
1.0
 40
1.0
 40
1.0
 40
1.0
 10
200.7378566657429
 20
98.49063495357768
 30
0.0
 10
200.7288798178432
 20
97.18015888859833
 30
0.0
 10
201.8244933358628
 20
94.57727162369639
 30
0.0
 10
204.4273806007635
 20
93.48165810567768
 30
0.0
 10
205.7378566657428
 20
93.49063495357784
 30
0.0
  0
LINE
  5
12B
330
1F
100
AcDbEntity
  8
0
  6
Continuous
 62
     7
370
    25
100
AcDbLine
 10
236.4579124752
 20
98.4906349536
 30
0.0
 11
236.4579124751
 21
326.9906349536
 31
0.0
  0
LINE
  5
12C
330
1F
100
AcDbEntity
  8
0
  6
Continuous
 62
     7
370
    25
100
AcDbLine
 10
200.7378567048
 20
326.9906349536
 30
0.0
 11
200.7378566849
 21
192.0032810011
 31
0.0
  0
SPLINE
  5
12D
330
1F
100
AcDbEntity
  8
0
  6
Continuous
 62
     7
370
    25
100
AcDbSpline
210
0.0
220
0.0
230
1.0
 70
     8
 71
     3
 72
    10
 73
     6
 74
     0
 42
0.00000001
 43
0.00000001
 40
0.0
 40
0.0
 40
0.0
 40
0.0
 40
0.5
 40
0.5
 40
1.0
 40
1.0
 40
1.0
 40
1.0
 10
345.9466466105596
 20
305.7013315736082
 30
0.0
 10
346.1272383502163
 20
305.7013316800592
 30
0.0
 10
346.2674171092153
 20
305.6374039064939
 30
0.0
 10
346.4737617901261
 20
305.3771295169257
 30
0.0
 10
346.5396060844133
 20
305.1782500332982
 30
0.0
 10
346.5705437387866
 20
304.9138565424452
 30
0.0
  0
SPLINE
  5
12E
330
1F
100
AcDbEntity
  8
0
  6
Continuous
 62
     7
370
    25
100
AcDbSpline
210
0.0
220
0.0
230
1.0
 70
     8
 71
     3
 72
    10
 73
     6
 74
     0
 42
0.00000001
 43
0.00000001
 40
0.0
 40
0.0
 40
0.0
 40
0.0
 40
0.5
 40
0.5
 40
1.0
 40
1.0
 40
1.0
 40
1.0
 10
310.6252818685581
 20
304.9138571053782
 30
0.0
 10
310.6562176923252
 20
305.1782350121853
 30
0.0
 10
310.7205387048044
 20
305.3737047966495
 30
0.0
 10
310.9258912217032
 20
305.6357020430587
 30
0.0
 10
311.0685324793555
 20
305.7013316801009
 30
0.0
 10
311.2491783982569
 20
305.7013315736178
 30
0.0
  0
LINE
  5
12F
330
1F
100
AcDbEntity
  8
0
  6
Continuous
 62
     7
370
    25
100
AcDbLine
 10
311.7261327157
 20
305.7013315736
 30
0.0
 11
311.2491781747
 21
305.7013315736
 31
0.0
  0
LINE
  5
130
330
1F
100
AcDbEntity
  8
0
  6
Continuous
 62
     7
370
    25
100
AcDbLine
 10
345.9466468341
 20
305.7013315736
 30
0.0
 11
345.4696922931
 21
305.7013315736
 31
0.0
  0
SPLINE
  5
131
330
1F
100
AcDbEntity
  8
0
  6
Continuous
 62
     7
370
    25
100
AcDbSpline
210
0.0
220
0.0
230
1.0
 70
     8
 71
     3
 72
    16
 73
    12
 74
     0
 42
0.00000001
 43
0.00000001
 40
0.0
 40
0.0
 40
0.0
 40
0.0
 40
0.1437302967268013
 40
0.2874303917116816
 40
0.438049354071517
 40
0.5747265180730752
 40
0.723992059831723
 40
0.8616496386910535
 40
0.9070237850559166
 40
0.95304553207614
 40
1.0
 40
1.0
 40
1.0
 40
1.0
 10
311.6033590558466
 20
273.5961673710865
 30
0.0
 10
311.604637084305
 20
273.5917666876068
 30
0.0
 10
311.6071928726725
 20
273.5829662453536
 30
0.0
 10
311.6902287174061
 20
273.569563944142
 30
0.0
 10
311.9094399966437
 20
273.5564804621123
 30
0.0
 10
312.3127052937793
 20
273.5435486383773
 30
0.0
 10
312.928639260561
 20
273.5316596006919
 30
0.0
 10
313.6325804219604
 20
273.523419037315
 30
0.0
 10
314.2137916836639
 20
273.5185692222856
 30
0.0
 10
314.5893902627591
 20
273.5158757861952
 30
0.0
 10
314.8604037012034
 20
273.5142892085388
 30
0.0
 10
314.9972697998074
 20
273.5134879615777
 30
0.0
  0
LWPOLYLINE
  5
132
330
1F
100
AcDbEntity
  8
0
  6
Continuous
 62
     7
370
    25
100
AcDbPolyline
 90
        9
 70
   128
 43
0.0
 10
322.4939189974
 20
273.500344317
 10
322.7868220042
 20
273.5003441347
 10
323.9688446779
 20
273.5003438399
 10
325.9058845944
 20
273.5003436631
 10
328.5979417537
 20
273.5003436042
 10
331.2897533813
 20
273.5003436631
 10
333.2267011357
 20
273.5003438398
 10
334.408785017
 20
273.5003441344
 10
334.7106483027
 20
273.500344322
  0
SPLINE
  5
133
330
1F
100
AcDbEntity
  8
0
  6
Continuous
 62
     7
370
    25
100
AcDbSpline
210
0.0
220
0.0
230
1.0
 70
     8
 71
     3
 72
    11
 73
     7
 74
     0
 42
0.00000001
 43
0.00000001
 40
0.0
 40
0.0
 40
0.0
 40
0.0
 40
0.1167078318909969
 40
0.4204707133906662
 40
0.7102213806538531
 40
1.0
 40
1.0
 40
1.0
 40
1.0
 10
345.0827236887557
 20
273.5509888565925
 30
0.0
 10
345.1403233001931
 20
273.5526896840872
 30
0.0
 10
345.3478410761615
 20
273.5588173632543
 30
0.0
 10
345.4982382785914
 20
273.5695794236655
 30
0.0
 10
345.590432964422
 20
273.5829616706546
 30
0.0
 10
345.5917882683318
 20
273.5917653294022
 30
0.0
 10
345.5924659529716
 20
273.5961673710867
 30
0.0
  0
LINE
  5
134
330
1F
100
AcDbEntity
  8
0
  6
Continuous
 62
     8
370
    18
100
AcDbLine
 10
174.0499252705
 20
328.1696920658
 30
0.0
 11
179.070505789
 21
328.1696920658
 31
0.0
  0
LINE
  5
135
330
1F
100
AcDbEntity
  8
0
  6
Continuous
 62
     8
370
    18
100
AcDbLine
 10
179.070505789
 20
328.1696920658
 30
0.0
 11
368.1229125044
 21
328.1696920658
 31
0.0
  0
LINE
  5
136
330
1F
100
AcDbEntity
  8
0
  6
Continuous
 62
     8
370
    18
100
AcDbLine
 10
368.1229125044
 20
328.1696920658
 30
0.0
 11
373.1434930228
 21
328.1696920658
 31
0.0
  0
LINE
  5
137
330
1F
100
AcDbEntity
  8
0
  6
Continuous
 62
     8
370
    18
100
AcDbLine
 10
346.5705437395
 20
304.9138565361
 30
0.0
 11
343.1384868388
 21
304.9138565179
 31
0.0
  0
LINE
  5
138
330
1F
100
AcDbEntity
  8
0
  6
Continuous
 62
     8
370
    18
100
AcDbLine
 10
314.05733817
 20
304.9138565179
 30
0.0
 11
310.6252812693
 21
304.9138565363
 31
0.0
  0
LINE
  5
139
330
1F
100
AcDbEntity
  8
0
  6
Continuous
 62
     8
370
    18
100
AcDbLine
 10
328.5979125044
 20
307.5013315736
 30
0.0
 11
346.5979125044
 21
307.5013315736
 31
0.0
  0
LINE
  5
13A
330
1F
100
AcDbEntity
  8
0
  6
Continuous
 62
     8
370
    18
100
AcDbLine
 10
310.5979125044
 20
307.5013315736
 30
0.0
 11
328.5979125044
 21
307.5013315736
 31
0.0
  0
LINE
  5
13B
330
1F
100
AcDbEntity
  8
0
  6
Continuous
 62
     8
370
    18
100
AcDbLine
 10
314.1359651719
 20
304.6102487822
 30
0.0
 11
343.0598598368
 21
304.6102487822
 31
0.0
  0
LINE
  5
13C
330
1F
100
AcDbEntity
  8
0
  6
Continuous
 62
     8
370
    18
100
AcDbLine
 10
205.7378566657
 20
94.4906349536
 30
0.0
 11
231.4579125141
 21
94.4906349536
 31
0.0
  0
SPLINE
  5
13D
330
1F
100
AcDbEntity
  8
0
  6
Continuous
 62
     8
370
    18
100
AcDbSpline
210
0.0
220
0.0
230
1.0
 70
     8
 71
     3
 72
    14
 73
    10
 74
     0
 42
0.00000001
 43
0.00000001
 40
0.0
 40
0.0
 40
0.0
 40
0.0
 40
0.25
 40
0.25
 40
0.5
 40
0.5
 40
0.75
 40
0.75
 40
1.0
 40
1.0
 40
1.0
 40
1.0
 10
231.4579124971903
 20
93.49063495369403
 30
0.0
 10
231.45791249583
 20
93.4906349537039
 30
0.0
 10
231.4579124924912
 20
93.51662937945596
 30
0.0
 10
231.4579124869698
 20
93.61695885606535
 30
0.0
 10
231.4579124839023
 20
93.69120664264096
 30
0.0
 10
231.4579124745536
 20
93.87564391714793
 30
0.0
 10
231.4579124698315
 20
93.98715089069515
 30
0.0
 10
231.4579124380864
 20
94.22770181144502
 30
0.0
 10
231.4579119556551
 20
94.36032412525294
 30
0.0
 10
231.4579127028051
 20
94.49063495510387
 30
0.0
  0
SPLINE
  5
13E
330
1F
100
AcDbEntity
  8
0
  6
Continuous
 62
     8
370
    18
100
AcDbSpline
210
0.0
220
0.0
230
1.0
 70
     8
 71
     3
 72
    14
 73
    10
 74
     0
 42
0.00000001
 43
0.00000001
 40
0.0
 40
0.0
 40
0.0
 40
0.0
 40
0.25
 40
0.25
 40
0.5
 40
0.5
 40
0.75
 40
0.75
 40
1.0
 40
1.0
 40
1.0
 40
1.0
 10
205.7378566485019
 20
93.49063495345966
 30
0.0
 10
205.7378566461358
 20
93.4906349534435
 30
0.0
 10
205.7378566438485
 20
93.51662937908661
 30
0.0
 10
205.7378566383452
 20
93.61695885535818
 30
0.0
 10
205.7378566352758
 20
93.69120664168878
 30
0.0
 10
205.7378566259418
 20
93.87564391567285
 30
0.0
 10
205.7378566212369
 20
93.98715088891576
 30
0.0
 10
205.7378565893745
 20
94.22770180910445
 30
0.0
 10
205.7378562497968
 20
94.36032412234697
 30
0.0
 10
205.7378566487679
 20
94.49063495206575
 30
0.0
  0
LINE
  5
13F
330
1F
100
AcDbEntity
  8
0
  6
Continuous
 62
     8
370
    18
100
AcDbLine
 10
201.7378567309
 20
192.0032810011
 30
0.0
 11
201.7378567309
 21
98.4906349536
 31
0.0
  0
SPLINE
  5
140
330
1F
100
AcDbEntity
  8
0
  6
Continuous
 62
     8
370
    18
100
AcDbSpline
210
0.0
220
0.0
230
1.0
 70
     8
 71
     3
 72
    14
 73
    10
 74
     0
 42
0.00000001
 43
0.00000001
 40
0.0
 40
0.0
 40
0.0
 40
0.0
 40
0.25
 40
0.25
 40
0.5
 40
0.5
 40
0.75
 40
0.75
 40
1.0
 40
1.0
 40
1.0
 40
1.0
 10
200.7378566664451
 20
98.49063505607799
 30
0.0
 10
200.7378566665203
 20
98.49063506707404
 30
0.0
 10
200.7638510923464
 20
98.49063508211789
 30
0.0
 10
200.86418056911
 20
98.49063511275361
 30
0.0
 10
200.938428355767
 20
98.49063512980324
 30
0.0
 10
201.1228656304228
 20
98.49063518177384
 30
0.0
 10
201.2343726040411
 20
98.49063520799886
 30
0.0
 10
201.4749235249045
 20
98.49063538462613
 30
0.0
 10
201.6075458387242
 20
98.49063748444232
 30
0.0
 10
201.7378566685902
 20
98.49063474327824
 30
0.0
  0
LINE
  5
141
330
1F
100
AcDbEntity
  8
0
  6
Continuous
 62
     8
370
    18
100
AcDbLine
 10
201.7378567309
 20
192.0032810011
 30
0.0
 11
200.7378566849
 21
192.0032810011
 31
0.0
  0
SPLINE
  5
142
330
1F
100
AcDbEntity
  8
0
  6
Continuous
 62
     8
370
    18
100
AcDbSpline
210
0.0
220
0.0
230
1.0
 70
     8
 71
     3
 72
    23
 73
    19
 74
     0
 42
0.00000001
 43
0.00000001
 40
0.0
 40
0.0
 40
0.0
 40
0.0
 40
0.0310461971587403
 40
0.0621836814112983
 40
0.0934957967590339
 40
0.1250645041119527
 40
0.1873739726855405
 40
0.2501244909554855
 40
0.3126781418415992
 40
0.3752209009458246
 40
0.5000204023883648
 40
0.6248199038310492
 40
0.6872808485693782
 40
0.749916314998861
 40
0.8125850605073057
 40
0.87497629665898
 40
0.9377971086133507
 40
1.0
 40
1.0
 40
1.0
 40
1.0
 10
231.4579125141329
 20
94.4906349535779
 30
0.0
 10
231.5229074087895
 20
94.49116907246385
 30
0.0
 10
231.6530883066954
 20
94.49223888073918
 30
0.0
 10
231.8483771270897
 20
94.50675068687501
 30
0.0
 10
232.0437716147425
 20
94.53071246345138
 30
0.0
 10
232.3019585361864
 20
94.57603026878414
 30
0.0
 10
232.620346991386
 20
94.65654868449003
 30
0.0
 10
232.9903065498133
 20
94.78998183214674
 30
0.0
 10
233.3463256823364
 20
94.95833852364072
 30
0.0
 10
233.7958784145716
 20
95.22697434499977
 30
0.0
 10
234.3060841167942
 20
95.64246515369874
 30
0.0
 10
234.7214590803709
 20
96.15253505437099
 30
0.0
 10
234.9901369017765
 20
96.60207024139333
 30
0.0
 10
235.1583989553675
 20
96.9579211927899
 30
0.0
 10
235.2920798676565
 20
97.32804934749207
 30
0.0
 10
235.3880651518562
 20
97.70989580016001
 30
0.0
 10
235.4487569518953
 20
98.09850440472428
 30
0.0
 10
235.4548707323589
 20
98.36035616505862
 30
0.0
 10
235.4579125141329
 20
98.49063495357794
 30
0.0
  0
SPLINE
  5
143
330
1F
100
AcDbEntity
  8
0
  6
Continuous
 62
     8
370
    18
100
AcDbSpline
210
0.0
220
0.0
230
1.0
 70
     8
 71
     3
 72
    14
 73
    10
 74
     0
 42
0.00000001
 43
0.00000001
 40
0.0
 40
0.0
 40
0.0
 40
0.0
 40
0.25
 40
0.25
 40
0.5
 40
0.5
 40
0.75
 40
0.75
 40
1.0
 40
1.0
 40
1.0
 40
1.0
 10
236.4579124752424
 20
98.49064063095648
 30
0.0
 10
236.4579124811564
 20
98.49063976757003
 30
0.0
 10
236.4319180603555
 20
98.49063979087244
 30
0.0
 10
236.3315885918542
 20
98.49063911957046
 30
0.0
 10
236.2573408080606
 20
98.4906388270796
 30
0.0
 10
236.0729035376052
 20
98.49063828656237
 30
0.0
 10
235.9613965649296
 20
98.49063803554323
 30
0.0
 10
235.7208456448131
 20
98.49063756006349
 30
0.0
 10
235.5882233296446
 20
98.49063737337033
 30
0.0
 10
235.4579124995807
 20
98.49063708532523
 30
0.0
  0
SPLINE
  5
144
330
1F
100
AcDbEntity
  8
0
  6
Continuous
 62
     8
370
    18
100
AcDbSpline
210
0.0
220
0.0
230
1.0
 70
     8
 71
     3
 72
    23
 73
    19
 74
     0
 42
0.00000001
 43
0.00000001
 40
0.0
 40
0.0
 40
0.0
 40
0.0
 40
0.0310461970488199
 40
0.0621836812647857
 40
0.0934957966487671
 40
0.1250645041097148
 40
0.1873739725607073
 40
0.25012449095503
 40
0.3126781415528316
 40
0.375220900942648
 40
0.5000204023860928
 40
0.6248199038292985
 40
0.6872808487472476
 40
0.7499163149992759
 40
0.8125850606511668
 40
0.874976296658351
 40
0.9377971086001374
 40
1.0
 40
1.0
 40
1.0
 40
1.0
 10
201.7378566657428
 20
98.49063495357771
 30
0.0
 10
201.738390784633
 20
98.4256400591515
 30
0.0
 10
201.7394605929182
 20
98.295459161553
 30
0.0
 10
201.7539723990671
 20
98.10017034139176
 30
0.0
 10
201.777934175665
 20
97.90477585351798
 30
0.0
 10
201.8232519807905
 20
97.64658893199294
 30
0.0
 10
201.9037703964444
 20
97.32820047654111
 30
0.0
 10
202.0372035439533
 20
96.95824091868246
 30
0.0
 10
202.2055602358188
 20
96.60222178607796
 30
0.0
 10
202.4741960566178
 20
96.15266905351638
 30
0.0
 10
202.889686865909
 20
95.64246335093534
 30
0.0
 10
203.3997567668589
 20
95.22708838716726
 30
0.0
 10
203.8492919538293
 20
94.95841056564768
 30
0.0
 10
204.205142905578
 20
94.79014851208048
 30
0.0
 10
204.5752710599971
 20
94.6564676001312
 30
0.0
 10
204.9571175125877
 20
94.56048231577444
 30
0.0
 10
205.3457261168639
 20
94.49979051581559
 30
0.0
 10
205.607577877197
 20
94.49367673535222
 30
0.0
 10
205.7378566657428
 20
94.49063495357774
 30
0.0
  0
LINE
  5
145
330
1F
100
AcDbEntity
  8
0
  6
Continuous
 62
     8
370
    18
100
AcDbLine
 10
235.4579124489
 20
98.4906349536
 30
0.0
 11
235.4579124489
 21
326.9906349536
 31
0.0
  0
LINE
  5
146
330
1F
100
AcDbEntity
  8
0
  6
Continuous
 62
     8
370
    18
100
AcDbLine
 10
201.7378567309
 20
326.9906349536
 30
0.0
 11
201.7378567309
 21
192.0032810011
 31
0.0
  0
SPLINE
  5
147
330
1F
100
AcDbEntity
  8
0
  6
Continuous
 62
     7
370
    25
100
AcDbSpline
210
0.0
220
0.0
230
1.0
 70
     8
 71
     3
 72
    11
 73
     7
 74
     0
 42
0.00000001
 43
0.00000001
 40
0.0
 40
0.0
 40
0.0
 40
0.0
 40
0.244240028870549
 40
0.4975802599776996
 40
0.7524394968632885
 40
1.0
 40
1.0
 40
1.0
 40
1.0
 10
723.9880947226532
 20
467.9493986224256
 30
0.0
 10
723.9964277722447
 20
468.0435004938324
 30
0.0
 10
724.0134043546719
 20
468.235210402546
 30
0.0
 10
723.9093617408795
 20
468.5141360379674
 30
0.0
 10
723.7159206752506
 20
468.7519639978009
 30
0.0
 10
723.5267182877774
 20
468.8426812279555
 30
0.0
 10
723.4334913810569
 20
468.8873809110118
 30
0.0
  0
SPLINE
  5
148
330
1F
100
AcDbEntity
  8
0
  6
Continuous
 62
     7
370
    25
100
AcDbSpline
210
0.0
220
0.0
230
1.0
 70
     8
 71
     3
 72
    14
 73
    10
 74
     0
 42
0.00000001
 43
0.00000001
 40
0.0
 40
0.0
 40
0.0
 40
0.0
 40
0.1204350252471328
 40
0.2438890632554937
 40
0.4927195107380748
 40
0.6163145501067537
 40
0.7430413674107688
 40
0.8718494210866004
 40
1.0
 40
1.0
 40
1.0
 40
1.0
 10
719.021086478822
 20
452.9498306830515
 30
0.0
 10
719.3372500140167
 20
452.9634409883902
 30
0.0
 10
719.9775025342115
 20
452.9910027762746
 30
0.0
 10
721.2060638605367
 20
453.3579380236911
 30
0.0
 10
722.2970042630775
 20
454.0796307978339
 30
0.0
 10
723.1262553797465
 20
455.0893680497678
 30
0.0
 10
723.599398982544
 20
455.9696203341436
 30
0.0
 10
723.9180200649606
 20
456.9421248280846
 30
0.0
 10
723.9749452691536
 20
457.6142139511427
 30
0.0
 10
724.0033350445763
 20
457.9493986823713
 30
0.0
  0
LINE
  5
149
330
1F
100
AcDbEntity
  8
0
  6
Continuous
 62
     7
370
    25
100
AcDbLine
 10
714.2909742878
 20
452.0993986824
 30
0.0
 11
714.2909742878
 21
452.8993986824
 31
0.0
  0
LINE
  5
14A
330
1F
100
AcDbEntity
  8
0
  6
Continuous
 62
     7
370
    25
100
AcDbLine
 10
695.8909742878
 20
452.8993986824
 30
0.0
 11
695.8909742878
 21
452.0993986824
 31
0.0
  0
ARC
  5
14B
330
1F
100
AcDbEntity
  8
0
  6
Continuous
 62
     7
370
    25
100
AcDbCircle
 10
705.0909742878
 20
454.7493986824
 30
0.0
 40
8.760000000000026
100
AcDbArc
 50
334.908966774
 51
342.3914928214
  0
SPLINE
  5
14C
330
1F
100
AcDbEntity
  8
0
  6
Continuous
 62
     7
370
    25
100
AcDbSpline
210
0.0
220
0.0
230
1.0
 70
     8
 71
     3
 72
    11
 73
     7
 74
     0
 42
0.00000001
 43
0.00000001
 40
0.0
 40
0.0
 40
0.0
 40
0.0
 40
0.1141862846283504
 40
0.5316495415522813
 40
0.9386834784235871
 40
1.0
 40
1.0
 40
1.0
 40
1.0
 10
543.3368414671651
 20
389.6495031620926
 30
0.0
 10
543.3524866027631
 20
389.6496580733647
 30
0.0
 10
543.4253301075261
 20
389.6503793378061
 30
0.0
 10
543.8034733798086
 20
389.8563290639464
 30
0.0
 10
544.0200934633507
 20
390.2226063718004
 30
0.0
 10
544.024060558871
 20
390.4293773737149
 30
0.0
 10
544.0245799316905
 20
390.4564478684088
 30
0.0
  0
SPLINE
  5
14D
330
1F
100
AcDbEntity
  8
0
  6
Continuous
 62
     7
370
    25
100
AcDbSpline
210
0.0
220
0.0
230
1.0
 70
     8
 71
     3
 72
    12
 73
     8
 74
     0
 42
0.00000001
 43
0.00000001
 40
0.0
 40
0.0
 40
0.0
 40
0.0
 40
0.1212038130227208
 40
0.3054998990254885
 40
0.4921221645242232
 40
0.7431081338962064
 40
0.9999999999999999
 40
0.9999999999999999
 40
0.9999999999999999
 40
0.9999999999999999
 10
538.636899971999
 20
393.704830601574
 30
0.0
 10
538.6363314120017
 20
393.4436887054335
 30
0.0
 10
538.634898329845
 20
392.7854683003769
 30
0.0
 10
538.6312506910557
 20
392.2749495857819
 30
0.0
 10
538.64152099704
 20
391.9543755942532
 30
0.0
 10
538.685793516226
 20
391.6881366475356
 30
0.0
 10
538.7309513334811
 20
391.4842588222251
 30
0.0
 10
538.7537928026958
 20
391.3811345050314
 30
0.0
  0
SPLINE
  5
14E
330
1F
100
AcDbEntity
  8
0
  6
Continuous
 62
     7
370
    25
100
AcDbSpline
210
0.0
220
0.0
230
1.0
 70
     8
 71
     3
 72
    12
 73
     8
 74
     0
 42
0.00000001
 43
0.00000001
 40
0.0
 40
0.0
 40
0.0
 40
0.0
 40
0.1212167033380944
 40
0.3055227565152591
 40
0.4921404500850757
 40
0.7431165106705497
 40
1.0
 40
1.0
 40
1.0
 40
1.0
 10
538.6368438590167
 20
393.730567293372
 30
0.0
 10
538.636275669384
 20
393.4652755751907
 30
0.0
 10
538.6348435659032
 20
392.7966164317938
 30
0.0
 10
538.6310421067185
 20
392.2787506611585
 30
0.0
 10
538.6411209187918
 20
391.9547475521662
 30
0.0
 10
538.6855265426803
 20
391.6893304413093
 30
0.0
 10
538.7308653304638
 20
391.4846443126712
 30
0.0
 10
538.7537984150334
 20
391.3811107925262
 30
0.0
  0
SPLINE
  5
14F
330
1F
100
AcDbEntity
  8
0
  6
Continuous
 62
     7
370
    25
100
AcDbSpline
210
0.0
220
0.0
230
1.0
 70
     8
 71
     3
 72
    11
 73
     7
 74
     0
 42
0.00000001
 43
0.00000001
 40
0.0
 40
0.0
 40
0.0
 40
0.0
 40
0.2532235445673653
 40
0.5044173916016234
 40
0.7534439990668722
 40
0.9999999999999999
 40
0.9999999999999999
 40
0.9999999999999999
 40
0.9999999999999999
 10
538.650975128664
 20
401.4290158270718
 30
0.0
 10
538.6481502412458
 20
401.3169817240628
 30
0.0
 10
538.6425231091185
 20
401.0938115204123
 30
0.0
 10
538.6386699578665
 20
400.7621409679105
 30
0.0
 10
538.6370625402146
 20
400.4349664870676
 30
0.0
 10
538.6369115666929
 20
400.2197115309743
 30
0.0
 10
538.6368364562529
 20
400.1126206035366
 30
0.0
  0
SPLINE
  5
150
330
1F
100
AcDbEntity
  8
0
  6
Continuous
 62
     7
370
    25
100
AcDbSpline
210
0.0
220
0.0
230
1.0
 70
     8
 71
     3
 72
    12
 73
     8
 74
     0
 42
0.00000001
 43
0.00000001
 40
0.0
 40
0.0
 40
0.0
 40
0.0
 40
0.218508704795557
 40
0.3358052013291662
 40
0.4582935164224145
 40
0.7181451643661854
 40
0.9999999999999999
 40
0.9999999999999999
 40
0.9999999999999999
 40
0.9999999999999999
 10
538.7537956141108
 20
391.3811226256462
 30
0.0
 10
538.8372196819181
 20
391.1125199677094
 30
0.0
 10
538.965426180199
 20
390.6997301444829
 30
0.0
 10
539.3383870799056
 20
390.2400165689033
 30
0.0
 10
539.8556664967385
 20
389.8604668704567
 30
0.0
 10
540.6905918476081
 20
389.6182471629767
 30
0.0
 10
541.3807042614563
 20
389.6210779210398
 30
0.0
 10
541.7397760593227
 20
389.6225507903386
 30
0.0
  0
LINE
  5
151
330
1F
100
AcDbEntity
  8
0
  6
Continuous
 62
     7
370
    25
100
AcDbLine
 10
490.5868082025
 20
443.6493986224
 30
0.0
 11
510.0761115825
 21
443.6493986224
 31
0.0
  0
LINE
  5
152
330
1F
100
AcDbEntity
  8
0
  6
Continuous
 62
     7
370
    25
100
AcDbLine
 10
510.0761115825
 20
479.6493986224
 30
0.0
 11
490.5868082025
 21
479.6493986224
 31
0.0
  0
ARC
  5
153
330
1F
100
AcDbEntity
  8
0
  6
Continuous
 62
     7
370
    25
100
AcDbCircle
 10
510.0761115825
 20
445.6493986224
 30
0.0
 40
2.000000000000107
100
AcDbArc
 50
270.0
 51
334.1580672368
  0
ARC
  5
154
330
1F
100
AcDbEntity
  8
0
  6
Continuous
 62
     7
370
    25
100
AcDbCircle
 10
510.0761115825
 20
477.6493986224
 30
0.0
 40
2.0
100
AcDbArc
 50
0.0
 51
90.0
  0
LINE
  5
155
330
1F
100
AcDbEntity
  8
0
  6
Continuous
 62
     7
370
    25
100
AcDbLine
 10
525.8279007685
 20
443.6548467075
 30
0.0
 11
529.8139780784
 21
443.6548467075
 31
0.0
  0
LINE
  5
156
330
1F
100
AcDbEntity
  8
0
  6
Continuous
 62
     7
370
    25
100
AcDbLine
 10
511.8761115825
 20
443.6548467075
 30
0.0
 11
517.8930738829
 21
443.6548467075
 31
0.0
  0
LWPOLYLINE
  5
157
330
1F
100
AcDbEntity
  8
0
  6
Continuous
 62
     7
370
    25
100
AcDbPolyline
 90
        3
 70
   128
 43
0.0
 10
543.0858641644
 20
479.6439505374
 10
530.2165754553
 20
479.6439496491
 10
520.6206223444
 20
479.6439493195
  0
SPLINE
  5
158
330
1F
100
AcDbEntity
  8
0
  6
Continuous
 62
     7
370
    25
100
AcDbSpline
210
0.0
220
0.0
230
1.0
 70
     8
 71
     3
 72
    20
 73
    16
 74
     0
 42
0.00000001
 43
0.00000001
 40
0.0
 40
0.0
 40
0.0
 40
0.0
 40
0.0694178451217662
 40
0.1468787419534477
 40
0.2197183566513518
 40
0.2824933927926328
 40
0.3692776658112227
 40
0.3938308786571827
 40
0.4217703587120278
 40
0.4575701827450093
 40
0.5024262165640042
 40
0.6209809278867495
 40
0.7232301067752219
 40
0.8474593496270949
 40
1.0
 40
1.0
 40
1.0
 40
1.0
 10
529.8139780784013
 20
443.6548481854279
 30
0.0
 10
530.2895861835962
 20
443.6415331112082
 30
0.0
 10
531.295908405661
 20
443.6133602206933
 30
0.0
 10
532.7833450212513
 20
443.3438737039682
 30
0.0
 10
534.1699965108733
 20
442.8713855680763
 30
0.0
 10
535.5121934979377
 20
442.1316938197671
 30
0.0
 10
536.412391818277
 20
441.3425987304015
 30
0.0
 10
537.0194334594865
 20
440.5822322511487
 30
0.0
 10
537.3183361845556
 20
440.1427858292747
 30
0.0
 10
537.585872541115
 20
439.6924013027214
 30
0.0
 10
537.9574606185344
 20
438.9799575786708
 30
0.0
 10
538.2661185822608
 20
438.2095361149891
 30
0.0
 10
538.5018749126974
 20
437.2716490764703
 30
0.0
 10
538.6233724727848
 20
436.2108093826363
 30
0.0
 10
538.6310661992578
 20
435.25440274319
 30
0.0
 10
538.6353065666847
 20
434.7272829430474
 30
0.0
  0
SPLINE
  5
159
330
1F
100
AcDbEntity
  8
0
  6
Continuous
 62
     7
370
    25
100
AcDbSpline
210
0.0
220
0.0
230
1.0
 70
     8
 71
     3
 72
    17
 73
    13
 74
     0
 42
0.00000001
 43
0.00000001
 40
0.0
 40
0.0
 40
0.0
 40
0.0
 40
0.0406202193504635
 40
0.1157750525193815
 40
0.1882638909093801
 40
0.2580276537654365
 40
0.3887058457301334
 40
0.5068466591486391
 40
0.6152629282691117
 40
0.7350745292288708
 40
0.8684145452697142
 40
1.0
 40
1.0
 40
1.0
 40
1.0
 10
544.045850713818
 20
475.1884096682337
 30
0.0
 10
544.0476291651129
 20
475.4302606849133
 30
0.0
 10
544.0526980764914
 20
476.1195803046911
 30
0.0
 10
544.0552043747504
 20
477.0083755836085
 30
0.0
 10
544.0564844830703
 20
477.7809425803745
 30
0.0
 10
544.0577500466965
 20
478.4309949578293
 30
0.0
 10
544.0613518781927
 20
478.7805595706619
 30
0.0
 10
544.0452298698851
 20
478.913342481124
 30
0.0
 10
543.9798297349768
 20
479.0992221603646
 30
0.0
 10
543.8680824161038
 20
479.2200183704289
 30
0.0
 10
543.9655740877243
 20
479.2852138408336
 30
0.0
 10
543.3778020683294
 20
479.5249007796125
 30
0.0
 10
543.0858624212102
 20
479.6439505438362
 30
0.0
  0
LINE
  5
15A
330
1F
100
AcDbEntity
  8
0
  6
Continuous
 62
     7
370
    25
100
AcDbLine
 10
544.0413668387
 20
474.5406987032
 30
0.0
 11
544.0458507138
 21
475.1884096682
 31
0.0
  0
ARC
  5
15B
330
1F
100
AcDbEntity
  8
0
  6
Continuous
 62
     7
370
    25
100
AcDbCircle
 10
513.0547183389
 20
477.0870165324
 30
0.0
 40
0.9786067564917058
100
AcDbArc
 50
180.0
 51
264.8687626762
  0
ARC
  5
15C
330
1F
100
AcDbEntity
  8
0
  6
Continuous
 62
     7
370
    25
100
AcDbCircle
 10
511.4889915378
 20
459.6507596359
 30
0.0
 40
16.5278079242456
100
AcDbArc
 50
64.8546955747
 51
84.8687626762
  0
LINE
  5
15D
330
1F
100
AcDbEntity
  8
0
  6
Continuous
 62
     7
370
    25
100
AcDbLine
 10
517.8761115825
 20
443.4048467075
 30
0.0
 11
518.0946929494
 21
442.8042993376
 31
0.0
  0
LINE
  5
15E
330
1F
100
AcDbEntity
  8
0
  6
Continuous
 62
     7
370
    25
100
AcDbLine
 10
525.6575302155
 20
442.8042993376
 30
0.0
 11
525.8761115825
 21
443.4048467075
 31
0.0
  0
LINE
  5
15F
330
1F
100
AcDbEntity
  8
0
  6
Continuous
 62
     7
370
    25
100
AcDbLine
 10
517.8761115825
 20
443.6584756918
 30
0.0
 11
517.8761115825
 21
443.4048467075
 31
0.0
  0
LINE
  5
160
330
1F
100
AcDbEntity
  8
0
  6
Continuous
 62
     7
370
    25
100
AcDbLine
 10
525.8761115825
 20
443.4048467075
 30
0.0
 11
525.8761115825
 21
443.665420431
 31
0.0
  0
ARC
  5
161
330
1F
100
AcDbEntity
  8
0
  6
Continuous
 62
     7
370
    25
100
AcDbCircle
 10
525.4695916914
 20
442.8727033663
 30
0.0
 40
0.2000000000000455
100
AcDbArc
 50
270.0
 51
340.0
  0
ARC
  5
162
330
1F
100
AcDbEntity
  8
0
  6
Continuous
 62
     7
370
    25
100
AcDbCircle
 10
518.2826314735
 20
442.8727033663
 30
0.0
 40
0.1999999999999886
100
AcDbArc
 50
200.0
 51
270.0
  0
LINE
  5
163
330
1F
100
AcDbEntity
  8
0
  6
Continuous
 62
     7
370
    25
100
AcDbLine
 10
518.2826314735
 20
442.6727033663
 30
0.0
 11
525.4695916914
 21
442.6727033663
 31
0.0
  0
LINE
  5
164
330
1F
100
AcDbEntity
  8
0
  6
Continuous
 62
     7
370
    25
100
AcDbLine
 10
484.0868082025
 20
426.5409407003
 30
0.0
 11
484.0868082025
 21
431.6543986224
 31
0.0
  0
LINE
  5
165
330
1F
100
AcDbEntity
  8
0
  6
Continuous
 62
     7
370
    25
100
AcDbLine
 10
484.0868082025
 20
426.5409407003
 30
0.0
 11
489.4077510902
 21
426.6338181039
 31
0.0
  0
LINE
  5
166
330
1F
100
AcDbEntity
  8
0
  6
Continuous
 62
     7
370
    25
100
AcDbLine
 10
484.0868082025
 20
431.6543986224
 30
0.0
 11
484.0868082025
 21
491.64873026
 31
0.0
  0
LINE
  5
167
330
1F
100
AcDbEntity
  8
0
  6
Continuous
 62
     7
370
    25
100
AcDbLine
 10
484.0868082025
 20
496.7621881821
 30
0.0
 11
489.4077510902
 21
496.6693107785
 31
0.0
  0
LINE
  5
168
330
1F
100
AcDbEntity
  8
0
  6
Continuous
 62
     7
370
    25
100
AcDbLine
 10
484.0868082025
 20
491.64873026
 30
0.0
 11
484.0868082025
 21
496.7621881821
 31
0.0
  0
LINE
  5
169
330
1F
100
AcDbEntity
  8
0
  6
Continuous
 62
     7
370
    25
100
AcDbLine
 10
490.5868082025
 20
431.6543986224
 30
0.0
 11
490.5868082025
 21
427.8336353381
 31
0.0
  0
ARC
  5
16A
330
1F
100
AcDbEntity
  8
0
  6
Continuous
 62
     7
370
    25
100
AcDbCircle
 10
489.3868082025
 20
427.8336353381
 30
0.0
 40
1.199999999999992
100
AcDbArc
 50
271.0
 51
0.0
  0
LINE
  5
16B
330
1F
100
AcDbEntity
  8
0
  6
Continuous
 62
     7
370
    25
100
AcDbLine
 10
490.5868082025
 20
491.64873026
 30
0.0
 11
490.5868082025
 21
431.6543986224
 31
0.0
  0
ARC
  5
16C
330
1F
100
AcDbEntity
  8
0
  6
Continuous
 62
     7
370
    25
100
AcDbCircle
 10
489.3868082025
 20
495.4694935443
 30
0.0
 40
1.200000000000045
100
AcDbArc
 50
0.0
 51
89.0
  0
LINE
  5
16D
330
1F
100
AcDbEntity
  8
0
  6
Continuous
 62
     7
370
    25
100
AcDbLine
 10
490.5868082025
 20
495.4694935443
 30
0.0
 11
490.5868082025
 21
491.64873026
 31
0.0
  0
SPLINE
  5
16E
330
1F
100
AcDbEntity
  8
0
  6
Continuous
 62
     7
370
    25
100
AcDbSpline
210
0.0
220
0.0
230
1.0
 70
    24
 71
     3
 72
    23
 73
    19
 74
     0
 42
0.00000001
 43
0.00000001
 40
0.0
 40
0.0
 40
0.0
 40
0.0
 40
0.0310461970488199
 40
0.0621836812647857
 40
0.0934957966487671
 40
0.1250645041097148
 40
0.1873739725607073
 40
0.25012449095503
 40
0.3126781415528316
 40
0.375220900942648
 40
0.5000204023860928
 40
0.6248199038292985
 40
0.6872808487472476
 40
0.7499163149992759
 40
0.8125850606511668
 40
0.874976296658351
 40
0.9377971086001374
 40
1.0
 40
1.0
 40
1.0
 40
1.0
 10
719.0868082024934
 20
468.9493986223553
 30
0.0
 10
719.1518030969196
 20
468.9493986223553
 30
0.0
 10
719.2819839945181
 20
468.9493986223553
 30
0.0
 10
719.4772728146794
 20
468.9493986223553
 30
0.0
 10
719.6726673025532
 20
468.9493986223553
 30
0.0
 10
719.9308542240782
 20
468.9493986223553
 30
0.0
 10
720.2492426795301
 20
468.9493986223553
 30
0.0
 10
720.6192022373888
 20
468.9493986223553
 30
0.0
 10
720.9752213699932
 20
468.9493986223553
 30
0.0
 10
721.4247741025548
 20
468.9493986223553
 30
0.0
 10
721.9349798051358
 20
468.9493986223553
 30
0.0
 10
722.3503547689039
 20
468.9493986223553
 30
0.0
 10
722.6190325904234
 20
468.9493986223553
 30
0.0
 10
722.7872946439907
 20
468.9493986223553
 30
0.0
 10
722.9209755559399
 20
468.9493986223553
 30
0.0
 10
723.0169608402967
 20
468.9493986223553
 30
0.0
 10
723.0776526402556
 20
468.9493986223553
 30
0.0
 10
723.0837664207189
 20
468.9493986223553
 30
0.0
 10
723.0868082024933
 20
468.9493986223553
 30
0.0
  0
SPLINE
  5
16F
330
1F
100
AcDbEntity
  8
0
  6
Continuous
 62
     7
370
    25
100
AcDbSpline
210
0.0
220
0.0
230
1.0
 70
     8
 71
     3
 72
    10
 73
     6
 74
     0
 42
0.00000001
 43
0.00000001
 40
0.0
 40
0.0
 40
0.0
 40
0.0
 40
0.1666488022395244
 40
0.4811642804778274
 40
1.0
 40
1.0
 40
1.0
 40
1.0
 10
723.086808202552
 20
468.9493986225489
 30
0.0
 10
723.1123155784416
 20
468.9487334470725
 30
0.0
 10
723.1859629014458
 20
468.9468128891376
 30
0.0
 10
723.3394493819978
 20
468.9265617087643
 30
0.0
 10
723.4549802366803
 20
468.8697221095029
 30
0.0
 10
723.5269085356704
 20
468.8343343708647
 30
0.0
  0
SPLINE
  5
170
330
1F
100
AcDbEntity
  8
0
  6
Continuous
 62
     7
370
    25
100
AcDbSpline
210
0.0
220
0.0
230
1.0
 70
     8
 71
     3
 72
    10
 73
     6
 74
     0
 42
0.00000001
 43
0.00000001
 40
0.0
 40
0.0
 40
0.0
 40
0.0
 40
0.2011348886425195
 40
0.6005674443212531
 40
1.0
 40
1.0
 40
1.0
 40
1.0
 10
723.7413903679785
 20
468.6865132725944
 30
0.0
 10
723.7853700236541
 20
468.6509123936755
 30
0.0
 10
723.9166886108443
 20
468.5446119451942
 30
0.0
 10
724.0514626335008
 20
468.2841935901216
 30
0.0
 10
724.0750263462412
 20
468.0609969449909
 30
0.0
 10
724.0868082026115
 20
467.9493986224256
 30
0.0
  0
LINE
  5
171
330
1F
100
AcDbEntity
  8
0
  6
Continuous
 62
     7
370
    25
100
AcDbLine
 10
723.8954006938
 20
467.9493986224
 30
0.0
 11
724.0868082025
 21
467.9493986224
 31
0.0
  0
LINE
  5
172
330
1F
100
AcDbEntity
  8
0
  6
Continuous
 62
     7
370
    25
100
AcDbLine
 10
490.5868082025
 20
452.9493986824
 30
0.0
 11
625.574162155
 21
452.9493986824
 31
0.0
  0
LINE
  5
173
330
1F
100
AcDbEntity
  8
0
  6
Continuous
 62
     7
370
    25
100
AcDbLine
 10
625.574162155
 20
468.9493986224
 30
0.0
 11
719.0868082025
 21
468.9493986224
 31
0.0
  0
LINE
  5
174
330
1F
100
AcDbEntity
  8
0
  6
Continuous
 62
     7
370
    25
100
AcDbLine
 10
625.574162155
 20
452.9493986825
 30
0.0
 11
719.0868082025
 21
452.9493986822
 31
0.0
  0
LINE
  5
175
330
1F
100
AcDbEntity
  8
0
  6
Continuous
 62
     7
370
    25
100
AcDbLine
 10
724.0868082025
 20
467.9493986224
 30
0.0
 11
724.0868082025
 21
457.9493986824
 31
0.0
  0
LINE
  5
176
330
1F
100
AcDbEntity
  8
0
  6
Continuous
 62
     7
370
    25
100
AcDbLine
 10
490.5868082025
 20
468.9493986223
 30
0.0
 11
625.574162155
 21
468.9493986224
 31
0.0
  0
LINE
  5
177
330
1F
100
AcDbEntity
  8
0
  6
Continuous
 62
     7
370
    25
100
AcDbLine
 10
709.1800757273
 20
452.8993986824
 30
0.0
 11
703.1894359642
 21
452.8993986824
 31
0.0
  0
LINE
  5
178
330
1F
100
AcDbEntity
  8
0
  6
Continuous
 62
     7
370
    25
100
AcDbLine
 10
703.1894359642
 20
452.8993986824
 30
0.0
 11
703.1894359642
 21
452.9493986824
 31
0.0
  0
LINE
  5
179
330
1F
100
AcDbEntity
  8
0
  6
Continuous
 62
     7
370
    25
100
AcDbLine
 10
709.1800757273
 20
452.9493986824
 30
0.0
 11
709.1800757273
 21
452.8993986824
 31
0.0
  0
LINE
  5
17A
330
1F
100
AcDbEntity
  8
0
  6
Continuous
 62
     7
370
    25
100
AcDbLine
 10
708.4349505761
 20
452.0993986824
 30
0.0
 11
695.8909742878
 21
452.0993986824
 31
0.0
  0
LINE
  5
17B
330
1F
100
AcDbEntity
  8
0
  6
Continuous
 62
     7
370
    25
100
AcDbLine
 10
714.2909742878
 20
452.0993986824
 30
0.0
 11
708.4349505761
 21
452.0993986824
 31
0.0
  0
LINE
  5
17C
330
1F
100
AcDbEntity
  8
0
  6
Continuous
 62
     7
370
    25
100
AcDbLine
 10
698.0591098527
 20
452.8993986824
 30
0.0
 11
696.4887028233
 21
452.8993986824
 31
0.0
  0
LINE
  5
17D
330
1F
100
AcDbEntity
  8
0
  6
Continuous
 62
     7
370
    25
100
AcDbLine
 10
696.4887028233
 20
452.8993986824
 30
0.0
 11
696.4887028233
 21
452.9493986824
 31
0.0
  0
LINE
  5
17E
330
1F
100
AcDbEntity
  8
0
  6
Continuous
 62
     7
370
    25
100
AcDbLine
 10
698.0591098527
 20
452.9493986824
 30
0.0
 11
698.0591098527
 21
452.8993986824
 31
0.0
  0
LINE
  5
17F
330
1F
100
AcDbEntity
  8
0
  6
Continuous
 62
     7
370
    25
100
AcDbLine
 10
698.8404281233
 20
452.9493986824
 30
0.0
 11
698.8404281233
 21
452.8993986824
 31
0.0
  0
LINE
  5
180
330
1F
100
AcDbEntity
  8
0
  6
Continuous
 62
     7
370
    25
100
AcDbLine
 10
698.0591098527
 20
452.8993986824
 30
0.0
 11
698.8404281233
 21
452.8993986824
 31
0.0
  0
LWPOLYLINE
  5
181
330
1F
100
AcDbEntity
  8
0
  6
Continuous
 62
     7
370
    25
100
AcDbPolyline
 90
       16
 70
   128
 43
0.0
 10
707.9524558731
 20
452.0993986824
 10
709.4493715386
 20
451.8617695759
 10
710.7465339504
 20
451.6353312311
 10
711.7888360329
 20
451.4297033803
 10
712.5319978877
 20
451.2536216679
 10
712.9444479274
 20
451.1145665359
 10
713.0086641245
 20
451.018445434
 10
712.7219183957
 20
450.9693418546
 10
712.0963924992
 20
450.9693418546
 10
711.1586605189
 20
451.018445434
 10
709.9485599237
 20
451.1145665359
 10
708.5174991605
 20
451.2536216679
 10
706.9262736803
 20
451.4297033803
 10
705.2424831777
 20
451.6353312311
 10
703.5376597674
 20
451.8617695759
 10
701.884229101
 20
452.0993986824
  0
LINE
  5
182
330
1F
100
AcDbEntity
  8
0
  6
Continuous
 62
     7
370
    25
100
AcDbLine
 10
713.7428083669
 20
452.8993986824
 30
0.0
 11
713.7428083669
 21
452.9493986824
 31
0.0
  0
LINE
  5
183
330
1F
100
AcDbEntity
  8
0
  6
Continuous
 62
     7
370
    25
100
AcDbLine
 10
712.7814934692
 20
452.9493986824
 30
0.0
 11
712.7814934692
 21
452.8993986824
 31
0.0
  0
LINE
  5
184
330
1F
100
AcDbEntity
  8
0
  6
Continuous
 62
     7
370
    25
100
AcDbLine
 10
712.7814934692
 20
452.8993986824
 30
0.0
 11
713.7428083669
 21
452.8993986824
 31
0.0
  0
LINE
  5
185
330
1F
100
AcDbEntity
  8
0
  6
Continuous
 62
     7
370
    25
100
AcDbLine
 10
714.9737453144
 20
452.9493986824
 30
0.0
 11
714.9737453144
 21
452.8993986824
 31
0.0
  0
LINE
  5
186
330
1F
100
AcDbEntity
  8
0
  6
Continuous
 62
     7
370
    25
100
AcDbLine
 10
714.9737453144
 20
452.8993986824
 30
0.0
 11
713.7428083669
 21
452.8993986824
 31
0.0
  0
LINE
  5
187
330
1F
100
AcDbEntity
  8
0
  6
Continuous
 62
     7
370
    25
100
AcDbLine
 10
695.4944837675
 20
452.9493986824
 30
0.0
 11
695.4944837675
 21
452.8993986824
 31
0.0
  0
LINE
  5
188
330
1F
100
AcDbEntity
  8
0
  6
Continuous
 62
     7
370
    25
100
AcDbLine
 10
695.4944837675
 20
452.8993986824
 30
0.0
 11
696.4887028233
 21
452.8993986824
 31
0.0
  0
LINE
  5
189
330
1F
100
AcDbEntity
  8
0
  6
Continuous
 62
     7
370
    25
100
AcDbLine
 10
694.537601885
 20
452.8993986824
 30
0.0
 11
694.537601885
 21
452.9493986824
 31
0.0
  0
LINE
  5
18A
330
1F
100
AcDbEntity
  8
0
  6
Continuous
 62
     7
370
    25
100
AcDbLine
 10
695.4944837675
 20
452.8993986824
 30
0.0
 11
694.537601885
 21
452.8993986824
 31
0.0
  0
LINE
  5
18B
330
1F
100
AcDbEntity
  8
0
  6
Continuous
 62
     7
370
    25
100
AcDbLine
 10
716.2119401624
 20
452.8993986824
 30
0.0
 11
715.6708494826
 21
452.8993986824
 31
0.0
  0
LINE
  5
18C
330
1F
100
AcDbEntity
  8
0
  6
Continuous
 62
     7
370
    25
100
AcDbLine
 10
715.6708494826
 20
452.8993986824
 30
0.0
 11
715.6708494826
 21
452.9493986824
 31
0.0
  0
LINE
  5
18D
330
1F
100
AcDbEntity
  8
0
  6
Continuous
 62
     7
370
    25
100
AcDbLine
 10
716.2119401624
 20
452.9493986824
 30
0.0
 11
716.2119401624
 21
452.8993986824
 31
0.0
  0
LINE
  5
18E
330
1F
100
AcDbEntity
  8
0
  6
Continuous
 62
     7
370
    25
100
AcDbLine
 10
714.9737453144
 20
452.8993986824
 30
0.0
 11
715.6708494826
 21
452.8993986824
 31
0.0
  0
LINE
  5
18F
330
1F
100
AcDbEntity
  8
0
  6
Continuous
 62
     7
370
    25
100
AcDbLine
 10
693.9700084132
 20
452.9493986824
 30
0.0
 11
693.9700084132
 21
452.8993986824
 31
0.0
  0
LINE
  5
190
330
1F
100
AcDbEntity
  8
0
  6
Continuous
 62
     7
370
    25
100
AcDbLine
 10
693.9700084132
 20
452.8993986824
 30
0.0
 11
694.537601885
 21
452.8993986824
 31
0.0
  0
LINE
  5
191
330
1F
100
AcDbEntity
  8
0
  6
Continuous
 62
     7
370
    25
100
AcDbLine
 10
543.0858641392
 20
389.6108065369
 30
0.0
 11
543.0858641878
 21
389.6108009667
 31
0.0
  0
SPLINE
  5
192
330
1F
100
AcDbEntity
  8
0
  6
Continuous
 62
     7
370
    25
100
AcDbSpline
210
0.0
220
0.0
230
1.0
 70
    24
 71
     3
 72
    18
 73
    14
 74
     0
 42
0.00000001
 43
0.00000001
 40
0.0
 40
0.0
 40
0.0
 40
0.0
 40
0.1008439967798123
 40
0.2016668034248069
 40
0.3073440231975094
 40
0.4032394036449978
 40
0.5079670369640709
 40
0.6045502957156582
 40
0.7014195782675837
 40
0.7524579698929958
 40
0.805968294307143
 40
0.9139869901040044
 40
1.0
 40
1.0
 40
1.0
 40
1.0
 10
543.9812757849846
 20
401.5998082206725
 30
0.0
 10
543.9856764714879
 20
401.0955394946174
 30
0.0
 10
543.9944769197876
 20
400.0871080034232
 30
0.0
 10
544.0078791749299
 20
398.551361677971
 30
0.0
 10
544.0209628344463
 20
397.0521227952461
 30
0.0
 10
544.0338940295177
 20
395.5703546074664
 30
0.0
 10
544.0457855050012
 20
394.2077264837665
 30
0.0
 10
544.0563161034253
 20
393.0010394252935
 30
0.0
 10
544.0630810771669
 20
392.2258502160939
 30
0.0
 10
544.0674033456643
 20
391.7305673034656
 30
0.0
 10
544.0711007135047
 20
391.3068909135983
 30
0.0
 10
544.0741979265606
 20
390.9519854503638
 30
0.0
 10
544.0752405181765
 20
390.8325162844516
 30
0.0
 10
544.075702692349
 20
390.7795563699202
 30
0.0
  0
LINE
  5
193
330
1F
100
AcDbEntity
  8
0
  6
Continuous
 62
     7
370
    25
100
AcDbLine
 10
541.7397760599
 20
389.6225506818
 30
0.0
 11
541.7397760491
 21
389.6225498523
 31
0.0
  0
LINE
  5
194
330
1F
100
AcDbEntity
  8
0
  6
Continuous
 62
     7
370
    25
100
AcDbLine
 10
541.7397760253
 20
389.6225498405
 30
0.0
 11
541.7397760382
 21
389.6225506809
 31
0.0
  0
SPLINE
  5
195
330
1F
100
AcDbEntity
  8
0
  6
Continuous
 62
     7
370
    25
100
AcDbSpline
210
0.0
220
0.0
230
1.0
 70
     8
 71
     3
 72
    13
 73
     9
 74
     0
 42
0.00000001
 43
0.00000001
 40
0.0
 40
0.0
 40
0.0
 40
0.0
 40
0.1218122868723392
 40
0.292824029112658
 40
0.4642200886785174
 40
0.6836816295491668
 40
0.9183986263914866
 40
1.0
 40
1.0
 40
1.0
 40
1.0
 10
538.6368433219434
 20
393.6154196643725
 30
0.0
 10
538.6368426785176
 20
393.7619445654271
 30
0.0
 10
538.6368411317892
 20
394.1141751407968
 30
0.0
 10
538.6368392569877
 20
395.0342881356867
 30
0.0
 10
538.6368377664812
 20
396.3355881527415
 30
0.0
 10
538.6368368244495
 20
397.8962442265131
 30
0.0
 10
538.6368364347919
 20
399.2597347045294
 30
0.0
 10
538.6368363763372
 20
400.0670057251702
 30
0.0
 10
538.6368363612575
 20
400.2752592770103
 30
0.0
  0
LINE
  5
196
330
1F
100
AcDbEntity
  8
0
  6
Continuous
 62
     7
370
    25
100
AcDbLine
 10
512.0761115825
 20
468.9493986224
 30
0.0
 11
512.0761115825
 21
477.6493986224
 31
0.0
  0
LINE
  5
197
330
1F
100
AcDbEntity
  8
0
  6
Continuous
 62
     7
370
    25
100
AcDbLine
 10
543.981275785
 20
434.727282943
 30
0.0
 11
543.981275785
 21
452.9493986824
 31
0.0
  0
LINE
  5
198
330
1F
100
AcDbEntity
  8
0
  6
Continuous
 62
     7
370
    25
100
AcDbLine
 10
511.8761115825
 20
452.9493986824
 30
0.0
 11
511.8761115825
 21
443.6548467075
 31
0.0
  0
SPLINE
  5
199
330
1F
100
AcDbEntity
  8
0
  6
Continuous
 62
     7
370
    25
100
AcDbSpline
210
0.0
220
0.0
230
1.0
 70
     8
 71
     3
 72
    18
 73
    14
 74
     0
 42
0.00000001
 43
0.00000001
 40
0.0
 40
0.0
 40
0.0
 40
0.0
 40
0.0332205642938836
 40
0.1378702079745691
 40
0.2433261409146954
 40
0.3510422150461203
 40
0.4590698011276402
 40
0.5648196103051668
 40
0.669291570747544
 40
0.7754345630007814
 40
0.8836112137920387
 40
0.9910546989419953
 40
1.0
 40
1.0
 40
1.0
 40
1.0
 10
525.8279007685438
 20
443.6654610253241
 30
0.0
 10
525.8416559310796
 20
443.6624361964221
 30
0.0
 10
525.8987418704619
 20
443.6498827134012
 30
0.0
 10
525.550698343706
 20
443.7272337409194
 30
0.0
 10
524.8168929169767
 20
443.8678659233265
 30
0.0
 10
523.7172754188263
 20
444.022957748074
 30
0.0
 10
522.4114696067455
 20
444.1145020886326
 30
0.0
 10
521.0535985043747
 20
444.1022393029577
 30
0.0
 10
519.8032271655834
 20
443.9956204789727
 30
0.0
 10
518.7607217610667
 20
443.8372172489006
 30
0.0
 10
518.1005340615156
 20
443.7054808595744
 30
0.0
 10
517.8149984676712
 20
443.6415401973184
 30
0.0
 10
517.8875015114289
 20
443.6573285415193
 30
0.0
 10
517.893073882919
 20
443.6585419873905
 30
0.0
  0
LINE
  5
19A
330
1F
100
AcDbEntity
  8
0
  6
Continuous
 62
     7
370
    25
100
AcDbLine
 10
541.7397760675
 20
389.6225498521
 30
0.0
 11
543.0858641726
 21
389.6108027192
 31
0.0
  0
SPLINE
  5
19B
330
1F
100
AcDbEntity
  8
0
  6
Continuous
 62
     7
370
    25
100
AcDbSpline
210
0.0
220
0.0
230
1.0
 70
     8
 71
     3
 72
    17
 73
    13
 74
     0
 42
0.00000001
 43
0.00000001
 40
0.0
 40
0.0
 40
0.0
 40
0.0
 40
0.0353725586344788
 40
0.1106537800079721
 40
0.2448478675979064
 40
0.3211497128770583
 40
0.3974018640497217
 40
0.4736412125323524
 40
0.5499283011863607
 40
0.7022851657290142
 40
0.8549790511170016
 40
1.0
 40
1.0
 40
1.0
 40
1.0
 10
542.992531752841
 20
468.9493986223415
 30
0.0
 10
542.9947164833576
 20
469.1997439334858
 30
0.0
 10
543.0015508402513
 20
469.9828836342813
 30
0.0
 10
543.0166309871566
 20
471.7108971556337
 30
0.0
 10
543.0340493285098
 20
473.706841107968
 30
0.0
 10
543.0502334198409
 20
475.5613540665919
 30
0.0
 10
543.0617343456519
 20
476.8792295796441
 30
0.0
 10
543.0709374741887
 20
477.9338037989848
 30
0.0
 10
543.0797549746054
 20
478.9441896701415
 30
0.0
 10
543.0853124056534
 20
479.5810088331403
 30
0.0
 10
543.0859837265921
 20
479.6579351629138
 30
0.0
 10
543.0858997453345
 20
479.6483118957158
 30
0.0
 10
543.0858588369206
 20
479.6436242712519
 30
0.0
  0
SPLINE
  5
19C
330
1F
100
AcDbEntity
  8
0
  6
Continuous
 62
     7
370
    25
100
AcDbSpline
210
0.0
220
0.0
230
1.0
 70
    24
 71
     3
 72
    15
 73
    11
 74
     0
 42
0.00000001
 43
0.00000001
 40
0.0
 40
0.0
 40
0.0
 40
0.0
 40
0.0338426675823544
 40
0.1814422877642799
 40
0.3289501924249346
 40
0.4732815773490466
 40
0.6175906847526231
 40
0.7418297088785138
 40
0.8661956990636241
 40
1.0
 40
1.0
 40
1.0
 40
1.0
 10
520.6206223478315
 20
479.6074684633523
 30
0.0
 10
520.6251519711875
 20
479.6181967417945
 30
0.0
 10
520.6494368542405
 20
479.6757147663292
 30
0.0
 10
520.5048337450386
 20
479.3332265952015
 30
0.0
 10
520.1638416997097
 20
478.5255970593073
 30
0.0
 10
519.5917802520537
 20
477.1706865040538
 30
0.0
 10
518.8672123758057
 20
475.4545690003337
 30
0.0
 10
518.0303064914399
 20
473.4723822595087
 30
0.0
 10
517.1295223351572
 20
471.3389017280846
 30
0.0
 10
516.4650330204128
 20
469.7650785136569
 30
0.0
 10
516.1206420068194
 20
468.9493986223372
 30
0.0
  0
LINE
  5
19D
330
1F
100
AcDbEntity
  8
0
  6
Continuous
 62
     7
370
    25
100
AcDbLine
 10
538.6353051021
 20
434.727282943
 30
0.0
 11
538.6353066315
 21
434.7272829431
 31
0.0
  0
LINE
  5
19E
330
1F
100
AcDbEntity
  8
0
  6
Continuous
 62
     7
370
    25
100
AcDbLine
 10
543.981275785
 20
401.5998082207
 30
0.0
 11
543.981275785
 21
434.727282943
 31
0.0
  0
SPLINE
  5
19F
330
1F
100
AcDbEntity
  8
0
  6
Continuous
 62
     7
370
    25
100
AcDbSpline
210
0.0
220
0.0
230
1.0
 70
     8
 71
     3
 72
     8
 73
     4
 74
     0
 42
0.00000001
 43
0.00000001
 40
0.0
 40
0.0
 40
0.0
 40
0.0
 40
0.173679237272846
 40
0.173679237272846
 40
0.173679237272846
 40
0.173679237272846
 10
538.6369054318284
 20
401.4084171089797
 30
0.0
 10
538.6363911870477
 20
401.4652722282016
 30
0.0
 10
538.6358803874903
 20
401.5225170158398
 30
0.0
 10
538.6353731670827
 20
401.5801777651325
 30
0.0
  0
LINE
  5
1A0
330
1F
100
AcDbEntity
  8
0
  6
Continuous
 62
     7
370
    25
100
AcDbLine
 10
543.9925723021
 20
468.9493986223
 30
0.0
 11
544.0770995374
 21
478.6352604141
 31
0.0
  0
LINE
  5
1A1
330
1F
100
AcDbEntity
  8
0
  6
Continuous
 62
     7
370
    25
100
AcDbLine
 10
538.635305011
 20
434.727282943
 30
0.0
 11
538.635305011
 21
401.6010774585
 31
0.0
  0
LINE
  5
1A2
330
1F
100
AcDbEntity
  8
0
  6
Continuous
 62
     7
370
    25
100
AcDbLine
 10
538.635305011
 20
401.6010774585
 30
0.0
 11
538.6353731671
 21
401.5801777651
 31
0.0
  0
LINE
  5
1A3
330
1F
100
AcDbEntity
  8
0
  6
Continuous
 62
     7
370
    25
100
AcDbLine
 10
517.8761115825
 20
443.4048467075
 30
0.0
 11
525.8761115825
 21
443.4048467075
 31
0.0
  0
LINE
  5
1A4
330
1F
100
AcDbEntity
  8
0
  6
Continuous
 62
     8
370
    18
100
AcDbLine
 10
489.4077510902
 20
426.6338181039
 30
0.0
 11
489.4077510902
 21
431.6543986224
 31
0.0
  0
LINE
  5
1A5
330
1F
100
AcDbEntity
  8
0
  6
Continuous
 62
     8
370
    18
100
AcDbLine
 10
489.4077510902
 20
431.6543986224
 30
0.0
 11
489.4077510902
 21
491.64873026
 31
0.0
  0
LINE
  5
1A6
330
1F
100
AcDbEntity
  8
0
  6
Continuous
 62
     8
370
    18
100
AcDbLine
 10
489.4077510902
 20
491.64873026
 30
0.0
 11
489.4077510902
 21
496.6693107785
 31
0.0
  0
SPLINE
  5
1A7
330
1F
100
AcDbEntity
  8
0
  6
Continuous
 62
     8
370
    18
100
AcDbSpline
210
0.0
220
0.0
230
1.0
 70
    24
 71
     3
 72
    11
 73
     7
 74
     0
 42
0.00000001
 43
0.00000001
 40
0.0
 40
0.0
 40
0.0
 40
0.0
 40
0.2859517738509743
 40
0.5719035477019475
 40
0.8578553215529194
 40
1.0
 40
1.0
 40
1.0
 40
1.0
 10
719.0868082024934
 20
467.9493986224255
 30
0.0
 10
719.7432646668977
 20
467.9493986224255
 30
0.0
 10
721.0561775957062
 20
467.9493986224256
 30
0.0
 10
722.6898336005945
 20
467.9493986224256
 30
0.0
 10
723.7125656030748
 20
467.9493986224256
 30
0.0
 10
723.8498251753091
 20
467.9493986224256
 30
0.0
 10
723.8954006937565
 20
467.9493986224256
 30
0.0
  0
LINE
  5
1A8
330
1F
100
AcDbEntity
  8
0
  6
Continuous
 62
     8
370
    18
100
AcDbLine
 10
625.574162155
 20
467.949398628
 30
0.0
 11
719.0868082025
 21
467.9493986065
 31
0.0
  0
LINE
  5
1A9
330
1F
100
AcDbEntity
  8
0
  6
Continuous
 62
     8
370
    18
100
AcDbLine
 10
490.5868082025
 20
467.9493986466
 30
0.0
 11
625.574162155
 21
467.949398628
 31
0.0
  0
SPLINE
  5
1AA
330
1F
100
AcDbEntity
  8
0
  6
Continuous
 62
     8
370
    18
100
AcDbSpline
210
0.0
220
0.0
230
1.0
 70
    24
 71
     3
 72
    98
 73
    94
 74
     0
 42
0.00000001
 43
0.00000001
 40
-54.3861539522409
 40
-54.3861539522409
 40
-54.3861539522409
 40
-54.3861539522409
 40
-53.91730779748021
 40
-53.91730779748021
 40
-53.44846164271951
 40
-53.44846164271951
 40
-52.9796154879588
 40
-52.9796154879588
 40
-52.51076933319811
 40
-52.51076933319811
 40
-52.27634625581771
 40
-52.27634625581771
 40
-52.04192317843741
 40
-52.04192317843741
 40
-51.80750010105701
 40
-51.80750010105701
 40
-51.5730770236767
 40
-51.5730770236767
 40
-51.10423086891601
 40
-51.10423086891601
 40
-50.63538471415531
 40
-50.63538471415531
 40
-50.1665385593946
 40
-50.1665385593946
 40
-49.69769240463391
 40
-49.69769240463391
 40
-49.22884624987321
 40
-49.22884624987321
 40
-48.7600000951125
 40
-48.7600000951125
 40
-48.2911539403518
 40
-48.2911539403518
 40
-47.82230778559111
 40
-47.82230778559111
 40
-47.35346163083041
 40
-47.35346163083041
 40
-46.8846154760697
 40
-46.8846154760697
 40
-46.41576932130901
 40
-46.41576932130901
 40
-46.18134624392871
 40
-46.18134624392871
 40
-45.94692316654831
 40
-45.94692316654831
 40
-45.4780770117876
 40
-45.4780770117876
 40
-45.00923085702691
 40
-45.00923085702691
 40
-44.77480777964661
 40
-44.77480777964661
 40
-44.54038470226621
 40
-44.54038470226621
 40
-44.0715385475055
 40
-44.0715385475055
 40
-43.83711547012521
 40
-43.83711547012521
 40
-43.60269239274481
 40
-43.60269239274481
 40
-43.36826931536451
 40
-43.36826931536451
 40
-43.13384623798411
 40
-43.13384623798411
 40
-42.8994231606038
 40
-42.8994231606038
 40
-42.6650000832234
 40
-42.6650000832234
 40
-42.19615392846281
 40
-42.19615392846281
 40
-41.72730777370211
 40
-41.72730777370211
 40
-41.2584616189414
 40
-41.2584616189414
 40
-40.78961546418071
 40
-40.78961546418071
 40
-40.32076930942001
 40
-40.32076930942001
 40
-39.8519231546593
 40
-39.8519231546593
 40
-39.38307699989861
 40
-39.38307699989861
 40
-38.91423084513791
 40
-38.91423084513791
 40
-38.4453846903772
 40
-38.4453846903772
 40
-37.97653853561651
 40
-37.97653853561651
 40
-37.50769238085581
 40
-37.50769238085581
 40
-36.57000007133441
 40
-36.57000007133441
 40
-36.10115391657371
 40
-36.10115391657371
 40
-35.632307761813
 40
-35.632307761813
 40
-35.632307761813
 40
-35.632307761813
 10
543.0858641725526
 20
389.6108027191833
 30
0.0
 10
543.0858641806585
 20
389.6108017903332
 30
0.0
 10
543.085864040032
 20
389.6108179045451
 30
0.0
 10
543.0858558041247
 20
389.6117616460423
 30
0.0
 10
543.0858477162585
 20
389.6126884237195
 30
0.0
 10
543.0858167045365
 20
389.6162420150707
 30
0.0
 10
543.0857937829398
 20
389.6188685698892
 30
0.0
 10
543.0857262633318
 20
389.6266055506339
 30
0.0
 10
543.0856818098937
 20
389.6316994100957
 30
0.0
 10
543.0855940035093
 20
389.6417610251623
 30
0.0
 10
543.0855612402387
 20
389.6455153241137
 30
0.0
 10
543.0854878642571
 20
389.6539233788042
 30
0.0
 10
543.0854474322977
 20
389.6585564224473
 30
0.0
 10
543.0853578374754
 20
389.6688229722018
 30
0.0
 10
543.0853091196255
 20
389.6744054848315
 30
0.0
 10
543.0852026382494
 20
389.6866070420059
 30
0.0
 10
543.085145086455
 20
389.6932018244372
 30
0.0
 10
543.0849583131622
 20
389.7146039239379
 30
0.0
 10
543.0848148244323
 20
389.7310461038036
 30
0.0
 10
543.0844868511491
 20
389.7686281196049
 30
0.0
 10
543.084301514676
 20
389.7898655758961
 30
0.0
 10
543.0838856964143
 20
389.8375136291915
 30
0.0
 10
543.0836549814074
 20
389.8639509503807
 30
0.0
 10
543.0831440071194
 20
389.9225028043205
 30
0.0
 10
543.082863621455
 20
389.9546318191052
 30
0.0
 10
543.082251246013
 20
390.0248030943723
 30
0.0
 10
543.0819178734012
 20
390.063003811937
 30
0.0
 10
543.0811951436623
 20
390.145820437143
 30
0.0
 10
543.0808051733078
 20
390.1905066136455
 30
0.0
 10
543.079964925821
 20
390.2867894389512
 30
0.0
 10
543.0795141059897
 20
390.3384482748496
 30
0.0
 10
543.0785490614711
 20
390.4490314235609
 30
0.0
 10
543.0780337646822
 20
390.5080785870167
 30
0.0
 10
543.0769343737891
 20
390.6340563054263
 30
0.0
 10
543.0763500589767
 20
390.7010121510226
 30
0.0
 10
543.0751099814215
 20
390.8431109641371
 30
0.0
 10
543.0744546031547
 20
390.9182098750699
 30
0.0
 10
543.0730663313599
 20
391.0772900660246
 30
0.0
 10
543.0723350191561
 20
391.1610901442777
 30
0.0
 10
543.0711785190608
 20
391.2936119290615
 30
0.0
 10
543.0707828578136
 20
391.338950217279
 30
0.0
 10
543.0699741150114
 20
391.4316229632876
 30
0.0
 10
543.0695587427534
 20
391.4792199096354
 30
0.0
 10
543.0682847816757
 20
391.6252013898494
 30
0.0
 10
543.0673969992027
 20
391.7269311850442
 30
0.0
 10
543.0655417468367
 20
391.939522049304
 30
0.0
 10
543.064577536979
 20
392.0500095553577
 30
0.0
 10
543.0630723983859
 20
392.2224813549982
 30
0.0
 10
543.0625624031131
 20
392.2809210248788
 30
0.0
 10
543.0615219846613
 20
392.4001411708775
 30
0.0
 10
543.0609939436367
 20
392.4606486791375
 30
0.0
 10
543.0593808367652
 20
392.6454924181651
 30
0.0
 10
543.0582743193573
 20
392.7722867543527
 30
0.0
 10
543.0565650661646
 20
392.9681477704422
 30
0.0
 10
543.055988678858
 20
393.0341952138438
 30
0.0
 10
543.0548200859442
 20
393.1681026982716
 30
0.0
 10
543.0542287686002
 20
393.2358609544326
 30
0.0
 10
543.0530333363494
 20
393.3728439221908
 30
0.0
 10
543.0524281689449
 20
393.4421892380875
 30
0.0
 10
543.0512075714968
 20
393.5820558519785
 30
0.0
 10
543.0505911902947
 20
393.6526861419331
 30
0.0
 10
543.0493464099188
 20
393.7953238450787
 30
0.0
 10
543.048718747111
 20
393.8672468790645
 30
0.0
 10
543.0474519482384
 20
394.0124076519998
 30
0.0
 10
543.0468149194377
 20
394.0854039224315
 30
0.0
 10
543.0448863254777
 20
394.3063989009275
 30
0.0
 10
543.0435816616223
 20
394.4558985706039
 30
0.0
 10
543.0409412561038
 20
394.7584590746236
 30
0.0
 10
543.0396065483403
 20
394.9114014355691
 30
0.0
 10
543.0369115223215
 20
395.2202208292842
 30
0.0
 10
543.0355503983719
 20
395.3761901854206
 30
0.0
 10
543.0328082204726
 20
395.6904126493004
 30
0.0
 10
543.0314287246757
 20
395.8484872107222
 30
0.0
 10
543.0286495008487
 20
396.1669547179147
 30
0.0
 10
543.0272527078205
 20
396.3270113458056
 30
0.0
 10
543.0244454856692
 20
396.64868714267
 30
0.0
 10
543.0230349197523
 20
396.8103219860462
 30
0.0
 10
543.0202054728184
 20
397.1345444899976
 30
0.0
 10
543.0187846728957
 20
397.2973520350433
 30
0.0
 10
543.0159365095344
 20
397.6237192302116
 30
0.0
 10
543.0145094587693
 20
397.7872430513762
 30
0.0
 10
543.0116481641617
 20
398.1151149388235
 30
0.0
 10
543.0102148463845
 20
398.2793568884942
 30
0.0
 10
543.0073445977623
 20
398.6082548041478
 30
0.0
 10
543.0059050953089
 20
398.7732054472495
 30
0.0
 10
543.0030297606361
 20
399.1026861656514
 30
0.0
 10
543.0015898251751
 20
399.2676864252297
 30
0.0
 10
542.9972678764559
 20
399.7629326946798
 30
0.0
 10
542.9943837875383
 20
400.0934165534076
 30
0.0
 10
542.9900568567297
 20
400.5892337168843
 30
0.0
 10
542.9886149927225
 20
400.7544549678071
 30
0.0
 10
542.9857274908622
 20
401.0853299082253
 30
0.0
 10
542.9842880706915
 20
401.2502711216152
 30
0.0
 10
542.9828447608478
 20
401.4156580464656
 30
0.0
  0
SPLINE
  5
1AB
330
1F
100
AcDbEntity
  8
0
  6
Continuous
 62
     8
370
    18
100
AcDbSpline
210
0.0
220
0.0
230
1.0
 70
    24
 71
     3
 72
     8
 73
     4
 74
     0
 42
0.00000001
 43
0.00000001
 40
0.0
 40
0.0
 40
0.0
 40
0.0
 40
1.0
 40
1.0
 40
1.0
 40
1.0
 10
542.9813291458794
 20
401.5893303169529
 30
0.0
 10
542.9818344310287
 20
401.5314303748748
 30
0.0
 10
542.982339624084
 20
401.4735409855119
 30
0.0
 10
542.9828447608405
 20
401.4156580472006
 30
0.0
  0
LINE
  5
1AC
330
1F
100
AcDbEntity
  8
0
  6
Continuous
 62
     8
370
    18
100
AcDbLine
 10
541.739878558
 20
389.6108048692
 30
0.0
 11
541.7398785586
 21
389.6108048028
 31
0.0
  0
SPLINE
  5
1AD
330
1F
100
AcDbEntity
  8
0
  6
Continuous
 62
     8
370
    18
100
AcDbSpline
210
0.0
220
0.0
230
1.0
 70
     8
 71
     3
 72
    14
 73
    10
 74
     0
 42
0.00000001
 43
0.00000001
 40
0.0
 40
0.0
 40
0.0
 40
0.0
 40
0.2015542879852908
 40
0.4051691133236636
 40
0.5954116830404472
 40
0.6725881483700381
 40
0.7442873073980693
 40
0.8925947213378143
 40
1.0
 40
1.0
 40
1.0
 40
1.0
 10
538.6369054463125
 20
401.4084171089797
 30
0.0
 10
538.6369054645947
 20
400.8151657678983
 30
0.0
 10
538.6369055013462
 20
399.6225981363846
 30
0.0
 10
538.6369051918763
 20
397.8748701504968
 30
0.0
 10
538.6369044772122
 20
396.5210267933875
 30
0.0
 10
538.6369036101838
 20
395.6012095838443
 30
0.0
 10
538.6369026413333
 20
394.8424766570643
 30
0.0
 10
538.6369011703132
 20
394.0969744791901
 30
0.0
 10
538.6368996406477
 20
393.7454789601064
 30
0.0
 10
538.6368989981526
 20
393.5978426664537
 30
0.0
  0
LINE
  5
1AE
330
1F
100
AcDbEntity
  8
0
  6
Continuous
 62
     8
370
    18
100
AcDbLine
 10
538.6368363613
 20
400.275259277
 30
0.0
 11
538.6368362566
 21
401.429409664
 31
0.0
  0
LINE
  5
1AF
330
1F
100
AcDbEntity
  8
0
  6
Continuous
 62
     8
370
    18
100
AcDbLine
 10
510.0761115825
 20
443.6493986224
 30
0.0
 11
510.0761115825
 21
452.9493986824
 31
0.0
  0
LINE
  5
1B0
330
1F
100
AcDbEntity
  8
0
  6
Continuous
 62
     8
370
    18
100
AcDbLine
 10
510.0761115825
 20
468.9493986224
 30
0.0
 11
510.0761115825
 21
479.6493986224
 31
0.0
  0
LINE
  5
1B1
330
1F
100
AcDbEntity
  8
0
  6
Continuous
 62
     8
370
    18
100
AcDbLine
 10
542.9813291459
 20
434.727282943
 30
0.0
 11
542.9813291459
 21
452.9493986824
 31
0.0
  0
LINE
  5
1B2
330
1F
100
AcDbEntity
  8
0
  6
Continuous
 62
     8
370
    18
100
AcDbLine
 10
542.9813291459
 20
434.727282943
 30
0.0
 11
542.9813291459
 21
401.589330317
 31
0.0
  0
LWPOLYLINE
  5
1B3
330
1F
100
AcDbEntity
  8
0
  6
Continuous
 62
     8
370
    18
100
AcDbPolyline
 90
        3
 70
   128
 43
0.0
 10
538.635736556
 20
434.7272829858
 10
538.6353700213
 20
434.7272832662
 10
538.6353167214
 20
434.7272830663
  0
LWPOLYLINE
  5
1B4
330
1F
100
AcDbEntity
  8
0
  6
Continuous
 62
     8
370
    18
100
AcDbPolyline
 90
        3
 70
   128
 43
0.0
 10
538.6353157974
 20
434.727282943
 10
538.635355223
 20
418.1517218175
 10
538.6353731671
 20
401.5801777651
  0
LINE
  5
1B5
330
1F
100
AcDbEntity
  8
0
  6
Continuous
 62
     8
370
    18
100
AcDbLine
 10
512.9671943739
 20
468.9493986224
 30
0.0
 11
512.9671943739
 21
476.1123315887
 31
0.0
  0
LINE
  5
1B6
330
1F
100
AcDbEntity
  8
0
  6
Continuous
 62
     8
370
    18
100
AcDbLine
 10
521.8761115825
 20
442.8042993376
 30
0.0
 11
525.6575302155
 21
442.8042993376
 31
0.0
  0
LINE
  5
1B7
330
1F
100
AcDbEntity
  8
0
  6
Continuous
 62
     8
370
    18
100
AcDbLine
 10
518.0946929494
 20
442.8042993376
 30
0.0
 11
521.8761115825
 21
442.8042993376
 31
0.0
  0
ENDSEC
  0
SECTION
  2
OBJECTS
  0
DICTIONARY
  5
C
330
0
100
AcDbDictionary
281
     1
  3
ACAD_GROUP
350
D
  3
ACAD_LAYOUT
350
1A
  3
ACAD_MLINESTYLE
350
17
  3
ACAD_PLOTSETTINGS
350
19
  3
ACAD_PLOTSTYLENAME
350
E
  3
ACAD_SCALELIST
350
47
  3
DWGPROPS
350
1B8
  0
DICTIONARY
  5
D
102
{ACAD_REACTORS
330
C
102
}
330
C
100
AcDbDictionary
281
     1
  0
DICTIONARY
  5
1A
102
{ACAD_REACTORS
330
C
102
}
330
C
100
AcDbDictionary
281
     1
  3
Layout1
350
1E
  3
Layout2
350
26
  3
Model
350
22
  0
DICTIONARY
  5
17
102
{ACAD_REACTORS
330
C
102
}
330
C
100
AcDbDictionary
281
     1
  3
Standard
350
18
  0
DICTIONARY
  5
19
102
{ACAD_REACTORS
330
C
102
}
330
C
100
AcDbDictionary
281
     1
  0
ACDBDICTIONARYWDFLT
  5
E
102
{ACAD_REACTORS
330
C
102
}
330
C
100
AcDbDictionary
281
     1
  3
Normal
350
F
100
AcDbDictionaryWithDefault
340
F
  0
DICTIONARY
  5
47
102
{ACAD_REACTORS
330
C
102
}
330
C
100
AcDbDictionary
281
     1
  3
A0
350
48
  3
A1
350
49
  3
A2
350
4A
  3
A3
350
4B
  3
A4
350
4C
  3
A5
350
4D
  3
A6
350
4E
  3
A7
350
4F
  3
A8
350
50
  3
A9
350
51
  3
B0
350
52
  3
B1
350
53
  3
B2
350
54
  3
B3
350
55
  3
B4
350
56
  3
B5
350
57
  3
B6
350
58
  0
XRECORD
  5
1B8
102
{ACAD_REACTORS
330
C
102
}
330
C
100
AcDbXrecord
280
     1
  1
DWGPROPS COOKIE
  2

  3

  4

  6

  7

  8
fue-task
  9

300
=
301
=
302
=
303
=
304
=
305
=
306
=
307
=
308
=
309
=
 40
0.0
 41
2460507.406175799
 42
2460507.406176875
  1

 90
        0
  0
LAYOUT
  5
1E
102
{ACAD_REACTORS
330
1A
102
}
330
1A
100
AcDbPlotSettings
  1

  2
none_device
  4

  6

 40
0.0
 41
0.0
 42
0.0
 43
0.0
 44
0.0
 45
0.0
 46
0.0
 47
0.0
 48
0.0
 49
0.0
140
0.0
141
0.0
142
1.0
143
1.0
 70
   688
 72
     1
 73
     0
 74
     5
  7

 75
    16
147
1.0
148
0.0
149
0.0
100
AcDbLayout
  1
Layout1
 70
     1
 71
     1
 10
0.0
 20
0.0
 11
420.0
 21
297.0
 12
0.0
 22
0.0
 32
0.0
 14
1.0000000000E+20
 24
1.0000000000E+20
 34
1.0000000000E+20
 15
-1.0000000000E+20
 25
-1.0000000000E+20
 35
-1.0000000000E+20
146
0.0
 13
0.0
 23
0.0
 33
0.0
 16
1.0
 26
0.0
 36
0.0
 17
0.0
 27
1.0
 37
0.0
 76
     0
330
1B
  0
LAYOUT
  5
26
102
{ACAD_REACTORS
330
1A
102
}
330
1A
100
AcDbPlotSettings
  1

  2
none_device
  4

  6

 40
0.0
 41
0.0
 42
0.0
 43
0.0
 44
0.0
 45
0.0
 46
0.0
 47
0.0
 48
0.0
 49
0.0
140
0.0
141
0.0
142
1.0
143
1.0
 70
   688
 72
     1
 73
     0
 74
     5
  7

 75
    16
147
1.0
148
0.0
149
0.0
100
AcDbLayout
  1
Layout2
 70
     1
 71
     2
 10
0.0
 20
0.0
 11
0.0
 21
0.0
 12
0.0
 22
0.0
 32
0.0
 14
0.0
 24
0.0
 34
0.0
 15
0.0
 25
0.0
 35
0.0
146
0.0
 13
0.0
 23
0.0
 33
0.0
 16
1.0
 26
0.0
 36
0.0
 17
0.0
 27
1.0
 37
0.0
 76
     0
330
23
  0
LAYOUT
  5
22
102
{ACAD_REACTORS
330
1A
102
}
330
1A
100
AcDbPlotSettings
  1

  2
none_device
  4
Letter_(8.50_x_11.00_Inches)
  6

 40
6.35
 41
6.35
 42
6.35000508
 43
6.35000508
 44
215.9
 45
279.4
 46
0.0
 47
0.0
 48
0.0
 49
0.0
140
0.0
141
0.0
142
1.0
143
1.0
 70
  1712
 72
     1
 73
     0
 74
     0
  7

 75
     0
147
1.0
148
0.0
149
0.0
100
AcDbLayout
  1
Model
 70
     1
 71
     0
 10
0.0
 20
0.0
 11
841.0
 21
594.0
 12
0.0
 22
0.0
 32
0.0
 14
0.0
 24
0.0
 34
0.0
 15
841.0
 25
594.0
 35
0.0
146
0.0
 13
0.0
 23
0.0
 33
0.0
 16
1.0
 26
0.0
 36
0.0
 17
0.0
 27
1.0
 37
0.0
 76
     0
330
1F
331
29
  0
MLINESTYLE
  5
18
102
{ACAD_REACTORS
330
17
102
}
330
17
100
AcDbMlineStyle
  2
Standard
 70
     0
  3

 62
   256
 51
90.0
 52
90.0
 71
     2
 49
0.5
 62
   256
  6
BYLAYER
 49
-0.5
 62
   256
  6
BYLAYER
  0
ACDBPLACEHOLDER
  5
F
102
{ACAD_REACTORS
330
E
102
}
330
E
  0
SCALE
  5
48
102
{ACAD_REACTORS
330
47
102
}
330
47
100
AcDbScale
 70
     0
300
1:1
140
1.0
141
1.0
290
     1
  0
SCALE
  5
49
102
{ACAD_REACTORS
330
47
102
}
330
47
100
AcDbScale
 70
     0
300
1:2
140
1.0
141
2.0
290
     0
  0
SCALE
  5
4A
102
{ACAD_REACTORS
330
47
102
}
330
47
100
AcDbScale
 70
     0
300
1:4
140
1.0
141
4.0
290
     0
  0
SCALE
  5
4B
102
{ACAD_REACTORS
330
47
102
}
330
47
100
AcDbScale
 70
     0
300
1:5
140
1.0
141
5.0
290
     0
  0
SCALE
  5
4C
102
{ACAD_REACTORS
330
47
102
}
330
47
100
AcDbScale
 70
     0
300
1:8
140
1.0
141
8.0
290
     0
  0
SCALE
  5
4D
102
{ACAD_REACTORS
330
47
102
}
330
47
100
AcDbScale
 70
     0
300
1:10
140
1.0
141
10.0
290
     0
  0
SCALE
  5
4E
102
{ACAD_REACTORS
330
47
102
}
330
47
100
AcDbScale
 70
     0
300
1:16
140
1.0
141
16.0
290
     0
  0
SCALE
  5
4F
102
{ACAD_REACTORS
330
47
102
}
330
47
100
AcDbScale
 70
     0
300
1:20
140
1.0
141
20.0
290
     0
  0
SCALE
  5
50
102
{ACAD_REACTORS
330
47
102
}
330
47
100
AcDbScale
 70
     0
300
1:30
140
1.0
141
30.0
290
     0
  0
SCALE
  5
51
102
{ACAD_REACTORS
330
47
102
}
330
47
100
AcDbScale
 70
     0
300
1:40
140
1.0
141
40.0
290
     0
  0
SCALE
  5
52
102
{ACAD_REACTORS
330
47
102
}
330
47
100
AcDbScale
 70
     0
300
1:50
140
1.0
141
50.0
290
     0
  0
SCALE
  5
53
102
{ACAD_REACTORS
330
47
102
}
330
47
100
AcDbScale
 70
     0
300
1:100
140
1.0
141
100.0
290
     0
  0
SCALE
  5
54
102
{ACAD_REACTORS
330
47
102
}
330
47
100
AcDbScale
 70
     0
300
2:1
140
2.0
141
1.0
290
     0
  0
SCALE
  5
55
102
{ACAD_REACTORS
330
47
102
}
330
47
100
AcDbScale
 70
     0
300
4:1
140
4.0
141
1.0
290
     0
  0
SCALE
  5
56
102
{ACAD_REACTORS
330
47
102
}
330
47
100
AcDbScale
 70
     0
300
8:1
140
8.0
141
1.0
290
     0
  0
SCALE
  5
57
102
{ACAD_REACTORS
330
47
102
}
330
47
100
AcDbScale
 70
     0
300
10:1
140
10.0
141
1.0
290
     0
  0
SCALE
  5
58
102
{ACAD_REACTORS
330
47
102
}
330
47
100
AcDbScale
 70
     0
300
100:1
140
100.0
141
1.0
290
     0
  0
ENDSEC
  0
EOF
