  0
SECTION
  2
HEADER
  9
$ACADVER
  1
AC1032
  9
$ACADMAINTVER
 90
        4
  9
$DWGCODEPAGE
  3
ANSI_1252
  9
$LASTSAVEDBY
  1
MKramer
  9
$REQUIREDVERSIONS
160
                 0
  9
$INSBASE
 10
0.0
 20
0.0
 30
0.0
  9
$EXTMIN
 10
35.33953329459996
 20
37.46023423129998
 30
0.0
  9
$EXTMAX
 10
517.6919298245666
 20
479.0422698051497
 30
0.0
  9
$LIMMIN
 10
0.0
 20
0.0
  9
$LIMMAX
 10
594.0
 20
841.0
  9
$ORTHOMODE
 70
     0
  9
$REGENMODE
 70
     1
  9
$FILLMODE
 70
     1
  9
$QTEXTMODE
 70
     0
  9
$MIRRTEXT
 70
     1
  9
$LTSCALE
 40
1.0
  9
$ATTMODE
 70
     1
  9
$TEXTSIZE
 40
10.0
  9
$TRACEWID
 40
1.0
  9
$TEXTSTYLE
  7
Standard
  9
$CLAYER
  8
0
  9
$CELTYPE
  6
ByLayer
  9
$CECOLOR
 62
   256
  9
$CELTSCALE
 40
1.0
  9
$DISPSILH
 70
     0
  9
$DIMSCALE
 40
1.0
  9
$DIMASZ
 40
2.5
  9
$DIMEXO
 40
0.0
  9
$DIMDLI
 40
3.75
  9
$DIMRND
 40
0.0
  9
$DIMDLE
 40
0.0
  9
$DIMEXE
 40
1.0
  9
$DIMTP
 40
0.0
  9
$DIMTM
 40
0.0
  9
$DIMTXT
 40
3.5
  9
$DIMCEN
 40
2.5
  9
$DIMTSZ
 40
0.0
  9
$DIMTOL
 70
     0
  9
$DIMLIM
 70
     0
  9
$DIMTIH
 70
     1
  9
$DIMTOH
 70
     1
  9
$DIMSE1
 70
     0
  9
$DIMSE2
 70
     0
  9
$DIMTAD
 70
     1
  9
$DIMZIN
 70
     0
  9
$DIMBLK
  1

  9
$DIMASO
 70
     1
  9
$DIMSHO
 70
     1
  9
$DIMPOST
  1

  9
$DIMAPOST
  1

  9
$DIMALT
 70
     0
  9
$DIMALTD
 70
     3
  9
$DIMALTF
 40
0.0393700787
  9
$DIMLFAC
 40
1.0
  9
$DIMTOFL
 70
     1
  9
$DIMTVP
 40
0.0
  9
$DIMTIX
 70
     0
  9
$DIMSOXD
 70
     0
  9
$DIMSAH
 70
     0
  9
$DIMBLK1
  1

  9
$DIMBLK2
  1

  9
$DIMSTYLE
  2
ISO-25
  9
$DIMCLRD
 70
     0
  9
$DIMCLRE
 70
     0
  9
$DIMCLRT
 70
     0
  9
$DIMTFAC
 40
1.0
  9
$DIMGAP
 40
1.5
  9
$DIMJUST
 70
     0
  9
$DIMSD1
 70
     0
  9
$DIMSD2
 70
     0
  9
$DIMTOLJ
 70
     0
  9
$DIMTZIN
 70
     0
  9
$DIMALTZ
 70
     0
  9
$DIMALTTZ
 70
     0
  9
$DIMUPT
 70
     0
  9
$DIMDEC
 70
     2
  9
$DIMTDEC
 70
     2
  9
$DIMALTU
 70
     2
  9
$DIMALTTD
 70
     3
  9
$DIMTXSTY
  7
Standard
  9
$DIMAUNIT
 70
     0
  9
$DIMADEC
 70
     2
  9
$DIMALTRND
 40
0.0
  9
$DIMAZIN
 70
     0
  9
$DIMDSEP
 70
    44
  9
$DIMATFIT
 70
     3
  9
$DIMFRAC
 70
     0
  9
$DIMLDRBLK
  1

  9
$DIMLUNIT
 70
     2
  9
$DIMLWD
 70
    -2
  9
$DIMLWE
 70
    -2
  9
$DIMTMOVE
 70
     0
  9
$DIMFXL
 40
1.0
  9
$DIMFXLON
 70
     0
  9
$DIMJOGANG
 40
0.7853981633974483
  9
$DIMTFILL
 70
     0
  9
$DIMTFILLCLR
 70
     0
  9
$DIMARCSYM
 70
     0
  9
$DIMLTYPE
  6

  9
$DIMLTEX1
  6

  9
$DIMLTEX2
  6

  9
$DIMTXTDIRECTION
 70
     0
  9
$LUNITS
 70
     2
  9
$LUPREC
 70
     2
  9
$SKETCHINC
 40
1.0
  9
$FILLETRAD
 40
10.0
  9
$AUNITS
 70
     0
  9
$AUPREC
 70
     2
  9
$MENU
  1
.
  9
$ELEVATION
 40
0.0
  9
$PELEVATION
 40
0.0
  9
$THICKNESS
 40
0.0
  9
$LIMCHECK
 70
     0
  9
$CHAMFERA
 40
0.0
  9
$CHAMFERB
 40
0.0
  9
$CHAMFERC
 40
0.0
  9
$CHAMFERD
 40
0.0
  9
$SKPOLY
 70
     0
  9
$TDCREATE
 40
2458410.352440174
  9
$TDUCREATE
 40
2458410.310773507
  9
$TDUPDATE
 40
2459915.510063368
  9
$TDUUPDATE
 40
2459915.468396701
  9
$TDINDWG
 40
0.0002420023
  9
$TDUSRTIMER
 40
0.0002419907
  9
$USRTIMER
 70
     1
  9
$ANGBASE
 50
0.0
  9
$ANGDIR
 70
     0
  9
$PDMODE
 70
     0
  9
$PDSIZE
 40
-1.0
  9
$PLINEWID
 40
0.0
  9
$SPLFRAME
 70
     0
  9
$SPLINETYPE
 70
     6
  9
$SPLINESEGS
 70
     8
  9
$HANDSEED
  5
1E5
  9
$SURFTAB1
 70
     6
  9
$SURFTAB2
 70
     6
  9
$SURFTYPE
 70
     6
  9
$SURFU
 70
     6
  9
$SURFV
 70
     6
  9
$UCSBASE
  2

  9
$UCSNAME
  2

  9
$UCSORG
 10
0.0
 20
0.0
 30
0.0
  9
$UCSXDIR
 10
1.0
 20
0.0
 30
0.0
  9
$UCSYDIR
 10
0.0
 20
1.0
 30
0.0
  9
$UCSORTHOREF
  2

  9
$UCSORTHOVIEW
 70
     0
  9
$UCSORGTOP
 10
0.0
 20
0.0
 30
0.0
  9
$UCSORGBOTTOM
 10
0.0
 20
0.0
 30
0.0
  9
$UCSORGLEFT
 10
0.0
 20
0.0
 30
0.0
  9
$UCSORGRIGHT
 10
0.0
 20
0.0
 30
0.0
  9
$UCSORGFRONT
 10
0.0
 20
0.0
 30
0.0
  9
$UCSORGBACK
 10
0.0
 20
0.0
 30
0.0
  9
$PUCSBASE
  2

  9
$PUCSNAME
  2

  9
$PUCSORG
 10
0.0
 20
0.0
 30
0.0
  9
$PUCSXDIR
 10
1.0
 20
0.0
 30
0.0
  9
$PUCSYDIR
 10
0.0
 20
1.0
 30
0.0
  9
$PUCSORTHOREF
  2

  9
$PUCSORTHOVIEW
 70
     0
  9
$PUCSORGTOP
 10
0.0
 20
0.0
 30
0.0
  9
$PUCSORGBOTTOM
 10
0.0
 20
0.0
 30
0.0
  9
$PUCSORGLEFT
 10
0.0
 20
0.0
 30
0.0
  9
$PUCSORGRIGHT
 10
0.0
 20
0.0
 30
0.0
  9
$PUCSORGFRONT
 10
0.0
 20
0.0
 30
0.0
  9
$PUCSORGBACK
 10
0.0
 20
0.0
 30
0.0
  9
$USERI1
 70
     0
  9
$USERI2
 70
     0
  9
$USERI3
 70
     0
  9
$USERI4
 70
     0
  9
$USERI5
 70
     0
  9
$USERR1
 40
0.0
  9
$USERR2
 40
0.0
  9
$USERR3
 40
0.0
  9
$USERR4
 40
0.0
  9
$USERR5
 40
0.0
  9
$WORLDVIEW
 70
     1
  9
$SHADEDGE
 70
     3
  9
$SHADEDIF
 70
    70
  9
$TILEMODE
 70
     1
  9
$MAXACTVP
 70
    64
  9
$PINSBASE
 10
0.0
 20
0.0
 30
0.0
  9
$PLIMCHECK
 70
     0
  9
$PEXTMIN
 10
1.000000000000000E+20
 20
1.000000000000000E+20
 30
1.000000000000000E+20
  9
$PEXTMAX
 10
-1.000000000000000E+20
 20
-1.000000000000000E+20
 30
-1.000000000000000E+20
  9
$PLIMMIN
 10
0.0
 20
0.0
  9
$PLIMMAX
 10
0.0
 20
0.0
  9
$UNITMODE
 70
     0
  9
$VISRETAIN
 70
     1
  9
$PLINEGEN
 70
     0
  9
$PSLTSCALE
 70
     1
  9
$TREEDEPTH
 70
  3020
  9
$CMLSTYLE
  2
Standard
  9
$CMLJUST
 70
     0
  9
$CMLSCALE
 40
20.0
  9
$PROXYGRAPHICS
 70
     1
  9
$MEASUREMENT
 70
     1
  9
$CELWEIGHT
370
    -1
  9
$ENDCAPS
280
     0
  9
$JOINSTYLE
280
     0
  9
$LWDISPLAY
290
     1
  9
$INSUNITS
 70
     4
  9
$HYPERLINKBASE
  1

  9
$STYLESHEET
  1

  9
$XEDIT
290
     1
  9
$CEPSNTYPE
380
     0
  9
$PSTYLEMODE
290
     1
  9
$FINGERPRINTGUID
  2
{4A03AB3E-2FE4-4CBB-B660-267CD4411FDF}
  9
$VERSIONGUID
  2
{FAEB1C32-E019-11D5-929B-00C0DF256EC4}
  9
$EXTNAMES
290
     1
  9
$PSVPSCALE
 40
0.0
  9
$OLESTARTUP
290
     0
  9
$SORTENTS
280
   127
  9
$INDEXCTL
280
     0
  9
$HIDETEXT
280
     1
  9
$XCLIPFRAME
280
     2
  9
$HALOGAP
280
     0
  9
$OBSCOLOR
 70
   257
  9
$OBSLTYPE
280
     0
  9
$INTERSECTIONDISPLAY
280
     0
  9
$INTERSECTIONCOLOR
 70
   257
  9
$DIMASSOC
280
     2
  9
$PROJECTNAME
  1

  9
$CAMERADISPLAY
290
     0
  9
$LENSLENGTH
 40
50.0
  9
$CAMERAHEIGHT
 40
0.0
  9
$STEPSPERSEC
 40
2.0
  9
$STEPSIZE
 40
6.0
  9
$3DDWFPREC
 40
2.0
  9
$PSOLWIDTH
 40
0.25
  9
$PSOLHEIGHT
 40
4.0
  9
$LOFTANG1
 40
1.570796326794897
  9
$LOFTANG2
 40
1.570796326794897
  9
$LOFTMAG1
 40
0.0
  9
$LOFTMAG2
 40
0.0
  9
$LOFTPARAM
 70
     7
  9
$LOFTNORMALS
280
     1
  9
$LATITUDE
 40
37.795
  9
$LONGITUDE
 40
-122.394
  9
$NORTHDIRECTION
 40
0.0
  9
$TIMEZONE
 70
 -8000
  9
$LIGHTGLYPHDISPLAY
280
     1
  9
$TILEMODELIGHTSYNCH
280
     1
  9
$SOLIDHIST
280
     0
  9
$SHOWHIST
280
     1
  9
$DWFFRAME
280
     2
  9
$DGNFRAME
280
     2
  9
$REALWORLDSCALE
290
     1
  9
$INTERFERECOLOR
 62
   256
  9
$CSHADOW
280
     0
  9
$SHADOWPLANELOCATION
 40
0.0
  0
ENDSEC
  0
SECTION
  2
CLASSES
  0
CLASS
  1
ACDBDICTIONARYWDFLT
  2
AcDbDictionaryWithDefault
  3
ObjectDBX Classes
 90
        0
 91
        3
280
     0
281
     0
  0
CLASS
  1
VISUALSTYLE
  2
AcDbVisualStyle
  3
ObjectDBX Classes
 90
     4095
 91
        3
280
     0
281
     0
  0
CLASS
  1
MATERIAL
  2
AcDbMaterial
  3
ObjectDBX Classes
 90
     1153
 91
        3
280
     0
281
     0
  0
CLASS
  1
SCALE
  2
AcDbScale
  3
ObjectDBX Classes
 90
     1153
 91
        3
280
     0
281
     0
  0
CLASS
  1
TABLESTYLE
  2
AcDbTableStyle
  3
ObjectDBX Classes
 90
     4095
 91
        3
280
     0
281
     0
  0
CLASS
  1
MLEADERSTYLE
  2
AcDbMLeaderStyle
  3
ACDB_MLEADERSTYLE_CLASS
 90
     4095
 91
        3
280
     0
281
     0
  0
CLASS
  1
SUN
  2
AcDbSun
  3
SCENEOE
 90
     1153
 91
        3
280
     0
281
     0
  0
CLASS
  1
ACDBPLACEHOLDER
  2
AcDbPlaceHolder
  3
ObjectDBX Classes
 90
        0
 91
        1
280
     0
281
     0
  0
CLASS
  1
LAYOUT
  2
AcDbLayout
  3
ObjectDBX Classes
 90
        0
 91
        1
280
     0
281
     0
  0
CLASS
  1
DICTIONARYVAR
  2
AcDbDictionaryVar
  3
ObjectDBX Classes
 90
        0
 91
        3
280
     0
281
     0
  0
CLASS
  1
CELLSTYLEMAP
  2
AcDbCellStyleMap
  3
ObjectDBX Classes
 90
     1152
 91
        3
280
     0
281
     0
  0
ENDSEC
  0
SECTION
  2
TABLES
  0
TABLE
  2
VPORT
  5
8
330
0
100
AcDbSymbolTable
 70
     1
  0
VPORT
  5
29
330
8
100
AcDbSymbolTableRecord
100
AcDbViewportTableRecord
  2
*Active
 70
     0
 10
0.0
 20
0.0
 11
1.0
 21
1.0
 12
297.0
 22
420.5
 13
0.0
 23
0.0
 14
10.0
 24
10.0
 15
10.0
 25
10.0
 16
0.0
 26
0.0
 36
1.0
 17
0.0
 27
0.0
 37
0.0
 40
841.0
 41
0.7063020214
 42
50.0
 43
0.0
 44
0.0
 50
0.0
 51
0.0
 71
     0
 72
  2000
 73
     1
 74
     3
 75
     0
 76
     0
 77
     0
 78
     0
281
     0
 65
     1
110
0.0
120
0.0
130
0.0
111
1.0
121
0.0
131
0.0
112
0.0
122
1.0
132
0.0
 79
     0
146
0.0
348
1BC
 60
     3
 61
     5
292
     1
282
     1
141
0.0
142
0.0
 63
   256
  0
ENDTAB
  0
TABLE
  2
LTYPE
  5
5
330
0
100
AcDbSymbolTable
 70
     6
  0
LTYPE
  5
14
330
5
100
AcDbSymbolTableRecord
100
AcDbLinetypeTableRecord
  2
ByBlock
 70
     0
  3

 72
    65
 73
     0
 40
0.0
  0
LTYPE
  5
15
330
5
100
AcDbSymbolTableRecord
100
AcDbLinetypeTableRecord
  2
ByLayer
 70
     0
  3

 72
    65
 73
     0
 40
0.0
  0
LTYPE
  5
16
330
5
100
AcDbSymbolTableRecord
100
AcDbLinetypeTableRecord
  2
Continuous
 70
     0
  3
Solid line
 72
    65
 73
     0
 40
0.0
  0
LTYPE
  5
6E
330
5
100
AcDbSymbolTableRecord
100
AcDbLinetypeTableRecord
  2
HIDDEN
 70
     0
  3
Hidden __ __ __ __ __ __ __ __ __ __ __ __ __ __
 72
    65
 73
     2
 40
1.905
 49
1.27
 74
     0
 49
-0.635
 74
     0
  0
LTYPE
  5
6F
330
5
100
AcDbSymbolTableRecord
100
AcDbLinetypeTableRecord
  2
PHANTOM
 70
     0
  3
Phantom ______  __  __  ______  __  __  ______
 72
    65
 73
     6
 40
12.7
 49
6.35
 74
     0
 49
-1.27
 74
     0
 49
1.27
 74
     0
 49
-1.27
 74
     0
 49
1.27
 74
     0
 49
-1.27
 74
     0
  0
LTYPE
  5
70
330
5
100
AcDbSymbolTableRecord
100
AcDbLinetypeTableRecord
  2
CENTER
 70
     0
  3
Center ____ _ ____ _ ____ _ ____ _ ____ _ ____
 72
    65
 73
     4
 40
10.16
 49
6.35
 74
     0
 49
-1.27
 74
     0
 49
1.27
 74
     0
 49
-1.27
 74
     0
  0
LTYPE
  5
71
330
5
100
AcDbSymbolTableRecord
100
AcDbLinetypeTableRecord
  2
CENTERX2
 70
     0
  3
Center (2x) ________  __  ________  __  _____
 72
    65
 73
     4
 40
20.32
 49
12.7
 74
     0
 49
-2.54
 74
     0
 49
2.54
 74
     0
 49
-2.54
 74
     0
  0
LTYPE
  5
72
330
5
100
AcDbSymbolTableRecord
100
AcDbLinetypeTableRecord
  2
DOT2
 70
     0
  3
Dot (.5x) ........................................
 72
    65
 73
     2
 40
0.635
 49
0.0
 74
     0
 49
-0.635
 74
     0
  0
ENDTAB
  0
TABLE
  2
LAYER
  5
2
330
0
100
AcDbSymbolTable
 70
     1
  0
LAYER
  5
10
330
2
100
AcDbSymbolTableRecord
100
AcDbLayerTableRecord
  2
0
 70
     0
 62
     7
  6
Continuous
370
    -3
390
F
347
1D3
348
0
  0
ENDTAB
  0
TABLE
  2
STYLE
  5
3
330
0
100
AcDbSymbolTable
 70
     3
  0
STYLE
  5
11
330
3
100
AcDbSymbolTableRecord
100
AcDbTextStyleTableRecord
  2
Standard
 70
     0
 40
0.0
 41
1.0
 50
0.0
 71
     0
 42
10.0
  3
txt
  4

  0
STYLE
  5
76
330
3
100
AcDbSymbolTableRecord
100
AcDbTextStyleTableRecord
  2
SLDTEXTSTYLE0
 70
     0
 40
0.0
 41
0.96
 50
0.0
 71
     0
 42
10.0
  3
ISOCP3
  4

  0
STYLE
  5
8D
330
3
100
AcDbSymbolTableRecord
100
AcDbTextStyleTableRecord
  2
SLDTEXTSTYLE1
 70
     0
 40
0.0
 41
0.605
 50
0.0
 71
     0
 42
10.0
  3
TXT
  4

  0
ENDTAB
  0
TABLE
  2
VIEW
  5
6
330
0
100
AcDbSymbolTable
 70
     0
  0
ENDTAB
  0
TABLE
  2
UCS
  5
7
330
0
100
AcDbSymbolTable
 70
     0
  0
ENDTAB
  0
TABLE
  2
APPID
  5
9
330
0
100
AcDbSymbolTable
 70
     1
  0
APPID
  5
12
330
9
100
AcDbSymbolTableRecord
100
AcDbRegAppTableRecord
  2
ACAD
 70
     0
  0
ENDTAB
  0
TABLE
  2
DIMSTYLE
  5
A
330
0
100
AcDbSymbolTable
 70
     2
100
AcDbDimStyleTable
  0
DIMSTYLE
105
27
330
A
100
AcDbSymbolTableRecord
100
AcDbDimStyleTableRecord
  2
ISO-25
 70
     0
 41
2.5
 42
0.625
 43
3.75
 44
1.25
 73
     0
 74
     0
 77
     1
 78
     8
140
2.5
141
2.5
143
0.0393700787
147
0.625
171
     3
172
     1
178
     0
271
     2
272
     2
274
     3
278
    44
283
     0
284
     8
340
11
  0
DIMSTYLE
105
77
102
{ACAD_REACTORS
330
75
330
82
102
}
330
A
100
AcDbSymbolTableRecord
100
AcDbDimStyleTableRecord
  2
SLDDIMSTYLE0
 70
     0
 41
2.5
 44
0.0
 45
0.000000001
 73
     0
 74
     0
 77
     1
 78
    12
 79
     3
140
6.0
147
1.5
173
     1
178
     0
271
     2
272
     2
276
     2
284
    12
340
76
  0
ENDTAB
  0
TABLE
  2
BLOCK_RECORD
  5
1
330
0
100
AcDbSymbolTable
 70
     3
  0
BLOCK_RECORD
  5
1F
102
{ACAD_XDICTIONARY
360
1D9
102
}
330
1
100
AcDbSymbolTableRecord
100
AcDbBlockTableRecord
  2
*Model_Space
340
22
 70
     0
280
     1
281
     0
  0
BLOCK_RECORD
  5
1B
330
1
100
AcDbSymbolTableRecord
100
AcDbBlockTableRecord
  2
*Paper_Space
340
1E
 70
     0
280
     1
281
     0
  0
BLOCK_RECORD
  5
23
330
1
100
AcDbSymbolTableRecord
100
AcDbBlockTableRecord
  2
*Paper_Space0
340
26
 70
     0
280
     1
281
     0
  0
BLOCK_RECORD
  5
78
330
1
100
AcDbSymbolTableRecord
100
AcDbBlockTableRecord
  2
_D
340
0
 70
     0
280
     1
281
     0
  0
BLOCK_RECORD
  5
83
330
1
100
AcDbSymbolTableRecord
100
AcDbBlockTableRecord
  2
_D_1
340
0
 70
     0
280
     1
281
     0
  0
ENDTAB
  0
ENDSEC
  0
SECTION
  2
BLOCKS
  0
BLOCK
  5
20
330
1F
100
AcDbEntity
  8
0
100
AcDbBlockBegin
  2
*Model_Space
 70
     0
 10
0.0
 20
0.0
 30
0.0
  3
*Model_Space
  1

  0
ENDBLK
  5
21
330
1F
100
AcDbEntity
  8
0
100
AcDbBlockEnd
  0
BLOCK
  5
1C
330
1B
100
AcDbEntity
 67
     1
  8
0
100
AcDbBlockBegin
  2
*Paper_Space
 70
     0
 10
0.0
 20
0.0
 30
0.0
  3
*Paper_Space
  1

  0
ENDBLK
  5
1D
330
1B
100
AcDbEntity
 67
     1
  8
0
100
AcDbBlockEnd
  0
BLOCK
  5
24
330
23
100
AcDbEntity
  8
0
100
AcDbBlockBegin
  2
*Paper_Space0
 70
     0
 10
0.0
 20
0.0
 30
0.0
  3
*Paper_Space0
  1

  0
ENDBLK
  5
25
330
23
100
AcDbEntity
  8
0
100
AcDbBlockEnd
  0
BLOCK
  5
79
330
78
100
AcDbEntity
  8
0
100
AcDbBlockBegin
  2
_D
 70
     0
 10
0.0
 20
0.0
 30
0.0
  3
_D
  1

  0
SOLID
  5
7B
330
78
100
AcDbEntity
  8
0
  6
Continuous
 62
     7
370
    18
100
AcDbTrace
 10
42.7614395004
 20
152.0299240879
 30
0.0
 11
42.4614395004
 21
149.5299240879
 31
0.0
 12
43.0614395004
 22
149.5299240879
 32
0.0
 13
43.0614395004
 23
149.5299240879
 33
0.0
  0
SOLID
  5
7C
330
78
100
AcDbEntity
  8
0
  6
Continuous
 62
     7
370
    18
100
AcDbTrace
 10
42.7614395004
 20
52.0299240879
 30
0.0
 11
43.0614395004
 21
54.5299240879
 31
0.0
 12
42.4614395004
 22
54.5299240879
 32
0.0
 13
42.4614395004
 23
54.5299240879
 33
0.0
  0
LINE
  5
7D
330
78
100
AcDbEntity
  8
0
  6
Continuous
 62
     7
370
    18
100
AcDbLine
 10
56.6850079902
 20
152.0299240879
 30
0.0
 11
41.7614395004
 21
152.0299240879
 31
0.0
  0
LINE
  5
7E
330
78
100
AcDbEntity
  8
0
  6
Continuous
 62
     7
370
    18
100
AcDbLine
 10
56.6850079902
 20
52.0299240879
 30
0.0
 11
41.7614395004
 21
52.0299240879
 31
0.0
  0
LINE
  5
7F
330
78
100
AcDbEntity
  8
0
  6
Continuous
 62
     7
370
    18
100
AcDbLine
 10
42.7614395004
 20
152.0299240879
 30
0.0
 11
42.7614395004
 21
52.0299240879
 31
0.0
  0
MTEXT
  5
80
330
78
100
AcDbEntity
  8
0
  6
Continuous
 62
     7
370
    18
100
AcDbMText
 10
35.0270332946
 20
94.3680541463
 30
0.0
 40
6.0
 41
0.0
 46
0.0
 71
     1
 72
     1
  1
100
  7
SLDTEXTSTYLE0
 11
-7.044195017643634E-15
 21
1.0
 31
0.0
 73
     1
 44
1.0
  0
MTEXT
  5
81
330
78
100
AcDbEntity
  8
0
  6
Continuous
 62
     7
370
    18
100
AcDbMText
 10
35.0270332946
 20
105.7430548466
 30
0.0
 40
6.0
 41
0.0
 46
0.0
 71
     1
 72
     1
  1
mm
  7
SLDTEXTSTYLE0
 11
-7.044195017643634E-15
 21
1.0
 31
0.0
 73
     1
 44
1.0
  0
ENDBLK
  5
7A
330
78
100
AcDbEntity
  8
0
100
AcDbBlockEnd
  0
BLOCK
  5
84
330
83
100
AcDbEntity
  8
0
100
AcDbBlockBegin
  2
_D_1
 70
     0
 10
0.0
 20
0.0
 30
0.0
  3
_D_1
  1

  0
SOLID
  5
86
330
83
100
AcDbEntity
  8
0
  6
Continuous
 62
     7
370
    18
100
AcDbTrace
 10
56.6850079902
 20
38.4602342313
 30
0.0
 11
59.1850079902
 21
38.1602342313
 31
0.0
 12
59.1850079902
 22
38.7602342313
 32
0.0
 13
59.1850079902
 23
38.7602342313
 33
0.0
  0
SOLID
  5
87
330
83
100
AcDbEntity
  8
0
  6
Continuous
 62
     7
370
    18
100
AcDbTrace
 10
156.6850079902
 20
38.4602342313
 30
0.0
 11
154.1850079902
 21
38.7602342313
 31
0.0
 12
154.1850079902
 22
38.1602342313
 32
0.0
 13
154.1850079902
 23
38.1602342313
 33
0.0
  0
LINE
  5
88
330
83
100
AcDbEntity
  8
0
  6
Continuous
 62
     7
370
    18
100
AcDbLine
 10
56.6850079902
 20
52.0299240879
 30
0.0
 11
56.6850079902
 21
37.4602342313
 31
0.0
  0
LINE
  5
89
330
83
100
AcDbEntity
  8
0
  6
Continuous
 62
     7
370
    18
100
AcDbLine
 10
156.6850079902
 20
52.0299240879
 30
0.0
 11
156.6850079902
 21
37.4602342313
 31
0.0
  0
LINE
  5
8A
330
83
100
AcDbEntity
  8
0
  6
Continuous
 62
     7
370
    18
100
AcDbLine
 10
56.6850079902
 20
38.4602342313
 30
0.0
 11
156.6850079902
 21
38.4602342313
 31
0.0
  0
MTEXT
  5
8B
330
83
100
AcDbEntity
  8
0
  6
Continuous
 62
     7
370
    18
100
AcDbMText
 10
93.9626484861
 20
46.1946404371
 30
0.0
 40
6.0
 41
0.0
 46
0.0
 71
     1
 72
     1
  1
100
  7
SLDTEXTSTYLE0
 73
     1
 44
1.0
  0
MTEXT
  5
8C
330
83
100
AcDbEntity
  8
0
  6
Continuous
 62
     7
370
    18
100
AcDbMText
 10
105.3376491864
 20
46.1946404371
 30
0.0
 40
6.0
 41
0.0
 46
0.0
 71
     1
 72
     1
  1
mm
  7
SLDTEXTSTYLE0
 73
     1
 44
1.0
  0
ENDBLK
  5
85
330
83
100
AcDbEntity
  8
0
100
AcDbBlockEnd
  0
ENDSEC
  0
SECTION
  2
ENTITIES
  0
LINE
  5
73
330
1F
100
AcDbEntity
  8
0
  6
Continuous
 62
     7
370
    18
100
AcDbLine
 10
56.6850079902
 20
152.0299240879
 30
0.0
 11
56.6850079902
 21
52.0299240879
 31
0.0
  0
LINE
  5
74
330
1F
100
AcDbEntity
  8
0
  6
Continuous
 62
     7
370
    18
100
AcDbLine
 10
56.6850079902
 20
52.0299240879
 30
0.0
 11
156.6850079902
 21
52.0299240879
 31
0.0
  0
DIMENSION
  5
75
330
1F
100
AcDbEntity
  8
0
  6
Continuous
 62
     7
370
    18
100
AcDbDimension
280
     0
  2
_D
 10
42.7614395004
 20
52.0299240879
 30
0.0
 11
42.7614395004
 21
105.4472211621
 31
0.0
 70
   160
  1
<>mm
 71
     2
 42
-1.0
 73
     0
 74
     0
 75
     0
  3
SLDDIMSTYLE0
100
AcDbAlignedDimension
 13
56.6850079902
 23
152.0299240879
 33
0.0
 14
56.6850079902
 24
52.0299240879
 34
0.0
 50
90.0
100
AcDbRotatedDimension
  0
DIMENSION
  5
82
330
1F
100
AcDbEntity
  8
0
  6
Continuous
 62
     7
370
    18
100
AcDbDimension
280
     0
  2
_D_1
 10
156.6850079902
 20
38.4602342313
 30
0.0
 11
105.0418155019
 21
38.4602342313
 31
0.0
 70
   160
  1
<>mm
 71
     2
 42
-1.0
 73
     0
 74
     0
 75
     0
  3
SLDDIMSTYLE0
100
AcDbAlignedDimension
 13
56.6850079902
 23
52.0299240879
 33
0.0
 14
156.6850079902
 24
52.0299240879
 34
0.0
100
AcDbRotatedDimension
  0
MTEXT
  5
8E
330
1F
100
AcDbEntity
  8
0
  6
Continuous
 62
     7
370
     0
100
AcDbMText
 10
412.8252631579
 20
48.4342449499
 30
0.0
 40
10.0
 41
0.0
 46
0.0
 71
     1
 72
     1
  1
KLUDI GmbH & Co KG
  7
SLDTEXTSTYLE1
 73
     1
 44
1.0
  0
MTEXT
  5
8F
330
1F
100
AcDbEntity
  8
0
  6
Continuous
 62
     7
370
     0
100
AcDbMText
 10
210.0873490389
 20
48.4342449499
 30
0.0
 40
10.0
 41
0.0
 46
10.0
 71
     1
 72
     1
  1
{48 530 .. 65}
  7
SLDTEXTSTYLE1
 73
     1
 44
1.0
  0
SPLINE
  5
90
330
1F
100
AcDbEntity
  8
0
  6
Continuous
 62
     7
370
    25
100
AcDbSpline
210
0.0
220
0.0
230
1.0
 70
     8
 71
     3
 72
    11
 73
     7
 74
     0
 42
0.000000001
 43
0.00000001
 40
0.0
 40
0.0
 40
0.0
 40
0.0
 40
0.2458144215463917
 40
0.5005179306379081
 40
0.7552215803694922
 40
1.0
 40
1.0
 40
1.0
 40
1.0
 10
226.343208425799
 20
478.6558690899845
 30
0.0
 10
222.8203275059956
 20
478.7615524727352
 30
0.0
 10
215.647172014258
 20
478.9767409376935
 30
0.0
 10
204.8187513410604
 20
479.075765577279
 30
0.0
 10
194.0051981062602
 20
478.9757684350712
 30
0.0
 10
186.8468951445073
 20
478.7608501704552
 30
0.0
 10
183.3388651396424
 20
478.655526363277
 30
0.0
  0
LINE
  5
91
330
1F
100
AcDbEntity
  8
0
  6
Continuous
 62
     7
370
    25
100
AcDbLine
 10
181.9148915495
 20
427.0838964218
 30
0.0
 11
181.9148915495
 21
356.9184932345
 31
0.0
  0
LINE
  5
92
330
1F
100
AcDbEntity
  8
0
  6
Continuous
 62
     7
370
    25
100
AcDbLine
 10
227.9148916389
 20
356.9184932345
 30
0.0
 11
227.9148916389
 21
427.0838964218
 31
0.0
  0
LINE
  5
93
330
1F
100
AcDbEntity
  8
0
  6
Continuous
 62
     7
370
    25
100
AcDbLine
 10
183.4148908641
 20
442.9895523423
 30
0.0
 11
183.4148908641
 21
441.6563529009
 31
0.0
  0
LINE
  5
94
330
1F
100
AcDbEntity
  8
0
  6
Continuous
 62
     7
370
    25
100
AcDbLine
 10
226.4148923244
 20
441.656405055
 30
0.0
 11
226.4148923244
 21
442.9895523423
 31
0.0
  0
ARC
  5
95
330
1F
100
AcDbEntity
  8
0
  6
Continuous
 62
     7
370
    25
100
AcDbCircle
 10
216.4148915942
 20
442.9895555354
 30
0.0
 40
10.0
100
AcDbArc
 50
0.0
 51
9.0468459803
  0
ARC
  5
96
330
1F
100
AcDbEntity
  8
0
  6
Continuous
 62
     7
370
    25
100
AcDbCircle
 10
193.4148915942
 20
442.9895555354
 30
0.0
 40
10.00000000000003
100
AcDbArc
 50
170.9531540197
 51
180.0
  0
ARC
  5
97
330
1F
100
AcDbEntity
  8
0
  6
Continuous
 62
     7
370
    25
100
AcDbCircle
 10
204.9148915942
 20
441.1584947604
 30
0.0
 40
21.64486082191338
100
AcDbArc
 50
164.7315451581
 51
170.9531540197
  0
ARC
  5
98
330
1F
100
AcDbEntity
  8
0
  6
Continuous
 62
     7
370
    25
100
AcDbCircle
 10
204.9148915942
 20
441.1584947604
 30
0.0
 40
21.64486082191338
100
AcDbArc
 50
9.0468459803
 51
15.2684548419
  0
LINE
  5
99
330
1F
100
AcDbEntity
  8
0
  6
Continuous
 62
     7
370
    25
100
AcDbLine
 10
227.8409166868
 20
447.2375083202
 30
0.0
 11
227.8409166868
 21
477.1584961051
 31
0.0
  0
LINE
  5
9A
330
1F
100
AcDbEntity
  8
0
  6
Continuous
 62
     7
370
    25
100
AcDbLine
 10
181.8409165974
 20
477.1584961051
 30
0.0
 11
181.8409165974
 21
447.2424257034
 31
0.0
  0
ARC
  5
9B
330
1F
100
AcDbEntity
  8
0
  6
Continuous
 62
     7
370
    25
100
AcDbCircle
 10
226.3409173826
 20
477.1584947604
 30
0.0
 40
1.5
100
AcDbArc
 50
0.0
 51
90.0
  0
ARC
  5
9C
330
1F
100
AcDbEntity
  8
0
  6
Continuous
 62
     7
370
    25
100
AcDbCircle
 10
183.3409173826
 20
477.1584947604
 30
0.0
 40
1.5
100
AcDbArc
 50
90.0
 51
180.0
  0
LINE
  5
9D
330
1F
100
AcDbEntity
  8
0
  6
Continuous
 62
     7
370
    25
100
AcDbLine
 10
227.9148916389
 20
427.0838964218
 30
0.0
 11
227.9148916389
 21
429.4755998487
 31
0.0
  0
LINE
  5
9E
330
1F
100
AcDbEntity
  8
0
  6
Continuous
 62
     7
370
    25
100
AcDbLine
 10
181.9148915495
 20
429.4755998487
 30
0.0
 11
181.9148915495
 21
427.0838964218
 31
0.0
  0
LINE
  5
9F
330
1F
100
AcDbEntity
  8
0
  6
Continuous
 62
     7
370
    25
100
AcDbLine
 10
227.9148916389
 20
429.4755998487
 30
0.0
 11
227.9148916389
 21
440.1559549803
 31
0.0
  0
LINE
  5
A0
330
1F
100
AcDbEntity
  8
0
  6
Continuous
 62
     7
370
    25
100
AcDbLine
 10
181.9148915495
 20
440.1559102768
 30
0.0
 11
181.9148915495
 21
429.4755998487
 31
0.0
  0
SPLINE
  5
A1
330
1F
100
AcDbEntity
  8
0
  6
Continuous
 62
     7
370
    25
100
AcDbSpline
210
0.0
220
0.0
230
1.0
 70
     8
 71
     3
 72
    11
 73
     7
 74
     0
 42
0.000000001
 43
0.00000001
 40
0.0
 40
0.0
 40
0.0
 40
0.0
 40
0.2141581658112536
 40
0.5032178574118906
 40
0.8055117224147242
 40
1.0
 40
1.0
 40
1.0
 40
1.0
 10
181.8541730429322
 20
447.2943860525127
 30
0.0
 10
181.8470260753828
 20
447.24372996367
 30
0.0
 10
181.8302324981517
 20
447.1247008881467
 30
0.0
 10
181.9324803649987
 20
446.9129542777252
 30
0.0
 10
182.1293924276763
 20
446.8570868949047
 30
0.0
 10
182.2047868890861
 20
446.8593962300449
 30
0.0
 10
182.2343035276324
 20
446.8603003257748
 30
0.0
  0
SPLINE
  5
A2
330
1F
100
AcDbEntity
  8
0
  6
Continuous
 62
     7
370
    25
100
AcDbSpline
210
0.0
220
0.0
230
1.0
 70
     8
 71
     3
 72
    11
 73
     7
 74
     0
 42
0.000000001
 43
0.00000001
 40
0.0
 40
0.0
 40
0.0
 40
0.0
 40
0.1087205876499111
 40
0.4269462476679883
 40
0.7288066542597926
 40
1.0
 40
1.0
 40
1.0
 40
1.0
 10
227.4426812912614
 20
446.8588847154614
 30
0.0
 10
227.4586904297231
 20
446.8589340550446
 30
0.0
 10
227.5215583900825
 20
446.8591278118153
 30
0.0
 10
227.6666054975425
 20
446.8602692301158
 30
0.0
 10
227.8440592115248
 20
447.0660199932868
 30
0.0
 10
227.8394493479625
 20
447.187610724015
 30
0.0
 10
227.8372677649647
 20
447.2451526159282
 30
0.0
  0
CIRCLE
  5
A3
330
1F
100
AcDbEntity
  8
0
  6
Continuous
 62
     7
370
    25
100
AcDbCircle
 10
204.9148915907
 20
426.918494761
 30
0.0
 40
10.65096189368573
  0
ARC
  5
A4
330
1F
100
AcDbEntity
  8
0
  6
Continuous
 62
     7
370
    25
100
AcDbCircle
 10
204.9148915942
 20
426.9184947604
 30
0.0
 40
11.9499999995207
100
AcDbArc
 50
193.6267432888
 51
327.6259334917
  0
ARC
  5
A5
330
1F
100
AcDbEntity
  8
0
  6
Continuous
 62
     7
370
    25
100
AcDbCircle
 10
204.9148915942
 20
426.9184947604
 30
0.0
 40
11.94999999986783
100
AcDbArc
 50
13.6267432889
 51
147.6259334673
  0
ARC
  5
A6
330
1F
100
AcDbEntity
  8
0
  6
Continuous
 62
     7
370
    25
100
AcDbCircle
 10
204.9148915942
 20
426.9184947604
 30
0.0
 40
11.9500000018814
100
AcDbArc
 50
350.6263383903
 51
13.6267433067
  0
ARC
  5
A7
330
1F
100
AcDbEntity
  8
0
  6
Continuous
 62
     7
370
    25
100
AcDbCircle
 10
204.9148915942
 20
426.9184947604
 30
0.0
 40
11.9500000018814
100
AcDbArc
 50
327.625933474
 51
350.6263383903
  0
ARC
  5
A8
330
1F
100
AcDbEntity
  8
0
  6
Continuous
 62
     7
370
    25
100
AcDbCircle
 10
204.9148915942
 20
426.9184947604
 30
0.0
 40
11.94999999986783
100
AcDbArc
 50
147.6259334673
 51
193.6267433134
  0
LINE
  5
A9
330
1F
100
AcDbEntity
  8
0
  6
Continuous
 62
     7
370
    25
100
AcDbLine
 10
226.4148904617
 20
441.6563529009
 30
0.0
 11
226.45156967
 21
441.6554588312
 31
0.0
  0
SPLINE
  5
AA
330
1F
100
AcDbEntity
  8
0
  6
Continuous
 62
     7
370
    25
100
AcDbSpline
210
0.0
220
0.0
230
1.0
 70
     8
 71
     3
 72
    20
 73
    16
 74
     0
 42
0.000000001
 43
0.00000001
 40
0.0
 40
0.0
 40
0.0
 40
0.0
 40
0.25
 40
0.25
 40
0.5
 40
0.5
 40
0.75
 40
0.75
 40
0.875
 40
0.875
 40
0.9375
 40
0.9375
 40
0.96875
 40
0.96875
 40
1.0
 40
1.0
 40
1.0
 40
1.0
 10
224.1419637507488
 20
441.653471646701
 30
0.0
 10
224.1466566360173
 20
441.6539385810022
 30
0.0
 10
224.1511409598489
 20
441.6545482674702
 30
0.0
 10
224.2639137021726
 20
441.655306183706
 30
0.0
 10
224.3736430647772
 20
441.6556379666622
 30
0.0
 10
224.7140549321933
 20
441.656254734319
 30
0.0
 10
224.9429412799524
 20
441.6566773253901
 30
0.0
 10
225.3516286699717
 20
441.6564055827473
 30
0.0
 10
225.4990664584325
 20
441.6561897482174
 30
0.0
 10
225.7408557422491
 20
441.6564544871658
 30
0.0
 10
225.82504294023
 20
441.6566152598778
 30
0.0
 10
225.9571448682067
 20
441.6565861386973
 30
0.0
 10
226.0022064880358
 20
441.6565298973509
 30
0.0
 10
226.0928506198931
 20
441.6563038854144
 30
0.0
 10
226.1388202901582
 20
441.6561245155449
 30
0.0
 10
226.1805760613107
 20
441.6559723906778
 30
0.0
  0
SPLINE
  5
AB
330
1F
100
AcDbEntity
  8
0
  6
Continuous
 62
     7
370
    25
100
AcDbSpline
210
0.0
220
0.0
230
1.0
 70
     8
 71
     3
 72
    28
 73
    24
 74
     0
 42
0.000000001
 43
0.00000001
 40
0.0
 40
0.0
 40
0.0
 40
0.0
 40
0.1250000000000002
 40
0.1250000000000002
 40
0.1875000000000002
 40
0.1875000000000002
 40
0.2500000000000003
 40
0.2500000000000003
 40
0.3750000000000004
 40
0.3750000000000004
 40
0.5000000000000004
 40
0.5000000000000004
 40
0.5625000000000004
 40
0.5625000000000004
 40
0.6250000000000003
 40
0.6250000000000003
 40
0.7500000000000002
 40
0.7500000000000002
 40
0.8125000000000002
 40
0.8125000000000002
 40
0.8750000000000001
 40
0.8750000000000001
 40
1.0
 40
1.0
 40
1.0
 40
1.0
 10
204.9148915942103
 20
441.8873806394892
 30
0.0
 10
206.3341832099785
 20
441.8873116135526
 30
0.0
 10
207.7357870693555
 20
441.883952182756
 30
0.0
 10
209.8120975524106
 20
441.8740396495567
 30
0.0
 10
210.5027919114031
 20
441.8698985036764
 30
0.0
 10
211.8518981353666
 20
441.8602133154427
 30
0.0
 10
212.512180189637
 20
441.8546680773553
 30
0.0
 10
214.4511753611752
 20
441.8362001003517
 30
0.0
 10
215.6884482467252
 20
441.8214243622947
 30
0.0
 10
218.0475481222239
 20
441.7887938000424
 30
0.0
 10
219.1303557975082
 20
441.7715052791206
 30
0.0
 10
220.6145958647818
 20
441.7462142956046
 30
0.0
 10
221.0858895838766
 20
441.737891525444
 30
0.0
 10
221.9805132531618
 20
441.7218348215844
 30
0.0
 10
222.40479759152
 20
441.7140871770812
 30
0.0
 10
223.5776940983297
 20
441.6926986159282
 30
0.0
 10
224.2369664520556
 20
441.6806088774822
 30
0.0
 10
225.0436167953892
 20
441.6675465336923
 30
0.0
 10
225.2825300936671
 20
441.6640943069397
 30
0.0
 10
225.6940121454717
 20
441.6594754541635
 30
0.0
 10
225.8648850488598
 20
441.6582441305796
 30
0.0
 10
226.2757231311067
 20
441.6560862619747
 30
0.0
 10
226.4148915942103
 20
441.6564020780394
 30
0.0
 10
226.4148915942103
 20
441.6564020780394
 30
0.0
  0
SPLINE
  5
AC
330
1F
100
AcDbEntity
  8
0
  6
Continuous
 62
     7
370
    25
100
AcDbSpline
210
0.0
220
0.0
230
1.0
 70
     8
 71
     3
 72
    20
 73
    16
 74
     0
 42
0.000000001
 43
0.00000001
 40
0.0
 40
0.0
 40
0.0
 40
0.0
 40
0.03125
 40
0.03125
 40
0.0625
 40
0.0625
 40
0.1250000000000001
 40
0.1250000000000001
 40
0.2500000000000002
 40
0.2500000000000002
 40
0.5000000000000001
 40
0.5000000000000001
 40
0.75
 40
0.75
 40
1.0
 40
1.0
 40
1.0
 40
1.0
 10
183.6492071271099
 20
441.6559723906778
 30
0.0
 10
183.6909961164644
 20
441.6561246365657
 30
0.0
 10
183.7369807270692
 20
441.6563040545869
 30
0.0
 10
183.8276561129051
 20
441.6565300461946
 30
0.0
 10
183.8727358497468
 20
441.6565862338247
 30
0.0
 10
184.0048817055699
 20
441.6566151435248
 30
0.0
 10
184.0890859122194
 20
441.6564542159351
 30
0.0
 10
184.3309015627996
 20
441.6561897415927
 30
0.0
 10
184.4783249841429
 20
441.6564057815382
 30
0.0
 10
184.8869220519024
 20
441.6566772076555
 30
0.0
 10
185.1155678829216
 20
441.6562549852259
 30
0.0
 10
185.4561945308201
 20
441.6556379077352
 30
0.0
 10
185.565963919179
 20
441.6553058550797
 30
0.0
 10
185.6786573086237
 20
441.6545478597909
 30
0.0
 10
185.6831277661684
 20
441.6539384602057
 30
0.0
 10
185.6878194376719
 20
441.653471646701
 30
0.0
  0
LINE
  5
AD
330
1F
100
AcDbEntity
  8
0
  6
Continuous
 62
     7
370
    25
100
AcDbLine
 10
183.474715301
 20
441.6556674475
 30
0.0
 11
183.6492078985
 21
441.6559729213
 31
0.0
  0
LINE
  5
AE
330
1F
100
AcDbEntity
  8
0
  6
Continuous
 62
     7
370
    25
100
AcDbLine
 10
183.4148927267
 20
441.6563529009
 30
0.0
 11
183.3782135184
 21
441.6554588312
 31
0.0
  0
SPLINE
  5
AF
330
1F
100
AcDbEntity
  8
0
  6
Continuous
 62
     7
370
    25
100
AcDbSpline
210
0.0
220
0.0
230
1.0
 70
     8
 71
     3
 72
    31
 73
    27
 74
     0
 42
0.000000001
 43
0.00000001
 40
0.0
 40
0.0
 40
0.0
 40
0.0
 40
0.1249999999999996
 40
0.1249999999999996
 40
0.1874999999999994
 40
0.1874999999999994
 40
0.2499999999999993
 40
0.2499999999999993
 40
0.3749999999999991
 40
0.3749999999999991
 40
0.437499999999999
 40
0.437499999999999
 40
0.4999999999999989
 40
0.4999999999999989
 40
0.6249999999999988
 40
0.6249999999999988
 40
0.6562499999999989
 40
0.6562499999999989
 40
0.687499999999999
 40
0.687499999999999
 40
0.7499999999999992
 40
0.8124999999999996
 40
0.8124999999999996
 40
0.8749999999999998
 40
0.8749999999999998
 40
1.0
 40
1.0
 40
1.0
 40
1.0
 10
183.4148915942103
 20
441.6564020780394
 30
0.0
 10
183.4148915942103
 20
441.6564020780394
 30
0.0
 10
183.5541164459655
 20
441.6560900237884
 30
0.0
 10
183.9632501406537
 20
441.6582337521509
 30
0.0
 10
184.1332587215603
 20
441.6594557390607
 30
0.0
 10
184.5420679453624
 20
441.6640277767898
 30
0.0
 10
184.7820291854376
 20
441.6674830060433
 30
0.0
 10
185.5905469306231
 20
441.6805652542072
 30
0.0
 10
186.2502290173881
 20
441.6926648091153
 30
0.0
 10
187.4191059225705
 20
441.7139799012934
 30
0.0
 10
187.840369622852
 20
441.7216736322385
 30
0.0
 10
188.7386630284943
 20
441.7377990710343
 30
0.0
 10
189.2113152909052
 20
441.7461470541695
 30
0.0
 10
190.6975853835479
 20
441.7714764061442
 30
0.0
 10
191.7788703817526
 20
441.7887354345509
 30
0.0
 10
193.2462138124368
 20
441.8090461390641
 30
0.0
 10
193.5463780626097
 20
441.8130563791183
 30
0.0
 10
194.1531470333763
 20
441.8208410701629
 30
0.0
 10
194.4598905031759
 20
441.8246184307953
 30
0.0
 10
195.3900119242406
 20
441.8355618695893
 30
0.0
 10
196.6565030692486
 20
441.8491148933288
 30
0.0
 10
197.9748551263869
 20
441.8601873727224
 30
0.0
 10
199.3194888346035
 20
441.8698488021739
 30
0.0
 10
200.0079754597878
 20
441.8739872898544
 30
0.0
 10
202.0911187301449
 20
441.8839503544492
 30
0.0
 10
203.4952598625323
 20
441.8873115970115
 30
0.0
 10
204.9148915942103
 20
441.8873806394892
 30
0.0
  0
SPLINE
  5
B0
330
1F
100
AcDbEntity
  8
0
  6
Continuous
 62
     7
370
    25
100
AcDbSpline
210
0.0
220
0.0
230
1.0
 70
    24
 71
     3
 72
    26
 73
    22
 74
     0
 42
0.000000001
 43
0.00000001
 40
0.0
 40
0.0
 40
0.0
 40
0.0
 40
0.1249999999999998
 40
0.1249999999999998
 40
0.2499999999999996
 40
0.2499999999999996
 40
0.3749999999999997
 40
0.3749999999999997
 40
0.4999999999999998
 40
0.4999999999999998
 40
0.6249999999999999
 40
0.6249999999999999
 40
0.75
 40
0.75
 40
0.8750000000000001
 40
0.8750000000000001
 40
0.9375000000000002
 40
0.9375000000000002
 40
0.9687500000000001
 40
0.9687500000000001
 40
1.0
 40
1.0
 40
1.0
 40
1.0
 10
190.5055274292615
 20
478.657661195474
 30
0.0
 10
190.4755728141943
 20
478.657661195474
 30
0.0
 10
190.4282627497983
 20
478.657661195474
 30
0.0
 10
190.2793230401348
 20
478.657661195474
 30
0.0
 10
190.1776999431334
 20
478.657661195474
 30
0.0
 10
189.91080072938
 20
478.657661195474
 30
0.0
 10
189.745513485787
 20
478.657661195474
 30
0.0
 10
189.3500283167888
 20
478.657661195474
 30
0.0
 10
189.1194432072119
 20
478.657661195474
 30
0.0
 10
188.5959304034543
 20
478.657661195474
 30
0.0
 10
188.3037230028326
 20
478.657661195474
 30
0.0
 10
187.6672392886668
 20
478.657661195474
 30
0.0
 10
187.3232116664793
 20
478.657661195474
 30
0.0
 10
186.5882635936623
 20
478.657661195474
 30
0.0
 10
186.1970511132462
 20
478.657661195474
 30
0.0
 10
185.5711931908058
 20
478.6576611954741
 30
0.0
 10
185.3557563393923
 20
478.657661195474
 30
0.0
 10
185.0241865545651
 20
478.6576611954741
 30
0.0
 10
184.9122321519197
 20
478.6576611954741
 30
0.0
 10
184.6884041118741
 20
478.6576611954741
 30
0.0
 10
184.5760787701579
 20
478.657661195474
 30
0.0
 10
184.4697448212278
 20
478.657661195474
 30
0.0
  0
SPLINE
  5
B1
330
1F
100
AcDbEntity
  8
0
  6
Continuous
 62
     7
370
    25
100
AcDbSpline
210
0.0
220
0.0
230
1.0
 70
    24
 71
     3
 72
    10
 73
     6
 74
     0
 42
0.000000001
 43
0.00000001
 40
0.0
 40
0.0
 40
0.0
 40
0.0
 40
0.3941311984256609
 40
0.7882623890509414
 40
1.0
 40
1.0
 40
1.0
 40
1.0
 10
184.4697440649659
 20
478.6576572293278
 30
0.0
 10
184.2216115504781
 20
478.6576572293278
 30
0.0
 10
183.7253465264134
 20
478.6576572293278
 30
0.0
 10
183.3705865368904
 20
478.6576572293278
 30
0.0
 10
183.3470387023853
 20
478.6576572293278
 30
0.0
 10
183.3388092602879
 20
478.6576572293278
 30
0.0
  0
SPLINE
  5
B2
330
1F
100
AcDbEntity
  8
0
  6
Continuous
 62
     7
370
    25
100
AcDbSpline
210
0.0
220
0.0
230
1.0
 70
    24
 71
     3
 72
    10
 73
     6
 74
     0
 42
0.000000001
 43
0.00000001
 40
0.0
 40
0.0
 40
0.0
 40
0.0
 40
0.2125361776519063
 40
0.6062681068691168
 40
1.0
 40
1.0
 40
1.0
 40
1.0
 10
226.3432568545729
 20
478.6576572293278
 30
0.0
 10
226.3350109609115
 20
478.6576572293278
 30
0.0
 10
226.3114892132506
 20
478.6576572293278
 30
0.0
 10
225.9565230762603
 20
478.6576572293277
 30
0.0
 10
225.4602338306733
 20
478.6576572293278
 30
0.0
 10
225.2120892192513
 20
478.6576572293278
 30
0.0
  0
SPLINE
  5
B3
330
1F
100
AcDbEntity
  8
0
  6
Continuous
 62
     7
370
    25
100
AcDbSpline
210
0.0
220
0.0
230
1.0
 70
    24
 71
     3
 72
    26
 73
    22
 74
     0
 42
0.000000001
 43
0.00000001
 40
0.0
 40
0.0
 40
0.0
 40
0.0
 40
0.0312500000000001
 40
0.0312500000000001
 40
0.0625000000000001
 40
0.0625000000000001
 40
0.1250000000000003
 40
0.1250000000000003
 40
0.2500000000000004
 40
0.2500000000000004
 40
0.3750000000000004
 40
0.3750000000000004
 40
0.5000000000000003
 40
0.5000000000000003
 40
0.6250000000000002
 40
0.6250000000000002
 40
0.7500000000000002
 40
0.7500000000000002
 40
0.8750000000000001
 40
0.8750000000000001
 40
1.0
 40
1.0
 40
1.0
 40
1.0
 10
225.2120899440421
 20
478.657661195474
 30
0.0
 10
225.1057559951119
 20
478.657661195474
 30
0.0
 10
224.9934306533956
 20
478.657661195474
 30
0.0
 10
224.7696026133501
 20
478.657661195474
 30
0.0
 10
224.6576482107047
 20
478.657661195474
 30
0.0
 10
224.3260784258775
 20
478.657661195474
 30
0.0
 10
224.110641574464
 20
478.657661195474
 30
0.0
 10
223.4847836520236
 20
478.657661195474
 30
0.0
 10
223.0935711716076
 20
478.657661195474
 30
0.0
 10
222.3586230987905
 20
478.657661195474
 30
0.0
 10
222.014595476603
 20
478.657661195474
 30
0.0
 10
221.3781117624372
 20
478.657661195474
 30
0.0
 10
221.0859043618155
 20
478.657661195474
 30
0.0
 10
220.5623915580578
 20
478.657661195474
 30
0.0
 10
220.331806448481
 20
478.6576611954741
 30
0.0
 10
219.9363212794828
 20
478.657661195474
 30
0.0
 10
219.7710340358898
 20
478.657661195474
 30
0.0
 10
219.5041348221364
 20
478.657661195474
 30
0.0
 10
219.402511725135
 20
478.657661195474
 30
0.0
 10
219.2535720154715
 20
478.6576611954741
 30
0.0
 10
219.2062619510755
 20
478.6576611954741
 30
0.0
 10
219.1763073360083
 20
478.657661195474
 30
0.0
  0
SPLINE
  5
B4
330
1F
100
AcDbEntity
  8
0
  6
Continuous
 62
     7
370
    25
100
AcDbSpline
210
0.0
220
0.0
230
1.0
 70
     8
 71
     3
 72
    11
 73
     7
 74
     0
 42
0.000000001
 43
0.00000001
 40
0.0
 40
0.0
 40
0.0
 40
0.0
 40
0.131740388320829
 40
0.5356349836712717
 40
0.9400188291080424
 40
1.0
 40
1.0
 40
1.0
 40
1.0
 10
190.1747327904493
 20
473.8004449242588
 30
0.0
 10
190.1166168505543
 20
473.808982837104
 30
0.0
 10
189.8803268948809
 20
473.8436966015444
 30
0.0
 10
189.5262922678583
 20
474.107407170164
 30
0.0
 10
189.2533282486365
 20
474.4215873555053
 30
0.0
 10
189.1815121087662
 20
474.634076584086
 30
0.0
 10
189.172235750714
 20
474.6615234250065
 30
0.0
  0
SPLINE
  5
B5
330
1F
100
AcDbEntity
  8
0
  6
Continuous
 62
     7
370
    25
100
AcDbSpline
210
0.0
220
0.0
230
1.0
 70
     8
 71
     3
 72
    11
 73
     7
 74
     0
 42
0.000000001
 43
0.00000001
 40
0.0
 40
0.0
 40
0.0
 40
0.0
 40
0.0979431958433683
 40
0.4884090089252024
 40
0.879347454961925
 40
1.0
 40
1.0
 40
1.0
 40
1.0
 10
219.5468893881232
 20
473.8079700106617
 30
0.0
 10
219.5914682759773
 20
473.8148692457656
 30
0.0
 10
219.8137678471558
 20
473.8492733567454
 30
0.0
 10
220.1573111141135
 20
474.107354579529
 30
0.0
 10
220.4434743452359
 20
474.4482221814279
 30
0.0
 10
220.5223933610444
 20
474.6921751428177
 30
0.0
 10
220.5410054560095
 20
474.7497084969517
 30
0.0
  0
SPLINE
  5
B6
330
1F
100
AcDbEntity
  8
0
  6
Continuous
 62
     7
370
    25
100
AcDbSpline
210
0.0
220
0.0
230
1.0
 70
     8
 71
     3
 72
    10
 73
     6
 74
     0
 42
0.000000001
 43
0.00000001
 40
0.0
 40
0.0
 40
0.0
 40
0.0
 40
0.5
 40
0.5
 40
1.0
 40
1.0
 40
1.0
 40
1.0
 10
208.2692902394635
 20
459.840758591498
 30
0.0
 10
208.0840340485175
 20
460.0989947095
 30
0.0
 10
207.8714235327056
 20
460.3291238434578
 30
0.0
 10
207.3939371636388
 20
460.7391515722491
 30
0.0
 10
207.1269094659536
 20
460.9195415537417
 30
0.0
 10
206.8406123682743
 20
461.0679101032862
 30
0.0
  0
SPLINE
  5
B7
330
1F
100
AcDbEntity
  8
0
  6
Continuous
 62
     7
370
    25
100
AcDbSpline
210
0.0
220
0.0
230
1.0
 70
     8
 71
     3
 72
    16
 73
    12
 74
     0
 42
0.000000001
 43
0.00000001
 40
0.0
 40
0.0
 40
0.0
 40
0.0
 40
0.5000000000000089
 40
0.5000000000000089
 40
0.7500000000000036
 40
0.7500000000000036
 40
0.8750000000000013
 40
0.8750000000000013
 40
0.9375000000000007
 40
0.9375000000000007
 40
1.0
 40
1.0
 40
1.0
 40
1.0
 10
206.840612368274
 20
461.0679101032855
 30
0.0
 10
206.6948541923036
 20
461.1434467724599
 30
0.0
 10
206.5399408558349
 20
461.2015188568735
 30
0.0
 10
206.2982514427439
 20
461.2607940916639
 30
0.0
 10
206.2159562231883
 20
461.2759864146022
 30
0.0
 10
206.0916936123414
 20
461.2886438133127
 30
0.0
 10
206.0501886990424
 20
461.2912290616138
 30
0.0
 10
205.9877097531619
 20
461.2906124727986
 30
0.0
 10
205.9668473134628
 20
461.2896752345018
 30
0.0
 10
205.9249779689948
 20
461.2847834791991
 30
0.0
 10
205.9035175309325
 20
461.2814170801918
 30
0.0
 10
205.8840504305181
 20
461.2723642144392
 30
0.0
  0
SPLINE
  5
B8
330
1F
100
AcDbEntity
  8
0
  6
Continuous
 62
     7
370
    25
100
AcDbSpline
210
0.0
220
0.0
230
1.0
 70
     8
 71
     3
 72
    10
 73
     6
 74
     0
 42
0.000000001
 43
0.00000001
 40
0.0
 40
0.0
 40
0.0
 40
0.0
 40
0.5000000000000001
 40
0.5000000000000001
 40
1.0
 40
1.0
 40
1.0
 40
1.0
 10
205.8840504305344
 20
461.2723642144416
 30
0.0
 10
205.5403004567117
 20
461.2141180494097
 30
0.0
 10
205.1908424960247
 20
461.1832587852818
 30
0.0
 10
204.487858792462
 20
461.1834385934181
 30
0.0
 10
204.1408294383829
 20
461.2142333194433
 30
0.0
 10
203.7977724705935
 20
461.27236058924
 30
0.0
  0
SPLINE
  5
B9
330
1F
100
AcDbEntity
  8
0
  6
Continuous
 62
     7
370
    25
100
AcDbSpline
210
0.0
220
0.0
230
1.0
 70
     8
 71
     3
 72
    16
 73
    12
 74
     0
 42
0.000000001
 43
0.00000001
 40
0.0
 40
0.0
 40
0.0
 40
0.0
 40
0.0624999999999997
 40
0.0624999999999997
 40
0.1249999999999994
 40
0.1249999999999994
 40
0.2499999999999996
 40
0.2499999999999996
 40
0.4999999999999993
 40
0.4999999999999993
 40
1.0
 40
1.0
 40
1.0
 40
1.0
 10
203.7977724706037
 20
461.2723605892381
 30
0.0
 10
203.7781677393681
 20
461.2814772912679
 30
0.0
 10
203.7573532993594
 20
461.2846954286654
 30
0.0
 10
203.7154187425349
 20
461.2896437439724
 30
0.0
 10
203.6941629872823
 20
461.2906116597042
 30
0.0
 10
203.6311049760188
 20
461.2912225877944
 30
0.0
 10
203.589402520636
 20
461.2885890641273
 30
0.0
 10
203.4648458891864
 20
461.2758298168188
 30
0.0
 10
203.3821684454599
 20
461.2604992987471
 30
0.0
 10
203.1408825137374
 20
461.2011584063259
 30
0.0
 10
202.9873974379565
 20
461.1436623481563
 30
0.0
 10
202.8412153225061
 20
461.0679056953621
 30
0.0
  0
SPLINE
  5
BA
330
1F
100
AcDbEntity
  8
0
  6
Continuous
 62
     7
370
    25
100
AcDbSpline
210
0.0
220
0.0
230
1.0
 70
     8
 71
     3
 72
    10
 73
     6
 74
     0
 42
0.000000001
 43
0.00000001
 40
0.0
 40
0.0
 40
0.0
 40
0.0
 40
0.5
 40
0.5
 40
1.0
 40
1.0
 40
1.0
 40
1.0
 10
202.841215322506
 20
461.0679056953624
 30
0.0
 10
202.5551638645565
 20
460.9196638881182
 30
0.0
 10
202.2934196967417
 20
460.7431892591936
 30
0.0
 10
201.8152017225592
 20
460.3339266015162
 30
0.0
 10
201.5979001559535
 20
460.0991337180963
 30
0.0
 10
201.4125445639194
 20
459.84075812652
 30
0.0
  0
SPLINE
  5
BB
330
1F
100
AcDbEntity
  8
0
  6
Continuous
 62
     7
370
    25
100
AcDbSpline
210
0.0
220
0.0
230
1.0
 70
     8
 71
     3
 72
     8
 73
     4
 74
     0
 42
0.000000001
 43
0.00000001
 40
0.0
 40
0.0
 40
0.0
 40
0.0
 40
1.0
 40
1.0
 40
1.0
 40
1.0
 10
201.1890427760525
 20
459.4906135850756
 30
0.0
 10
201.2577408416002
 20
459.6123781710299
 30
0.0
 10
201.3326652010119
 20
459.7294628644563
 30
0.0
 10
201.4136019197481
 20
459.8421415328908
 30
0.0
  0
SPLINE
  5
BC
330
1F
100
AcDbEntity
  8
0
  6
Continuous
 62
     7
370
    25
100
AcDbSpline
210
0.0
220
0.0
230
1.0
 70
     8
 71
     3
 72
     8
 73
     4
 74
     0
 42
0.000000001
 43
0.00000001
 40
0.0
 40
0.0
 40
0.0
 40
0.0
 40
1.0
 40
1.0
 40
1.0
 40
1.0
 10
208.2682300939829
 20
459.8421453635297
 30
0.0
 10
208.3491678187528
 20
459.7294655850989
 30
0.0
 10
208.4240931038823
 20
459.6123796240703
 30
0.0
 10
208.4927919892173
 20
459.4906135850756
 30
0.0
  0
ARC
  5
BD
330
1F
100
AcDbEntity
  8
0
  6
Continuous
 62
     7
370
    25
100
AcDbCircle
 10
204.8409173826
 20
457.8584947604
 30
0.0
 40
4.000000000000079
100
AcDbArc
 50
155.918876022
 51
24.081123978
  0
ARC
  5
BE
330
1F
100
AcDbEntity
  8
0
  6
Continuous
 62
     7
370
    25
100
AcDbCircle
 10
204.8409173826
 20
457.8584947604
 30
0.0
 40
3.569682227416068
100
AcDbArc
 50
106.9911186602
 51
73.0090804587
  0
LINE
  5
BF
330
1F
100
AcDbEntity
  8
0
  6
Continuous
 62
     7
370
    25
100
AcDbLine
 10
204.8409173843
 20
446.8584972853
 30
0.0
 11
186.7513111468
 21
446.8584972853
 31
0.0
  0
LINE
  5
C0
330
1F
100
AcDbEntity
  8
0
  6
Continuous
 62
     7
370
    25
100
AcDbLine
 10
222.9305240001
 20
446.8584972853
 30
0.0
 11
204.8409173843
 21
446.8584972853
 31
0.0
  0
LINE
  5
C1
330
1F
100
AcDbEntity
  8
0
  6
Continuous
 62
     7
370
    25
100
AcDbLine
 10
181.9148915495
 20
356.9184932345
 30
0.0
 11
204.9148915942
 21
356.9184932345
 31
0.0
  0
LINE
  5
C2
330
1F
100
AcDbEntity
  8
0
  6
Continuous
 62
     7
370
    25
100
AcDbLine
 10
204.9148915942
 20
356.9184932345
 30
0.0
 11
227.9148916389
 21
356.9184932345
 31
0.0
  0
SPLINE
  5
C3
330
1F
100
AcDbEntity
  8
0
  6
Continuous
 62
     7
370
    25
100
AcDbSpline
210
0.0
220
0.0
230
1.0
 70
     8
 71
     3
 72
     9
 73
     5
 74
     0
 42
0.000000001
 43
0.00000001
 40
0.0
 40
0.0
 40
0.0
 40
0.0
 40
0.0887700519976452
 40
1.0
 40
1.0
 40
1.0
 40
1.0
 10
181.8483858044535
 20
447.2424257034298
 30
0.0
 10
181.8460307785058
 20
447.2249750178412
 30
0.0
 10
181.8195012688943
 20
447.028391990167
 30
0.0
 10
181.9345671835396
 20
447.0441416544594
 30
0.0
 10
182.0394186909587
 20
447.0584932202335
 30
0.0
  0
LINE
  5
C4
330
1F
100
AcDbEntity
  8
0
  6
Continuous
 62
     7
370
    25
100
AcDbLine
 10
186.7513111468
 20
446.8584972853
 30
0.0
 11
182.2376935418
 21
446.8584972853
 31
0.0
  0
LINE
  5
C5
330
1F
100
AcDbEntity
  8
0
  6
Continuous
 62
     7
370
    25
100
AcDbLine
 10
227.4441416051
 20
446.8584972853
 30
0.0
 11
222.9305240001
 21
446.8584972853
 31
0.0
  0
SPLINE
  5
C6
330
1F
100
AcDbEntity
  8
0
  6
Continuous
 62
     7
370
    25
100
AcDbSpline
210
0.0
220
0.0
230
1.0
 70
     8
 71
     3
 72
    14
 73
    10
 74
     0
 42
0.000000001
 43
0.00000001
 40
0.0
 40
0.0
 40
0.0
 40
0.0
 40
0.25
 40
0.25
 40
0.5
 40
0.5
 40
0.75
 40
0.75
 40
1.0
 40
1.0
 40
1.0
 40
1.0
 10
183.378170591614
 20
441.6555035981812
 30
0.0
 10
183.1849393681264
 20
441.6507717505569
 30
0.0
 10
182.9927053943089
 20
441.6082339383016
 30
0.0
 10
182.6383301402975
 20
441.4537639936713
 30
0.0
 10
182.4763198295776
 20
441.3418889500665
 30
0.0
 10
182.2063343436721
 20
441.0652111196388
 30
0.0
 10
182.0984589493168
 20
440.900510586993
 30
0.0
 10
181.9527106418657
 20
440.5424600105029
 30
0.0
 10
181.9148915942103
 20
440.3492422944529
 30
0.0
 10
181.9148915942103
 20
440.1559531428886
 30
0.0
  0
SPLINE
  5
C7
330
1F
100
AcDbEntity
  8
0
  6
Continuous
 62
     7
370
    25
100
AcDbSpline
210
0.0
220
0.0
230
1.0
 70
     8
 71
     3
 72
    14
 73
    10
 74
     0
 42
0.000000001
 43
0.00000001
 40
0.0
 40
0.0
 40
0.0
 40
0.0
 40
0.25
 40
0.25
 40
0.5
 40
0.5
 40
0.75
 40
0.75
 40
1.0
 40
1.0
 40
1.0
 40
1.0
 10
226.4516114927587
 20
441.6554585115743
 30
0.0
 10
226.6448390533905
 20
441.6507268959957
 30
0.0
 10
226.8370694344937
 20
441.6081907667141
 30
0.0
 10
227.1914392113554
 20
441.4537266131322
 30
0.0
 10
227.3534476495682
 20
441.3418556711446
 30
0.0
 10
227.6234322751984
 20
441.0651872497118
 30
0.0
 10
227.731308689649
 20
440.9004920132335
 30
0.0
 10
227.8770623738887
 20
440.5424515448152
 30
0.0
 10
227.9148857803238
 20
440.3492386269266
 30
0.0
 10
227.9148915935319
 20
440.1559531428883
 30
0.0
  0
CIRCLE
  5
C8
330
1F
100
AcDbEntity
  8
0
  6
Continuous
 62
     8
370
    18
100
AcDbCircle
 10
204.9148915966
 20
426.91849476
 30
0.0
 40
9.150000000000034
  0
CIRCLE
  5
C9
330
1F
100
AcDbEntity
  8
0
  6
Continuous
 62
     8
370
    18
100
AcDbCircle
 10
204.9148915966
 20
426.91849476
 30
0.0
 40
8.899438184514793
  0
SPLINE
  5
CA
330
1F
100
AcDbEntity
  8
0
  6
Continuous
 62
     8
370
    18
100
AcDbSpline
210
0.0
220
0.0
230
1.0
 70
     8
 71
     3
 72
     8
 73
     4
 74
     0
 42
0.000000001
 43
0.00000001
 40
0.0
 40
0.0
 40
0.0
 40
0.0
 40
0.001149732526103
 40
0.001149732526103
 40
0.001149732526103
 40
0.001149732526103
 10
185.8532287956625
 20
441.6343617715232
 30
0.0
 10
185.8550645550061
 20
441.6334993374986
 30
0.0
 10
185.8569726462966
 20
441.63245118577
 30
0.0
 10
185.8589239519902
 20
441.6312343842895
 30
0.0
  0
SPLINE
  5
CB
330
1F
100
AcDbEntity
  8
0
  6
Continuous
 62
     8
370
    18
100
AcDbSpline
210
0.0
220
0.0
230
1.0
 70
     8
 71
     3
 72
     8
 73
     4
 74
     0
 42
0.000000001
 43
0.00000001
 40
0.0
 40
0.0
 40
0.0
 40
0.0
 40
0.0011497325261029
 40
0.0011497325261029
 40
0.0011497325261029
 40
0.0011497325261029
 10
223.9708592364304
 20
441.6312343842895
 30
0.0
 10
223.972810542124
 20
441.63245118577
 30
0.0
 10
223.9747186334146
 20
441.6334993374986
 30
0.0
 10
223.9765543927581
 20
441.6343617715232
 30
0.0
  0
SPLINE
  5
CC
330
1F
100
AcDbEntity
  8
0
  6
Continuous
 62
     8
370
    18
100
AcDbSpline
210
0.0
220
0.0
230
1.0
 70
     8
 71
     3
 72
     8
 73
     4
 74
     0
 42
0.000000001
 43
0.00000001
 40
0.0
 40
0.0
 40
0.0
 40
0.0
 40
0.0011483463178868
 40
0.0011483463178868
 40
0.0011483463178868
 40
0.0011483463178868
 10
184.3712375868745
 20
440.1312926629768
 30
0.0
 10
184.3704692983972
 20
440.1325177009464
 30
0.0
 10
184.3697010087552
 20
440.1335753621872
 30
0.0
 10
184.3689327183395
 20
440.1344479156195
 30
0.0
  0
SPLINE
  5
CD
330
1F
100
AcDbEntity
  8
0
  6
Continuous
 62
     8
370
    18
100
AcDbSpline
210
0.0
220
0.0
230
1.0
 70
     8
 71
     3
 72
     8
 73
     4
 74
     0
 42
0.000000001
 43
0.00000001
 40
0.0
 40
0.0
 40
0.0
 40
0.0
 40
0.0011483463178866
 40
0.0011483463178866
 40
0.0011483463178866
 40
0.0011483463178866
 10
225.4608504700812
 20
440.1344479156193
 30
0.0
 10
225.4600821796654
 20
440.133575362187
 30
0.0
 10
225.4593138900235
 20
440.1325177009464
 30
0.0
 10
225.4585456015461
 20
440.1312926629768
 30
0.0
  0
LINE
  5
CE
330
1F
100
AcDbEntity
  8
0
  6
Continuous
 62
     8
370
    18
100
AcDbLine
 10
225.5799970265
 20
429.7111425036
 30
0.0
 11
225.5799970265
 21
440.1514250273
 31
0.0
  0
LINE
  5
CF
330
1F
100
AcDbEntity
  8
0
  6
Continuous
 62
     8
370
    18
100
AcDbLine
 10
225.5373238261
 20
429.8524502152
 30
0.0
 11
225.5366458233
 21
429.8546481365
 31
0.0
  0
LINE
  5
D0
330
1F
100
AcDbEntity
  8
0
  6
Continuous
 62
     8
370
    18
100
AcDbLine
 10
184.2924593623
 20
429.8524502152
 30
0.0
 11
184.2931373651
 21
429.8546481365
 31
0.0
  0
LINE
  5
D1
330
1F
100
AcDbEntity
  8
0
  6
Continuous
 62
     8
370
    18
100
AcDbLine
 10
184.2497861619
 20
429.7111425036
 30
0.0
 11
184.2497861619
 21
440.1514250273
 31
0.0
  0
SPLINE
  5
D2
330
1F
100
AcDbEntity
  8
0
  6
Continuous
 62
     8
370
    18
100
AcDbSpline
210
0.0
220
0.0
230
1.0
 70
     8
 71
     3
 72
    10
 73
     6
 74
     0
 42
0.000000001
 43
0.00000001
 40
0.0
 40
0.0
 40
0.0
 40
0.0
 40
0.5000000000000001
 40
0.5000000000000001
 40
1.0
 40
1.0
 40
1.0
 40
1.0
 10
226.1805760612304
 20
441.6559723906782
 30
0.0
 10
226.2709447044355
 20
441.6556431591184
 30
0.0
 10
226.3385917268289
 20
441.6555095416822
 30
0.0
 10
226.4289327454435
 20
441.6554430537323
 30
0.0
 10
226.4516125968067
 20
441.6555035963677
 30
0.0
 10
226.4516125968067
 20
441.6555035981812
 30
0.0
  0
LWPOLYLINE
  5
D3
330
1F
100
AcDbEntity
  8
0
  6
Continuous
 62
     8
370
    18
100
AcDbPolyline
 90
        3
 70
   128
 43
0.0
 10
224.1118973728
 20
441.6510853404
 10
224.1184706475
 20
441.6516515845
 10
224.1419641908
 20
441.6534695262
  0
ARC
  5
D4
330
1F
100
AcDbEntity
  8
0
  6
Continuous
 62
     8
370
    18
100
AcDbCircle
 10
185.5793213513
 20
439.9738309058
 30
0.0
 40
1.682968374431289
100
AcDbArc
 50
80.6267879503
 51
85.277299187
  0
LWPOLYLINE
  5
D5
330
1F
100
AcDbEntity
  8
0
  6
Continuous
 62
     8
370
    18
100
AcDbPolyline
 90
        3
 70
   128
 43
0.0
 10
185.6878189977
 20
441.6534695262
 10
185.6944742288
 20
441.6529256338
 10
185.7178858157
 20
441.6510853404
  0
ARC
  5
D6
330
1F
100
AcDbEntity
  8
0
  6
Continuous
 62
     8
370
    18
100
AcDbCircle
 10
185.7497838033
 20
440.1514268984
 30
0.0
 40
1.499997641402335
100
AcDbArc
 50
91.2185071449
 51
180.0000714729
  0
ARC
  5
D7
330
1F
100
AcDbEntity
  8
0
  6
Continuous
 62
     8
370
    18
100
AcDbCircle
 10
224.0799993851
 20
440.1514268984
 30
0.0
 40
1.499997641402335
100
AcDbArc
 50
359.9999285272
 51
88.7814928551
  0
LINE
  5
D8
330
1F
100
AcDbEntity
  8
0
  6
Continuous
 62
     8
370
    18
100
AcDbLine
 10
189.3268539246
 20
475.53972336
 30
0.0
 11
189.3268539246
 21
477.1584961051
 31
0.0
  0
SPLINE
  5
D9
330
1F
100
AcDbEntity
  8
0
  6
Continuous
 62
     8
370
    18
100
AcDbSpline
210
0.0
220
0.0
230
1.0
 70
     8
 71
     3
 72
    26
 73
    22
 74
     0
 42
0.000000001
 43
0.00000001
 40
0.0
 40
0.0
 40
0.0
 40
0.0
 40
0.2500000000000019
 40
0.2500000000000019
 40
0.3750000000000042
 40
0.3750000000000042
 40
0.4375000000000064
 40
0.4375000000000064
 40
0.4687500000000064
 40
0.4687500000000064
 40
0.5000000000000063
 40
0.5000000000000063
 40
0.5312500000000062
 40
0.5312500000000062
 40
0.5625000000000061
 40
0.5625000000000061
 40
0.6250000000000052
 40
0.6250000000000052
 40
0.7500000000000033
 40
0.7500000000000033
 40
1.0
 40
1.0
 40
1.0
 40
1.0
 10
217.655017667331
 20
474.0480957235478
 30
0.0
 10
217.8333118760275
 20
474.0480957235478
 30
0.0
 10
218.011634050829
 20
474.0481011794485
 30
0.0
 10
218.2782270245805
 20
474.0479356771357
 30
0.0
 10
218.366863368131
 20
474.0478516192201
 30
0.0
 10
218.497044601861
 20
474.047641104902
 30
0.0
 10
218.5402473365902
 20
474.0475565401409
 30
0.0
 10
218.6031373627573
 20
474.0473944748658
 30
0.0
 10
218.6237659406366
 20
474.0473347509835
 30
0.0
 10
218.6638530784714
 20
474.0471953740034
 30
0.0
 10
218.684697922587
 20
474.0471250747834
 30
0.0
 10
218.7146432838618
 20
474.0468896153776
 30
0.0
 10
218.7248678191094
 20
474.0467481695292
 30
0.0
 10
218.744282880802
 20
474.0464674835797
 30
0.0
 10
218.7526588715707
 20
474.0463238639807
 30
0.0
 10
218.77541365399
 20
474.0458871652903
 30
0.0
 10
218.787404726095
 20
474.0455877925138
 30
0.0
 10
218.8175706055151
 20
474.0446780032332
 30
0.0
 10
218.8295825677195
 20
474.0440672837909
 30
0.0
 10
218.8538692613992
 20
474.04222904204
 30
0.0
 10
218.8540761754429
 20
474.0409952713318
 30
0.0
 10
218.8550012180279
 20
474.0397618724518
 30
0.0
  0
ARC
  5
DA
330
1F
100
AcDbEntity
  8
0
  6
Continuous
 62
     8
370
    18
100
AcDbCircle
 10
218.8549345517
 20
475.5398033129
 30
0.0
 40
1.500045741385991
100
AcDbArc
 50
270.0025558412
 51
359.996946115
  0
SPLINE
  5
DB
330
1F
100
AcDbEntity
  8
0
  6
Continuous
 62
     8
370
    18
100
AcDbSpline
210
0.0
220
0.0
230
1.0
 70
     8
 71
     3
 72
    26
 73
    22
 74
     0
 42
0.000000001
 43
0.00000001
 40
0.0
 40
0.0
 40
0.0
 40
0.0
 40
0.2500000000000166
 40
0.2500000000000166
 40
0.3750000000000236
 40
0.3750000000000236
 40
0.4375000000000294
 40
0.4375000000000294
 40
0.4687500000000289
 40
0.4687500000000289
 40
0.5000000000000283
 40
0.5000000000000283
 40
0.5312500000000279
 40
0.5312500000000279
 40
0.5625000000000272
 40
0.5625000000000272
 40
0.6250000000000262
 40
0.6250000000000262
 40
0.750000000000024
 40
0.750000000000024
 40
1.0
 40
1.0
 40
1.0
 40
1.0
 10
192.0268170979388
 20
474.0480957235478
 30
0.0
 10
191.8485228892423
 20
474.0480957235478
 30
0.0
 10
191.6702007144408
 20
474.0481011794485
 30
0.0
 10
191.4036077406893
 20
474.0479356771357
 30
0.0
 10
191.3149713971389
 20
474.0478516192202
 30
0.0
 10
191.1847901634089
 20
474.047641104902
 30
0.0
 10
191.1415874286795
 20
474.0475565401409
 30
0.0
 10
191.0786974025124
 20
474.0473944748658
 30
0.0
 10
191.0580688246331
 20
474.0473347509835
 30
0.0
 10
191.0179816867984
 20
474.0471953740035
 30
0.0
 10
190.9971368426829
 20
474.0471250747834
 30
0.0
 10
190.967191481408
 20
474.0468896153776
 30
0.0
 10
190.9569669461604
 20
474.0467481695292
 30
0.0
 10
190.9375518844678
 20
474.0464674835797
 30
0.0
 10
190.9291758936991
 20
474.0463238639807
 30
0.0
 10
190.9064211112798
 20
474.0458871652903
 30
0.0
 10
190.8944300391749
 20
474.0455877925138
 30
0.0
 10
190.8642641597548
 20
474.0446780032332
 30
0.0
 10
190.8522521975503
 20
474.0440672837909
 30
0.0
 10
190.8279655038706
 20
474.04222904204
 30
0.0
 10
190.8277585898269
 20
474.0409952713319
 30
0.0
 10
190.8268335472419
 20
474.0397618724518
 30
0.0
  0
ARC
  5
DC
330
1F
100
AcDbEntity
  8
0
  6
Continuous
 62
     8
370
    18
100
AcDbCircle
 10
190.8269005994
 20
475.5398042486
 30
0.0
 40
1.500046677014816
100
AcDbArc
 50
180.0030896203
 51
269.9974439979
  0
LINE
  5
DD
330
1F
100
AcDbEntity
  8
0
  6
Continuous
 62
     8
370
    18
100
AcDbLine
 10
220.354980291
 20
475.53972336
 30
0.0
 11
220.354980291
 21
477.1584961051
 31
0.0
  0
SPLINE
  5
DE
330
1F
100
AcDbEntity
  8
0
  6
Continuous
 62
     8
370
    18
100
AcDbSpline
210
0.0
220
0.0
230
1.0
 70
    24
 71
     3
 72
    32
 73
    28
 74
     0
 42
0.000000001
 43
0.00000001
 40
0.0
 40
0.0
 40
0.0
 40
0.0
 40
0.2500000000000294
 40
0.2500000000000294
 40
0.3750000000000536
 40
0.3750000000000536
 40
0.4375000000000562
 40
0.4375000000000562
 40
0.4687500000000661
 40
0.4687500000000661
 40
0.4843750000000637
 40
0.4843750000000637
 40
0.492187500000062
 40
0.492187500000062
 40
0.5000000000000603
 40
0.5000000000000603
 40
0.515625000000058
 40
0.515625000000058
 40
0.5312500000000555
 40
0.5312500000000555
 40
0.5625000000000528
 40
0.5625000000000528
 40
0.6250000000000453
 40
0.6250000000000453
 40
0.7500000000000302
 40
0.7500000000000302
 40
1.0
 40
1.0
 40
1.0
 40
1.0
 10
218.9050005326403
 20
478.657661195474
 30
0.0
 10
218.9040670018333
 20
478.657661195474
 30
0.0
 10
218.9040013252247
 20
478.657661195474
 30
0.0
 10
218.8784412519411
 20
478.657661195474
 30
0.0
 10
218.8657082463836
 20
478.657661195474
 30
0.0
 10
218.8337551125893
 20
478.657661195474
 30
0.0
 10
218.8209417313784
 20
478.657661195474
 30
0.0
 10
218.7959196209168
 20
478.6576611954741
 30
0.0
 10
218.7866678000929
 20
478.657661195474
 30
0.0
 10
218.7699000800157
 20
478.657661195474
 30
0.0
 10
218.763847237124
 20
478.657661195474
 30
0.0
 10
218.7531957108689
 20
478.657661195474
 30
0.0
 10
218.7494192792365
 20
478.657661195474
 30
0.0
 10
218.7402905019576
 20
478.657661195474
 30
0.0
 10
218.7335655483949
 20
478.657661195474
 30
0.0
 10
218.7128277773974
 20
478.657661195474
 30
0.0
 10
218.7023878491682
 20
478.657661195474
 30
0.0
 10
218.6799489632676
 20
478.657661195474
 30
0.0
 10
218.6688175810025
 20
478.657661195474
 30
0.0
 10
218.6356075156952
 20
478.657661195474
 30
0.0
 10
218.6135741792295
 20
478.6576611954741
 30
0.0
 10
218.5471383505958
 20
478.6576611954741
 30
0.0
 10
218.5024226602013
 20
478.657661195474
 30
0.0
 10
218.3673181481496
 20
478.657661195474
 30
0.0
 10
218.2777617265572
 20
478.657661195474
 30
0.0
 10
218.0095735751042
 20
478.6576611954741
 30
0.0
 10
217.831690696615
 20
478.657661195474
 30
0.0
 10
217.655017667331
 20
478.657661195474
 30
0.0
  0
ARC
  5
DF
330
1F
100
AcDbEntity
  8
0
  6
Continuous
 62
     8
370
    18
100
AcDbCircle
 10
218.8549921726
 20
477.1585029586
 30
0.0
 40
1.499988118378547
100
AcDbArc
 50
359.9997382147
 51
88.0894553684
  0
ARC
  5
E0
330
1F
100
AcDbEntity
  8
0
  6
Continuous
 62
     8
370
    18
100
AcDbCircle
 10
190.8268435422
 20
477.1585014774
 30
0.0
 40
1.499989617645141
100
AcDbArc
 50
91.91056442760001
 51
180.0002052087
  0
SPLINE
  5
E1
330
1F
100
AcDbEntity
  8
0
  6
Continuous
 62
     8
370
    18
100
AcDbSpline
210
0.0
220
0.0
230
1.0
 70
    24
 71
     3
 72
    32
 73
    28
 74
     0
 42
0.000000001
 43
0.00000001
 40
0.0
 40
0.0
 40
0.0
 40
0.0
 40
0.2499999999999958
 40
0.2499999999999958
 40
0.3749999999999937
 40
0.3749999999999937
 40
0.4374999999999915
 40
0.4374999999999915
 40
0.4687499999999862
 40
0.4687499999999862
 40
0.4843749999999835
 40
0.4843749999999835
 40
0.4999999999999808
 40
0.4999999999999808
 40
0.507812499999979
 40
0.507812499999979
 40
0.5156249999999771
 40
0.5156249999999771
 40
0.531249999999986
 40
0.531249999999986
 40
0.5624999999999893
 40
0.5624999999999893
 40
0.6249999999999958
 40
0.6249999999999958
 40
0.7499999999999909
 40
0.7499999999999909
 40
1.0
 40
1.0
 40
1.0
 40
1.0
 10
192.0268170979388
 20
478.657661195474
 30
0.0
 10
191.8501440686546
 20
478.657661195474
 30
0.0
 10
191.6722611901654
 20
478.657661195474
 30
0.0
 10
191.4040730387124
 20
478.657661195474
 30
0.0
 10
191.31451661712
 20
478.6576611954741
 30
0.0
 10
191.1794121050682
 20
478.657661195474
 30
0.0
 10
191.1346964146737
 20
478.657661195474
 30
0.0
 10
191.06826058604
 20
478.657661195474
 30
0.0
 10
191.0462272495742
 20
478.657661195474
 30
0.0
 10
191.0130171842669
 20
478.6576611954741
 30
0.0
 10
191.0018858020019
 20
478.657661195474
 30
0.0
 10
190.9794469161013
 20
478.6576611954741
 30
0.0
 10
190.9690069878721
 20
478.657661195474
 30
0.0
 10
190.9482692168743
 20
478.657661195474
 30
0.0
 10
190.9415442633119
 20
478.657661195474
 30
0.0
 10
190.932415486033
 20
478.657661195474
 30
0.0
 10
190.9286390544007
 20
478.657661195474
 30
0.0
 10
190.9179875281457
 20
478.657661195474
 30
0.0
 10
190.911934685254
 20
478.657661195474
 30
0.0
 10
190.8951669651767
 20
478.6576611954741
 30
0.0
 10
190.8859151443529
 20
478.657661195474
 30
0.0
 10
190.8608930338913
 20
478.6576611954741
 30
0.0
 10
190.8480796526805
 20
478.657661195474
 30
0.0
 10
190.8161265188862
 20
478.6576611954741
 30
0.0
 10
190.8033935133287
 20
478.657661195474
 30
0.0
 10
190.7778334400451
 20
478.657661195474
 30
0.0
 10
190.7777677634365
 20
478.657661195474
 30
0.0
 10
190.7768342326295
 20
478.657661195474
 30
0.0
  0
LINE
  5
E2
330
1F
100
AcDbEntity
  8
0
  6
Continuous
 62
     8
370
    18
100
AcDbLine
 10
204.8409173843
 20
478.6576572293
 30
0.0
 11
192.0268167417
 21
478.6576572293
 31
0.0
  0
LINE
  5
E3
330
1F
100
AcDbEntity
  8
0
  6
Continuous
 62
     8
370
    18
100
AcDbLine
 10
204.8409173843
 20
474.0481022233
 30
0.0
 11
192.0268167417
 21
474.0481022233
 31
0.0
  0
LINE
  5
E4
330
1F
100
AcDbEntity
  8
0
  6
Continuous
 62
     8
370
    18
100
AcDbLine
 10
217.6550174739
 20
478.6576572293
 30
0.0
 11
204.8409173843
 21
478.6576572293
 31
0.0
  0
LINE
  5
E5
330
1F
100
AcDbEntity
  8
0
  6
Continuous
 62
     8
370
    18
100
AcDbLine
 10
204.8409173843
 20
474.0481022233
 30
0.0
 11
217.6550174739
 21
474.0481022233
 31
0.0
  0
LINE
  5
E6
330
1F
100
AcDbEntity
  8
0
  6
Continuous
 62
     8
370
    18
100
AcDbLine
 10
190.7768346976
 20
478.6576572293
 30
0.0
 11
190.5647511269
 21
478.6576572293
 31
0.0
  0
SPLINE
  5
E7
330
1F
100
AcDbEntity
  8
0
  6
Continuous
 62
     8
370
    18
100
AcDbSpline
210
0.0
220
0.0
230
1.0
 70
    24
 71
     3
 72
     8
 73
     4
 74
     0
 42
0.000000001
 43
0.00000001
 40
0.0
 40
0.0
 40
0.0
 40
0.0
 40
1.0
 40
1.0
 40
1.0
 40
1.0
 10
190.5647515716978
 20
478.657661195474
 30
0.0
 10
190.555466396636
 20
478.657661195474
 30
0.0
 10
190.5463274433293
 20
478.657661195474
 30
0.0
 10
190.5055274292615
 20
478.657661195474
 30
0.0
  0
SPLINE
  5
E8
330
1F
100
AcDbEntity
  8
0
  6
Continuous
 62
     8
370
    18
100
AcDbSpline
210
0.0
220
0.0
230
1.0
 70
    24
 71
     3
 72
     8
 73
     4
 74
     0
 42
0.000000001
 43
0.00000001
 40
0.0
 40
0.0
 40
0.0
 40
0.0
 40
1.0
 40
1.0
 40
1.0
 40
1.0
 10
219.1763073360083
 20
478.657661195474
 30
0.0
 10
219.1355073219405
 20
478.657661195474
 30
0.0
 10
219.1263683686338
 20
478.657661195474
 30
0.0
 10
219.1170831935721
 20
478.657661195474
 30
0.0
  0
LINE
  5
E9
330
1F
100
AcDbEntity
  8
0
  6
Continuous
 62
     8
370
    18
100
AcDbLine
 10
219.1170830886
 20
478.6576572293
 30
0.0
 11
218.9050004493
 21
478.6576572293
 31
0.0
  0
SPLINE
  5
EA
330
1F
100
AcDbEntity
  8
0
  6
Continuous
 62
     8
370
    18
100
AcDbSpline
210
0.0
220
0.0
230
1.0
 70
     8
 71
     3
 72
    18
 73
    14
 74
     0
 42
0.000000001
 43
0.00000001
 40
0.2319849655710075
 40
0.2319849655710075
 40
0.2319849655710075
 40
0.2319849655710075
 40
0.25
 40
0.25
 40
0.5
 40
0.5
 40
0.625
 40
0.75
 40
0.75
 40
0.828125
 40
0.90625
 40
0.96484375
 40
1.0
 40
1.0
 40
1.0
 40
1.0
 10
201.4125075914198
 20
473.7482542994601
 30
0.0
 10
201.3246685902785
 20
473.7481576509971
 30
0.0
 10
201.2368767358333
 20
473.7480588456518
 30
0.0
 10
199.9313919779652
 20
473.7465604877758
 30
0.0
 10
198.7227377983986
 20
473.7447092089909
 30
0.0
 10
196.9241340584584
 20
473.7413922329792
 30
0.0
 10
195.7349865584656
 20
473.7390134030987
 30
0.0
 10
194.56591857454
 20
473.7362955603176
 30
0.0
 10
193.6243040956815
 20
473.7339479690146
 30
0.0
 10
192.9039531783294
 20
473.7320751372217
 30
0.0
 10
191.9244617159255
 20
473.7293144259177
 30
0.0
 10
191.1486177829024
 20
473.7269750224823
 30
0.0
 10
190.7283441685204
 20
473.7256497859148
 30
0.0
 10
190.5711526560133
 20
473.7251458815072
 30
0.0
  0
SPLINE
  5
EB
330
1F
100
AcDbEntity
  8
0
  6
Continuous
 62
     8
370
    18
100
AcDbSpline
210
0.0
220
0.0
230
1.0
 70
     8
 71
     3
 72
     8
 73
     4
 74
     0
 42
0.000000001
 43
0.00000001
 40
0.0
 40
0.0
 40
0.0
 40
0.0
 40
1.0
 40
1.0
 40
1.0
 40
1.0
 10
190.6147508863102
 20
473.7569829812621
 30
0.0
 10
190.6067908137394
 20
473.74636947569
 30
0.0
 10
190.5989442818268
 20
473.7357559504422
 30
0.0
 10
190.5711526560133
 20
473.7251458815072
 30
0.0
  0
LINE
  5
EC
330
1F
100
AcDbEntity
  8
0
  6
Continuous
 62
     8
370
    18
100
AcDbLine
 10
190.8268336813
 20
474.039757573
 30
0.0
 11
190.614751042
 21
473.7569782371
 31
0.0
  0
LINE
  5
ED
330
1F
100
AcDbEntity
  8
0
  6
Continuous
 62
     8
370
    18
100
AcDbLine
 10
204.8409173843
 20
474.0481022233
 30
0.0
 11
204.8409173843
 21
473.7703892821
 31
0.0
  0
LINE
  5
EE
330
1F
100
AcDbEntity
  8
0
  6
Continuous
 62
     8
370
    18
100
AcDbLine
 10
201.4125187091
 20
473.7703892821
 30
0.0
 11
204.8409173843
 21
473.7703892821
 31
0.0
  0
LINE
  5
EF
330
1F
100
AcDbEntity
  8
0
  6
Continuous
 62
     8
370
    18
100
AcDbLine
 10
201.4125187091
 20
473.7482461566
 30
0.0
 11
201.4125187091
 21
473.7703892821
 31
0.0
  0
LINE
  5
F0
330
1F
100
AcDbEntity
  8
0
  6
Continuous
 62
     8
370
    18
100
AcDbLine
 10
218.8550014655
 20
474.039757573
 30
0.0
 11
219.0670841049
 21
473.7569782371
 31
0.0
  0
SPLINE
  5
F1
330
1F
100
AcDbEntity
  8
0
  6
Continuous
 62
     8
370
    18
100
AcDbSpline
210
0.0
220
0.0
230
1.0
 70
     8
 71
     3
 72
     8
 73
     4
 74
     0
 42
0.000000001
 43
0.00000001
 40
0.0
 40
0.0
 40
0.0
 40
0.0
 40
1.0
 40
1.0
 40
1.0
 40
1.0
 10
219.0670838789597
 20
473.7569829812621
 30
0.0
 10
219.0750439515305
 20
473.74636947569
 30
0.0
 10
219.082890483443
 20
473.7357559504422
 30
0.0
 10
219.1106821092565
 20
473.7251458815072
 30
0.0
  0
SPLINE
  5
F2
330
1F
100
AcDbEntity
  8
0
  6
Continuous
 62
     8
370
    18
100
AcDbSpline
210
0.0
220
0.0
230
1.0
 70
     8
 71
     3
 72
    16
 73
    12
 74
     0
 42
0.000000001
 43
0.00000001
 40
0.0
 40
0.0
 40
0.0
 40
0.0
 40
0.0234650655227886
 40
0.1834178786153162
 40
0.3497825331665531
 40
0.4593772922484073
 40
0.5683638223028267
 40
0.6768298498384482
 40
0.7848643693513133
 40
0.8925574451006636
 40
0.9999999999999999
 40
0.9999999999999999
 40
0.9999999999999999
 40
0.9999999999999999
 10
208.2693051419866
 20
473.7482533203778
 30
0.0
 10
208.3571253240978
 20
473.7481557631761
 30
0.0
 10
209.0435837312482
 20
473.7473931940297
 30
0.0
 10
210.3459735290564
 20
473.7456456187536
 30
0.0
 10
211.9524403920754
 20
473.7429415671875
 30
0.0
 10
213.3576926193576
 20
473.7402023999736
 30
0.0
 10
214.5417510257233
 20
473.7376417478574
 30
0.0
 10
215.7093339628161
 20
473.7348605767981
 30
0.0
 10
216.8600929507188
 20
473.7318536950925
 30
0.0
 10
217.9953854590608
 20
473.7286417643253
 30
0.0
 10
218.7392052799597
 20
473.7263102707884
 30
0.0
 10
219.1106821092565
 20
473.7251458815072
 30
0.0
  0
LINE
  5
F3
330
1F
100
AcDbEntity
  8
0
  6
Continuous
 62
     8
370
    18
100
AcDbLine
 10
208.2693162049
 20
473.7703892821
 30
0.0
 11
208.2693162049
 21
473.7482461566
 31
0.0
  0
LINE
  5
F4
330
1F
100
AcDbEntity
  8
0
  6
Continuous
 62
     8
370
    18
100
AcDbLine
 10
204.8409173843
 20
473.7703892821
 30
0.0
 11
208.2693162049
 21
473.7703892821
 31
0.0
  0
LINE
  5
F5
330
1F
100
AcDbEntity
  8
0
  6
Continuous
 62
     8
370
    18
100
AcDbLine
 10
220.5670638616
 20
477.1584961051
 30
0.0
 11
220.354980291
 21
477.1584961051
 31
0.0
  0
ARC
  5
F6
330
1F
100
AcDbEntity
  8
0
  6
Continuous
 62
     8
370
    18
100
AcDbCircle
 10
219.0670738093
 20
477.158501057
 30
0.0
 40
1.499990052349098
100
AcDbArc
 50
359.9998108513
 51
88.0894195125
  0
LINE
  5
F7
330
1F
100
AcDbEntity
  8
0
  6
Continuous
 62
     8
370
    18
100
AcDbLine
 10
189.3268539246
 20
477.1584961051
 30
0.0
 11
189.1147712852
 21
477.1584961051
 31
0.0
  0
ARC
  5
F8
330
1F
100
AcDbEntity
  8
0
  6
Continuous
 62
     8
370
    18
100
AcDbCircle
 10
190.6147609673
 20
477.1585014461
 30
0.0
 40
1.499989682126003
100
AcDbArc
 50
91.91060240369998
 51
180.0002040131
  0
LINE
  5
F9
330
1F
100
AcDbEntity
  8
0
  6
Continuous
 62
     8
370
    18
100
AcDbLine
 10
189.1147712852
 20
475.256944024
 30
0.0
 11
189.3268539246
 21
475.53972336
 31
0.0
  0
ARC
  5
FA
330
1F
100
AcDbEntity
  8
0
  6
Continuous
 62
     8
370
    18
100
AcDbCircle
 10
190.61481796
 20
475.2570249126
 30
0.0
 40
1.500046677014816
100
AcDbArc
 50
180.0030896203
 51
269.9974439979
  0
LINE
  5
FB
330
1F
100
AcDbEntity
  8
0
  6
Continuous
 62
     8
370
    18
100
AcDbLine
 10
220.5670638616
 20
475.256944024
 30
0.0
 11
220.354980291
 21
475.53972336
 31
0.0
  0
ARC
  5
FC
330
1F
100
AcDbEntity
  8
0
  6
Continuous
 62
     8
370
    18
100
AcDbCircle
 10
219.0670171868
 20
475.2570249126
 30
0.0
 40
1.500046677014816
100
AcDbArc
 50
270.0025560021
 51
359.9969103797
  0
LINE
  5
FD
330
1F
100
AcDbEntity
  8
0
  6
Continuous
 62
     8
370
    18
100
AcDbLine
 10
189.1147712852
 20
477.1584961051
 30
0.0
 11
189.1147712852
 21
475.256944024
 31
0.0
  0
LINE
  5
FE
330
1F
100
AcDbEntity
  8
0
  6
Continuous
 62
     8
370
    18
100
AcDbLine
 10
220.5670638616
 20
477.1584961051
 30
0.0
 11
220.5670638616
 21
475.256944024
 31
0.0
  0
LINE
  5
FF
330
1F
100
AcDbEntity
  8
0
  6
Continuous
 62
     8
370
    18
100
AcDbLine
 10
184.5333310451
 20
428.9300087327
 30
0.0
 11
184.5325263824
 21
428.9280343288
 31
0.0
  0
SPLINE
  5
100
330
1F
100
AcDbEntity
  8
0
  6
Continuous
 62
     8
370
    18
100
AcDbSpline
210
0.0
220
0.0
230
1.0
 70
     8
 71
     3
 72
    23
 73
    19
 74
     0
 42
0.000000001
 43
0.00000001
 40
0.0
 40
0.0
 40
0.0
 40
0.0
 40
0.0168482309211747
 40
0.0340496624727457
 40
0.0516121318625893
 40
0.06954438798356
 40
0.0878560551755543
 40
0.106557584650425
 40
0.1256601939163539
 40
0.185570759999073
 40
0.2511827780258808
 40
0.3650764398084761
 40
0.4995438852812236
 40
0.6226884214231135
 40
0.7496750981496869
 40
0.8378801940820331
 40
0.921434342019754
 40
0.9999999999999999
 40
0.9999999999999999
 40
0.9999999999999999
 40
0.9999999999999999
 10
198.7443188524891
 20
412.5991962020765
 30
0.0
 10
198.6256092718138
 20
412.6458333262304
 30
0.0
 10
198.3857015228528
 20
412.7400852594791
 30
0.0
 10
198.0277881532291
 20
412.8937668002116
 30
0.0
 10
197.666956085846
 20
413.0587367168106
 30
0.0
 10
197.3038878647529
 20
413.2362088432189
 30
0.0
 10
196.9387441542356
 20
413.4263680817831
 30
0.0
 10
196.5718158269168
 20
413.6296756154971
 30
0.0
 10
195.9437119475026
 20
413.9992733975139
 30
0.0
 10
195.0475803655336
 20
414.593041203641
 30
0.0
 10
193.653247788249
 20
415.683095658491
 30
0.0
 10
191.983940138245
 20
417.2834657416495
 30
0.0
 10
190.2353559367721
 20
419.3767911655967
 30
0.0
 10
188.6126738419183
 20
421.6824173540239
 30
0.0
 10
187.303319109601
 20
423.7864105124492
 30
0.0
 10
186.2077680812143
 20
425.6763315319898
 30
0.0
 10
185.3177290889051
 20
427.2715402524147
 30
0.0
 10
184.7534455980334
 20
428.3054968860437
 30
0.0
 10
184.4799854646666
 20
428.8065675774631
 30
0.0
  0
LINE
  5
101
330
1F
100
AcDbEntity
  8
0
  6
Continuous
 62
     8
370
    18
100
AcDbLine
 10
225.2964521434
 20
428.9300087327
 30
0.0
 11
225.2972568061
 21
428.9280343288
 31
0.0
  0
SPLINE
  5
102
330
1F
100
AcDbEntity
  8
0
  6
Continuous
 62
     8
370
    18
100
AcDbSpline
210
0.0
220
0.0
230
1.0
 70
     8
 71
     3
 72
    19
 73
    15
 74
     0
 42
0.000000001
 43
0.00000001
 40
0.0
 40
0.0
 40
0.0
 40
0.0
 40
0.0367586381066373
 40
0.0367586381066373
 40
0.1617586381066373
 40
0.1617586381066373
 40
0.2867586381066373
 40
0.2867586381066373
 40
0.4117586381066373
 40
0.4117586381066373
 40
0.5367586381066373
 40
0.5367586381066373
 40
0.6617586381066373
 40
0.7867586381066373
 40
0.7867586381066373
 40
0.7867586381066373
 40
0.7867586381066373
 10
211.0852120346822
 20
412.5998420430486
 30
0.0
 10
211.4181120074394
 20
412.7276240398373
 30
0.0
 10
211.7448918423077
 20
412.8659940422805
 30
0.0
 10
213.149546468774
 20
413.518815999809
 30
0.0
 10
214.1764430782339
 20
414.1504873462555
 30
0.0
 10
216.054780792568
 20
415.574106133051
 30
0.0
 10
216.9073881857807
 20
416.3612199801715
 30
0.0
 10
218.4939248535675
 20
418.0437386945326
 30
0.0
 10
219.2299209147476
 20
418.941130898803
 30
0.0
 10
220.6150926415926
 20
420.8085071599737
 30
0.0
 10
221.2642683072573
 20
421.7784912168739
 30
0.0
 10
222.5035233929826
 20
423.7513773417552
 30
0.0
 10
223.6839421911297
 20
425.7580705817796
 30
0.0
 10
224.7972655850841
 20
427.7924441684129
 30
0.0
 10
225.349797723754
 20
428.8065675774632
 30
0.0
  0
SPLINE
  5
103
330
1F
100
AcDbEntity
  8
0
  6
Continuous
 62
     8
370
    18
100
AcDbSpline
210
0.0
220
0.0
230
1.0
 70
     8
 71
     3
 72
    20
 73
    16
 74
     0
 42
0.000000001
 43
0.00000001
 40
0.0
 40
0.0
 40
0.0
 40
0.0
 40
0.0607743861592055
 40
0.1217697982793594
 40
0.1829977365615299
 40
0.2444722822789429
 40
0.3062101747293302
 40
0.3682308697210039
 40
0.4305565777747902
 40
0.4932122803367607
 40
0.5890251138071491
 40
0.6875416657536239
 40
0.7888168211934471
 40
0.8929328298409778
 40
1.0
 40
1.0
 40
1.0
 40
1.0
 10
204.9148915910972
 20
411.5061311241474
 30
0.0
 10
204.7859602231871
 20
411.5068354606588
 30
0.0
 10
204.5276285862182
 20
411.508246695232
 30
0.0
 10
204.139645851772
 20
411.5198953599915
 30
0.0
 10
203.7506782570709
 20
411.5388664231377
 30
0.0
 10
203.36090794506
 20
411.5661059537542
 30
0.0
 10
202.9705149755622
 20
411.6017046198999
 30
0.0
 10
202.5796765055888
 20
411.6459786208779
 30
0.0
 10
202.1885682116603
 20
411.6991794126358
 30
0.0
 10
201.7291035877454
 20
411.7724500348436
 30
0.0
 10
201.1983030516158
 20
411.8733213630243
 30
0.0
 10
200.5944409028729
 20
412.0113497632651
 30
0.0
 10
199.982045360578
 20
412.1771219615212
 30
0.0
 10
199.3613406905135
 20
412.370405768662
 30
0.0
 10
198.9515744149289
 20
412.5223536298386
 30
0.0
 10
198.7438281550166
 20
412.5993892517088
 30
0.0
  0
SPLINE
  5
104
330
1F
100
AcDbEntity
  8
0
  6
Continuous
 62
     8
370
    18
100
AcDbSpline
210
0.0
220
0.0
230
1.0
 70
     8
 71
     3
 72
    20
 73
    16
 74
     0
 42
0.000000001
 43
0.00000001
 40
0.0
 40
0.0
 40
0.0
 40
0.0
 40
0.0652462003943592
 40
0.1308138340173841
 40
0.1989014304382241
 40
0.2499382448027676
 40
0.2753484691722168
 40
0.4009344490551243
 40
0.4759631286564026
 40
0.5008455918992675
 40
0.5998893837223934
 40
0.7486671056570305
 40
0.7733353944696238
 40
0.8856961845782605
 40
1.0
 40
1.0
 40
1.0
 40
1.0
 10
211.0859355664927
 20
412.5994391259118
 30
0.0
 10
210.9595772045756
 20
412.5520864849645
 30
0.0
 10
210.7062379804885
 20
412.4571479218645
 30
0.0
 10
210.3154728520161
 20
412.3245876517499
 30
0.0
 10
209.9488672825046
 20
412.2100375413978
 30
0.0
 10
209.659251518033
 20
412.1270742713842
 30
0.0
 10
209.2521747315876
 20
412.0170064332955
 30
0.0
 10
208.7917246920152
 20
411.9070569175994
 30
0.0
 10
208.3270188882737
 20
411.8150259986992
 30
0.0
 10
207.9149487104113
 20
411.741512380256
 30
0.0
 10
207.3467462684842
 20
411.6537768835846
 30
0.0
 10
206.7735999247997
 20
411.5914848316115
 30
0.0
 10
206.170321068164
 20
411.5441731782832
 30
0.0
 10
205.6382703948698
 20
411.5135007784864
 30
0.0
 10
205.1573919389055
 20
411.5084692550745
 30
0.0
 10
204.9148916061242
 20
411.5059319276342
 30
0.0
  0
SPLINE
  5
105
330
1F
100
AcDbEntity
  8
0
  6
Continuous
 62
     8
370
    18
100
AcDbSpline
210
0.0
220
0.0
230
1.0
 70
     8
 71
     3
 72
    14
 73
    10
 74
     0
 42
0.000000001
 43
0.00000001
 40
0.0
 40
0.0
 40
0.0
 40
0.0
 40
0.0997325606813816
 40
0.1993462644902288
 40
0.2989551163922857
 40
0.3987627798159888
 40
0.5966751271450448
 40
0.8964340288012798
 40
1.0
 40
1.0
 40
1.0
 40
1.0
 10
225.5799961161028
 20
429.7111449395744
 30
0.0
 10
225.5795205752795
 20
429.6790101922217
 30
0.0
 10
225.5785700603615
 20
429.6147789942928
 30
0.0
 10
225.5709739742005
 20
429.518866702329
 30
0.0
 10
225.5589211915789
 20
429.4237457824946
 30
0.0
 10
225.5365073161193
 20
429.2989472514435
 30
0.0
 10
225.4890927743942
 20
429.1160052497744
 30
0.0
 10
225.4208977562272
 20
428.9419271619669
 30
0.0
 10
225.3643099888282
 20
428.8342268395571
 30
0.0
 10
225.3497793524031
 20
428.8065714945994
 30
0.0
  0
SPLINE
  5
106
330
1F
100
AcDbEntity
  8
0
  6
Continuous
 62
     8
370
    18
100
AcDbSpline
210
0.0
220
0.0
230
1.0
 70
     8
 71
     3
 72
    15
 73
    11
 74
     0
 42
0.000000001
 43
0.00000001
 40
0.0
 40
0.0
 40
0.0
 40
0.0
 40
0.1325544880552673
 40
0.2624383806633384
 40
0.3898911308691824
 40
0.5151660532556677
 40
0.6385297972773695
 40
0.7602614890135309
 40
0.8806515224707463
 40
1.0
 40
1.0
 40
1.0
 40
1.0
 10
184.4799854647243
 20
428.8065675773576
 30
0.0
 10
184.4614715341321
 20
428.8420714078349
 30
0.0
 10
184.4248166759253
 20
428.912363767713
 30
0.0
 10
184.3780445930521
 20
429.0228925735728
 30
0.0
 10
184.338177868781
 20
429.1351247030964
 30
0.0
 10
184.3057579592397
 20
429.2490296439241
 30
0.0
 10
184.2805944043957
 20
429.364008118282
 30
0.0
 10
184.2628595393944
 20
429.4796212242052
 30
0.0
 10
184.2518225145616
 20
429.5954021687776
 30
0.0
 10
184.2504628827779
 20
429.6726757730666
 30
0.0
 10
184.2497860203801
 20
429.7111447156956
 30
0.0
  0
LINE
  5
107
330
1F
100
AcDbEntity
  8
0
  6
Continuous
 62
     8
370
    18
100
AcDbLine
 10
204.8409173843
 20
473.7703892821
 30
0.0
 11
204.8409173843
 21
473.7503919238
 31
0.0
  0
SPLINE
  5
108
330
1F
100
AcDbEntity
  8
0
  6
Continuous
 62
     8
370
    18
100
AcDbSpline
210
0.0
220
0.0
230
1.0
 70
     8
 71
     3
 72
    14
 73
    10
 74
     0
 42
0.000000001
 43
0.00000001
 40
0.0
 40
0.0
 40
0.0
 40
0.0
 40
0.1607001481079661
 40
0.3153515457706277
 40
0.4640074347118354
 40
0.6067277666746549
 40
0.7435802942912368
 40
0.8746418706410951
 40
1.0
 40
1.0
 40
1.0
 40
1.0
 10
201.4125295534697
 20
473.7482533203016
 30
0.0
 10
201.5949952123009
 20
473.7484467011902
 30
0.0
 10
201.9530585261182
 20
473.7488261841146
 30
0.0
 10
202.4815838980127
 20
473.7493030250529
 30
0.0
 10
202.9907220044105
 20
473.7496969205636
 30
0.0
 10
203.4805926860901
 20
473.750003401905
 30
0.0
 10
203.9511700178765
 20
473.750221202677
 30
0.0
 10
204.4024636998637
 20
473.7503590485752
 30
0.0
 10
204.6969495342317
 20
473.7503770006244
 30
0.0
 10
204.8409173826349
 20
473.7503857769987
 30
0.0
  0
SPLINE
  5
109
330
1F
100
AcDbEntity
  8
0
  6
Continuous
 62
     8
370
    18
100
AcDbSpline
210
0.0
220
0.0
230
1.0
 70
    24
 71
     3
 72
    10
 73
     6
 74
     0
 42
0.000000001
 43
0.00000001
 40
0.0
 40
0.0
 40
0.0
 40
0.0
 40
0.5
 40
0.5
 40
1.0
 40
1.0
 40
1.0
 40
1.0
 10
189.1147714479389
 20
477.1584947604118
 30
0.0
 10
189.1101555974664
 20
477.1584947604118
 30
0.0
 10
189.1055672941806
 20
477.1584947604118
 30
0.0
 10
189.088650546544
 20
477.1584947604117
 30
0.0
 10
189.0763194249342
 20
477.1584947604117
 30
0.0
 10
189.055911466844
 20
477.1584947604117
 30
0.0
  0
ARC
  5
10A
330
1F
100
AcDbEntity
  8
0
  6
Continuous
 62
     8
370
    18
100
AcDbCircle
 10
190.5557274635
 20
477.1586818071
 30
0.0
 40
1.499815776535946
100
AcDbArc
 50
91.9180952266
 51
180.0070941649
  0
SPLINE
  5
10B
330
1F
100
AcDbEntity
  8
0
  6
Continuous
 62
     8
370
    18
100
AcDbSpline
210
0.0
220
0.0
230
1.0
 70
    24
 71
     3
 72
    10
 73
     6
 74
     0
 42
0.000000001
 43
0.00000001
 40
0.0
 40
0.0
 40
0.0
 40
0.0
 40
0.5
 40
0.5
 40
1.0
 40
1.0
 40
1.0
 40
1.0
 10
220.6259232984258
 20
477.1584947604117
 30
0.0
 10
220.6055153403356
 20
477.1584947604117
 30
0.0
 10
220.5931842187258
 20
477.1584947604116
 30
0.0
 10
220.5762674710892
 20
477.1584947604117
 30
0.0
 10
220.5716791678035
 20
477.1584947604118
 30
0.0
 10
220.5670633173309
 20
477.1584947604118
 30
0.0
  0
ARC
  5
10C
330
1F
100
AcDbEntity
  8
0
  6
Continuous
 62
     8
370
    18
100
AcDbCircle
 10
219.1261076833
 20
477.1586818071
 30
0.0
 40
1.499815776535946
100
AcDbArc
 50
359.9929058350999
 51
88.0819047734
  0
SPLINE
  5
10D
330
1F
100
AcDbEntity
  8
0
  6
Continuous
 62
     8
370
    18
100
AcDbSpline
210
0.0
220
0.0
230
1.0
 70
     8
 71
     3
 72
     8
 73
     4
 74
     0
 42
0.000000001
 43
0.00000001
 40
0.0
 40
0.0
 40
0.0
 40
0.0
 40
1.0
 40
1.0
 40
1.0
 40
1.0
 10
189.0559114668617
 20
475.2198079026089
 30
0.0
 10
189.0965139556554
 20
475.2322465899743
 30
0.0
 10
189.1055320786268
 20
475.2446271806204
 30
0.0
 10
189.1147714479389
 20
475.2569464273205
 30
0.0
  0
LINE
  5
10E
330
1F
100
AcDbEntity
  8
0
  6
Continuous
 62
     8
370
    18
100
AcDbLine
 10
190.5713868003
 20
473.725357973
 30
0.0
 11
190.1747327904
 21
473.8004449243
 31
0.0
  0
SPLINE
  5
10F
330
1F
100
AcDbEntity
  8
0
  6
Continuous
 62
     8
370
    18
100
AcDbSpline
210
0.0
220
0.0
230
1.0
 70
     8
 71
     3
 72
     9
 73
     5
 74
     0
 42
0.000000001
 43
0.00000001
 40
0.0
 40
0.0
 40
0.0
 40
0.0
 40
0.3956891340922287
 40
1.0
 40
1.0
 40
1.0
 40
1.0
 10
189.172235750714
 20
474.6615234250065
 30
0.0
 10
189.143794235317
 20
474.7313488161053
 30
0.0
 10
189.0719158010957
 20
474.9078140891759
 30
0.0
 10
189.0620573779108
 20
475.1023899413539
 30
0.0
 10
189.0560998256594
 20
475.2199742430683
 30
0.0
  0
SPLINE
  5
110
330
1F
100
AcDbEntity
  8
0
  6
Continuous
 62
     8
370
    18
100
AcDbSpline
210
0.0
220
0.0
230
1.0
 70
     8
 71
     3
 72
     8
 73
     4
 74
     0
 42
0.000000001
 43
0.00000001
 40
0.0
 40
0.0
 40
0.0
 40
0.0
 40
1.0
 40
1.0
 40
1.0
 40
1.0
 10
220.6259232984082
 20
475.219807902609
 30
0.0
 10
220.5853208096144
 20
475.2322465899743
 30
0.0
 10
220.576302686643
 20
475.2446271806204
 30
0.0
 10
220.567063317331
 20
475.2569464273205
 30
0.0
  0
LINE
  5
111
330
1F
100
AcDbEntity
  8
0
  6
Continuous
 62
     8
370
    18
100
AcDbLine
 10
219.1104474153
 20
473.725357973
 30
0.0
 11
219.5468893881
 21
473.8079700107
 31
0.0
  0
SPLINE
  5
112
330
1F
100
AcDbEntity
  8
0
  6
Continuous
 62
     8
370
    18
100
AcDbSpline
210
0.0
220
0.0
230
1.0
 70
     8
 71
     3
 72
     9
 73
     5
 74
     0
 42
0.000000001
 43
0.00000001
 40
0.0
 40
0.0
 40
0.0
 40
0.0
 40
0.2768363878131564
 40
1.0
 40
1.0
 40
1.0
 40
1.0
 10
220.5410054560095
 20
474.7497084969517
 30
0.0
 10
220.5570654994253
 20
474.7906974136101
 30
0.0
 10
220.6150782611963
 20
474.9387592958728
 30
0.0
 10
220.6212617699972
 20
475.1019561886151
 30
0.0
 10
220.6257334585578
 20
475.2199742430683
 30
0.0
  0
LINE
  5
113
330
1F
100
AcDbEntity
  8
0
  6
Continuous
 62
     8
370
    18
100
AcDbLine
 10
189.0559116985
 20
477.1584961051
 30
0.0
 11
189.0559116985
 21
475.2198103303
 31
0.0
  0
LINE
  5
114
330
1F
100
AcDbEntity
  8
0
  6
Continuous
 62
     8
370
    18
100
AcDbLine
 10
220.6259234484
 20
477.1584961051
 30
0.0
 11
220.6259234484
 21
475.2198103303
 31
0.0
  0
LINE
  5
115
330
1F
100
AcDbEntity
  8
0
  6
Continuous
 62
     8
370
    18
100
AcDbLine
 10
184.2497861619
 20
440.1514250273
 30
0.0
 11
184.222395965
 21
440.1538688177
 31
0.0
  0
SPLINE
  5
116
330
1F
100
AcDbEntity
  8
0
  6
Continuous
 62
     8
370
    18
100
AcDbSpline
210
0.0
220
0.0
230
1.0
 70
     8
 71
     3
 72
    18
 73
    14
 74
     0
 42
0.000000001
 43
0.00000001
 40
0.152585025674715
 40
0.152585025674715
 40
0.152585025674715
 40
0.152585025674715
 40
0.187741275674715
 40
0.246335025674715
 40
0.324460025674715
 40
0.402585025674715
 40
0.402585025674715
 40
0.527585025674715
 40
0.652585025674715
 40
0.652585025674715
 40
0.902585025674715
 40
0.902585025674715
 40
1.0
 40
1.0
 40
1.0
 40
1.0
 10
186.5926297917402
 20
460.8957255479576
 30
0.0
 10
186.7139532196267
 20
460.7239633989715
 30
0.0
 10
187.0484091555694
 20
460.2736662437351
 30
0.0
 10
187.7138341632941
 20
459.4883138404068
 30
0.0
 10
188.6373366316456
 20
458.5871083612167
 30
0.0
 10
189.381291090483
 20
458.0065816343326
 30
0.0
 10
190.3928898006326
 20
457.3057781424361
 30
0.0
 10
191.7285463840943
 20
456.5398999077269
 30
0.0
 10
193.2818700462274
 20
455.9635834148438
 30
0.0
 10
195.6900649768506
 20
455.265176394255
 30
0.0
 10
197.4406658978006
 20
455.0088223752929
 30
0.0
 10
199.9749487428254
 20
454.8351006136089
 30
0.0
 10
200.691040309854
 20
454.8041624897788
 30
0.0
 10
201.4124515901927
 20
454.7845426970196
 30
0.0
  0
SPLINE
  5
117
330
1F
100
AcDbEntity
  8
0
  6
Continuous
 62
     8
370
    18
100
AcDbSpline
210
0.0
220
0.0
230
1.0
 70
     8
 71
     3
 72
     9
 73
     5
 74
     0
 42
0.000000001
 43
0.00000001
 40
0.0
 40
0.0
 40
0.0
 40
0.0
 40
0.5001358755127627
 40
1.0
 40
1.0
 40
1.0
 40
1.0
 10
201.4132396151088
 20
455.7972932580478
 30
0.0
 10
201.4131147440074
 20
455.6285497335531
 30
0.0
 10
201.4128650696537
 20
455.2911543720992
 30
0.0
 10
201.4126019513397
 20
454.9535761032886
 30
0.0
 10
201.4124704279341
 20
454.7848328375037
 30
0.0
  0
SPLINE
  5
118
330
1F
100
AcDbEntity
  8
0
  6
Continuous
 62
     8
370
    18
100
AcDbSpline
210
0.0
220
0.0
230
1.0
 70
     8
 71
     3
 72
    28
 73
    24
 74
     0
 42
0.000000001
 43
0.00000001
 40
0.0
 40
0.0
 40
0.0
 40
0.0
 40
0.0248045609836367
 40
0.0495407406591149
 40
0.0742173487368433
 40
0.0988432588530889
 40
0.1234273995343589
 40
0.147978744869607
 40
0.1725063049368086
 40
0.1970191160335534
 40
0.2215262307637459
 40
0.2460367080343342
 40
0.2705596030171641
 40
0.2951039571314893
 40
0.4418179193111268
 40
0.5897014827273602
 40
0.6622720668821653
 40
0.7367566900170409
 40
0.8086619410785489
 40
0.8849704799736899
 40
0.9207127852426639
 40
0.9590537353996609
 40
1.0
 40
1.0
 40
1.0
 40
1.0
 10
223.0892049735296
 20
460.8957255479575
 30
0.0
 10
223.0157303710205
 20
460.7934308705067
 30
0.0
 10
222.8689837210662
 20
460.5891235219616
 30
0.0
 10
222.6389965939381
 20
460.2916744050643
 30
0.0
 10
222.4020514740344
 20
460.0014244974853
 30
0.0
 10
222.1573169300246
 20
459.718980299384
 30
0.0
 10
221.9048767011667
 20
459.4441800539504
 30
0.0
 10
221.6445752805875
 20
459.177067155866
 30
0.0
 10
221.3763264546012
 20
458.9176302021406
 30
0.0
 10
221.1000318454455
 20
458.6658723142021
 30
0.0
 10
220.8156007934031
 20
458.4217931353805
 30
0.0
 10
220.5229539680746
 20
458.1853916537158
 30
0.0
 10
220.2219909501592
 20
457.9566728826812
 30
0.0
 10
219.3997739584846
 20
457.368988016849
 30
0.0
 10
217.9343650684002
 20
456.5318584064938
 30
0.0
 10
216.0251744085905
 20
455.8245642102881
 30
0.0
 10
214.3835440737159
 20
455.4089174141782
 30
0.0
 10
213.1178299395016
 20
455.1705869851102
 30
0.0
 10
211.7912560376053
 20
454.9949928200631
 30
0.0
 10
210.6691282949244
 20
454.8968512834245
 30
0.0
 10
209.7396519780064
 20
454.841513580701
 30
0.0
 10
209.0236506857906
 20
454.8090035999149
 30
0.0
 10
208.52616591597
 20
454.7941851785977
 30
0.0
 10
208.2692500552974
 20
454.7865325072045
 30
0.0
  0
SPLINE
  5
119
330
1F
100
AcDbEntity
  8
0
  6
Continuous
 62
     8
370
    18
100
AcDbSpline
210
0.0
220
0.0
230
1.0
 70
     8
 71
     3
 72
     9
 73
     5
 74
     0
 42
0.000000001
 43
0.00000001
 40
0.0
 40
0.0
 40
0.0
 40
0.0
 40
0.5034562130573916
 40
1.0
 40
1.0
 40
1.0
 40
1.0
 10
208.2693160665874
 20
454.7848319512707
 30
0.0
 10
208.269315347339
 20
454.954781128368
 30
0.0
 10
208.2693139187173
 20
455.2923460897086
 30
0.0
 10
208.2693132301699
 20
455.6297512013986
 30
0.0
 10
208.2693128882759
 20
455.7972876132908
 30
0.0
  0
SPLINE
  5
11A
330
1F
100
AcDbEntity
  8
0
  6
Continuous
 62
     8
370
    18
100
AcDbSpline
210
0.0
220
0.0
230
1.0
 70
     8
 71
     3
 72
    27
 73
    23
 74
     0
 42
0.000000001
 43
0.00000001
 40
0.0
 40
0.0
 40
0.0
 40
0.0
 40
0.0219455837290723
 40
0.0439892309449841
 40
0.0661475767282544
 40
0.0884369993484784
 40
0.1108735900171564
 40
0.1334731255779072
 40
0.156251044276148
 40
0.1792224246869327
 40
0.2024019678195695
 40
0.2258039823628108
 40
0.2494423729858012
 40
0.3721853890970904
 40
0.4999743319541843
 40
0.6236810053121757
 40
0.7504101308475548
 40
0.8001156962744028
 40
0.8498715951460735
 40
0.8997338956243037
 40
0.9497583073645147
 40
1.0
 40
1.0
 40
1.0
 40
1.0
 10
226.5827720885317
 20
475.0070923590701
 30
0.0
 10
226.5824567857061
 20
474.8870394753691
 30
0.0
 10
226.5818247711291
 20
474.6463972535934
 30
0.0
 10
226.5767294674918
 20
474.2848165164676
 30
0.0
 10
226.5685823545211
 20
473.921906143429
 30
0.0
 10
226.5570515939382
 20
473.5576667146681
 30
0.0
 10
226.5421754720206
 20
473.1920986568829
 30
0.0
 10
226.5238766806423
 20
472.8252023167576
 30
0.0
 10
226.5020936553807
 20
472.4569781645394
 30
0.0
 10
226.4767450358801
 20
472.087425885367
 30
0.0
 10
226.4477396409581
 20
471.7165478512856
 30
0.0
 10
226.414972823402
 20
471.3443359810836
 30
0.0
 10
226.3272636741231
 20
470.4502466078215
 30
0.0
 10
226.142920991363
 20
469.036192273083
 30
0.0
 10
225.7853569808234
 20
467.1978991836178
 30
0.0
 10
225.309977399014
 20
465.4398781613039
 30
0.0
 10
224.8334783421411
 20
464.1306503454118
 30
0.0
 10
224.4183201985202
 20
463.1918719648492
 30
0.0
 10
224.1226753984021
 20
462.5902091303053
 30
0.0
 10
223.8035135858895
 20
462.0065763519254
 30
0.0
 10
223.4618997406862
 20
461.4391112194852
 30
0.0
 10
223.2136159097746
 20
461.0771155917529
 30
0.0
 10
223.0892049735296
 20
460.8957255479575
 30
0.0
  0
SPLINE
  5
11B
330
1F
100
AcDbEntity
  8
0
  6
Continuous
 62
     8
370
    18
100
AcDbSpline
210
0.0
220
0.0
230
1.0
 70
     8
 71
     3
 72
    36
 73
    32
 74
     0
 42
0.000000001
 43
0.00000001
 40
0.0
 40
0.0
 40
0.0
 40
0.0
 40
0.0270737313737441
 40
0.0542941865708294
 40
0.0904418983846792
 40
0.1282706103072854
 40
0.1528685707974551
 40
0.2270828256671789
 40
0.2518157257108629
 40
0.2767226940414581
 40
0.351096203479835
 40
0.3760215816644326
 40
0.4011405685726608
 40
0.4750014142484237
 40
0.500011590409987
 40
0.5125975388532384
 40
0.5506555331348992
 40
0.6021115681264048
 40
0.6145915466996115
 40
0.6396955680595188
 40
0.7032648633211462
 40
0.7283941401958756
 40
0.7536865235937926
 40
0.8047324176314431
 40
0.8298596917987039
 40
0.8677621527976008
 40
0.9058880023927852
 40
0.9293643279378763
 40
0.952885242174566
 40
0.9764361430189988
 40
1.0
 40
1.0
 40
1.0
 40
1.0
 10
186.5926584937201
 20
460.8957514744485
 30
0.0
 10
186.525026618847
 20
460.9930236017211
 30
0.0
 10
186.3893963438101
 20
461.1880950144265
 30
0.0
 10
186.1735220590407
 20
461.5215167451414
 30
0.0
 10
185.9411073317022
 20
461.9023693011395
 30
0.0
 10
185.7263812494497
 20
462.2831772797049
 30
0.0
 10
185.4415739751996
 20
462.8217180912238
 30
0.0
 10
185.2022339878825
 20
463.3241684163322
 30
0.0
 10
184.9800304116104
 20
463.8426267477071
 30
0.0
 10
184.7662231598209
 20
464.3690918139294
 30
0.0
 10
184.5692641447729
 20
464.9111662902345
 30
0.0
 10
184.3884803292743
 20
465.4681712477483
 30
0.0
 10
184.2165359813513
 20
466.029858252506
 30
0.0
 10
184.0602541632136
 20
466.6058434368574
 30
0.0
 10
183.9333597473314
 20
467.1353085261356
 30
0.0
 10
183.8506539991882
 20
467.4976977378154
 30
0.0
 10
183.7452278445829
 20
467.9921984066756
 30
0.0
 10
183.6506280165274
 20
468.4956013292985
 30
0.0
 10
183.5745295238356
 20
468.9405652715395
 30
0.0
 10
183.4923765747675
 20
469.4497231011857
 30
0.0
 10
183.4111816167282
 20
470.032198167143
 30
0.0
 10
183.3408960823818
 20
470.624163099153
 30
0.0
 10
183.2838505816562
 20
471.1552691837987
 30
0.0
 10
183.2350718286988
 20
471.6924475937561
 30
0.0
 10
183.1895238375956
 20
472.3020637967089
 30
0.0
 10
183.1559256708833
 20
472.846539985761
 30
0.0
 10
183.130990619845
 20
473.3859069056794
 30
0.0
 10
183.1153515447813
 20
473.8492589264692
 30
0.0
 10
183.1060707431666
 20
474.2342421032999
 30
0.0
 10
183.1002144940923
 20
474.620375867764
 30
0.0
 10
183.0994553725276
 20
474.8781615433195
 30
0.0
 10
183.0990757073694
 20
475.0070898254738
 30
0.0
  0
ARC
  5
11C
330
1F
100
AcDbEntity
  8
0
  6
Continuous
 62
     8
370
    18
100
AcDbCircle
 10
184.5625519439
 20
477.1966162116
 30
0.0
 40
1.463985709583077
100
AcDbArc
 50
93.63464468989999
 51
181.4920692784
  0
ARC
  5
11D
330
1F
100
AcDbEntity
  8
0
  6
Continuous
 62
     8
370
    18
100
AcDbCircle
 10
225.1192801559
 20
477.1966133104
 30
0.0
 40
1.463988680083087
100
AcDbArc
 50
358.5080473337999
 51
86.3653162467
  0
LINE
  5
11E
330
1F
100
AcDbEntity
  8
0
  6
Continuous
 62
     8
370
    18
100
AcDbLine
 10
226.5827725317
 20
475.0070962543
 30
0.0
 11
226.5827725317
 21
477.1584961051
 31
0.0
  0
LINE
  5
11F
330
1F
100
AcDbEntity
  8
0
  6
Continuous
 62
     8
370
    18
100
AcDbLine
 10
183.0990626152
 20
475.0070962543
 30
0.0
 11
183.0990626152
 21
477.1584961051
 31
0.0
  0
ARC
  5
120
330
1F
100
AcDbEntity
  8
0
  6
Continuous
 62
     8
370
    18
100
AcDbCircle
 10
204.8409173826
 20
457.8584947604
 30
0.0
 40
3.781418633081902
100
AcDbArc
 50
121.9259804473
 51
58.0741458494
  0
LINE
  5
121
330
1F
100
AcDbEntity
  8
0
  6
Continuous
 62
     8
370
    18
100
AcDbLine
 10
208.2693162049
 20
454.7865334386
 30
0.0
 11
208.2693162049
 21
454.7508451575
 31
0.0
  0
LINE
  5
122
330
1F
100
AcDbEntity
  8
0
  6
Continuous
 62
     8
370
    18
100
AcDbLine
 10
201.4125187091
 20
454.7508451575
 30
0.0
 11
201.4125187091
 21
454.7865334386
 31
0.0
  0
LINE
  5
123
330
1F
100
AcDbEntity
  8
0
  6
Continuous
 62
     8
370
    18
100
AcDbLine
 10
186.5926305439
 20
447.0584932202
 30
0.0
 11
204.8409173843
 21
447.0584932202
 31
0.0
  0
LINE
  5
124
330
1F
100
AcDbEntity
  8
0
  6
Continuous
 62
     8
370
    18
100
AcDbLine
 10
204.8409173843
 20
447.0584932202
 30
0.0
 11
223.089204603
 21
447.0584932202
 31
0.0
  0
ARC
  5
125
330
1F
100
AcDbEntity
  8
0
  6
Continuous
 62
     8
370
    18
100
AcDbCircle
 10
186.7746527092
 20
447.039965009
 30
0.0
 40
0.1829627374572978
100
AcDbArc
 50
174.1878264333
 51
262.6704879785
  0
LINE
  5
126
330
1F
100
AcDbEntity
  8
0
  6
Continuous
 62
     8
370
    18
100
AcDbLine
 10
204.8409173843
 20
446.8584972853
 30
0.0
 11
204.8409173843
 21
447.0584932202
 31
0.0
  0
ARC
  5
127
330
1F
100
AcDbEntity
  8
0
  6
Continuous
 62
     8
370
    18
100
AcDbCircle
 10
222.9071779151
 20
447.0399685973
 30
0.0
 40
0.1829668734022716
100
AcDbArc
 50
277.3307733195
 51
5.8109122687
  0
SPLINE
  5
128
330
1F
100
AcDbEntity
  8
0
  6
Continuous
 62
     8
370
    18
100
AcDbSpline
210
0.0
220
0.0
230
1.0
 70
     8
 71
     3
 72
     9
 73
     5
 74
     0
 42
0.000000001
 43
0.00000001
 40
0.0
 40
0.0
 40
0.0
 40
0.0
 40
0.5250500519098276
 40
1.0
 40
1.0
 40
1.0
 40
1.0
 10
227.6424164559037
 20
447.0584932202335
 30
0.0
 10
227.7033419032453
 20
447.0561455198236
 30
0.0
 10
227.8193793117171
 20
447.0516741358074
 30
0.0
 10
227.8307548277205
 20
447.1776676887879
 30
0.0
 10
227.8361576284558
 20
447.2375083202358
 30
0.0
  0
LINE
  5
129
330
1F
100
AcDbEntity
  8
0
  6
Continuous
 62
     8
370
    18
100
AcDbLine
 10
223.089204603
 20
447.0584932202
 30
0.0
 11
227.6424164559
 21
447.0584932202
 31
0.0
  0
LINE
  5
12A
330
1F
100
AcDbEntity
  8
0
  6
Continuous
 62
     8
370
    18
100
AcDbLine
 10
182.039418691
 20
447.0584932202
 30
0.0
 11
186.5926305439
 21
447.0584932202
 31
0.0
  0
ARC
  5
12B
330
1F
100
AcDbEntity
  8
0
  6
Continuous
 62
     8
370
    18
100
AcDbCircle
 10
182.2385564116
 20
447.0576349859
 30
0.0
 40
0.1991395700547486
100
AcDbArc
 50
179.7530708909
 51
269.7517371652
  0
ARC
  5
12C
330
1F
100
AcDbEntity
  8
0
  6
Continuous
 62
     8
370
    18
100
AcDbCircle
 10
227.4432787352
 20
447.0576349859
 30
0.0
 40
0.1991395700547486
100
AcDbArc
 50
270.2482628348
 51
0.2469291091
  0
SPLINE
  5
12D
330
1F
100
AcDbEntity
  8
0
  6
Continuous
 62
     7
370
    25
100
AcDbSpline
210
0.0
220
0.0
230
1.0
 70
     8
 71
     3
 72
    29
 73
    25
 74
     0
 42
0.000000001
 43
0.00000001
 40
0.0
 40
0.0
 40
0.0
 40
0.0
 40
0.0455604461828523
 40
0.0960275179800805
 40
0.1414146006926605
 40
0.1817223682013072
 40
0.2208369008502297
 40
0.2535796807755441
 40
0.2799507930822918
 40
0.3017560141405699
 40
0.3235767562643342
 40
0.3456381584486535
 40
0.4521404352940271
 40
0.4824313825134983
 40
0.5127223007516685
 40
0.5431668879369137
 40
0.5786132398952613
 40
0.6213723022284563
 40
0.6714442280551148
 40
0.7253525943482413
 40
0.7857604010505229
 40
0.8526687096993484
 40
0.9260857938427836
 40
1.0
 40
1.0
 40
1.0
 40
1.0
 10
477.6132034901808
 20
478.6575678223606
 30
0.0
 10
476.0086059639336
 20
478.6980003417602
 30
0.0
 10
472.6266040146092
 20
478.7832197548461
 30
0.0
 10
467.6444190378428
 20
478.785191605536
 30
0.0
 10
462.8476731386623
 20
478.8022523621954
 30
0.0
 10
458.4507890530343
 20
478.8202639220688
 30
0.0
 10
454.4993785541438
 20
478.839236322772
 30
0.0
 10
451.0389214724856
 20
478.8532462777204
 30
0.0
 10
448.1882481791286
 20
478.8637406366933
 30
0.0
 10
445.7223478417213
 20
478.8716796336672
 30
0.0
 10
443.4082636961465
 20
478.8779010177069
 30
0.0
 10
438.1103959867875
 20
478.8892981578209
 30
0.0
 10
432.5141067461484
 20
478.892147745719
 30
0.0
 10
426.6279088895908
 20
478.8979633179601
 30
0.0
 10
423.4211448858061
 20
478.9030419981817
 30
0.0
 10
420.032767758905
 20
478.9114519783121
 30
0.0
 10
416.2051653351357
 20
478.9254952273268
 30
0.0
 10
411.6861474118774
 20
478.9491100496641
 30
0.0
 10
406.5167876266055
 20
478.9840367792725
 30
0.0
 10
400.7257213322981
 20
479.0257364416289
 30
0.0
 10
394.341379060748
 20
479.0526141864606
 30
0.0
 10
387.2697451470872
 20
479.0172211963477
 30
0.0
 10
379.7229671529317
 20
478.8974964674854
 30
0.0
 10
374.5351072171471
 20
478.735411691331
 30
0.0
 10
371.9324248675535
 20
478.6540958518024
 30
0.0
  0
SPLINE
  5
12E
330
1F
100
AcDbEntity
  8
0
  6
Continuous
 62
     7
370
    25
100
AcDbSpline
210
0.0
220
0.0
230
1.0
 70
     8
 71
     3
 72
    12
 73
     8
 74
     0
 42
0.000000001
 43
0.00000001
 40
0.0
 40
0.0
 40
0.0
 40
0.0
 40
0.0466165446909935
 40
0.2335482915741153
 40
0.427883288457603
 40
0.711805827937948
 40
0.9999999999999999
 40
0.9999999999999999
 40
0.9999999999999999
 40
0.9999999999999999
 10
491.4267512802313
 20
441.7597893113132
 30
0.0
 10
490.9744458865633
 20
441.7648979086663
 30
0.0
 10
488.7084016599667
 20
441.7904919159454
 30
0.0
 10
484.5572007458933
 20
441.759610430978
 30
0.0
 10
478.1007717301159
 20
441.8015449346797
 30
0.0
 10
470.6646284736092
 20
441.7945182873543
 30
0.0
 10
465.1125842362909
 20
441.8071070269219
 30
0.0
 10
462.3158353213499
 20
441.8134483927723
 30
0.0
  0
LINE
  5
12F
330
1F
100
AcDbEntity
  8
0
  6
Continuous
 62
     7
370
    25
100
AcDbLine
 10
371.9085364435
 20
442.9895523423
 30
0.0
 11
371.9085364435
 21
441.6563529009
 31
0.0
  0
LINE
  5
130
330
1F
100
AcDbEntity
  8
0
  6
Continuous
 62
     7
370
    25
100
AcDbLine
 10
414.9085379038
 20
441.887380504
 30
0.0
 11
414.9085379038
 21
442.9895523423
 31
0.0
  0
ARC
  5
131
330
1F
100
AcDbEntity
  8
0
  6
Continuous
 62
     7
370
    25
100
AcDbCircle
 10
404.9085371737
 20
442.9895555354
 30
0.0
 40
10.00000000000002
100
AcDbArc
 50
0.0
 51
9.0468459803
  0
ARC
  5
132
330
1F
100
AcDbEntity
  8
0
  6
Continuous
 62
     7
370
    25
100
AcDbCircle
 10
381.9085371737
 20
442.9895555354
 30
0.0
 40
10.00000000000002
100
AcDbArc
 50
170.9531540197
 51
180.0
  0
ARC
  5
133
330
1F
100
AcDbEntity
  8
0
  6
Continuous
 62
     7
370
    25
100
AcDbCircle
 10
393.4085371737
 20
441.1584947604
 30
0.0
 40
21.64486082191338
100
AcDbArc
 50
148.3546998964
 51
170.9531540197
  0
ARC
  5
134
330
1F
100
AcDbEntity
  8
0
  6
Continuous
 62
     7
370
    25
100
AcDbCircle
 10
393.4085371737
 20
441.1584947604
 30
0.0
 40
21.64486082191338
100
AcDbArc
 50
9.0468459803
 51
15.2684548419
  0
LINE
  5
135
330
1F
100
AcDbEntity
  8
0
  6
Continuous
 62
     7
370
    25
100
AcDbLine
 10
493.8194977884
 20
441.7525845999
 30
0.0
 11
491.4695027117
 21
441.7671728367
 31
0.0
  0
LINE
  5
136
330
1F
100
AcDbEntity
  8
0
  6
Continuous
 62
     7
370
    25
100
AcDbLine
 10
497.9483115319
 20
441.6652563447
 30
0.0
 11
495.7863244061
 21
441.7199063534
 31
0.0
  0
ARC
  5
137
330
1F
100
AcDbEntity
  8
0
  6
Continuous
 62
     7
370
    25
100
AcDbCircle
 10
497.9085346469
 20
440.1673999269
 30
0.0
 40
1.500001314025699
100
AcDbArc
 50
0.0130585344
 51
88.4582520965
  0
LINE
  5
138
330
1F
100
AcDbEntity
  8
0
  6
Continuous
 62
     7
370
    25
100
AcDbLine
 10
502.7585404758
 20
414.968492412
 30
0.0
 11
503.5085382704
 21
416.2675309414
 31
0.0
  0
LINE
  5
139
330
1F
100
AcDbEntity
  8
0
  6
Continuous
 62
     7
370
    25
100
AcDbLine
 10
503.5085382704
 20
437.5694561237
 30
0.0
 11
502.7585404758
 21
438.8684946531
 31
0.0
  0
LINE
  5
13A
330
1F
100
AcDbEntity
  8
0
  6
Continuous
 62
     7
370
    25
100
AcDbLine
 10
499.408535922
 20
414.968492412
 30
0.0
 11
502.7585404758
 21
414.968492412
 31
0.0
  0
LINE
  5
13B
330
1F
100
AcDbEntity
  8
0
  6
Continuous
 62
     7
370
    25
100
AcDbLine
 10
502.7585404758
 20
438.8684946531
 30
0.0
 11
499.408535922
 21
438.8684946531
 31
0.0
  0
SPLINE
  5
13C
330
1F
100
AcDbEntity
  8
0
  6
Continuous
 62
     7
370
    25
100
AcDbSpline
210
0.0
220
0.0
230
1.0
 70
     8
 71
     3
 72
    21
 73
    17
 74
     0
 42
0.000000001
 43
0.00000001
 40
0.0
 40
0.0
 40
0.0
 40
0.0
 40
0.0768256464336022
 40
0.1585386472828012
 40
0.2368689924504201
 40
0.3132336960081934
 40
0.3887143363659376
 40
0.4643320643857243
 40
0.5218702173553316
 40
0.5808039407583533
 40
0.6419144417120276
 40
0.7060641571100658
 40
0.7741113943077559
 40
0.8469726828346719
 40
0.9260359407348616
 40
1.0
 40
1.0
 40
1.0
 40
1.0
 10
416.4275641385744
 20
383.0131571227546
 30
0.0
 10
416.4509444285036
 20
384.1564266539198
 30
0.0
 10
416.4991923731749
 20
386.5156961604537
 30
0.0
 10
417.0500230146919
 20
390.0065613613515
 30
0.0
 10
417.9752854925073
 20
393.4049140549157
 30
0.0
 10
419.259051743471
 20
396.5871641567743
 30
0.0
 10
420.8944226603366
 20
399.5578097804777
 30
0.0
 10
422.7338781971525
 20
402.0687074380241
 30
0.0
 10
424.6942397290293
 20
404.1538439074807
 30
0.0
 10
426.709621178006
 20
405.8693303150906
 30
0.0
 10
428.9899540363252
 20
407.3979188666664
 30
0.0
 10
431.5477759442673
 20
408.7222605758371
 30
0.0
 10
434.392853372846
 20
409.835864159144
 30
0.0
 10
437.5467374758559
 20
410.7172315425192
 30
0.0
 10
440.859743650411
 20
411.3316308503311
 30
0.0
 10
443.1356113965891
 20
411.4305522336517
 30
0.0
 10
444.2356268707941
 20
411.4783647889133
 30
0.0
  0
LINE
  5
13D
330
1F
100
AcDbEntity
  8
0
  6
Continuous
 62
     7
370
    25
100
AcDbLine
 10
416.477328429
 20
453.8584891194
 30
0.0
 11
416.6325109843
 21
453.8584891194
 31
0.0
  0
LINE
  5
13E
330
1F
100
AcDbEntity
  8
0
  6
Continuous
 62
     7
370
    25
100
AcDbLine
 10
416.6325109843
 20
453.8584891194
 30
0.0
 11
417.2330594454
 21
454.077074253
 31
0.0
  0
ARC
  5
13F
330
1F
100
AcDbEntity
  8
0
  6
Continuous
 62
     7
370
    25
100
AcDbCircle
 10
417.1646547265
 20
454.2650146515
 30
0.0
 40
0.2000000000000455
100
AcDbArc
 50
289.9999999999999
 51
0.0
  0
LINE
  5
140
330
1F
100
AcDbEntity
  8
0
  6
Continuous
 62
     7
370
    25
100
AcDbLine
 10
417.3646553252
 20
454.265007698
 30
0.0
 11
417.3646553252
 21
461.294064247
 31
0.0
  0
SPLINE
  5
141
330
1F
100
AcDbEntity
  8
0
  6
Continuous
 62
     7
370
    25
100
AcDbSpline
210
0.0
220
0.0
230
1.0
 70
     8
 71
     3
 72
    21
 73
    17
 74
     0
 42
0.000000001
 43
0.00000001
 40
0.0
 40
0.0
 40
0.0
 40
0.0
 40
0.0317339280529588
 40
0.1282223923548351
 40
0.211360527450144
 40
0.2829436435504073
 40
0.3621209119630805
 40
0.4243228751921816
 40
0.4796798057461698
 40
0.5318226609499931
 40
0.5808568876936466
 40
0.640472601198896
 40
0.7020764472892249
 40
0.7800790084191102
 40
0.8776183060438961
 40
1.0
 40
1.0
 40
1.0
 40
1.0
 10
417.3956460152099
 20
461.1820373171802
 30
0.0
 10
417.4516743832823
 20
461.4054472572059
 30
0.0
 10
417.6780595752442
 20
462.3081453706612
 30
0.0
 10
418.2878792866588
 20
463.7242173195051
 30
0.0
 10
419.1336771285609
 20
465.3390682968313
 30
0.0
 10
420.078747183232
 20
466.7520261490693
 30
0.0
 10
421.0594159006106
 20
467.9491622695613
 30
0.0
 10
422.065663737287
 20
468.9635266753876
 30
0.0
 10
422.99963214956
 20
469.7671724824222
 30
0.0
 10
423.9120489039834
 20
470.4446270988545
 30
0.0
 10
424.8935344241817
 20
471.0762507468717
 30
0.0
 10
425.9768963375708
 20
471.6715556061963
 30
0.0
 10
427.2920427069658
 20
472.2739708111376
 30
0.0
 10
428.9120095022813
 20
472.8579039209421
 30
0.0
 10
431.0103302668801
 20
473.4009323165327
 30
0.0
 10
432.5981534193891
 20
473.5748739828498
 30
0.0
 10
433.4817456845472
 20
473.6716690892216
 30
0.0
  0
SPLINE
  5
142
330
1F
100
AcDbEntity
  8
0
  6
Continuous
 62
     7
370
    25
100
AcDbSpline
210
0.0
220
0.0
230
1.0
 70
     8
 71
     3
 72
     9
 73
     5
 74
     0
 42
0.000000001
 43
0.00000001
 40
0.0
 40
0.0
 40
0.0
 40
0.0
 40
0.8358395358785472
 40
1.0
 40
1.0
 40
1.0
 40
1.0
 10
416.4824730549286
 20
451.2968901032444
 30
0.0
 10
416.476187604275
 20
452.0169890677603
 30
0.0
 10
416.4686676792369
 20
452.8785168294964
 30
0.0
 10
416.4840271110586
 20
453.7398724555524
 30
0.0
 10
416.4865485225151
 20
453.8812729948994
 30
0.0
  0
LINE
  5
143
330
1F
100
AcDbEntity
  8
0
  6
Continuous
 62
     7
370
    25
100
AcDbLine
 10
366.1887760107
 20
394.5238384837
 30
0.0
 11
370.408537129
 21
384.0795587236
 31
0.0
  0
LINE
  5
144
330
1F
100
AcDbEntity
  8
0
  6
Continuous
 62
     7
370
    25
100
AcDbLine
 10
370.408537129
 20
394.7574290866
 30
0.0
 11
369.8975111191
 21
396.0222620005
 31
0.0
  0
ARC
  5
145
330
1F
100
AcDbEntity
  8
0
  6
Continuous
 62
     7
370
    25
100
AcDbCircle
 10
364.3344073796
 20
393.7746249095
 30
0.0
 40
2.000000000000035
100
AcDbArc
 50
22.0
 51
92.0
  0
ARC
  5
146
330
1F
100
AcDbEntity
  8
0
  6
Continuous
 62
     7
370
    25
100
AcDbCircle
 10
364.3344073796
 20
393.7746249095
 30
0.0
 40
6.000000000000047
100
AcDbArc
 50
22.0
 51
92.0
  0
LINE
  5
147
330
1F
100
AcDbEntity
  8
0
  6
Continuous
 62
     7
370
    25
100
AcDbLine
 10
351.2725273911
 20
395.3197095031
 30
0.0
 11
364.2646076922
 21
395.7734051579
 31
0.0
  0
LINE
  5
148
330
1F
100
AcDbEntity
  8
0
  6
Continuous
 62
     7
370
    25
100
AcDbLine
 10
364.1250098888
 20
399.7709694737
 30
0.0
 11
351.1329295878
 21
399.3172738189
 31
0.0
  0
SPLINE
  5
149
330
1F
100
AcDbEntity
  8
0
  6
Continuous
 62
     7
370
    25
100
AcDbSpline
210
0.0
220
0.0
230
1.0
 70
     8
 71
     3
 72
    12
 73
     8
 74
     0
 42
0.000000001
 43
0.00000001
 40
0.0
 40
0.0
 40
0.0
 40
0.0
 40
0.0467755824080494
 40
0.2336759193297361
 40
0.427978841680734
 40
0.7118539466051198
 40
1.0
 40
1.0
 40
1.0
 40
1.0
 10
491.4316090587805
 20
441.759737157249
 30
0.0
 10
490.9776844025395
 20
441.7648695945106
 30
0.0
 10
488.7100213208016
 20
441.7905096172263
 30
0.0
 10
484.5571942808262
 20
441.7596211266899
 30
0.0
 10
478.1007609231713
 20
441.8015404995562
 30
0.0
 10
470.664605239216
 20
441.7945195875093
 30
0.0
 10
465.1125567287866
 20
441.8071074622442
 30
0.0
 10
462.3158055190275
 20
441.8134483927723
 30
0.0
  0
SPLINE
  5
14A
330
1F
100
AcDbEntity
  8
0
  6
Continuous
 62
     7
370
    25
100
AcDbSpline
210
0.0
220
0.0
230
1.0
 70
     8
 71
     3
 72
    20
 73
    16
 74
     0
 42
0.000000001
 43
0.00000001
 40
0.0
 40
0.0
 40
0.0
 40
0.0
 40
0.03125
 40
0.03125
 40
0.0625
 40
0.0625
 40
0.1250000000000001
 40
0.1250000000000001
 40
0.2500000000000002
 40
0.2500000000000002
 40
0.5000000000000001
 40
0.5000000000000001
 40
0.75
 40
0.75
 40
1.0
 40
1.0
 40
1.0
 40
1.0
 10
396.8172939236939
 20
441.6559723906778
 30
0.0
 10
397.0783495252099
 20
441.6561246365657
 30
0.0
 10
397.3386863531339
 20
441.6563040545869
 30
0.0
 10
397.8595817219468
 20
441.6565300461946
 30
0.0
 10
398.120085808226
 20
441.6565862338247
 30
0.0
 10
398.9019778012634
 20
441.6566151435248
 30
0.0
 10
399.4237197410303
 20
441.6564542159351
 30
0.0
 10
400.9902785335356
 20
441.6561897415927
 30
0.0
 10
402.0363531866708
 20
441.6564057815382
 30
0.0
 10
405.1787343131112
 20
441.6566772076555
 30
0.0
 10
407.2790565424012
 20
441.6562549852259
 30
0.0
 10
411.4941041168688
 20
441.6556379077352
 30
0.0
 10
413.6053709653559
 20
441.6553058550797
 30
0.0
 10
417.829232412162
 20
441.6545478597909
 30
0.0
 10
419.9426871413862
 20
441.6539384602057
 30
0.0
 10
422.0561353998339
 20
441.653471646701
 30
0.0
  0
SPLINE
  5
14B
330
1F
100
AcDbEntity
  8
0
  6
Continuous
 62
     7
370
    25
100
AcDbSpline
210
0.0
220
0.0
230
1.0
 70
     8
 71
     3
 72
    16
 73
    12
 74
     0
 42
0.000000001
 43
0.00000001
 40
0.0
 40
0.0
 40
0.0
 40
0.0
 40
0.2500000000000004
 40
0.2500000000000004
 40
0.5000000000000008
 40
0.5000000000000008
 40
0.7500000000000011
 40
0.7500000000000011
 40
0.8750000000000006
 40
0.8750000000000006
 40
1.0
 40
1.0
 40
1.0
 40
1.0
 10
396.4715314122293
 20
446.8584947604188
 30
0.0
 10
395.9805416836376
 20
446.8584947604188
 30
0.0
 10
395.4854530130391
 20
446.8599319577984
 30
0.0
 10
394.498110313519
 20
446.9055626606045
 30
0.0
 10
394.0031237998754
 20
446.9492925374709
 30
0.0
 10
393.0193645674042
 20
447.0959942558953
 30
0.0
 10
392.5331488755015
 20
447.1985300464345
 30
0.0
 10
391.8112858599887
 20
447.3830097311858
 30
0.0
 10
391.5723801485357
 20
447.4493621091924
 30
0.0
 10
391.096899033948
 20
447.5879340008264
 30
0.0
 10
390.8592682007991
 20
447.6605006868245
 30
0.0
 10
390.6240973177715
 20
447.732399641159
 30
0.0
  0
ARC
  5
14C
330
1F
100
AcDbEntity
  8
0
  6
Continuous
 62
     7
370
    25
100
AcDbCircle
 10
371.9825113852
 20
477.1584947604
 30
0.0
 40
1.500000000001552
100
AcDbArc
 50
91.9102131717
 51
180.0
  0
SPLINE
  5
14D
330
1F
100
AcDbEntity
  8
0
  6
Continuous
 62
     7
370
    25
100
AcDbSpline
210
0.0
220
0.0
230
1.0
 70
    24
 71
     3
 72
    22
 73
    18
 74
     0
 42
0.000000001
 43
0.00000001
 40
0.0
 40
0.0
 40
0.0
 40
0.0
 40
0.125
 40
0.125
 40
0.25
 40
0.25
 40
0.3749999999999999
 40
0.3749999999999999
 40
0.5
 40
0.5
 40
0.625
 40
0.625
 40
0.75
 40
0.75
 40
0.875
 40
0.875
 40
1.0
 40
1.0
 40
1.0
 40
1.0
 10
400.512292923382
 20
478.657661195474
 30
0.0
 10
398.8969560120127
 20
478.657661195474
 30
0.0
 10
397.2150920856414
 20
478.657661195474
 30
0.0
 10
393.8126851634884
 20
478.657661195474
 30
0.0
 10
392.0923232758049
 20
478.6576611954741
 30
0.0
 10
388.709817856054
 20
478.657661195474
 30
0.0
 10
387.0478543727397
 20
478.6576611954741
 30
0.0
 10
383.875764139993
 20
478.657661195474
 30
0.0
 10
382.3658062390383
 20
478.6576611954741
 30
0.0
 10
379.5827936115738
 20
478.657661195474
 30
0.0
 10
378.3098870231721
 20
478.657661195474
 30
0.0
 10
376.0727003056211
 20
478.657661195474
 30
0.0
 10
375.1085392605913
 20
478.657661195474
 30
0.0
 10
373.5431840706287
 20
478.657661195474
 30
0.0
 10
372.9420732486222
 20
478.657661195474
 30
0.0
 10
372.1367154715734
 20
478.657661195474
 30
0.0
 10
371.9325113852468
 20
478.657661195474
 30
0.0
 10
371.9325113852469
 20
478.657661195474
 30
0.0
  0
LWPOLYLINE
  5
14E
330
1F
100
AcDbEntity
  8
0
  6
Continuous
 62
     7
370
    25
100
AcDbPolyline
 90
       14
 70
   128
 43
0.0
 10
370.4887873326
 20
454.0363940829
 10
370.5895452593
 20
454.0058467025
 10
370.9096538667
 20
453.9088401431
 10
371.4398539458
 20
453.7481460208
 10
372.1752150748
 20
453.525284254
 10
373.1088883076
 20
453.2423112029
 10
374.2321881298
 20
452.9018643731
 10
375.5346557889
 20
452.5071326131
 10
377.004171053
 20
452.0617518062
 10
378.6270565186
 20
451.5699091786
 10
380.388207065
 20
451.0361495847
 10
382.2712304835
 20
450.4654649133
 10
384.2586011458
 20
449.8631450767
 10
385.4610708375
 20
449.4987073773
  0
LINE
  5
14F
330
1F
100
AcDbEntity
  8
0
  6
Continuous
 62
     7
370
    25
100
AcDbLine
 10
370.4825120811
 20
454.0382865304
 30
0.0
 11
370.4825120811
 21
477.1584961051
 31
0.0
  0
ARC
  5
150
330
1F
100
AcDbEntity
  8
0
  6
Continuous
 62
     7
370
    25
100
AcDbCircle
 10
371.9085371737
 20
440.1559080292
 30
0.0
 40
1.500000000000082
100
AcDbArc
 50
91.39947566959998
 51
180.0
  0
LINE
  5
151
330
1F
100
AcDbEntity
  8
0
  6
Continuous
 62
     7
370
    25
100
AcDbLine
 10
371.8719019387
 20
441.6554588312
 30
0.0
 11
393.4085371737
 21
441.6554588312
 31
0.0
  0
LINE
  5
152
330
1F
100
AcDbEntity
  8
0
  6
Continuous
 62
     7
370
    25
100
AcDbLine
 10
370.408537129
 20
440.1559102768
 30
0.0
 11
370.408537129
 21
429.3669182295
 31
0.0
  0
LINE
  5
153
330
1F
100
AcDbEntity
  8
0
  6
Continuous
 62
     7
370
    25
100
AcDbLine
 10
370.408537129
 20
429.3669182295
 30
0.0
 11
370.408537129
 21
427.0838964218
 31
0.0
  0
LINE
  5
154
330
1F
100
AcDbEntity
  8
0
  6
Continuous
 62
     7
370
    25
100
AcDbLine
 10
370.408537129
 20
427.0838964218
 30
0.0
 11
370.408537129
 21
413.8489160174
 31
0.0
  0
LINE
  5
155
330
1F
100
AcDbEntity
  8
0
  6
Continuous
 62
     7
370
    25
100
AcDbLine
 10
416.4085372184
 20
356.9184932345
 30
0.0
 11
416.4085372184
 21
376.0265577072
 31
0.0
  0
LINE
  5
156
330
1F
100
AcDbEntity
  8
0
  6
Continuous
 62
     7
370
    25
100
AcDbLine
 10
370.408537129
 20
356.9184932345
 30
0.0
 11
416.4085372184
 21
356.9184932345
 31
0.0
  0
LINE
  5
157
330
1F
100
AcDbEntity
  8
0
  6
Continuous
 62
     7
370
    25
100
AcDbLine
 10
370.408537129
 20
376.0265577072
 30
0.0
 11
370.408537129
 21
356.9184932345
 31
0.0
  0
LWPOLYLINE
  5
158
330
1F
100
AcDbEntity
  8
0
  6
Continuous
 62
     7
370
    25
100
AcDbPolyline
 90
       16
 70
   128
 43
0.0
 10
390.6240973454
 20
447.7323982352
 10
388.4566964414
 20
448.3950379724
 10
386.335527787
 20
449.0435439581
 10
384.2803344894
 20
449.6718812222
 10
382.3102454488
 20
450.2742010588
 10
380.4435965438
 20
450.8448931808
 10
378.6977606658
 20
451.3786527747
 10
377.0889865998
 20
451.8704954022
 10
375.6322509442
 20
452.315861308
 10
374.3411081676
 20
452.7106079692
 10
373.2275760565
 20
453.051054799
 10
372.3020202313
 20
453.3340278501
 10
371.5730554257
 20
453.5568896169
 10
371.0474653933
 20
453.7175837392
 10
370.7301414404
 20
453.8145902986
 10
370.6240377222
 20
453.8470301265
  0
ARC
  5
159
330
1F
100
AcDbEntity
  8
0
  6
Continuous
 62
     7
370
    25
100
AcDbCircle
 10
370.6825113852
 20
454.038292649
 30
0.0
 40
0.1999999999999886
100
AcDbArc
 50
180.0
 51
253.0
  0
LINE
  5
15A
330
1F
100
AcDbEntity
  8
0
  6
Continuous
 62
     7
370
    25
100
AcDbLine
 10
407.3607719336
 20
446.8584972853
 30
0.0
 11
396.471531393
 21
446.8584972853
 31
0.0
  0
SPLINE
  5
15B
330
1F
100
AcDbEntity
  8
0
  6
Continuous
 62
     7
370
    25
100
AcDbSpline
210
0.0
220
0.0
230
1.0
 70
    24
 71
     3
 72
    26
 73
    22
 74
     0
 42
0.000000001
 43
0.00000001
 40
0.0
 40
0.0
 40
0.0
 40
0.0
 40
0.1249999999999998
 40
0.1249999999999998
 40
0.2499999999999996
 40
0.2499999999999996
 40
0.3749999999999997
 40
0.3749999999999997
 40
0.4999999999999998
 40
0.4999999999999998
 40
0.6249999999999999
 40
0.6249999999999999
 40
0.75
 40
0.75
 40
0.8750000000000001
 40
0.8750000000000001
 40
0.9375000000000002
 40
0.9375000000000002
 40
0.9687500000000001
 40
0.9687500000000001
 40
1.0
 40
1.0
 40
1.0
 40
1.0
 10
430.9658954102387
 20
478.657661195474
 30
0.0
 10
429.6646488301368
 20
478.657661195474
 30
0.0
 10
428.3648392065205
 20
478.657661195474
 30
0.0
 10
425.769419179126
 20
478.657661195474
 30
0.0
 10
424.4738036995712
 20
478.657661195474
 30
0.0
 10
421.8873257795163
 20
478.657661195474
 30
0.0
 10
420.5951023048318
 20
478.657661195474
 30
0.0
 10
418.0240556230846
 20
478.657661195474
 30
0.0
 10
416.7451634160983
 20
478.657661195474
 30
0.0
 10
414.1997763904359
 20
478.657661195474
 30
0.0
 10
412.933137002081
 20
478.657661195474
 30
0.0
 10
410.4102333740298
 20
478.657661195474
 30
0.0
 10
409.1545338552492
 20
478.657661195474
 30
0.0
 10
406.6600751994487
 20
478.657661195474
 30
0.0
 10
405.4204649241334
 20
478.657661195474
 30
0.0
 10
403.5736134657752
 20
478.6576611954741
 30
0.0
 10
402.9602077581947
 20
478.657661195474
 30
0.0
 10
402.0426256948683
 20
478.6576611954741
 30
0.0
 10
401.7371982410114
 20
478.6576611954741
 30
0.0
 10
401.1260138505091
 20
478.6576611954741
 30
0.0
 10
400.8204315491104
 20
478.657661195474
 30
0.0
 10
400.512292923344
 20
478.657661195474
 30
0.0
  0
SPLINE
  5
15C
330
1F
100
AcDbEntity
  8
0
  6
Continuous
 62
     7
370
    25
100
AcDbSpline
210
0.0
220
0.0
230
1.0
 70
     8
 71
     3
 72
    11
 73
     7
 74
     0
 42
0.000000001
 43
0.00000001
 40
0.0
 40
0.0
 40
0.0
 40
0.0
 40
0.2882280073035514
 40
0.5271479387803353
 40
0.7680632764345141
 40
1.0
 40
1.0
 40
1.0
 40
1.0
 10
462.3158427719305
 20
441.813195073032
 30
0.0
 10
457.7611390811522
 20
441.8207693613776
 30
0.0
 10
449.4309192499464
 20
441.8346221806316
 30
0.0
 10
437.2936489464411
 20
441.8536145310272
 30
0.0
 10
426.0459097360971
 20
441.865491802292
 30
0.0
 10
418.5737005563448
 20
441.8801772200516
 30
0.0
 10
414.9085379038284
 20
441.8873805040356
 30
0.0
  0
SPLINE
  5
15D
330
1F
100
AcDbEntity
  8
0
  6
Continuous
 62
     7
370
    25
100
AcDbSpline
210
0.0
220
0.0
230
1.0
 70
     8
 71
     3
 72
     9
 73
     5
 74
     0
 42
0.000000001
 43
0.00000001
 40
0.0
 40
0.0
 40
0.0
 40
0.0
 40
0.9418695851950369
 40
1.0
 40
1.0
 40
1.0
 40
1.0
 10
491.4695027116964
 20
441.7671728366848
 30
0.0
 10
491.4509643246706
 20
441.7688984747453
 30
0.0
 10
491.4312817833536
 20
441.7707306159331
 30
0.0
 10
491.427183245058
 20
441.7713043592986
 30
0.0
 10
491.4269449953268
 20
441.7713377112385
 30
0.0
  0
SPLINE
  5
15E
330
1F
100
AcDbEntity
  8
0
  6
Continuous
 62
     7
370
    25
100
AcDbSpline
210
0.0
220
0.0
230
1.0
 70
     8
 71
     3
 72
    31
 73
    27
 74
     0
 42
0.000000001
 43
0.00000001
 40
0.0
 40
0.0
 40
0.0
 40
0.0
 40
0.1249999999999996
 40
0.1249999999999996
 40
0.1874999999999994
 40
0.1874999999999994
 40
0.2499999999999993
 40
0.2499999999999993
 40
0.3749999999999991
 40
0.3749999999999991
 40
0.437499999999999
 40
0.437499999999999
 40
0.4999999999999989
 40
0.4999999999999989
 40
0.6249999999999988
 40
0.6249999999999988
 40
0.6562499999999989
 40
0.6562499999999989
 40
0.687499999999999
 40
0.687499999999999
 40
0.7499999999999992
 40
0.8124999999999996
 40
0.8124999999999996
 40
0.8749999999999998
 40
0.8749999999999998
 40
1.0
 40
1.0
 40
1.0
 40
1.0
 10
393.4085371736715
 20
441.6564020780394
 30
0.0
 10
394.8281640593984
 20
441.6564020780394
 30
0.0
 10
396.2240843098127
 20
441.6560900237884
 30
0.0
 10
398.2838551688421
 20
441.6582337521509
 30
0.0
 10
398.9647182246543
 20
441.6594557390607
 30
0.0
 10
400.3147278239395
 20
441.6640277767898
 30
0.0
 10
400.9857271416671
 20
441.6674830060433
 30
0.0
 10
402.9376257790706
 20
441.6805652542072
 30
0.0
 10
404.1719964964284
 20
441.6926648091153
 30
0.0
 10
405.9241436374774
 20
441.7139799012934
 30
0.0
 10
406.4933551609633
 20
441.7216736322385
 30
0.0
 10
407.5888542258627
 20
441.7377990710343
 30
0.0
 10
408.1102012348738
 20
441.7461470541695
 30
0.0
 10
409.5975193418301
 20
441.7714764061442
 30
0.0
 10
410.4874932891645
 20
441.7887354345509
 30
0.0
 10
411.4700071036277
 20
441.8090461390641
 30
0.0
 10
411.6604440791526
 20
441.8130563791183
 30
0.0
 10
412.024660819906
 20
441.8208410701629
 30
0.0
 10
412.1986039563357
 20
441.8246184307953
 30
0.0
 10
412.6963907949182
 20
441.8355618695893
 30
0.0
 10
413.2961068537043
 20
441.8491148933288
 30
0.0
 10
413.769772049451
 20
441.8601873727224
 30
0.0
 10
414.1795616982143
 20
441.8698488021739
 30
0.0
 10
414.3530731694634
 20
441.8739872898544
 30
0.0
 10
414.7692947194441
 20
441.8839503544492
 30
0.0
 10
414.9085371736715
 20
441.8873115970115
 30
0.0
 10
414.9085371736715
 20
441.8873806394892
 30
0.0
  0
LWPOLYLINE
  5
15F
330
1F
100
AcDbEntity
  8
0
  6
Continuous
 62
     7
370
    25
100
AcDbPolyline
 90
        9
 70
   128
 43
0.0
 10
371.9085364435
 20
441.6563529009
 10
371.9039580617
 20
441.6562411422
 10
371.8993778173
 20
441.6561293835
 10
371.8947994355
 20
441.6560176248
 10
371.8902191911
 20
441.6559058661
 10
371.8856408093
 20
441.6557941073
 10
371.8810605649
 20
441.6556823486
 10
371.8764821831
 20
441.6555705899
 10
371.8719019387
 20
441.6554588312
  0
LINE
  5
160
330
1F
100
AcDbEntity
  8
0
  6
Continuous
 62
     7
370
    25
100
AcDbLine
 10
393.4085371737
 20
441.6563529009
 30
0.0
 11
371.9085364435
 21
441.6563529009
 31
0.0
  0
LINE
  5
161
330
1F
100
AcDbEntity
  8
0
  6
Continuous
 62
     7
370
    25
100
AcDbLine
 10
499.408535922
 20
440.1319268579
 30
0.0
 11
499.408535922
 21
427.8582427138
 31
0.0
  0
SPLINE
  5
162
330
1F
100
AcDbEntity
  8
0
  6
Continuous
 62
     7
370
    25
100
AcDbSpline
210
0.0
220
0.0
230
1.0
 70
     8
 71
     3
 72
    10
 73
     6
 74
     0
 42
0.000000001
 43
0.00000001
 40
0.0
 40
0.0
 40
0.0
 40
0.0
 40
0.5
 40
0.5
 40
1.0
 40
1.0
 40
1.0
 40
1.0
 10
498.3623536303215
 20
429.8606395254741
 30
0.0
 10
498.2274103713289
 20
429.6853618000489
 30
0.0
 10
498.0730586173173
 20
429.5144239517117
 30
0.0
 10
497.7338570543624
 20
429.1893507695584
 30
0.0
 10
497.5548282537731
 20
429.0408866412599
 30
0.0
 10
497.3715923953985
 20
428.9111016964595
 30
0.0
  0
SPLINE
  5
163
330
1F
100
AcDbEntity
  8
0
  6
Continuous
 62
     7
370
    25
100
AcDbSpline
210
0.0
220
0.0
230
1.0
 70
     8
 71
     3
 72
    15
 73
    11
 74
     0
 42
0.000000001
 43
0.00000001
 40
0.0
 40
0.0
 40
0.0
 40
0.0
 40
0.050002833333333
 40
0.177781555555555
 40
0.25
 40
0.2555574444444439
 40
0.5
 40
0.6666666666666665
 40
0.75
 40
1.0
 40
1.0
 40
1.0
 40
1.0
 10
473.4085371736715
 20
412.0554343990839
 30
0.0
 10
473.140185609761
 20
412.0516872608982
 30
0.0
 10
472.1860822944438
 20
412.0382367340036
 30
0.0
 10
470.8444121291224
 20
412.0186828664469
 30
0.0
 10
469.7412750051984
 20
412.0020134536142
 30
0.0
 10
468.0120508795926
 20
411.9755221996483
 30
0.0
 10
465.7759819878926
 20
411.9397652441914
 30
0.0
 10
463.1225724404685
 20
411.894406181355
 30
0.0
 10
460.4393706334404
 20
411.8467372317502
 30
0.0
 10
458.6505982177082
 20
411.8133575712018
 30
0.0
 10
457.3090363048736
 20
411.7874221042734
 30
0.0
  0
SPLINE
  5
164
330
1F
100
AcDbEntity
  8
0
  6
Continuous
 62
     7
370
    25
100
AcDbSpline
210
0.0
220
0.0
230
1.0
 70
     8
 71
     3
 72
    10
 73
     6
 74
     0
 42
0.000000001
 43
0.00000001
 40
0.7460921414224639
 40
0.7460921414224639
 40
0.7460921414224639
 40
0.7460921414224639
 40
0.792898364986372
 40
0.8964491824931861
 40
0.9817041768353341
 40
0.9817041768353341
 40
0.9817041768353341
 40
0.9817041768353341
 10
473.4085371784368
 20
412.0554261154953
 30
0.0
 10
475.0061759696284
 20
412.0781565919068
 30
0.0
 10
480.1383468540035
 20
412.1492008189224
 30
0.0
 10
488.1805137038504
 20
412.2617896097738
 30
0.0
 10
494.6250414003633
 20
412.3517151852803
 30
0.0
 10
497.5350581161376
 20
412.3923382933799
 30
0.0
  0
LINE
  5
165
330
1F
100
AcDbEntity
  8
0
  6
Continuous
 62
     7
370
    25
100
AcDbLine
 10
491.4085793142
 20
441.7710843915
 30
0.0
 11
495.7860189323
 21
441.7007509107
 31
0.0
  0
SPLINE
  5
166
330
1F
100
AcDbEntity
  8
0
  6
Continuous
 62
     7
370
    25
100
AcDbSpline
210
0.0
220
0.0
230
1.0
 70
    24
 71
     3
 72
    24
 73
    20
 74
     0
 42
0.000000001
 43
0.00000001
 40
0.0
 40
0.0
 40
0.0
 40
0.0
 40
0.2500000000000003
 40
0.2500000000000003
 40
0.3750000000000004
 40
0.3750000000000004
 40
0.5000000000000006
 40
0.5000000000000006
 40
0.5625000000000001
 40
0.5625000000000001
 40
0.6249999999999996
 40
0.6249999999999996
 40
0.7499999999999998
 40
0.7499999999999998
 40
0.8124999999999999
 40
0.8124999999999999
 40
0.875
 40
0.875
 40
1.0
 40
1.0
 40
1.0
 40
1.0
 10
499.4085371736715
 20
427.8582431501293
 30
0.0
 10
499.4085371736715
 20
426.1842098285533
 30
0.0
 10
499.4085371736716
 20
424.5295123107651
 30
0.0
 10
499.4085371736716
 20
422.1506012336284
 30
0.0
 10
499.4085371736716
 20
421.3749419016739
 30
0.0
 10
499.4085371736715
 20
419.8941008616778
 30
0.0
 10
499.4085371736715
 20
419.1869789477101
 30
0.0
 10
499.4085371736716
 20
418.1969882491948
 30
0.0
 10
499.4085371736715
 20
417.8788338444064
 30
0.0
 10
499.4085371736716
 20
417.2705796324004
 30
0.0
 10
499.4085371736716
 20
416.9802519850607
 30
0.0
 10
499.4085371736715
 20
416.1743111062365
 30
0.0
 10
499.4085371736715
 20
415.7181264541775
 30
0.0
 10
499.4085371736715
 20
415.1704352082729
 30
0.0
 10
499.4085371736715
 20
415.0098991548056
 30
0.0
 10
499.4085371736714
 20
414.7392980593976
 30
0.0
 10
499.4085371736715
 20
414.6295267900362
 30
0.0
 10
499.4085371736715
 20
414.3707585364526
 30
0.0
 10
499.4085371736715
 20
414.292153189524
 30
0.0
 10
499.4085371736715
 20
414.292153189524
 30
0.0
  0
ARC
  5
167
330
1F
100
AcDbEntity
  8
0
  6
Continuous
 62
     7
370
    25
100
AcDbCircle
 10
497.5085371737
 20
414.2921531895
 30
0.0
 40
1.900000000000034
100
AcDbArc
 50
270.7997828526
 51
0.0
  0
LINE
  5
168
330
1F
100
AcDbEntity
  8
0
  6
Continuous
 62
     7
370
    25
100
AcDbLine
 10
416.4825121705
 20
451.3224455947
 30
0.0
 11
416.4825121705
 21
447.0584932202
 31
0.0
  0
LINE
  5
169
330
1F
100
AcDbEntity
  8
0
  6
Continuous
 62
     7
370
    25
100
AcDbLine
 10
434.3252035622
 20
473.7185481423
 30
0.0
 11
435.0442739968
 21
473.7482461566
 31
0.0
  0
SPLINE
  5
16A
330
1F
100
AcDbEntity
  8
0
  6
Continuous
 62
     7
370
    25
100
AcDbSpline
210
0.0
220
0.0
230
1.0
 70
     8
 71
     3
 72
     8
 73
     4
 74
     0
 42
0.000000001
 43
0.00000001
 40
0.0
 40
0.0
 40
0.0
 40
0.0
 40
1.0
 40
1.0
 40
1.0
 40
1.0
 10
416.6325113852468
 20
459.4906135850756
 30
0.0
 10
416.6683264349907
 20
459.6123781710299
 30
0.0
 10
416.7051153306642
 20
459.7294628644563
 30
0.0
 10
416.7424986652781
 20
459.8421415328908
 30
0.0
  0
SPLINE
  5
16B
330
1F
100
AcDbEntity
  8
0
  6
Continuous
 62
     7
370
    25
100
AcDbSpline
210
0.0
220
0.0
230
1.0
 70
     8
 71
     3
 72
    14
 73
    10
 74
     0
 42
0.000000001
 43
0.00000001
 40
0.0
 40
0.0
 40
0.0
 40
0.0
 40
0.2500000000000001
 40
0.2500000000000001
 40
0.5000000000000001
 40
0.5000000000000001
 40
0.7500000000000001
 40
0.7500000000000001
 40
1.0
 40
1.0
 40
1.0
 40
1.0
 10
416.2453610615203
 20
455.7966940425946
 30
0.0
 10
416.2305818380661
 20
456.0736311254222
 30
0.0
 10
416.2241144713088
 20
456.3674012993841
 30
0.0
 10
416.2360149438611
 20
456.9895043725052
 30
0.0
 10
416.2544078053625
 20
457.3080620145463
 30
0.0
 10
416.3189221328126
 20
457.9487101323977
 30
0.0
 10
416.3658134886659
 20
458.274330767424
 30
0.0
 10
416.482555760833
 20
458.8974580003853
 30
0.0
 10
416.5533156786172
 20
459.2016016501925
 30
0.0
 10
416.6325113852468
 20
459.4906135850754
 30
0.0
  0
ARC
  5
16C
330
1F
100
AcDbEntity
  8
0
  6
Continuous
 62
     7
370
    25
100
AcDbCircle
 10
416.2825113852
 20
447.0584947604
 30
0.0
 40
0.1999999999999886
100
AcDbArc
 50
270.0
 51
0.0
  0
LINE
  5
16D
330
1F
100
AcDbEntity
  8
0
  6
Continuous
 62
     7
370
    25
100
AcDbLine
 10
416.2825106476
 20
446.8584972853
 30
0.0
 11
407.3607719336
 21
446.8584972853
 31
0.0
  0
SPLINE
  5
16E
330
1F
100
AcDbEntity
  8
0
  6
Continuous
 62
     7
370
    25
100
AcDbSpline
210
0.0
220
0.0
230
1.0
 70
    24
 71
     3
 72
     9
 73
     5
 74
     0
 42
0.000000001
 43
0.00000001
 40
0.0
 40
0.0
 40
0.0
 40
0.0
 40
0.4287548796674702
 40
1.0
 40
1.0
 40
1.0
 40
1.0
 10
499.408535921974
 20
440.1647764677044
 30
0.0
 10
499.408535921974
 20
440.1633345573822
 30
0.0
 10
499.408535921974
 20
440.1599715395123
 30
0.0
 10
499.408535921974
 20
440.1421228402248
 30
0.0
 10
499.408535921974
 20
440.1319268578525
 30
0.0
  0
SPLINE
  5
16F
330
1F
100
AcDbEntity
  8
0
  6
Continuous
 62
     7
370
    25
100
AcDbSpline
210
0.0
220
0.0
230
1.0
 70
    24
 71
     3
 72
     8
 73
     4
 74
     0
 42
0.000000001
 43
0.00000001
 40
0.0
 40
0.0
 40
0.0
 40
0.0
 40
1.0
 40
1.0
 40
1.0
 40
1.0
 10
436.2948319893787
 20
473.7569829812621
 30
0.0
 10
434.7745840003955
 20
473.74636947569
 30
0.0
 10
433.2543331931192
 20
473.7357559504422
 30
0.0
 10
431.7345774581518
 20
473.7251458815072
 30
0.0
  0
LINE
  5
170
330
1F
100
AcDbEntity
  8
0
  6
Continuous
 62
     7
370
    25
100
AcDbLine
 10
476.7992648129
 20
474.039757573
 30
0.0
 11
436.2948315982
 21
473.7569782371
 31
0.0
  0
LINE
  5
171
330
1F
100
AcDbEntity
  8
0
  6
Continuous
 62
     7
370
    25
100
AcDbLine
 10
479.4825094585
 20
477.1584961051
 30
0.0
 11
479.4825094585
 21
475.5480531091
 31
0.0
  0
ARC
  5
172
330
1F
100
AcDbEntity
  8
0
  6
Continuous
 62
     7
370
    25
100
AcDbCircle
 10
477.9825113852
 20
475.5480591696
 30
0.0
 40
1.500000000000211
100
AcDbArc
 50
270.4
 51
0.0
  0
SPLINE
  5
173
330
1F
100
AcDbEntity
  8
0
  6
Continuous
 62
     7
370
    25
100
AcDbSpline
210
0.0
220
0.0
230
1.0
 70
    24
 71
     3
 72
    26
 73
    22
 74
     0
 42
0.000000001
 43
0.00000001
 40
0.0
 40
0.0
 40
0.0
 40
0.0
 40
0.2500000000000166
 40
0.2500000000000166
 40
0.3750000000000236
 40
0.3750000000000236
 40
0.4375000000000294
 40
0.4375000000000294
 40
0.4687500000000289
 40
0.4687500000000289
 40
0.5000000000000283
 40
0.5000000000000283
 40
0.5312500000000279
 40
0.5312500000000279
 40
0.5625000000000272
 40
0.5625000000000272
 40
0.6250000000000262
 40
0.6250000000000262
 40
0.750000000000024
 40
0.750000000000024
 40
1.0
 40
1.0
 40
1.0
 40
1.0
 10
477.9929832756938
 20
474.0480957235478
 30
0.0
 10
477.9929832756939
 20
474.0480957235478
 30
0.0
 10
477.9937647632354
 20
474.0481011794485
 30
0.0
 10
477.9700586883231
 20
474.0479356771357
 30
0.0
 10
477.9580184744382
 20
474.0478516192202
 30
0.0
 10
477.9278650094387
 20
474.047641104902
 30
0.0
 10
477.9157521964545
 20
474.0475565401409
 30
0.0
 10
477.892538432933
 20
474.0473944748658
 30
0.0
 10
477.8839837559256
 20
474.0473347509835
 30
0.0
 10
477.8640197984848
 20
474.0471953740035
 30
0.0
 10
477.8539503405636
 20
474.0471250747834
 30
0.0
 10
477.8202238130087
 20
474.0468896153776
 30
0.0
 10
477.7999635167962
 20
474.0467481695292
 30
0.0
 10
477.7597588693074
 20
474.0464674835797
 30
0.0
 10
477.7391872113187
 20
474.0463238639807
 30
0.0
 10
477.676635747862
 20
474.0458871652903
 30
0.0
 10
477.6337544530733
 20
474.0455877925138
 30
0.0
 10
477.503438855196
 20
474.0446780032332
 30
0.0
 10
477.4159611601331
 20
474.0440672837909
 30
0.0
 10
477.1526567027873
 20
474.04222904204
 30
0.0
 10
476.9759349377438
 20
474.0409952713319
 30
0.0
 10
476.7992664322915
 20
474.0397618724518
 30
0.0
  0
ARC
  5
174
330
1F
100
AcDbEntity
  8
0
  6
Continuous
 62
     7
370
    25
100
AcDbCircle
 10
477.9825113852
 20
477.1584947604
 30
0.0
 40
1.500000000001329
100
AcDbArc
 50
0.0
 51
88.08978683820001
  0
LINE
  5
175
330
1F
100
AcDbEntity
  8
0
  6
Continuous
 62
     7
370
    25
100
AcDbLine
 10
503.5085382704
 20
416.2675309414
 30
0.0
 11
503.5085382704
 21
437.5694561237
 31
0.0
  0
LINE
  5
176
330
1F
100
AcDbEntity
  8
0
  6
Continuous
 62
     7
370
    25
100
AcDbLine
 10
502.7585404758
 20
414.968492412
 30
0.0
 11
502.7585404758
 21
424.1031277412
 31
0.0
  0
SPLINE
  5
177
330
1F
100
AcDbEntity
  8
0
  6
Continuous
 62
     7
370
    25
100
AcDbSpline
210
0.0
220
0.0
230
1.0
 70
     8
 71
     3
 72
    14
 73
    10
 74
     0
 42
0.000000001
 43
0.00000001
 40
0.0
 40
0.0
 40
0.0
 40
0.0
 40
0.4999999999999953
 40
0.4999999999999953
 40
0.6249999999999952
 40
0.6249999999999952
 40
0.7499999999999952
 40
0.7499999999999952
 40
1.0
 40
1.0
 40
1.0
 40
1.0
 10
502.7585371788965
 20
424.1031254475903
 30
0.0
 10
503.1057324700278
 20
425.6216124300395
 30
0.0
 10
503.305640403392
 20
427.1505569918755
 30
0.0
 10
503.3073556470017
 20
429.0793580389142
 30
0.0
 10
503.2956301644802
 20
429.4659751285351
 30
0.0
 10
503.248121073564
 20
430.2409174636086
 30
0.0
 10
503.212217347738
 20
430.6299759249711
 30
0.0
 10
503.0710951907284
 20
431.7900770150636
 30
0.0
 10
502.9324629079759
 20
432.5563790582723
 30
0.0
 10
502.7585371754687
 20
433.3170574622814
 30
0.0
  0
LINE
  5
178
330
1F
100
AcDbEntity
  8
0
  6
Continuous
 62
     7
370
    25
100
AcDbLine
 10
502.7585404758
 20
433.3170595998
 30
0.0
 11
502.7585404758
 21
438.8684946531
 31
0.0
  0
LINE
  5
179
330
1F
100
AcDbEntity
  8
0
  6
Continuous
 62
     7
370
    25
100
AcDbLine
 10
502.7585404758
 20
433.3170595998
 30
0.0
 11
499.8085352425
 21
433.3170595998
 31
0.0
  0
LINE
  5
17A
330
1F
100
AcDbEntity
  8
0
  6
Continuous
 62
     7
370
    25
100
AcDbLine
 10
499.8085352425
 20
424.1031277412
 30
0.0
 11
502.7585404758
 21
424.1031277412
 31
0.0
  0
LINE
  5
17B
330
1F
100
AcDbEntity
  8
0
  6
Continuous
 62
     7
370
    25
100
AcDbLine
 10
499.8085352425
 20
433.3170595998
 30
0.0
 11
499.8085352425
 21
424.1031277412
 31
0.0
  0
LINE
  5
17C
330
1F
100
AcDbEntity
  8
0
  6
Continuous
 62
     7
370
    25
100
AcDbLine
 10
370.408537129
 20
384.0795587236
 30
0.0
 11
370.408537129
 21
376.0265577072
 31
0.0
  0
SPLINE
  5
17D
330
1F
100
AcDbEntity
  8
0
  6
Continuous
 62
     7
370
    25
100
AcDbSpline
210
0.0
220
0.0
230
1.0
 70
     8
 71
     3
 72
    36
 73
    32
 74
     0
 42
0.000000001
 43
0.00000001
 40
0.0
 40
0.0
 40
0.0
 40
0.0
 40
0.0312500000000002
 40
0.0312500000000002
 40
0.0625000000000003
 40
0.0625000000000003
 40
0.1250000000000007
 40
0.1250000000000007
 40
0.187500000000001
 40
0.187500000000001
 40
0.2500000000000013
 40
0.2500000000000013
 40
0.3750000000000019
 40
0.3750000000000019
 40
0.5000000000000027
 40
0.5000000000000027
 40
0.6250000000000033
 40
0.6250000000000033
 40
0.7500000000000022
 40
0.7500000000000022
 40
0.8125000000000018
 40
0.8125000000000018
 40
0.8750000000000012
 40
0.8750000000000012
 40
0.9062500000000009
 40
0.9062500000000009
 40
0.9375000000000007
 40
0.9375000000000007
 40
0.9687500000000003
 40
0.9687500000000003
 40
1.0
 40
1.0
 40
1.0
 40
1.0
 10
370.4085371736715
 20
394.7574290855288
 30
0.0
 10
370.4085371736715
 20
394.7574290855288
 30
0.0
 10
370.4096794495672
 20
394.7197138406963
 30
0.0
 10
370.4132670144972
 20
394.5988067633777
 30
0.0
 10
370.4156896530043
 20
394.5161697212224
 30
0.0
 10
370.423467315291
 20
394.2436446554569
 30
0.0
 10
370.4294276187088
 20
394.0254359537582
 30
0.0
 10
370.4407972330573
 20
393.5789730638018
 30
0.0
 10
370.446335936779
 20
393.3466709197464
 30
0.0
 10
370.4567671041747
 20
392.8714312185705
 30
0.0
 10
370.4616809474721
 20
392.6273862369506
 30
0.0
 10
370.4750130086767
 20
391.8927599610598
 30
0.0
 10
370.4820811066032
 20
391.3978106532758
 30
0.0
 10
370.4920539795191
 20
390.4006797954449
 30
0.0
 10
370.4949635171879
 20
389.8984107297779
 30
0.0
 10
370.4961340255133
 20
388.8867899251495
 30
0.0
 10
370.494379811371
 20
388.3826627218989
 30
0.0
 10
370.4860453872134
 20
387.3826815926504
 30
0.0
 10
370.479460401427
 20
386.8860679079735
 30
0.0
 10
370.4659262687534
 20
386.1489172030231
 30
0.0
 10
370.4608086292076
 20
385.9049853521739
 30
0.0
 10
370.4496148210861
 20
385.4291224014332
 30
0.0
 10
370.443497753626
 20
385.1958377591046
 30
0.0
 10
370.4341125117691
 20
384.8675457904901
 30
0.0
 10
370.4309451444103
 20
384.761479178095
 30
0.0
 10
370.424677336182
 20
384.5590905810189
 30
0.0
 10
370.4215675964352
 20
384.462576661606
 30
0.0
 10
370.4159309837961
 20
384.2924213003224
 30
0.0
 10
370.4133676479756
 20
384.2176796862427
 30
0.0
 10
370.4096779193265
 20
384.1115605770378
 30
0.0
 10
370.4085371736715
 20
384.0795604353121
 30
0.0
 10
370.4085371736715
 20
384.0795604353121
 30
0.0
  0
LINE
  5
17E
330
1F
100
AcDbEntity
  8
0
  6
Continuous
 62
     7
370
    25
100
AcDbLine
 10
370.408537129
 20
413.8489160174
 30
0.0
 11
370.408537129
 21
394.7574290866
 31
0.0
  0
LINE
  5
17F
330
1F
100
AcDbEntity
  8
0
  6
Continuous
 62
     7
370
    25
100
AcDbLine
 10
416.4085372184
 20
376.0265577072
 30
0.0
 11
416.4085372184
 21
383.0141219729
 31
0.0
  0
SPLINE
  5
180
330
1F
100
AcDbEntity
  8
0
  6
Continuous
 62
     7
370
    25
100
AcDbSpline
210
0.0
220
0.0
230
1.0
 70
     8
 71
     3
 72
    11
 73
     7
 74
     0
 42
0.000000001
 43
0.00000001
 40
0.461164446078584
 40
0.461164446078584
 40
0.461164446078584
 40
0.461164446078584
 40
0.500614806345409
 40
0.585796729972744
 40
0.585796729972744
 40
0.588863311020223
 40
0.588863311020223
 40
0.588863311020223
 40
0.588863311020223
 10
444.2334517222171
 20
411.5061267598949
 30
0.0
 10
445.5799268614642
 20
411.5380299540529
 30
0.0
 10
449.833816421658
 20
411.6359548415671
 30
0.0
 10
454.0877728414215
 20
411.7248261589023
 30
0.0
 10
457.0997100966794
 20
411.783369226321
 30
0.0
 10
457.2043731535575
 20
411.7853985233901
 30
0.0
 10
457.3090363073034
 20
411.7874227464945
 30
0.0
  0
LINE
  5
181
330
1F
100
AcDbEntity
  8
0
  6
Continuous
 62
     7
370
    25
100
AcDbLine
 10
416.6325109843
 20
453.8584891194
 30
0.0
 11
416.6325109843
 21
459.4906065101
 31
0.0
  0
SPLINE
  5
182
330
1F
100
AcDbEntity
  8
0
  6
Continuous
 62
     7
370
    25
100
AcDbSpline
210
0.0
220
0.0
230
1.0
 70
     8
 71
     3
 72
    11
 73
     7
 74
     0
 42
0.000000001
 43
0.00000001
 40
0.0
 40
0.0
 40
0.0
 40
0.0
 40
0.3070009705507095
 40
0.6345315764155685
 40
0.962691057538368
 40
1.0
 40
1.0
 40
1.0
 40
1.0
 10
416.2455576304624
 20
455.7978901499744
 30
0.0
 10
416.2745975421283
 20
455.4550249383981
 30
0.0
 10
416.3346193097966
 20
454.7463665820114
 30
0.0
 10
416.4400961497772
 20
454.0991412557873
 30
0.0
 10
416.4908083477648
 20
453.8020538852751
 30
0.0
 10
416.4785770630237
 20
453.8737592212653
 30
0.0
 10
416.4773284290264
 20
453.8810792798038
 30
0.0
  0
SPLINE
  5
183
330
1F
100
AcDbEntity
  8
0
  6
Continuous
 62
     7
370
    25
100
AcDbSpline
210
0.0
220
0.0
230
1.0
 70
     8
 71
     3
 72
    10
 73
     6
 74
     0
 42
0.000000001
 43
0.00000001
 40
0.0
 40
0.0
 40
0.0
 40
0.0
 40
0.5
 40
0.5
 40
1.0
 40
1.0
 40
1.0
 40
1.0
 10
417.233058755168
 20
461.0679056953624
 30
0.0
 10
417.1631269478569
 20
460.9196638881182
 30
0.0
 10
417.0837447144115
 20
460.7431892591936
 30
0.0
 10
416.9162095887958
 20
460.3339266015162
 30
0.0
 10
416.8274293491515
 20
460.0991337180963
 30
0.0
 10
416.7418872816928
 20
459.84075812652
 30
0.0
  0
SPLINE
  5
184
330
1F
100
AcDbEntity
  8
0
  6
Continuous
 62
     7
370
    25
100
AcDbSpline
210
0.0
220
0.0
230
1.0
 70
     8
 71
     3
 72
    16
 73
    12
 74
     0
 42
0.000000001
 43
0.00000001
 40
0.0
 40
0.0
 40
0.0
 40
0.0
 40
0.0624999999999997
 40
0.0624999999999997
 40
0.1249999999999994
 40
0.1249999999999994
 40
0.2499999999999996
 40
0.2499999999999996
 40
0.4999999999999993
 40
0.4999999999999993
 40
1.0
 40
1.0
 40
1.0
 40
1.0
 10
417.3632338312328
 20
461.2723605892381
 30
0.0
 10
417.3649652578849
 20
461.2814772912679
 30
0.0
 10
417.3648478895842
 20
461.2846954286654
 30
0.0
 10
417.3640817360005
 20
461.2896437439724
 30
0.0
 10
417.3631995652458
 20
461.2906116597042
 30
0.0
 10
417.3598074839734
 20
461.2912225877944
 30
0.0
 10
417.3565249623458
 20
461.2885890641273
 30
0.0
 10
417.3448893309325
 20
461.2758298168188
 30
0.0
 10
417.3346120390719
 20
461.2604992987471
 30
0.0
 10
417.2990223690243
 20
461.2011584063259
 30
0.0
 10
417.2687963095342
 20
461.1436623481563
 30
0.0
 10
417.233058755168
 20
461.0679056953621
 30
0.0
  0
LINE
  5
185
330
1F
100
AcDbEntity
  8
0
  6
Continuous
 62
     7
370
    25
100
AcDbLine
 10
434.3246559445
 20
473.7122002477
 30
0.0
 11
435.0444230084
 21
473.7482461566
 31
0.0
  0
LWPOLYLINE
  5
186
330
1F
100
AcDbEntity
  8
0
  6
Continuous
 62
     7
370
    25
100
AcDbPolyline
 90
       12
 70
   128
 43
0.0
 10
351.2725273911
 20
395.3197095031
 10
351.2722889725
 20
395.3265416855
 10
351.266648883
 20
395.4880628222
 10
351.2540797536
 20
395.8479407662
 10
351.2359487657
 20
396.3671791786
 10
351.2142154221
 20
396.9895038241
 10
351.1912415568
 20
397.6474869484
 10
351.1695082132
 20
398.2698115939
 10
351.1513772253
 20
398.7890425557
 10
351.1388080959
 20
399.1489279503
 10
351.1331680063
 20
399.310449087
 10
351.1329295878
 20
399.3172738189
  0
LINE
  5
187
330
1F
100
AcDbEntity
  8
0
  6
Continuous
 62
     7
370
    25
100
AcDbLine
 10
491.4317953233
 20
441.770898127
 30
0.0
 11
491.4085048083
 21
441.7737591499
 31
0.0
  0
LINE
  5
188
330
1F
100
AcDbEntity
  8
0
  6
Continuous
 62
     7
370
    25
100
AcDbLine
 10
192.964891405
 20
149.1862487113
 30
0.0
 11
192.964891405
 21
148.7862493908
 31
0.0
  0
LINE
  5
189
330
1F
100
AcDbEntity
  8
0
  6
Continuous
 62
     7
370
    25
100
AcDbLine
 10
216.8648917835
 20
148.7862493908
 30
0.0
 11
216.8648917835
 21
149.1862487113
 31
0.0
  0
LINE
  5
18A
330
1F
100
AcDbEntity
  8
0
  6
Continuous
 62
     7
370
    25
100
AcDbLine
 10
193.7567698445
 20
145.3790541804
 30
0.0
 11
194.2639299344
 21
145.0862463629
 31
0.0
  0
LINE
  5
18B
330
1F
100
AcDbEntity
  8
0
  6
Continuous
 62
     7
370
    25
100
AcDbLine
 10
215.5658532541
 20
145.0862463629
 30
0.0
 11
216.0742799427
 21
145.3797843373
 31
0.0
  0
LINE
  5
18C
330
1F
100
AcDbEntity
  8
0
  6
Continuous
 62
     7
370
    25
100
AcDbLine
 10
206.9148916892
 20
280.5516410684
 30
0.0
 11
206.9148916892
 21
284.3999758428
 31
0.0
  0
LINE
  5
18D
330
1F
100
AcDbEntity
  8
0
  6
Continuous
 62
     7
370
    25
100
AcDbLine
 10
202.9148914992
 20
284.3999758428
 30
0.0
 11
202.9148914992
 21
280.5516410684
 31
0.0
  0
LINE
  5
18E
330
1F
100
AcDbEntity
  8
0
  6
Continuous
 62
     7
370
    25
100
AcDbLine
 10
202.9148914992
 20
297.3920542812
 30
0.0
 11
202.9148914992
 21
284.3999758428
 31
0.0
  0
LINE
  5
18F
330
1F
100
AcDbEntity
  8
0
  6
Continuous
 62
     7
370
    25
100
AcDbLine
 10
206.9148916892
 20
284.3999758428
 30
0.0
 11
206.9148916892
 21
297.3920542812
 31
0.0
  0
LINE
  5
190
330
1F
100
AcDbEntity
  8
0
  6
Continuous
 62
     7
370
    25
100
AcDbLine
 10
202.9148914992
 20
280.5516410684
 30
0.0
 11
202.9148914992
 21
278.100258491
 31
0.0
  0
LINE
  5
191
330
1F
100
AcDbEntity
  8
0
  6
Continuous
 62
     7
370
    25
100
AcDbLine
 10
206.9148916892
 20
278.0991260028
 30
0.0
 11
206.9148916892
 21
280.5516410684
 31
0.0
  0
SPLINE
  5
192
330
1F
100
AcDbEntity
  8
0
  6
Continuous
 62
     7
370
    25
100
AcDbSpline
210
0.0
220
0.0
230
1.0
 70
     8
 71
     3
 72
    26
 73
    22
 74
     0
 42
0.000000001
 43
0.00000001
 40
0.0
 40
0.0
 40
0.0
 40
0.0
 40
0.0625
 40
0.0625
 40
0.125
 40
0.125
 40
0.1875
 40
0.1875
 40
0.25
 40
0.25
 40
0.3749999999999998
 40
0.3749999999999998
 40
0.4999999999999997
 40
0.4999999999999997
 40
0.5624999999999998
 40
0.5624999999999998
 40
0.6249999999999999
 40
0.6249999999999999
 40
0.75
 40
0.75
 40
1.0
 40
1.0
 40
1.0
 40
1.0
 10
226.5827720885311
 20
247.6094901679039
 30
0.0
 10
226.4847969107158
 20
247.3255739120426
 30
0.0
 10
226.3722932141787
 20
247.0173711981411
 30
0.0
 10
226.1159302295757
 20
246.3173337483443
 30
0.0
 10
225.9721160171442
 20
245.9256371521762
 30
0.0
 10
225.6562181431595
 20
245.0443159997449
 30
0.0
 10
225.4841795572406
 20
244.554829583209
 30
0.0
 10
225.1188613548823
 20
243.4799755484811
 30
0.0
 10
224.9256268140772
 20
242.8947460700163
 30
0.0
 10
224.3284892845307
 20
241.016603726879
 30
0.0
 10
223.9073448810077
 20
239.5996963131022
 30
0.0
 10
223.1051615247509
 20
236.6297409827953
 30
0.0
 10
222.725564992315
 20
235.0811135375377
 30
0.0
 10
222.2354694769602
 20
232.80500225117
 30
0.0
 10
222.0850022754985
 20
232.0536597912771
 30
0.0
 10
221.8120580881068
 20
230.5784961059955
 30
0.0
 10
221.6895342673817
 20
229.8546278731152
 30
0.0
 10
221.3598158869756
 20
227.726378693535
 30
0.0
 10
221.1901626046103
 20
226.3655643591429
 30
0.0
 10
220.7945208388366
 20
222.4273552794899
 30
0.0
 10
220.6811057876283
 20
219.9926798318206
 30
0.0
 10
220.6259232984258
 20
217.5955191540673
 30
0.0
  0
SPLINE
  5
193
330
1F
100
AcDbEntity
  8
0
  6
Continuous
 62
     7
370
    25
100
AcDbSpline
210
0.0
220
0.0
230
1.0
 70
     8
 71
     3
 72
    26
 73
    22
 74
     0
 42
0.000000001
 43
0.00000001
 40
0.0
 40
0.0
 40
0.0
 40
0.0
 40
0.2499999999999997
 40
0.2499999999999997
 40
0.3749999999999995
 40
0.3749999999999995
 40
0.4374999999999996
 40
0.4374999999999996
 40
0.4999999999999997
 40
0.4999999999999997
 40
0.6249999999999998
 40
0.6249999999999998
 40
0.7499999999999999
 40
0.7499999999999999
 40
0.8124999999999999
 40
0.8124999999999999
 40
0.8749999999999999
 40
0.8749999999999999
 40
0.9375
 40
0.9375
 40
1.0
 40
1.0
 40
1.0
 40
1.0
 10
189.055911466844
 20
217.5955191540673
 30
0.0
 10
189.0007289776415
 20
219.9926798318206
 30
0.0
 10
188.8873139264332
 20
222.4273552794899
 30
0.0
 10
188.4916721606594
 20
226.3655643591429
 30
0.0
 10
188.3220188782942
 20
227.726378693535
 30
0.0
 10
187.9923004978881
 20
229.8546278731152
 30
0.0
 10
187.869776677163
 20
230.5784961059956
 30
0.0
 10
187.5968324897713
 20
232.0536597912771
 30
0.0
 10
187.4463652883097
 20
232.80500225117
 30
0.0
 10
186.9562697729548
 20
235.0811135375377
 30
0.0
 10
186.5766732405189
 20
236.6297409827953
 30
0.0
 10
185.7744898842622
 20
239.5996963131022
 30
0.0
 10
185.353345480739
 20
241.016603726879
 30
0.0
 10
184.7562079511926
 20
242.8947460700163
 30
0.0
 10
184.5629734103875
 20
243.4799755484811
 30
0.0
 10
184.1976552080292
 20
244.554829583209
 30
0.0
 10
184.0256166221103
 20
245.0443159997449
 30
0.0
 10
183.7097187481256
 20
245.9256371521762
 30
0.0
 10
183.5659045356941
 20
246.3173337483443
 30
0.0
 10
183.3095415510911
 20
247.0173711981411
 30
0.0
 10
183.197037854554
 20
247.3255739120426
 30
0.0
 10
183.0990626767387
 20
247.6094901679039
 30
0.0
  0
SPLINE
  5
194
330
1F
100
AcDbEntity
  8
0
  6
Continuous
 62
     7
370
    25
100
AcDbSpline
210
0.0
220
0.0
230
1.0
 70
     8
 71
     3
 72
    22
 73
    18
 74
     0
 42
0.000000001
 43
0.00000001
 40
0.0
 40
0.0
 40
0.0
 40
0.0
 40
0.125
 40
0.125
 40
0.25
 40
0.25
 40
0.375
 40
0.375
 40
0.5
 40
0.5
 40
0.625
 40
0.625
 40
0.75
 40
0.75
 40
0.875
 40
0.875
 40
1.0
 40
1.0
 40
1.0
 40
1.0
 10
220.354980656399
 20
171.7981361457032
 30
0.0
 10
220.3539942312056
 20
171.6097445327242
 30
0.0
 10
220.3524634450138
 20
171.4203233538198
 30
0.0
 10
220.3249499989942
 20
171.0381428716819
 30
0.0
 10
220.2990829111159
 20
170.8458239020156
 30
0.0
 10
220.2107492228555
 20
170.4742330910093
 30
0.0
 10
220.148398194423
 20
170.2954015832364
 30
0.0
 10
219.9824661965722
 20
169.9707445196556
 30
0.0
 10
219.8790007991037
 20
169.8253592974148
 30
0.0
 10
219.6302596865998
 20
169.5779171925043
 30
0.0
 10
219.4843347161847
 20
169.475214445079
 30
0.0
 10
219.1588132889833
 20
169.3109846144257
 30
0.0
 10
218.9796577648588
 20
169.2495707959921
 30
0.0
 10
218.6076095355305
 20
169.1631839546346
 30
0.0
 10
218.4151577629886
 20
169.1383241965053
 30
0.0
 10
218.0328384602779
 20
169.1128122108147
 30
0.0
 10
217.843411862771
 20
169.1122732480481
 30
0.0
 10
217.655017667331
 20
169.1122732480481
 30
0.0
  0
SPLINE
  5
195
330
1F
100
AcDbEntity
  8
0
  6
Continuous
 62
     7
370
    25
100
AcDbSpline
210
0.0
220
0.0
230
1.0
 70
     8
 71
     3
 72
    22
 73
    18
 74
     0
 42
0.000000001
 43
0.00000001
 40
0.0
 40
0.0
 40
0.0
 40
0.0
 40
0.125
 40
0.125
 40
0.25
 40
0.25
 40
0.375
 40
0.375
 40
0.5
 40
0.5
 40
0.625
 40
0.625
 40
0.75
 40
0.75
 40
0.875
 40
0.875
 40
1.0
 40
1.0
 40
1.0
 40
1.0
 10
192.0268170979388
 20
169.1122732480481
 30
0.0
 10
191.8384229024988
 20
169.1122732480481
 30
0.0
 10
191.6489963049919
 20
169.1128122108147
 30
0.0
 10
191.2666770022813
 20
169.1383241965053
 30
0.0
 10
191.0742252297393
 20
169.1631839546346
 30
0.0
 10
190.702177000411
 20
169.2495707959921
 30
0.0
 10
190.5230214762865
 20
169.3109846144257
 30
0.0
 10
190.1975000490851
 20
169.475214445079
 30
0.0
 10
190.05157507867
 20
169.5779171925043
 30
0.0
 10
189.8028339661662
 20
169.8253592974148
 30
0.0
 10
189.6993685686976
 20
169.9707445196556
 30
0.0
 10
189.5334365708469
 20
170.2954015832364
 30
0.0
 10
189.4710855424143
 20
170.4742330910093
 30
0.0
 10
189.3827518541539
 20
170.8458239020156
 30
0.0
 10
189.3568847662757
 20
171.0381428716819
 30
0.0
 10
189.329371320256
 20
171.4203233538198
 30
0.0
 10
189.3278405340641
 20
171.6097445327242
 30
0.0
 10
189.3268541088708
 20
171.7981361457032
 30
0.0
  0
SPLINE
  5
196
330
1F
100
AcDbEntity
  8
0
  6
Continuous
 62
     7
370
    25
100
AcDbSpline
210
0.0
220
0.0
230
1.0
 70
     8
 71
     3
 72
    10
 73
     6
 74
     0
 42
0.000000001
 43
0.00000001
 40
0.0
 40
0.0
 40
0.0
 40
0.0
 40
0.5
 40
0.5
 40
1.0
 40
1.0
 40
1.0
 40
1.0
 10
220.6259232984258
 20
217.5955191540673
 30
0.0
 10
220.6055153403356
 20
216.7089851220909
 30
0.0
 10
220.5931842187258
 20
215.8275878151507
 30
0.0
 10
220.5762674710892
 20
214.0652205894097
 30
0.0
 10
220.5716791678035
 20
213.1841250377138
 30
0.0
 10
220.5670633173309
 20
212.3025705886447
 30
0.0
  0
SPLINE
  5
197
330
1F
100
AcDbEntity
  8
0
  6
Continuous
 62
     7
370
    25
100
AcDbSpline
210
0.0
220
0.0
230
1.0
 70
     8
 71
     3
 72
    10
 73
     6
 74
     0
 42
0.000000001
 43
0.00000001
 40
0.0
 40
0.0
 40
0.0
 40
0.0
 40
0.5
 40
0.5
 40
1.0
 40
1.0
 40
1.0
 40
1.0
 10
189.1147714479389
 20
212.3025705886447
 30
0.0
 10
189.1101555974664
 20
213.1841250377138
 30
0.0
 10
189.1055672941806
 20
214.0652205894097
 30
0.0
 10
189.088650546544
 20
215.8275878151507
 30
0.0
 10
189.0763194249342
 20
216.7089851220909
 30
0.0
 10
189.055911466844
 20
217.5955191540674
 30
0.0
  0
LINE
  5
198
330
1F
100
AcDbEntity
  8
0
  6
Continuous
 62
     7
370
    25
100
AcDbLine
 10
220.5670638616
 20
212.3025719142
 30
0.0
 11
220.354980291
 21
171.7981349742
 31
0.0
  0
LINE
  5
199
330
1F
100
AcDbEntity
  8
0
  6
Continuous
 62
     7
370
    25
100
AcDbLine
 10
189.3268539246
 20
171.7981349742
 30
0.0
 11
189.1147712852
 21
212.3025719142
 31
0.0
  0
LINE
  5
19A
330
1F
100
AcDbEntity
  8
0
  6
Continuous
 62
     7
370
    25
100
AcDbLine
 10
204.8409173843
 20
169.1122751748
 30
0.0
 11
192.0268167417
 21
169.1122751748
 31
0.0
  0
LINE
  5
19B
330
1F
100
AcDbEntity
  8
0
  6
Continuous
 62
     7
370
    25
100
AcDbLine
 10
217.6550174739
 20
169.1122751748
 30
0.0
 11
204.8409173843
 21
169.1122751748
 31
0.0
  0
ARC
  5
19C
330
1F
100
AcDbEntity
  8
0
  6
Continuous
 62
     7
370
    25
100
AcDbCircle
 10
204.8409173826
 20
255.112273248
 30
0.0
 40
22.99999999999999
100
AcDbArc
 50
340.9612250535999
 51
90.0
  0
ARC
  5
19D
330
1F
100
AcDbEntity
  8
0
  6
Continuous
 62
     7
370
    25
100
AcDbCircle
 10
204.8409173826
 20
255.112273248
 30
0.0
 40
22.99999999999997
100
AcDbArc
 50
90.0
 51
199.0387749463999
  0
SPLINE
  5
19E
330
1F
100
AcDbEntity
  8
0
  6
Continuous
 62
     7
370
    25
100
AcDbSpline
210
0.0
220
0.0
230
1.0
 70
     8
 71
     3
 72
     8
 73
     4
 74
     0
 42
0.000000001
 43
0.00000001
 40
0.0
 40
0.0
 40
0.0
 40
0.0
 40
1.0
 40
1.0
 40
1.0
 40
1.0
 10
227.9148915942103
 20
255.1862474596218
 30
0.0
 10
227.9148915942102
 20
253.9648100080056
 30
0.0
 10
227.8182066637648
 20
252.7510743530377
 30
0.0
 10
227.6248368344972
 20
251.5450406290286
 30
0.0
  0
SPLINE
  5
19F
330
1F
100
AcDbEntity
  8
0
  6
Continuous
 62
     7
370
    25
100
AcDbSpline
210
0.0
220
0.0
230
1.0
 70
     8
 71
     3
 72
    12
 73
     8
 74
     0
 42
0.000000001
 43
0.00000001
 40
0.0
 40
0.0
 40
0.0
 40
0.0
 40
0.2459257852785024
 40
0.4921155314908222
 40
0.7626461330183377
 40
0.9832594246597419
 40
1.0
 40
1.0
 40
1.0
 40
1.0
 10
184.2223959650189
 20
226.5360456025334
 30
0.0
 10
184.2191191827272
 20
228.5284659337015
 30
0.0
 10
184.2125621010564
 20
232.5154451319808
 30
0.0
 10
183.9197144738262
 20
238.689995078682
 30
0.0
 10
183.2945975018618
 20
244.6333072224007
 30
0.0
 10
182.6931745156873
 20
248.7046874993772
 30
0.0
 10
182.3671337865303
 20
250.5996822197072
 30
0.0
 10
182.3441381241471
 20
250.7333362540336
 30
0.0
  0
SPLINE
  5
1A0
330
1F
100
AcDbEntity
  8
0
  6
Continuous
 62
     7
370
    25
100
AcDbSpline
210
0.0
220
0.0
230
1.0
 70
     8
 71
     3
 72
    18
 73
    14
 74
     0
 42
0.000000001
 43
0.00000001
 40
0.0
 40
0.0
 40
0.0
 40
0.0
 40
0.0624999999999999
 40
0.0624999999999999
 40
0.1249999999999999
 40
0.1249999999999999
 40
0.2499999999999998
 40
0.2499999999999998
 40
0.4999999999999996
 40
0.4999999999999996
 40
0.7499999999999998
 40
0.7499999999999998
 40
1.0
 40
1.0
 40
1.0
 40
1.0
 10
227.6248368344972
 20
251.5450406290281
 30
0.0
 10
227.5419750619586
 20
251.0282420244092
 30
0.0
 10
227.446970358363
 20
250.512856157723
 30
0.0
 10
227.2719990254428
 20
249.4802730104426
 30
0.0
 10
227.1883960443832
 20
248.9634468034415
 30
0.0
 10
226.9485278039884
 20
247.4114616990547
 30
0.0
 10
226.8023892177808
 20
246.3749084093736
 30
0.0
 10
226.3972048372855
 20
243.2606727134903
 30
0.0
 10
226.1703493014314
 20
241.1769175145434
 30
0.0
 10
225.8336189638193
 20
237.0025267433276
 30
0.0
 10
225.7255742334771
 20
234.9122376428673
 30
0.0
 10
225.6154083588309
 20
230.7262268415619
 30
0.0
 10
225.6115913131559
 20
228.6307950075978
 30
0.0
 10
225.6073868781524
 20
226.5360465221667
 30
0.0
  0
SPLINE
  5
1A1
330
1F
100
AcDbEntity
  8
0
  6
Continuous
 62
     7
370
    25
100
AcDbSpline
210
0.0
220
0.0
230
1.0
 70
    24
 71
     3
 72
    14
 73
    10
 74
     0
 42
0.000000001
 43
0.00000001
 40
0.0
 40
0.0
 40
0.0
 40
0.0
 40
0.1250000000000002
 40
0.1250000000000002
 40
0.2500000000000003
 40
0.2500000000000003
 40
0.5
 40
0.5
 40
1.0
 40
1.0
 40
1.0
 40
1.0
 10
184.3689388115966
 20
153.5251285184114
 30
0.0
 10
184.3639741154989
 20
155.9986567878144
 30
0.0
 10
184.3590094149552
 20
158.4721872722835
 30
0.0
 10
184.3490800147232
 20
163.4192478151062
 30
0.0
 10
184.3441153154786
 20
165.8927776523592
 30
0.0
 10
184.3292212166057
 20
173.3133677316468
 30
0.0
 10
184.3192918168035
 20
178.2604280602674
 30
0.0
 10
184.2895036182489
 20
193.1016086217981
 30
0.0
 10
184.2696448193958
 20
202.9957289048313
 30
0.0
 10
184.2497860203801
 20
212.8898492688623
 30
0.0
  0
SPLINE
  5
1A2
330
1F
100
AcDbEntity
  8
0
  6
Continuous
 62
     7
370
    25
100
AcDbSpline
210
0.0
220
0.0
230
1.0
 70
     8
 71
     3
 72
    24
 73
    20
 74
     0
 42
0.000000001
 43
0.00000001
 40
0.0
 40
0.0
 40
0.0
 40
0.0
 40
0.1249999999999979
 40
0.1249999999999979
 40
0.2499999999999958
 40
0.2499999999999958
 40
0.3749999999999937
 40
0.3749999999999937
 40
0.4374999999999926
 40
0.4374999999999926
 40
0.4999999999999916
 40
0.4999999999999916
 40
0.6249999999999937
 40
0.6249999999999937
 40
0.7499999999999958
 40
0.7499999999999958
 40
0.8749999999999979
 40
0.8749999999999979
 40
1.0
 40
1.0
 40
1.0
 40
1.0
 10
187.571231141172
 20
149.1862474596234
 30
0.0
 10
187.3495204186548
 20
149.1862474596234
 30
0.0
 10
187.1278788167306
 20
149.1870130080383
 30
0.0
 10
186.6870437900613
 20
149.2155190775369
 30
0.0
 10
186.4677893505456
 20
149.2425871997654
 30
0.0
 10
186.0331467586083
 20
149.3393178739269
 30
0.0
 10
185.8189148922682
 20
149.4088601542155
 30
0.0
 10
185.5182118697934
 20
149.5560162203789
 30
0.0
 10
185.4222803571598
 20
149.6117865331717
 30
0.0
 10
185.2403967284019
 20
149.738908631566
 30
0.0
 10
185.153705284734
 20
149.8111611352913
 30
0.0
 10
184.9184733650551
 20
150.0467071487219
 30
0.0
 10
184.792641656242
 20
150.2303245943162
 30
0.0
 10
184.5965238125218
 20
150.6303055340394
 30
0.0
 10
184.528006627721
 20
150.8401444429677
 30
0.0
 10
184.4304038511234
 20
151.2729676433523
 30
0.0
 10
184.4023971078083
 20
151.4944475906839
 30
0.0
 10
184.3728817310373
 20
151.9361965746035
 30
0.0
 10
184.3716828475816
 20
152.1579853041198
 30
0.0
 10
184.3712375868745
 20
152.3798246522888
 30
0.0
  0
SPLINE
  5
1A3
330
1F
100
AcDbEntity
  8
0
  6
Continuous
 62
     7
370
    25
100
AcDbSpline
210
0.0
220
0.0
230
1.0
 70
     8
 71
     3
 72
    24
 73
    20
 74
     0
 42
0.000000001
 43
0.00000001
 40
0.0
 40
0.0
 40
0.0
 40
0.0
 40
0.1249999999999972
 40
0.1249999999999972
 40
0.2499999999999944
 40
0.2499999999999944
 40
0.3749999999999917
 40
0.3749999999999917
 40
0.4374999999999903
 40
0.4374999999999903
 40
0.4999999999999889
 40
0.4999999999999889
 40
0.6249999999999917
 40
0.6249999999999917
 40
0.7499999999999944
 40
0.7499999999999944
 40
0.8749999999999972
 40
0.8749999999999972
 40
1.0
 40
1.0
 40
1.0
 40
1.0
 10
225.4585456015461
 20
152.3798246522888
 30
0.0
 10
225.4581005989503
 20
152.1581139011906
 30
0.0
 10
225.4568901764363
 20
151.9364739878616
 30
0.0
 10
225.4274992509838
 20
151.4956966730014
 30
0.0
 10
225.3999910307218
 20
151.2764969059427
 30
0.0
 10
225.3023879801472
 20
150.8420492759818
 30
0.0
 10
225.232415742247
 20
150.6279574397366
 30
0.0
 10
225.0846562181318
 20
150.3275504264569
 30
0.0
 10
225.0286934033666
 20
150.2317310804587
 30
0.0
 10
224.9012063777326
 20
150.0501030757922
 30
0.0
 10
224.8287799663263
 20
149.9635568943735
 30
0.0
 10
224.5927620458732
 20
149.7287983430607
 30
0.0
 10
224.4088922597322
 20
149.6033355523266
 30
0.0
 10
224.0085184157381
 20
149.4080211991236
 30
0.0
 10
223.7985424086293
 20
149.3399254461441
 30
0.0
 10
223.36552426607
 20
149.2431917992399
 30
0.0
 10
223.1439886528395
 20
149.2156297352484
 30
0.0
 10
222.7021817276025
 20
149.1870011698018
 30
0.0
 10
222.4803913439437
 20
149.1862474596234
 30
0.0
 10
222.2585520472486
 20
149.1862474596234
 30
0.0
  0
SPLINE
  5
1A4
330
1F
100
AcDbEntity
  8
0
  6
Continuous
 62
     7
370
    25
100
AcDbSpline
210
0.0
220
0.0
230
1.0
 70
    24
 71
     3
 72
    12
 73
     8
 74
     0
 42
0.000000001
 43
0.00000001
 40
0.0
 40
0.0
 40
0.0
 40
0.0
 40
0.25
 40
0.25
 40
0.5
 40
0.5
 40
1.0
 40
1.0
 40
1.0
 40
1.0
 10
204.9148915942103
 20
149.1862474596234
 30
0.0
 10
203.4695801732231
 20
149.1862474596234
 30
0.0
 10
202.0242730754516
 20
149.1862474596234
 30
0.0
 10
199.1336585981893
 20
149.1862474596234
 30
0.0
 10
197.688351770221
 20
149.1862474596235
 30
0.0
 10
193.3524336855218
 20
149.1862474596235
 30
0.0
 10
190.4618280237892
 20
149.1862474596234
 30
0.0
 10
187.571231141172
 20
149.1862474596234
 30
0.0
  0
SPLINE
  5
1A5
330
1F
100
AcDbEntity
  8
0
  6
Continuous
 62
     7
370
    25
100
AcDbSpline
210
0.0
220
0.0
230
1.0
 70
    24
 71
     3
 72
    12
 73
     8
 74
     0
 42
0.000000001
 43
0.00000001
 40
0.0
 40
0.0
 40
0.0
 40
0.0
 40
0.5
 40
0.5
 40
0.75
 40
0.75
 40
1.0
 40
1.0
 40
1.0
 40
1.0
 10
222.2585520472486
 20
149.1862474596234
 30
0.0
 10
219.3679552044811
 20
149.1862474596234
 30
0.0
 10
216.4773491906363
 20
149.1862474596235
 30
0.0
 10
212.1414311412453
 20
149.1862474596235
 30
0.0
 10
210.6961245251002
 20
149.1862474596235
 30
0.0
 10
207.8055101926377
 20
149.1862474596235
 30
0.0
 10
206.3602031821496
 20
149.1862474596234
 30
0.0
 10
204.9148915942103
 20
149.1862474596234
 30
0.0
  0
SPLINE
  5
1A6
330
1F
100
AcDbEntity
  8
0
  6
Continuous
 62
     7
370
    25
100
AcDbSpline
210
0.0
220
0.0
230
1.0
 70
    24
 71
     3
 72
     8
 73
     4
 74
     0
 42
0.000000001
 43
0.00000001
 40
0.0
 40
0.0
 40
0.0
 40
0.0
 40
0.0011483463178868
 40
0.0011483463178868
 40
0.0011483463178868
 40
0.0011483463178868
 10
184.3712375868745
 20
152.3798246522888
 30
0.0
 10
184.3704692983972
 20
152.7626040269417
 30
0.0
 10
184.3697010087552
 20
153.1453839818822
 30
0.0
 10
184.3689327183395
 20
153.5281643223194
 30
0.0
  0
LWPOLYLINE
  5
1A7
330
1F
100
AcDbEntity
  8
0
  6
Continuous
 62
     7
370
    25
100
AcDbPolyline
 90
        3
 70
   128
 43
0.0
 10
225.5799970265
 20
212.8898490286
 10
225.4831487919
 20
164.6380972182
 10
225.4608436163
 20
153.5251092231
  0
SPLINE
  5
1A8
330
1F
100
AcDbEntity
  8
0
  6
Continuous
 62
     7
370
    25
100
AcDbSpline
210
0.0
220
0.0
230
1.0
 70
    24
 71
     3
 72
     8
 73
     4
 74
     0
 42
0.000000001
 43
0.00000001
 40
0.0
 40
0.0
 40
0.0
 40
0.0
 40
0.0011483463178866
 40
0.0011483463178866
 40
0.0011483463178866
 40
0.0011483463178866
 10
225.4608504700812
 20
153.5281643223192
 30
0.0
 10
225.4600821796654
 20
153.145383981882
 30
0.0
 10
225.4593138900235
 20
152.7626040269417
 30
0.0
 10
225.4585456015461
 20
152.3798246522888
 30
0.0
  0
ARC
  5
1A9
330
1F
100
AcDbEntity
  8
0
  6
Continuous
 62
     7
370
    25
100
AcDbCircle
 10
204.9148915942
 20
255.1862474596
 30
0.0
 40
23.0
100
AcDbArc
 50
90.0
 51
135.1303048428
  0
ARC
  5
1AA
330
1F
100
AcDbEntity
  8
0
  6
Continuous
 62
     7
370
    25
100
AcDbCircle
 10
204.9148915942
 20
255.1862474596
 30
0.0
 40
23.0
100
AcDbArc
 50
0.0
 51
90.0
  0
LINE
  5
1AB
330
1F
100
AcDbEntity
  8
0
  6
Continuous
 62
     7
370
    25
100
AcDbLine
 10
184.2497861619
 20
212.8898490286
 30
0.0
 11
184.222395965
 21
226.5360456025
 31
0.0
  0
LINE
  5
1AC
330
1F
100
AcDbEntity
  8
0
  6
Continuous
 62
     7
370
    25
100
AcDbLine
 10
225.6073872234
 20
226.5360456025
 30
0.0
 11
225.5799970265
 21
212.8898490286
 31
0.0
  0
LINE
  5
1AD
330
1F
100
AcDbEntity
  8
0
  6
Continuous
 62
     7
370
    25
100
AcDbLine
 10
216.5285129707
 20
148.7862493908
 30
0.0
 11
216.8648917835
 21
148.7862493908
 31
0.0
  0
LINE
  5
1AE
330
1F
100
AcDbEntity
  8
0
  6
Continuous
 62
     7
370
    25
100
AcDbLine
 10
216.5285129707
 20
145.8362441575
 30
0.0
 11
216.5285129707
 21
148.7862493908
 31
0.0
  0
LINE
  5
1AF
330
1F
100
AcDbEntity
  8
0
  6
Continuous
 62
     7
370
    25
100
AcDbLine
 10
194.822275513
 20
145.8362441575
 30
0.0
 11
216.5285129707
 21
145.8362441575
 31
0.0
  0
LINE
  5
1B0
330
1F
100
AcDbEntity
  8
0
  6
Continuous
 62
     7
370
    25
100
AcDbLine
 10
194.822275513
 20
145.8362441575
 30
0.0
 11
194.822275513
 21
148.7862493908
 31
0.0
  0
LINE
  5
1B1
330
1F
100
AcDbEntity
  8
0
  6
Continuous
 62
     7
370
    25
100
AcDbLine
 10
194.822275513
 20
148.7862493908
 30
0.0
 11
192.964891405
 21
148.7862493908
 31
0.0
  0
LINE
  5
1B2
330
1F
100
AcDbEntity
  8
0
  6
Continuous
 62
     7
370
    25
100
AcDbLine
 10
193.3012702178
 20
148.7862493908
 30
0.0
 11
193.3012702178
 21
145.8362441575
 31
0.0
  0
LINE
  5
1B3
330
1F
100
AcDbEntity
  8
0
  6
Continuous
 62
     7
370
    25
100
AcDbLine
 10
194.2639299344
 20
145.0862463629
 30
0.0
 11
215.5658532541
 21
145.0862463629
 31
0.0
  0
SPLINE
  5
1B4
330
1F
100
AcDbEntity
  8
0
  6
Continuous
 62
     7
370
    25
100
AcDbSpline
210
0.0
220
0.0
230
1.0
 70
     8
 71
     3
 72
    14
 73
    10
 74
     0
 42
0.000000001
 43
0.00000001
 40
0.0
 40
0.0
 40
0.0
 40
0.0
 40
0.4999999999999953
 40
0.4999999999999953
 40
0.6249999999999952
 40
0.6249999999999952
 40
0.7499999999999952
 40
0.7499999999999952
 40
1.0
 40
1.0
 40
1.0
 40
1.0
 10
193.3012704724001
 20
145.8362474543984
 30
0.0
 10
193.5519372502919
 20
145.4890521632671
 30
0.0
 10
193.8043303300492
 20
145.2891442299029
 30
0.0
 10
194.1227303882939
 20
145.2874289862932
 30
0.0
 10
194.1865518508769
 20
145.2991544688147
 30
0.0
 10
194.3144767527233
 20
145.3466635597309
 30
0.0
 10
194.378701228829
 20
145.3825672855569
 30
0.0
 10
194.5702068562353
 20
145.5236894425665
 30
0.0
 10
194.6967054474536
 20
145.6623217253191
 30
0.0
 10
194.8222757070269
 20
145.8362474578262
 30
0.0
  0
SPLINE
  5
1B5
330
1F
100
AcDbEntity
  8
0
  6
Continuous
 62
     7
370
    25
100
AcDbSpline
210
0.0
220
0.0
230
1.0
 70
     8
 71
     3
 72
     9
 73
     5
 74
     0
 42
0.000000001
 43
0.00000001
 40
0.0
 40
0.0
 40
0.0
 40
0.0
 40
0.179695536682014
 40
1.0
 40
1.0
 40
1.0
 40
1.0
 10
216.0638621683509
 20
145.3978296434613
 30
0.0
 10
216.0920282395329
 20
145.4065679807893
 30
0.0
 10
216.2487715382377
 20
145.4551965527027
 30
0.0
 10
216.4024499135121
 20
145.6645283499388
 30
0.0
 10
216.5285129706651
 20
145.8362441575261
 30
0.0
  0
ARC
  5
1B6
330
1F
100
AcDbEntity
  8
0
  6
Continuous
 62
     7
370
    25
100
AcDbCircle
 10
204.9148915942
 20
277.4861818717
 30
0.0
 40
20.00609299096448
100
AcDbArc
 50
84.2625830192
 51
95.7374169808
  0
ENDSEC
  0
SECTION
  2
OBJECTS
  0
DICTIONARY
  5
C
330
0
100
AcDbDictionary
281
     1
  3
ACAD_DETAILVIEWSTYLE
350
1E3
  3
ACAD_GROUP
350
D
  3
ACAD_LAYOUT
350
1A
  3
ACAD_MATERIAL
350
1D0
  3
ACAD_MLEADERSTYLE
350
1D6
  3
ACAD_MLINESTYLE
350
17
  3
ACAD_PLOTSETTINGS
350
19
  3
ACAD_PLOTSTYLENAME
350
E
  3
ACAD_SCALELIST
350
47
  3
ACAD_SECTIONVIEWSTYLE
350
1E4
  3
ACAD_TABLESTYLE
350
1D4
  3
ACAD_VISUALSTYLE
350
1B7
  3
ACDB_RECOMPOSE_DATA
350
1DF
  3
AcDbVariableDictionary
350
1DB
  3
APPDATA
350
1D8
  0
DICTIONARY
  5
1D9
330
1F
100
AcDbDictionary
280
     1
281
     1
  3
DIM_BOUNDING_BOXES_V1
360
1DA
  0
DICTIONARY
  5
1E3
102
{ACAD_REACTORS
330
C
102
}
330
C
100
AcDbDictionary
281
     1
  0
DICTIONARY
  5
D
102
{ACAD_REACTORS
330
C
102
}
330
C
100
AcDbDictionary
281
     1
  0
DICTIONARY
  5
1A
102
{ACAD_REACTORS
330
C
102
}
330
C
100
AcDbDictionary
281
     1
  3
Layout1
350
1E
  3
Layout2
350
26
  3
Model
350
22
  0
DICTIONARY
  5
1D0
102
{ACAD_REACTORS
330
C
102
}
330
C
100
AcDbDictionary
281
     1
  3
ByBlock
350
1D2
  3
ByLayer
350
1D1
  3
Global
350
1D3
  0
DICTIONARY
  5
1D6
102
{ACAD_REACTORS
330
C
102
}
330
C
100
AcDbDictionary
281
     1
  3
Standard
350
1D7
  0
DICTIONARY
  5
17
102
{ACAD_REACTORS
330
C
102
}
330
C
100
AcDbDictionary
281
     1
  3
Standard
350
18
  0
DICTIONARY
  5
19
102
{ACAD_REACTORS
330
C
102
}
330
C
100
AcDbDictionary
281
     1
  0
ACDBDICTIONARYWDFLT
  5
E
102
{ACAD_REACTORS
330
C
102
}
330
C
100
AcDbDictionary
281
     1
  3
Normal
350
F
100
AcDbDictionaryWithDefault
340
F
  0
DICTIONARY
  5
47
102
{ACAD_REACTORS
330
C
102
}
330
C
100
AcDbDictionary
281
     1
  3
A0
350
48
  3
A1
350
49
  3
A2
350
4A
  3
A3
350
4B
  3
A4
350
4C
  3
A5
350
4D
  3
A6
350
4E
  3
A7
350
4F
  3
A8
350
50
  3
A9
350
51
  3
B0
350
52
  3
B1
350
53
  3
B2
350
54
  3
B3
350
55
  3
B4
350
56
  3
B5
350
57
  3
B6
350
58
  3
B7
350
59
  3
B8
350
5A
  3
B9
350
5B
  3
C0
350
5C
  3
C1
350
5D
  3
C2
350
5E
  3
C3
350
5F
  3
C4
350
60
  3
C5
350
61
  3
C6
350
62
  3
C7
350
63
  3
C8
350
64
  3
C9
350
65
  3
D0
350
66
  3
D1
350
67
  3
D2
350
68
  0
DICTIONARY
  5
1E4
102
{ACAD_REACTORS
330
C
102
}
330
C
100
AcDbDictionary
281
     1
  0
DICTIONARY
  5
1D4
102
{ACAD_REACTORS
330
C
102
}
330
C
100
AcDbDictionary
281
     1
  3
Standard
350
1D5
  0
DICTIONARY
  5
1B7
102
{ACAD_REACTORS
330
C
102
}
330
C
100
AcDbDictionary
281
     1
  3
2dWireframe
350
1BC
  3
Basic
350
1BF
  3
Brighten
350
1C3
  3
ColorChange
350
1C7
  3
Conceptual
350
1C1
  3
Dim
350
1C2
  3
EdgeColorOff
350
1CA
  3
Facepattern
350
1C6
  3
Flat
350
1B8
  3
FlatWithEdges
350
1B9
  3
Gouraud
350
1BA
  3
GouraudWithEdges
350
1BB
  3
Hidden
350
1BE
  3
JitterOff
350
1C8
  3
Linepattern
350
1C5
  3
OverhangOff
350
1C9
  3
Realistic
350
1C0
  3
Shaded
350
1CF
  3
Shaded with edges
350
1CE
  3
Shades of Gray
350
1CB
  3
Sketchy
350
1CC
  3
Thicken
350
1C4
  3
Wireframe
350
1BD
  3
X-Ray
350
1CD
  0
XRECORD
  5
1DF
102
{ACAD_REACTORS
330
C
102
}
330
C
100
AcDbXrecord
280
     1
 90
        1
330
1D5
  0
DICTIONARY
  5
1DB
102
{ACAD_REACTORS
330
C
102
}
330
C
100
AcDbDictionary
281
     1
  3
CANNOSCALE
350
1DC
  3
CMLEADERSTYLE
350
1E1
  3
CTABLESTYLE
350
1E0
  3
MSLTSCALE
350
1E2
  0
DICTIONARY
  5
1D8
102
{ACAD_REACTORS
330
C
102
}
330
C
100
AcDbDictionary
281
     1
  0
DICTIONARY
  5
1DA
102
{ACAD_REACTORS
330
1D9
102
}
330
1D9
100
AcDbDictionary
281
     1
  0
LAYOUT
  5
1E
102
{ACAD_REACTORS
330
1A
102
}
330
1A
100
AcDbPlotSettings
  1

  2
none_device
  4

  6

 40
0.0
 41
0.0
 42
0.0
 43
0.0
 44
0.0
 45
0.0
 46
0.0
 47
0.0
 48
0.0
 49
0.0
140
0.0
141
0.0
142
1.0
143
1.0
 70
   688
 72
     1
 73
     0
 74
     5
  7

 75
    16
 76
     0
 77
     2
 78
   300
147
1.0
148
0.0
149
0.0
100
AcDbLayout
  1
Layout1
 70
     1
 71
     1
 10
0.0
 20
0.0
 11
420.0
 21
297.0
 12
0.0
 22
0.0
 32
0.0
 14
1.000000000000000E+20
 24
1.000000000000000E+20
 34
1.000000000000000E+20
 15
-1.000000000000000E+20
 25
-1.000000000000000E+20
 35
-1.000000000000000E+20
146
0.0
 13
0.0
 23
0.0
 33
0.0
 16
1.0
 26
0.0
 36
0.0
 17
0.0
 27
1.0
 37
0.0
 76
     0
330
1B
  0
LAYOUT
  5
26
102
{ACAD_REACTORS
330
1A
102
}
330
1A
100
AcDbPlotSettings
  1

  2
none_device
  4

  6

 40
0.0
 41
0.0
 42
0.0
 43
0.0
 44
0.0
 45
0.0
 46
0.0
 47
0.0
 48
0.0
 49
0.0
140
0.0
141
0.0
142
1.0
143
1.0
 70
   688
 72
     1
 73
     0
 74
     5
  7

 75
    16
 76
     0
 77
     2
 78
   300
147
1.0
148
0.0
149
0.0
100
AcDbLayout
  1
Layout2
 70
     1
 71
     2
 10
0.0
 20
0.0
 11
0.0
 21
0.0
 12
0.0
 22
0.0
 32
0.0
 14
0.0
 24
0.0
 34
0.0
 15
0.0
 25
0.0
 35
0.0
146
0.0
 13
0.0
 23
0.0
 33
0.0
 16
1.0
 26
0.0
 36
0.0
 17
0.0
 27
1.0
 37
0.0
 76
     0
330
23
  0
LAYOUT
  5
22
102
{ACAD_REACTORS
330
1A
102
}
330
1A
100
AcDbPlotSettings
  1

  2
none_device
  4
Letter_(8.50_x_11.00_Inches)
  6

 40
6.35
 41
6.35
 42
6.35000508
 43
6.35000508
 44
215.9
 45
279.4
 46
0.0
 47
0.0
 48
0.0
 49
0.0
140
0.0
141
0.0
142
1.0
143
1.0
 70
  1712
 72
     1
 73
     0
 74
     0
  7

 75
     0
 76
     0
 77
     2
 78
   300
147
1.0
148
0.0
149
0.0
100
AcDbLayout
  1
Model
 70
     1
 71
     0
 10
0.0
 20
0.0
 11
594.0
 21
841.0
 12
0.0
 22
0.0
 32
0.0
 14
35.33953329459996
 24
37.46023423129998
 34
0.0
 15
517.6919298245666
 25
479.0422698051497
 35
0.0
146
0.0
 13
0.0
 23
0.0
 33
0.0
 16
1.0
 26
0.0
 36
0.0
 17
0.0
 27
1.0
 37
0.0
 76
     0
330
1F
331
29
  0
MATERIAL
  5
1D2
102
{ACAD_REACTORS
330
1D0
102
}
330
1D0
100
AcDbMaterial
  1
ByBlock
 72
     1
 94
      127
  0
MATERIAL
  5
1D1
102
{ACAD_REACTORS
330
1D0
102
}
330
1D0
100
AcDbMaterial
  1
ByLayer
 72
     1
 94
      127
  0
MATERIAL
  5
1D3
102
{ACAD_REACTORS
330
1D0
102
}
330
1D0
100
AcDbMaterial
  1
Global
 72
     1
 94
      127
  0
MLEADERSTYLE
  5
1D7
102
{ACAD_REACTORS
330
1D6
102
}
330
1D6
100
AcDbMLeaderStyle
179
     2
170
     2
171
     1
172
     0
 90
        2
 40
0.0
 41
0.0
173
     1
 91
-1056964608
340
14
 92
       -2
290
     1
 42
2.0
291
     1
 43
8.0
  3
Standard
341
0
 44
4.0
300

342
11
174
     1
178
     1
175
     1
176
     0
 93
-1056964608
 45
4.0
292
     0
297
     0
 46
4.0
343
0
 94
-1056964608
 47
1.0
 49
1.0
140
1.0
293
     1
141
0.0
294
     1
177
     0
142
1.0
295
     0
296
     0
143
3.75
271
     0
272
     9
273
     9
298
     0
  0
MLINESTYLE
  5
18
102
{ACAD_REACTORS
330
17
102
}
330
17
100
AcDbMlineStyle
  2
Standard
 70
     0
  3

 62
   256
 51
90.0
 52
90.0
 71
     2
 49
0.5
 62
   256
  6
BYLAYER
 49
-0.5
 62
   256
  6
BYLAYER
  0
ACDBPLACEHOLDER
  5
F
102
{ACAD_REACTORS
330
E
102
}
330
E
  0
SCALE
  5
48
102
{ACAD_REACTORS
330
47
102
}
330
47
100
AcDbScale
 70
     0
300
1:1
140
1.0
141
1.0
290
     1
  0
SCALE
  5
49
102
{ACAD_REACTORS
330
47
102
}
330
47
100
AcDbScale
 70
     0
300
1:2
140
1.0
141
2.0
290
     0
  0
SCALE
  5
4A
102
{ACAD_REACTORS
330
47
102
}
330
47
100
AcDbScale
 70
     0
300
1:4
140
1.0
141
4.0
290
     0
  0
SCALE
  5
4B
102
{ACAD_REACTORS
330
47
102
}
330
47
100
AcDbScale
 70
     0
300
1:5
140
1.0
141
5.0
290
     0
  0
SCALE
  5
4C
102
{ACAD_REACTORS
330
47
102
}
330
47
100
AcDbScale
 70
     0
300
1:8
140
1.0
141
8.0
290
     0
  0
SCALE
  5
4D
102
{ACAD_REACTORS
330
47
102
}
330
47
100
AcDbScale
 70
     0
300
1:10
140
1.0
141
10.0
290
     0
  0
SCALE
  5
4E
102
{ACAD_REACTORS
330
47
102
}
330
47
100
AcDbScale
 70
     0
300
1:16
140
1.0
141
16.0
290
     0
  0
SCALE
  5
4F
102
{ACAD_REACTORS
330
47
102
}
330
47
100
AcDbScale
 70
     0
300
1:20
140
1.0
141
20.0
290
     0
  0
SCALE
  5
50
102
{ACAD_REACTORS
330
47
102
}
330
47
100
AcDbScale
 70
     0
300
1:30
140
1.0
141
30.0
290
     0
  0
SCALE
  5
51
102
{ACAD_REACTORS
330
47
102
}
330
47
100
AcDbScale
 70
     0
300
1:40
140
1.0
141
40.0
290
     0
  0
SCALE
  5
52
102
{ACAD_REACTORS
330
47
102
}
330
47
100
AcDbScale
 70
     0
300
1:50
140
1.0
141
50.0
290
     0
  0
SCALE
  5
53
102
{ACAD_REACTORS
330
47
102
}
330
47
100
AcDbScale
 70
     0
300
1:100
140
1.0
141
100.0
290
     0
  0
SCALE
  5
54
102
{ACAD_REACTORS
330
47
102
}
330
47
100
AcDbScale
 70
     0
300
2:1
140
2.0
141
1.0
290
     0
  0
SCALE
  5
55
102
{ACAD_REACTORS
330
47
102
}
330
47
100
AcDbScale
 70
     0
300
4:1
140
4.0
141
1.0
290
     0
  0
SCALE
  5
56
102
{ACAD_REACTORS
330
47
102
}
330
47
100
AcDbScale
 70
     0
300
8:1
140
8.0
141
1.0
290
     0
  0
SCALE
  5
57
102
{ACAD_REACTORS
330
47
102
}
330
47
100
AcDbScale
 70
     0
300
10:1
140
10.0
141
1.0
290
     0
  0
SCALE
  5
58
102
{ACAD_REACTORS
330
47
102
}
330
47
100
AcDbScale
 70
     0
300
100:1
140
100.0
141
1.0
290
     0
  0
SCALE
  5
59
102
{ACAD_REACTORS
330
47
102
}
330
47
100
AcDbScale
 70
     0
300
1/128" = 1'-0"
140
0.0078125
141
12.0
290
     0
  0
SCALE
  5
5A
102
{ACAD_REACTORS
330
47
102
}
330
47
100
AcDbScale
 70
     0
300
1/64" = 1'-0"
140
0.015625
141
12.0
290
     0
  0
SCALE
  5
5B
102
{ACAD_REACTORS
330
47
102
}
330
47
100
AcDbScale
 70
     0
300
1/32" = 1'-0"
140
0.03125
141
12.0
290
     0
  0
SCALE
  5
5C
102
{ACAD_REACTORS
330
47
102
}
330
47
100
AcDbScale
 70
     0
300
1/16" = 1'-0"
140
0.0625
141
12.0
290
     0
  0
SCALE
  5
5D
102
{ACAD_REACTORS
330
47
102
}
330
47
100
AcDbScale
 70
     0
300
3/32" = 1'-0"
140
0.09375
141
12.0
290
     0
  0
SCALE
  5
5E
102
{ACAD_REACTORS
330
47
102
}
330
47
100
AcDbScale
 70
     0
300
1/8" = 1'-0"
140
0.125
141
12.0
290
     0
  0
SCALE
  5
5F
102
{ACAD_REACTORS
330
47
102
}
330
47
100
AcDbScale
 70
     0
300
3/16" = 1'-0"
140
0.1875
141
12.0
290
     0
  0
SCALE
  5
60
102
{ACAD_REACTORS
330
47
102
}
330
47
100
AcDbScale
 70
     0
300
1/4" = 1'-0"
140
0.25
141
12.0
290
     0
  0
SCALE
  5
61
102
{ACAD_REACTORS
330
47
102
}
330
47
100
AcDbScale
 70
     0
300
3/8" = 1'-0"
140
0.375
141
12.0
290
     0
  0
SCALE
  5
62
102
{ACAD_REACTORS
330
47
102
}
330
47
100
AcDbScale
 70
     0
300
1/2" = 1'-0"
140
0.5
141
12.0
290
     0
  0
SCALE
  5
63
102
{ACAD_REACTORS
330
47
102
}
330
47
100
AcDbScale
 70
     0
300
3/4" = 1'-0"
140
0.75
141
12.0
290
     0
  0
SCALE
  5
64
102
{ACAD_REACTORS
330
47
102
}
330
47
100
AcDbScale
 70
     0
300
1" = 1'-0"
140
1.0
141
12.0
290
     0
  0
SCALE
  5
65
102
{ACAD_REACTORS
330
47
102
}
330
47
100
AcDbScale
 70
     0
300
1-1/2" = 1'-0"
140
1.5
141
12.0
290
     0
  0
SCALE
  5
66
102
{ACAD_REACTORS
330
47
102
}
330
47
100
AcDbScale
 70
     0
300
3" = 1'-0"
140
3.0
141
12.0
290
     0
  0
SCALE
  5
67
102
{ACAD_REACTORS
330
47
102
}
330
47
100
AcDbScale
 70
     0
300
6" = 1'-0"
140
6.0
141
12.0
290
     0
  0
SCALE
  5
68
102
{ACAD_REACTORS
330
47
102
}
330
47
100
AcDbScale
 70
     0
300
1'-0" = 1'-0"
140
12.0
141
12.0
290
     0
  0
TABLESTYLE
  5
1D5
102
{ACAD_REACTORS
330
1D4
102
}
102
{ACAD_XDICTIONARY
360
1DD
102
}
330
1D4
100
AcDbTableStyle
  3
Standard
 70
     0
 71
     0
 40
0.06
 41
0.06
280
     0
281
     0
  7
Standard
140
4.5
170
     2
 62
     0
 63
   257
283
     0
 90
        4
 91
        0
  1

274
    -2
284
     1
 64
     0
275
    -2
285
     1
 65
     0
276
    -2
286
     1
 66
     0
277
    -2
287
     1
 67
     0
278
    -2
288
     1
 68
     0
279
    -2
289
     1
 69
     0
  7
Standard
140
6.0
170
     5
 62
     0
 63
   257
283
     0
 90
        4
 91
        0
  1

274
    -2
284
     1
 64
     0
275
    -2
285
     1
 65
     0
276
    -2
286
     1
 66
     0
277
    -2
287
     1
 67
     0
278
    -2
288
     1
 68
     0
279
    -2
289
     1
 69
     0
  7
Standard
140
4.5
170
     5
 62
     0
 63
   257
283
     0
 90
        4
 91
        0
  1

274
    -2
284
     1
 64
     0
275
    -2
285
     1
 65
     0
276
    -2
286
     1
 66
     0
277
    -2
287
     1
 67
     0
278
    -2
288
     1
 68
     0
279
    -2
289
     1
 69
     0
  0
VISUALSTYLE
  5
1BC
102
{ACAD_REACTORS
330
1B7
102
}
330
1B7
100
AcDbVisualStyle
  2
2dWireframe
 70
     4
177
     3
291
     0
 70
    58
 90
        0
176
     1
 90
        2
176
     1
 90
        0
176
     1
 90
        0
176
     1
 40
0.6
176
     1
 40
30.0
176
     1
 62
     7
420
 16777215
176
     1
 90
        1
176
     1
 90
        4
176
     1
 62
     7
176
     1
 62
   257
176
     1
 90
        1
176
     1
 90
        1
176
     1
 40
1.0
176
     1
 90
        0
176
     1
 62
   257
176
     1
 40
1.0
176
     1
 90
        1
176
     1
 90
        6
176
     1
 90
        2
176
     1
 62
     7
176
     1
 90
        5
176
     1
 90
        0
176
     1
 90
        0
176
     1
290
     0
176
     1
 90
        1
176
     1
 40
0.0
176
     1
 90
        0
176
     1
290
     1
176
     1
290
     1
176
     1
290
     0
176
     1
290
     0
176
     1
290
     0
176
     1
290
     0
176
     1
290
     0
176
     1
290
     0
176
     1
290
     0
176
     1
 90
       50
176
     1
 40
0.0
176
     1
 40
1.0
176
     1
 90
        0
176
     1
 62
    18
420
        0
176
     1
 90
       50
176
     1
 90
        3
176
     1
 62
     5
420
      255
176
     1
290
     0
176
     1
 90
       50
176
     1
 90
       50
176
     1
 90
       50
176
     1
290
     0
176
     1
 90
       50
176
     1
 62
   256
176
     0
 40
1.0
176
     0
 90
        2
176
     1
  1
strokes_ogs.tif
176
     1
290
     0
176
     1
 40
1.0
176
     1
 40
1.0
176
     1
  0
VISUALSTYLE
  5
1BF
102
{ACAD_REACTORS
330
1B7
102
}
330
1B7
100
AcDbVisualStyle
  2
Basic
 70
     7
177
     3
291
     1
 70
    58
 90
        1
176
     1
 90
        0
176
     1
 90
        1
176
     1
 90
        0
176
     1
 40
0.6
176
     1
 40
30.0
176
     1
 62
     7
420
 16777215
176
     1
 90
        0
176
     1
 90
        4
176
     1
 62
     7
176
     1
 62
   257
176
     1
 90
        1
176
     1
 90
        1
176
     1
 40
1.0
176
     1
 90
        8
176
     1
 62
     7
176
     1
 40
1.0
176
     1
 90
        1
176
     1
 90
        6
176
     1
 90
        2
176
     1
 62
     7
176
     1
 90
        5
176
     1
 90
        0
176
     1
 90
        0
176
     1
290
     0
176
     1
 90
        1
176
     1
 40
0.0
176
     1
 90
        0
176
     1
290
     0
176
     1
290
     1
176
     1
290
     1
176
     1
290
     0
176
     1
290
     0
176
     1
290
     0
176
     1
290
     0
176
     1
290
     0
176
     1
290
     0
176
     1
 90
       50
176
     1
 40
0.0
176
     1
 40
1.0
176
     1
 90
        0
176
     1
 62
    18
420
        0
176
     1
 90
       50
176
     1
 90
        3
176
     1
 62
     5
420
      255
176
     1
290
     0
176
     1
 90
       50
176
     1
 90
       50
176
     1
 90
       50
176
     1
290
     0
176
     1
 90
       50
176
     1
 62
   256
176
     0
 40
1.0
176
     0
 90
        2
176
     1
  1
strokes_ogs.tif
176
     1
290
     0
176
     1
 40
1.0
176
     1
 40
1.0
176
     1
  0
VISUALSTYLE
  5
1C3
102
{ACAD_REACTORS
330
1B7
102
}
330
1B7
100
AcDbVisualStyle
  2
Brighten
 70
    12
177
     3
291
     1
 70
    58
 90
        2
176
     1
 90
        2
176
     1
 90
        0
176
     1
 90
        0
176
     1
 40
0.6
176
     1
 40
30.0
176
     1
 62
     7
420
 16777215
176
     1
 90
        1
176
     1
 90
        4
176
     1
 62
     7
176
     1
 62
   257
176
     1
 90
        1
176
     1
 90
        1
176
     1
 40
1.0
176
     1
 90
        8
176
     1
 62
     7
176
     1
 40
1.0
176
     1
 90
        1
176
     1
 90
        6
176
     1
 90
        2
176
     1
 62
     7
176
     1
 90
        5
176
     1
 90
        0
176
     1
 90
        0
176
     1
290
     0
176
     1
 90
        1
176
     1
 40
50.0
176
     1
 90
        0
176
     1
290
     0
176
     1
290
     1
176
     1
290
     1
176
     1
290
     0
176
     1
290
     0
176
     1
290
     0
176
     1
290
     0
176
     1
290
     0
176
     1
290
     0
176
     1
 90
       50
176
     1
 40
0.0
176
     1
 40
1.0
176
     1
 90
        0
176
     1
 62
    18
420
        0
176
     1
 90
       50
176
     1
 90
        3
176
     1
 62
     5
420
      255
176
     1
290
     0
176
     1
 90
       50
176
     1
 90
       50
176
     1
 90
       50
176
     1
290
     0
176
     1
 90
       50
176
     1
 62
   256
176
     0
 40
1.0
176
     0
 90
        2
176
     1
  1
strokes_ogs.tif
176
     1
290
     0
176
     1
 40
1.0
176
     1
 40
1.0
176
     1
  0
VISUALSTYLE
  5
1C7
102
{ACAD_REACTORS
330
1B7
102
}
330
1B7
100
AcDbVisualStyle
  2
ColorChange
 70
    16
177
     3
291
     1
 70
    58
 90
        2
176
     1
 90
        2
176
     1
 90
        3
176
     1
 90
        0
176
     1
 40
0.6
176
     1
 40
30.0
176
     1
 62
     8
420
  8421504
176
     1
 90
        1
176
     1
 90
        4
176
     1
 62
     7
176
     1
 62
   257
176
     1
 90
        1
176
     1
 90
        1
176
     1
 40
1.0
176
     1
 90
        8
176
     1
 62
     8
420
  8421504
176
     1
 40
1.0
176
     1
 90
        1
176
     1
 90
        6
176
     1
 90
        2
176
     1
 62
     7
176
     1
 90
        5
176
     1
 90
        0
176
     1
 90
        0
176
     1
290
     0
176
     1
 90
        1
176
     1
 40
0.0
176
     1
 90
        0
176
     1
290
     0
176
     1
290
     1
176
     1
290
     1
176
     1
290
     0
176
     1
290
     0
176
     1
290
     0
176
     1
290
     0
176
     1
290
     0
176
     1
290
     0
176
     1
 90
       50
176
     1
 40
0.0
176
     1
 40
1.0
176
     1
 90
        0
176
     1
 62
    18
420
        0
176
     1
 90
       50
176
     1
 90
        3
176
     1
 62
     5
420
      255
176
     1
290
     0
176
     1
 90
       50
176
     1
 90
       50
176
     1
 90
       50
176
     1
290
     0
176
     1
 90
       50
176
     1
 62
   256
176
     0
 40
1.0
176
     0
 90
        2
176
     1
  1
strokes_ogs.tif
176
     1
290
     0
176
     1
 40
1.0
176
     1
 40
1.0
176
     1
  0
VISUALSTYLE
  5
1C1
102
{ACAD_REACTORS
330
1B7
102
}
330
1B7
100
AcDbVisualStyle
  2
Conceptual
 70
     9
177
     3
291
     0
 70
    58
 90
        3
176
     1
 90
        2
176
     1
 90
        0
176
     1
 90
        0
176
     1
 40
0.6
176
     1
 40
30.0
176
     1
 62
     7
420
 16777215
176
     1
 90
        2
176
     1
 90
        2
176
     1
 62
     7
176
     1
 62
   257
176
     1
 90
        1
176
     1
 90
        1
176
     1
 40
179.0
176
     1
 90
        8
176
     1
 62
     7
176
     1
 40
1.0
176
     1
 90
        1
176
     1
 90
        6
176
     1
 90
        2
176
     1
 62
     7
176
     1
 90
        3
176
     1
 90
        0
176
     1
 90
        0
176
     1
290
     0
176
     1
 90
        1
176
     1
 40
0.0
176
     1
 90
        0
176
     1
290
     0
176
     1
290
     1
176
     1
290
     1
176
     1
290
     0
176
     1
290
     0
176
     1
290
     0
176
     1
290
     0
176
     1
290
     0
176
     1
290
     0
176
     1
 90
       50
176
     1
 40
0.0
176
     1
 40
1.0
176
     1
 90
        0
176
     1
 62
    18
420
        0
176
     1
 90
       50
176
     1
 90
        3
176
     1
 62
     5
420
      255
176
     1
290
     0
176
     1
 90
       50
176
     1
 90
       50
176
     1
 90
       50
176
     1
290
     0
176
     1
 90
       50
176
     1
 62
   256
176
     0
 40
1.0
176
     0
 90
        2
176
     1
  1
strokes_ogs.tif
176
     1
290
     0
176
     1
 40
1.0
176
     1
 40
1.0
176
     1
  0
VISUALSTYLE
  5
1C2
102
{ACAD_REACTORS
330
1B7
102
}
330
1B7
100
AcDbVisualStyle
  2
Dim
 70
    11
177
     3
291
     1
 70
    58
 90
        2
176
     1
 90
        2
176
     1
 90
        0
176
     1
 90
        0
176
     1
 40
0.6
176
     1
 40
30.0
176
     1
 62
     7
420
 16777215
176
     1
 90
        1
176
     1
 90
        4
176
     1
 62
     7
176
     1
 62
   257
176
     1
 90
        1
176
     1
 90
        1
176
     1
 40
1.0
176
     1
 90
        8
176
     1
 62
     7
176
     1
 40
1.0
176
     1
 90
        1
176
     1
 90
        6
176
     1
 90
        2
176
     1
 62
     7
176
     1
 90
        5
176
     1
 90
        0
176
     1
 90
        0
176
     1
290
     0
176
     1
 90
        1
176
     1
 40
-50.0
176
     1
 90
        0
176
     1
290
     0
176
     1
290
     1
176
     1
290
     1
176
     1
290
     0
176
     1
290
     0
176
     1
290
     0
176
     1
290
     0
176
     1
290
     0
176
     1
290
     0
176
     1
 90
       50
176
     1
 40
0.0
176
     1
 40
1.0
176
     1
 90
        0
176
     1
 62
    18
420
        0
176
     1
 90
       50
176
     1
 90
        3
176
     1
 62
     5
420
      255
176
     1
290
     0
176
     1
 90
       50
176
     1
 90
       50
176
     1
 90
       50
176
     1
290
     0
176
     1
 90
       50
176
     1
 62
   256
176
     0
 40
1.0
176
     0
 90
        2
176
     1
  1
strokes_ogs.tif
176
     1
290
     0
176
     1
 40
1.0
176
     1
 40
1.0
176
     1
  0
VISUALSTYLE
  5
1CA
102
{ACAD_REACTORS
330
1B7
102
}
330
1B7
100
AcDbVisualStyle
  2
EdgeColorOff
 70
    22
177
     3
291
     1
 70
    58
 90
        2
176
     0
 90
        2
176
     0
 90
        0
176
     0
 90
        0
176
     0
 40
0.6
176
     0
 40
30.0
176
     0
 62
     7
420
 16777215
176
     0
 90
        1
176
     0
 90
        4
176
     0
 62
     7
176
     0
 62
   257
176
     0
 90
        1
176
     0
 90
        1
176
     0
 40
1.0
176
     0
 90
        8
176
     2
 62
     7
176
     0
 40
1.0
176
     0
 90
        1
176
     0
 90
        6
176
     0
 90
        2
176
     0
 62
     7
176
     0
 90
        5
176
     0
 90
        0
176
     0
 90
        0
176
     0
290
     0
176
     0
 90
        1
176
     0
 40
0.0
176
     0
 90
        0
176
     0
290
     0
176
     0
290
     1
176
     0
290
     1
176
     0
290
     0
176
     0
290
     0
176
     0
290
     0
176
     0
290
     0
176
     0
290
     0
176
     0
290
     0
176
     0
 90
       50
176
     0
 40
0.0
176
     0
 40
1.0
176
     0
 90
        0
176
     0
 62
    18
420
        0
176
     0
 90
       50
176
     0
 90
        3
176
     0
 62
     5
420
      255
176
     0
290
     0
176
     0
 90
       50
176
     0
 90
       50
176
     0
 90
       50
176
     0
290
     0
176
     0
 90
       50
176
     0
 62
   256
176
     0
 40
1.0
176
     0
 90
        2
176
     0
  1
strokes_ogs.tif
176
     0
290
     0
176
     0
 40
1.0
176
     0
 40
1.0
176
     0
  0
VISUALSTYLE
  5
1C6
102
{ACAD_REACTORS
330
1B7
102
}
330
1B7
100
AcDbVisualStyle
  2
Facepattern
 70
    15
177
     3
291
     1
 70
    58
 90
        2
176
     1
 90
        2
176
     1
 90
        0
176
     1
 90
        0
176
     1
 40
0.6
176
     1
 40
30.0
176
     1
 62
     7
420
 16777215
176
     1
 90
        1
176
     1
 90
        4
176
     1
 62
     7
176
     1
 62
   257
176
     1
 90
        1
176
     1
 90
        1
176
     1
 40
1.0
176
     1
 90
        8
176
     1
 62
     7
176
     1
 40
1.0
176
     1
 90
        1
176
     1
 90
        6
176
     1
 90
        2
176
     1
 62
     7
176
     1
 90
        5
176
     1
 90
        0
176
     1
 90
        0
176
     1
290
     0
176
     1
 90
        1
176
     1
 40
0.0
176
     1
 90
        0
176
     1
290
     0
176
     1
290
     1
176
     1
290
     1
176
     1
290
     0
176
     1
290
     0
176
     1
290
     0
176
     1
290
     0
176
     1
290
     0
176
     1
290
     0
176
     1
 90
       50
176
     1
 40
0.0
176
     1
 40
1.0
176
     1
 90
        0
176
     1
 62
    18
420
        0
176
     1
 90
       50
176
     1
 90
        3
176
     1
 62
     5
420
      255
176
     1
290
     0
176
     1
 90
       50
176
     1
 90
       50
176
     1
 90
       50
176
     1
290
     0
176
     1
 90
       50
176
     1
 62
   256
176
     0
 40
1.0
176
     0
 90
        2
176
     1
  1
strokes_ogs.tif
176
     1
290
     0
176
     1
 40
1.0
176
     1
 40
1.0
176
     1
  0
VISUALSTYLE
  5
1B8
102
{ACAD_REACTORS
330
1B7
102
}
330
1B7
100
AcDbVisualStyle
  2
Flat
 70
     0
177
     3
291
     1
 70
    58
 90
        2
176
     1
 90
        1
176
     1
 90
        1
176
     1
 90
        2
176
     1
 40
0.6
176
     1
 40
30.0
176
     1
 62
     7
420
 16777215
176
     1
 90
        0
176
     1
 90
        0
176
     1
 62
     7
176
     1
 62
   257
176
     1
 90
        1
176
     1
 90
        1
176
     1
 40
1.0
176
     1
 90
        8
176
     1
 62
     7
176
     1
 40
1.0
176
     1
 90
        1
176
     1
 90
        6
176
     1
 90
        2
176
     1
 62
     7
176
     1
 90
        5
176
     1
 90
        0
176
     1
 90
        0
176
     1
290
     0
176
     1
 90
       13
176
     1
 40
0.0
176
     1
 90
        0
176
     1
290
     0
176
     1
290
     1
176
     1
290
     1
176
     1
290
     0
176
     1
290
     0
176
     1
290
     0
176
     1
290
     0
176
     1
290
     0
176
     1
290
     0
176
     1
 90
       50
176
     1
 40
0.0
176
     1
 40
1.0
176
     1
 90
        0
176
     1
 62
    18
420
        0
176
     1
 90
       50
176
     1
 90
        3
176
     1
 62
     5
420
      255
176
     1
290
     0
176
     1
 90
       50
176
     1
 90
       50
176
     1
 90
       50
176
     1
290
     0
176
     1
 90
       50
176
     1
 62
   256
176
     0
 40
1.0
176
     0
 90
        2
176
     1
  1
strokes_ogs.tif
176
     1
290
     0
176
     1
 40
1.0
176
     1
 40
1.0
176
     1
  0
VISUALSTYLE
  5
1B9
102
{ACAD_REACTORS
330
1B7
102
}
330
1B7
100
AcDbVisualStyle
  2
FlatWithEdges
 70
     1
177
     3
291
     1
 70
    58
 90
        2
176
     1
 90
        1
176
     1
 90
        1
176
     1
 90
        2
176
     1
 40
0.6
176
     1
 40
30.0
176
     1
 62
     7
420
 16777215
176
     1
 90
        1
176
     1
 90
        0
176
     1
 62
     7
176
     1
 62
   257
176
     1
 90
        1
176
     1
 90
        1
176
     1
 40
1.0
176
     1
 90
        0
176
     1
 62
   257
176
     1
 40
1.0
176
     1
 90
        1
176
     1
 90
        6
176
     1
 90
        2
176
     1
 62
     7
176
     1
 90
        5
176
     1
 90
        0
176
     1
 90
        0
176
     1
290
     0
176
     1
 90
       13
176
     1
 40
0.0
176
     1
 90
        0
176
     1
290
     0
176
     1
290
     1
176
     1
290
     1
176
     1
290
     0
176
     1
290
     0
176
     1
290
     0
176
     1
290
     0
176
     1
290
     0
176
     1
290
     0
176
     1
 90
       50
176
     1
 40
0.0
176
     1
 40
1.0
176
     1
 90
        0
176
     1
 62
    18
420
        0
176
     1
 90
       50
176
     1
 90
        3
176
     1
 62
     5
420
      255
176
     1
290
     0
176
     1
 90
       50
176
     1
 90
       50
176
     1
 90
       50
176
     1
290
     0
176
     1
 90
       50
176
     1
 62
   256
176
     0
 40
1.0
176
     0
 90
        2
176
     1
  1
strokes_ogs.tif
176
     1
290
     0
176
     1
 40
1.0
176
     1
 40
1.0
176
     1
  0
VISUALSTYLE
  5
1BA
102
{ACAD_REACTORS
330
1B7
102
}
330
1B7
100
AcDbVisualStyle
  2
Gouraud
 70
     2
177
     3
291
     1
 70
    58
 90
        2
176
     1
 90
        2
176
     1
 90
        1
176
     1
 90
        2
176
     1
 40
0.6
176
     1
 40
30.0
176
     1
 62
     7
420
 16777215
176
     1
 90
        0
176
     1
 90
        0
176
     1
 62
     7
176
     1
 62
   257
176
     1
 90
        1
176
     1
 90
        1
176
     1
 40
1.0
176
     1
 90
        0
176
     1
 62
     7
176
     1
 40
1.0
176
     1
 90
        1
176
     1
 90
        6
176
     1
 90
        2
176
     1
 62
     7
176
     1
 90
        5
176
     1
 90
        0
176
     1
 90
        0
176
     1
290
     0
176
     1
 90
       13
176
     1
 40
0.0
176
     1
 90
        0
176
     1
290
     0
176
     1
290
     1
176
     1
290
     1
176
     1
290
     0
176
     1
290
     0
176
     1
290
     0
176
     1
290
     0
176
     1
290
     0
176
     1
290
     0
176
     1
 90
       50
176
     1
 40
0.0
176
     1
 40
1.0
176
     1
 90
        0
176
     1
 62
    18
420
        0
176
     1
 90
       50
176
     1
 90
        3
176
     1
 62
     5
420
      255
176
     1
290
     0
176
     1
 90
       50
176
     1
 90
       50
176
     1
 90
       50
176
     1
290
     0
176
     1
 90
       50
176
     1
 62
   256
176
     0
 40
1.0
176
     0
 90
        2
176
     1
  1
strokes_ogs.tif
176
     1
290
     0
176
     1
 40
1.0
176
     1
 40
1.0
176
     1
  0
VISUALSTYLE
  5
1BB
102
{ACAD_REACTORS
330
1B7
102
}
330
1B7
100
AcDbVisualStyle
  2
GouraudWithEdges
 70
     3
177
     3
291
     1
 70
    58
 90
        2
176
     1
 90
        2
176
     1
 90
        1
176
     1
 90
        2
176
     1
 40
0.6
176
     1
 40
30.0
176
     1
 62
     7
420
 16777215
176
     1
 90
        1
176
     1
 90
        0
176
     1
 62
     7
176
     1
 62
   257
176
     1
 90
        1
176
     1
 90
        1
176
     1
 40
1.0
176
     1
 90
        0
176
     1
 62
   257
176
     1
 40
1.0
176
     1
 90
        1
176
     1
 90
        6
176
     1
 90
        2
176
     1
 62
     7
176
     1
 90
        5
176
     1
 90
        0
176
     1
 90
        0
176
     1
290
     0
176
     1
 90
       13
176
     1
 40
0.0
176
     1
 90
        0
176
     1
290
     0
176
     1
290
     1
176
     1
290
     1
176
     1
290
     0
176
     1
290
     0
176
     1
290
     0
176
     1
290
     0
176
     1
290
     0
176
     1
290
     0
176
     1
 90
       50
176
     1
 40
0.0
176
     1
 40
1.0
176
     1
 90
        0
176
     1
 62
    18
420
        0
176
     1
 90
       50
176
     1
 90
        3
176
     1
 62
     5
420
      255
176
     1
290
     0
176
     1
 90
       50
176
     1
 90
       50
176
     1
 90
       50
176
     1
290
     0
176
     1
 90
       50
176
     1
 62
   256
176
     0
 40
1.0
176
     0
 90
        2
176
     1
  1
strokes_ogs.tif
176
     1
290
     0
176
     1
 40
1.0
176
     1
 40
1.0
176
     1
  0
VISUALSTYLE
  5
1BE
102
{ACAD_REACTORS
330
1B7
102
}
330
1B7
100
AcDbVisualStyle
  2
Hidden
 70
     6
177
     3
291
     0
 70
    58
 90
        1
176
     1
 90
        2
176
     1
 90
        2
176
     1
 90
        0
176
     1
 40
0.6
176
     1
 40
30.0
176
     1
 62
     7
420
 16777215
176
     1
 90
        2
176
     1
 90
        2
176
     1
 62
     7
176
     1
 62
   257
176
     1
 90
        2
176
     1
 90
        1
176
     1
 40
40.0
176
     1
 90
        0
176
     1
 62
   257
176
     1
 40
1.0
176
     1
 90
        1
176
     1
 90
        6
176
     1
 90
        2
176
     1
 62
     7
176
     1
 90
        3
176
     1
 90
        0
176
     1
 90
        0
176
     1
290
     0
176
     1
 90
        1
176
     1
 40
0.0
176
     1
 90
        0
176
     1
290
     0
176
     1
290
     1
176
     1
290
     1
176
     1
290
     0
176
     1
290
     0
176
     1
290
     0
176
     1
290
     0
176
     1
290
     0
176
     1
290
     0
176
     1
 90
       50
176
     1
 40
0.0
176
     1
 40
1.0
176
     1
 90
        0
176
     1
 62
    18
420
        0
176
     1
 90
       50
176
     1
 90
        3
176
     1
 62
     5
420
      255
176
     1
290
     0
176
     1
 90
       50
176
     1
 90
       50
176
     1
 90
       50
176
     1
290
     0
176
     1
 90
       50
176
     1
 62
   256
176
     0
 40
1.0
176
     0
 90
        2
176
     1
  1
strokes_ogs.tif
176
     1
290
     0
176
     1
 40
1.0
176
     1
 40
1.0
176
     1
  0
VISUALSTYLE
  5
1C8
102
{ACAD_REACTORS
330
1B7
102
}
330
1B7
100
AcDbVisualStyle
  2
JitterOff
 70
    20
177
     3
291
     1
 70
    58
 90
        2
176
     0
 90
        2
176
     0
 90
        0
176
     0
 90
        0
176
     0
 40
0.6
176
     0
 40
30.0
176
     0
 62
     7
420
 16777215
176
     0
 90
        1
176
     0
 90
        4
176
     0
 62
     7
176
     0
 62
   257
176
     0
 90
        1
176
     0
 90
        1
176
     0
 40
1.0
176
     0
 90
       10
176
     2
 62
     7
176
     0
 40
1.0
176
     0
 90
        1
176
     0
 90
        6
176
     0
 90
        2
176
     0
 62
     7
176
     0
 90
        5
176
     0
 90
        0
176
     0
 90
        0
176
     0
290
     0
176
     0
 90
        1
176
     0
 40
0.0
176
     0
 90
        0
176
     0
290
     0
176
     0
290
     1
176
     0
290
     1
176
     0
290
     0
176
     0
290
     0
176
     0
290
     0
176
     0
290
     0
176
     0
290
     0
176
     0
290
     0
176
     0
 90
       50
176
     0
 40
0.0
176
     0
 40
1.0
176
     0
 90
        0
176
     0
 62
    18
420
        0
176
     0
 90
       50
176
     0
 90
        3
176
     0
 62
     5
420
      255
176
     0
290
     0
176
     0
 90
       50
176
     0
 90
       50
176
     0
 90
       50
176
     0
290
     0
176
     0
 90
       50
176
     0
 62
   256
176
     0
 40
1.0
176
     0
 90
        2
176
     0
  1
strokes_ogs.tif
176
     0
290
     0
176
     0
 40
1.0
176
     0
 40
1.0
176
     0
  0
VISUALSTYLE
  5
1C5
102
{ACAD_REACTORS
330
1B7
102
}
330
1B7
100
AcDbVisualStyle
  2
Linepattern
 70
    14
177
     3
291
     1
 70
    58
 90
        2
176
     1
 90
        2
176
     1
 90
        0
176
     1
 90
        0
176
     1
 40
0.6
176
     1
 40
30.0
176
     1
 62
     7
420
 16777215
176
     1
 90
        1
176
     1
 90
        4
176
     1
 62
     7
176
     1
 62
   257
176
     1
 90
        7
176
     1
 90
        7
176
     1
 40
1.0
176
     1
 90
        8
176
     1
 62
     7
176
     1
 40
1.0
176
     1
 90
        1
176
     1
 90
        6
176
     1
 90
        2
176
     1
 62
     7
176
     1
 90
        5
176
     1
 90
        0
176
     1
 90
        0
176
     1
290
     0
176
     1
 90
        1
176
     1
 40
0.0
176
     1
 90
        0
176
     1
290
     0
176
     1
290
     1
176
     1
290
     1
176
     1
290
     0
176
     1
290
     0
176
     1
290
     0
176
     1
290
     0
176
     1
290
     0
176
     1
290
     0
176
     1
 90
       50
176
     1
 40
0.0
176
     1
 40
1.0
176
     1
 90
        0
176
     1
 62
    18
420
        0
176
     1
 90
       50
176
     1
 90
        3
176
     1
 62
     5
420
      255
176
     1
290
     0
176
     1
 90
       50
176
     1
 90
       50
176
     1
 90
       50
176
     1
290
     0
176
     1
 90
       50
176
     1
 62
   256
176
     0
 40
1.0
176
     0
 90
        2
176
     1
  1
strokes_ogs.tif
176
     1
290
     0
176
     1
 40
1.0
176
     1
 40
1.0
176
     1
  0
VISUALSTYLE
  5
1C9
102
{ACAD_REACTORS
330
1B7
102
}
330
1B7
100
AcDbVisualStyle
  2
OverhangOff
 70
    21
177
     3
291
     1
 70
    58
 90
        2
176
     0
 90
        2
176
     0
 90
        0
176
     0
 90
        0
176
     0
 40
0.6
176
     0
 40
30.0
176
     0
 62
     7
420
 16777215
176
     0
 90
        1
176
     0
 90
        4
176
     0
 62
     7
176
     0
 62
   257
176
     0
 90
        1
176
     0
 90
        1
176
     0
 40
1.0
176
     0
 90
        9
176
     2
 62
     7
176
     0
 40
1.0
176
     0
 90
        1
176
     0
 90
        6
176
     0
 90
        2
176
     0
 62
     7
176
     0
 90
        5
176
     0
 90
        0
176
     0
 90
        0
176
     0
290
     0
176
     0
 90
        1
176
     0
 40
0.0
176
     0
 90
        0
176
     0
290
     0
176
     0
290
     1
176
     0
290
     1
176
     0
290
     0
176
     0
290
     0
176
     0
290
     0
176
     0
290
     0
176
     0
290
     0
176
     0
290
     0
176
     0
 90
       50
176
     0
 40
0.0
176
     0
 40
1.0
176
     0
 90
        0
176
     0
 62
    18
420
        0
176
     0
 90
       50
176
     0
 90
        3
176
     0
 62
     5
420
      255
176
     0
290
     0
176
     0
 90
       50
176
     0
 90
       50
176
     0
 90
       50
176
     0
290
     0
176
     0
 90
       50
176
     0
 62
   256
176
     0
 40
1.0
176
     0
 90
        2
176
     0
  1
strokes_ogs.tif
176
     0
290
     0
176
     0
 40
1.0
176
     0
 40
1.0
176
     0
  0
VISUALSTYLE
  5
1C0
102
{ACAD_REACTORS
330
1B7
102
}
330
1B7
100
AcDbVisualStyle
  2
Realistic
 70
     8
177
     3
291
     0
 70
    58
 90
        2
176
     1
 90
        3
176
     1
 90
        0
176
     1
 90
        2
176
     1
 40
0.6
176
     1
 40
30.0
176
     1
 62
     7
420
 16777215
176
     1
 90
        0
176
     1
 90
        0
176
     1
 62
     7
176
     1
 62
   257
176
     1
 90
        1
176
     1
 90
        1
176
     1
 40
1.0
176
     1
 90
        8
176
     1
 62
   257
176
     1
 40
1.0
176
     1
 90
        1
176
     1
 90
        6
176
     1
 90
        2
176
     1
 62
     7
176
     1
 90
        3
176
     1
 90
        0
176
     1
 90
        0
176
     1
290
     0
176
     1
 90
       13
176
     1
 40
0.0
176
     1
 90
        0
176
     1
290
     0
176
     1
290
     1
176
     1
290
     1
176
     1
290
     0
176
     1
290
     0
176
     1
290
     0
176
     1
290
     0
176
     1
290
     0
176
     1
290
     0
176
     1
 90
       50
176
     1
 40
0.0
176
     1
 40
1.0
176
     1
 90
        0
176
     1
 62
    18
420
        0
176
     1
 90
       50
176
     1
 90
        3
176
     1
 62
     5
420
      255
176
     1
290
     0
176
     1
 90
       50
176
     1
 90
       50
176
     1
 90
       50
176
     1
290
     0
176
     1
 90
       50
176
     1
 62
   256
176
     0
 40
1.0
176
     0
 90
        2
176
     1
  1
strokes_ogs.tif
176
     1
290
     0
176
     1
 40
1.0
176
     1
 40
1.0
176
     1
  0
VISUALSTYLE
  5
1CF
102
{ACAD_REACTORS
330
1B7
102
}
330
1B7
100
AcDbVisualStyle
  2
Shaded
 70
    27
177
     3
291
     0
 70
    58
 90
        2
176
     1
 90
        2
176
     1
 90
        1
176
     1
 90
        2
176
     1
 40
0.6
176
     1
 40
30.0
176
     1
 62
     7
420
 16777215
176
     1
 90
        0
176
     1
 90
        4
176
     1
 62
     7
176
     1
 62
   257
176
     1
 90
        1
176
     1
 90
        1
176
     1
 40
1.0
176
     1
 90
        8
176
     1
 62
   257
176
     1
 40
1.0
176
     1
 90
        1
176
     1
 90
        6
176
     1
 90
        2
176
     1
 62
     8
420
  7895160
176
     1
 90
        3
176
     1
 90
        0
176
     1
 90
        0
176
     1
290
     0
176
     1
 90
        5
176
     1
 40
0.0
176
     1
 90
        0
176
     1
290
     0
176
     1
290
     1
176
     1
290
     1
176
     1
290
     0
176
     1
290
     0
176
     1
290
     0
176
     1
290
     0
176
     1
290
     0
176
     1
290
     0
176
     1
 90
       50
176
     1
 40
0.0
176
     1
 40
1.0
176
     1
 90
        0
176
     1
 62
    18
420
        0
176
     1
 90
       50
176
     1
 90
        3
176
     1
 62
     5
420
      255
176
     1
290
     0
176
     1
 90
       50
176
     1
 90
       50
176
     1
 90
       50
176
     1
290
     0
176
     1
 90
       50
176
     1
 62
   256
176
     0
 40
1.0
176
     0
 90
        2
176
     1
  1
strokes_ogs.tif
176
     1
290
     0
176
     1
 40
1.0
176
     1
 40
1.0
176
     1
  0
VISUALSTYLE
  5
1CE
102
{ACAD_REACTORS
330
1B7
102
}
330
1B7
100
AcDbVisualStyle
  2
Shaded with edges
 70
    26
177
     3
291
     0
 70
    58
 90
        2
176
     1
 90
        2
176
     1
 90
        1
176
     1
 90
        2
176
     1
 40
0.6
176
     1
 40
30.0
176
     1
 62
     7
420
 16777215
176
     1
 90
        1
176
     1
 90
       10
176
     1
 62
     7
176
     1
 62
   257
176
     1
 90
        2
176
     1
 90
        1
176
     1
 40
1.0
176
     1
 90
        8
176
     1
 62
   257
176
     1
 40
1.0
176
     1
 90
        1
176
     1
 90
        6
176
     1
 90
        2
176
     1
 62
     7
176
     1
 90
        3
176
     1
 90
        0
176
     1
 90
        0
176
     1
290
     0
176
     1
 90
        5
176
     1
 40
0.0
176
     1
 90
        0
176
     1
290
     0
176
     1
290
     1
176
     1
290
     1
176
     1
290
     0
176
     1
290
     0
176
     1
290
     0
176
     1
290
     0
176
     1
290
     0
176
     1
290
     0
176
     1
 90
       50
176
     1
 40
0.0
176
     1
 40
1.0
176
     1
 90
        0
176
     1
 62
    18
420
        0
176
     1
 90
       50
176
     1
 90
        3
176
     1
 62
     5
420
      255
176
     1
290
     0
176
     1
 90
       50
176
     1
 90
       50
176
     1
 90
       50
176
     1
290
     0
176
     1
 90
       50
176
     1
 62
   256
176
     0
 40
1.0
176
     0
 90
        2
176
     1
  1
strokes_ogs.tif
176
     1
290
     0
176
     1
 40
1.0
176
     1
 40
1.0
176
     1
  0
VISUALSTYLE
  5
1CB
102
{ACAD_REACTORS
330
1B7
102
}
330
1B7
100
AcDbVisualStyle
  2
Shades of Gray
 70
    23
177
     3
291
     0
 70
    58
 90
        2
176
     1
 90
        2
176
     1
 90
        3
176
     1
 90
        0
176
     1
 40
0.6
176
     1
 40
30.0
176
     1
 62
     7
420
 16777215
176
     1
 90
        2
176
     1
 90
        2
176
     1
 62
     7
176
     1
 62
     7
176
     1
 90
        1
176
     1
 90
        1
176
     1
 40
40.0
176
     1
 90
        8
176
     1
 62
     7
176
     1
 40
1.0
176
     1
 90
        1
176
     1
 90
        6
176
     1
 90
        2
176
     1
 62
     7
176
     1
 90
        3
176
     1
 90
        0
176
     1
 90
        0
176
     1
290
     0
176
     1
 90
        1
176
     1
 40
0.0
176
     1
 90
        0
176
     1
290
     0
176
     1
290
     1
176
     1
290
     1
176
     1
290
     0
176
     1
290
     0
176
     1
290
     0
176
     1
290
     0
176
     1
290
     0
176
     1
290
     0
176
     1
 90
       50
176
     1
 40
0.0
176
     1
 40
1.0
176
     1
 90
        0
176
     1
 62
    18
420
        0
176
     1
 90
       50
176
     1
 90
        3
176
     1
 62
     5
420
      255
176
     1
290
     0
176
     1
 90
       50
176
     1
 90
       50
176
     1
 90
       50
176
     1
290
     0
176
     1
 90
       50
176
     1
 62
   256
176
     0
 40
1.0
176
     0
 90
        2
176
     1
  1
strokes_ogs.tif
176
     1
290
     0
176
     1
 40
1.0
176
     1
 40
1.0
176
     1
  0
VISUALSTYLE
  5
1CC
102
{ACAD_REACTORS
330
1B7
102
}
330
1B7
100
AcDbVisualStyle
  2
Sketchy
 70
    24
177
     3
291
     0
 70
    58
 90
        1
176
     1
 90
        2
176
     1
 90
        2
176
     1
 90
        0
176
     1
 40
0.6
176
     1
 40
30.0
176
     1
 62
     7
420
 16777215
176
     1
 90
        2
176
     1
 90
        2
176
     1
 62
     7
176
     1
 62
     7
176
     1
 90
        1
176
     1
 90
        1
176
     1
 40
40.0
176
     1
 90
       11
176
     1
 62
     7
176
     1
 40
1.0
176
     1
 90
        1
176
     1
 90
        6
176
     1
 90
        2
176
     1
 62
     7
176
     1
 90
        6
176
     1
 90
        0
176
     1
 90
        0
176
     1
290
     0
176
     1
 90
        1
176
     1
 40
0.0
176
     1
 90
        0
176
     1
290
     0
176
     1
290
     1
176
     1
290
     1
176
     1
290
     0
176
     1
290
     0
176
     1
290
     0
176
     1
290
     0
176
     1
290
     0
176
     1
290
     0
176
     1
 90
       50
176
     1
 40
0.0
176
     1
 40
1.0
176
     1
 90
        0
176
     1
 62
    18
420
        0
176
     1
 90
       50
176
     1
 90
        3
176
     1
 62
     5
420
      255
176
     1
290
     0
176
     1
 90
       50
176
     1
 90
       50
176
     1
 90
       50
176
     1
290
     0
176
     1
 90
       50
176
     1
 62
   256
176
     0
 40
1.0
176
     0
 90
        2
176
     1
  1
strokes_ogs.tif
176
     1
290
     0
176
     1
 40
1.0
176
     1
 40
1.0
176
     1
  0
VISUALSTYLE
  5
1C4
102
{ACAD_REACTORS
330
1B7
102
}
330
1B7
100
AcDbVisualStyle
  2
Thicken
 70
    13
177
     3
291
     1
 70
    58
 90
        2
176
     1
 90
        2
176
     1
 90
        0
176
     1
 90
        0
176
     1
 40
0.6
176
     1
 40
30.0
176
     1
 62
     7
420
 16777215
176
     1
 90
        1
176
     1
 90
        4
176
     1
 62
     7
176
     1
 62
   257
176
     1
 90
        1
176
     1
 90
        1
176
     1
 40
1.0
176
     1
 90
       12
176
     1
 62
     7
176
     1
 40
1.0
176
     1
 90
        1
176
     1
 90
        6
176
     1
 90
        2
176
     1
 62
     7
176
     1
 90
        5
176
     1
 90
        0
176
     1
 90
        0
176
     1
290
     0
176
     1
 90
        1
176
     1
 40
0.0
176
     1
 90
        0
176
     1
290
     0
176
     1
290
     1
176
     1
290
     1
176
     1
290
     0
176
     1
290
     0
176
     1
290
     0
176
     1
290
     0
176
     1
290
     0
176
     1
290
     0
176
     1
 90
       50
176
     1
 40
0.0
176
     1
 40
1.0
176
     1
 90
        0
176
     1
 62
    18
420
        0
176
     1
 90
       50
176
     1
 90
        3
176
     1
 62
     5
420
      255
176
     1
290
     0
176
     1
 90
       50
176
     1
 90
       50
176
     1
 90
       50
176
     1
290
     0
176
     1
 90
       50
176
     1
 62
   256
176
     0
 40
1.0
176
     0
 90
        2
176
     1
  1
strokes_ogs.tif
176
     1
290
     0
176
     1
 40
1.0
176
     1
 40
1.0
176
     1
  0
VISUALSTYLE
  5
1BD
102
{ACAD_REACTORS
330
1B7
102
}
330
1B7
100
AcDbVisualStyle
  2
Wireframe
 70
     5
177
     3
291
     0
 70
    58
 90
        0
176
     1
 90
        2
176
     1
 90
        0
176
     1
 90
        0
176
     1
 40
0.6
176
     1
 40
30.0
176
     1
 62
     7
420
 16777215
176
     1
 90
        1
176
     1
 90
        4
176
     1
 62
     7
176
     1
 62
   257
176
     1
 90
        1
176
     1
 90
        1
176
     1
 40
1.0
176
     1
 90
        0
176
     1
 62
   257
176
     1
 40
1.0
176
     1
 90
        1
176
     1
 90
        6
176
     1
 90
        2
176
     1
 62
     7
176
     1
 90
        3
176
     1
 90
        0
176
     1
 90
        0
176
     1
290
     0
176
     1
 90
        1
176
     1
 40
0.0
176
     1
 90
        0
176
     1
290
     0
176
     1
290
     1
176
     1
290
     1
176
     1
290
     0
176
     1
290
     0
176
     1
290
     0
176
     1
290
     0
176
     1
290
     0
176
     1
290
     0
176
     1
 90
       50
176
     1
 40
0.0
176
     1
 40
1.0
176
     1
 90
        0
176
     1
 62
    18
420
        0
176
     1
 90
       50
176
     1
 90
        3
176
     1
 62
     5
420
      255
176
     1
290
     0
176
     1
 90
       50
176
     1
 90
       50
176
     1
 90
       50
176
     1
290
     0
176
     1
 90
       50
176
     1
 62
   256
176
     0
 40
1.0
176
     0
 90
        2
176
     1
  1
strokes_ogs.tif
176
     1
290
     0
176
     1
 40
1.0
176
     1
 40
1.0
176
     1
  0
VISUALSTYLE
  5
1CD
102
{ACAD_REACTORS
330
1B7
102
}
330
1B7
100
AcDbVisualStyle
  2
X-Ray
 70
    25
177
     3
291
     0
 70
    58
 90
        2
176
     1
 90
        2
176
     1
 90
        1
176
     1
 90
        1
176
     1
 40
0.5
176
     1
 40
30.0
176
     1
 62
     7
420
 16777215
176
     1
 90
        1
176
     1
 90
        0
176
     1
 62
     7
176
     1
 62
   257
176
     1
 90
        1
176
     1
 90
        1
176
     1
 40
1.0
176
     1
 90
        8
176
     1
 62
     7
176
     1
 40
1.0
176
     1
 90
        1
176
     1
 90
        6
176
     1
 90
        2
176
     1
 62
     7
176
     1
 90
        3
176
     1
 90
        0
176
     1
 90
        0
176
     1
290
     0
176
     1
 90
       13
176
     1
 40
0.0
176
     1
 90
        0
176
     1
290
     0
176
     1
290
     1
176
     1
290
     1
176
     1
290
     0
176
     1
290
     0
176
     1
290
     0
176
     1
290
     0
176
     1
290
     0
176
     1
290
     0
176
     1
 90
       50
176
     1
 40
0.0
176
     1
 40
1.0
176
     1
 90
        0
176
     1
 62
    18
420
        0
176
     1
 90
       50
176
     1
 90
        3
176
     1
 62
     5
420
      255
176
     1
290
     0
176
     1
 90
       50
176
     1
 90
       50
176
     1
 90
       50
176
     1
290
     0
176
     1
 90
       50
176
     1
 62
   256
176
     0
 40
1.0
176
     0
 90
        2
176
     1
  1
strokes_ogs.tif
176
     1
290
     0
176
     1
 40
1.0
176
     1
 40
1.0
176
     1
  0
DICTIONARYVAR
  5
1DC
102
{ACAD_REACTORS
330
1DB
102
}
330
1DB
100
DictionaryVariables
280
     0
  1
1:1
  0
DICTIONARYVAR
  5
1E1
102
{ACAD_REACTORS
330
1DB
102
}
330
1DB
100
DictionaryVariables
280
     0
  1
Standard
  0
DICTIONARYVAR
  5
1E0
102
{ACAD_REACTORS
330
1DB
102
}
330
1DB
100
DictionaryVariables
280
     0
  1
Standard
  0
DICTIONARYVAR
  5
1E2
102
{ACAD_REACTORS
330
1DB
102
}
330
1DB
100
DictionaryVariables
280
     0
  1
0
  0
DICTIONARY
  5
1DD
330
1D5
100
AcDbDictionary
280
     1
281
     1
  3
ACAD_ROUNDTRIP_2008_TABLESTYLE_CELLSTYLEMAP
360
1DE
  0
CELLSTYLEMAP
  5
1DE
102
{ACAD_REACTORS
330
1DD
102
}
330
1DD
100
AcDbCellStyleMap
 90
        3
300
CELLSTYLE
  1
TABLEFORMAT_BEGIN
 90
        5
170
     1
 91
        0
 92
    32768
 62
   257
 93
        1
300
CONTENTFORMAT
  1
CONTENTFORMAT_BEGIN
 90
        0
 91
        0
 92
        4
 93
        0
300

 40
0.0
140
1.0
 94
        5
 62
     0
340
11
144
6.0
309
CONTENTFORMAT_END
171
     1
301
MARGIN
  1
CELLMARGIN_BEGIN
 40
1.5
 40
1.5
 40
1.5
 40
1.5
 40
1.5
 40
1.5
309
CELLMARGIN_END
 94
        6
 95
        1
302
GRIDFORMAT
  1
GRIDFORMAT_BEGIN
 90
        0
 91
        1
 62
     0
 92
       -2
340
14
 93
        0
 40
0.045
309
GRIDFORMAT_END
 95
        2
302
GRIDFORMAT
  1
GRIDFORMAT_BEGIN
 90
        0
 91
        1
 62
     0
 92
       -2
340
14
 93
        0
 40
0.045
309
GRIDFORMAT_END
 95
        4
302
GRIDFORMAT
  1
GRIDFORMAT_BEGIN
 90
        0
 91
        1
 62
     0
 92
       -2
340
14
 93
        0
 40
0.045
309
GRIDFORMAT_END
 95
        8
302
GRIDFORMAT
  1
GRIDFORMAT_BEGIN
 90
        0
 91
        1
 62
     0
 92
       -2
340
14
 93
        0
 40
0.045
309
GRIDFORMAT_END
 95
       16
302
GRIDFORMAT
  1
GRIDFORMAT_BEGIN
 90
        0
 91
        1
 62
     0
 92
       -2
340
14
 93
        0
 40
0.045
309
GRIDFORMAT_END
 95
       32
302
GRIDFORMAT
  1
GRIDFORMAT_BEGIN
 90
        0
 91
        1
 62
     0
 92
       -2
340
14
 93
        0
 40
0.045
309
GRIDFORMAT_END
309
TABLEFORMAT_END
  1
CELLSTYLE_BEGIN
 90
        1
 91
        1
300
_TITLE
309
CELLSTYLE_END
300
CELLSTYLE
  1
TABLEFORMAT_BEGIN
 90
        5
170
     1
 91
        0
 92
        0
 62
   257
 93
        1
300
CONTENTFORMAT
  1
CONTENTFORMAT_BEGIN
 90
        0
 91
        0
 92
        4
 93
        0
300

 40
0.0
140
1.0
 94
        5
 62
     0
340
11
144
4.5
309
CONTENTFORMAT_END
171
     1
301
MARGIN
  1
CELLMARGIN_BEGIN
 40
1.5
 40
1.5
 40
1.5
 40
1.5
 40
1.5
 40
1.5
309
CELLMARGIN_END
 94
        6
 95
        1
302
GRIDFORMAT
  1
GRIDFORMAT_BEGIN
 90
        0
 91
        1
 62
     0
 92
       -2
340
14
 93
        0
 40
0.045
309
GRIDFORMAT_END
 95
        2
302
GRIDFORMAT
  1
GRIDFORMAT_BEGIN
 90
        0
 91
        1
 62
     0
 92
       -2
340
14
 93
        0
 40
0.045
309
GRIDFORMAT_END
 95
        4
302
GRIDFORMAT
  1
GRIDFORMAT_BEGIN
 90
        0
 91
        1
 62
     0
 92
       -2
340
14
 93
        0
 40
0.045
309
GRIDFORMAT_END
 95
        8
302
GRIDFORMAT
  1
GRIDFORMAT_BEGIN
 90
        0
 91
        1
 62
     0
 92
       -2
340
14
 93
        0
 40
0.045
309
GRIDFORMAT_END
 95
       16
302
GRIDFORMAT
  1
GRIDFORMAT_BEGIN
 90
        0
 91
        1
 62
     0
 92
       -2
340
14
 93
        0
 40
0.045
309
GRIDFORMAT_END
 95
       32
302
GRIDFORMAT
  1
GRIDFORMAT_BEGIN
 90
        0
 91
        1
 62
     0
 92
       -2
340
14
 93
        0
 40
0.045
309
GRIDFORMAT_END
309
TABLEFORMAT_END
  1
CELLSTYLE_BEGIN
 90
        2
 91
        1
300
_HEADER
309
CELLSTYLE_END
300
CELLSTYLE
  1
TABLEFORMAT_BEGIN
 90
        5
170
     1
 91
        0
 92
        0
 62
   257
 93
        1
300
CONTENTFORMAT
  1
CONTENTFORMAT_BEGIN
 90
        0
 91
        0
 92
        4
 93
        0
300

 40
0.0
140
1.0
 94
        2
 62
     0
340
11
144
4.5
309
CONTENTFORMAT_END
171
     1
301
MARGIN
  1
CELLMARGIN_BEGIN
 40
1.5
 40
1.5
 40
1.5
 40
1.5
 40
1.5
 40
1.5
309
CELLMARGIN_END
 94
        6
 95
        1
302
GRIDFORMAT
  1
GRIDFORMAT_BEGIN
 90
        0
 91
        1
 62
     0
 92
       -2
340
14
 93
        0
 40
0.045
309
GRIDFORMAT_END
 95
        2
302
GRIDFORMAT
  1
GRIDFORMAT_BEGIN
 90
        0
 91
        1
 62
     0
 92
       -2
340
14
 93
        0
 40
0.045
309
GRIDFORMAT_END
 95
        4
302
GRIDFORMAT
  1
GRIDFORMAT_BEGIN
 90
        0
 91
        1
 62
     0
 92
       -2
340
14
 93
        0
 40
0.045
309
GRIDFORMAT_END
 95
        8
302
GRIDFORMAT
  1
GRIDFORMAT_BEGIN
 90
        0
 91
        1
 62
     0
 92
       -2
340
14
 93
        0
 40
0.045
309
GRIDFORMAT_END
 95
       16
302
GRIDFORMAT
  1
GRIDFORMAT_BEGIN
 90
        0
 91
        1
 62
     0
 92
       -2
340
14
 93
        0
 40
0.045
309
GRIDFORMAT_END
 95
       32
302
GRIDFORMAT
  1
GRIDFORMAT_BEGIN
 90
        0
 91
        1
 62
     0
 92
       -2
340
14
 93
        0
 40
0.045
309
GRIDFORMAT_END
309
TABLEFORMAT_END
  1
CELLSTYLE_BEGIN
 90
        3
 91
        2
300
_DATA
309
CELLSTYLE_END
  0
ENDSEC
  0
EOF
