  0
SECTION
  2
HEADER
  9
$ACADVER
  1
AC1032
  9
$ACADMAINTVER
 90
        4
  9
$DWGCODEPAGE
  3
ANSI_1252
  9
$LASTSAVEDBY
  1
MKramer
  9
$REQUIREDVERSIONS
160
                 0
  9
$INSBASE
 10
0.0
 20
0.0
 30
0.0
  9
$EXTMIN
 10
33.76143973320001
 20
37.46023423129998
 30
0.0
  9
$EXTMAX
 10
520.6771150059001
 20
450.8439868851
 30
0.0
  9
$LIMMIN
 10
0.0
 20
0.0
  9
$LIMMAX
 10
594.0
 20
841.0
  9
$ORTHOMODE
 70
     0
  9
$REGENMODE
 70
     1
  9
$FILLMODE
 70
     1
  9
$QTEXTMODE
 70
     0
  9
$MIRRTEXT
 70
     1
  9
$LTSCALE
 40
1.0
  9
$ATTMODE
 70
     1
  9
$TEXTSIZE
 40
10.0
  9
$TRACEWID
 40
1.0
  9
$TEXTSTYLE
  7
STANDARD
  9
$CLAYER
  8
0
  9
$CELTYPE
  6
ByLayer
  9
$CECOLOR
 62
   256
  9
$CELTSCALE
 40
1.0
  9
$DISPSILH
 70
     0
  9
$DIMSCALE
 40
1.0
  9
$DIMASZ
 40
2.5
  9
$DIMEXO
 40
0.0
  9
$DIMDLI
 40
3.75
  9
$DIMRND
 40
0.0
  9
$DIMDLE
 40
0.0
  9
$DIMEXE
 40
1.0
  9
$DIMTP
 40
0.0
  9
$DIMTM
 40
0.0
  9
$DIMTXT
 40
3.5
  9
$DIMCEN
 40
2.5
  9
$DIMTSZ
 40
0.0
  9
$DIMTOL
 70
     0
  9
$DIMLIM
 70
     0
  9
$DIMTIH
 70
     1
  9
$DIMTOH
 70
     1
  9
$DIMSE1
 70
     0
  9
$DIMSE2
 70
     0
  9
$DIMTAD
 70
     1
  9
$DIMZIN
 70
     0
  9
$DIMBLK
  1

  9
$DIMASO
 70
     1
  9
$DIMSHO
 70
     1
  9
$DIMPOST
  1

  9
$DIMAPOST
  1

  9
$DIMALT
 70
     0
  9
$DIMALTD
 70
     3
  9
$DIMALTF
 40
0.0393700787
  9
$DIMLFAC
 40
1.0
  9
$DIMTOFL
 70
     1
  9
$DIMTVP
 40
0.0
  9
$DIMTIX
 70
     0
  9
$DIMSOXD
 70
     0
  9
$DIMSAH
 70
     0
  9
$DIMBLK1
  1

  9
$DIMBLK2
  1

  9
$DIMSTYLE
  2
ISO-25
  9
$DIMCLRD
 70
     0
  9
$DIMCLRE
 70
     0
  9
$DIMCLRT
 70
     0
  9
$DIMTFAC
 40
1.0
  9
$DIMGAP
 40
1.5
  9
$DIMJUST
 70
     0
  9
$DIMSD1
 70
     0
  9
$DIMSD2
 70
     0
  9
$DIMTOLJ
 70
     1
  9
$DIMTZIN
 70
     0
  9
$DIMALTZ
 70
     0
  9
$DIMALTTZ
 70
     0
  9
$DIMUPT
 70
     0
  9
$DIMDEC
 70
     2
  9
$DIMTDEC
 70
     2
  9
$DIMALTU
 70
     2
  9
$DIMALTTD
 70
     2
  9
$DIMTXSTY
  7
STANDARD
  9
$DIMAUNIT
 70
     0
  9
$DIMADEC
 70
     0
  9
$DIMALTRND
 40
0.0
  9
$DIMAZIN
 70
     0
  9
$DIMDSEP
 70
    46
  9
$DIMATFIT
 70
     3
  9
$DIMFRAC
 70
     0
  9
$DIMLDRBLK
  1

  9
$DIMLUNIT
 70
     2
  9
$DIMLWD
 70
    -2
  9
$DIMLWE
 70
    -2
  9
$DIMTMOVE
 70
     2
  9
$DIMFXL
 40
1.0
  9
$DIMFXLON
 70
     0
  9
$DIMJOGANG
 40
0.7853981633974483
  9
$DIMTFILL
 70
     0
  9
$DIMTFILLCLR
 70
     0
  9
$DIMARCSYM
 70
     0
  9
$DIMLTYPE
  6

  9
$DIMLTEX1
  6

  9
$DIMLTEX2
  6

  9
$DIMTXTDIRECTION
 70
     0
  9
$LUNITS
 70
     2
  9
$LUPREC
 70
     2
  9
$SKETCHINC
 40
1.0
  9
$FILLETRAD
 40
10.0
  9
$AUNITS
 70
     0
  9
$AUPREC
 70
     2
  9
$MENU
  1
.
  9
$ELEVATION
 40
0.0
  9
$PELEVATION
 40
0.0
  9
$THICKNESS
 40
0.0
  9
$LIMCHECK
 70
     0
  9
$CHAMFERA
 40
0.0
  9
$CHAMFERB
 40
0.0
  9
$CHAMFERC
 40
0.0
  9
$CHAMFERD
 40
0.0
  9
$SKPOLY
 70
     0
  9
$TDCREATE
 40
2458400.487797338
  9
$TDUCREATE
 40
2458400.446130671
  9
$TDUPDATE
 40
2459915.550016632
  9
$TDUUPDATE
 40
2459915.508349965
  9
$TDINDWG
 40
0.0004228819
  9
$TDUSRTIMER
 40
0.0004228704
  9
$USRTIMER
 70
     1
  9
$ANGBASE
 50
0.0
  9
$ANGDIR
 70
     0
  9
$PDMODE
 70
     0
  9
$PDSIZE
 40
-1.0
  9
$PLINEWID
 40
0.0
  9
$SPLFRAME
 70
     0
  9
$SPLINETYPE
 70
     6
  9
$SPLINESEGS
 70
     8
  9
$HANDSEED
  5
528
  9
$SURFTAB1
 70
     6
  9
$SURFTAB2
 70
     6
  9
$SURFTYPE
 70
     6
  9
$SURFU
 70
     6
  9
$SURFV
 70
     6
  9
$UCSBASE
  2

  9
$UCSNAME
  2

  9
$UCSORG
 10
0.0
 20
0.0
 30
0.0
  9
$UCSXDIR
 10
1.0
 20
0.0
 30
0.0
  9
$UCSYDIR
 10
0.0
 20
1.0
 30
0.0
  9
$UCSORTHOREF
  2

  9
$UCSORTHOVIEW
 70
     0
  9
$UCSORGTOP
 10
0.0
 20
0.0
 30
0.0
  9
$UCSORGBOTTOM
 10
0.0
 20
0.0
 30
0.0
  9
$UCSORGLEFT
 10
0.0
 20
0.0
 30
0.0
  9
$UCSORGRIGHT
 10
0.0
 20
0.0
 30
0.0
  9
$UCSORGFRONT
 10
0.0
 20
0.0
 30
0.0
  9
$UCSORGBACK
 10
0.0
 20
0.0
 30
0.0
  9
$PUCSBASE
  2

  9
$PUCSNAME
  2

  9
$PUCSORG
 10
0.0
 20
0.0
 30
0.0
  9
$PUCSXDIR
 10
1.0
 20
0.0
 30
0.0
  9
$PUCSYDIR
 10
0.0
 20
1.0
 30
0.0
  9
$PUCSORTHOREF
  2

  9
$PUCSORTHOVIEW
 70
     0
  9
$PUCSORGTOP
 10
0.0
 20
0.0
 30
0.0
  9
$PUCSORGBOTTOM
 10
0.0
 20
0.0
 30
0.0
  9
$PUCSORGLEFT
 10
0.0
 20
0.0
 30
0.0
  9
$PUCSORGRIGHT
 10
0.0
 20
0.0
 30
0.0
  9
$PUCSORGFRONT
 10
0.0
 20
0.0
 30
0.0
  9
$PUCSORGBACK
 10
0.0
 20
0.0
 30
0.0
  9
$USERI1
 70
     0
  9
$USERI2
 70
     0
  9
$USERI3
 70
     0
  9
$USERI4
 70
     0
  9
$USERI5
 70
     0
  9
$USERR1
 40
0.0
  9
$USERR2
 40
0.0
  9
$USERR3
 40
0.0
  9
$USERR4
 40
0.0
  9
$USERR5
 40
0.0
  9
$WORLDVIEW
 70
     1
  9
$SHADEDGE
 70
     3
  9
$SHADEDIF
 70
    70
  9
$TILEMODE
 70
     1
  9
$MAXACTVP
 70
    64
  9
$PINSBASE
 10
0.0
 20
0.0
 30
0.0
  9
$PLIMCHECK
 70
     0
  9
$PEXTMIN
 10
1.000000000000000E+20
 20
1.000000000000000E+20
 30
1.000000000000000E+20
  9
$PEXTMAX
 10
-1.000000000000000E+20
 20
-1.000000000000000E+20
 30
-1.000000000000000E+20
  9
$PLIMMIN
 10
0.0
 20
0.0
  9
$PLIMMAX
 10
0.0
 20
0.0
  9
$UNITMODE
 70
     0
  9
$VISRETAIN
 70
     1
  9
$PLINEGEN
 70
     0
  9
$PSLTSCALE
 70
     1
  9
$TREEDEPTH
 70
  3020
  9
$CMLSTYLE
  2
Standard
  9
$CMLJUST
 70
     0
  9
$CMLSCALE
 40
1.0
  9
$PROXYGRAPHICS
 70
     1
  9
$MEASUREMENT
 70
     0
  9
$CELWEIGHT
370
    -1
  9
$ENDCAPS
280
     0
  9
$JOINSTYLE
280
     0
  9
$LWDISPLAY
290
     0
  9
$INSUNITS
 70
     0
  9
$HYPERLINKBASE
  1

  9
$STYLESHEET
  1

  9
$XEDIT
290
     1
  9
$CEPSNTYPE
380
     0
  9
$PSTYLEMODE
290
     1
  9
$FINGERPRINTGUID
  2
{04351201-afaf-4955-9cdc-a7521d4141f1}
  9
$VERSIONGUID
  2
{FAEB1C32-E019-11D5-929B-00C0DF256EC4}
  9
$EXTNAMES
290
     1
  9
$PSVPSCALE
 40
0.0
  9
$OLESTARTUP
290
     0
  9
$SORTENTS
280
   127
  9
$INDEXCTL
280
     0
  9
$HIDETEXT
280
     1
  9
$XCLIPFRAME
280
     2
  9
$HALOGAP
280
     0
  9
$OBSCOLOR
 70
   257
  9
$OBSLTYPE
280
     0
  9
$INTERSECTIONDISPLAY
280
     0
  9
$INTERSECTIONCOLOR
 70
   257
  9
$DIMASSOC
280
     2
  9
$PROJECTNAME
  1

  9
$CAMERADISPLAY
290
     0
  9
$LENSLENGTH
 40
50.0
  9
$CAMERAHEIGHT
 40
0.0
  9
$STEPSPERSEC
 40
2.0
  9
$STEPSIZE
 40
6.0
  9
$3DDWFPREC
 40
2.0
  9
$PSOLWIDTH
 40
0.25
  9
$PSOLHEIGHT
 40
4.0
  9
$LOFTANG1
 40
1.570796326794897
  9
$LOFTANG2
 40
1.570796326794897
  9
$LOFTMAG1
 40
0.0
  9
$LOFTMAG2
 40
0.0
  9
$LOFTPARAM
 70
     7
  9
$LOFTNORMALS
280
     1
  9
$LATITUDE
 40
37.795
  9
$LONGITUDE
 40
-122.394
  9
$NORTHDIRECTION
 40
0.0
  9
$TIMEZONE
 70
 -8000
  9
$LIGHTGLYPHDISPLAY
280
     1
  9
$TILEMODELIGHTSYNCH
280
     1
  9
$SOLIDHIST
280
     0
  9
$SHOWHIST
280
     1
  9
$DWFFRAME
280
     2
  9
$DGNFRAME
280
     2
  9
$REALWORLDSCALE
290
     1
  9
$INTERFERECOLOR
 62
   256
  9
$CSHADOW
280
     0
  9
$SHADOWPLANELOCATION
 40
0.0
  0
ENDSEC
  0
SECTION
  2
CLASSES
  0
CLASS
  1
ACDBDICTIONARYWDFLT
  2
AcDbDictionaryWithDefault
  3
ObjectDBX Classes
 90
        0
 91
        3
280
     0
281
     0
  0
CLASS
  1
MATERIAL
  2
AcDbMaterial
  3
ObjectDBX Classes
 90
     1153
 91
        3
280
     0
281
     0
  0
CLASS
  1
SCALE
  2
AcDbScale
  3
ObjectDBX Classes
 90
     1153
 91
        3
280
     0
281
     0
  0
CLASS
  1
VISUALSTYLE
  2
AcDbVisualStyle
  3
ObjectDBX Classes
 90
     4095
 91
        3
280
     0
281
     0
  0
CLASS
  1
TABLESTYLE
  2
AcDbTableStyle
  3
ObjectDBX Classes
 90
     4095
 91
        3
280
     0
281
     0
  0
CLASS
  1
MLEADERSTYLE
  2
AcDbMLeaderStyle
  3
ACDB_MLEADERSTYLE_CLASS
 90
     4095
 91
        3
280
     0
281
     0
  0
CLASS
  1
DICTIONARYVAR
  2
AcDbDictionaryVar
  3
ObjectDBX Classes
 90
        0
 91
        3
280
     0
281
     0
  0
CLASS
  1
CELLSTYLEMAP
  2
AcDbCellStyleMap
  3
ObjectDBX Classes
 90
     1152
 91
        3
280
     0
281
     0
  0
ENDSEC
  0
SECTION
  2
TABLES
  0
TABLE
  2
VPORT
  5
4AF
330
0
100
AcDbSymbolTable
 70
     1
  0
VPORT
  5
4C6
330
4AF
100
AcDbSymbolTableRecord
100
AcDbViewportTableRecord
  2
*ACTIVE
 70
     0
 10
0.0
 20
0.0
 11
1.0
 21
1.0
 12
297.0
 22
420.5
 13
0.0
 23
0.0
 14
10.0
 24
10.0
 15
10.0
 25
10.0
 16
0.0
 26
0.0
 36
1.0
 17
0.0
 27
0.0
 37
0.0
 40
841.0
 41
0.7063020214
 42
50.0
 43
0.0
 44
0.0
 50
0.0
 51
0.0
 71
     0
 72
  2000
 73
     1
 74
     3
 75
     0
 76
     0
 77
     0
 78
     0
281
     0
 65
     0
110
0.0
120
0.0
130
0.0
111
1.0
121
0.0
131
0.0
112
0.0
122
1.0
132
0.0
 79
     0
146
0.0
348
503
 60
     3
 61
     5
292
     1
282
     1
141
0.0
142
0.0
 63
   256
  0
ENDTAB
  0
TABLE
  2
LTYPE
  5
4AC
330
0
100
AcDbSymbolTable
 70
     6
  0
LTYPE
  5
4BA
330
4AC
100
AcDbSymbolTableRecord
100
AcDbLinetypeTableRecord
  2
ByBlock
 70
     0
  3

 72
    65
 73
     0
 40
0.0
  0
LTYPE
  5
4BB
330
4AC
100
AcDbSymbolTableRecord
100
AcDbLinetypeTableRecord
  2
ByLayer
 70
     0
  3

 72
    65
 73
     0
 40
0.0
  0
LTYPE
  5
4BC
330
4AC
100
AcDbSymbolTableRecord
100
AcDbLinetypeTableRecord
  2
CONTINUOUS
 70
     0
  3
Solid line
 72
    65
 73
     0
 40
0.0
  0
LTYPE
  5
4C8
330
4AC
100
AcDbSymbolTableRecord
100
AcDbLinetypeTableRecord
  2
HIDDEN
 70
     0
  3
Hidden __ __ __ __ __ __ __ __ __ __ __ __ __ __
 72
    65
 73
     2
 40
1.905
 49
1.27
 74
     0
 49
-0.635
 74
     0
  0
LTYPE
  5
4C9
330
4AC
100
AcDbSymbolTableRecord
100
AcDbLinetypeTableRecord
  2
PHANTOM
 70
     0
  3
Phantom ______  __  __  ______  __  __  ______
 72
    65
 73
     6
 40
12.7
 49
6.35
 74
     0
 49
-1.27
 74
     0
 49
1.27
 74
     0
 49
-1.27
 74
     0
 49
1.27
 74
     0
 49
-1.27
 74
     0
  0
LTYPE
  5
4CA
330
4AC
100
AcDbSymbolTableRecord
100
AcDbLinetypeTableRecord
  2
CENTER
 70
     0
  3
Center ____ _ ____ _ ____ _ ____ _ ____ _ ____
 72
    65
 73
     4
 40
10.16
 49
6.35
 74
     0
 49
-1.27
 74
     0
 49
1.27
 74
     0
 49
-1.27
 74
     0
  0
LTYPE
  5
4CB
330
4AC
100
AcDbSymbolTableRecord
100
AcDbLinetypeTableRecord
  2
CENTERX2
 70
     0
  3
Center (2x) ________  __  ________  __  _____
 72
    65
 73
     4
 40
20.32
 49
12.7
 74
     0
 49
-2.54
 74
     0
 49
2.54
 74
     0
 49
-2.54
 74
     0
  0
LTYPE
  5
4CC
330
4AC
100
AcDbSymbolTableRecord
100
AcDbLinetypeTableRecord
  2
DOT2
 70
     0
  3
Dot (.5x) ........................................
 72
    65
 73
     2
 40
0.635
 49
0.0
 74
     0
 49
-0.635
 74
     0
  0
ENDTAB
  0
TABLE
  2
LAYER
  5
4AA
330
0
100
AcDbSymbolTable
 70
     1
  0
LAYER
  5
4B7
330
4AA
100
AcDbSymbolTableRecord
100
AcDbLayerTableRecord
  2
0
 70
     0
 62
     7
  6
CONTINUOUS
370
    -3
390
4B6
347
4D1
348
0
  0
ENDTAB
  0
TABLE
  2
STYLE
  5
4AB
330
0
100
AcDbSymbolTable
 70
     1
  0
STYLE
  5
4B8
330
4AB
100
AcDbSymbolTableRecord
100
AcDbTextStyleTableRecord
  2
STANDARD
 70
     0
 40
0.0
 41
1.0
 50
0.0
 71
     0
 42
10.0
  3
txt
  4

  0
ENDTAB
  0
TABLE
  2
VIEW
  5
4AD
330
0
100
AcDbSymbolTable
 70
     0
  0
ENDTAB
  0
TABLE
  2
UCS
  5
4AE
330
0
100
AcDbSymbolTable
 70
     0
  0
ENDTAB
  0
TABLE
  2
APPID
  5
4B0
330
0
100
AcDbSymbolTable
 70
     1
  0
APPID
  5
4B9
330
4B0
100
AcDbSymbolTableRecord
100
AcDbRegAppTableRecord
  2
ACAD
 70
     0
  0
ENDTAB
  0
TABLE
  2
DIMSTYLE
  5
4B1
330
0
100
AcDbSymbolTable
 70
     2
100
AcDbDimStyleTable
  0
DIMSTYLE
105
4D4
330
4B1
100
AcDbSymbolTableRecord
100
AcDbDimStyleTableRecord
  2
ISO-25
 70
     0
 41
2.5
 42
0.625
 43
3.75
 44
1.25
 73
     0
 74
     0
 77
     1
 78
     8
140
2.5
141
2.5
143
0.0393700787
147
0.625
171
     3
172
     1
178
     0
340
4B8
  0
DIMSTYLE
105
4D5
330
4B1
100
AcDbSymbolTableRecord
100
AcDbDimStyleTableRecord
  2
SLDDIMSTYLE0
 70
     0
 41
2.5
 44
0.0
 45
0.000000001
 73
     0
 74
     0
 77
     1
 78
    12
140
6.0
147
1.5
173
     1
178
     0
340
4B8
  0
ENDTAB
  0
TABLE
  2
BLOCK_RECORD
  5
4A9
330
0
100
AcDbSymbolTable
 70
     2
  0
BLOCK_RECORD
  5
4C3
102
{ACAD_XDICTIONARY
360
51C
102
}
330
4A9
100
AcDbSymbolTableRecord
100
AcDbBlockTableRecord
  2
*Model_Space
340
4C4
 70
     0
280
     1
281
     0
  0
BLOCK_RECORD
  5
4C1
330
4A9
100
AcDbSymbolTableRecord
100
AcDbBlockTableRecord
  2
*Paper_Space
340
4C2
 70
     0
280
     1
281
     0
  0
BLOCK_RECORD
  5
4D9
330
4A9
100
AcDbSymbolTableRecord
100
AcDbBlockTableRecord
  2
_D
340
0
 70
     0
280
     1
281
     0
  0
BLOCK_RECORD
  5
4DB
330
4A9
100
AcDbSymbolTableRecord
100
AcDbBlockTableRecord
  2
_D_1
340
0
 70
     0
280
     1
281
     0
  0
ENDTAB
  0
ENDSEC
  0
SECTION
  2
BLOCKS
  0
BLOCK
  5
4D6
330
4C3
100
AcDbEntity
  8
0
100
AcDbBlockBegin
  2
*Model_Space
 70
     0
 10
0.0
 20
0.0
 30
0.0
  3
*Model_Space
  1

  0
ENDBLK
  5
21
330
4C3
100
AcDbEntity
  8
0
100
AcDbBlockEnd
  0
BLOCK
  5
4D7
330
4C1
100
AcDbEntity
 67
     1
  8
0
100
AcDbBlockBegin
  2
*Paper_Space
 70
     0
 10
0.0
 20
0.0
 30
0.0
  3
*Paper_Space
  1

  0
ENDBLK
  5
1D
330
4C1
100
AcDbEntity
 67
     1
  8
0
100
AcDbBlockEnd
  0
BLOCK
  5
4D8
330
4D9
100
AcDbEntity
  8
0
100
AcDbBlockBegin
  2
_D
 70
     0
 10
0.0
 20
0.0
 30
0.0
  3
_D
  1

  0
SOLID
  5
7A
330
4D9
100
AcDbEntity
  8
0
  6
Continuous
 62
     7
100
AcDbTrace
 10
42.7614395004
 20
152.0299240879
 30
0.0
 11
42.4614395004
 21
149.5299240879
 31
0.0
 12
43.0614395004
 22
149.5299240879
 32
0.0
 13
43.0614395004
 23
149.5299240879
 33
0.0
  0
SOLID
  5
7B
330
4D9
100
AcDbEntity
  8
0
  6
Continuous
 62
     7
100
AcDbTrace
 10
42.7614395004
 20
52.0299240879
 30
0.0
 11
43.0614395004
 21
54.5299240879
 31
0.0
 12
42.4614395004
 22
54.5299240879
 32
0.0
 13
42.4614395004
 23
54.5299240879
 33
0.0
  0
LINE
  5
7C
330
4D9
100
AcDbEntity
  8
0
  6
Continuous
 62
     7
100
AcDbLine
 10
56.6850079902
 20
152.0299240879
 30
0.0
 11
41.7614395004
 21
152.0299240879
 31
0.0
  0
LINE
  5
7D
330
4D9
100
AcDbEntity
  8
0
  6
Continuous
 62
     7
100
AcDbLine
 10
56.6850079902
 20
52.0299240879
 30
0.0
 11
41.7614395004
 21
52.0299240879
 31
0.0
  0
LINE
  5
7E
330
4D9
100
AcDbEntity
  8
0
  6
Continuous
 62
     7
100
AcDbLine
 10
42.7614395004
 20
152.0299240879
 30
0.0
 11
42.7614395004
 21
52.0299240879
 31
0.0
  0
TEXT
  5
7F
330
4D9
100
AcDbEntity
  8
0
  6
Continuous
 62
     7
100
AcDbText
 10
39.7614397332
 20
94.3680541463
 30
0.0
 40
6.0
  1
100
 50
90.0
 41
0.7
 11
42.7614397332
 21
94.3680541463
 31
0.0
100
AcDbText
 73
     1
  0
TEXT
  5
80
330
4D9
100
AcDbEntity
  8
0
  6
Continuous
 62
     7
100
AcDbText
 10
39.7614397332
 20
105.7430548466
 30
0.0
 40
6.0
  1
mm
 50
90.0
 41
0.7
 11
42.7614397332
 21
105.7430548466
 31
0.0
100
AcDbText
 73
     1
  0
ENDBLK
  5
79
330
4D9
100
AcDbEntity
  8
0
100
AcDbBlockEnd
  0
BLOCK
  5
4DA
330
4DB
100
AcDbEntity
  8
0
100
AcDbBlockBegin
  2
_D_1
 70
     0
 10
0.0
 20
0.0
 30
0.0
  3
_D_1
  1

  0
SOLID
  5
85
330
4DB
100
AcDbEntity
  8
0
  6
Continuous
 62
     7
100
AcDbTrace
 10
56.6850079902
 20
38.4602342313
 30
0.0
 11
59.1850079902
 21
38.1602342313
 31
0.0
 12
59.1850079902
 22
38.7602342313
 32
0.0
 13
59.1850079902
 23
38.7602342313
 33
0.0
  0
SOLID
  5
86
330
4DB
100
AcDbEntity
  8
0
  6
Continuous
 62
     7
100
AcDbTrace
 10
156.6850079902
 20
38.4602342313
 30
0.0
 11
154.1850079902
 21
38.7602342313
 31
0.0
 12
154.1850079902
 22
38.1602342313
 32
0.0
 13
154.1850079902
 23
38.1602342313
 33
0.0
  0
LINE
  5
87
330
4DB
100
AcDbEntity
  8
0
  6
Continuous
 62
     7
100
AcDbLine
 10
56.6850079902
 20
52.0299240879
 30
0.0
 11
56.6850079902
 21
37.4602342313
 31
0.0
  0
LINE
  5
88
330
4DB
100
AcDbEntity
  8
0
  6
Continuous
 62
     7
100
AcDbLine
 10
156.6850079902
 20
52.0299240879
 30
0.0
 11
156.6850079902
 21
37.4602342313
 31
0.0
  0
LINE
  5
89
330
4DB
100
AcDbEntity
  8
0
  6
Continuous
 62
     7
100
AcDbLine
 10
56.6850079902
 20
38.4602342313
 30
0.0
 11
156.6850079902
 21
38.4602342313
 31
0.0
  0
TEXT
  5
8A
330
4DB
100
AcDbEntity
  8
0
  6
Continuous
 62
     7
100
AcDbText
 10
93.9626484861
 20
41.4602339984
 30
0.0
 40
6.0
  1
100
 41
0.7
 11
93.9626484861
 21
38.4602339984
 31
0.0
100
AcDbText
 73
     1
  0
TEXT
  5
8B
330
4DB
100
AcDbEntity
  8
0
  6
Continuous
 62
     7
100
AcDbText
 10
105.3376491864
 20
41.4602339984
 30
0.0
 40
6.0
  1
mm
 41
0.7
 11
105.3376491864
 21
38.4602339984
 31
0.0
100
AcDbText
 73
     1
  0
ENDBLK
  5
84
330
4DB
100
AcDbEntity
  8
0
100
AcDbBlockEnd
  0
ENDSEC
  0
SECTION
  2
ENTITIES
  0
LINE
  5
73
330
4C3
100
AcDbEntity
  8
0
  6
Continuous
 62
     7
100
AcDbLine
 10
56.6850079902
 20
152.0299240879
 30
0.0
 11
56.6850079902
 21
52.0299240879
 31
0.0
  0
LINE
  5
74
330
4C3
100
AcDbEntity
  8
0
  6
Continuous
 62
     7
100
AcDbLine
 10
56.6850079902
 20
52.0299240879
 30
0.0
 11
156.6850079902
 21
52.0299240879
 31
0.0
  0
DIMENSION
  5
75
330
4C3
100
AcDbEntity
  8
0
  6
Continuous
 62
     7
100
AcDbDimension
280
     0
  2
_D
 10
42.7614395004
 20
52.0299240879
 30
0.0
 11
42.7614395004
 21
105.4472211621
 31
0.0
 70
   160
  1
<>mm
 71
     5
 42
-1.0
 73
     0
 74
     0
 75
     0
  3
SLDDIMSTYLE0
100
AcDbAlignedDimension
 13
56.6850079902
 23
152.0299240879
 33
0.0
 14
56.6850079902
 24
52.0299240879
 34
0.0
 50
90.0
100
AcDbRotatedDimension
  0
DIMENSION
  5
81
330
4C3
100
AcDbEntity
  8
0
  6
Continuous
 62
     7
100
AcDbDimension
280
     0
  2
_D_1
 10
156.6850079902
 20
38.4602342313
 30
0.0
 11
105.0418155019
 21
38.4602342313
 31
0.0
 70
   160
  1
<>mm
 71
     5
 42
-1.0
 73
     0
 74
     0
 75
     0
  3
SLDDIMSTYLE0
100
AcDbAlignedDimension
 13
56.6850079902
 23
52.0299240879
 33
0.0
 14
156.6850079902
 24
52.0299240879
 34
0.0
100
AcDbRotatedDimension
  0
TEXT
  5
8C
330
4C3
100
AcDbEntity
  8
0
  6
Continuous
 62
     7
100
AcDbText
 10
412.8252631579
 20
40.5435675522
 30
0.0
 40
10.0
  1
KLUDI GmbH & Co KG
 41
0.6222222222
 11
412.8252631579
 21
35.5435675522
 31
0.0
100
AcDbText
 73
     1
  0
TEXT
  5
8D
330
4C3
100
AcDbEntity
  8
0
  6
Continuous
 62
     7
100
AcDbText
 10
210.0873490389
 20
40.5435675522
 30
0.0
 40
10.0
  1
48 298 .. 65
 41
0.6125
 11
210.0873490389
 21
35.5435675522
 31
0.0
100
AcDbText
 73
     1
  0
LINE
  5
8E
330
4C3
100
AcDbEntity
  8
0
  6
Continuous
 62
     7
100
AcDbLine
 10
240.984631471
 20
448.9609713841
 30
0.0
 11
240.984631471
 21
428.0884762817
 31
0.0
  0
ARC
  5
8F
330
4C3
100
AcDbEntity
  8
0
  6
Continuous
 62
     7
100
AcDbCircle
 10
242.484631471
 20
448.9609713841
 30
0.0
 40
1.5
100
AcDbArc
 50
90.0
 51
180.0
  0
ARC
  5
90
330
4C3
100
AcDbEntity
  8
0
  6
Continuous
 62
     7
100
AcDbCircle
 10
241.184631471
 20
428.0884762817
 30
0.0
 40
0.200000000000024
100
AcDbArc
 50
195.9760333573
 51
248.0
  0
LINE
  5
91
330
4C3
100
AcDbEntity
  8
0
  6
Continuous
 62
     7
100
AcDbLine
 10
286.9106572594
 20
354.3700454471
 30
0.0
 11
286.9106572594
 21
361.8712851622
 31
0.0
  0
LWPOLYLINE
  5
92
330
4C3
100
AcDbEntity
  8
0
  6
Continuous
 62
     7
100
AcDbPolyline
 90
        8
 70
   128
 43
0.0
 10
347.0410350699
 20
450.4601378192
 10
334.2817727134
 20
450.5954245883
 10
319.8114417318
 20
450.650990177
 10
305.7605619512
 20
450.6807973115
 10
292.1291198114
 20
450.6989677034
 10
274.6062354296
 20
450.7954322618
 10
257.8290858751
 20
450.8004873486
 10
242.9881900555
 20
450.4601378192
  0
LWPOLYLINE
  5
93
330
4C3
100
AcDbEntity
  8
0
  6
Continuous
 62
     7
100
AcDbPolyline
 90
        3
 70
   128
 43
0.0
 10
379.5772622689
 20
413.6758494454
 10
355.4637483713
 20
413.72601681
 10
326.762952413
 20
413.78897633
  0
ARC
  5
94
330
4C3
100
AcDbEntity
  8
0
  6
Continuous
 62
     7
100
AcDbCircle
 10
263.9106572594
 20
412.9609713841
 30
0.0
 40
21.64486082191337
100
AcDbArc
 50
143.7917674239
 51
170.9531540197
  0
ARC
  5
95
330
4C3
100
AcDbEntity
  8
0
  6
Continuous
 62
     7
100
AcDbCircle
 10
263.9106572594
 20
412.9609713841
 30
0.0
 40
21.64486082191338
100
AcDbArc
 50
9.0468459803
 51
15.2684548419
  0
LINE
  5
96
330
4C3
100
AcDbEntity
  8
0
  6
Continuous
 62
     7
100
AcDbLine
 10
242.4106572594
 20
414.7920321591
 30
0.0
 11
242.4106572594
 21
413.5691490872
 31
0.0
  0
LINE
  5
97
330
4C3
100
AcDbEntity
  8
0
  6
Continuous
 62
     7
100
AcDbLine
 10
285.4106572594
 20
413.8739497025
 30
0.0
 11
285.4106572594
 21
414.7920321591
 31
0.0
  0
ARC
  5
98
330
4C3
100
AcDbEntity
  8
0
  6
Continuous
 62
     7
100
AcDbCircle
 10
275.4106572594
 20
414.7920321591
 30
0.0
 40
10.0
100
AcDbArc
 50
0.0
 51
9.0468459803
  0
ARC
  5
99
330
4C3
100
AcDbEntity
  8
0
  6
Continuous
 62
     7
100
AcDbCircle
 10
252.4106572594
 20
414.7920321591
 30
0.0
 40
10.00000000000003
100
AcDbArc
 50
170.9531540197
 51
180.0
  0
LWPOLYLINE
  5
9A
330
4C3
100
AcDbEntity
  8
0
  6
Continuous
 62
     7
100
AcDbPolyline
 90
        3
 70
   128
 43
0.0
 10
352.7529686311
 20
393.3095315679
 10
358.2230074283
 20
393.2649167117
 10
360.5041053639
 20
393.2655157139
  0
ARC
  5
9B
330
4C3
100
AcDbEntity
  8
0
  6
Continuous
 62
     7
100
AcDbCircle
 10
291.7340464817
 20
698.102752914
 30
0.0
 40
311.6593918873406
100
AcDbArc
 50
286.5154888373
 51
287.5405998482
  0
LINE
  5
9C
330
4C3
100
AcDbEntity
  8
0
  6
Continuous
 62
     7
100
AcDbLine
 10
286.984631471
 20
418.8609713841
 30
0.0
 11
286.984631471
 21
423.1250121635
 31
0.0
  0
ARC
  5
9D
330
4C3
100
AcDbEntity
  8
0
  6
Continuous
 62
     7
100
AcDbCircle
 10
286.784631471
 20
418.8609713841
 30
0.0
 40
0.1999999999999886
100
AcDbArc
 50
270.0
 51
0.0
  0
LINE
  5
9E
330
4C3
100
AcDbEntity
  8
0
  6
Continuous
 62
     7
100
AcDbLine
 10
385.2461538687
 20
397.5658516562
 30
0.0
 11
383.9261529527
 21
400.3966027556
 31
0.0
  0
LINE
  5
9F
330
4C3
100
AcDbEntity
  8
0
  6
Continuous
 62
     7
100
AcDbLine
 10
360.7384882033
 20
393.3338722853
 30
0.0
 11
363.4947669798
 21
387.4230133744
 31
0.0
  0
LINE
  5
A0
330
4C3
100
AcDbEntity
  8
0
  6
Continuous
 62
     7
100
AcDbLine
 10
384.5838448488
 20
396.6199763496
 30
0.0
 11
385.2461538687
 21
397.5658516562
 31
0.0
  0
LINE
  5
A1
330
4C3
100
AcDbEntity
  8
0
  6
Continuous
 62
     7
100
AcDbLine
 10
363.4947669798
 20
387.4230133744
 30
0.0
 11
364.645073534
 21
387.3223745913
 31
0.0
  0
LWPOLYLINE
  5
A2
330
4C3
100
AcDbEntity
  8
0
  6
Continuous
 62
     7
100
AcDbPolyline
 90
       15
 70
   128
 43
0.0
 10
286.9526430754
 20
361.8692367687
 10
287.1518993083
 20
366.2946665986
 10
287.9087564479
 20
371.0714397932
 10
289.1353364104
 20
375.3295346007
 10
290.3400583931
 20
378.2058913762
 10
291.7766463109
 20
380.8224308226
 10
293.4402007525
 20
383.1839896738
 10
295.3319035332
 20
385.2894012334
 10
297.4578823726
 20
387.1326161725
 10
299.8251656806
 20
388.7066959949
 10
302.4358433937
 20
390.0095775003
 10
305.2829230745
 20
391.0481636727
 10
309.4178737236
 20
392.0503415379
 10
313.907155058
 20
392.6477569592
 10
318.1095960427
 20
392.8315482384
  0
LINE
  5
A3
330
4C3
100
AcDbEntity
  8
0
  6
Continuous
 62
     7
100
AcDbLine
 10
286.9833124421
 20
425.6609713841
 30
0.0
 11
287.134631471
 21
425.6609713841
 31
0.0
  0
LINE
  5
A4
330
4C3
100
AcDbEntity
  8
0
  6
Continuous
 62
     7
100
AcDbLine
 10
287.134631471
 20
425.6609713841
 30
0.0
 11
287.7351788409
 21
425.8795527511
 31
0.0
  0
ARC
  5
A5
330
4C3
100
AcDbEntity
  8
0
  6
Continuous
 62
     7
100
AcDbCircle
 10
287.6667748122
 20
426.0674912752
 30
0.0
 40
0.1999999999999886
100
AcDbArc
 50
289.9999999999999
 51
0.0
  0
LINE
  5
A6
330
4C3
100
AcDbEntity
  8
0
  6
Continuous
 62
     7
100
AcDbLine
 10
287.8667748122
 20
426.0674912752
 30
0.0
 11
287.8667748122
 21
433.0965360141
 31
0.0
  0
LWPOLYLINE
  5
A7
330
4C3
100
AcDbEntity
  8
0
  6
Continuous
 62
     7
100
AcDbPolyline
 90
        3
 70
   128
 43
0.0
 10
287.9134267734
 20
432.9798840497
 10
288.1860757977
 20
433.9752658477
 10
288.4930006144
 20
434.6800269199
  0
ARC
  5
A8
330
4C3
100
AcDbEntity
  8
0
  6
Continuous
 62
     7
100
AcDbCircle
 10
304.4924472835
 20
428.2736847942
 30
0.0
 40
17.21374427853923
100
AcDbArc
 50
91.32820346509999
 51
157.6362739788
  0
LWPOLYLINE
  5
A9
330
4C3
100
AcDbEntity
  8
0
  6
Continuous
 62
     7
100
AcDbPolyline
 90
        3
 70
   128
 43
0.0
 10
304.8533083685
 20
445.5279142833
 10
304.8737917533
 20
445.5320826103
 10
304.8920740632
 20
445.5382182842
  0
LWPOLYLINE
  5
AA
330
4C3
100
AcDbEntity
  8
0
  6
Continuous
 62
     7
100
AcDbPolyline
 90
        3
 70
   128
 43
0.0
 10
303.1911379411
 20
445.4005938668
 10
304.0718180534
 20
445.4811700182
 10
304.984945085
 20
445.5327447273
  0
LWPOLYLINE
  5
AB
330
4C3
100
AcDbEntity
  8
0
  6
Continuous
 62
     7
100
AcDbPolyline
 90
        5
 70
   128
 43
0.0
 10
267.321617278
 20
413.5682741146
 10
273.5585037314
 20
413.5682027449
 10
279.8417666123
 20
413.5677299083
 10
286.1889352215
 20
413.5666347127
 10
292.5582897304
 20
413.5650047513
  0
ARC
  5
AC
330
4C3
100
AcDbEntity
  8
0
  6
Continuous
 62
     7
100
AcDbCircle
 10
267.6141791992
 20
437.3333757257
 30
0.0
 40
18.67418748054742
100
AcDbArc
 50
247.2082048573
 51
270.7917951427
  0
LINE
  5
AD
330
4C3
100
AcDbEntity
  8
0
  6
Continuous
 62
     7
100
AcDbLine
 10
240.9106572594
 20
412.0683542554
 30
0.0
 11
240.9106572594
 21
401.5281922317
 31
0.0
  0
LINE
  5
AE
330
4C3
100
AcDbEntity
  8
0
  6
Continuous
 62
     7
100
AcDbLine
 10
242.361789921
 20
413.5675580385
 30
0.0
 11
263.9106572594
 21
413.5675580385
 31
0.0
  0
ARC
  5
AF
330
4C3
100
AcDbEntity
  8
0
  6
Continuous
 62
     7
100
AcDbCircle
 10
242.4106572594
 20
412.0683542554
 30
0.0
 40
1.50000000000001
100
AcDbArc
 50
91.8669251722
 51
180.0
  0
LINE
  5
B0
330
4C3
100
AcDbEntity
  8
0
  6
Continuous
 62
     7
100
AcDbLine
 10
240.9106572594
 20
291.7804835843
 30
0.0
 11
268.3017624918
 21
291.7804835843
 31
0.0
  0
LINE
  5
B1
330
4C3
100
AcDbEntity
  8
0
  6
Continuous
 62
     7
100
AcDbLine
 10
240.9106572594
 20
401.5281922317
 30
0.0
 11
240.9106572594
 21
291.7804835843
 31
0.0
  0
LINE
  5
B2
330
4C3
100
AcDbEntity
  8
0
  6
Continuous
 62
     7
100
AcDbLine
 10
242.6050994191
 20
450.4601378192
 30
0.0
 11
271.0144130091
 21
450.4601378192
 31
0.0
  0
LINE
  5
B3
330
4C3
100
AcDbEntity
  8
0
  6
Continuous
 62
     7
100
AcDbLine
 10
260.3801057854
 20
420.1172942928
 30
0.0
 11
241.1097102119
 21
427.9030394867
 31
0.0
  0
LINE
  5
B4
330
4C3
100
AcDbEntity
  8
0
  6
Continuous
 62
     7
100
AcDbLine
 10
267.8722376537
 20
418.6609713841
 30
0.0
 11
277.8628923406
 21
418.6609713841
 31
0.0
  0
LINE
  5
B5
330
4C3
100
AcDbEntity
  8
0
  6
Continuous
 62
     7
100
AcDbLine
 10
286.9106572594
 20
291.7804835843
 30
0.0
 11
286.9106572594
 21
354.3700454471
 31
0.0
  0
LINE
  5
B6
330
4C3
100
AcDbEntity
  8
0
  6
Continuous
 62
     7
100
AcDbLine
 10
268.3017624918
 20
291.7804835843
 30
0.0
 11
286.9106572594
 21
291.7804835843
 31
0.0
  0
LWPOLYLINE
  5
B7
330
4C3
100
AcDbEntity
  8
0
  6
Continuous
 62
     7
100
AcDbPolyline
 90
        7
 70
   128
 43
0.0
 10
271.0144131475
 20
450.4599709044
 10
275.9287921806
 20
450.4600414282
 10
280.9120731383
 20
450.460162978
 10
286.0363731689
 20
450.4602178316
 10
291.1644722526
 20
450.4599334933
 10
296.3432156195
 20
450.4602397288
 10
301.4680153864
 20
450.4602486085
  0
LWPOLYLINE
  5
B8
330
4C3
100
AcDbEntity
  8
0
  6
Continuous
 62
     7
100
AcDbPolyline
 90
        4
 70
   128
 43
0.0
 10
379.4601338103
 20
413.676704813
 10
353.129375471
 20
413.731608457
 10
326.8281581364
 20
413.7888406334
 10
326.7779442799
 20
413.7889434429
  0
LWPOLYLINE
  5
B9
330
4C3
100
AcDbEntity
  8
0
  6
Continuous
 62
     7
100
AcDbPolyline
 90
        4
 70
   128
 43
0.0
 10
326.7629525812
 20
413.7889741374
 10
313.0201580051
 20
413.8171116019
 10
299.3005714559
 20
413.847213059
 10
285.4106572594
 20
413.8739497025
  0
LWPOLYLINE
  5
BA
330
4C3
100
AcDbEntity
  8
0
  6
Continuous
 62
     7
100
AcDbPolyline
 90
       11
 70
   128
 43
0.0
 10
263.9106572594
 20
413.5691913385
 10
267.3351440703
 20
413.5693845109
 10
270.6727085394
 20
413.5788770698
 10
274.0014502549
 20
413.609095297
 10
277.0457318899
 20
413.655789632
 10
279.7143383627
 20
413.7118318695
 10
281.9378035259
 20
413.7687781057
 10
283.6471498866
 20
413.8183931654
 10
284.8000355837
 20
413.8544440574
 10
285.256910853
 20
413.8690689398
 10
285.4106572594
 20
413.8739497025
  0
LWPOLYLINE
  5
BB
330
4C3
100
AcDbEntity
  8
0
  6
Continuous
 62
     7
100
AcDbPolyline
 90
        9
 70
   128
 43
0.0
 10
242.4106572594
 20
413.5691490872
 10
242.4045488357
 20
413.5689504036
 10
242.3984404138
 20
413.5687516636
 10
242.3923319937
 20
413.5685528672
 10
242.3862235755
 20
413.5683540144
 10
242.3801151591
 20
413.568155105
 10
242.3740067446
 20
413.5679561393
 10
242.3678983319
 20
413.5677571171
 10
242.361789921
 20
413.5675580385
  0
LINE
  5
BC
330
4C3
100
AcDbEntity
  8
0
  6
Continuous
 62
     7
100
AcDbLine
 10
263.9106572594
 20
413.5691490872
 30
0.0
 11
242.4106572594
 21
413.5691490872
 31
0.0
  0
LINE
  5
BD
330
4C3
100
AcDbEntity
  8
0
  6
Continuous
 62
     7
100
AcDbLine
 10
387.4106572594
 20
412.0405845036
 30
0.0
 11
387.4106572594
 21
402.5498909667
 31
0.0
  0
LWPOLYLINE
  5
BE
330
4C3
100
AcDbEntity
  8
0
  6
Continuous
 62
     7
100
AcDbPolyline
 90
        3
 70
   128
 43
0.0
 10
360.4674084842
 20
393.2598982907
 10
356.6969515969
 20
393.2237044333
 10
352.8969486045
 20
393.1874535284
  0
LINE
  5
BF
330
4C3
100
AcDbEntity
  8
0
  6
Continuous
 62
     7
100
AcDbLine
 10
385.6620545307
 20
400.9355471202
 30
0.0
 11
386.4160984849
 21
401.1807683841
 31
0.0
  0
LINE
  5
C0
330
4C3
100
AcDbEntity
  8
0
  6
Continuous
 62
     7
100
AcDbLine
 10
373.2938611096
 20
397.1581131371
 30
0.0
 11
380.503115329
 21
399.3539797754
 31
0.0
  0
LINE
  5
C1
330
4C3
100
AcDbEntity
  8
0
  6
Continuous
 62
     7
100
AcDbLine
 10
372.3321981697
 20
396.8869620972
 30
0.0
 11
373.2938044042
 21
397.1580958652
 31
0.0
  0
LINE
  5
C2
330
4C3
100
AcDbEntity
  8
0
  6
Continuous
 62
     7
100
AcDbLine
 10
379.4601186002
 20
413.6776326298
 30
0.0
 11
384.2170840966
 21
413.6689208681
 31
0.0
  0
LINE
  5
C3
330
4C3
100
AcDbEntity
  8
0
  6
Continuous
 62
     7
100
AcDbLine
 10
384.2170840966
 20
413.6689208681
 30
0.0
 11
385.981796623
 21
413.6291660468
 31
0.0
  0
LINE
  5
C4
330
4C3
100
AcDbEntity
  8
0
  6
Continuous
 62
     7
100
AcDbLine
 10
287.134631471
 20
431.2930902088
 30
0.0
 11
287.2374788342
 21
431.6230213947
 31
0.0
  0
ARC
  5
C5
330
4C3
100
AcDbEntity
  8
0
  6
Continuous
 62
     7
100
AcDbCircle
 10
298.2839377336
 20
428.2573118457
 30
0.0
 40
11.55521442496567
100
AcDbArc
 50
164.7685201714
 51
183.2651187792
  0
LINE
  5
C6
330
4C3
100
AcDbEntity
  8
0
  6
Continuous
 62
     7
100
AcDbLine
 10
286.784631471
 20
418.6609713841
 30
0.0
 11
277.8628923406
 21
418.6609713841
 31
0.0
  0
ARC
  5
C7
330
4C3
100
AcDbEntity
  8
0
  6
Continuous
 62
     7
100
AcDbCircle
 10
385.9577516726
 20
402.5594825837
 30
0.0
 40
1.452905586840302
100
AcDbArc
 50
288.3891350159
 51
359.9999997963
  0
ARC
  5
C8
330
4C3
100
AcDbEntity
  8
0
  6
Continuous
 62
     7
100
AcDbCircle
 10
385.9106408077
 20
412.1308382509
 30
0.0
 40
1.500016451747002
100
AcDbArc
 50
359.9996648527001
 51
87.2810574975
  0
LINE
  5
C9
330
4C3
100
AcDbEntity
  8
0
  6
Continuous
 62
     7
100
AcDbLine
 10
387.4106572594
 20
412.1308294766
 30
0.0
 11
387.4106572594
 21
412.0405845036
 31
0.0
  0
LINE
  5
CA
330
4C3
100
AcDbEntity
  8
0
  6
Continuous
 62
     7
100
AcDbLine
 10
306.7969520751
 20
445.559459605
 30
0.0
 11
302.2366975439
 21
445.5276225052
 31
0.0
  0
LINE
  5
CB
330
4C3
100
AcDbEntity
  8
0
  6
Continuous
 62
     7
100
AcDbLine
 10
347.301386518
 20
445.8422384962
 30
0.0
 11
306.7969520751
 21
445.559459605
 31
0.0
  0
ARC
  5
CC
330
4C3
100
AcDbEntity
  8
0
  6
Continuous
 62
     7
100
AcDbCircle
 10
348.484631471
 20
447.3505357933
 30
0.0
 40
1.50000000000004
100
AcDbArc
 50
270.4
 51
0.0
  0
LINE
  5
CD
330
4C3
100
AcDbEntity
  8
0
  6
Continuous
 62
     7
100
AcDbLine
 10
348.4951033614
 20
445.8505723473
 30
0.0
 11
347.301386518
 21
445.8422384962
 31
0.0
  0
LINE
  5
CE
330
4C3
100
AcDbEntity
  8
0
  6
Continuous
 62
     7
100
AcDbLine
 10
349.984631471
 20
448.9609713841
 30
0.0
 11
349.984631471
 21
447.3505357933
 31
0.0
  0
ARC
  5
CF
330
4C3
100
AcDbEntity
  8
0
  6
Continuous
 62
     7
100
AcDbCircle
 10
348.484631471
 20
448.9609713841
 30
0.0
 40
1.500000000000014
100
AcDbArc
 50
0.0
 51
88.0897868283
  0
LINE
  5
D0
330
4C3
100
AcDbEntity
  8
0
  6
Continuous
 62
     7
100
AcDbLine
 10
373.2938044042
 20
397.1580958652
 30
0.0
 11
372.332320578
 21
396.8652375205
 31
0.0
  0
LINE
  5
D1
330
4C3
100
AcDbEntity
  8
0
  6
Continuous
 62
     7
100
AcDbLine
 10
372.332320578
 20
396.8652375205
 30
0.0
 11
360.5240945192
 21
393.2685701162
 31
0.0
  0
ARC
  5
D2
330
4C3
100
AcDbEntity
  8
0
  6
Continuous
 62
     7
100
AcDbCircle
 10
360.4658197919
 20
393.4598919815
 30
0.0
 40
0.1999999999999393
100
AcDbArc
 50
270.4551652168
 51
286.9402106910001
  0
LINE
  5
D3
330
4C3
100
AcDbEntity
  8
0
  6
Continuous
 62
     7
100
AcDbLine
 10
370.0239609693
 20
390.4676265333
 30
0.0
 11
368.5774866895
 21
393.5696006366
 31
0.0
  0
LINE
  5
D4
330
4C3
100
AcDbEntity
  8
0
  6
Continuous
 62
     7
100
AcDbLine
 10
370.0239609693
 20
390.4676265333
 30
0.0
 11
363.4947669798
 21
387.4230133744
 31
0.0
  0
LINE
  5
D5
330
4C3
100
AcDbEntity
  8
0
  6
Continuous
 62
     7
100
AcDbLine
 10
385.2461538687
 20
397.5658516562
 30
0.0
 11
378.7169598791
 21
394.5212384973
 31
0.0
  0
LINE
  5
D6
330
4C3
100
AcDbEntity
  8
0
  6
Continuous
 62
     7
100
AcDbLine
 10
377.2704855993
 20
397.6232126006
 30
0.0
 11
378.7169598791
 21
394.5212384973
 31
0.0
  0
LINE
  5
D7
330
4C3
100
AcDbEntity
  8
0
  6
Continuous
 62
     7
100
AcDbLine
 10
368.5774866895
 20
393.5696006366
 30
0.0
 11
377.2704855993
 21
397.6232126006
 31
0.0
  0
LINE
  5
D8
330
4C3
100
AcDbEntity
  8
0
  6
Continuous
 62
     7
100
AcDbLine
 10
384.5838448488
 20
396.6199763496
 30
0.0
 11
374.6144591914
 21
391.9711754705
 31
0.0
  0
LWPOLYLINE
  5
D9
330
4C3
100
AcDbEntity
  8
0
  6
Continuous
 62
     7
100
AcDbPolyline
 90
        3
 70
   128
 43
0.0
 10
378.7169598791
 20
394.5212384973
 10
376.75140816
 20
393.1364901282
 10
374.6144591914
 20
391.9711754705
  0
LWPOLYLINE
  5
DA
330
4C3
100
AcDbEntity
  8
0
  6
Continuous
 62
     7
100
AcDbPolyline
 90
        3
 70
   128
 43
0.0
 10
374.6144591914
 20
391.9711754705
 10
373.5008934703
 20
391.4942340506
 10
370.0239609693
 20
390.4676265333
  0
LINE
  5
DB
330
4C3
100
AcDbEntity
  8
0
  6
Continuous
 62
     7
100
AcDbLine
 10
374.6144591914
 20
391.9711754705
 30
0.0
 11
364.645073534
 21
387.3223745913
 31
0.0
  0
LINE
  5
DC
330
4C3
100
AcDbEntity
  8
0
  6
Continuous
 62
     7
100
AcDbLine
 10
318.1082836104
 20
392.8533876906
 30
0.0
 11
352.8969500289
 21
393.1873451726
 31
0.0
  0
LINE
  5
DD
330
4C3
100
AcDbEntity
  8
0
  6
Continuous
 62
     7
100
AcDbLine
 10
287.134631471
 20
425.6609713841
 30
0.0
 11
287.134631471
 21
431.2930902088
 31
0.0
  0
ARC
  5
DE
330
4C3
100
AcDbEntity
  8
0
  6
Continuous
 62
     7
100
AcDbCircle
 10
304.6752656773
 20
428.7945423824
 30
0.0
 40
17.96731689704039
100
AcDbArc
 50
183.810912735
 51
190.0439734285
  0
LWPOLYLINE
  5
DF
330
4C3
100
AcDbEntity
  8
0
  6
Continuous
 62
     7
100
AcDbPolyline
 90
        3
 70
   128
 43
0.0
 10
287.7351788409
 20
432.8703823191
 10
287.3827630549
 20
432.0365706332
 10
287.237435055
 20
431.623318035
  0
LWPOLYLINE
  5
E0
330
4C3
100
AcDbEntity
  8
0
  6
Continuous
 62
     7
100
AcDbPolyline
 90
        4
 70
   128
 43
0.0
 10
287.865353917
 20
433.074837213
 10
287.8660166845
 20
433.0916890479
 10
287.8398651814
 20
433.066996654
 10
287.7351788409
 20
432.8703823191
  0
LINE
  5
E1
330
4C3
100
AcDbEntity
  8
0
  6
Continuous
 62
     7
100
AcDbLine
 10
288.5473378672
 20
434.9109713841
 30
0.0
 11
288.7717917967
 21
435.3448535448
 31
0.0
  0
LINE
  5
E2
330
4C3
100
AcDbEntity
  8
0
  6
Continuous
 62
     7
100
AcDbLine
 10
302.2842168602
 20
445.2411016586
 30
0.0
 11
304.0010064237
 21
445.4493169979
 31
0.0
  0
LINE
  5
E3
330
4C3
100
AcDbEntity
  8
0
  6
Continuous
 62
     7
100
AcDbLine
 10
286.9845365057
 20
423.1247267048
 30
0.0
 11
286.9833124421
 21
425.6609713841
 31
0.0
  0
LWPOLYLINE
  5
E4
330
4C3
100
AcDbEntity
  8
0
  6
Continuous
 62
     8
100
AcDbPolyline
 90
        3
 70
   128
 43
0.0
 10
263.9106572594
 20
413.567595253
 10
263.9107172594
 20
413.567595253
 10
267.321617278
 20
413.5682741146
  0
LINE
  5
E5
330
4C3
100
AcDbEntity
  8
0
  6
Continuous
 62
     8
100
AcDbLine
 10
267.8722348542
 20
418.6609713841
 30
0.0
 11
267.6543597365
 21
418.6610395103
 31
0.0
  0
LWPOLYLINE
  5
E6
330
4C3
100
AcDbEntity
  8
0
  6
Continuous
 62
     8
100
AcDbPolyline
 90
        9
 70
   128
 43
0.0
 10
347.2911760911
 20
450.4604841972
 10
347.842535673
 20
450.4608542271
 10
348.1153032796
 20
450.460504361
 10
348.2475521871
 20
450.4598809643
 10
348.3106703966
 20
450.4594838889
 10
348.3678507967
 20
450.4592063813
 10
348.4070361077
 20
450.4594395543
 10
348.5180919444
 20
450.4609031507
 10
348.5346311666
 20
450.4603889372
  0
LINE
  5
E7
330
4C3
100
AcDbEntity
  8
0
  6
Continuous
 62
     8
100
AcDbLine
 10
306.7867419828
 20
450.4601378192
 30
0.0
 11
347.2911764258
 21
450.4601378192
 31
0.0
  0
LWPOLYLINE
  5
E8
330
4C3
100
AcDbEntity
  8
0
  6
Continuous
 62
     8
100
AcDbPolyline
 90
        3
 70
   128
 43
0.0
 10
301.4680153864
 20
450.4602486085
 10
304.1272375518
 20
450.4600155528
 10
306.7867422137
 20
450.4598952427
  0
LWPOLYLINE
  5
E9
330
4C3
100
AcDbEntity
  8
0
  6
Continuous
 62
     8
100
AcDbPolyline
 90
        6
 70
   128
 43
0.0
 10
383.475481397
 20
413.540150757
 10
382.3196340788
 20
413.5764473536
 10
381.3571904849
 20
413.6084515328
 10
380.5893041219
 20
413.6351541709
 10
379.7425130426
 20
413.6662297436
 10
379.5772552814
 20
413.6723603694
  0
LWPOLYLINE
  5
EA
330
4C3
100
AcDbEntity
  8
0
  6
Continuous
 62
     8
100
AcDbPolyline
 90
        5
 70
   128
 43
0.0
 10
312.6897687789
 20
413.5595743648
 10
315.6897608323
 20
413.5587658253
 10
327.6897291183
 20
413.555474345
 10
339.6896971319
 20
413.5520680167
 10
383.4758292878
 20
413.5401402743
  0
LWPOLYLINE
  5
EB
330
4C3
100
AcDbEntity
  8
0
  6
Continuous
 62
     8
100
AcDbPolyline
 90
        4
 70
   128
 43
0.0
 10
292.5582897304
 20
413.5650047513
 10
295.5582818694
 20
413.5643615214
 10
307.5582499583
 20
413.5609503574
 10
312.6897687789
 20
413.5595743648
  0
LINE
  5
EC
330
4C3
100
AcDbEntity
  8
0
  6
Continuous
 62
     8
100
AcDbLine
 10
263.9106572594
 20
413.5691491318
 30
0.0
 11
263.9106572594
 21
413.5675568089
 31
0.0
  0
ARC
  5
ED
330
4C3
100
AcDbEntity
  8
0
  6
Continuous
 62
     8
100
AcDbCircle
 10
385.0213508237
 20
453.7560527978
 30
0.0
 40
40.22585943193138
100
AcDbArc
 50
268.8575196047
 51
271.2933873887
  0
ARC
  5
EE
330
4C3
100
AcDbEntity
  8
0
  6
Continuous
 62
     8
100
AcDbCircle
 10
385.910670767
 20
412.0405715991
 30
0.0
 40
1.499986492437244
100
AcDbArc
 50
0.000492923
 51
89.2873610019
  0
LWPOLYLINE
  5
EF
330
4C3
100
AcDbEntity
  8
0
  6
Continuous
 62
     8
100
AcDbPolyline
 90
        3
 70
   128
 43
0.0
 10
383.4733508075
 20
413.5400616725
 10
383.4758278861
 20
413.5400577626
 10
384.2192985476
 20
413.5381901099
  0
ARC
  5
F0
330
4C3
100
AcDbEntity
  8
0
  6
Continuous
 62
     8
100
AcDbCircle
 10
386.0104285415
 20
402.5504171527
 30
0.0
 40
1.400228816773783
100
AcDbArc
 50
285.2897599987
 51
359.9784690648
  0
LWPOLYLINE
  5
F1
330
4C3
100
AcDbEntity
  8
0
  6
Continuous
 62
     8
100
AcDbPolyline
 90
       11
 70
   128
 43
0.0
 10
360.4674085767
 20
393.2598982915
 10
360.5350241497
 20
393.2809833603
 10
360.9074080288
 20
393.3960792207
 10
361.6197372581
 20
393.6157818998
 10
362.6178819221
 20
393.9231627998
 10
363.9301455827
 20
394.3265240112
 10
365.1201663729
 20
394.6915675323
 10
366.7798603604
 20
395.199465143
 10
368.6519068623
 20
395.7706086602
 10
371.5599371256
 20
396.6533112928
 10
372.332326623
 20
396.8865367843
  0
LWPOLYLINE
  5
F2
330
4C3
100
AcDbEntity
  8
0
  6
Continuous
 62
     8
100
AcDbPolyline
 90
        5
 70
   128
 43
0.0
 10
386.4160984849
 20
401.1807683841
 10
386.4155114022
 20
401.1829071658
 10
386.4153690296
 20
401.1839353131
 10
386.4152656767
 20
401.1849180836
 10
386.3796698024
 20
401.1997500469
  0
LWPOLYLINE
  5
F3
330
4C3
100
AcDbEntity
  8
0
  6
Continuous
 62
     8
100
AcDbPolyline
 90
        3
 70
   128
 43
0.0
 10
385.9293269633
 20
413.5404420681
 10
385.9605241683
 20
413.5771714044
 10
385.981796623
 20
413.6291660468
  0
LINE
  5
F4
330
4C3
100
AcDbEntity
  8
0
  6
Continuous
 62
     8
100
AcDbLine
 10
286.727676172
 20
426.5890108936
 30
0.0
 11
286.727676172
 21
426.5533254173
 31
0.0
  0
LINE
  5
F5
330
4C3
100
AcDbEntity
  8
0
  6
Continuous
 62
     8
100
AcDbLine
 10
286.7282161502
 20
426.587308535
 30
0.0
 11
286.747504051
 21
427.5997696765
 31
0.0
  0
LINE
  5
F6
330
4C3
100
AcDbEntity
  8
0
  6
Continuous
 62
     8
100
AcDbLine
 10
304.0010064237
 20
445.4493169979
 30
0.0
 11
304.4308414841
 21
445.5014481705
 31
0.0
  0
LWPOLYLINE
  5
F7
330
4C3
100
AcDbEntity
  8
0
  6
Continuous
 62
     7
100
AcDbPolyline
 90
        6
 70
   128
 43
0.0
 10
121.7851791076
 20
413.6732450938
 10
119.3287348373
 20
413.6669388435
 10
116.6172136722
 20
413.6534209564
 10
114.4150074348
 20
413.6380237758
 10
112.0345199416
 20
413.617230253
 10
110.453519428
 20
413.6003107484
  0
LINE
  5
F8
330
4C3
100
AcDbEntity
  8
0
  6
Continuous
 62
     7
100
AcDbLine
 10
122.5615775246
 20
413.6752382848
 30
0.0
 11
121.7851791076
 21
413.6732450938
 31
0.0
  0
LINE
  5
F9
330
4C3
100
AcDbEntity
  8
0
  6
Continuous
 62
     7
100
AcDbLine
 10
136.6880179073
 20
395.5964066186
 30
0.0
 11
136.6880179073
 21
396.8652375205
 31
0.0
  0
LINE
  5
FA
330
4C3
100
AcDbEntity
  8
0
  6
Continuous
 62
     7
100
AcDbLine
 10
112.6880179073
 20
396.8652375205
 30
0.0
 11
112.6880179073
 21
395.5964066186
 31
0.0
  0
LINE
  5
FB
330
4C3
100
AcDbEntity
  8
0
  6
Continuous
 62
     7
100
AcDbLine
 10
117.6123768372
 20
388.3984067415
 30
0.0
 11
118.2020135931
 21
388.2164851778
 31
0.0
  0
LINE
  5
FC
330
4C3
100
AcDbEntity
  8
0
  6
Continuous
 62
     7
100
AcDbLine
 10
131.1740222215
 20
388.2164851778
 30
0.0
 11
131.7636589774
 21
388.3984067415
 31
0.0
  0
LWPOLYLINE
  5
FD
330
4C3
100
AcDbEntity
  8
0
  6
Continuous
 62
     7
100
AcDbPolyline
 90
        9
 70
   128
 43
0.0
 10
136.6880179073
 20
395.618475664
 10
137.3252732164
 20
395.9399224108
 10
138.9697847671
 20
396.8996438332
 10
139.8042482684
 20
397.4308791043
 10
140.4571828891
 20
397.8647834373
 10
140.9234595522
 20
398.1847668593
 10
141.2056744988
 20
398.3854425944
 10
141.3049946572
 20
398.4643894568
 10
141.2995131394
 20
398.4615517553
  0
LWPOLYLINE
  5
FE
330
4C3
100
AcDbEntity
  8
0
  6
Continuous
 62
     7
100
AcDbPolyline
 90
        9
 70
   128
 43
0.0
 10
108.0765226753
 20
398.4615517553
 10
108.0710411574
 20
398.4643894568
 10
108.1703613158
 20
398.3854425944
 10
108.4525762624
 20
398.1847668593
 10
108.9188529255
 20
397.8647834373
 10
109.5717875462
 20
397.4308791043
 10
110.9766068599
 20
396.5528019375
 10
112.305267709
 20
395.8031881491
 10
112.6880179073
 20
395.6128167375
  0
LWPOLYLINE
  5
FF
330
4C3
100
AcDbEntity
  8
0
  6
Continuous
 62
     7
100
AcDbPolyline
 90
        3
 70
   128
 43
0.0
 10
146.1892429545
 20
450.4593389687
 10
135.5002915945
 20
450.7409998313
 10
124.5547140571
 20
450.8439868851
  0
LWPOLYLINE
  5
100
330
4C3
100
AcDbEntity
  8
0
  6
Continuous
 62
     7
100
AcDbPolyline
 90
        3
 70
   128
 43
0.0
 10
124.8213217575
 20
450.8439868851
 10
113.8757442201
 20
450.7409998313
 10
103.1867928601
 20
450.4593389687
  0
LINE
  5
101
330
4C3
100
AcDbEntity
  8
0
  6
Continuous
 62
     7
100
AcDbLine
 10
103.1880179073
 20
414.7920321591
 30
0.0
 11
103.1880179073
 21
413.5691490872
 31
0.0
  0
LINE
  5
102
330
4C3
100
AcDbEntity
  8
0
  6
Continuous
 62
     7
100
AcDbLine
 10
146.1880179073
 20
413.5691913385
 30
0.0
 11
146.1880179073
 21
414.7920321591
 31
0.0
  0
ARC
  5
103
330
4C3
100
AcDbEntity
  8
0
  6
Continuous
 62
     7
100
AcDbCircle
 10
136.1880179073
 20
414.7920321591
 30
0.0
 40
9.999999999999975
100
AcDbArc
 50
0.0
 51
9.0468459803
  0
ARC
  5
104
330
4C3
100
AcDbEntity
  8
0
  6
Continuous
 62
     7
100
AcDbCircle
 10
113.1880179073
 20
414.7920321591
 30
0.0
 40
9.99999999999999
100
AcDbArc
 50
170.9531540197
 51
180.0
  0
ARC
  5
105
330
4C3
100
AcDbEntity
  8
0
  6
Continuous
 62
     7
100
AcDbCircle
 10
124.6880179073
 20
412.9609713841
 30
0.0
 40
21.64486082191335
100
AcDbArc
 50
164.7050445277
 51
170.9531540197
  0
ARC
  5
106
330
4C3
100
AcDbEntity
  8
0
  6
Continuous
 62
     7
100
AcDbCircle
 10
124.6880179073
 20
412.9609713841
 30
0.0
 40
21.64486082191337
100
AcDbArc
 50
9.0468459803
 51
15.2684548419
  0
LINE
  5
107
330
4C3
100
AcDbEntity
  8
0
  6
Continuous
 62
     7
100
AcDbLine
 10
147.6880179073
 20
419.1595570589
 30
0.0
 11
147.6880179073
 21
448.9609713841
 31
0.0
  0
LINE
  5
108
330
4C3
100
AcDbEntity
  8
0
  6
Continuous
 62
     7
100
AcDbLine
 10
101.6880179073
 20
448.9609713841
 30
0.0
 11
101.6880179073
 21
419.1595570589
 31
0.0
  0
ARC
  5
109
330
4C3
100
AcDbEntity
  8
0
  6
Continuous
 62
     7
100
AcDbCircle
 10
103.1880179073
 20
448.9609713841
 30
0.0
 40
1.5
100
AcDbArc
 50
90.0
 51
180.0
  0
ARC
  5
10A
330
4C3
100
AcDbEntity
  8
0
  6
Continuous
 62
     7
100
AcDbCircle
 10
146.1880179073
 20
448.9609713841
 30
0.0
 40
1.5
100
AcDbArc
 50
0.0
 51
90.0
  0
LINE
  5
10B
330
4C3
100
AcDbEntity
  8
0
  6
Continuous
 62
     7
100
AcDbLine
 10
101.6880179073
 20
401.7142642702
 30
0.0
 11
101.6880179073
 21
291.7804835843
 31
0.0
  0
LINE
  5
10C
330
4C3
100
AcDbEntity
  8
0
  6
Continuous
 62
     7
100
AcDbLine
 10
147.6880179073
 20
291.7804835843
 30
0.0
 11
147.6880179073
 21
401.7142642702
 31
0.0
  0
LWPOLYLINE
  5
10D
330
4C3
100
AcDbEntity
  8
0
  6
Continuous
 62
     7
100
AcDbPolyline
 90
        6
 70
   128
 43
0.0
 10
147.1516502912
 20
418.6610455593
 10
147.1840063363
 20
418.6610586137
 10
147.4145595794
 20
418.6881315891
 10
147.6257320415
 20
418.8590682001
 10
147.687440676
 20
419.1164356051
 10
147.6834575806
 20
419.1604804917
  0
ARC
  5
10E
330
4C3
100
AcDbEntity
  8
0
  6
Continuous
 62
     7
100
AcDbCircle
 10
102.1281969575
 20
419.081446624
 30
0.0
 40
0.4293100166725305
100
AcDbArc
 50
171.2911276962
 51
282.6808585882
  0
LINE
  5
10F
330
4C3
100
AcDbEntity
  8
0
  6
Continuous
 62
     7
100
AcDbLine
 10
101.6880179073
 20
412.0683542554
 30
0.0
 11
101.6880179073
 21
401.7142642702
 31
0.0
  0
LINE
  5
110
330
4C3
100
AcDbEntity
  8
0
  6
Continuous
 62
     7
100
AcDbLine
 10
147.6880179073
 20
401.7142642702
 30
0.0
 11
147.6880179073
 21
412.0683939732
 31
0.0
  0
LINE
  5
111
330
4C3
100
AcDbEntity
  8
0
  6
Continuous
 62
     7
100
AcDbLine
 10
137.1472646258
 20
397.1607420568
 30
0.0
 11
137.2308062053
 21
396.8869620972
 31
0.0
  0
LWPOLYLINE
  5
112
330
4C3
100
AcDbEntity
  8
0
  6
Continuous
 62
     7
100
AcDbPolyline
 90
        9
 70
   128
 43
0.0
 10
137.1473792019
 20
397.1604835394
 10
136.9421675922
 20
397.5824595609
 10
136.2050560107
 20
398.2678787306
 10
135.060253045
 20
398.8778442489
 10
133.5251195163
 20
399.4138119149
 10
131.666233644
 20
399.8566213931
 10
129.5516322174
 20
400.186691738
 10
127.17469281
 20
400.3992709122
 10
124.6880179073
 20
400.4701728647
  0
LWPOLYLINE
  5
113
330
4C3
100
AcDbEntity
  8
0
  6
Continuous
 62
     7
100
AcDbPolyline
 90
        9
 70
   128
 43
0.0
 10
112.228001649
 20
397.1581131371
 10
112.4338682224
 20
397.5824595609
 10
113.1709798039
 20
398.2678787306
 10
114.3157827696
 20
398.8778442489
 10
115.8509162983
 20
399.4138119149
 10
117.7098021706
 20
399.8566213931
 10
119.8244035972
 20
400.186691738
 10
122.2013430046
 20
400.3992709122
 10
124.6880179073
 20
400.4701728647
  0
LINE
  5
114
330
4C3
100
AcDbEntity
  8
0
  6
Continuous
 62
     7
100
AcDbLine
 10
112.1452296093
 20
396.8869620972
 30
0.0
 11
112.228752301
 21
397.1580958652
 31
0.0
  0
LWPOLYLINE
  5
115
330
4C3
100
AcDbEntity
  8
0
  6
Continuous
 62
     7
100
AcDbPolyline
 90
        5
 70
   128
 43
0.0
 10
138.0717178804
 20
413.608452037
 10
135.3249952714
 20
413.6351541709
 10
131.9213197286
 20
413.6579826765
 10
128.385135627
 20
413.6721866396
 10
126.8107668957
 20
413.6741106366
  0
LWPOLYLINE
  5
116
330
4C3
100
AcDbEntity
  8
0
  6
Continuous
 62
     7
100
AcDbPolyline
 90
       22
 70
   128
 43
0.0
 10
135.6880179073
 20
391.9711754705
 10
135.5651569958
 20
392.6640432885
 10
135.199318771
 20
393.3414335844
 10
134.5986754542
 20
393.9882145783
 10
133.7766444248
 20
394.5899382516
 10
132.7515884974
 20
395.1331630918
 10
131.5464057277
 20
395.6057543535
 10
130.1880179073
 20
395.9971551289
 10
128.7067691753
 20
396.2986221715
 10
127.1357481808
 20
396.5034212057
 10
125.5100489368
 20
396.6069773595
 10
123.8659868779
 20
396.6069773595
 10
122.2402876338
 20
396.5034212057
 10
120.6692666393
 20
396.2986221715
 10
119.1880179073
 20
395.9971551289
 10
117.8296300869
 20
395.6057543535
 10
116.6244473172
 20
395.1331630918
 10
115.5993913898
 20
394.5899382516
 10
114.7773603604
 20
393.9882145783
 10
114.1767170437
 20
393.3414335844
 10
113.8108788188
 20
392.6640432885
 10
113.6880179073
 20
391.9711754705
  0
LINE
  5
117
330
4C3
100
AcDbEntity
  8
0
  6
Continuous
 62
     7
100
AcDbLine
 10
113.6880179073
 20
394.5212384973
 30
0.0
 11
113.6880179073
 21
391.9711754705
 31
0.0
  0
LWPOLYLINE
  5
118
330
4C3
100
AcDbEntity
  8
0
  6
Continuous
 62
     7
100
AcDbPolyline
 90
       17
 70
   128
 43
0.0
 10
135.6880179073
 20
394.5212384973
 10
134.8798919634
 20
395.1715016554
 10
133.8579827702
 20
395.7656110055
 10
132.6437257444
 20
396.2911045973
 10
131.2625909627
 20
396.7369597547
 10
129.7435489047
 20
397.0938242855
 10
128.1184627731
 20
397.3542126518
 10
126.4214201351
 20
397.5126629856
 10
124.6880179073
 20
397.5658516562
 10
122.9546156795
 20
397.5126629856
 10
121.2575730415
 20
397.3542126518
 10
119.6324869099
 20
397.0938242855
 10
118.113444852
 20
396.7369597547
 10
116.7323100702
 20
396.2911045973
 10
115.5180530445
 20
395.7656110055
 10
114.4961438512
 20
395.1715016554
 10
113.6880179073
 20
394.5212384973
  0
LINE
  5
119
330
4C3
100
AcDbEntity
  8
0
  6
Continuous
 62
     7
100
AcDbLine
 10
135.6880179073
 20
394.5212384973
 30
0.0
 11
135.6880179073
 21
391.9711754705
 31
0.0
  0
LWPOLYLINE
  5
11A
330
4C3
100
AcDbEntity
  8
0
  6
Continuous
 62
     7
100
AcDbPolyline
 90
       12
 70
   128
 43
0.0
 10
124.6880179073
 20
400.3966027556
 10
122.980239848
 20
400.3606585493
 10
121.3072272252
 20
400.2535576508
 10
119.7030377513
 20
400.0774803256
 10
118.2003280978
 20
399.8360110002
 10
116.8296891
 20
399.5340652938
 10
115.6190230151
 20
399.1777899502
 10
114.5929755133
 20
398.7744377079
 10
113.772433963
 20
398.3322196555
 10
113.1741022239
 20
397.8601380773
 10
112.8101606047
 20
397.3678031928
 10
112.6880179073
 20
396.8652375205
  0
LWPOLYLINE
  5
11B
330
4C3
100
AcDbEntity
  8
0
  6
Continuous
 62
     7
100
AcDbPolyline
 90
       12
 70
   128
 43
0.0
 10
136.6880179073
 20
396.8652375205
 10
136.5658752099
 20
397.3678031928
 10
136.2019335907
 20
397.8601380773
 10
135.6036018516
 20
398.3322196555
 10
134.7830603013
 20
398.7744377079
 10
133.7570127996
 20
399.1777899502
 10
132.5463467146
 20
399.5340652938
 10
131.1757077168
 20
399.8360110002
 10
129.6729980633
 20
400.0774803256
 10
128.0688085894
 20
400.2535576508
 10
126.3957959666
 20
400.3606585493
 10
124.6880179073
 20
400.3966027556
  0
ARC
  5
11C
330
4C3
100
AcDbEntity
  8
0
  6
Continuous
 62
     7
100
AcDbCircle
 10
120.239723236
 20
398.137237851
 30
0.0
 40
10.08701048269924
100
AcDbArc
 50
229.4946509126
 51
254.9021492175
  0
ARC
  5
11D
330
4C3
100
AcDbEntity
  8
0
  6
Continuous
 62
     7
100
AcDbCircle
 10
129.1363125786
 20
398.137237851
 30
0.0
 40
10.08701048269822
100
AcDbArc
 50
285.0978507825
 51
310.5053490874
  0
ARC
  5
11E
330
4C3
100
AcDbEntity
  8
0
  6
Continuous
 62
     7
100
AcDbCircle
 10
134.0648689108
 20
395.5964066186
 30
0.0
 40
2.596643054663843
100
AcDbArc
 50
308.6891720236
 51
51.31082797639999
  0
LINE
  5
11F
330
4C3
100
AcDbEntity
  8
0
  6
Continuous
 62
     7
100
AcDbLine
 10
135.6880179073
 20
397.6232126006
 30
0.0
 11
135.6880179073
 21
394.5212384973
 31
0.0
  0
LINE
  5
120
330
4C3
100
AcDbEntity
  8
0
  6
Continuous
 62
     7
100
AcDbLine
 10
113.6880179073
 20
397.6232126006
 30
0.0
 11
113.6880179073
 21
394.5212384973
 31
0.0
  0
ARC
  5
121
330
4C3
100
AcDbEntity
  8
0
  6
Continuous
 62
     7
100
AcDbCircle
 10
115.3111669038
 20
395.5964066186
 30
0.0
 40
2.59664305466403
100
AcDbArc
 50
128.6891720236
 51
231.3108279764
  0
LWPOLYLINE
  5
122
330
4C3
100
AcDbEntity
  8
0
  6
Continuous
 62
     7
100
AcDbPolyline
 90
       22
 70
   128
 43
0.0
 10
113.6880179073
 20
391.9711754705
 10
113.8108788188
 20
391.2783076524
 10
114.1767170437
 20
390.6009173565
 10
114.7773603604
 20
389.9541363626
 10
115.5993913898
 20
389.3524126893
 10
116.6244473172
 20
388.8091878491
 10
117.8296300869
 20
388.3365965874
 10
119.1880179073
 20
387.945195812
 10
120.6692666393
 20
387.6437287694
 10
122.2402876338
 20
387.4389297352
 10
123.8659868779
 20
387.3353735814
 10
125.5100489368
 20
387.3353735814
 10
127.1357481808
 20
387.4389297352
 10
128.7067691753
 20
387.6437287694
 10
130.1880179073
 20
387.945195812
 10
131.5464057277
 20
388.3365965874
 10
132.7515884974
 20
388.8091878491
 10
133.7766444248
 20
389.3524126893
 10
134.5986754542
 20
389.9541363626
 10
135.199318771
 20
390.6009173565
 10
135.5651569958
 20
391.2783076524
 10
135.6880179073
 20
391.9711754705
  0
LINE
  5
123
330
4C3
100
AcDbEntity
  8
0
  6
Continuous
 62
     7
100
AcDbLine
 10
105.6360888723
 20
413.5426366796
 30
0.0
 11
105.6569733322
 21
413.5401402743
 31
0.0
  0
ARC
  5
124
330
4C3
100
AcDbEntity
  8
0
  6
Continuous
 62
     7
100
AcDbCircle
 10
104.1329932901
 20
228.467706326
 30
0.0
 40
185.1019792778298
100
AcDbArc
 50
89.5925301378
 51
90.22375418030002
  0
LINE
  5
125
330
4C3
100
AcDbEntity
  8
0
  6
Continuous
 62
     7
100
AcDbLine
 10
103.1880192788
 20
413.5691491318
 30
0.0
 11
103.1391128454
 21
413.5675568089
 31
0.0
  0
LWPOLYLINE
  5
126
330
4C3
100
AcDbEntity
  8
0
  6
Continuous
 62
     7
100
AcDbPolyline
 90
       11
 70
   128
 43
0.0
 10
103.1880179073
 20
413.5691913385
 10
103.4555271061
 20
413.569900522
 10
104.2790820583
 20
413.5788770698
 10
105.6793400577
 20
413.6082708221
 10
107.6668600603
 20
413.655789632
 10
110.0744770217
 20
413.7109914224
 10
112.9717046012
 20
413.7687781057
 10
116.1172524923
 20
413.8178988669
 10
119.6003983044
 20
413.8544440574
 10
122.1076607381
 20
413.8690361568
 10
124.6880179073
 20
413.8739497025
  0
LINE
  5
127
330
4C3
100
AcDbEntity
  8
0
  6
Continuous
 62
     7
100
AcDbLine
 10
146.1880165347
 20
413.5691491318
 30
0.0
 11
146.2369229682
 21
413.5675568089
 31
0.0
  0
ARC
  5
128
330
4C3
100
AcDbEntity
  8
0
  6
Continuous
 62
     7
100
AcDbCircle
 10
145.2428362332
 20
228.5963791431
 30
0.0
 40
184.9733082488054
100
AcDbArc
 50
89.77602627170002
 51
90.4076894103
  0
LINE
  5
129
330
4C3
100
AcDbEntity
  8
0
  6
Continuous
 62
     7
100
AcDbLine
 10
143.7190624862
 20
413.5401402751
 30
0.0
 11
143.7414725718
 21
413.5428265296
 31
0.0
  0
LWPOLYLINE
  5
12A
330
4C3
100
AcDbEntity
  8
0
  6
Continuous
 62
     7
100
AcDbPolyline
 90
       11
 70
   128
 43
0.0
 10
124.6880179073
 20
413.8739497025
 10
128.0690440468
 20
413.8654356011
 10
131.4500712118
 20
413.839243716
 10
134.7329023363
 20
413.7967461832
 10
137.8211647837
 20
413.7419050128
 10
140.4570700376
 20
413.6851297505
 10
142.7149932026
 20
413.6316461093
 10
144.4056973153
 20
413.5923853621
 10
145.5773312118
 20
413.5719613128
 10
146.0326006932
 20
413.5696206248
 10
146.1880179073
 20
413.5691913385
  0
LINE
  5
12B
330
4C3
100
AcDbEntity
  8
0
  6
Continuous
 62
     7
100
AcDbLine
 10
113.6880179073
 20
391.9711754705
 30
0.0
 11
113.6880179073
 21
390.4676265333
 31
0.0
  0
LINE
  5
12C
330
4C3
100
AcDbEntity
  8
0
  6
Continuous
 62
     7
100
AcDbLine
 10
135.6880179073
 20
391.9711754705
 30
0.0
 11
135.6880179073
 21
390.4676265333
 31
0.0
  0
LWPOLYLINE
  5
12D
330
4C3
100
AcDbEntity
  8
0
  6
Continuous
 62
     7
100
AcDbPolyline
 90
        4
 70
   128
 43
0.0
 10
136.6880179073
 20
395.915696982
 10
136.7080276642
 20
395.9317058571
 10
137.0851255466
 20
396.5350278606
 10
137.0951959438
 20
396.5924849713
  0
ARC
  5
12E
330
4C3
100
AcDbEntity
  8
0
  6
Continuous
 62
     7
100
AcDbCircle
 10
135.9327788859
 20
396.9174654852
 30
0.0
 40
1.298612121445992
100
AcDbArc
 50
305.5613244001
 51
358.6352725546001
  0
LWPOLYLINE
  5
12F
330
4C3
100
AcDbEntity
  8
0
  6
Continuous
 62
     7
100
AcDbPolyline
 90
        3
 70
   128
 43
0.0
 10
112.2330350569
 20
396.8652375205
 10
112.3883100916
 20
396.3097493641
 10
112.6880179073
 20
395.9498699942
  0
LWPOLYLINE
  5
130
330
4C3
100
AcDbEntity
  8
0
  6
Continuous
 62
     7
100
AcDbPolyline
 90
        3
 70
   128
 43
0.0
 10
112.6880179073
 20
395.8755620255
 10
112.172032863
 20
396.6533112928
 10
112.1450131698
 20
396.8865367843
  0
LWPOLYLINE
  5
131
330
4C3
100
AcDbEntity
  8
0
  6
Continuous
 62
     7
100
AcDbPolyline
 90
        7
 70
   128
 43
0.0
 10
145.0591904141
 20
450.4599709044
 10
143.3393596813
 20
450.4600414282
 10
141.8701903176
 20
450.460162978
 10
140.6585700527
 20
450.4602178316
 10
139.7857533392
 20
450.4599334933
 10
139.2537681282
 20
450.4602397288
 10
139.0234077967
 20
450.4602486085
  0
LINE
  5
132
330
4C3
100
AcDbEntity
  8
0
  6
Continuous
 62
     7
100
AcDbLine
 10
146.1892640609
 20
450.4601378192
 30
0.0
 11
145.0591904687
 21
450.4601378192
 31
0.0
  0
LWPOLYLINE
  5
133
330
4C3
100
AcDbEntity
  8
0
  6
Continuous
 62
     7
100
AcDbPolyline
 90
        7
 70
   128
 43
0.0
 10
104.3168454005
 20
450.4599709044
 10
106.0366761333
 20
450.4600414282
 10
107.505845497
 20
450.460162978
 10
108.7174657619
 20
450.4602178316
 10
109.5902824754
 20
450.4599334933
 10
110.1222676864
 20
450.4602397288
 10
110.3526280179
 20
450.4602486085
  0
LINE
  5
134
330
4C3
100
AcDbEntity
  8
0
  6
Continuous
 62
     7
100
AcDbLine
 10
110.8540141058
 20
450.4601378192
 30
0.0
 11
110.3723210428
 21
450.4601378192
 31
0.0
  0
LINE
  5
135
330
4C3
100
AcDbEntity
  8
0
  6
Continuous
 62
     7
100
AcDbLine
 10
103.1867717537
 20
450.4601378192
 30
0.0
 11
104.3168453459
 21
450.4601378192
 31
0.0
  0
LINE
  5
136
330
4C3
100
AcDbEntity
  8
0
  6
Continuous
 62
     7
100
AcDbLine
 10
124.6880179093
 20
445.5528545928
 30
0.0
 11
125.8596901386
 21
445.5521284732
 31
0.0
  0
ARC
  5
137
330
4C3
100
AcDbEntity
  8
0
  6
Continuous
 62
     7
100
AcDbCircle
 10
139.1362613557
 20
446.8780866518
 30
0.0
 40
1.293571108327591
100
AcDbArc
 50
281.4924071652
 51
345.4077192995
  0
ARC
  5
138
330
4C3
100
AcDbEntity
  8
0
  6
Continuous
 62
     7
100
AcDbCircle
 10
110.2254220367
 20
446.8540493608
 30
0.0
 40
1.267586562521936
100
AcDbArc
 50
197.9210371524
 51
260.7576078221
  0
LWPOLYLINE
  5
139
330
4C3
100
AcDbEntity
  8
0
  6
Continuous
 62
     7
100
AcDbPolyline
 90
        3
 70
   128
 43
0.0
 10
128.1305313589
 20
431.6233919343
 10
127.1569560295
 20
432.5868303946
 10
126.6877128929
 20
432.870386727
  0
ARC
  5
13A
330
4C3
100
AcDbEntity
  8
0
  6
Continuous
 62
     7
100
AcDbCircle
 10
125.9334112015
 20
431.6812192699
 30
0.0
 40
1.408222384025869
100
AcDbArc
 50
57.61260490819999
 51
98.25784113449998
  0
LWPOLYLINE
  5
13B
330
4C3
100
AcDbEntity
  8
0
  6
Continuous
 62
     7
100
AcDbPolyline
 90
        3
 70
   128
 43
0.0
 10
125.7311509552
 20
433.0748408382
 10
124.7735973243
 20
432.9864292415
 10
123.6448729953
 20
433.074837213
  0
ARC
  5
13C
330
4C3
100
AcDbEntity
  8
0
  6
Continuous
 62
     7
100
AcDbCircle
 10
123.4316805151
 20
431.7323851222
 30
0.0
 40
1.359275045608718
100
AcDbArc
 50
80.9763127429
 51
123.1534481646
  0
LWPOLYLINE
  5
13D
330
4C3
100
AcDbEntity
  8
0
  6
Continuous
 62
     7
100
AcDbPolyline
 90
        3
 70
   128
 43
0.0
 10
122.6883158472
 20
432.8703823191
 10
121.5828312025
 20
432.0365706332
 10
121.2454525658
 20
431.623318035
  0
LINE
  5
13E
330
4C3
100
AcDbEntity
  8
0
  6
Continuous
 62
     7
100
AcDbLine
 10
121.0361433007
 20
431.2930902088
 30
0.0
 11
121.2453018308
 21
431.6230213947
 31
0.0
  0
LINE
  5
13F
330
4C3
100
AcDbEntity
  8
0
  6
Continuous
 62
     7
100
AcDbLine
 10
128.1306854669
 20
431.6230899272
 30
0.0
 11
128.3398925139
 21
431.2930902088
 31
0.0
  0
ARC
  5
140
330
4C3
100
AcDbEntity
  8
0
  6
Continuous
 62
     7
100
AcDbCircle
 10
124.6880179073
 20
429.6609713841
 30
0.0
 40
4.000000000000028
100
AcDbArc
 50
155.918876022
 51
24.081123978
  0
ARC
  5
141
330
4C3
100
AcDbEntity
  8
0
  6
Continuous
 62
     7
100
AcDbCircle
 10
124.6880179073
 20
429.6609713841
 30
0.0
 40
3.569682227422256
100
AcDbArc
 50
106.9911186602
 51
73.00908045850001
  0
LINE
  5
142
330
4C3
100
AcDbEntity
  8
0
  6
Continuous
 62
     7
100
AcDbLine
 10
142.7776247365
 20
418.6609713841
 30
0.0
 11
106.5984110781
 21
418.6609713841
 31
0.0
  0
LINE
  5
143
330
4C3
100
AcDbEntity
  8
0
  6
Continuous
 62
     7
100
AcDbLine
 10
124.6880179073
 20
291.7804835843
 30
0.0
 11
147.2649573553
 21
291.7804835843
 31
0.0
  0
LINE
  5
144
330
4C3
100
AcDbEntity
  8
0
  6
Continuous
 62
     7
100
AcDbLine
 10
102.1110784593
 20
291.7804835843
 30
0.0
 11
124.6880179073
 21
291.7804835843
 31
0.0
  0
LINE
  5
145
330
4C3
100
AcDbEntity
  8
0
  6
Continuous
 62
     7
100
AcDbLine
 10
147.1541372466
 20
418.6609713841
 30
0.0
 11
142.7776247365
 21
418.6609713841
 31
0.0
  0
LINE
  5
146
330
4C3
100
AcDbEntity
  8
0
  6
Continuous
 62
     7
100
AcDbLine
 10
102.221898568
 20
418.6609713841
 30
0.0
 11
106.5984110781
 21
418.6609713841
 31
0.0
  0
LINE
  5
147
330
4C3
100
AcDbEntity
  8
0
  6
Continuous
 62
     7
100
AcDbLine
 10
101.6880179073
 20
291.7804835843
 30
0.0
 11
102.1110784593
 21
291.7804835843
 31
0.0
  0
LINE
  5
148
330
4C3
100
AcDbEntity
  8
0
  6
Continuous
 62
     7
100
AcDbLine
 10
147.2649573553
 20
291.7804835843
 30
0.0
 11
147.6880179073
 21
291.7804835843
 31
0.0
  0
ARC
  5
149
330
4C3
100
AcDbEntity
  8
0
  6
Continuous
 62
     7
100
AcDbCircle
 10
103.1880179073
 20
412.0683542554
 30
0.0
 40
1.500000000000002
100
AcDbArc
 50
91.8698084472
 51
179.9984828903
  0
ARC
  5
14A
330
4C3
100
AcDbEntity
  8
0
  6
Continuous
 62
     7
100
AcDbCircle
 10
146.1880179073
 20
412.0683542554
 30
0.0
 40
1.499999999999952
100
AcDbArc
 50
0.0
 51
88.1330748278
  0
LINE
  5
14B
330
4C3
100
AcDbEntity
  8
0
  6
Continuous
 62
     8
100
AcDbLine
 10
104.1794886983
 20
402.5509008883
 30
0.0
 11
104.1794886983
 21
412.0383093956
 31
0.0
  0
ARC
  5
14C
330
4C3
100
AcDbEntity
  8
0
  6
Continuous
 62
     8
100
AcDbCircle
 10
106.463286026
 20
453.5186835849
 30
0.0
 40
39.98853623696316
100
AcDbArc
 50
268.8508419471
 51
271.3001290648
  0
ARC
  5
14D
330
4C3
100
AcDbEntity
  8
0
  6
Continuous
 62
     8
100
AcDbCircle
 10
105.6794948628
 20
412.0382942265
 30
0.0
 40
1.500006164552793
100
AcDbArc
 50
90.6947754562
 51
179.9994205861
  0
LINE
  5
14E
330
4C3
100
AcDbEntity
  8
0
  6
Continuous
 62
     8
100
AcDbLine
 10
145.1965471163
 20
402.5509008883
 30
0.0
 11
145.1965471163
 21
412.0383093956
 31
0.0
  0
ARC
  5
14F
330
4C3
100
AcDbEntity
  8
0
  6
Continuous
 62
     8
100
AcDbCircle
 10
142.9127497886
 20
453.5186835849
 30
0.0
 40
39.98853623700413
100
AcDbArc
 50
268.6998709352
 51
271.1491580529
  0
ARC
  5
150
330
4C3
100
AcDbEntity
  8
0
  6
Continuous
 62
     8
100
AcDbCircle
 10
143.6965409518
 20
412.0382942265
 30
0.0
 40
1.500006164552793
100
AcDbArc
 50
0.0005794139
 51
89.30522454380001
  0
LWPOLYLINE
  5
151
330
4C3
100
AcDbEntity
  8
0
  6
Continuous
 62
     8
100
AcDbPolyline
 90
        3
 70
   128
 43
0.0
 10
124.6880191537
 20
413.6291660468
 10
133.2742573551
 20
413.5771714044
 10
142.0054264727
 20
413.5404420681
  0
LWPOLYLINE
  5
152
330
4C3
100
AcDbEntity
  8
0
  6
Continuous
 62
     8
100
AcDbPolyline
 90
        3
 70
   128
 43
0.0
 10
107.3706093419
 20
413.5404420681
 10
116.1017784595
 20
413.5771714044
 10
124.6880166609
 20
413.6291660468
  0
ARC
  5
153
330
4C3
100
AcDbEntity
  8
0
  6
Continuous
 62
     8
100
AcDbCircle
 10
143.8084884974
 20
402.5515484207
 30
0.0
 40
1.388058769931819
100
AcDbArc
 50
284.5066590212
 51
359.9732713918
  0
ARC
  5
154
330
4C3
100
AcDbEntity
  8
0
  6
Continuous
 62
     8
100
AcDbCircle
 10
143.123571464
 20
397.3094896122
 30
0.0
 40
4.032700581675448
100
AcDbArc
 50
75.1635654498
 51
105.2736391892
  0
ARC
  5
155
330
4C3
100
AcDbEntity
  8
0
  6
Continuous
 62
     8
100
AcDbCircle
 10
106.2524643506
 20
397.3094896122
 30
0.0
 40
4.032700581675005
100
AcDbArc
 50
74.72636081079999
 51
104.8364345502
  0
ARC
  5
156
330
4C3
100
AcDbEntity
  8
0
  6
Continuous
 62
     8
100
AcDbCircle
 10
105.5675473172
 20
402.5515484207
 30
0.0
 40
1.388058769931961
100
AcDbArc
 50
180.0267286082
 51
255.4933409788
  0
LWPOLYLINE
  5
157
330
4C3
100
AcDbEntity
  8
0
  6
Continuous
 62
     8
100
AcDbPolyline
 90
        5
 70
   128
 43
0.0
 10
124.6880179073
 20
401.1807683841
 10
133.3433218962
 20
401.1829071658
 10
136.2282333482
 20
401.1839353131
 10
139.1131389497
 20
401.1849180836
 10
142.0612401919
 20
401.1997500469
  0
LWPOLYLINE
  5
158
330
4C3
100
AcDbEntity
  8
0
  6
Continuous
 62
     8
100
AcDbPolyline
 90
        5
 70
   128
 43
0.0
 10
124.6880179073
 20
401.1807683841
 10
116.0327139184
 20
401.1829071658
 10
113.1478024664
 20
401.1839353131
 10
110.2628968649
 20
401.1849180836
 10
107.3147956227
 20
401.1997500469
  0
LINE
  5
159
330
4C3
100
AcDbEntity
  8
0
  6
Continuous
 62
     8
100
AcDbLine
 10
144.1561868397
 20
401.207742999
 30
0.0
 11
144.3919897634
 21
400.9097250813
 31
0.0
  0
LINE
  5
15A
330
4C3
100
AcDbEntity
  8
0
  6
Continuous
 62
     8
100
AcDbLine
 10
144.3918968914
 20
400.9096677668
 30
0.0
 11
137.2307916285
 21
396.8869916491
 31
0.0
  0
LINE
  5
15B
330
4C3
100
AcDbEntity
  8
0
  6
Continuous
 62
     8
100
AcDbLine
 10
105.2198489749
 20
401.207742999
 30
0.0
 11
104.9840460512
 21
400.9097250813
 31
0.0
  0
LINE
  5
15C
330
4C3
100
AcDbEntity
  8
0
  6
Continuous
 62
     8
100
AcDbLine
 10
104.9841389233
 20
400.9096677668
 30
0.0
 11
112.1452441886
 21
396.8869916478
 31
0.0
  0
LINE
  5
15D
330
4C3
100
AcDbEntity
  8
0
  6
Continuous
 62
     8
100
AcDbLine
 10
124.6880136353
 20
413.6776326298
 30
0.0
 11
124.6880190392
 21
413.6689208681
 31
0.0
  0
LINE
  5
15E
330
4C3
100
AcDbEntity
  8
0
  6
Continuous
 62
     8
100
AcDbLine
 10
124.6880190392
 20
413.6689208681
 30
0.0
 11
124.6880191537
 21
413.6291660468
 31
0.0
  0
LWPOLYLINE
  5
15F
330
4C3
100
AcDbEntity
  8
0
  6
Continuous
 62
     8
100
AcDbPolyline
 90
        3
 70
   128
 43
0.0
 10
105.6575935299
 20
413.5400616725
 10
105.6576051761
 20
413.5400577626
 10
105.6613060549
 20
413.5381901099
  0
LWPOLYLINE
  5
160
330
4C3
100
AcDbEntity
  8
0
  6
Continuous
 62
     8
100
AcDbPolyline
 90
        5
 70
   128
 43
0.0
 10
105.6577058847
 20
413.540150757
 10
108.3407171585
 20
413.5764473536
 10
111.1340416652
 20
413.6084515328
 10
114.0510405432
 20
413.6351541709
 10
114.1655111152
 20
413.6358444292
  0
LINE
  5
161
330
4C3
100
AcDbEntity
  8
0
  6
Continuous
 62
     8
100
AcDbLine
 10
121.7851827168
 20
413.6711595406
 30
0.0
 11
124.6880136723
 21
413.6767047904
 31
0.0
  0
LWPOLYLINE
  5
162
330
4C3
100
AcDbEntity
  8
0
  6
Continuous
 62
     8
100
AcDbPolyline
 90
        3
 70
   128
 43
0.0
 10
143.7183311655
 20
413.5401507402
 10
139.6532705307
 20
413.5930770478
 10
138.0717178804
 20
413.608452037
  0
LINE
  5
163
330
4C3
100
AcDbEntity
  8
0
  6
Continuous
 62
     8
100
AcDbLine
 10
126.8107668957
 20
413.6741106366
 30
0.0
 11
124.6880221423
 21
413.6767047904
 31
0.0
  0
LINE
  5
164
330
4C3
100
AcDbEntity
  8
0
  6
Continuous
 62
     8
100
AcDbLine
 10
143.7147297597
 20
413.5381901099
 30
0.0
 11
143.7184422847
 21
413.5400616725
 31
0.0
  0
LINE
  5
165
330
4C3
100
AcDbEntity
  8
0
  6
Continuous
 62
     8
100
AcDbLine
 10
104.1555589076
 20
402.393704003
 30
0.0
 11
104.1794886983
 21
402.5509008883
 31
0.0
  0
LINE
  5
166
330
4C3
100
AcDbEntity
  8
0
  6
Continuous
 62
     8
100
AcDbLine
 10
104.1164664546
 20
402.2581885658
 30
0.0
 11
104.1555571132
 21
402.3933872308
 31
0.0
  0
LINE
  5
167
330
4C3
100
AcDbEntity
  8
0
  6
Continuous
 62
     8
100
AcDbLine
 10
104.0359290381
 20
402.0117030944
 30
0.0
 11
104.1164633857
 21
402.2583759586
 31
0.0
  0
LINE
  5
168
330
4C3
100
AcDbEntity
  8
0
  6
Continuous
 62
     8
100
AcDbLine
 10
104.0359290381
 20
412.0601208648
 30
0.0
 11
104.0359290381
 21
402.0117030944
 31
0.0
  0
LWPOLYLINE
  5
169
330
4C3
100
AcDbEntity
  8
0
  6
Continuous
 62
     8
100
AcDbPolyline
 90
        3
 70
   128
 43
0.0
 10
104.1780051193
 20
412.040287963
 10
104.084196845
 20
412.0532935481
 10
104.0359290381
 20
412.0601208648
  0
LINE
  5
16A
330
4C3
100
AcDbEntity
  8
0
  6
Continuous
 62
     8
100
AcDbLine
 10
104.1794886983
 20
412.0383093956
 30
0.0
 11
104.178005119
 21
412.0401959152
 31
0.0
  0
LINE
  5
16B
330
4C3
100
AcDbEntity
  8
0
  6
Continuous
 62
     8
100
AcDbLine
 10
145.3401067765
 20
402.0117030944
 30
0.0
 11
145.2595724289
 21
402.2583759586
 31
0.0
  0
LINE
  5
16C
330
4C3
100
AcDbEntity
  8
0
  6
Continuous
 62
     8
100
AcDbLine
 10
145.25956936
 20
402.2581885658
 30
0.0
 11
145.2204787014
 21
402.3933872308
 31
0.0
  0
LINE
  5
16D
330
4C3
100
AcDbEntity
  8
0
  6
Continuous
 62
     8
100
AcDbLine
 10
145.220476907
 20
402.393704003
 30
0.0
 11
145.1965471163
 21
402.5509008883
 31
0.0
  0
LINE
  5
16E
330
4C3
100
AcDbEntity
  8
0
  6
Continuous
 62
     8
100
AcDbLine
 10
145.3401067765
 20
412.0601208648
 30
0.0
 11
145.3401067765
 21
402.0117030944
 31
0.0
  0
ARC
  5
16F
330
4C3
100
AcDbEntity
  8
0
  6
Continuous
 62
     8
100
AcDbCircle
 10
143.4770804198
 20
402.3936094289
 30
0.0
 40
1.743398295731227
100
AcDbArc
 50
301.6493084648001
 51
359.9926975884
  0
ARC
  5
170
330
4C3
100
AcDbEntity
  8
0
  6
Continuous
 62
     8
100
AcDbCircle
 10
105.8992448102
 20
402.3939142744
 30
0.0
 40
1.743686846953105
100
AcDbArc
 50
180.0171676446
 51
238.3477946406
  0
ARC
  5
171
330
4C3
100
AcDbEntity
  8
0
  6
Continuous
 62
     8
100
AcDbCircle
 10
104.6554828509
 20
406.1872321288
 30
0.0
 40
7.420037831270665
100
AcDbArc
 50
82.7246856196
 51
83.5001008705
  0
ARC
  5
172
330
4C3
100
AcDbEntity
  8
0
  6
Continuous
 62
     8
100
AcDbCircle
 10
106.5488300797
 20
422.6947464956
 30
0.0
 40
9.195705318505262
100
AcDbArc
 50
263.1331564966
 51
263.4222039136
  0
LINE
  5
173
330
4C3
100
AcDbEntity
  8
0
  6
Continuous
 62
     8
100
AcDbLine
 10
103.1390738298
 20
413.567595253
 30
0.0
 11
103.4101261485
 21
413.5682741146
 31
0.0
  0
LINE
  5
174
330
4C3
100
AcDbEntity
  8
0
  6
Continuous
 62
     8
100
AcDbLine
 10
145.9659096661
 20
413.5682741146
 30
0.0
 11
146.2369619848
 21
413.567595253
 31
0.0
  0
ARC
  5
175
330
4C3
100
AcDbEntity
  8
0
  6
Continuous
 62
     8
100
AcDbCircle
 10
142.7176353285
 20
423.6243495571
 30
0.0
 40
10.13174082337813
100
AcDbArc
 50
276.5911481424
 51
276.8534914474
  0
LWPOLYLINE
  5
176
330
4C3
100
AcDbEntity
  8
0
  6
Continuous
 62
     8
100
AcDbPolyline
 90
        3
 70
   128
 43
0.0
 10
143.7850633127
 20
413.5480516691
 10
143.8256198186
 20
413.5529131006
 10
143.8805938141
 20
413.5595743648
  0
LINE
  5
177
330
4C3
100
AcDbEntity
  8
0
  6
Continuous
 62
     8
100
AcDbLine
 10
124.6880179073
 20
400.3966027556
 30
0.0
 11
124.6880179073
 21
400.4701728647
 31
0.0
  0
LINE
  5
178
330
4C3
100
AcDbEntity
  8
0
  6
Continuous
 62
     8
100
AcDbLine
 10
137.1430007577
 20
396.8652375205
 30
0.0
 11
137.147379129
 21
397.1604838024
 31
0.0
  0
LINE
  5
179
330
4C3
100
AcDbEntity
  8
0
  6
Continuous
 62
     8
100
AcDbLine
 10
137.1430007577
 20
396.8652375205
 30
0.0
 11
136.6880179073
 21
396.8652375205
 31
0.0
  0
LINE
  5
17A
330
4C3
100
AcDbEntity
  8
0
  6
Continuous
 62
     8
100
AcDbLine
 10
112.2330350569
 20
396.8652375205
 30
0.0
 11
112.6880179073
 21
396.8652375205
 31
0.0
  0
LINE
  5
17B
330
4C3
100
AcDbEntity
  8
0
  6
Continuous
 62
     8
100
AcDbLine
 10
112.228752301
 20
397.1580958652
 30
0.0
 11
112.2330350569
 21
396.8652375205
 31
0.0
  0
ARC
  5
17C
330
4C3
100
AcDbEntity
  8
0
  6
Continuous
 62
     8
100
AcDbCircle
 10
105.5359285764
 20
412.0601213138
 30
0.0
 40
1.499999538285942
100
AcDbArc
 50
91.5466615954
 51
180.0000171508
  0
ARC
  5
17D
330
4C3
100
AcDbEntity
  8
0
  6
Continuous
 62
     8
100
AcDbCircle
 10
143.8401072382
 20
412.0601213138
 30
0.0
 40
1.499999538285941
100
AcDbArc
 50
359.9999828492
 51
88.4533384046
  0
LINE
  5
17E
330
4C3
100
AcDbEntity
  8
0
  6
Continuous
 62
     8
100
AcDbLine
 10
137.0951959438
 20
396.5924849713
 30
0.0
 11
137.1430007577
 21
396.8652375205
 31
0.0
  0
LINE
  5
17F
330
4C3
100
AcDbEntity
  8
0
  6
Continuous
 62
     8
100
AcDbLine
 10
144.3918741138
 20
400.9094968607
 30
0.0
 11
144.4925957953
 21
400.7410501314
 31
0.0
  0
LWPOLYLINE
  5
180
330
4C3
100
AcDbEntity
  8
0
  6
Continuous
 62
     8
100
AcDbPolyline
 90
        3
 70
   128
 43
0.0
 10
136.6880179073
 20
395.8261467819
 10
140.6686143617
 20
398.0594893466
 10
144.4854051531
 20
400.73597929
  0
LWPOLYLINE
  5
181
330
4C3
100
AcDbEntity
  8
0
  6
Continuous
 62
     8
100
AcDbPolyline
 90
        3
 70
   128
 43
0.0
 10
112.6880179073
 20
395.8261467819
 10
108.7074214529
 20
398.0594893466
 10
104.8906306615
 20
400.73597929
  0
LINE
  5
182
330
4C3
100
AcDbEntity
  8
0
  6
Continuous
 62
     8
100
AcDbLine
 10
104.9841617008
 20
400.9094968607
 30
0.0
 11
104.8834400193
 21
400.7410501314
 31
0.0
  0
ARC
  5
183
330
4C3
100
AcDbEntity
  8
0
  6
Continuous
 62
     8
100
AcDbCircle
 10
106.0005155111
 20
402.2582059615
 30
0.0
 40
1.884052368392297
100
AcDbArc
 50
179.9948495163
 51
233.6328102906
  0
ARC
  5
184
330
4C3
100
AcDbEntity
  8
0
  6
Continuous
 62
     8
100
AcDbCircle
 10
143.3755824279
 20
402.2584082481
 30
0.0
 40
1.883990001262211
100
AcDbArc
 50
306.362101833
 51
359.9990180155
  0
LINE
  5
185
330
4C3
100
AcDbEntity
  8
0
  6
Continuous
 62
     8
100
AcDbLine
 10
144.492574405
 20
400.741257218
 30
0.0
 11
144.5776205382
 21
400.4941238415
 31
0.0
  0
ARC
  5
186
330
4C3
100
AcDbEntity
  8
0
  6
Continuous
 62
     8
100
AcDbCircle
 10
119.7487685845
 20
431.2780351013
 30
0.0
 40
39.54882873950718
100
AcDbArc
 50
295.4103981432
 51
308.8883777454
  0
LWPOLYLINE
  5
187
330
4C3
100
AcDbEntity
  8
0
  6
Continuous
 62
     8
100
AcDbPolyline
 90
        3
 70
   128
 43
0.0
 10
104.8834614096
 20
400.741257218
 10
104.8188683505
 20
400.5539740131
 10
104.7983077014
 20
400.4943931845
  0
ARC
  5
188
330
4C3
100
AcDbEntity
  8
0
  6
Continuous
 62
     8
100
AcDbCircle
 10
129.6272672301
 20
431.2780351013
 30
0.0
 40
39.54882873951082
100
AcDbArc
 50
231.1116222546
 51
244.5896018568
  0
ARC
  5
189
330
4C3
100
AcDbEntity
  8
0
  6
Continuous
 62
     8
100
AcDbCircle
 10
105.9254231455
 20
402.0107129044
 30
0.0
 40
1.889494233075867
100
AcDbArc
 50
179.9790985342
 51
233.3832147133
  0
ARC
  5
18A
330
4C3
100
AcDbEntity
  8
0
  6
Continuous
 62
     8
100
AcDbCircle
 10
143.4506126691
 20
402.0107129044
 30
0.0
 40
1.889494233075796
100
AcDbArc
 50
306.6167852867
 51
0.0209014658
  0
ARC
  5
18B
330
4C3
100
AcDbEntity
  8
0
  6
Continuous
 62
     8
100
AcDbCircle
 10
111.3766548924
 20
431.0545447374
 30
0.0
 40
14.80438121828903
100
AcDbArc
 50
88.0751363139
 51
92.72068595870002
  0
ARC
  5
18C
330
4C3
100
AcDbEntity
  8
0
  6
Continuous
 62
     8
100
AcDbCircle
 10
110.6739902947
 20
447.342274158
 30
0.0
 40
1.500035662881593
100
AcDbArc
 50
180.0027583736
 51
269.9978524994
  0
LINE
  5
18D
330
4C3
100
AcDbEntity
  8
0
  6
Continuous
 62
     8
100
AcDbLine
 10
109.1739546335
 20
447.3422019422
 30
0.0
 11
109.1739546335
 21
448.9609713841
 31
0.0
  0
LINE
  5
18E
330
4C3
100
AcDbEntity
  8
0
  6
Continuous
 62
     8
100
AcDbLine
 10
140.2020811811
 20
447.3422019422
 30
0.0
 11
140.2020811811
 21
448.9609713841
 31
0.0
  0
ARC
  5
18F
330
4C3
100
AcDbEntity
  8
0
  6
Continuous
 62
     8
100
AcDbCircle
 10
137.9993809222
 20
431.0545447374
 30
0.0
 40
14.8043812182875
100
AcDbArc
 50
87.27931404130001
 51
91.92486368610001
  0
ARC
  5
190
330
4C3
100
AcDbEntity
  8
0
  6
Continuous
 62
     8
100
AcDbCircle
 10
138.7020455199
 20
447.342274158
 30
0.0
 40
1.500035662881489
100
AcDbArc
 50
270.0021475006
 51
359.9972416264
  0
ARC
  5
191
330
4C3
100
AcDbEntity
  8
0
  6
Continuous
 62
     8
100
AcDbCircle
 10
111.2151966269
 20
7.8674145141
 30
0.0
 40
442.593464617364
100
AcDbArc
 50
89.91472547559998
 51
90.07654160880001
  0
ARC
  5
192
330
4C3
100
AcDbEntity
  8
0
  6
Continuous
 62
     8
100
AcDbCircle
 10
110.6739451642
 20
448.9609812059
 30
0.0
 40
1.499990530677428
100
AcDbArc
 50
91.9106229726
 51
180.0003751643
  0
ARC
  5
193
330
4C3
100
AcDbEntity
  8
0
  6
Continuous
 62
     8
100
AcDbCircle
 10
138.1608391877
 20
7.8674145142
 30
0.0
 40
442.593464617244
100
AcDbArc
 50
89.92345839119999
 51
90.0852745244
  0
ARC
  5
194
330
4C3
100
AcDbEntity
  8
0
  6
Continuous
 62
     8
100
AcDbCircle
 10
138.7020906504
 20
448.9609812059
 30
0.0
 40
1.499990530677376
100
AcDbArc
 50
359.9996248356999
 51
88.0893770274
  0
LINE
  5
195
330
4C3
100
AcDbEntity
  8
0
  6
Continuous
 62
     8
100
AcDbLine
 10
111.8739176226
 20
450.4601378192
 30
0.0
 11
124.6880179073
 21
450.4601378192
 31
0.0
  0
LINE
  5
196
330
4C3
100
AcDbEntity
  8
0
  6
Continuous
 62
     8
100
AcDbLine
 10
137.502118192
 20
450.4601378192
 30
0.0
 11
124.6880179073
 21
450.4601378192
 31
0.0
  0
LINE
  5
197
330
4C3
100
AcDbEntity
  8
0
  6
Continuous
 62
     8
100
AcDbLine
 10
111.8739176226
 20
445.8505723473
 30
0.0
 11
137.502118192
 21
445.8505723473
 31
0.0
  0
LWPOLYLINE
  5
198
330
4C3
100
AcDbEntity
  8
0
  6
Continuous
 62
     8
100
AcDbPolyline
 90
        3
 70
   128
 43
0.0
 10
139.0234077967
 20
450.4602486085
 10
138.9819816717
 20
450.4600155528
 10
138.964183662
 20
450.4598952427
  0
LINE
  5
199
330
4C3
100
AcDbEntity
  8
0
  6
Continuous
 62
     8
100
AcDbLine
 10
138.9641837182
 20
450.4601378192
 30
0.0
 11
138.7521010573
 21
450.4601378192
 31
0.0
  0
LINE
  5
19A
330
4C3
100
AcDbEntity
  8
0
  6
Continuous
 62
     8
100
AcDbLine
 10
124.6880179073
 20
450.8344073612
 30
0.0
 11
124.6880179073
 21
450.460047712
 31
0.0
  0
LINE
  5
19B
330
4C3
100
AcDbEntity
  8
0
  6
Continuous
 62
     8
100
AcDbLine
 10
110.4118520964
 20
450.4601378192
 30
0.0
 11
110.6239347573
 21
450.4601378192
 31
0.0
  0
LWPOLYLINE
  5
19C
330
4C3
100
AcDbEntity
  8
0
  6
Continuous
 62
     8
100
AcDbPolyline
 90
        3
 70
   128
 43
0.0
 10
110.3526280179
 20
450.4602486085
 10
110.3940541429
 20
450.4600155528
 10
110.4118521526
 20
450.4598952427
  0
LINE
  5
19D
330
4C3
100
AcDbEntity
  8
0
  6
Continuous
 62
     8
100
AcDbLine
 10
124.6880179094
 20
445.5528545928
 30
0.0
 11
121.2596211735
 21
445.5507299146
 31
0.0
  0
LWPOLYLINE
  5
19E
330
4C3
100
AcDbEntity
  8
0
  6
Continuous
 62
     8
100
AcDbPolyline
 90
        6
 70
   128
 43
0.0
 10
121.259630148
 20
445.5507299441
 10
119.9611964569
 20
445.5491364249
 10
118.6791987037
 20
445.5472336787
 10
117.3707691631
 20
445.5449745154
 10
113.8200957153
 20
445.5372938274
 10
110.4182531807
 20
445.5276225052
  0
LINE
  5
19F
330
4C3
100
AcDbEntity
  8
0
  6
Continuous
 62
     8
100
AcDbLine
 10
110.461851411
 20
445.559459605
 30
0.0
 11
110.4182531807
 21
445.5276225052
 31
0.0
  0
LINE
  5
1A0
330
4C3
100
AcDbEntity
  8
0
  6
Continuous
 62
     8
100
AcDbLine
 10
110.6739340719
 20
445.8422384962
 30
0.0
 11
110.461851411
 21
445.559459605
 31
0.0
  0
LINE
  5
1A1
330
4C3
100
AcDbEntity
  8
0
  6
Continuous
 62
     8
100
AcDbLine
 10
138.7021017427
 20
445.8422384962
 30
0.0
 11
138.9141844036
 21
445.559459605
 31
0.0
  0
LINE
  5
1A2
330
4C3
100
AcDbEntity
  8
0
  6
Continuous
 62
     8
100
AcDbLine
 10
138.9141844036
 20
445.559459605
 30
0.0
 11
138.9577826339
 21
445.5276225052
 31
0.0
  0
LWPOLYLINE
  5
1A3
330
4C3
100
AcDbEntity
  8
0
  6
Continuous
 62
     8
100
AcDbPolyline
 90
        6
 70
   128
 43
0.0
 10
128.1164056667
 20
445.5507299441
 10
129.4148393577
 20
445.5491364249
 10
130.6968371109
 20
445.5472336787
 10
132.0052666515
 20
445.5449745154
 10
135.5559400993
 20
445.5372938274
 10
138.9577826339
 20
445.5276225052
  0
LINE
  5
1A4
330
4C3
100
AcDbEntity
  8
0
  6
Continuous
 62
     8
100
AcDbLine
 10
125.8596901386
 20
445.5521284732
 30
0.0
 11
128.1164147113
 21
445.5507299149
 31
0.0
  0
LINE
  5
1A5
330
4C3
100
AcDbEntity
  8
0
  6
Continuous
 62
     8
100
AcDbLine
 10
108.9618719726
 20
448.9609713841
 30
0.0
 11
109.1739546335
 21
448.9609713841
 31
0.0
  0
ARC
  5
1A6
330
4C3
100
AcDbEntity
  8
0
  6
Continuous
 62
     8
100
AcDbCircle
 10
110.4618625033
 20
448.9609812059
 30
0.0
 40
1.499990530677261
100
AcDbArc
 50
91.91062296269999
 51
180.0003751643
  0
LINE
  5
1A7
330
4C3
100
AcDbEntity
  8
0
  6
Continuous
 62
     8
100
AcDbLine
 10
140.414163842
 20
448.9609713841
 30
0.0
 11
140.2020811811
 21
448.9609713841
 31
0.0
  0
ARC
  5
1A8
330
4C3
100
AcDbEntity
  8
0
  6
Continuous
 62
     8
100
AcDbCircle
 10
138.9141733114
 20
448.9609812059
 30
0.0
 40
1.499990530677291
100
AcDbArc
 50
359.9996248356999
 51
88.0893770373
  0
LINE
  5
1A9
330
4C3
100
AcDbEntity
  8
0
  6
Continuous
 62
     8
100
AcDbLine
 10
108.9618719726
 20
447.0594230511
 30
0.0
 11
109.1739546335
 21
447.3422019422
 31
0.0
  0
ARC
  5
1AA
330
4C3
100
AcDbEntity
  8
0
  6
Continuous
 62
     8
100
AcDbCircle
 10
110.4619076338
 20
447.0594952668
 30
0.0
 40
1.500035662881422
100
AcDbArc
 50
180.0027583731
 51
269.9978524994
  0
LINE
  5
1AB
330
4C3
100
AcDbEntity
  8
0
  6
Continuous
 62
     8
100
AcDbLine
 10
140.414163842
 20
447.0594230511
 30
0.0
 11
140.2020811811
 21
447.3422019422
 31
0.0
  0
ARC
  5
1AC
330
4C3
100
AcDbEntity
  8
0
  6
Continuous
 62
     8
100
AcDbCircle
 10
138.9141281809
 20
447.0594952668
 30
0.0
 40
1.500035662881422
100
AcDbArc
 50
270.0021475006
 51
359.9972416269
  0
LINE
  5
1AD
330
4C3
100
AcDbEntity
  8
0
  6
Continuous
 62
     8
100
AcDbLine
 10
140.414163842
 20
448.9609713841
 30
0.0
 11
140.414163842
 21
447.0594230511
 31
0.0
  0
LINE
  5
1AE
330
4C3
100
AcDbEntity
  8
0
  6
Continuous
 62
     8
100
AcDbLine
 10
108.9618719726
 20
448.9609713841
 30
0.0
 11
108.9618719726
 21
447.0594230511
 31
0.0
  0
ARC
  5
1AF
330
4C3
100
AcDbEntity
  8
0
  6
Continuous
 62
     8
100
AcDbCircle
 10
124.6880586491
 20
407.4495237347
 30
0.0
 40
45.58058966097223
100
AcDbArc
 50
261.1852337359
 51
278.8146576053
  0
LWPOLYLINE
  5
1B0
330
4C3
100
AcDbEntity
  8
0
  6
Continuous
 62
     8
100
AcDbPolyline
 90
       13
 70
   128
 43
0.0
 10
131.6728114512
 20
362.4074830884
 10
133.9091280794
 20
363.2490491622
 10
136.010463768
 20
364.3308507755
 10
137.8711950649
 20
365.5856975916
 10
139.5646233769
 20
367.0483159751
 10
141.4333249635
 20
369.1608982103
 10
142.9942773779
 20
371.5476927855
 10
144.2689335489
 20
374.2086997006
 10
145.2262166235
 20
376.9564545692
 10
145.950806107
 20
379.8606808774
 10
146.483964876
 20
382.9213786255
 10
146.9954144751
 20
387.6883461077
 10
147.2649573557
 20
392.6277411934
  0
LWPOLYLINE
  5
1B1
330
4C3
100
AcDbEntity
  8
0
  6
Continuous
 62
     8
100
AcDbPolyline
 90
       12
 70
   128
 43
0.0
 10
117.7032243634
 20
362.4074830885
 10
115.4669077352
 20
363.2490491622
 10
113.3655720466
 20
364.3308507755
 10
111.5048407497
 20
365.5856975916
 10
109.8114124377
 20
367.0483159751
 10
107.9427108511
 20
369.1608982103
 10
106.3817584367
 20
371.5476927855
 10
105.1071022657
 20
374.2086997006
 10
103.7610610408
 20
378.3890087933
 10
102.8920709386
 20
382.9213786255
 10
102.3806213395
 20
387.6883461077
 10
102.1110784589
 20
392.6277411934
  0
LWPOLYLINE
  5
1B2
330
4C3
100
AcDbEntity
  8
0
  6
Continuous
 62
     8
100
AcDbPolyline
 90
        3
 70
   128
 43
0.0
 10
102.1110784589
 20
392.6277411934
 10
102.0089948766
 20
396.676629507
 10
101.978072667
 20
400.7864783457
  0
LINE
  5
1B3
330
4C3
100
AcDbEntity
  8
0
  6
Continuous
 62
     8
100
AcDbLine
 10
101.978072667
 20
400.7864783457
 30
0.0
 11
101.978072667
 21
401.7437219578
 31
0.0
  0
LINE
  5
1B4
330
4C3
100
AcDbEntity
  8
0
  6
Continuous
 62
     8
100
AcDbLine
 10
103.9955226234
 20
401.8879401738
 30
0.0
 11
104.0359290381
 21
402.0117030944
 31
0.0
  0
LINE
  5
1B5
330
4C3
100
AcDbEntity
  8
0
  6
Continuous
 62
     8
100
AcDbLine
 10
145.3805131912
 20
401.8879401738
 30
0.0
 11
145.3401067765
 21
402.0117030944
 31
0.0
  0
LINE
  5
1B6
330
4C3
100
AcDbEntity
  8
0
  6
Continuous
 62
     8
100
AcDbLine
 10
147.3979631476
 20
400.7864783457
 30
0.0
 11
147.3979631476
 21
401.7437219578
 31
0.0
  0
LWPOLYLINE
  5
1B7
330
4C3
100
AcDbEntity
  8
0
  6
Continuous
 62
     8
100
AcDbPolyline
 90
        3
 70
   128
 43
0.0
 10
147.2649573557
 20
392.6277411934
 10
147.367040938
 20
396.676629507
 10
147.3979631476
 20
400.7864783457
  0
LINE
  5
1B8
330
4C3
100
AcDbEntity
  8
0
  6
Continuous
 62
     8
100
AcDbLine
 10
103.9955226234
 20
412.0657149065
 30
0.0
 11
103.9955226234
 21
401.8879401738
 31
0.0
  0
LINE
  5
1B9
330
4C3
100
AcDbEntity
  8
0
  6
Continuous
 62
     8
100
AcDbLine
 10
104.0359290381
 20
412.0601208648
 30
0.0
 11
103.9955226234
 21
412.0657149065
 31
0.0
  0
LINE
  5
1BA
330
4C3
100
AcDbEntity
  8
0
  6
Continuous
 62
     8
100
AcDbLine
 10
145.3805131912
 20
412.0657149065
 30
0.0
 11
145.3401067765
 21
412.0601208648
 31
0.0
  0
LINE
  5
1BB
330
4C3
100
AcDbEntity
  8
0
  6
Continuous
 62
     8
100
AcDbLine
 10
145.3805131912
 20
412.0657149065
 30
0.0
 11
145.3805131912
 21
401.8879401738
 31
0.0
  0
ARC
  5
1BC
330
4C3
100
AcDbEntity
  8
0
  6
Continuous
 62
     8
100
AcDbCircle
 10
105.4955220307
 20
412.0657155089
 30
0.0
 40
1.499999407373658
100
AcDbArc
 50
91.7631483448
 51
180.0000230119
  0
ARC
  5
1BD
330
4C3
100
AcDbEntity
  8
0
  6
Continuous
 62
     8
100
AcDbCircle
 10
143.8805137839
 20
412.0657155089
 30
0.0
 40
1.499999407373753
100
AcDbArc
 50
359.9999769881
 51
88.2368516552
  0
LINE
  5
1BE
330
4C3
100
AcDbEntity
  8
0
  6
Continuous
 62
     8
100
AcDbLine
 10
140.4730238231
 20
448.9609713841
 30
0.0
 11
140.414163842
 21
448.9609713841
 31
0.0
  0
ARC
  5
1BF
330
4C3
100
AcDbEntity
  8
0
  6
Continuous
 62
     8
100
AcDbCircle
 10
138.9732067577
 20
448.96116113
 30
0.0
 40
1.499817077360913
100
AcDbArc
 50
359.9927513581999
 51
88.08186697280001
  0
LINE
  5
1C0
330
4C3
100
AcDbEntity
  8
0
  6
Continuous
 62
     8
100
AcDbLine
 10
108.9030119915
 20
448.9609713841
 30
0.0
 11
108.9618719726
 21
448.9609713841
 31
0.0
  0
ARC
  5
1C1
330
4C3
100
AcDbEntity
  8
0
  6
Continuous
 62
     8
100
AcDbCircle
 10
110.4028290569
 20
448.96116113
 30
0.0
 40
1.499817077360899
100
AcDbArc
 50
91.91813302720001
 51
180.0072486418
  0
LINE
  5
1C2
330
4C3
100
AcDbEntity
  8
0
  6
Continuous
 62
     8
100
AcDbLine
 10
140.4730238231
 20
447.0222845263
 30
0.0
 11
140.414163842
 21
447.0594230511
 31
0.0
  0
LINE
  5
1C3
330
4C3
100
AcDbEntity
  8
0
  6
Continuous
 62
     8
100
AcDbLine
 10
138.9575480423
 20
445.5278372543
 30
0.0
 11
139.3939899707
 21
445.6104502003
 31
0.0
  0
LWPOLYLINE
  5
1C4
330
4C3
100
AcDbEntity
  8
0
  6
Continuous
 62
     8
100
AcDbPolyline
 90
        3
 70
   128
 43
0.0
 10
140.388105899
 20
446.5521856673
 10
140.4323144943
 20
446.6763086366
 10
140.4728347643
 20
447.0224553152
  0
LINE
  5
1C5
330
4C3
100
AcDbEntity
  8
0
  6
Continuous
 62
     8
100
AcDbLine
 10
108.9030119915
 20
447.0222845263
 30
0.0
 11
108.9618719726
 21
447.0594230511
 31
0.0
  0
LINE
  5
1C6
330
4C3
100
AcDbEntity
  8
0
  6
Continuous
 62
     8
100
AcDbLine
 10
110.4184877723
 20
445.5278372543
 30
0.0
 11
110.0218330457
 21
445.6029189854
 31
0.0
  0
LWPOLYLINE
  5
1C7
330
4C3
100
AcDbEntity
  8
0
  6
Continuous
 62
     8
100
AcDbPolyline
 90
        3
 70
   128
 43
0.0
 10
109.0193368876
 20
446.4640053805
 10
108.9437213203
 20
446.6763086366
 10
108.9032010503
 20
447.0224553152
  0
LINE
  5
1C8
330
4C3
100
AcDbEntity
  8
0
  6
Continuous
 62
     8
100
AcDbLine
 10
140.4730238231
 20
448.9609713841
 30
0.0
 11
140.4730238231
 21
447.0222845263
 31
0.0
  0
LINE
  5
1C9
330
4C3
100
AcDbEntity
  8
0
  6
Continuous
 62
     8
100
AcDbLine
 10
108.9030119915
 20
448.9609713841
 30
0.0
 11
108.9030119915
 21
447.0222845263
 31
0.0
  0
LWPOLYLINE
  5
1CA
330
4C3
100
AcDbEntity
  8
0
  6
Continuous
 62
     8
100
AcDbPolyline
 90
       10
 70
   128
 43
0.0
 10
106.4397303164
 20
432.6982021717
 10
107.8858124558
 20
430.9806953927
 10
109.6174680421
 20
429.5395184535
 10
111.6336278445
 20
428.3883089207
 10
113.9317022144
 20
427.5332576984
 10
115.1424215803
 20
427.2255802881
 10
116.432695469
 20
426.9816248234
 10
117.7164436625
 20
426.8098361804
 10
119.1114377034
 20
426.6862887271
 10
121.2596852346
 20
426.5890091309
  0
LINE
  5
1CB
330
4C3
100
AcDbEntity
  8
0
  6
Continuous
 62
     8
100
AcDbLine
 10
121.2595711601
 20
426.587308535
 30
0.0
 11
121.2603403286
 21
427.5997696765
 31
0.0
  0
LWPOLYLINE
  5
1CC
330
4C3
100
AcDbEntity
  8
0
  6
Continuous
 62
     8
100
AcDbPolyline
 90
       10
 70
   128
 43
0.0
 10
142.9363054982
 20
432.6982021717
 10
141.4902233588
 20
430.9806953927
 10
139.7585677725
 20
429.5395184535
 10
137.7424079701
 20
428.3883089207
 10
135.4443336002
 20
427.5332576984
 10
134.2336142343
 20
427.2255802881
 10
132.9433403456
 20
426.9816248234
 10
131.6595921521
 20
426.8098361804
 10
130.2645981112
 20
426.6862887271
 10
128.11635058
 20
426.5890091309
  0
LINE
  5
1CD
330
4C3
100
AcDbEntity
  8
0
  6
Continuous
 62
     8
100
AcDbLine
 10
128.1164646545
 20
426.587308535
 30
0.0
 11
128.1156954862
 21
427.5997695098
 31
0.0
  0
LWPOLYLINE
  5
1CE
330
4C3
100
AcDbEntity
  8
0
  6
Continuous
 62
     8
100
AcDbPolyline
 90
        7
 70
   128
 43
0.0
 10
102.9461632014
 20
446.8095689828
 10
102.9959841581
 20
444.8124566837
 10
103.1510693468
 20
442.7750280586
 10
103.3996446329
 20
440.8794561567
 10
103.7670508133
 20
438.9974654309
 10
104.8402994171
 20
435.6164132006
 10
106.4397303164
 20
432.6982021717
  0
LWPOLYLINE
  5
1CF
330
4C3
100
AcDbEntity
  8
0
  6
Continuous
 62
     8
100
AcDbPolyline
 90
        7
 70
   128
 43
0.0
 10
146.4298726132
 20
446.8095689828
 10
146.3800516565
 20
444.8124566837
 10
146.2249664678
 20
442.7750280586
 10
145.9763911817
 20
440.8794561567
 10
145.6089850013
 20
438.9974654309
 10
144.5357363975
 20
435.6164132006
 10
142.9363054982
 20
432.6982021717
  0
ARC
  5
1D0
330
4C3
100
AcDbEntity
  8
0
  6
Continuous
 62
     8
100
AcDbCircle
 10
144.9663804612
 20
448.9990940422
 30
0.0
 40
1.463988598294441
100
AcDbArc
 50
358.507833775
 51
86.36527902109998
  0
ARC
  5
1D1
330
4C3
100
AcDbEntity
  8
0
  6
Continuous
 62
     8
100
AcDbCircle
 10
104.4096553534
 20
448.9990940422
 30
0.0
 40
1.463988598294442
100
AcDbArc
 50
93.6347209789
 51
181.492166225
  0
LINE
  5
1D2
330
4C3
100
AcDbEntity
  8
0
  6
Continuous
 62
     8
100
AcDbLine
 10
146.4298726132
 20
446.8095689828
 30
0.0
 11
146.4298726132
 21
448.9609713841
 31
0.0
  0
LINE
  5
1D3
330
4C3
100
AcDbEntity
  8
0
  6
Continuous
 62
     8
100
AcDbLine
 10
102.9461632014
 20
446.8095689828
 30
0.0
 11
102.9461632014
 21
448.9609713841
 31
0.0
  0
LINE
  5
1D4
330
4C3
100
AcDbEntity
  8
0
  6
Continuous
 62
     8
100
AcDbLine
 10
147.3979631476
 20
401.7437219578
 30
0.0
 11
147.3979631476
 21
412.0690930401
 31
0.0
  0
LINE
  5
1D5
330
4C3
100
AcDbEntity
  8
0
  6
Continuous
 62
     8
100
AcDbLine
 10
101.978072667
 20
401.7437219578
 30
0.0
 11
101.978072667
 21
412.0690930401
 31
0.0
  0
ARC
  5
1D6
330
4C3
100
AcDbEntity
  8
0
  6
Continuous
 62
     8
100
AcDbCircle
 10
145.9067346996
 20
412.0781924368
 30
0.0
 40
1.491256209778772
100
AcDbArc
 50
359.6503885418
 51
87.7258326101
  0
ARC
  5
1D7
330
4C3
100
AcDbEntity
  8
0
  6
Continuous
 62
     8
100
AcDbCircle
 10
103.4693011151
 20
412.0781924367
 30
0.0
 40
1.491256209837219
100
AcDbArc
 50
92.27416739210001
 51
180.349611456
  0
ARC
  5
1D8
330
4C3
100
AcDbEntity
  8
0
  6
Continuous
 62
     8
100
AcDbCircle
 10
124.6851630794
 20
426.55054715
 30
0.0
 40
3.425536177387202
100
AcDbArc
 50
179.9544225648
 51
270.0477501969
  0
LINE
  5
1D9
330
4C3
100
AcDbEntity
  8
0
  6
Continuous
 62
     8
100
AcDbLine
 10
121.2596191955
 20
426.5890108936
 30
0.0
 11
121.2596191955
 21
426.5533254173
 31
0.0
  0
LINE
  5
1DA
330
4C3
100
AcDbEntity
  8
0
  6
Continuous
 62
     8
100
AcDbLine
 10
128.1164166191
 20
426.5890108936
 30
0.0
 11
128.1164166191
 21
426.5533254173
 31
0.0
  0
ARC
  5
1DB
330
4C3
100
AcDbEntity
  8
0
  6
Continuous
 62
     8
100
AcDbCircle
 10
124.6908727352
 20
426.55054715
 30
0.0
 40
3.425536177387202
100
AcDbArc
 50
269.9522498031001
 51
0.0455774352
  0
LINE
  5
1DC
330
4C3
100
AcDbEntity
  8
0
  6
Continuous
 62
     8
100
AcDbLine
 10
147.2649573557
 20
392.6277439361
 30
0.0
 11
147.2649573553
 21
291.7804835843
 31
0.0
  0
LINE
  5
1DD
330
4C3
100
AcDbEntity
  8
0
  6
Continuous
 62
     8
100
AcDbLine
 10
102.1110784589
 20
392.6277439361
 30
0.0
 11
102.1110784593
 21
291.7804835843
 31
0.0
  0
LINE
  5
1DE
330
4C3
100
AcDbEntity
  8
0
  6
Continuous
 62
     8
100
AcDbLine
 10
142.9363054982
 20
418.8609713841
 30
0.0
 11
147.3512084689
 21
418.8609713841
 31
0.0
  0
ARC
  5
1DF
330
4C3
100
AcDbEntity
  8
0
  6
Continuous
 62
     8
100
AcDbCircle
 10
147.1526619762
 20
418.8595177175
 30
0.0
 40
0.198551814129088
100
AcDbArc
 50
270.4257203326999
 51
0.4194860196
  0
LWPOLYLINE
  5
1E0
330
4C3
100
AcDbEntity
  8
0
  6
Continuous
 62
     8
100
AcDbPolyline
 90
        3
 70
   128
 43
0.0
 10
101.6880179073
 20
401.7142642702
 10
101.7256739732
 20
401.7249074607
 10
101.978072667
 20
401.7437219561
  0
LINE
  5
1E1
330
4C3
100
AcDbEntity
  8
0
  6
Continuous
 62
     8
100
AcDbLine
 10
101.978072667
 20
412.0690930401
 30
0.0
 11
101.6880179073
 21
412.0683939732
 31
0.0
  0
LWPOLYLINE
  5
1E2
330
4C3
100
AcDbEntity
  8
0
  6
Continuous
 62
     7
100
AcDbPolyline
 90
       11
 70
   128
 43
0.0
 10
102.2660125023
 20
219.9951534548
 10
102.417110967
 20
218.9638516108
 10
102.4609400471
 20
218.6682151452
 10
102.4750685446
 20
218.5754129919
 10
102.4801989458
 20
218.5427670314
 10
102.4840496548
 20
218.5192919741
 10
102.4866304406
 20
218.5049886658
 10
102.4879530581
 20
218.4998581239
 10
102.486878778
 20
218.5171201001
 10
102.4702656884
 20
218.661772091
 10
102.4690316523
 20
218.6717024948
  0
LWPOLYLINE
  5
1E3
330
4C3
100
AcDbEntity
  8
0
  6
Continuous
 62
     7
100
AcDbPolyline
 90
        3
 70
   128
 43
0.0
 10
102.1632511413
 20
220.6649944776
 10
102.2700282177
 20
219.9449514474
 10
102.3760507835
 20
219.2248431005
  0
ARC
  5
1E4
330
4C3
100
AcDbEntity
  8
0
  6
Continuous
 62
     7
100
AcDbCircle
 10
21.8123688259
 20
186.2162216734
 30
0.0
 40
87.10697492831721
100
AcDbArc
 50
1.1095183273
 51
21.3416270192
  0
ARC
  5
1E5
330
4C3
100
AcDbEntity
  8
0
  6
Continuous
 62
     7
100
AcDbCircle
 10
227.5636669887
 20
186.2162216734
 30
0.0
 40
87.10697492831663
100
AcDbArc
 50
158.6583729808
 51
178.8904816727
  0
ARC
  5
1E6
330
4C3
100
AcDbEntity
  8
0
  6
Continuous
 62
     7
100
AcDbCircle
 10
137.9455863019
 20
141.6738787539
 30
0.0
 40
2.297411308281353
100
AcDbArc
 50
258.870365772
 51
10.829634228
  0
ARC
  5
1E7
330
4C3
100
AcDbEntity
  8
0
  6
Continuous
 62
     7
100
AcDbCircle
 10
111.4304495127
 20
141.6738787539
 30
0.0
 40
2.297411308281341
100
AcDbArc
 50
169.170365772
 51
281.129634228
  0
LWPOLYLINE
  5
1E8
330
4C3
100
AcDbEntity
  8
0
  6
Continuous
 62
     7
100
AcDbPolyline
 90
        3
 70
   128
 43
0.0
 10
140.4730238231
 20
187.9029208637
 10
140.4286565248
 20
184.9031474252
 10
140.414163842
 20
182.6099722983
  0
LWPOLYLINE
  5
1E9
330
4C3
100
AcDbEntity
  8
0
  6
Continuous
 62
     7
100
AcDbPolyline
 90
        3
 70
   128
 43
0.0
 10
108.9030119915
 20
187.9029208637
 10
108.9473792899
 20
184.9031474252
 10
108.9618719726
 20
182.6099722983
  0
LINE
  5
1EA
330
4C3
100
AcDbEntity
  8
0
  6
Continuous
 62
     7
100
AcDbLine
 10
108.9618719726
 20
182.6099722983
 30
0.0
 11
109.1739546335
 21
142.1055378554
 31
0.0
  0
LINE
  5
1EB
330
4C3
100
AcDbEntity
  8
0
  6
Continuous
 62
     7
100
AcDbLine
 10
140.414163842
 20
182.6099722983
 30
0.0
 11
140.2020811811
 21
142.1055378554
 31
0.0
  0
LINE
  5
1EC
330
4C3
100
AcDbEntity
  8
0
  6
Continuous
 62
     7
100
AcDbLine
 10
137.502118192
 20
139.4196749577
 30
0.0
 11
111.8739176226
 21
139.4196749577
 31
0.0
  0
ARC
  5
1ED
330
4C3
100
AcDbEntity
  8
0
  6
Continuous
 62
     7
100
AcDbCircle
 10
124.6880179073
 20
225.4196749577
 30
0.0
 40
22.99999999999999
100
AcDbArc
 50
340.9612250535999
 51
199.0387749463999
  0
LINE
  5
1EE
330
4C3
100
AcDbEntity
  8
0
  6
Continuous
 62
     7
100
AcDbLine
 10
108.9030119915
 20
187.9029208637
 30
0.0
 11
108.9618719726
 21
182.6099722983
 31
0.0
  0
ARC
  5
1EF
330
4C3
100
AcDbEntity
  8
0
  6
Continuous
 62
     7
100
AcDbCircle
 10
285.9355782658
 20
198.090884864
 30
0.0
 40
140.5606005118569
100
AcDbArc
 50
170.2674990426
 51
180.5084909442
  0
ARC
  5
1F0
330
4C3
100
AcDbEntity
  8
0
  6
Continuous
 62
     7
100
AcDbCircle
 10
-37.1991387644
 20
198.0392892841
 30
0.0
 40
141.1997253546226
100
AcDbArc
 50
359.5147478921
 51
9.7092621211
  0
LINE
  5
1F1
330
4C3
100
AcDbEntity
  8
0
  6
Continuous
 62
     7
100
AcDbLine
 10
141.996553562
 20
101.9936491693
 30
0.0
 11
124.6880179073
 21
101.9936491693
 31
0.0
  0
LINE
  5
1F2
330
4C3
100
AcDbEntity
  8
0
  6
Continuous
 62
     7
100
AcDbLine
 10
124.6880179073
 20
101.9936491693
 30
0.0
 11
107.3794822526
 21
101.9936491693
 31
0.0
  0
ARC
  5
1F3
330
4C3
100
AcDbEntity
  8
0
  6
Continuous
 62
     7
100
AcDbCircle
 10
142.4977463572
 20
104.6914494048
 30
0.0
 40
2.743960701010546
100
AcDbArc
 50
259.4756691589
 51
10.4093308411
  0
ARC
  5
1F4
330
4C3
100
AcDbEntity
  8
0
  6
Continuous
 62
     7
100
AcDbCircle
 10
106.8782894575
 20
104.6914494048
 30
0.0
 40
2.743960701010493
100
AcDbArc
 50
169.5906691589
 51
280.5243308411
  0
LINE
  5
1F5
330
4C3
100
AcDbEntity
  8
0
  6
Continuous
 62
     7
100
AcDbLine
 10
104.1780051193
 20
105.9263803144
 30
0.0
 11
104.0359290381
 21
176.7120228184
 31
0.0
  0
LINE
  5
1F6
330
4C3
100
AcDbEntity
  8
0
  6
Continuous
 62
     7
100
AcDbLine
 10
104.1794886983
 20
105.187226362
 30
0.0
 11
104.178005119
 21
105.9263804637
 31
0.0
  0
LINE
  5
1F7
330
4C3
100
AcDbEntity
  8
0
  6
Continuous
 62
     7
100
AcDbLine
 10
145.3401067765
 20
176.7120228184
 30
0.0
 11
145.1980306982
 21
105.92638175
 31
0.0
  0
LINE
  5
1F8
330
4C3
100
AcDbEntity
  8
0
  6
Continuous
 62
     7
100
AcDbLine
 10
145.1980306985
 20
105.9263818993
 30
0.0
 11
145.1965471163
 21
105.187226362
 31
0.0
  0
ARC
  5
1F9
330
4C3
100
AcDbEntity
  8
0
  6
Continuous
 62
     7
100
AcDbCircle
 10
124.6880179073
 20
225.4936491693
 30
0.0
 40
23.0
100
AcDbArc
 50
0.0
 51
90.0
  0
ARC
  5
1FA
330
4C3
100
AcDbEntity
  8
0
  6
Continuous
 62
     7
100
AcDbCircle
 10
124.6880179073
 20
225.4936491693
 30
0.0
 40
23.0
100
AcDbArc
 50
90.0
 51
180.0
  0
LINE
  5
1FB
330
4C3
100
AcDbEntity
  8
0
  6
Continuous
 62
     7
100
AcDbLine
 10
104.0359290381
 20
176.7120228184
 30
0.0
 11
103.9955226234
 21
196.8434482318
 31
0.0
  0
LINE
  5
1FC
330
4C3
100
AcDbEntity
  8
0
  6
Continuous
 62
     7
100
AcDbLine
 10
145.3805131912
 20
196.8434482318
 30
0.0
 11
145.3401067765
 21
176.7120228184
 31
0.0
  0
ARC
  5
1FD
330
4C3
100
AcDbEntity
  8
0
  6
Continuous
 62
     7
100
AcDbCircle
 10
-54.6424395507
 20
198.2306653908
 30
0.0
 40
158.6440273510914
100
AcDbArc
 50
359.4989871178
 51
3.163896126
  0
ARC
  5
1FE
330
4C3
100
AcDbEntity
  8
0
  6
Continuous
 62
     8
100
AcDbCircle
 10
21.8107544764
 20
186.2125796646
 30
0.0
 40
88.55865034620187
100
AcDbArc
 50
1.1152792378
 51
21.3057463407
  0
ARC
  5
1FF
330
4C3
100
AcDbEntity
  8
0
  6
Continuous
 62
     8
100
AcDbCircle
 10
227.5652813382
 20
186.2125796646
 30
0.0
 40
88.5586503462028
100
AcDbArc
 50
158.6942536593
 51
178.8847207622
  0
LINE
  5
200
330
4C3
100
AcDbEntity
  8
0
  6
Continuous
 62
     8
100
AcDbLine
 10
111.8739176226
 20
140.8696749577
 30
0.0
 11
124.6880179073
 21
140.8696749577
 31
0.0
  0
LWPOLYLINE
  5
201
330
4C3
100
AcDbEntity
  8
0
  6
Continuous
 62
     8
100
AcDbPolyline
 90
        9
 70
   128
 43
0.0
 10
110.6239348264
 20
142.1131303376
 10
110.6431968904
 20
141.5617707557
 10
110.6880534503
 20
141.2890031492
 10
110.7294548724
 20
141.1567542416
 10
110.7580503801
 20
141.0936360321
 10
110.7974298898
 20
141.036455632
 10
110.8542274499
 20
140.9972703211
 10
111.3206728257
 20
140.8862144844
 10
111.8739176281
 20
140.8696752621
  0
LINE
  5
202
330
4C3
100
AcDbEntity
  8
0
  6
Continuous
 62
     8
100
AcDbLine
 10
110.4118520964
 20
182.6175644459
 30
0.0
 11
110.6239347573
 21
142.1131300029
 31
0.0
  0
LWPOLYLINE
  5
203
330
4C3
100
AcDbEntity
  8
0
  6
Continuous
 62
     8
100
AcDbPolyline
 90
        3
 70
   128
 43
0.0
 10
110.3526280179
 20
187.9362910423
 10
110.3940541429
 20
185.2770688769
 10
110.4118521526
 20
182.617564215
  0
ARC
  5
204
330
4C3
100
AcDbEntity
  8
0
  6
Continuous
 62
     8
100
AcDbCircle
 10
124.6880179073
 20
225.4196749577
 30
0.0
 40
21.55000000000013
100
AcDbArc
 50
90.0
 51
199.0387749463999
  0
LWPOLYLINE
  5
205
330
4C3
100
AcDbEntity
  8
0
  6
Continuous
 62
     8
100
AcDbPolyline
 90
        3
 70
   128
 43
0.0
 10
139.0234077967
 20
187.9362910423
 10
138.9819816717
 20
185.2770688769
 10
138.964183662
 20
182.617564215
  0
LINE
  5
206
330
4C3
100
AcDbEntity
  8
0
  6
Continuous
 62
     8
100
AcDbLine
 10
138.9641837182
 20
182.6175644459
 30
0.0
 11
138.7521010573
 21
142.1131300029
 31
0.0
  0
LWPOLYLINE
  5
207
330
4C3
100
AcDbEntity
  8
0
  6
Continuous
 62
     8
100
AcDbPolyline
 90
        9
 70
   128
 43
0.0
 10
138.7521009882
 20
142.1131303376
 10
138.7328389242
 20
141.5617707557
 10
138.6879823643
 20
141.2890031492
 10
138.6465809422
 20
141.1567542416
 10
138.6179854346
 20
141.0936360321
 10
138.5786059248
 20
141.036455632
 10
138.5218083647
 20
140.9972703211
 10
138.0553629889
 20
140.8862144844
 10
137.5021181865
 20
140.8696752621
  0
LINE
  5
208
330
4C3
100
AcDbEntity
  8
0
  6
Continuous
 62
     8
100
AcDbLine
 10
137.502118192
 20
140.8696749577
 30
0.0
 11
124.6880179073
 21
140.8696749577
 31
0.0
  0
ARC
  5
209
330
4C3
100
AcDbEntity
  8
0
  6
Continuous
 62
     8
100
AcDbCircle
 10
124.6880179073
 20
225.4196749577
 30
0.0
 40
21.55000000000013
100
AcDbArc
 50
340.9612250535999
 51
90.0
  0
LWPOLYLINE
  5
20A
330
4C3
100
AcDbEntity
  8
0
  6
Continuous
 62
     8
100
AcDbPolyline
 90
        5
 70
   128
 43
0.0
 10
105.4954420005
 20
176.7145376498
 10
105.5022995437
 20
173.7145455964
 10
105.5296912502
 20
161.7145773104
 10
105.5571880677
 20
149.7146092968
 10
105.6569733322
 20
105.9284771409
  0
LWPOLYLINE
  5
20B
330
4C3
100
AcDbEntity
  8
0
  6
Continuous
 62
     8
100
AcDbPolyline
 90
        4
 70
   128
 43
0.0
 10
105.4493702181
 20
196.8460166983
 10
105.4562078757
 20
193.8460245593
 10
105.4836770953
 20
181.8460564704
 10
105.4954420005
 20
176.7145376498
  0
ARC
  5
20C
330
4C3
100
AcDbEntity
  8
0
  6
Continuous
 62
     8
100
AcDbCircle
 10
-14.2044088272
 20
199.2093640707
 30
0.0
 40
119.6771166539717
100
AcDbArc
 50
358.8684667854999
 51
6.5926491186
  0
ARC
  5
20D
330
4C3
100
AcDbEntity
  8
0
  6
Continuous
 62
     8
100
AcDbCircle
 10
263.6472382724
 20
199.2071931196
 30
0.0
 40
119.7438544390791
100
AcDbArc
 50
173.4102788295
 51
181.1298635139
  0
LWPOLYLINE
  5
20E
330
4C3
100
AcDbEntity
  8
0
  6
Continuous
 62
     8
100
AcDbPolyline
 90
        4
 70
   128
 43
0.0
 10
143.8805938141
 20
176.7145376498
 10
143.8874662494
 20
179.7145296704
 10
143.9149642801
 20
191.7144976769
 10
143.9266655966
 20
196.8460166983
  0
LWPOLYLINE
  5
20F
330
4C3
100
AcDbEntity
  8
0
  6
Continuous
 62
     8
100
AcDbPolyline
 90
        3
 70
   128
 43
0.0
 10
143.7190624862
 20
105.9284785776
 10
143.8256198186
 20
152.6663718147
 10
143.8805938141
 20
176.7145376498
  0
LWPOLYLINE
  5
210
330
4C3
100
AcDbEntity
  8
0
  6
Continuous
 62
     8
100
AcDbPolyline
 90
        3
 70
   128
 43
0.0
 10
124.6880191537
 20
103.4225098057
 10
133.2742573551
 20
103.4437822604
 10
142.0054264727
 20
103.4749794654
  0
LWPOLYLINE
  5
211
330
4C3
100
AcDbEntity
  8
0
  6
Continuous
 62
     8
100
AcDbPolyline
 90
        3
 70
   128
 43
0.0
 10
107.3706093419
 20
103.4749794654
 10
116.1017784595
 20
103.4437822604
 10
124.6880166609
 20
103.4225098057
  0
LWPOLYLINE
  5
212
330
4C3
100
AcDbEntity
  8
0
  6
Continuous
 62
     8
100
AcDbPolyline
 90
        7
 70
   128
 43
0.0
 10
105.6613060549
 20
105.1850078811
 10
105.7123068187
 20
104.3060107806
 10
105.8419835762
 20
103.8773990696
 10
105.9320002059
 20
103.7467260546
 10
106.06105371
 20
103.6564560741
 10
106.2775253207
 20
103.5734177195
 10
107.3706093419
 20
103.4749794654
  0
LWPOLYLINE
  5
213
330
4C3
100
AcDbEntity
  8
0
  6
Continuous
 62
     8
100
AcDbPolyline
 90
        3
 70
   128
 43
0.0
 10
105.6575935299
 20
105.9309556212
 10
105.6576051761
 20
105.9284785427
 10
105.6613060549
 20
105.1850078811
  0
LINE
  5
214
330
4C3
100
AcDbEntity
  8
0
  6
Continuous
 62
     8
100
AcDbLine
 10
143.7147297597
 20
105.1850078811
 30
0.0
 11
143.7184422847
 21
105.9309556212
 31
0.0
  0
LWPOLYLINE
  5
215
330
4C3
100
AcDbEntity
  8
0
  6
Continuous
 62
     8
100
AcDbPolyline
 90
        7
 70
   128
 43
0.0
 10
142.0054264727
 20
103.4749794654
 10
143.0985104939
 20
103.5734177195
 10
143.3149821046
 20
103.6564560741
 10
143.4440356087
 20
103.7467260546
 10
143.5340522384
 20
103.8773990696
 10
143.6637289959
 20
104.3060107806
 10
143.7147297597
 20
105.1850078811
  0
ARC
  5
216
330
4C3
100
AcDbEntity
  8
0
  6
Continuous
 62
     8
100
AcDbCircle
 10
-4.3325145967
 20
201.2586136407
 30
0.0
 40
108.2439491203985
100
AcDbArc
 50
3.0333601249
 51
9.3485781506
  0
ENDSEC
  0
SECTION
  2
OBJECTS
  0
DICTIONARY
  5
4B3
330
0
100
AcDbDictionary
281
     1
  3
ACAD_DETAILVIEWSTYLE
350
526
  3
ACAD_GROUP
350
4B4
  3
ACAD_LAYOUT
350
4C0
  3
ACAD_MATERIAL
350
4CE
  3
ACAD_MLEADERSTYLE
350
519
  3
ACAD_MLINESTYLE
350
4BD
  3
ACAD_PLOTSETTINGS
350
4BF
  3
ACAD_PLOTSTYLENAME
350
4B5
  3
ACAD_SCALELIST
350
4DC
  3
ACAD_SECTIONVIEWSTYLE
350
527
  3
ACAD_TABLESTYLE
350
517
  3
ACAD_VISUALSTYLE
350
4FE
  3
ACDB_RECOMPOSE_DATA
350
522
  3
AcDbVariableDictionary
350
51E
  3
APPDATA
350
51B
  0
DICTIONARY
  5
51C
330
4C3
100
AcDbDictionary
280
     1
281
     1
  3
DIM_BOUNDING_BOXES_V1
360
51D
  0
DICTIONARY
  5
526
102
{ACAD_REACTORS
330
4B3
102
}
330
4B3
100
AcDbDictionary
281
     1
  0
DICTIONARY
  5
4B4
102
{ACAD_REACTORS
330
4B3
102
}
330
4B3
100
AcDbDictionary
281
     1
  0
DICTIONARY
  5
4C0
102
{ACAD_REACTORS
330
4B3
102
}
330
4B3
100
AcDbDictionary
281
     1
  3
Blatt1
350
4C2
  3
Model
350
4C4
  0
DICTIONARY
  5
4CE
102
{ACAD_REACTORS
330
4B3
102
}
330
4B3
100
AcDbDictionary
281
     1
  3
ByBlock
350
4D0
  3
ByLayer
350
4CF
  3
Global
350
4D1
  0
DICTIONARY
  5
519
102
{ACAD_REACTORS
330
4B3
102
}
330
4B3
100
AcDbDictionary
281
     1
  3
Standard
350
51A
  0
DICTIONARY
  5
4BD
102
{ACAD_REACTORS
330
4B3
102
}
330
4B3
100
AcDbDictionary
281
     1
  3
Standard
350
4BE
  0
DICTIONARY
  5
4BF
102
{ACAD_REACTORS
330
4B3
102
}
330
4B3
100
AcDbDictionary
281
     1
  0
ACDBDICTIONARYWDFLT
  5
4B5
102
{ACAD_REACTORS
330
4B3
102
}
330
4B3
100
AcDbDictionary
281
     1
  3
Normal
350
4B6
100
AcDbDictionaryWithDefault
340
4B6
  0
DICTIONARY
  5
4DC
102
{ACAD_REACTORS
330
4B3
102
}
330
4B3
100
AcDbDictionary
281
     1
  3
A0
350
4DD
  3
A1
350
4DE
  3
A2
350
4DF
  3
A3
350
4E0
  3
A4
350
4E1
  3
A5
350
4E2
  3
A6
350
4E3
  3
A7
350
4E4
  3
A8
350
4E5
  3
A9
350
4E6
  3
B0
350
4E7
  3
B1
350
4E8
  3
B2
350
4E9
  3
B3
350
4EA
  3
B4
350
4EB
  3
B5
350
4EC
  3
B6
350
4ED
  3
B7
350
4EE
  3
B8
350
4EF
  3
B9
350
4F0
  3
C0
350
4F1
  3
C1
350
4F2
  3
C2
350
4F3
  3
C3
350
4F4
  3
C4
350
4F5
  3
C5
350
4F6
  3
C6
350
4F7
  3
C7
350
4F8
  3
C8
350
4F9
  3
C9
350
4FA
  3
D0
350
4FB
  3
D1
350
4FC
  3
D2
350
4FD
  0
DICTIONARY
  5
527
102
{ACAD_REACTORS
330
4B3
102
}
330
4B3
100
AcDbDictionary
281
     1
  0
DICTIONARY
  5
517
102
{ACAD_REACTORS
330
4B3
102
}
330
4B3
100
AcDbDictionary
281
     1
  3
Standard
350
518
  0
DICTIONARY
  5
4FE
102
{ACAD_REACTORS
330
4B3
102
}
330
4B3
100
AcDbDictionary
281
     1
  3
2dWireframe
350
503
  3
Basic
350
506
  3
Brighten
350
50A
  3
ColorChange
350
50E
  3
Conceptual
350
508
  3
Dim
350
509
  3
EdgeColorOff
350
511
  3
Facepattern
350
50D
  3
Flat
350
4FF
  3
FlatWithEdges
350
500
  3
Gouraud
350
501
  3
GouraudWithEdges
350
502
  3
Hidden
350
505
  3
JitterOff
350
50F
  3
Linepattern
350
50C
  3
OverhangOff
350
510
  3
Realistic
350
507
  3
Shaded
350
516
  3
Shaded with edges
350
515
  3
Shades of Gray
350
512
  3
Sketchy
350
513
  3
Thicken
350
50B
  3
Wireframe
350
504
  3
X-Ray
350
514
  0
XRECORD
  5
522
102
{ACAD_REACTORS
330
4B3
102
}
330
4B3
100
AcDbXrecord
280
     1
 90
        1
330
518
  0
DICTIONARY
  5
51E
102
{ACAD_REACTORS
330
4B3
102
}
330
4B3
100
AcDbDictionary
281
     1
  3
CANNOSCALE
350
51F
  3
CMLEADERSTYLE
350
524
  3
CTABLESTYLE
350
523
  3
MSLTSCALE
350
525
  0
DICTIONARY
  5
51B
102
{ACAD_REACTORS
330
4B3
102
}
330
4B3
100
AcDbDictionary
281
     1
  0
DICTIONARY
  5
51D
102
{ACAD_REACTORS
330
51C
102
}
330
51C
100
AcDbDictionary
281
     1
  0
LAYOUT
  5
4C2
102
{ACAD_REACTORS
330
4C0
102
}
330
4C0
100
AcDbPlotSettings
  1

  2
none_device
  4

  6

 40
0.0
 41
0.0
 42
0.0
 43
0.0
 44
0.0
 45
0.0
 46
0.0
 47
0.0
 48
0.0
 49
0.0
140
0.0
141
0.0
142
1.0
143
1.0
 70
   688
 72
     0
 73
     0
 74
     5
  7

 75
    16
 76
     0
 77
     2
 78
   300
147
1.0
148
0.0
149
0.0
100
AcDbLayout
  1
Blatt1
 70
     1
 71
     1
 10
0.0
 20
0.0
 11
0.0
 21
0.0
 12
0.0
 22
0.0
 32
0.0
 14
1.000000000000000E+20
 24
1.000000000000000E+20
 34
1.000000000000000E+20
 15
-1.000000000000000E+20
 25
-1.000000000000000E+20
 35
-1.000000000000000E+20
146
0.0
 13
0.0
 23
0.0
 33
0.0
 16
1.0
 26
0.0
 36
0.0
 17
0.0
 27
1.0
 37
0.0
 76
     0
330
4C1
  0
LAYOUT
  5
4C4
102
{ACAD_REACTORS
330
4C0
102
}
330
4C0
100
AcDbPlotSettings
  1

  2
none_device
  4
Letter_(8.50_x_11.00_Inches)
  6

 40
6.35
 41
6.35
 42
6.35
 43
6.35
 44
215.9
 45
279.4
 46
0.0
 47
0.0
 48
0.0
 49
0.0
140
0.0
141
0.0
142
1.0
143
1.0
 70
  1712
 72
     0
 73
     0
 74
     0
  7

 75
     0
 76
     0
 77
     2
 78
   300
147
1.0
148
0.0
149
0.0
100
AcDbLayout
  1
Model
 70
     1
 71
     0
 10
0.0
 20
0.0
 11
12.0
 21
9.0
 12
0.0
 22
0.0
 32
0.0
 14
33.76143973320001
 24
37.46023423129998
 34
0.0
 15
520.6771150059001
 25
450.8439868851
 35
0.0
146
0.0
 13
0.0
 23
0.0
 33
0.0
 16
1.0
 26
0.0
 36
0.0
 17
0.0
 27
1.0
 37
0.0
 76
     0
330
4C3
331
4C6
  0
MATERIAL
  5
4D0
102
{ACAD_REACTORS
330
4CE
102
}
330
4CE
100
AcDbMaterial
  1
ByBlock
 72
     1
 94
      127
  0
MATERIAL
  5
4CF
102
{ACAD_REACTORS
330
4CE
102
}
330
4CE
100
AcDbMaterial
  1
ByLayer
 72
     1
 94
      127
  0
MATERIAL
  5
4D1
102
{ACAD_REACTORS
330
4CE
102
}
330
4CE
100
AcDbMaterial
  1
Global
 72
     1
 94
      127
  0
MLEADERSTYLE
  5
51A
102
{ACAD_REACTORS
330
519
102
}
330
519
100
AcDbMLeaderStyle
179
     2
170
     2
171
     1
172
     0
 90
        2
 40
0.0
 41
0.0
173
     1
 91
-1056964608
340
4BA
 92
       -2
290
     1
 42
0.09
291
     1
 43
0.36
  3
Standard
341
0
 44
0.18
300

342
4B8
174
     1
178
     1
175
     1
176
     0
 93
-1056964608
 45
0.18
292
     0
297
     0
 46
0.18
343
0
 94
-1056964608
 47
1.0
 49
1.0
140
1.0
293
     1
141
0.0
294
     1
177
     0
142
1.0
295
     0
296
     0
143
0.125
271
     0
272
     9
273
     9
298
     0
  0
MLINESTYLE
  5
4BE
102
{ACAD_REACTORS
330
4BD
102
}
330
4BD
100
AcDbMlineStyle
  2
Standard
 70
     0
  3

 62
   256
 51
90.0
 52
90.0
 71
     2
 49
0.5
 62
   256
  6
BYLAYER
 49
-0.5
 62
   256
  6
BYLAYER
  0
ACDBPLACEHOLDER
  5
4B6
102
{ACAD_REACTORS
330
4B5
102
}
330
4B5
  0
SCALE
  5
4DD
102
{ACAD_REACTORS
330
4DC
102
}
330
4DC
100
AcDbScale
 70
     0
300
1:1
140
1.0
141
1.0
290
     1
  0
SCALE
  5
4DE
102
{ACAD_REACTORS
330
4DC
102
}
330
4DC
100
AcDbScale
 70
     0
300
1:2
140
1.0
141
2.0
290
     0
  0
SCALE
  5
4DF
102
{ACAD_REACTORS
330
4DC
102
}
330
4DC
100
AcDbScale
 70
     0
300
1:4
140
1.0
141
4.0
290
     0
  0
SCALE
  5
4E0
102
{ACAD_REACTORS
330
4DC
102
}
330
4DC
100
AcDbScale
 70
     0
300
1:5
140
1.0
141
5.0
290
     0
  0
SCALE
  5
4E1
102
{ACAD_REACTORS
330
4DC
102
}
330
4DC
100
AcDbScale
 70
     0
300
1:8
140
1.0
141
8.0
290
     0
  0
SCALE
  5
4E2
102
{ACAD_REACTORS
330
4DC
102
}
330
4DC
100
AcDbScale
 70
     0
300
1:10
140
1.0
141
10.0
290
     0
  0
SCALE
  5
4E3
102
{ACAD_REACTORS
330
4DC
102
}
330
4DC
100
AcDbScale
 70
     0
300
1:16
140
1.0
141
16.0
290
     0
  0
SCALE
  5
4E4
102
{ACAD_REACTORS
330
4DC
102
}
330
4DC
100
AcDbScale
 70
     0
300
1:20
140
1.0
141
20.0
290
     0
  0
SCALE
  5
4E5
102
{ACAD_REACTORS
330
4DC
102
}
330
4DC
100
AcDbScale
 70
     0
300
1:30
140
1.0
141
30.0
290
     0
  0
SCALE
  5
4E6
102
{ACAD_REACTORS
330
4DC
102
}
330
4DC
100
AcDbScale
 70
     0
300
1:40
140
1.0
141
40.0
290
     0
  0
SCALE
  5
4E7
102
{ACAD_REACTORS
330
4DC
102
}
330
4DC
100
AcDbScale
 70
     0
300
1:50
140
1.0
141
50.0
290
     0
  0
SCALE
  5
4E8
102
{ACAD_REACTORS
330
4DC
102
}
330
4DC
100
AcDbScale
 70
     0
300
1:100
140
1.0
141
100.0
290
     0
  0
SCALE
  5
4E9
102
{ACAD_REACTORS
330
4DC
102
}
330
4DC
100
AcDbScale
 70
     0
300
2:1
140
2.0
141
1.0
290
     0
  0
SCALE
  5
4EA
102
{ACAD_REACTORS
330
4DC
102
}
330
4DC
100
AcDbScale
 70
     0
300
4:1
140
4.0
141
1.0
290
     0
  0
SCALE
  5
4EB
102
{ACAD_REACTORS
330
4DC
102
}
330
4DC
100
AcDbScale
 70
     0
300
8:1
140
8.0
141
1.0
290
     0
  0
SCALE
  5
4EC
102
{ACAD_REACTORS
330
4DC
102
}
330
4DC
100
AcDbScale
 70
     0
300
10:1
140
10.0
141
1.0
290
     0
  0
SCALE
  5
4ED
102
{ACAD_REACTORS
330
4DC
102
}
330
4DC
100
AcDbScale
 70
     0
300
100:1
140
100.0
141
1.0
290
     0
  0
SCALE
  5
4EE
102
{ACAD_REACTORS
330
4DC
102
}
330
4DC
100
AcDbScale
 70
     0
300
1/128" = 1'-0"
140
0.0078125
141
12.0
290
     0
  0
SCALE
  5
4EF
102
{ACAD_REACTORS
330
4DC
102
}
330
4DC
100
AcDbScale
 70
     0
300
1/64" = 1'-0"
140
0.015625
141
12.0
290
     0
  0
SCALE
  5
4F0
102
{ACAD_REACTORS
330
4DC
102
}
330
4DC
100
AcDbScale
 70
     0
300
1/32" = 1'-0"
140
0.03125
141
12.0
290
     0
  0
SCALE
  5
4F1
102
{ACAD_REACTORS
330
4DC
102
}
330
4DC
100
AcDbScale
 70
     0
300
1/16" = 1'-0"
140
0.0625
141
12.0
290
     0
  0
SCALE
  5
4F2
102
{ACAD_REACTORS
330
4DC
102
}
330
4DC
100
AcDbScale
 70
     0
300
3/32" = 1'-0"
140
0.09375
141
12.0
290
     0
  0
SCALE
  5
4F3
102
{ACAD_REACTORS
330
4DC
102
}
330
4DC
100
AcDbScale
 70
     0
300
1/8" = 1'-0"
140
0.125
141
12.0
290
     0
  0
SCALE
  5
4F4
102
{ACAD_REACTORS
330
4DC
102
}
330
4DC
100
AcDbScale
 70
     0
300
3/16" = 1'-0"
140
0.1875
141
12.0
290
     0
  0
SCALE
  5
4F5
102
{ACAD_REACTORS
330
4DC
102
}
330
4DC
100
AcDbScale
 70
     0
300
1/4" = 1'-0"
140
0.25
141
12.0
290
     0
  0
SCALE
  5
4F6
102
{ACAD_REACTORS
330
4DC
102
}
330
4DC
100
AcDbScale
 70
     0
300
3/8" = 1'-0"
140
0.375
141
12.0
290
     0
  0
SCALE
  5
4F7
102
{ACAD_REACTORS
330
4DC
102
}
330
4DC
100
AcDbScale
 70
     0
300
1/2" = 1'-0"
140
0.5
141
12.0
290
     0
  0
SCALE
  5
4F8
102
{ACAD_REACTORS
330
4DC
102
}
330
4DC
100
AcDbScale
 70
     0
300
3/4" = 1'-0"
140
0.75
141
12.0
290
     0
  0
SCALE
  5
4F9
102
{ACAD_REACTORS
330
4DC
102
}
330
4DC
100
AcDbScale
 70
     0
300
1" = 1'-0"
140
1.0
141
12.0
290
     0
  0
SCALE
  5
4FA
102
{ACAD_REACTORS
330
4DC
102
}
330
4DC
100
AcDbScale
 70
     0
300
1-1/2" = 1'-0"
140
1.5
141
12.0
290
     0
  0
SCALE
  5
4FB
102
{ACAD_REACTORS
330
4DC
102
}
330
4DC
100
AcDbScale
 70
     0
300
3" = 1'-0"
140
3.0
141
12.0
290
     0
  0
SCALE
  5
4FC
102
{ACAD_REACTORS
330
4DC
102
}
330
4DC
100
AcDbScale
 70
     0
300
6" = 1'-0"
140
6.0
141
12.0
290
     0
  0
SCALE
  5
4FD
102
{ACAD_REACTORS
330
4DC
102
}
330
4DC
100
AcDbScale
 70
     0
300
1'-0" = 1'-0"
140
12.0
141
12.0
290
     0
  0
TABLESTYLE
  5
518
102
{ACAD_REACTORS
330
517
102
}
102
{ACAD_XDICTIONARY
360
520
102
}
330
517
100
AcDbTableStyle
  3
Standard
 70
     0
 71
     0
 40
0.06
 41
0.06
280
     0
281
     0
  7
STANDARD
140
0.18
170
     2
 62
     0
 63
   257
283
     0
 90
        4
 91
        0
  1

274
    -2
284
     1
 64
     0
275
    -2
285
     1
 65
     0
276
    -2
286
     1
 66
     0
277
    -2
287
     1
 67
     0
278
    -2
288
     1
 68
     0
279
    -2
289
     1
 69
     0
  7
STANDARD
140
0.25
170
     5
 62
     0
 63
   257
283
     0
 90
        4
 91
        0
  1

274
    -2
284
     1
 64
     0
275
    -2
285
     1
 65
     0
276
    -2
286
     1
 66
     0
277
    -2
287
     1
 67
     0
278
    -2
288
     1
 68
     0
279
    -2
289
     1
 69
     0
  7
STANDARD
140
0.18
170
     5
 62
     0
 63
   257
283
     0
 90
        4
 91
        0
  1

274
    -2
284
     1
 64
     0
275
    -2
285
     1
 65
     0
276
    -2
286
     1
 66
     0
277
    -2
287
     1
 67
     0
278
    -2
288
     1
 68
     0
279
    -2
289
     1
 69
     0
  0
VISUALSTYLE
  5
503
102
{ACAD_REACTORS
330
4FE
102
}
330
4FE
100
AcDbVisualStyle
  2
2dWireframe
 70
     4
177
     3
291
     0
 70
    58
 90
        0
176
     1
 90
        2
176
     1
 90
        0
176
     1
 90
        0
176
     1
 40
0.6
176
     1
 40
30.0
176
     1
 62
     7
420
 16777215
176
     1
 90
        1
176
     1
 90
        4
176
     1
 62
     7
176
     1
 62
   257
176
     1
 90
        1
176
     1
 90
        1
176
     1
 40
1.0
176
     1
 90
        0
176
     1
 62
   257
176
     1
 40
1.0
176
     1
 90
        1
176
     1
 90
        6
176
     1
 90
        2
176
     1
 62
     7
176
     1
 90
        5
176
     1
 90
        0
176
     1
 90
        0
176
     1
290
     0
176
     1
 90
        1
176
     1
 40
0.0
176
     1
 90
        0
176
     1
290
     1
176
     1
290
     1
176
     1
290
     0
176
     1
290
     0
176
     1
290
     0
176
     1
290
     0
176
     1
290
     0
176
     1
290
     0
176
     1
290
     0
176
     1
 90
       50
176
     1
 40
0.0
176
     1
 40
1.0
176
     1
 90
        0
176
     1
 62
    18
420
        0
176
     1
 90
       50
176
     1
 90
        3
176
     1
 62
     5
420
      255
176
     1
290
     0
176
     1
 90
       50
176
     1
 90
       50
176
     1
 90
       50
176
     1
290
     0
176
     1
 90
       50
176
     1
 62
   256
176
     0
 40
1.0
176
     0
 90
        2
176
     1
  1
strokes_ogs.tif
176
     1
290
     0
176
     1
 40
1.0
176
     1
 40
1.0
176
     1
  0
VISUALSTYLE
  5
506
102
{ACAD_REACTORS
330
4FE
102
}
330
4FE
100
AcDbVisualStyle
  2
Basic
 70
     7
177
     3
291
     1
 70
    58
 90
        1
176
     1
 90
        0
176
     1
 90
        1
176
     1
 90
        0
176
     1
 40
0.6
176
     1
 40
30.0
176
     1
 62
     7
420
 16777215
176
     1
 90
        0
176
     1
 90
        4
176
     1
 62
     7
176
     1
 62
   257
176
     1
 90
        1
176
     1
 90
        1
176
     1
 40
1.0
176
     1
 90
        8
176
     1
 62
     7
176
     1
 40
1.0
176
     1
 90
        1
176
     1
 90
        6
176
     1
 90
        2
176
     1
 62
     7
176
     1
 90
        5
176
     1
 90
        0
176
     1
 90
        0
176
     1
290
     0
176
     1
 90
        1
176
     1
 40
0.0
176
     1
 90
        0
176
     1
290
     0
176
     1
290
     1
176
     1
290
     1
176
     1
290
     0
176
     1
290
     0
176
     1
290
     0
176
     1
290
     0
176
     1
290
     0
176
     1
290
     0
176
     1
 90
       50
176
     1
 40
0.0
176
     1
 40
1.0
176
     1
 90
        0
176
     1
 62
    18
420
        0
176
     1
 90
       50
176
     1
 90
        3
176
     1
 62
     5
420
      255
176
     1
290
     0
176
     1
 90
       50
176
     1
 90
       50
176
     1
 90
       50
176
     1
290
     0
176
     1
 90
       50
176
     1
 62
   256
176
     0
 40
1.0
176
     0
 90
        2
176
     1
  1
strokes_ogs.tif
176
     1
290
     0
176
     1
 40
1.0
176
     1
 40
1.0
176
     1
  0
VISUALSTYLE
  5
50A
102
{ACAD_REACTORS
330
4FE
102
}
330
4FE
100
AcDbVisualStyle
  2
Brighten
 70
    12
177
     3
291
     1
 70
    58
 90
        2
176
     1
 90
        2
176
     1
 90
        0
176
     1
 90
        0
176
     1
 40
0.6
176
     1
 40
30.0
176
     1
 62
     7
420
 16777215
176
     1
 90
        1
176
     1
 90
        4
176
     1
 62
     7
176
     1
 62
   257
176
     1
 90
        1
176
     1
 90
        1
176
     1
 40
1.0
176
     1
 90
        8
176
     1
 62
     7
176
     1
 40
1.0
176
     1
 90
        1
176
     1
 90
        6
176
     1
 90
        2
176
     1
 62
     7
176
     1
 90
        5
176
     1
 90
        0
176
     1
 90
        0
176
     1
290
     0
176
     1
 90
        1
176
     1
 40
50.0
176
     1
 90
        0
176
     1
290
     0
176
     1
290
     1
176
     1
290
     1
176
     1
290
     0
176
     1
290
     0
176
     1
290
     0
176
     1
290
     0
176
     1
290
     0
176
     1
290
     0
176
     1
 90
       50
176
     1
 40
0.0
176
     1
 40
1.0
176
     1
 90
        0
176
     1
 62
    18
420
        0
176
     1
 90
       50
176
     1
 90
        3
176
     1
 62
     5
420
      255
176
     1
290
     0
176
     1
 90
       50
176
     1
 90
       50
176
     1
 90
       50
176
     1
290
     0
176
     1
 90
       50
176
     1
 62
   256
176
     0
 40
1.0
176
     0
 90
        2
176
     1
  1
strokes_ogs.tif
176
     1
290
     0
176
     1
 40
1.0
176
     1
 40
1.0
176
     1
  0
VISUALSTYLE
  5
50E
102
{ACAD_REACTORS
330
4FE
102
}
330
4FE
100
AcDbVisualStyle
  2
ColorChange
 70
    16
177
     3
291
     1
 70
    58
 90
        2
176
     1
 90
        2
176
     1
 90
        3
176
     1
 90
        0
176
     1
 40
0.6
176
     1
 40
30.0
176
     1
 62
     8
420
  8421504
176
     1
 90
        1
176
     1
 90
        4
176
     1
 62
     7
176
     1
 62
   257
176
     1
 90
        1
176
     1
 90
        1
176
     1
 40
1.0
176
     1
 90
        8
176
     1
 62
     8
420
  8421504
176
     1
 40
1.0
176
     1
 90
        1
176
     1
 90
        6
176
     1
 90
        2
176
     1
 62
     7
176
     1
 90
        5
176
     1
 90
        0
176
     1
 90
        0
176
     1
290
     0
176
     1
 90
        1
176
     1
 40
0.0
176
     1
 90
        0
176
     1
290
     0
176
     1
290
     1
176
     1
290
     1
176
     1
290
     0
176
     1
290
     0
176
     1
290
     0
176
     1
290
     0
176
     1
290
     0
176
     1
290
     0
176
     1
 90
       50
176
     1
 40
0.0
176
     1
 40
1.0
176
     1
 90
        0
176
     1
 62
    18
420
        0
176
     1
 90
       50
176
     1
 90
        3
176
     1
 62
     5
420
      255
176
     1
290
     0
176
     1
 90
       50
176
     1
 90
       50
176
     1
 90
       50
176
     1
290
     0
176
     1
 90
       50
176
     1
 62
   256
176
     0
 40
1.0
176
     0
 90
        2
176
     1
  1
strokes_ogs.tif
176
     1
290
     0
176
     1
 40
1.0
176
     1
 40
1.0
176
     1
  0
VISUALSTYLE
  5
508
102
{ACAD_REACTORS
330
4FE
102
}
330
4FE
100
AcDbVisualStyle
  2
Conceptual
 70
     9
177
     3
291
     0
 70
    58
 90
        3
176
     1
 90
        2
176
     1
 90
        0
176
     1
 90
        0
176
     1
 40
0.6
176
     1
 40
30.0
176
     1
 62
     7
420
 16777215
176
     1
 90
        2
176
     1
 90
        2
176
     1
 62
     7
176
     1
 62
   257
176
     1
 90
        1
176
     1
 90
        1
176
     1
 40
179.0
176
     1
 90
        8
176
     1
 62
     7
176
     1
 40
1.0
176
     1
 90
        1
176
     1
 90
        6
176
     1
 90
        2
176
     1
 62
     7
176
     1
 90
        3
176
     1
 90
        0
176
     1
 90
        0
176
     1
290
     0
176
     1
 90
        1
176
     1
 40
0.0
176
     1
 90
        0
176
     1
290
     0
176
     1
290
     1
176
     1
290
     1
176
     1
290
     0
176
     1
290
     0
176
     1
290
     0
176
     1
290
     0
176
     1
290
     0
176
     1
290
     0
176
     1
 90
       50
176
     1
 40
0.0
176
     1
 40
1.0
176
     1
 90
        0
176
     1
 62
    18
420
        0
176
     1
 90
       50
176
     1
 90
        3
176
     1
 62
     5
420
      255
176
     1
290
     0
176
     1
 90
       50
176
     1
 90
       50
176
     1
 90
       50
176
     1
290
     0
176
     1
 90
       50
176
     1
 62
   256
176
     0
 40
1.0
176
     0
 90
        2
176
     1
  1
strokes_ogs.tif
176
     1
290
     0
176
     1
 40
1.0
176
     1
 40
1.0
176
     1
  0
VISUALSTYLE
  5
509
102
{ACAD_REACTORS
330
4FE
102
}
330
4FE
100
AcDbVisualStyle
  2
Dim
 70
    11
177
     3
291
     1
 70
    58
 90
        2
176
     1
 90
        2
176
     1
 90
        0
176
     1
 90
        0
176
     1
 40
0.6
176
     1
 40
30.0
176
     1
 62
     7
420
 16777215
176
     1
 90
        1
176
     1
 90
        4
176
     1
 62
     7
176
     1
 62
   257
176
     1
 90
        1
176
     1
 90
        1
176
     1
 40
1.0
176
     1
 90
        8
176
     1
 62
     7
176
     1
 40
1.0
176
     1
 90
        1
176
     1
 90
        6
176
     1
 90
        2
176
     1
 62
     7
176
     1
 90
        5
176
     1
 90
        0
176
     1
 90
        0
176
     1
290
     0
176
     1
 90
        1
176
     1
 40
-50.0
176
     1
 90
        0
176
     1
290
     0
176
     1
290
     1
176
     1
290
     1
176
     1
290
     0
176
     1
290
     0
176
     1
290
     0
176
     1
290
     0
176
     1
290
     0
176
     1
290
     0
176
     1
 90
       50
176
     1
 40
0.0
176
     1
 40
1.0
176
     1
 90
        0
176
     1
 62
    18
420
        0
176
     1
 90
       50
176
     1
 90
        3
176
     1
 62
     5
420
      255
176
     1
290
     0
176
     1
 90
       50
176
     1
 90
       50
176
     1
 90
       50
176
     1
290
     0
176
     1
 90
       50
176
     1
 62
   256
176
     0
 40
1.0
176
     0
 90
        2
176
     1
  1
strokes_ogs.tif
176
     1
290
     0
176
     1
 40
1.0
176
     1
 40
1.0
176
     1
  0
VISUALSTYLE
  5
511
102
{ACAD_REACTORS
330
4FE
102
}
330
4FE
100
AcDbVisualStyle
  2
EdgeColorOff
 70
    22
177
     3
291
     1
 70
    58
 90
        2
176
     0
 90
        2
176
     0
 90
        0
176
     0
 90
        0
176
     0
 40
0.6
176
     0
 40
30.0
176
     0
 62
     7
420
 16777215
176
     0
 90
        1
176
     0
 90
        4
176
     0
 62
     7
176
     0
 62
   257
176
     0
 90
        1
176
     0
 90
        1
176
     0
 40
1.0
176
     0
 90
        8
176
     2
 62
     7
176
     0
 40
1.0
176
     0
 90
        1
176
     0
 90
        6
176
     0
 90
        2
176
     0
 62
     7
176
     0
 90
        5
176
     0
 90
        0
176
     0
 90
        0
176
     0
290
     0
176
     0
 90
        1
176
     0
 40
0.0
176
     0
 90
        0
176
     0
290
     0
176
     0
290
     1
176
     0
290
     1
176
     0
290
     0
176
     0
290
     0
176
     0
290
     0
176
     0
290
     0
176
     0
290
     0
176
     0
290
     0
176
     0
 90
       50
176
     0
 40
0.0
176
     0
 40
1.0
176
     0
 90
        0
176
     0
 62
    18
420
        0
176
     0
 90
       50
176
     0
 90
        3
176
     0
 62
     5
420
      255
176
     0
290
     0
176
     0
 90
       50
176
     0
 90
       50
176
     0
 90
       50
176
     0
290
     0
176
     0
 90
       50
176
     0
 62
   256
176
     0
 40
1.0
176
     0
 90
        2
176
     0
  1
strokes_ogs.tif
176
     0
290
     0
176
     0
 40
1.0
176
     0
 40
1.0
176
     0
  0
VISUALSTYLE
  5
50D
102
{ACAD_REACTORS
330
4FE
102
}
330
4FE
100
AcDbVisualStyle
  2
Facepattern
 70
    15
177
     3
291
     1
 70
    58
 90
        2
176
     1
 90
        2
176
     1
 90
        0
176
     1
 90
        0
176
     1
 40
0.6
176
     1
 40
30.0
176
     1
 62
     7
420
 16777215
176
     1
 90
        1
176
     1
 90
        4
176
     1
 62
     7
176
     1
 62
   257
176
     1
 90
        1
176
     1
 90
        1
176
     1
 40
1.0
176
     1
 90
        8
176
     1
 62
     7
176
     1
 40
1.0
176
     1
 90
        1
176
     1
 90
        6
176
     1
 90
        2
176
     1
 62
     7
176
     1
 90
        5
176
     1
 90
        0
176
     1
 90
        0
176
     1
290
     0
176
     1
 90
        1
176
     1
 40
0.0
176
     1
 90
        0
176
     1
290
     0
176
     1
290
     1
176
     1
290
     1
176
     1
290
     0
176
     1
290
     0
176
     1
290
     0
176
     1
290
     0
176
     1
290
     0
176
     1
290
     0
176
     1
 90
       50
176
     1
 40
0.0
176
     1
 40
1.0
176
     1
 90
        0
176
     1
 62
    18
420
        0
176
     1
 90
       50
176
     1
 90
        3
176
     1
 62
     5
420
      255
176
     1
290
     0
176
     1
 90
       50
176
     1
 90
       50
176
     1
 90
       50
176
     1
290
     0
176
     1
 90
       50
176
     1
 62
   256
176
     0
 40
1.0
176
     0
 90
        2
176
     1
  1
strokes_ogs.tif
176
     1
290
     0
176
     1
 40
1.0
176
     1
 40
1.0
176
     1
  0
VISUALSTYLE
  5
4FF
102
{ACAD_REACTORS
330
4FE
102
}
330
4FE
100
AcDbVisualStyle
  2
Flat
 70
     0
177
     3
291
     1
 70
    58
 90
        2
176
     1
 90
        1
176
     1
 90
        1
176
     1
 90
        2
176
     1
 40
0.6
176
     1
 40
30.0
176
     1
 62
     7
420
 16777215
176
     1
 90
        0
176
     1
 90
        0
176
     1
 62
     7
176
     1
 62
   257
176
     1
 90
        1
176
     1
 90
        1
176
     1
 40
1.0
176
     1
 90
        8
176
     1
 62
     7
176
     1
 40
1.0
176
     1
 90
        1
176
     1
 90
        6
176
     1
 90
        2
176
     1
 62
     7
176
     1
 90
        5
176
     1
 90
        0
176
     1
 90
        0
176
     1
290
     0
176
     1
 90
       13
176
     1
 40
0.0
176
     1
 90
        0
176
     1
290
     0
176
     1
290
     1
176
     1
290
     1
176
     1
290
     0
176
     1
290
     0
176
     1
290
     0
176
     1
290
     0
176
     1
290
     0
176
     1
290
     0
176
     1
 90
       50
176
     1
 40
0.0
176
     1
 40
1.0
176
     1
 90
        0
176
     1
 62
    18
420
        0
176
     1
 90
       50
176
     1
 90
        3
176
     1
 62
     5
420
      255
176
     1
290
     0
176
     1
 90
       50
176
     1
 90
       50
176
     1
 90
       50
176
     1
290
     0
176
     1
 90
       50
176
     1
 62
   256
176
     0
 40
1.0
176
     0
 90
        2
176
     1
  1
strokes_ogs.tif
176
     1
290
     0
176
     1
 40
1.0
176
     1
 40
1.0
176
     1
  0
VISUALSTYLE
  5
500
102
{ACAD_REACTORS
330
4FE
102
}
330
4FE
100
AcDbVisualStyle
  2
FlatWithEdges
 70
     1
177
     3
291
     1
 70
    58
 90
        2
176
     1
 90
        1
176
     1
 90
        1
176
     1
 90
        2
176
     1
 40
0.6
176
     1
 40
30.0
176
     1
 62
     7
420
 16777215
176
     1
 90
        1
176
     1
 90
        0
176
     1
 62
     7
176
     1
 62
   257
176
     1
 90
        1
176
     1
 90
        1
176
     1
 40
1.0
176
     1
 90
        0
176
     1
 62
   257
176
     1
 40
1.0
176
     1
 90
        1
176
     1
 90
        6
176
     1
 90
        2
176
     1
 62
     7
176
     1
 90
        5
176
     1
 90
        0
176
     1
 90
        0
176
     1
290
     0
176
     1
 90
       13
176
     1
 40
0.0
176
     1
 90
        0
176
     1
290
     0
176
     1
290
     1
176
     1
290
     1
176
     1
290
     0
176
     1
290
     0
176
     1
290
     0
176
     1
290
     0
176
     1
290
     0
176
     1
290
     0
176
     1
 90
       50
176
     1
 40
0.0
176
     1
 40
1.0
176
     1
 90
        0
176
     1
 62
    18
420
        0
176
     1
 90
       50
176
     1
 90
        3
176
     1
 62
     5
420
      255
176
     1
290
     0
176
     1
 90
       50
176
     1
 90
       50
176
     1
 90
       50
176
     1
290
     0
176
     1
 90
       50
176
     1
 62
   256
176
     0
 40
1.0
176
     0
 90
        2
176
     1
  1
strokes_ogs.tif
176
     1
290
     0
176
     1
 40
1.0
176
     1
 40
1.0
176
     1
  0
VISUALSTYLE
  5
501
102
{ACAD_REACTORS
330
4FE
102
}
330
4FE
100
AcDbVisualStyle
  2
Gouraud
 70
     2
177
     3
291
     1
 70
    58
 90
        2
176
     1
 90
        2
176
     1
 90
        1
176
     1
 90
        2
176
     1
 40
0.6
176
     1
 40
30.0
176
     1
 62
     7
420
 16777215
176
     1
 90
        0
176
     1
 90
        0
176
     1
 62
     7
176
     1
 62
   257
176
     1
 90
        1
176
     1
 90
        1
176
     1
 40
1.0
176
     1
 90
        0
176
     1
 62
     7
176
     1
 40
1.0
176
     1
 90
        1
176
     1
 90
        6
176
     1
 90
        2
176
     1
 62
     7
176
     1
 90
        5
176
     1
 90
        0
176
     1
 90
        0
176
     1
290
     0
176
     1
 90
       13
176
     1
 40
0.0
176
     1
 90
        0
176
     1
290
     0
176
     1
290
     1
176
     1
290
     1
176
     1
290
     0
176
     1
290
     0
176
     1
290
     0
176
     1
290
     0
176
     1
290
     0
176
     1
290
     0
176
     1
 90
       50
176
     1
 40
0.0
176
     1
 40
1.0
176
     1
 90
        0
176
     1
 62
    18
420
        0
176
     1
 90
       50
176
     1
 90
        3
176
     1
 62
     5
420
      255
176
     1
290
     0
176
     1
 90
       50
176
     1
 90
       50
176
     1
 90
       50
176
     1
290
     0
176
     1
 90
       50
176
     1
 62
   256
176
     0
 40
1.0
176
     0
 90
        2
176
     1
  1
strokes_ogs.tif
176
     1
290
     0
176
     1
 40
1.0
176
     1
 40
1.0
176
     1
  0
VISUALSTYLE
  5
502
102
{ACAD_REACTORS
330
4FE
102
}
330
4FE
100
AcDbVisualStyle
  2
GouraudWithEdges
 70
     3
177
     3
291
     1
 70
    58
 90
        2
176
     1
 90
        2
176
     1
 90
        1
176
     1
 90
        2
176
     1
 40
0.6
176
     1
 40
30.0
176
     1
 62
     7
420
 16777215
176
     1
 90
        1
176
     1
 90
        0
176
     1
 62
     7
176
     1
 62
   257
176
     1
 90
        1
176
     1
 90
        1
176
     1
 40
1.0
176
     1
 90
        0
176
     1
 62
   257
176
     1
 40
1.0
176
     1
 90
        1
176
     1
 90
        6
176
     1
 90
        2
176
     1
 62
     7
176
     1
 90
        5
176
     1
 90
        0
176
     1
 90
        0
176
     1
290
     0
176
     1
 90
       13
176
     1
 40
0.0
176
     1
 90
        0
176
     1
290
     0
176
     1
290
     1
176
     1
290
     1
176
     1
290
     0
176
     1
290
     0
176
     1
290
     0
176
     1
290
     0
176
     1
290
     0
176
     1
290
     0
176
     1
 90
       50
176
     1
 40
0.0
176
     1
 40
1.0
176
     1
 90
        0
176
     1
 62
    18
420
        0
176
     1
 90
       50
176
     1
 90
        3
176
     1
 62
     5
420
      255
176
     1
290
     0
176
     1
 90
       50
176
     1
 90
       50
176
     1
 90
       50
176
     1
290
     0
176
     1
 90
       50
176
     1
 62
   256
176
     0
 40
1.0
176
     0
 90
        2
176
     1
  1
strokes_ogs.tif
176
     1
290
     0
176
     1
 40
1.0
176
     1
 40
1.0
176
     1
  0
VISUALSTYLE
  5
505
102
{ACAD_REACTORS
330
4FE
102
}
330
4FE
100
AcDbVisualStyle
  2
Hidden
 70
     6
177
     3
291
     0
 70
    58
 90
        1
176
     1
 90
        2
176
     1
 90
        2
176
     1
 90
        0
176
     1
 40
0.6
176
     1
 40
30.0
176
     1
 62
     7
420
 16777215
176
     1
 90
        2
176
     1
 90
        2
176
     1
 62
     7
176
     1
 62
   257
176
     1
 90
        2
176
     1
 90
        1
176
     1
 40
40.0
176
     1
 90
        0
176
     1
 62
   257
176
     1
 40
1.0
176
     1
 90
        1
176
     1
 90
        6
176
     1
 90
        2
176
     1
 62
     7
176
     1
 90
        3
176
     1
 90
        0
176
     1
 90
        0
176
     1
290
     0
176
     1
 90
        1
176
     1
 40
0.0
176
     1
 90
        0
176
     1
290
     0
176
     1
290
     1
176
     1
290
     1
176
     1
290
     0
176
     1
290
     0
176
     1
290
     0
176
     1
290
     0
176
     1
290
     0
176
     1
290
     0
176
     1
 90
       50
176
     1
 40
0.0
176
     1
 40
1.0
176
     1
 90
        0
176
     1
 62
    18
420
        0
176
     1
 90
       50
176
     1
 90
        3
176
     1
 62
     5
420
      255
176
     1
290
     0
176
     1
 90
       50
176
     1
 90
       50
176
     1
 90
       50
176
     1
290
     0
176
     1
 90
       50
176
     1
 62
   256
176
     0
 40
1.0
176
     0
 90
        2
176
     1
  1
strokes_ogs.tif
176
     1
290
     0
176
     1
 40
1.0
176
     1
 40
1.0
176
     1
  0
VISUALSTYLE
  5
50F
102
{ACAD_REACTORS
330
4FE
102
}
330
4FE
100
AcDbVisualStyle
  2
JitterOff
 70
    20
177
     3
291
     1
 70
    58
 90
        2
176
     0
 90
        2
176
     0
 90
        0
176
     0
 90
        0
176
     0
 40
0.6
176
     0
 40
30.0
176
     0
 62
     7
420
 16777215
176
     0
 90
        1
176
     0
 90
        4
176
     0
 62
     7
176
     0
 62
   257
176
     0
 90
        1
176
     0
 90
        1
176
     0
 40
1.0
176
     0
 90
       10
176
     2
 62
     7
176
     0
 40
1.0
176
     0
 90
        1
176
     0
 90
        6
176
     0
 90
        2
176
     0
 62
     7
176
     0
 90
        5
176
     0
 90
        0
176
     0
 90
        0
176
     0
290
     0
176
     0
 90
        1
176
     0
 40
0.0
176
     0
 90
        0
176
     0
290
     0
176
     0
290
     1
176
     0
290
     1
176
     0
290
     0
176
     0
290
     0
176
     0
290
     0
176
     0
290
     0
176
     0
290
     0
176
     0
290
     0
176
     0
 90
       50
176
     0
 40
0.0
176
     0
 40
1.0
176
     0
 90
        0
176
     0
 62
    18
420
        0
176
     0
 90
       50
176
     0
 90
        3
176
     0
 62
     5
420
      255
176
     0
290
     0
176
     0
 90
       50
176
     0
 90
       50
176
     0
 90
       50
176
     0
290
     0
176
     0
 90
       50
176
     0
 62
   256
176
     0
 40
1.0
176
     0
 90
        2
176
     0
  1
strokes_ogs.tif
176
     0
290
     0
176
     0
 40
1.0
176
     0
 40
1.0
176
     0
  0
VISUALSTYLE
  5
50C
102
{ACAD_REACTORS
330
4FE
102
}
330
4FE
100
AcDbVisualStyle
  2
Linepattern
 70
    14
177
     3
291
     1
 70
    58
 90
        2
176
     1
 90
        2
176
     1
 90
        0
176
     1
 90
        0
176
     1
 40
0.6
176
     1
 40
30.0
176
     1
 62
     7
420
 16777215
176
     1
 90
        1
176
     1
 90
        4
176
     1
 62
     7
176
     1
 62
   257
176
     1
 90
        7
176
     1
 90
        7
176
     1
 40
1.0
176
     1
 90
        8
176
     1
 62
     7
176
     1
 40
1.0
176
     1
 90
        1
176
     1
 90
        6
176
     1
 90
        2
176
     1
 62
     7
176
     1
 90
        5
176
     1
 90
        0
176
     1
 90
        0
176
     1
290
     0
176
     1
 90
        1
176
     1
 40
0.0
176
     1
 90
        0
176
     1
290
     0
176
     1
290
     1
176
     1
290
     1
176
     1
290
     0
176
     1
290
     0
176
     1
290
     0
176
     1
290
     0
176
     1
290
     0
176
     1
290
     0
176
     1
 90
       50
176
     1
 40
0.0
176
     1
 40
1.0
176
     1
 90
        0
176
     1
 62
    18
420
        0
176
     1
 90
       50
176
     1
 90
        3
176
     1
 62
     5
420
      255
176
     1
290
     0
176
     1
 90
       50
176
     1
 90
       50
176
     1
 90
       50
176
     1
290
     0
176
     1
 90
       50
176
     1
 62
   256
176
     0
 40
1.0
176
     0
 90
        2
176
     1
  1
strokes_ogs.tif
176
     1
290
     0
176
     1
 40
1.0
176
     1
 40
1.0
176
     1
  0
VISUALSTYLE
  5
510
102
{ACAD_REACTORS
330
4FE
102
}
330
4FE
100
AcDbVisualStyle
  2
OverhangOff
 70
    21
177
     3
291
     1
 70
    58
 90
        2
176
     0
 90
        2
176
     0
 90
        0
176
     0
 90
        0
176
     0
 40
0.6
176
     0
 40
30.0
176
     0
 62
     7
420
 16777215
176
     0
 90
        1
176
     0
 90
        4
176
     0
 62
     7
176
     0
 62
   257
176
     0
 90
        1
176
     0
 90
        1
176
     0
 40
1.0
176
     0
 90
        9
176
     2
 62
     7
176
     0
 40
1.0
176
     0
 90
        1
176
     0
 90
        6
176
     0
 90
        2
176
     0
 62
     7
176
     0
 90
        5
176
     0
 90
        0
176
     0
 90
        0
176
     0
290
     0
176
     0
 90
        1
176
     0
 40
0.0
176
     0
 90
        0
176
     0
290
     0
176
     0
290
     1
176
     0
290
     1
176
     0
290
     0
176
     0
290
     0
176
     0
290
     0
176
     0
290
     0
176
     0
290
     0
176
     0
290
     0
176
     0
 90
       50
176
     0
 40
0.0
176
     0
 40
1.0
176
     0
 90
        0
176
     0
 62
    18
420
        0
176
     0
 90
       50
176
     0
 90
        3
176
     0
 62
     5
420
      255
176
     0
290
     0
176
     0
 90
       50
176
     0
 90
       50
176
     0
 90
       50
176
     0
290
     0
176
     0
 90
       50
176
     0
 62
   256
176
     0
 40
1.0
176
     0
 90
        2
176
     0
  1
strokes_ogs.tif
176
     0
290
     0
176
     0
 40
1.0
176
     0
 40
1.0
176
     0
  0
VISUALSTYLE
  5
507
102
{ACAD_REACTORS
330
4FE
102
}
330
4FE
100
AcDbVisualStyle
  2
Realistic
 70
     8
177
     3
291
     0
 70
    58
 90
        2
176
     1
 90
        3
176
     1
 90
        0
176
     1
 90
        2
176
     1
 40
0.6
176
     1
 40
30.0
176
     1
 62
     7
420
 16777215
176
     1
 90
        0
176
     1
 90
        0
176
     1
 62
     7
176
     1
 62
   257
176
     1
 90
        1
176
     1
 90
        1
176
     1
 40
1.0
176
     1
 90
        8
176
     1
 62
   257
176
     1
 40
1.0
176
     1
 90
        1
176
     1
 90
        6
176
     1
 90
        2
176
     1
 62
     7
176
     1
 90
        3
176
     1
 90
        0
176
     1
 90
        0
176
     1
290
     0
176
     1
 90
       13
176
     1
 40
0.0
176
     1
 90
        0
176
     1
290
     0
176
     1
290
     1
176
     1
290
     1
176
     1
290
     0
176
     1
290
     0
176
     1
290
     0
176
     1
290
     0
176
     1
290
     0
176
     1
290
     0
176
     1
 90
       50
176
     1
 40
0.0
176
     1
 40
1.0
176
     1
 90
        0
176
     1
 62
    18
420
        0
176
     1
 90
       50
176
     1
 90
        3
176
     1
 62
     5
420
      255
176
     1
290
     0
176
     1
 90
       50
176
     1
 90
       50
176
     1
 90
       50
176
     1
290
     0
176
     1
 90
       50
176
     1
 62
   256
176
     0
 40
1.0
176
     0
 90
        2
176
     1
  1
strokes_ogs.tif
176
     1
290
     0
176
     1
 40
1.0
176
     1
 40
1.0
176
     1
  0
VISUALSTYLE
  5
516
102
{ACAD_REACTORS
330
4FE
102
}
330
4FE
100
AcDbVisualStyle
  2
Shaded
 70
    27
177
     3
291
     0
 70
    58
 90
        2
176
     1
 90
        2
176
     1
 90
        1
176
     1
 90
        2
176
     1
 40
0.6
176
     1
 40
30.0
176
     1
 62
     7
420
 16777215
176
     1
 90
        0
176
     1
 90
        4
176
     1
 62
     7
176
     1
 62
   257
176
     1
 90
        1
176
     1
 90
        1
176
     1
 40
1.0
176
     1
 90
        8
176
     1
 62
   257
176
     1
 40
1.0
176
     1
 90
        1
176
     1
 90
        6
176
     1
 90
        2
176
     1
 62
     8
420
  7895160
176
     1
 90
        3
176
     1
 90
        0
176
     1
 90
        0
176
     1
290
     0
176
     1
 90
        5
176
     1
 40
0.0
176
     1
 90
        0
176
     1
290
     0
176
     1
290
     1
176
     1
290
     1
176
     1
290
     0
176
     1
290
     0
176
     1
290
     0
176
     1
290
     0
176
     1
290
     0
176
     1
290
     0
176
     1
 90
       50
176
     1
 40
0.0
176
     1
 40
1.0
176
     1
 90
        0
176
     1
 62
    18
420
        0
176
     1
 90
       50
176
     1
 90
        3
176
     1
 62
     5
420
      255
176
     1
290
     0
176
     1
 90
       50
176
     1
 90
       50
176
     1
 90
       50
176
     1
290
     0
176
     1
 90
       50
176
     1
 62
   256
176
     0
 40
1.0
176
     0
 90
        2
176
     1
  1
strokes_ogs.tif
176
     1
290
     0
176
     1
 40
1.0
176
     1
 40
1.0
176
     1
  0
VISUALSTYLE
  5
515
102
{ACAD_REACTORS
330
4FE
102
}
330
4FE
100
AcDbVisualStyle
  2
Shaded with edges
 70
    26
177
     3
291
     0
 70
    58
 90
        2
176
     1
 90
        2
176
     1
 90
        1
176
     1
 90
        2
176
     1
 40
0.6
176
     1
 40
30.0
176
     1
 62
     7
420
 16777215
176
     1
 90
        1
176
     1
 90
       10
176
     1
 62
     7
176
     1
 62
   257
176
     1
 90
        2
176
     1
 90
        1
176
     1
 40
1.0
176
     1
 90
        8
176
     1
 62
   257
176
     1
 40
1.0
176
     1
 90
        1
176
     1
 90
        6
176
     1
 90
        2
176
     1
 62
     7
176
     1
 90
        3
176
     1
 90
        0
176
     1
 90
        0
176
     1
290
     0
176
     1
 90
        5
176
     1
 40
0.0
176
     1
 90
        0
176
     1
290
     0
176
     1
290
     1
176
     1
290
     1
176
     1
290
     0
176
     1
290
     0
176
     1
290
     0
176
     1
290
     0
176
     1
290
     0
176
     1
290
     0
176
     1
 90
       50
176
     1
 40
0.0
176
     1
 40
1.0
176
     1
 90
        0
176
     1
 62
    18
420
        0
176
     1
 90
       50
176
     1
 90
        3
176
     1
 62
     5
420
      255
176
     1
290
     0
176
     1
 90
       50
176
     1
 90
       50
176
     1
 90
       50
176
     1
290
     0
176
     1
 90
       50
176
     1
 62
   256
176
     0
 40
1.0
176
     0
 90
        2
176
     1
  1
strokes_ogs.tif
176
     1
290
     0
176
     1
 40
1.0
176
     1
 40
1.0
176
     1
  0
VISUALSTYLE
  5
512
102
{ACAD_REACTORS
330
4FE
102
}
330
4FE
100
AcDbVisualStyle
  2
Shades of Gray
 70
    23
177
     3
291
     0
 70
    58
 90
        2
176
     1
 90
        2
176
     1
 90
        3
176
     1
 90
        0
176
     1
 40
0.6
176
     1
 40
30.0
176
     1
 62
     7
420
 16777215
176
     1
 90
        2
176
     1
 90
        2
176
     1
 62
     7
176
     1
 62
     7
176
     1
 90
        1
176
     1
 90
        1
176
     1
 40
40.0
176
     1
 90
        8
176
     1
 62
     7
176
     1
 40
1.0
176
     1
 90
        1
176
     1
 90
        6
176
     1
 90
        2
176
     1
 62
     7
176
     1
 90
        3
176
     1
 90
        0
176
     1
 90
        0
176
     1
290
     0
176
     1
 90
        1
176
     1
 40
0.0
176
     1
 90
        0
176
     1
290
     0
176
     1
290
     1
176
     1
290
     1
176
     1
290
     0
176
     1
290
     0
176
     1
290
     0
176
     1
290
     0
176
     1
290
     0
176
     1
290
     0
176
     1
 90
       50
176
     1
 40
0.0
176
     1
 40
1.0
176
     1
 90
        0
176
     1
 62
    18
420
        0
176
     1
 90
       50
176
     1
 90
        3
176
     1
 62
     5
420
      255
176
     1
290
     0
176
     1
 90
       50
176
     1
 90
       50
176
     1
 90
       50
176
     1
290
     0
176
     1
 90
       50
176
     1
 62
   256
176
     0
 40
1.0
176
     0
 90
        2
176
     1
  1
strokes_ogs.tif
176
     1
290
     0
176
     1
 40
1.0
176
     1
 40
1.0
176
     1
  0
VISUALSTYLE
  5
513
102
{ACAD_REACTORS
330
4FE
102
}
330
4FE
100
AcDbVisualStyle
  2
Sketchy
 70
    24
177
     3
291
     0
 70
    58
 90
        1
176
     1
 90
        2
176
     1
 90
        2
176
     1
 90
        0
176
     1
 40
0.6
176
     1
 40
30.0
176
     1
 62
     7
420
 16777215
176
     1
 90
        2
176
     1
 90
        2
176
     1
 62
     7
176
     1
 62
     7
176
     1
 90
        1
176
     1
 90
        1
176
     1
 40
40.0
176
     1
 90
       11
176
     1
 62
     7
176
     1
 40
1.0
176
     1
 90
        1
176
     1
 90
        6
176
     1
 90
        2
176
     1
 62
     7
176
     1
 90
        6
176
     1
 90
        0
176
     1
 90
        0
176
     1
290
     0
176
     1
 90
        1
176
     1
 40
0.0
176
     1
 90
        0
176
     1
290
     0
176
     1
290
     1
176
     1
290
     1
176
     1
290
     0
176
     1
290
     0
176
     1
290
     0
176
     1
290
     0
176
     1
290
     0
176
     1
290
     0
176
     1
 90
       50
176
     1
 40
0.0
176
     1
 40
1.0
176
     1
 90
        0
176
     1
 62
    18
420
        0
176
     1
 90
       50
176
     1
 90
        3
176
     1
 62
     5
420
      255
176
     1
290
     0
176
     1
 90
       50
176
     1
 90
       50
176
     1
 90
       50
176
     1
290
     0
176
     1
 90
       50
176
     1
 62
   256
176
     0
 40
1.0
176
     0
 90
        2
176
     1
  1
strokes_ogs.tif
176
     1
290
     0
176
     1
 40
1.0
176
     1
 40
1.0
176
     1
  0
VISUALSTYLE
  5
50B
102
{ACAD_REACTORS
330
4FE
102
}
330
4FE
100
AcDbVisualStyle
  2
Thicken
 70
    13
177
     3
291
     1
 70
    58
 90
        2
176
     1
 90
        2
176
     1
 90
        0
176
     1
 90
        0
176
     1
 40
0.6
176
     1
 40
30.0
176
     1
 62
     7
420
 16777215
176
     1
 90
        1
176
     1
 90
        4
176
     1
 62
     7
176
     1
 62
   257
176
     1
 90
        1
176
     1
 90
        1
176
     1
 40
1.0
176
     1
 90
       12
176
     1
 62
     7
176
     1
 40
1.0
176
     1
 90
        1
176
     1
 90
        6
176
     1
 90
        2
176
     1
 62
     7
176
     1
 90
        5
176
     1
 90
        0
176
     1
 90
        0
176
     1
290
     0
176
     1
 90
        1
176
     1
 40
0.0
176
     1
 90
        0
176
     1
290
     0
176
     1
290
     1
176
     1
290
     1
176
     1
290
     0
176
     1
290
     0
176
     1
290
     0
176
     1
290
     0
176
     1
290
     0
176
     1
290
     0
176
     1
 90
       50
176
     1
 40
0.0
176
     1
 40
1.0
176
     1
 90
        0
176
     1
 62
    18
420
        0
176
     1
 90
       50
176
     1
 90
        3
176
     1
 62
     5
420
      255
176
     1
290
     0
176
     1
 90
       50
176
     1
 90
       50
176
     1
 90
       50
176
     1
290
     0
176
     1
 90
       50
176
     1
 62
   256
176
     0
 40
1.0
176
     0
 90
        2
176
     1
  1
strokes_ogs.tif
176
     1
290
     0
176
     1
 40
1.0
176
     1
 40
1.0
176
     1
  0
VISUALSTYLE
  5
504
102
{ACAD_REACTORS
330
4FE
102
}
330
4FE
100
AcDbVisualStyle
  2
Wireframe
 70
     5
177
     3
291
     0
 70
    58
 90
        0
176
     1
 90
        2
176
     1
 90
        0
176
     1
 90
        0
176
     1
 40
0.6
176
     1
 40
30.0
176
     1
 62
     7
420
 16777215
176
     1
 90
        1
176
     1
 90
        4
176
     1
 62
     7
176
     1
 62
   257
176
     1
 90
        1
176
     1
 90
        1
176
     1
 40
1.0
176
     1
 90
        0
176
     1
 62
   257
176
     1
 40
1.0
176
     1
 90
        1
176
     1
 90
        6
176
     1
 90
        2
176
     1
 62
     7
176
     1
 90
        3
176
     1
 90
        0
176
     1
 90
        0
176
     1
290
     0
176
     1
 90
        1
176
     1
 40
0.0
176
     1
 90
        0
176
     1
290
     0
176
     1
290
     1
176
     1
290
     1
176
     1
290
     0
176
     1
290
     0
176
     1
290
     0
176
     1
290
     0
176
     1
290
     0
176
     1
290
     0
176
     1
 90
       50
176
     1
 40
0.0
176
     1
 40
1.0
176
     1
 90
        0
176
     1
 62
    18
420
        0
176
     1
 90
       50
176
     1
 90
        3
176
     1
 62
     5
420
      255
176
     1
290
     0
176
     1
 90
       50
176
     1
 90
       50
176
     1
 90
       50
176
     1
290
     0
176
     1
 90
       50
176
     1
 62
   256
176
     0
 40
1.0
176
     0
 90
        2
176
     1
  1
strokes_ogs.tif
176
     1
290
     0
176
     1
 40
1.0
176
     1
 40
1.0
176
     1
  0
VISUALSTYLE
  5
514
102
{ACAD_REACTORS
330
4FE
102
}
330
4FE
100
AcDbVisualStyle
  2
X-Ray
 70
    25
177
     3
291
     0
 70
    58
 90
        2
176
     1
 90
        2
176
     1
 90
        1
176
     1
 90
        1
176
     1
 40
0.5
176
     1
 40
30.0
176
     1
 62
     7
420
 16777215
176
     1
 90
        1
176
     1
 90
        0
176
     1
 62
     7
176
     1
 62
   257
176
     1
 90
        1
176
     1
 90
        1
176
     1
 40
1.0
176
     1
 90
        8
176
     1
 62
     7
176
     1
 40
1.0
176
     1
 90
        1
176
     1
 90
        6
176
     1
 90
        2
176
     1
 62
     7
176
     1
 90
        3
176
     1
 90
        0
176
     1
 90
        0
176
     1
290
     0
176
     1
 90
       13
176
     1
 40
0.0
176
     1
 90
        0
176
     1
290
     0
176
     1
290
     1
176
     1
290
     1
176
     1
290
     0
176
     1
290
     0
176
     1
290
     0
176
     1
290
     0
176
     1
290
     0
176
     1
290
     0
176
     1
 90
       50
176
     1
 40
0.0
176
     1
 40
1.0
176
     1
 90
        0
176
     1
 62
    18
420
        0
176
     1
 90
       50
176
     1
 90
        3
176
     1
 62
     5
420
      255
176
     1
290
     0
176
     1
 90
       50
176
     1
 90
       50
176
     1
 90
       50
176
     1
290
     0
176
     1
 90
       50
176
     1
 62
   256
176
     0
 40
1.0
176
     0
 90
        2
176
     1
  1
strokes_ogs.tif
176
     1
290
     0
176
     1
 40
1.0
176
     1
 40
1.0
176
     1
  0
DICTIONARYVAR
  5
51F
102
{ACAD_REACTORS
330
51E
102
}
330
51E
100
DictionaryVariables
280
     0
  1
1:1
  0
DICTIONARYVAR
  5
524
102
{ACAD_REACTORS
330
51E
102
}
330
51E
100
DictionaryVariables
280
     0
  1
Standard
  0
DICTIONARYVAR
  5
523
102
{ACAD_REACTORS
330
51E
102
}
330
51E
100
DictionaryVariables
280
     0
  1
Standard
  0
DICTIONARYVAR
  5
525
102
{ACAD_REACTORS
330
51E
102
}
330
51E
100
DictionaryVariables
280
     0
  1
0
  0
DICTIONARY
  5
520
330
518
100
AcDbDictionary
280
     1
281
     1
  3
ACAD_ROUNDTRIP_2008_TABLESTYLE_CELLSTYLEMAP
360
521
  0
CELLSTYLEMAP
  5
521
102
{ACAD_REACTORS
330
520
102
}
330
520
100
AcDbCellStyleMap
 90
        3
300
CELLSTYLE
  1
TABLEFORMAT_BEGIN
 90
        5
170
     1
 91
        0
 92
    32768
 62
   257
 93
        1
300
CONTENTFORMAT
  1
CONTENTFORMAT_BEGIN
 90
        0
 91
        0
 92
        4
 93
        0
300

 40
0.0
140
1.0
 94
        5
 62
     0
340
4B8
144
0.25
309
CONTENTFORMAT_END
171
     1
301
MARGIN
  1
CELLMARGIN_BEGIN
 40
0.06
 40
0.06
 40
0.06
 40
0.06
 40
0.06
 40
0.06
309
CELLMARGIN_END
 94
        6
 95
        1
302
GRIDFORMAT
  1
GRIDFORMAT_BEGIN
 90
        0
 91
        1
 62
     0
 92
       -2
340
4BA
 93
        0
 40
0.045
309
GRIDFORMAT_END
 95
        2
302
GRIDFORMAT
  1
GRIDFORMAT_BEGIN
 90
        0
 91
        1
 62
     0
 92
       -2
340
4BA
 93
        0
 40
0.045
309
GRIDFORMAT_END
 95
        4
302
GRIDFORMAT
  1
GRIDFORMAT_BEGIN
 90
        0
 91
        1
 62
     0
 92
       -2
340
4BA
 93
        0
 40
0.045
309
GRIDFORMAT_END
 95
        8
302
GRIDFORMAT
  1
GRIDFORMAT_BEGIN
 90
        0
 91
        1
 62
     0
 92
       -2
340
4BA
 93
        0
 40
0.045
309
GRIDFORMAT_END
 95
       16
302
GRIDFORMAT
  1
GRIDFORMAT_BEGIN
 90
        0
 91
        1
 62
     0
 92
       -2
340
4BA
 93
        0
 40
0.045
309
GRIDFORMAT_END
 95
       32
302
GRIDFORMAT
  1
GRIDFORMAT_BEGIN
 90
        0
 91
        1
 62
     0
 92
       -2
340
4BA
 93
        0
 40
0.045
309
GRIDFORMAT_END
309
TABLEFORMAT_END
  1
CELLSTYLE_BEGIN
 90
        1
 91
        1
300
_TITLE
309
CELLSTYLE_END
300
CELLSTYLE
  1
TABLEFORMAT_BEGIN
 90
        5
170
     1
 91
        0
 92
        0
 62
   257
 93
        1
300
CONTENTFORMAT
  1
CONTENTFORMAT_BEGIN
 90
        0
 91
        0
 92
        4
 93
        0
300

 40
0.0
140
1.0
 94
        5
 62
     0
340
4B8
144
0.18
309
CONTENTFORMAT_END
171
     1
301
MARGIN
  1
CELLMARGIN_BEGIN
 40
0.06
 40
0.06
 40
0.06
 40
0.06
 40
0.06
 40
0.06
309
CELLMARGIN_END
 94
        6
 95
        1
302
GRIDFORMAT
  1
GRIDFORMAT_BEGIN
 90
        0
 91
        1
 62
     0
 92
       -2
340
4BA
 93
        0
 40
0.045
309
GRIDFORMAT_END
 95
        2
302
GRIDFORMAT
  1
GRIDFORMAT_BEGIN
 90
        0
 91
        1
 62
     0
 92
       -2
340
4BA
 93
        0
 40
0.045
309
GRIDFORMAT_END
 95
        4
302
GRIDFORMAT
  1
GRIDFORMAT_BEGIN
 90
        0
 91
        1
 62
     0
 92
       -2
340
4BA
 93
        0
 40
0.045
309
GRIDFORMAT_END
 95
        8
302
GRIDFORMAT
  1
GRIDFORMAT_BEGIN
 90
        0
 91
        1
 62
     0
 92
       -2
340
4BA
 93
        0
 40
0.045
309
GRIDFORMAT_END
 95
       16
302
GRIDFORMAT
  1
GRIDFORMAT_BEGIN
 90
        0
 91
        1
 62
     0
 92
       -2
340
4BA
 93
        0
 40
0.045
309
GRIDFORMAT_END
 95
       32
302
GRIDFORMAT
  1
GRIDFORMAT_BEGIN
 90
        0
 91
        1
 62
     0
 92
       -2
340
4BA
 93
        0
 40
0.045
309
GRIDFORMAT_END
309
TABLEFORMAT_END
  1
CELLSTYLE_BEGIN
 90
        2
 91
        1
300
_HEADER
309
CELLSTYLE_END
300
CELLSTYLE
  1
TABLEFORMAT_BEGIN
 90
        5
170
     1
 91
        0
 92
        0
 62
   257
 93
        1
300
CONTENTFORMAT
  1
CONTENTFORMAT_BEGIN
 90
        0
 91
        0
 92
        4
 93
        0
300

 40
0.0
140
1.0
 94
        2
 62
     0
340
4B8
144
0.18
309
CONTENTFORMAT_END
171
     1
301
MARGIN
  1
CELLMARGIN_BEGIN
 40
0.06
 40
0.06
 40
0.06
 40
0.06
 40
0.06
 40
0.06
309
CELLMARGIN_END
 94
        6
 95
        1
302
GRIDFORMAT
  1
GRIDFORMAT_BEGIN
 90
        0
 91
        1
 62
     0
 92
       -2
340
4BA
 93
        0
 40
0.045
309
GRIDFORMAT_END
 95
        2
302
GRIDFORMAT
  1
GRIDFORMAT_BEGIN
 90
        0
 91
        1
 62
     0
 92
       -2
340
4BA
 93
        0
 40
0.045
309
GRIDFORMAT_END
 95
        4
302
GRIDFORMAT
  1
GRIDFORMAT_BEGIN
 90
        0
 91
        1
 62
     0
 92
       -2
340
4BA
 93
        0
 40
0.045
309
GRIDFORMAT_END
 95
        8
302
GRIDFORMAT
  1
GRIDFORMAT_BEGIN
 90
        0
 91
        1
 62
     0
 92
       -2
340
4BA
 93
        0
 40
0.045
309
GRIDFORMAT_END
 95
       16
302
GRIDFORMAT
  1
GRIDFORMAT_BEGIN
 90
        0
 91
        1
 62
     0
 92
       -2
340
4BA
 93
        0
 40
0.045
309
GRIDFORMAT_END
 95
       32
302
GRIDFORMAT
  1
GRIDFORMAT_BEGIN
 90
        0
 91
        1
 62
     0
 92
       -2
340
4BA
 93
        0
 40
0.045
309
GRIDFORMAT_END
309
TABLEFORMAT_END
  1
CELLSTYLE_BEGIN
 90
        3
 91
        2
300
_DATA
309
CELLSTYLE_END
  0
ENDSEC
  0
EOF
