  0
SECTION
  2
HEADER
  9
$ACADVER
  1
AC1024
  9
$ACADMAINTVER
 70
     6
  9
$DWGCODEPAGE
  3
ANSI_1252
  9
$INSBASE
 10
0.0
 20
0.0
 30
0.0
  9
$EXTMIN
 10
0.0
 20
0.0
 30
0.0
  9
$EXTMAX
 10
594.0
 20
841.0
 30
0.0
  9
$LIMMIN
 10
0.0
 20
0.0
  9
$LIMMAX
 10
594.0
 20
841.0
  9
$ORTHOMODE
 70
     0
  9
$REGENMODE
 70
     1
  9
$FILLMODE
 70
     1
  9
$QTEXTMODE
 70
     0
  9
$MIRRTEXT
 70
     1
  9
$LTSCALE
 40
1.0
  9
$ATTMODE
 70
     1
  9
$TEXTSIZE
 40
10.0
  9
$TRACEWID
 40
1.0
  9
$TEXTSTYLE
  7
Standard
  9
$CLAYER
  8
0
  9
$CELTYPE
  6
ByLayer
  9
$CECOLOR
 62
   256
  9
$CELTSCALE
 40
1.0
  9
$DISPSILH
 70
     0
  9
$DIMSCALE
 40
1.0
  9
$DIMASZ
 40
2.5
  9
$DIMEXO
 40
0.0
  9
$DIMDLI
 40
3.75
  9
$DIMRND
 40
0.0
  9
$DIMDLE
 40
0.0
  9
$DIMEXE
 40
1.0
  9
$DIMTP
 40
0.0
  9
$DIMTM
 40
0.0
  9
$DIMTXT
 40
3.5
  9
$DIMCEN
 40
2.5
  9
$DIMTSZ
 40
0.0
  9
$DIMTOL
 70
     0
  9
$DIMLIM
 70
     0
  9
$DIMTIH
 70
     1
  9
$DIMTOH
 70
     1
  9
$DIMSE1
 70
     0
  9
$DIMSE2
 70
     0
  9
$DIMTAD
 70
     1
  9
$DIMZIN
 70
     0
  9
$DIMBLK
  1

  9
$DIMASO
 70
     1
  9
$DIMSHO
 70
     1
  9
$DIMPOST
  1

  9
$DIMAPOST
  1

  9
$DIMALT
 70
     0
  9
$DIMALTD
 70
     3
  9
$DIMALTF
 40
0.0393700787
  9
$DIMLFAC
 40
1.0
  9
$DIMTOFL
 70
     1
  9
$DIMTVP
 40
0.0
  9
$DIMTIX
 70
     0
  9
$DIMSOXD
 70
     0
  9
$DIMSAH
 70
     0
  9
$DIMBLK1
  1

  9
$DIMBLK2
  1

  9
$DIMSTYLE
  2
ISO-25
  9
$DIMCLRD
 70
     0
  9
$DIMCLRE
 70
     0
  9
$DIMCLRT
 70
     0
  9
$DIMTFAC
 40
1.0
  9
$DIMGAP
 40
1.5
  9
$DIMJUST
 70
     0
  9
$DIMSD1
 70
     0
  9
$DIMSD2
 70
     0
  9
$DIMTOLJ
 70
     0
  9
$DIMTZIN
 70
     0
  9
$DIMALTZ
 70
     0
  9
$DIMALTTZ
 70
     0
  9
$DIMUPT
 70
     0
  9
$DIMDEC
 70
     2
  9
$DIMTDEC
 70
     2
  9
$DIMALTU
 70
     2
  9
$DIMALTTD
 70
     3
  9
$DIMTXSTY
  7
Standard
  9
$DIMAUNIT
 70
     0
  9
$DIMADEC
 70
     2
  9
$DIMALTRND
 40
0.0
  9
$DIMAZIN
 70
     0
  9
$DIMDSEP
 70
    44
  9
$DIMATFIT
 70
     3
  9
$DIMFRAC
 70
     0
  9
$DIMLDRBLK
  1

  9
$DIMLUNIT
 70
     2
  9
$DIMLWD
 70
    -2
  9
$DIMLWE
 70
    -2
  9
$DIMTMOVE
 70
     0
  9
$DIMFXL
 40
1.0
  9
$DIMFXLON
 70
     0
  9
$DIMJOGANG
 40
0.7853981634
  9
$DIMTFILL
 70
     0
  9
$DIMTFILLCLR
 70
     0
  9
$DIMARCSYM
 70
     0
  9
$DIMLTYPE
  6

  9
$DIMLTEX1
  6

  9
$DIMLTEX2
  6

  9
$DIMTXTDIRECTION
 70
     0
  9
$LUNITS
 70
     2
  9
$LUPREC
 70
     2
  9
$SKETCHINC
 40
1.0
  9
$FILLETRAD
 40
10.0
  9
$AUNITS
 70
     0
  9
$AUPREC
 70
     2
  9
$MENU
  1
.
  9
$ELEVATION
 40
0.0
  9
$PELEVATION
 40
0.0
  9
$THICKNESS
 40
0.0
  9
$LIMCHECK
 70
     0
  9
$CHAMFERA
 40
10.0
  9
$CHAMFERB
 40
10.0
  9
$CHAMFERC
 40
20.0
  9
$CHAMFERD
 40
0.0
  9
$SKPOLY
 70
     0
  9
$TDCREATE
 40
2456150.468221933
  9
$TDUCREATE
 40
2456150.3848886
  9
$TDUPDATE
 40
2456150.468221944
  9
$TDUUPDATE
 40
2456150.384888611
  9
$TDINDWG
 40
0.0000000116
  9
$TDUSRTIMER
 40
0.0000000116
  9
$USRTIMER
 70
     1
  9
$ANGBASE
 50
0.0
  9
$ANGDIR
 70
     0
  9
$PDMODE
 70
     0
  9
$PDSIZE
 40
-1.0
  9
$PLINEWID
 40
0.0
  9
$SPLFRAME
 70
     0
  9
$SPLINETYPE
 70
     6
  9
$SPLINESEGS
 70
     8
  9
$HANDSEED
  5
173
  9
$SURFTAB1
 70
     6
  9
$SURFTAB2
 70
     6
  9
$SURFTYPE
 70
     6
  9
$SURFU
 70
     6
  9
$SURFV
 70
     6
  9
$UCSBASE
  2

  9
$UCSNAME
  2

  9
$UCSORG
 10
0.0
 20
0.0
 30
0.0
  9
$UCSXDIR
 10
1.0
 20
0.0
 30
0.0
  9
$UCSYDIR
 10
0.0
 20
1.0
 30
0.0
  9
$UCSORTHOREF
  2

  9
$UCSORTHOVIEW
 70
     0
  9
$UCSORGTOP
 10
0.0
 20
0.0
 30
0.0
  9
$UCSORGBOTTOM
 10
0.0
 20
0.0
 30
0.0
  9
$UCSORGLEFT
 10
0.0
 20
0.0
 30
0.0
  9
$UCSORGRIGHT
 10
0.0
 20
0.0
 30
0.0
  9
$UCSORGFRONT
 10
0.0
 20
0.0
 30
0.0
  9
$UCSORGBACK
 10
0.0
 20
0.0
 30
0.0
  9
$PUCSBASE
  2

  9
$PUCSNAME
  2

  9
$PUCSORG
 10
0.0
 20
0.0
 30
0.0
  9
$PUCSXDIR
 10
1.0
 20
0.0
 30
0.0
  9
$PUCSYDIR
 10
0.0
 20
1.0
 30
0.0
  9
$PUCSORTHOREF
  2

  9
$PUCSORTHOVIEW
 70
     0
  9
$PUCSORGTOP
 10
0.0
 20
0.0
 30
0.0
  9
$PUCSORGBOTTOM
 10
0.0
 20
0.0
 30
0.0
  9
$PUCSORGLEFT
 10
0.0
 20
0.0
 30
0.0
  9
$PUCSORGRIGHT
 10
0.0
 20
0.0
 30
0.0
  9
$PUCSORGFRONT
 10
0.0
 20
0.0
 30
0.0
  9
$PUCSORGBACK
 10
0.0
 20
0.0
 30
0.0
  9
$USERI1
 70
     0
  9
$USERI2
 70
     0
  9
$USERI3
 70
     0
  9
$USERI4
 70
     0
  9
$USERI5
 70
     0
  9
$USERR1
 40
0.0
  9
$USERR2
 40
0.0
  9
$USERR3
 40
0.0
  9
$USERR4
 40
0.0
  9
$USERR5
 40
0.0
  9
$WORLDVIEW
 70
     1
  9
$SHADEDGE
 70
     3
  9
$SHADEDIF
 70
    70
  9
$TILEMODE
 70
     1
  9
$MAXACTVP
 70
    64
  9
$PINSBASE
 10
0.0
 20
0.0
 30
0.0
  9
$PLIMCHECK
 70
     0
  9
$PEXTMIN
 10
1.0000000000E+20
 20
1.0000000000E+20
 30
1.0000000000E+20
  9
$PEXTMAX
 10
-1.0000000000E+20
 20
-1.0000000000E+20
 30
-1.0000000000E+20
  9
$PLIMMIN
 10
0.0
 20
0.0
  9
$PLIMMAX
 10
420.0
 20
297.0
  9
$UNITMODE
 70
     0
  9
$VISRETAIN
 70
     1
  9
$PLINEGEN
 70
     0
  9
$PSLTSCALE
 70
     1
  9
$TREEDEPTH
 70
  3020
  9
$CMLSTYLE
  2
Standard
  9
$CMLJUST
 70
     0
  9
$CMLSCALE
 40
20.0
  9
$PROXYGRAPHICS
 70
     1
  9
$MEASUREMENT
 70
     1
  9
$CELWEIGHT
370
    -1
  9
$ENDCAPS
280
     0
  9
$JOINSTYLE
280
     0
  9
$LWDISPLAY
290
     1
  9
$INSUNITS
 70
     4
  9
$HYPERLINKBASE
  1

  9
$STYLESHEET
  1

  9
$XEDIT
290
     1
  9
$CEPSNTYPE
380
     0
  9
$PSTYLEMODE
290
     1
  9
$FINGERPRINTGUID
  2
{CE2CC36B-E542-431C-A20E-FE2A11442C76}
  9
$VERSIONGUID
  2
{FAEB1C32-E019-11D5-929B-00C0DF256EC4}
  9
$EXTNAMES
290
     1
  9
$PSVPSCALE
 40
0.0
  9
$OLESTARTUP
290
     0
  9
$SORTENTS
280
   127
  9
$INDEXCTL
280
     0
  9
$HIDETEXT
280
     1
  9
$XCLIPFRAME
280
     2
  9
$HALOGAP
280
     0
  9
$OBSCOLOR
 70
   257
  9
$OBSLTYPE
280
     0
  9
$INTERSECTIONDISPLAY
280
     0
  9
$INTERSECTIONCOLOR
 70
   257
  9
$DIMASSOC
280
     2
  9
$PROJECTNAME
  1

  9
$CAMERADISPLAY
290
     0
  9
$LENSLENGTH
 40
50.0
  9
$CAMERAHEIGHT
 40
0.0
  9
$STEPSPERSEC
 40
2.0
  9
$STEPSIZE
 40
6.0
  9
$3DDWFPREC
 40
2.0
  9
$PSOLWIDTH
 40
5.0
  9
$PSOLHEIGHT
 40
80.0
  9
$LOFTANG1
 40
1.5707963268
  9
$LOFTANG2
 40
1.5707963268
  9
$LOFTMAG1
 40
0.0
  9
$LOFTMAG2
 40
0.0
  9
$LOFTPARAM
 70
     7
  9
$LOFTNORMALS
280
     1
  9
$LATITUDE
 40
37.795
  9
$LONGITUDE
 40
-122.394
  9
$NORTHDIRECTION
 40
0.0
  9
$TIMEZONE
 70
 -8000
  9
$LIGHTGLYPHDISPLAY
280
     1
  9
$TILEMODELIGHTSYNCH
280
     1
  9
$SOLIDHIST
280
     1
  9
$SHOWHIST
280
     1
  9
$DWFFRAME
280
     2
  9
$DGNFRAME
280
     2
  9
$REALWORLDSCALE
290
     1
  9
$INTERFERECOLOR
 62
   256
  9
$CSHADOW
280
     0
  9
$SHADOWPLANELOCATION
 40
0.0
  0
ENDSEC
  0
SECTION
  2
CLASSES
  0
CLASS
  1
ACDBDICTIONARYWDFLT
  2
AcDbDictionaryWithDefault
  3
ObjectDBX Classes
 90
        0
 91
        4
280
     0
281
     0
  0
CLASS
  1
VISUALSTYLE
  2
AcDbVisualStyle
  3
ObjectDBX Classes
 90
     4095
 91
        4
280
     0
281
     0
  0
CLASS
  1
MATERIAL
  2
AcDbMaterial
  3
ObjectDBX Classes
 90
     1153
 91
        4
280
     0
281
     0
  0
ENDSEC
  0
SECTION
  2
TABLES
  0
TABLE
  2
VPORT
  5
8
330
0
100
AcDbSymbolTable
 70
     1
  0
VPORT
  5
29
330
8
100
AcDbSymbolTableRecord
100
AcDbViewportTableRecord
  2
*Active
 70
     0
 10
0.0
 20
0.0
 11
1.0
 21
1.0
 12
297.0
 22
420.5
 13
0.0
 23
0.0
 14
10.0
 24
10.0
 15
10.0
 25
10.0
 16
0.0
 26
0.0
 36
1.0
 17
0.0
 27
0.0
 37
0.0
 40
841.0
 41
0.7063020214
 42
50.0
 43
0.0
 44
0.0
 50
0.0
 51
0.0
 71
     0
 72
  2000
 73
     1
 74
     3
 75
     0
 76
     0
 77
     0
 78
     0
281
     0
 65
     1
110
0.0
120
0.0
130
0.0
111
1.0
121
0.0
131
0.0
112
0.0
122
1.0
132
0.0
 79
     0
146
0.0
 60
     3
 61
     5
292
     1
282
     1
141
0.0
142
0.0
 63
   250
  0
ENDTAB
  0
TABLE
  2
LTYPE
  5
5
330
0
100
AcDbSymbolTable
 70
     6
  0
LTYPE
  5
14
330
5
100
AcDbSymbolTableRecord
100
AcDbLinetypeTableRecord
  2
ByBlock
 70
     0
  3

 72
    65
 73
     0
 40
0.0
  0
LTYPE
  5
15
330
5
100
AcDbSymbolTableRecord
100
AcDbLinetypeTableRecord
  2
ByLayer
 70
     0
  3

 72
    65
 73
     0
 40
0.0
  0
LTYPE
  5
16
330
5
100
AcDbSymbolTableRecord
100
AcDbLinetypeTableRecord
  2
Continuous
 70
     0
  3
Solid line
 72
    65
 73
     0
 40
0.0
  0
LTYPE
  5
3F
330
5
100
AcDbSymbolTableRecord
100
AcDbLinetypeTableRecord
  2
HIDDEN
 70
     0
  3
Hidden __ __ __ __ __ __ __ __ __ __ __ __ __ __
 72
    65
 73
     2
 40
1.905
 49
1.27
 74
     0
 49
-0.635
 74
     0
  0
LTYPE
  5
40
330
5
100
AcDbSymbolTableRecord
100
AcDbLinetypeTableRecord
  2
PHANTOM
 70
     0
  3
Phantom ______  __  __  ______  __  __  ______
 72
    65
 73
     6
 40
12.7
 49
6.35
 74
     0
 49
-1.27
 74
     0
 49
1.27
 74
     0
 49
-1.27
 74
     0
 49
1.27
 74
     0
 49
-1.27
 74
     0
  0
LTYPE
  5
41
330
5
100
AcDbSymbolTableRecord
100
AcDbLinetypeTableRecord
  2
CENTER
 70
     0
  3
Center ____ _ ____ _ ____ _ ____ _ ____ _ ____
 72
    65
 73
     4
 40
10.16
 49
6.35
 74
     0
 49
-1.27
 74
     0
 49
1.27
 74
     0
 49
-1.27
 74
     0
  0
LTYPE
  5
42
330
5
100
AcDbSymbolTableRecord
100
AcDbLinetypeTableRecord
  2
CENTERX2
 70
     0
  3
Center (2x) ________  __  ________  __  _____
 72
    65
 73
     4
 40
20.32
 49
12.7
 74
     0
 49
-2.54
 74
     0
 49
2.54
 74
     0
 49
-2.54
 74
     0
  0
LTYPE
  5
43
330
5
100
AcDbSymbolTableRecord
100
AcDbLinetypeTableRecord
  2
DOT2
 70
     0
  3
Dot (.5x) ........................................
 72
    65
 73
     2
 40
0.635
 49
0.0
 74
     0
 49
-0.635
 74
     0
  0
ENDTAB
  0
TABLE
  2
LAYER
  5
2
330
0
100
AcDbSymbolTable
 70
     1
  0
LAYER
  5
10
330
2
100
AcDbSymbolTableRecord
100
AcDbLayerTableRecord
  2
0
 70
     0
 62
     7
  6
Continuous
370
    -3
390
F
347
3E
  0
ENDTAB
  0
TABLE
  2
STYLE
  5
3
330
0
100
AcDbSymbolTable
 70
     3
  0
STYLE
  5
11
330
3
100
AcDbSymbolTableRecord
100
AcDbTextStyleTableRecord
  2
Standard
 70
     0
 40
0.0
 41
1.0
 50
0.0
 71
     0
 42
2.5
  3
txt
  4

  0
STYLE
  5
47
330
3
100
AcDbSymbolTableRecord
100
AcDbTextStyleTableRecord
  2
SLDTEXTSTYLE0
 70
     0
 40
0.0
 41
0.96
 50
0.0
 71
     0
 42
0.2
  3
ISOCP3
  4

  0
STYLE
  5
5E
330
3
100
AcDbSymbolTableRecord
100
AcDbTextStyleTableRecord
  2
SLDTEXTSTYLE1
 70
     0
 40
0.0
 41
0.605
 50
0.0
 71
     0
 42
0.2
  3
TXT
  4

  0
ENDTAB
  0
TABLE
  2
VIEW
  5
6
330
0
100
AcDbSymbolTable
 70
     0
  0
ENDTAB
  0
TABLE
  2
UCS
  5
7
330
0
100
AcDbSymbolTable
 70
     0
  0
ENDTAB
  0
TABLE
  2
APPID
  5
9
330
0
100
AcDbSymbolTable
 70
     1
  0
APPID
  5
12
330
9
100
AcDbSymbolTableRecord
100
AcDbRegAppTableRecord
  2
ACAD
 70
     0
  0
ENDTAB
  0
TABLE
  2
DIMSTYLE
  5
A
330
0
100
AcDbSymbolTable
 70
     2
100
AcDbDimStyleTable
  0
DIMSTYLE
105
27
330
A
100
AcDbSymbolTableRecord
100
AcDbDimStyleTableRecord
  2
ISO-25
 70
     0
 41
2.5
 42
0.625
 43
3.75
 44
1.25
 73
     0
 74
     0
 77
     1
 78
     8
140
2.5
141
2.5
143
0.0393700787
147
0.625
171
     3
172
     1
178
     0
271
     2
272
     2
274
     3
278
    44
283
     0
284
     8
340
11
  0
DIMSTYLE
105
48
102
{ACAD_REACTORS
330
46
330
53
102
}
330
A
100
AcDbSymbolTableRecord
100
AcDbDimStyleTableRecord
  2
SLDDIMSTYLE0
 70
     0
 41
2.5
 44
0.0
 45
0.000000001
 73
     0
 74
     0
 77
     1
 78
    12
 79
     3
140
6.0
147
1.5
173
     1
178
     0
271
     2
272
     2
276
     2
284
    12
340
47
  0
ENDTAB
  0
TABLE
  2
BLOCK_RECORD
  5
1
330
0
100
AcDbSymbolTable
 70
     3
  0
BLOCK_RECORD
  5
1F
330
1
100
AcDbSymbolTableRecord
100
AcDbBlockTableRecord
  2
*Model_Space
340
22
 70
     0
280
     1
281
     0
  0
BLOCK_RECORD
  5
1B
330
1
100
AcDbSymbolTableRecord
100
AcDbBlockTableRecord
  2
*Paper_Space
340
1E
 70
     0
280
     1
281
     0
  0
BLOCK_RECORD
  5
23
330
1
100
AcDbSymbolTableRecord
100
AcDbBlockTableRecord
  2
*Paper_Space0
340
26
 70
     0
280
     1
281
     0
  0
BLOCK_RECORD
  5
49
330
1
100
AcDbSymbolTableRecord
100
AcDbBlockTableRecord
  2
*D1
340
0
 70
     0
280
     1
281
     0
  0
BLOCK_RECORD
  5
54
330
1
100
AcDbSymbolTableRecord
100
AcDbBlockTableRecord
  2
*D2
340
0
 70
     0
280
     1
281
     0
  0
ENDTAB
  0
ENDSEC
  0
SECTION
  2
BLOCKS
  0
BLOCK
  5
20
330
1F
100
AcDbEntity
  8
0
100
AcDbBlockBegin
  2
*Model_Space
 70
     0
 10
0.0
 20
0.0
 30
0.0
  3
*Model_Space
  1

  0
ENDBLK
  5
21
330
1F
100
AcDbEntity
  8
0
100
AcDbBlockEnd
  0
BLOCK
  5
1C
330
1B
100
AcDbEntity
 67
     1
  8
0
100
AcDbBlockBegin
  2
*Paper_Space
 70
     0
 10
0.0
 20
0.0
 30
0.0
  3
*Paper_Space
  1

  0
ENDBLK
  5
1D
330
1B
100
AcDbEntity
 67
     1
  8
0
100
AcDbBlockEnd
  0
BLOCK
  5
24
330
23
100
AcDbEntity
  8
0
100
AcDbBlockBegin
  2
*Paper_Space0
 70
     0
 10
0.0
 20
0.0
 30
0.0
  3
*Paper_Space0
  1

  0
ENDBLK
  5
25
330
23
100
AcDbEntity
  8
0
100
AcDbBlockEnd
  0
BLOCK
  5
4A
330
49
100
AcDbEntity
  8
0
100
AcDbBlockBegin
  2
*D1
 70
     1
 10
0.0
 20
0.0
 30
0.0
  3
*D1
  1

  0
SOLID
  5
4C
330
49
100
AcDbEntity
  8
0
  6
Continuous
 62
     7
370
     0
100
AcDbTrace
 10
42.7614395004
 20
152.0299240879
 30
0.0
 11
42.4614395004
 21
149.5299240879
 31
0.0
 12
43.0614395004
 22
149.5299240879
 32
0.0
 13
43.0614395004
 23
149.5299240879
 33
0.0
  0
SOLID
  5
4D
330
49
100
AcDbEntity
  8
0
  6
Continuous
 62
     7
370
     0
100
AcDbTrace
 10
42.7614395004
 20
52.0299240879
 30
0.0
 11
43.0614395004
 21
54.5299240879
 31
0.0
 12
42.4614395004
 22
54.5299240879
 32
0.0
 13
42.4614395004
 23
54.5299240879
 33
0.0
  0
LINE
  5
4E
330
49
100
AcDbEntity
  8
0
  6
Continuous
 62
     7
370
     0
100
AcDbLine
 10
56.6850079902
 20
152.0299240879
 30
0.0
 11
41.7614395004
 21
152.0299240879
 31
0.0
  0
LINE
  5
4F
330
49
100
AcDbEntity
  8
0
  6
Continuous
 62
     7
370
     0
100
AcDbLine
 10
56.6850079902
 20
52.0299240879
 30
0.0
 11
41.7614395004
 21
52.0299240879
 31
0.0
  0
LINE
  5
50
330
49
100
AcDbEntity
  8
0
  6
Continuous
 62
     7
370
     0
100
AcDbLine
 10
42.7614395004
 20
152.0299240879
 30
0.0
 11
42.7614395004
 21
52.0299240879
 31
0.0
  0
MTEXT
  5
51
330
49
100
AcDbEntity
  8
0
  6
Continuous
 62
     7
370
     0
100
AcDbMText
 10
35.0270332946
 20
91.6722208134
 30
0.1
 40
6.0
 41
0.0
 46
0.0
 71
     1
 72
     1
  1
100
  7
SLDTEXTSTYLE0
 11
-7.044195017643634E-15
 21
1.0
 31
0.0
 73
     1
 44
1.0
  0
MTEXT
  5
52
330
49
100
AcDbEntity
  8
0
  6
Continuous
 62
     7
370
     0
100
AcDbMText
 10
35.0270332946
 20
108.4388881795
 30
0.1
 40
6.0
 41
0.0
 46
0.0
 71
     1
 72
     1
  1
mm
  7
SLDTEXTSTYLE0
 11
-7.044195017643634E-15
 21
1.0
 31
0.0
 73
     1
 44
1.0
  0
ENDBLK
  5
4B
330
49
100
AcDbEntity
  8
0
100
AcDbBlockEnd
  0
BLOCK
  5
55
330
54
100
AcDbEntity
  8
0
100
AcDbBlockBegin
  2
*D2
 70
     1
 10
0.0
 20
0.0
 30
0.0
  3
*D2
  1

  0
SOLID
  5
57
330
54
100
AcDbEntity
  8
0
  6
Continuous
 62
     7
370
     0
100
AcDbTrace
 10
56.6850079902
 20
38.4602342313
 30
0.0
 11
59.1850079902
 21
38.1602342313
 31
0.0
 12
59.1850079902
 22
38.7602342313
 32
0.0
 13
59.1850079902
 23
38.7602342313
 33
0.0
  0
SOLID
  5
58
330
54
100
AcDbEntity
  8
0
  6
Continuous
 62
     7
370
     0
100
AcDbTrace
 10
156.6850079902
 20
38.4602342313
 30
0.0
 11
154.1850079902
 21
38.7602342313
 31
0.0
 12
154.1850079902
 22
38.1602342313
 32
0.0
 13
154.1850079902
 23
38.1602342313
 33
0.0
  0
LINE
  5
59
330
54
100
AcDbEntity
  8
0
  6
Continuous
 62
     7
370
     0
100
AcDbLine
 10
56.6850079902
 20
52.0299240879
 30
0.0
 11
56.6850079902
 21
37.4602342313
 31
0.0
  0
LINE
  5
5A
330
54
100
AcDbEntity
  8
0
  6
Continuous
 62
     7
370
     0
100
AcDbLine
 10
156.6850079902
 20
52.0299240879
 30
0.0
 11
156.6850079902
 21
37.4602342313
 31
0.0
  0
LINE
  5
5B
330
54
100
AcDbEntity
  8
0
  6
Continuous
 62
     7
370
     0
100
AcDbLine
 10
56.6850079902
 20
38.4602342313
 30
0.0
 11
156.6850079902
 21
38.4602342313
 31
0.0
  0
MTEXT
  5
5C
330
54
100
AcDbEntity
  8
0
  6
Continuous
 62
     7
370
     0
100
AcDbMText
 10
91.2668151533
 20
46.1946404371
 30
0.1
 40
6.0
 41
0.0
 46
0.0
 71
     1
 72
     1
  1
100
  7
SLDTEXTSTYLE0
 73
     1
 44
1.0
  0
MTEXT
  5
5D
330
54
100
AcDbEntity
  8
0
  6
Continuous
 62
     7
370
     0
100
AcDbMText
 10
108.0334825193
 20
46.1946404371
 30
0.1
 40
6.0
 41
0.0
 46
0.0
 71
     1
 72
     1
  1
mm
  7
SLDTEXTSTYLE0
 73
     1
 44
1.0
  0
ENDBLK
  5
56
330
54
100
AcDbEntity
  8
0
100
AcDbBlockEnd
  0
ENDSEC
  0
SECTION
  2
ENTITIES
  0
LINE
  5
44
330
1F
100
AcDbEntity
  8
0
  6
Continuous
 62
     7
370
     0
100
AcDbLine
 10
56.6850079902
 20
152.0299240879
 30
0.0
 11
56.6850079902
 21
52.0299240879
 31
0.0
  0
LINE
  5
45
330
1F
100
AcDbEntity
  8
0
  6
Continuous
 62
     7
370
     0
100
AcDbLine
 10
56.6850079902
 20
52.0299240879
 30
0.0
 11
156.6850079902
 21
52.0299240879
 31
0.0
  0
DIMENSION
  5
46
330
1F
100
AcDbEntity
  8
0
  6
Continuous
 62
     7
370
     0
100
AcDbDimension
280
     0
  2
*D1
 10
42.7614395004
 20
52.0299240879
 30
0.0
 11
42.7614395004
 21
105.4472211621
 31
0.0
 70
   160
  1
<>mm
 71
     2
 42
-1.0
 73
     0
 74
     0
 75
     0
  3
SLDDIMSTYLE0
100
AcDbAlignedDimension
 13
56.6850079902
 23
152.0299240879
 33
0.0
 14
56.6850079902
 24
52.0299240879
 34
0.0
 50
90.0
100
AcDbRotatedDimension
  0
DIMENSION
  5
53
330
1F
100
AcDbEntity
  8
0
  6
Continuous
 62
     7
370
     0
100
AcDbDimension
280
     0
  2
*D2
 10
156.6850079902
 20
38.4602342313
 30
0.0
 11
105.0418155019
 21
38.4602342313
 31
0.0
 70
   160
  1
<>mm
 71
     2
 42
-1.0
 73
     0
 74
     0
 75
     0
  3
SLDDIMSTYLE0
100
AcDbAlignedDimension
 13
56.6850079902
 23
52.0299240879
 33
0.0
 14
156.6850079902
 24
52.0299240879
 34
0.0
100
AcDbRotatedDimension
  0
MTEXT
  5
5F
330
1F
100
AcDbEntity
  8
0
  6
Continuous
 62
     7
370
     0
100
AcDbMText
 10
256.8486908057
 20
48.7374059122
 30
0.0
 40
10.0
 41
0.0
 46
0.0
 71
     1
 72
     1
  1
38 255 05 75
  7
SLDTEXTSTYLE1
 73
     1
 44
1.0
  0
MTEXT
  5
60
330
1F
100
AcDbEntity
  8
0
  6
Continuous
 62
     7
370
     0
100
AcDbMText
 10
412.8252631579
 20
48.4342449499
 30
0.0
 40
10.0
 41
0.0
 46
0.0
 71
     1
 72
     1
  1
KLUDI GmbH & Co KG
  7
SLDTEXTSTYLE1
 73
     1
 44
1.0
  0
LINE
  5
61
330
1F
100
AcDbEntity
  8
0
  6
Continuous
 62
     7
370
    15
100
AcDbLine
 10
193.4703294738
 20
610.9782753726
 30
0.0
 11
193.4703294738
 21
611.8847577115
 31
0.0
  0
LINE
  5
62
330
1F
100
AcDbEntity
  8
0
  6
Continuous
 62
     7
370
    15
100
AcDbLine
 10
171.4043286248
 20
611.8847577115
 30
0.0
 11
171.4043286248
 21
610.9782753726
 31
0.0
  0
LINE
  5
63
330
1F
100
AcDbEntity
  8
0
  6
Continuous
 62
     7
370
    15
100
AcDbLine
 10
193.4703276112
 20
611.8847577115
 30
0.0
 11
193.4703276112
 21
627.4362055798
 31
0.0
  0
LINE
  5
64
330
1F
100
AcDbEntity
  8
0
  6
Continuous
 62
     7
370
    15
100
AcDbLine
 10
171.4043276935
 20
627.4362055798
 30
0.0
 11
171.4043276935
 21
611.8847577115
 31
0.0
  0
ARC
  5
65
330
1F
100
AcDbEntity
  8
0
  6
Continuous
 62
     7
370
    15
100
AcDbCircle
 10
182.4373278296
 20
680.2325028538
 30
0.0
 40
11.03299999999999
100
AcDbArc
 50
0.0
 51
180.0
  0
LINE
  5
66
330
1F
100
AcDbEntity
  8
0
  6
Continuous
 62
     7
370
    15
100
AcDbLine
 10
171.4043276935
 20
610.9782753726
 30
0.0
 11
171.4043276935
 21
599.9924985905
 31
0.0
  0
LINE
  5
67
330
1F
100
AcDbEntity
  8
0
  6
Continuous
 62
     7
370
    15
100
AcDbLine
 10
171.4043276935
 20
680.2325098057
 30
0.0
 11
171.4043276935
 21
627.4362055798
 31
0.0
  0
LINE
  5
68
330
1F
100
AcDbEntity
  8
0
  6
Continuous
 62
     7
370
    15
100
AcDbLine
 10
193.4703276112
 20
627.4362055798
 30
0.0
 11
193.4703276112
 21
680.2325098057
 31
0.0
  0
LINE
  5
69
330
1F
100
AcDbEntity
  8
0
  6
Continuous
 62
     7
370
    15
100
AcDbLine
 10
193.4703276112
 20
599.9924985905
 30
0.0
 11
193.4703276112
 21
610.9782753726
 31
0.0
  0
SPLINE
  5
6A
330
1F
100
AcDbEntity
  8
0
  6
Continuous
 62
     7
370
    15
100
AcDbSpline
210
0.0
220
0.0
230
1.0
 70
     8
 71
     3
 72
    18
 73
    14
 74
     0
 42
0.00000001
 43
0.00000001
 40
0.0
 40
0.0
 40
0.0
 40
0.0
 40
0.1578529136268826
 40
0.3134119357201245
 40
0.3981777292846911
 40
0.4181755345015904
 40
0.4253946323083003
 40
0.4308537880875721
 40
0.4378740984599922
 40
0.4505094020329498
 40
0.4822270844277612
 40
0.6041919150707417
 40
1.0
 40
1.0
 40
1.0
 40
1.0
 10
165.3277487113188
 20
488.4337986101593
 30
0.0
 10
165.3001490521607
 20
488.3790821563014
 30
0.0
 10
165.2453508073693
 20
488.2704443787316
 30
0.0
 10
165.1553427771325
 20
488.1436001386624
 30
0.0
 10
165.0932086416122
 20
488.0652540101347
 30
0.0
 10
165.0645437428292
 20
488.0315269903203
 30
0.0
 10
165.0577005596153
 20
488.0235917890685
 30
0.0
 10
165.0550022381311
 20
488.0204733821734
 30
0.0
 10
165.0529496428214
 20
488.0181157636479
 30
0.0
 10
165.0510122588632
 20
488.0158899110756
 30
0.0
 10
165.049680319899
 20
488.014376862907
 30
0.0
 10
165.053850469832
 20
488.0191596268319
 30
0.0
 10
165.0850292666416
 20
488.0543906755397
 30
0.0
 10
165.1088636918972
 20
488.0813228179898
 30
0.0
  0
LINE
  5
6B
330
1F
100
AcDbEntity
  8
0
  6
Continuous
 62
     7
370
    15
100
AcDbLine
 10
185.1885015695
 20
505.0659811338
 30
0.0
 11
181.2964110487
 21
505.0659811338
 31
0.0
  0
LINE
  5
6C
330
1F
100
AcDbEntity
  8
0
  6
Continuous
 62
     7
370
    15
100
AcDbLine
 10
158.3653282925
 20
509.4170941253
 30
0.0
 11
158.3653282925
 21
504.8653779765
 31
0.0
  0
LINE
  5
6D
330
1F
100
AcDbEntity
  8
0
  6
Continuous
 62
     7
370
    15
100
AcDbLine
 10
206.5093298062
 20
504.8653779765
 30
0.0
 11
206.5093298062
 21
517.0041805347
 31
0.0
  0
ARC
  5
6E
330
1F
100
AcDbEntity
  8
0
  6
Continuous
 62
     7
370
    15
100
AcDbCircle
 10
206.3087290493
 20
517.0041812846
 30
0.0
 40
0.2006000000000875
100
AcDbArc
 50
0.0
 51
51.9810574069
  0
LINE
  5
6F
330
1F
100
AcDbEntity
  8
0
  6
Continuous
 62
     7
370
    15
100
AcDbLine
 10
158.3653450563
 20
504.6057997485
 30
0.0
 11
158.3653450563
 21
420.5543993254
 31
0.0
  0
LINE
  5
70
330
1F
100
AcDbEntity
  8
0
  6
Continuous
 62
     7
370
    15
100
AcDbLine
 10
206.5093447073
 20
420.5543993254
 30
0.0
 11
206.5093447073
 21
504.6057997485
 31
0.0
  0
LINE
  5
71
330
1F
100
AcDbEntity
  8
0
  6
Continuous
 62
     7
370
    15
100
AcDbLine
 10
206.4322833522
 20
517.1622147997
 30
0.0
 11
195.6124412446
 21
525.6213655909
 31
0.0
  0
ARC
  5
72
330
1F
100
AcDbEntity
  8
0
  6
Continuous
 62
     7
370
    15
100
AcDbCircle
 10
195.3035560165
 20
525.2262793967
 30
0.0
 40
0.5015000000000036
100
AcDbArc
 50
51.9810574068
 51
90.0
  0
LINE
  5
73
330
1F
100
AcDbEntity
  8
0
  6
Continuous
 62
     7
370
    15
100
AcDbLine
 10
194.4231786384
 20
525.7277785083
 30
0.0
 11
194.4231786384
 21
525.8917210837
 31
0.0
  0
LINE
  5
74
330
1F
100
AcDbEntity
  8
0
  6
Continuous
 62
     7
370
    15
100
AcDbLine
 10
171.4043276935
 20
599.9924985905
 30
0.0
 11
171.4043276935
 21
532.244257464
 31
0.0
  0
LINE
  5
75
330
1F
100
AcDbEntity
  8
0
  6
Continuous
 62
     7
370
    15
100
AcDbLine
 10
193.4703276112
 20
525.8917210837
 30
0.0
 11
193.4703276112
 21
599.9924985905
 31
0.0
  0
ARC
  5
76
330
1F
100
AcDbEntity
  8
0
  6
Continuous
 62
     7
370
    15
100
AcDbCircle
 10
218.8800790751
 20
479.1960707771
 30
0.0
 40
0.5015000000000214
100
AcDbArc
 50
90.0
 51
180.0
  0
ARC
  5
77
330
1F
100
AcDbEntity
  8
0
  6
Continuous
 62
     7
370
    15
100
AcDbCircle
 10
218.8800790751
 20
472.1750707771
 30
0.0
 40
0.5015000000000214
100
AcDbArc
 50
180.0
 51
270.0
  0
ARC
  5
78
330
1F
100
AcDbEntity
  8
0
  6
Continuous
 62
     7
370
    15
100
AcDbCircle
 10
237.4355790751
 20
472.6765707771
 30
0.0
 40
1.0030000000001
100
AcDbArc
 50
270.0
 51
360.0
  0
ARC
  5
79
330
1F
100
AcDbEntity
  8
0
  6
Continuous
 62
     7
370
    15
100
AcDbCircle
 10
237.4355790751
 20
478.6945707771
 30
0.0
 40
1.002999999999986
100
AcDbArc
 50
0.0
 51
90.0
  0
LINE
  5
7A
330
1F
100
AcDbEntity
  8
0
  6
Continuous
 62
     7
370
    15
100
AcDbLine
 10
218.8800782516
 20
471.6735708741
 30
0.0
 11
237.4355778649
 21
471.6735708741
 31
0.0
  0
LINE
  5
7B
330
1F
100
AcDbEntity
  8
0
  6
Continuous
 62
     7
370
    15
100
AcDbLine
 10
237.4355778649
 20
479.6975700398
 30
0.0
 11
218.8800782516
 21
479.6975700398
 31
0.0
  0
LINE
  5
7C
330
1F
100
AcDbEntity
  8
0
  6
Continuous
 62
     7
370
    15
100
AcDbLine
 10
209.0146024331
 20
471.1543198888
 30
0.0
 11
206.5093447073
 21
464.271182175
 31
0.0
  0
LINE
  5
7D
330
1F
100
AcDbEntity
  8
0
  6
Continuous
 62
     7
370
    15
100
AcDbLine
 10
206.5093447073
 20
452.5408789729
 30
0.0
 11
212.7846483692
 21
469.7821352844
 31
0.0
  0
ARC
  5
7E
330
1F
100
AcDbEntity
  8
0
  6
Continuous
 62
     7
370
    15
100
AcDbCircle
 10
218.4397190902
 20
467.7238579106
 30
0.0
 40
6.018000000000027
100
AcDbArc
 50
90.5482319381
 51
160.0
  0
ARC
  5
7F
330
1F
100
AcDbEntity
  8
0
  6
Continuous
 62
     7
370
    15
100
AcDbCircle
 10
218.4397190902
 20
467.7238579106
 30
0.0
 40
10.03000000000001
100
AcDbArc
 50
90.3268847151
 51
160.0
  0
LWPOLYLINE
  5
80
330
1F
100
AcDbEntity
  8
0
  6
Continuous
 62
     7
370
    15
100
AcDbPolyline
 90
       36
 70
   128
 43
0.0
 10
193.4703294738
 20
610.9782753726
 10
193.2930242821
 20
611.6520611783
 10
192.766808401
 20
612.3041806956
 10
191.9085946485
 20
612.9136977931
 10
190.7459669366
 20
613.4610025426
 10
189.3162922553
 20
613.9285115739
 10
187.6655220605
 20
614.3012045165
 10
185.8467135663
 20
614.5670859357
 10
183.9183247267
 20
614.7176323672
 10
181.9423353501
 20
614.7479711314
 10
179.9822556405
 20
614.6571634551
 10
178.1010836913
 20
614.4481150647
 10
176.3592827684
 20
614.1275314828
 10
174.8128346718
 20
613.705739214
 10
173.5114440872
 20
613.196283414
 10
172.4969395055
 20
612.6155255576
 10
171.8019269957
 20
611.9821666022
 10
171.4487443297
 20
611.3165168305
 10
171.4487443297
 20
610.6400190135
 10
171.8019269957
 20
609.9743692418
 10
172.4969395055
 20
609.3410102864
 10
173.5114440872
 20
608.76025243
 10
174.8128346718
 20
608.25079663
 10
176.3592827684
 20
607.8290043612
 10
178.1010836913
 20
607.5084207793
 10
179.9822556405
 20
607.2993723889
 10
181.9423353501
 20
607.2085647126
 10
183.9183247267
 20
607.2389183779
 10
185.8467135663
 20
607.3894499083
 10
187.6655220605
 20
607.6553313275
 10
189.3162922553
 20
608.0280242701
 10
190.7459669366
 20
608.4955333014
 10
191.9085946485
 20
609.0428380509
 10
192.766808401
 20
609.6523551484
 10
193.2930242821
 20
610.3044895669
 10
193.4703294738
 20
610.9782753726
  0
LWPOLYLINE
  5
81
330
1F
100
AcDbEntity
  8
0
  6
Continuous
 62
     7
370
    15
100
AcDbPolyline
 90
       18
 70
   128
 43
0.0
 10
171.4051612272
 20
611.8383852978
 10
171.6147898315
 20
612.5255672475
 10
172.1872412219
 20
613.1881622811
 10
173.1033236339
 20
613.8039676686
 10
174.3323257743
 20
614.3523005982
 10
175.8330454669
 20
614.8148177405
 10
177.5551717348
 20
615.1759920855
 10
179.440971193
 20
615.4237238904
 10
181.4272222892
 20
615.5496983071
 10
183.4473369728
 20
615.5496983071
 10
185.4335914451
 20
615.4237387915
 10
187.3193969569
 20
615.1760069867
 10
189.0415330037
 20
614.8148475428
 10
190.5422652691
 20
614.3523304005
 10
191.7712813794
 20
613.8039974709
 10
192.6873796239
 20
613.1882069846
 10
193.2598487093
 20
612.5255970498
 10
193.4694959401
 20
611.8384151002
  0
LWPOLYLINE
  5
82
330
1F
100
AcDbEntity
  8
0
  6
Continuous
 62
     7
370
    15
100
AcDbPolyline
 90
       18
 70
   128
 43
0.0
 10
171.4051612272
 20
611.8383852978
 10
171.5708388566
 20
612.5378756066
 10
172.1123554363
 20
613.214775755
 10
173.0109820693
 20
613.8456760188
 10
174.2356386586
 20
614.4087461968
 10
175.7439663253
 20
614.8845253726
 10
177.4837979666
 20
615.2565477629
 10
179.3949568729
 20
615.5119536658
 10
181.4113426573
 20
615.6419066926
 10
183.46321416
 20
615.6419215937
 10
185.479603204
 20
615.511968567
 10
187.3907693281
 20
615.2565775653
 10
189.1306102826
 20
614.8845551749
 10
190.6389505222
 20
614.4087759991
 10
191.8636220126
 20
613.8457058211
 10
192.7622654094
 20
613.2148055573
 10
193.3037996843
 20
612.5379054089
 10
193.4694959401
 20
611.8384151002
  0
CIRCLE
  5
83
330
1F
100
AcDbEntity
  8
0
  6
Continuous
 62
     7
370
    15
100
AcDbCircle
 10
182.3735605533
 20
472.7807774266
 30
0.0
 40
23.06900000000001
  0
ARC
  5
84
330
1F
100
AcDbEntity
  8
0
  6
Continuous
 62
     7
370
    15
100
AcDbCircle
 10
163.5398295577
 20
489.3351183009
 30
0.0
 40
2.006000000000018
100
AcDbArc
 50
333.2380126031
 51
20.0
  0
LWPOLYLINE
  5
85
330
1F
100
AcDbEntity
  8
0
  6
Continuous
 62
     7
370
    15
100
AcDbPolyline
 90
        3
 70
   128
 43
0.0
 10
165.287526752
 20
488.3504396518
 10
165.2096942618
 20
488.2235488136
 10
165.0465284093
 20
488.0107714077
  0
ARC
  5
86
330
1F
100
AcDbEntity
  8
0
  6
Continuous
 62
     7
370
    15
100
AcDbCircle
 10
186.1601103252
 20
497.568227191
 30
0.0
 40
2.006000000000041
100
AcDbArc
 50
200.0
 51
261.3145979859
  0
LINE
  5
87
330
1F
100
AcDbEntity
  8
0
  6
Continuous
 62
     7
370
    15
100
AcDbLine
 10
165.4248521282
 20
490.0212099989
 30
0.0
 11
148.2491180851
 21
537.2111572166
 31
0.0
  0
LINE
  5
88
330
1F
100
AcDbEntity
  8
0
  6
Continuous
 62
     7
370
    15
100
AcDbLine
 10
167.0993505596
 20
544.0720839639
 30
0.0
 11
184.2750869311
 21
496.8821330209
 31
0.0
  0
LINE
  5
89
330
1F
100
AcDbEntity
  8
0
  6
Continuous
 62
     7
370
    15
100
AcDbLine
 10
151.2464438184
 20
543.6389444609
 30
0.0
 11
160.6715605213
 21
547.0694078346
 31
0.0
  0
ARC
  5
8A
330
1F
100
AcDbEntity
  8
0
  6
Continuous
 62
     7
370
    15
100
AcDbCircle
 10
162.3867923762
 20
542.3568507481
 30
0.0
 40
5.014999999999992
100
AcDbArc
 50
20.0
 51
110.0
  0
ARC
  5
8B
330
1F
100
AcDbEntity
  8
0
  6
Continuous
 62
     7
370
    15
100
AcDbCircle
 10
152.9616753897
 20
538.9263887105
 30
0.0
 40
5.015000000000089
100
AcDbArc
 50
110.0
 51
200.0
  0
ARC
  5
8C
330
1F
100
AcDbEntity
  8
0
  6
Continuous
 62
     7
370
    15
100
AcDbCircle
 10
182.4373448306
 20
472.7104005912
 30
0.0
 40
23.06900000000002
100
AcDbArc
 50
222.0688484161
 51
42.3047496464
  0
SPLINE
  5
8D
330
1F
100
AcDbEntity
  8
0
  6
Continuous
 62
     7
370
    15
100
AcDbSpline
210
0.0
220
0.0
230
1.0
 70
     8
 71
     3
 72
    25
 73
    21
 74
     0
 42
0.00000001
 43
0.00000001
 40
0.0
 40
0.0
 40
0.0
 40
0.0
 40
0.0341681256807121
 40
0.0860913294186263
 40
0.1385730806920551
 40
0.191819963501209
 40
0.295215562725935
 40
0.3476972517534548
 40
0.4009439984396672
 40
0.4525070337855557
 40
0.5044306777035577
 40
0.5569128862904338
 40
0.6101601559425638
 40
0.6617240437463989
 40
0.7136485612932107
 40
0.7661316318790022
 40
0.8193798080774254
 40
0.8707582872169553
 40
0.9752608255701456
 40
1.0
 40
1.0
 40
1.0
 40
1.0
 10
206.4431276722858
 20
504.7355963130678
 30
0.0
 10
206.443244126027
 20
504.735434435868
 30
0.0
 10
206.4435375473719
 20
504.7350265638215
 30
0.0
 10
206.252233345932
 20
504.7343837832393
 30
0.0
 10
205.8895395317978
 20
504.7336477402162
 30
0.0
 10
205.1756097717411
 20
504.732704491862
 30
0.0
 10
204.1363668717327
 20
504.7317848645911
 30
0.0
 10
202.7960417560186
 20
504.7309359960706
 30
0.0
 10
201.6411344987058
 20
504.7303236314983
 30
0.0
 10
200.3538534788704
 20
504.7297595062747
 30
0.0
 10
198.9475633498577
 20
504.7292310945057
 30
0.0
 10
197.4083513104048
 20
504.7287457015558
 30
0.0
 10
195.764725462267
 20
504.7283134806424
 30
0.0
 10
194.0323041711504
 20
504.7279305401361
 30
0.0
 10
192.2271979729042
 20
504.7276066552611
 30
0.0
 10
190.3328463393638
 20
504.7273337682089
 30
0.0
 10
188.387821172876
 20
504.7271203393345
 30
0.0
 10
185.7442905751429
 20
504.7269205810243
 30
0.0
 10
183.4049761674921
 20
504.7268375620008
 30
0.0
 10
181.7387753201171
 20
504.7268693279152
 30
0.0
 10
181.419834689335
 20
504.7268754084791
 30
0.0
  0
SPLINE
  5
8E
330
1F
100
AcDbEntity
  8
0
  6
Continuous
 62
     7
370
    15
100
AcDbSpline
210
0.0
220
0.0
230
1.0
 70
     8
 71
     3
 72
    12
 73
     8
 74
     0
 42
0.00000001
 43
0.00000001
 40
0.0
 40
0.0
 40
0.0
 40
0.0
 40
0.185219114022658
 40
0.4127477496889452
 40
0.6435935449040511
 40
0.8671338029693555
 40
1.0
 40
1.0
 40
1.0
 40
1.0
 10
160.0704178764532
 20
504.7324000139918
 30
0.0
 10
159.8754154017452
 20
504.7325876169525
 30
0.0
 10
159.4408661218601
 20
504.7330056769366
 30
0.0
 10
158.9567542473366
 20
504.7336841538367
 30
0.0
 10
158.603491934199
 20
504.7344082031327
 30
0.0
 10
158.4254681330647
 20
504.7350475703994
 30
0.0
 10
158.4312084224381
 20
504.735433728998
 30
0.0
 10
158.4333483680199
 20
504.7355776866164
 30
0.0
  0
LINE
  5
8F
330
1F
100
AcDbEntity
  8
0
  6
Continuous
 62
     7
370
    15
100
AcDbLine
 10
159.0890124991
 20
504.7375744422
 30
0.0
 11
159.1456406369
 21
504.7376452227
 31
0.0
  0
SPLINE
  5
90
330
1F
100
AcDbEntity
  8
0
  6
Continuous
 62
     7
370
    15
100
AcDbSpline
210
0.0
220
0.0
230
1.0
 70
     8
 71
     3
 72
    16
 73
    12
 74
     0
 42
0.00000001
 43
0.00000001
 40
0.0
 40
0.0
 40
0.0
 40
0.0
 40
0.028831339438016
 40
0.1214930787102931
 40
0.3099647555609877
 40
0.4060001726199997
 40
0.4986619593782589
 40
0.6871338454129668
 40
0.7831693658981673
 40
0.89107448074039
 40
1.0
 40
1.0
 40
1.0
 40
1.0
 10
181.4134911020334
 20
504.7443060417856
 30
0.0
 10
181.6194368461092
 20
504.7443102729143
 30
0.0
 10
182.4872765990577
 20
504.7443281025694
 30
0.0
 10
184.7090652142801
 20
504.7443048421655
 30
0.0
 10
187.39248281964
 20
504.7441565582513
 30
0.0
 10
189.9916561955661
 20
504.7438944087219
 30
0.0
 10
192.5187072809673
 20
504.7435496488536
 30
0.0
 10
194.9183714301316
 20
504.743091431091
 30
0.0
 10
197.2119906563474
 20
504.742499831063
 30
0.0
 10
198.9282262714274
 20
504.7419778328986
 30
0.0
 10
199.9837420542257
 20
504.7415636685645
 30
0.0
 10
200.5139835729311
 20
504.7413556118693
 30
0.0
  0
LINE
  5
91
330
1F
100
AcDbEntity
  8
0
  6
Continuous
 62
     7
370
    15
100
AcDbLine
 10
158.3653450563
 20
420.5543993254
 30
0.0
 11
206.5093447073
 21
420.5543993254
 31
0.0
  0
LINE
  5
92
330
1F
100
AcDbEntity
  8
0
  6
Continuous
 62
     7
370
    15
100
AcDbLine
 10
173.7761306196
 20
525.7277785083
 30
0.0
 11
195.3035560056
 21
525.7277785083
 31
0.0
  0
LINE
  5
93
330
1F
100
AcDbEntity
  8
0
  6
Continuous
 62
     7
370
    15
100
AcDbLine
 10
181.5900423882
 20
525.8917210837
 30
0.0
 11
173.7164607822
 21
525.8917210837
 31
0.0
  0
LINE
  5
94
330
1F
100
AcDbEntity
  8
0
  6
Continuous
 62
     7
370
    15
100
AcDbLine
 10
194.4231786384
 20
525.8917210837
 30
0.0
 11
181.5900423882
 21
525.8917210837
 31
0.0
  0
LINE
  5
95
330
1F
100
AcDbEntity
  8
0
  6
Continuous
 62
     7
370
    15
100
AcDbLine
 10
218.3785796716
 20
472.175070851
 30
0.0
 11
218.3785796716
 21
479.1960705285
 31
0.0
  0
LINE
  5
96
330
1F
100
AcDbEntity
  8
0
  6
Continuous
 62
     7
370
    15
100
AcDbLine
 10
238.4385787501
 20
478.6945710172
 30
0.0
 11
238.4385787501
 21
472.6765703623
 31
0.0
  0
LWPOLYLINE
  5
97
330
1F
100
AcDbEntity
  8
0
  6
Continuous
 62
     8
370
     0
100
AcDbPolyline
 90
       19
 70
   128
 43
0.0
 10
171.4043276935
 20
627.4362055798
 10
171.5816328852
 20
628.1099913855
 10
172.1078487664
 20
628.7621109029
 10
172.9660625189
 20
629.3716280003
 10
174.1286902308
 20
629.9189327498
 10
175.558364912
 20
630.3864417811
 10
177.2091351069
 20
630.7591347237
 10
179.0279433682
 20
631.0250161429
 10
180.9563322078
 20
631.1755625745
 10
182.9323215262
 20
631.2059013386
 10
184.8924012939
 20
631.1150936623
 10
186.7735730103
 20
630.9060452719
 10
188.5153743989
 20
630.58546169
 10
190.0618220299
 20
630.1636694213
 10
191.3632121488
 20
629.6542136212
 10
192.3777176618
 20
629.0734557648
 10
193.0727301716
 20
628.4400968095
 10
193.4259119063
 20
627.7744470378
 10
193.4703276112
 20
627.4362055798
  0
LINE
  5
98
330
1F
100
AcDbEntity
  8
0
  6
Continuous
 62
     8
370
     0
100
AcDbLine
 10
193.4703276112
 20
599.9924985905
 30
0.0
 11
171.4043276935
 21
599.9924985905
 31
0.0
  0
CIRCLE
  5
99
330
1F
100
AcDbEntity
  8
0
  6
Continuous
 62
     8
370
     0
100
AcDbCircle
 10
182.3735605533
 20
472.7807774266
 30
0.0
 40
21.5645
  0
SPLINE
  5
9A
330
1F
100
AcDbEntity
  8
0
  6
Continuous
 62
     8
370
     0
100
AcDbSpline
210
0.0
220
0.0
230
1.0
 70
     8
 71
     3
 72
    16
 73
    12
 74
     0
 42
0.00000001
 43
0.00000001
 40
0.0
 40
0.0
 40
0.0
 40
0.0
 40
0.1250000000000051
 40
0.1250000000000051
 40
0.2500000000000101
 40
0.2500000000000101
 40
0.5000000000000068
 40
0.5000000000000068
 40
0.7500000000000034
 40
0.7500000000000034
 40
1.0
 40
1.0
 40
1.0
 40
1.0
 10
165.4248529549514
 20
490.0212107084224
 30
0.0
 10
165.4248529549514
 20
490.0212107084224
 30
0.0
 10
165.4297417189263
 20
490.0457704813585
 30
0.0
 10
165.4463028977821
 20
490.1261917302647
 30
0.0
 10
165.4581014075203
 20
490.1824491193498
 30
0.0
 10
165.4994584362222
 20
490.3711472196119
 30
0.0
 10
165.5343873198825
 20
490.5208463663403
 30
0.0
 10
165.6163200253057
 20
490.837268261253
 30
0.0
 10
165.6627115739417
 20
491.0021005044926
 30
0.0
 10
165.7678308548172
 20
491.338679200877
 30
0.0
 10
165.825565161278
 20
491.5073878325057
 30
0.0
 10
165.8898116182524
 20
491.6763230933867
 30
0.0
  0
SPLINE
  5
9B
330
1F
100
AcDbEntity
  8
0
  6
Continuous
 62
     8
370
     0
100
AcDbSpline
210
0.0
220
0.0
230
1.0
 70
     8
 71
     3
 72
    18
 73
    14
 74
     0
 42
0.00000001
 43
0.00000001
 40
0.0
 40
0.0
 40
0.0
 40
0.0
 40
0.2500000000000016
 40
0.2500000000000016
 40
0.5000000000000031
 40
0.5000000000000031
 40
0.6250000000000023
 40
0.6250000000000023
 40
0.7500000000000016
 40
0.7500000000000016
 40
0.8750000000000008
 40
0.8750000000000008
 40
1.0
 40
1.0
 40
1.0
 40
1.0
 10
182.8550221939212
 20
497.8511547609883
 30
0.0
 10
183.012746835447
 20
497.7630846149075
 30
0.0
 10
183.1660559694813
 20
497.6705666330333
 30
0.0
 10
183.4627325753212
 20
497.4804049511669
 30
0.0
 10
183.6045552414432
 20
497.3837190427932
 30
0.0
 10
183.8040911327566
 20
497.2414598858264
 30
0.0
 10
183.8677577916178
 20
497.1949651939818
 30
0.0
 10
183.9883386366055
 20
497.1052240468302
 30
0.0
 10
184.0456291656614
 20
497.061668837952
 30
0.0
 10
184.1461760311594
 20
496.9841164617725
 30
0.0
 10
184.1907560001507
 20
496.9490978604388
 30
0.0
 10
184.255657253116
 20
496.8977262525586
 30
0.0
 10
184.2750869279168
 20
496.8821347835352
 30
0.0
 10
184.2750869279168
 20
496.8821347835352
 30
0.0
  0
LINE
  5
9C
330
1F
100
AcDbEntity
  8
0
  6
Continuous
 62
     8
370
     0
100
AcDbLine
 10
149.1916277065
 20
537.554204299
 30
0.0
 11
165.8898111983
 21
491.6763229509
 31
0.0
  0
LINE
  5
9D
330
1F
100
AcDbEntity
  8
0
  6
Continuous
 62
     8
370
     0
100
AcDbLine
 10
182.8550221891
 20
497.8511555334
 30
0.0
 11
166.1568400069
 21
543.7290368815
 31
0.0
  0
ARC
  5
9E
330
1F
100
AcDbEntity
  8
0
  6
Continuous
 62
     8
370
     0
100
AcDbCircle
 10
152.9616753897
 20
538.9263887105
 30
0.0
 40
4.012000000000143
100
AcDbArc
 50
110.0
 51
200.0
  0
LINE
  5
9F
330
1F
100
AcDbEntity
  8
0
  6
Continuous
 62
     8
370
     0
100
AcDbLine
 10
161.0146076038
 20
546.1268944879
 30
0.0
 11
151.5894909008
 21
542.6964385648
 31
0.0
  0
ARC
  5
A0
330
1F
100
AcDbEntity
  8
0
  6
Continuous
 62
     8
370
     0
100
AcDbCircle
 10
162.3867923762
 20
542.3568507481
 30
0.0
 40
4.012000000000026
100
AcDbArc
 50
20.0
 51
110.0
  0
SPLINE
  5
A1
330
1F
100
AcDbEntity
  8
0
  6
Continuous
 62
     8
370
     0
100
AcDbSpline
210
0.0
220
0.0
230
1.0
 70
     8
 71
     3
 72
    13
 73
     9
 74
     0
 42
0.00000001
 43
0.00000001
 40
0.0
 40
0.0
 40
0.0
 40
0.0
 40
0.0439083384628163
 40
0.1679909556695713
 40
0.3265620636117347
 40
0.488485398976034
 40
0.7889534423901836
 40
1.0
 40
1.0
 40
1.0
 40
1.0
 10
159.167744646878
 20
472.7104006548609
 30
0.0
 10
159.1705389692865
 20
473.0420096895505
 30
0.0
 10
159.1812298974399
 20
474.3107281288359
 30
0.0
 10
159.3494320320844
 20
476.7237975797502
 30
0.0
 10
159.8045437914163
 20
479.7369697705269
 30
0.0
 10
160.7899457836432
 20
483.661737918277
 30
0.0
 10
162.2487061135649
 20
487.6975173067004
 30
0.0
 10
164.1031165235538
 20
490.4251288128992
 30
0.0
 10
164.8682304277132
 20
491.5505180348839
 30
0.0
  0
LWPOLYLINE
  5
A2
330
1F
100
AcDbEntity
  8
0
  6
Continuous
 62
     8
370
     0
100
AcDbPolyline
 90
       39
 70
   128
 43
0.0
 10
182.5004136318
 20
501.7580090304
 10
183.1052348917
 20
501.7854159911
 10
183.7532303381
 20
501.750856473
 10
186.5546959071
 20
501.3384482105
 10
189.3080863721
 20
500.5005521913
 10
191.9153998225
 20
499.2752036293
 10
194.3203867032
 20
497.7187624415
 10
197.5140426858
 20
494.8663616766
 10
200.173285286
 20
491.5398432155
 10
202.8977893843
 20
486.5648055663
 10
204.7393661543
 20
481.0108298649
 10
205.4681372448
 20
476.8668933054
 10
205.6278218134
 20
475.1070205336
 10
205.703169535
 20
473.2343338643
 10
205.6373157158
 20
470.4619062347
 10
205.4689717098
 20
468.561149503
 10
205.2076649471
 20
466.7173256845
 10
204.0124577089
 20
461.8139591281
 10
202.1157447799
 20
457.1864831475
 10
199.5070729955
 20
452.9422650327
 10
195.9669519766
 20
449.0452882116
 10
193.3593791529
 20
447.0265226652
 10
190.2976664334
 20
445.3331286301
 10
187.9212390251
 20
444.4426743527
 10
185.3326106994
 20
443.8494274606
 10
183.4932813273
 20
443.6533635696
 10
180.53889329
 20
443.7203647782
 10
177.5402924596
 20
444.2748053213
 10
174.8888464264
 20
445.1963564594
 10
172.3899305417
 20
446.4745780667
 10
169.2148563071
 20
448.7755902325
 10
166.4752722337
 20
451.5456257601
 10
163.4712223514
 20
455.858080483
 10
161.2502713307
 20
460.6829437641
 10
159.92519861
 20
465.3494413457
 10
159.4789125576
 20
467.9695128677
 10
159.2156649186
 20
470.8446495448
 10
159.1677446469
 20
472.7104006549
 10
159.1677446469
 20
472.7104006549
  0
LINE
  5
A3
330
1F
100
AcDbEntity
  8
0
  6
Continuous
 62
     8
370
     0
100
AcDbLine
 10
206.5093447073
 20
504.6057997485
 30
0.0
 11
181.4639024871
 21
504.6057997485
 31
0.0
  0
LINE
  5
A4
330
1F
100
AcDbEntity
  8
0
  6
Continuous
 62
     8
370
     0
100
AcDbLine
 10
160.1164959922
 20
504.6057997485
 30
0.0
 11
158.3653450563
 21
504.6057997485
 31
0.0
  0
LINE
  5
A5
330
1F
100
AcDbEntity
  8
0
  6
Continuous
 62
     8
370
     0
100
AcDbLine
 10
176.9512607335
 20
517.0041805347
 30
0.0
 11
206.5093298062
 21
517.0041805347
 31
0.0
  0
LINE
  5
A6
330
1F
100
AcDbEntity
  8
0
  6
Continuous
 62
     8
370
     0
100
AcDbLine
 10
176.89374132
 20
517.1622147997
 30
0.0
 11
206.4322833522
 21
517.1622147997
 31
0.0
  0
LINE
  5
A7
330
1F
100
AcDbEntity
  8
0
  6
Continuous
 62
     7
370
    15
100
AcDbLine
 10
316.4884985575
 20
517.0041805347
 30
0.0
 11
316.4884985575
 21
504.8653779765
 31
0.0
  0
LINE
  5
A8
330
1F
100
AcDbEntity
  8
0
  6
Continuous
 62
     7
370
    15
100
AcDbLine
 10
364.6324982085
 20
504.8653779765
 30
0.0
 11
364.6324982085
 21
517.0041805347
 31
0.0
  0
ARC
  5
A9
330
1F
100
AcDbEntity
  8
0
  6
Continuous
 62
     7
370
    15
100
AcDbCircle
 10
316.6890977497
 20
517.0041812846
 30
0.0
 40
0.200600000000105
100
AcDbArc
 50
128.0189425932
 51
180.0
  0
ARC
  5
AA
330
1F
100
AcDbEntity
  8
0
  6
Continuous
 62
     7
370
    15
100
AcDbCircle
 10
364.4318977497
 20
517.0041812846
 30
0.0
 40
0.200600000000105
100
AcDbArc
 50
0.0
 51
51.9810574068
  0
LINE
  5
AB
330
1F
100
AcDbEntity
  8
0
  6
Continuous
 62
     7
370
    15
100
AcDbLine
 10
316.4736420998
 20
504.6057997485
 30
0.0
 11
316.4736420998
 21
420.5543993254
 31
0.0
  0
LINE
  5
AC
330
1F
100
AcDbEntity
  8
0
  6
Continuous
 62
     7
370
    15
100
AcDbLine
 10
364.6176417508
 20
501.7820855816
 30
0.0
 11
364.6176417508
 21
504.6057997485
 31
0.0
  0
LINE
  5
AD
330
1F
100
AcDbEntity
  8
0
  6
Continuous
 62
     7
370
    15
100
AcDbLine
 10
364.6176417508
 20
420.5543993254
 30
0.0
 11
364.6176417508
 21
443.6351990541
 31
0.0
  0
SPLINE
  5
AE
330
1F
100
AcDbEntity
  8
0
  6
Continuous
 62
     7
370
    15
100
AcDbSpline
210
0.0
220
0.0
230
1.0
 70
     8
 71
     3
 72
    16
 73
    12
 74
     0
 42
0.00000001
 43
0.00000001
 40
0.0
 40
0.0
 40
0.0
 40
0.0
 40
0.0533957948685937
 40
0.1807510851606265
 40
0.3155030092497539
 40
0.4534250706715527
 40
0.6055321794199537
 40
0.7427935454808269
 40
0.8681472128953626
 40
0.983687262143178
 40
1.0
 40
1.0
 40
1.0
 40
1.0
 10
364.64460540202
 20
443.6368512203182
 30
0.0
 10
364.6378038193654
 20
443.8045483500267
 30
0.0
 10
364.6147796570946
 20
444.3722229814788
 30
0.0
 10
364.8332883051879
 20
445.3518489285233
 30
0.0
 10
365.3023797477426
 20
446.5210116203085
 30
0.0
 10
366.0687300865388
 20
447.6266456683039
 30
0.0
 10
367.0679956828823
 20
448.5373928827176
 30
0.0
 10
368.2111549494633
 20
449.1849377015231
 30
0.0
 10
369.3489168096912
 20
449.5302061102836
 30
0.0
 10
370.1559916081256
 20
449.6632289627789
 30
0.0
 10
370.5690071473596
 20
449.6363068276345
 30
0.0
 10
370.6201051512036
 20
449.6329760392393
 30
0.0
  0
SPLINE
  5
AF
330
1F
100
AcDbEntity
  8
0
  6
Continuous
 62
     7
370
    15
100
AcDbSpline
210
0.0
220
0.0
230
1.0
 70
     8
 71
     3
 72
    16
 73
    12
 74
     0
 42
0.00000001
 43
0.00000001
 40
0.0
 40
0.0
 40
0.0
 40
0.0
 40
0.0215729822976276
 40
0.1475601882998182
 40
0.2817142060061186
 40
0.4192968526784834
 40
0.5727259583594516
 40
0.7110112160126704
 40
0.8371182390533564
 40
0.9533192291670948
 40
1.0
 40
1.0
 40
1.0
 40
1.0
 10
370.6297294386897
 20
495.7932753701891
 30
0.0
 10
370.5621429230105
 20
495.7877521741992
 30
0.0
 10
370.0998480560993
 20
495.7499732603223
 30
0.0
 10
369.2152129144507
 20
495.9167170743468
 30
0.0
 10
368.0283228387888
 20
496.3135685117338
 30
0.0
 10
366.8807793972855
 20
497.0222207407717
 30
0.0
 10
365.9119943185096
 20
497.9766560056278
 30
0.0
 10
365.2025827761307
 20
499.0950347422076
 30
0.0
 10
364.792742690864
 20
500.2224712503072
 30
0.0
 10
364.6150390649431
 20
501.1226649033241
 30
0.0
 10
364.6305042091394
 20
501.634635648738
 30
0.0
 10
364.6349364110503
 20
501.7813628752913
 30
0.0
  0
LINE
  5
B0
330
1F
100
AcDbEntity
  8
0
  6
Continuous
 62
     7
370
    15
100
AcDbLine
 10
364.5554517546
 20
517.1622147997
 30
0.0
 11
353.735609647
 21
525.6213655909
 31
0.0
  0
LINE
  5
B1
330
1F
100
AcDbEntity
  8
0
  6
Continuous
 62
     7
370
    15
100
AcDbLine
 10
327.3853861877
 20
525.6213655909
 30
0.0
 11
316.5655450114
 21
517.1622147997
 31
0.0
  0
LINE
  5
B2
330
1F
100
AcDbEntity
  8
0
  6
Continuous
 62
     7
370
    15
100
AcDbLine
 10
409.2699938604
 20
495.8497768481
 30
0.0
 11
401.2121350655
 21
495.8497768481
 31
0.0
  0
LINE
  5
B3
330
1F
100
AcDbEntity
  8
0
  6
Continuous
 62
     7
370
    15
100
AcDbLine
 10
396.3119180092
 20
495.8497768481
 30
0.0
 11
387.2039967367
 21
495.8497768481
 31
0.0
  0
LINE
  5
B4
330
1F
100
AcDbEntity
  8
0
  6
Continuous
 62
     7
370
    15
100
AcDbLine
 10
420.8044947275
 20
495.8497768481
 30
0.0
 11
419.2999989876
 21
495.8497768481
 31
0.0
  0
LINE
  5
B5
330
1F
100
AcDbEntity
  8
0
  6
Continuous
 62
     7
370
    15
100
AcDbLine
 10
391.0263718256
 20
449.7117771049
 30
0.0
 11
420.8044947275
 21
449.7117771049
 31
0.0
  0
ARC
  5
B6
330
1F
100
AcDbEntity
  8
0
  6
Continuous
 62
     7
370
    15
100
AcDbCircle
 10
420.8044956716
 20
494.3452774266
 30
0.0
 40
1.504500000000007
100
AcDbArc
 50
0.0
 51
90.0
  0
ARC
  5
B7
330
1F
100
AcDbEntity
  8
0
  6
Continuous
 62
     7
370
    15
100
AcDbCircle
 10
420.8044956716
 20
451.2162774266
 30
0.0
 40
1.504500000000007
100
AcDbArc
 50
270.0
 51
0.0
  0
ARC
  5
B8
330
1F
100
AcDbEntity
  8
0
  6
Continuous
 62
     7
370
    15
100
AcDbCircle
 10
379.1611409541
 20
450.1429005912
 30
0.0
 40
0.5015000000000214
100
AcDbArc
 50
270.0
 51
0.0
  0
ARC
  5
B9
330
1F
100
AcDbEntity
  8
0
  6
Continuous
 62
     7
370
    15
100
AcDbCircle
 10
379.1611409541
 20
495.2779005912
 30
0.0
 40
0.5014999999999645
100
AcDbArc
 50
0.0
 51
90.0
  0
LINE
  5
BA
330
1F
100
AcDbEntity
  8
0
  6
Continuous
 62
     7
370
    15
100
AcDbLine
 10
370.6221317091
 20
449.6414007832
 30
0.0
 11
379.1611415484
 21
449.6414007832
 31
0.0
  0
LINE
  5
BB
330
1F
100
AcDbEntity
  8
0
  6
Continuous
 62
     7
370
    15
100
AcDbLine
 10
379.1611415484
 20
495.7794023891
 30
0.0
 11
370.6336130538
 21
495.7794023891
 31
0.0
  0
LINE
  5
BC
330
1F
100
AcDbEntity
  8
0
  6
Continuous
 62
     7
370
    15
100
AcDbLine
 10
381.5436677226
 20
494.7515761693
 30
0.0
 11
379.662641991
 21
494.7515761693
 31
0.0
  0
LINE
  5
BD
330
1F
100
AcDbEntity
  8
0
  6
Continuous
 62
     7
370
    15
100
AcDbLine
 10
379.662641991
 20
450.6195754026
 30
0.0
 11
381.5436677226
 21
450.6195754026
 31
0.0
  0
ARC
  5
BE
330
1F
100
AcDbEntity
  8
0
  6
Continuous
 62
     7
370
    15
100
AcDbCircle
 10
381.6173547906
 20
472.6854537953
 30
0.0
 40
22.066
100
AcDbArc
 50
269.8025069223
 51
292.2380204644
  0
ARC
  5
BF
330
1F
100
AcDbEntity
  8
0
  6
Continuous
 62
     7
370
    15
100
AcDbCircle
 10
381.6173547906
 20
472.6854537953
 30
0.0
 40
22.066
100
AcDbArc
 50
75.3343095059
 51
90.2007635092
  0
LINE
  5
C0
330
1F
100
AcDbEntity
  8
0
  6
Continuous
 62
     7
370
    15
100
AcDbLine
 10
416.2909926065
 20
547.3718492528
 30
0.0
 11
412.2789965161
 21
547.3718492528
 31
0.0
  0
ARC
  5
C1
330
1F
100
AcDbEntity
  8
0
  6
Continuous
 62
     7
370
    15
100
AcDbCircle
 10
416.2909956716
 20
546.3688507481
 30
0.0
 40
1.003000000000043
100
AcDbArc
 50
0.0
 51
90.0
  0
ARC
  5
C2
330
1F
100
AcDbEntity
  8
0
  6
Continuous
 62
     7
370
    15
100
AcDbCircle
 10
412.2789956716
 20
546.3688507481
 30
0.0
 40
1.003000000000043
100
AcDbArc
 50
90.0
 51
180.0
  0
ARC
  5
C3
330
1F
100
AcDbEntity
  8
0
  6
Continuous
 62
     7
370
    15
100
AcDbCircle
 10
419.2999956716
 20
497.8557774266
 30
0.0
 40
2.006000000000029
100
AcDbArc
 50
180.0
 51
270.0
  0
ARC
  5
C4
330
1F
100
AcDbEntity
  8
0
  6
Continuous
 62
     7
370
    15
100
AcDbCircle
 10
409.2699956716
 20
497.8557774266
 30
0.0
 40
2.006000000000085
100
AcDbArc
 50
270.0
 51
0.0
  0
ARC
  5
C5
330
1F
100
AcDbEntity
  8
0
  6
Continuous
 62
     7
370
    15
100
AcDbCircle
 10
327.6942707825
 20
525.2262793967
 30
0.0
 40
0.501500000000021
100
AcDbArc
 50
90.0
 51
128.0189425932
  0
ARC
  5
C6
330
1F
100
AcDbEntity
  8
0
  6
Continuous
 62
     7
370
    15
100
AcDbCircle
 10
353.4267247169
 20
525.2262793967
 30
0.0
 40
0.501500000000021
100
AcDbArc
 50
51.9810574068
 51
90.0
  0
LINE
  5
C7
330
1F
100
AcDbEntity
  8
0
  6
Continuous
 62
     7
370
    15
100
AcDbLine
 10
352.5463479721
 20
525.7277785083
 30
0.0
 11
352.5463479721
 21
525.8917210837
 31
0.0
  0
LINE
  5
C8
330
1F
100
AcDbEntity
  8
0
  6
Continuous
 62
     7
370
    15
100
AcDbLine
 10
328.5746478626
 20
525.8917210837
 30
0.0
 11
328.5746478626
 21
525.7277785083
 31
0.0
  0
ARC
  5
C9
330
1F
100
AcDbEntity
  8
0
  6
Continuous
 62
     7
370
    15
100
AcDbCircle
 10
420.627448651
 20
599.9925028538
 30
0.0
 40
69.20700000000022
100
AcDbArc
 50
20.0
 51
180.0
  0
ARC
  5
CA
330
1F
100
AcDbEntity
  8
0
  6
Continuous
 62
     7
370
    15
100
AcDbCircle
 10
420.627448651
 20
599.9925028538
 30
0.0
 40
91.27300000000021
100
AcDbArc
 50
20.0
 51
180.0
  0
LINE
  5
CB
330
1F
100
AcDbEntity
  8
0
  6
Continuous
 62
     7
370
    15
100
AcDbLine
 10
512.0562703499
 20
615.6582681676
 30
0.0
 11
506.3960195669
 21
631.2097011347
 31
0.0
  0
LINE
  5
CC
330
1F
100
AcDbEntity
  8
0
  6
Continuous
 62
     7
370
    15
100
AcDbLine
 10
485.6607557425
 20
623.6626951237
 30
0.0
 11
491.2741572746
 21
608.2399932881
 31
0.0
  0
LINE
  5
CD
330
1F
100
AcDbEntity
  8
0
  6
Continuous
 62
     7
370
    15
100
AcDbLine
 10
329.3544479796
 20
599.9924985905
 30
0.0
 11
329.3544479796
 21
525.8917210837
 31
0.0
  0
LINE
  5
CE
330
1F
100
AcDbEntity
  8
0
  6
Continuous
 62
     7
370
    15
100
AcDbLine
 10
351.4204485958
 20
525.8917210837
 30
0.0
 11
351.4204485958
 21
599.9924985905
 31
0.0
  0
LINE
  5
CF
330
1F
100
AcDbEntity
  8
0
  6
Continuous
 62
     7
370
    15
100
AcDbLine
 10
512.0977253803
 20
614.7517709275
 30
0.0
 11
511.8015349993
 21
615.5655531426
 31
0.0
  0
LINE
  5
D0
330
1F
100
AcDbEntity
  8
0
  6
Continuous
 62
     7
370
    15
100
AcDbLine
 10
491.019421924
 20
608.1472782632
 30
0.0
 11
491.362476457
 21
607.2047649165
 31
0.0
  0
SPLINE
  5
D1
330
1F
100
AcDbEntity
  8
0
  6
Continuous
 62
     7
370
    15
100
AcDbSpline
210
0.0
220
0.0
230
1.0
 70
     8
 71
     3
 72
    13
 73
     9
 74
     0
 42
0.00000001
 43
0.00000001
 40
0.0
 40
0.0
 40
0.0
 40
0.0
 40
0.0206339201046492
 40
0.2574900775072679
 40
0.4977315472407616
 40
0.7509450030710848
 40
0.9382333055770747
 40
1.0
 40
1.0
 40
1.0
 40
1.0
 10
398.7398610600505
 20
496.3922983248915
 30
0.0
 10
398.7127024524619
 20
496.3937704545612
 30
0.0
 10
398.3737909931988
 20
496.4121411170826
 30
0.0
 10
397.7085780793633
 20
496.336057392063
 30
0.0
 10
396.8619392197131
 20
496.155037121345
 30
0.0
 10
396.2574493033483
 20
495.8718928960103
 30
0.0
 10
395.9163990125809
 20
495.5433530916936
 30
0.0
 10
395.8233038530641
 20
495.3182424459583
 30
0.0
 10
395.8002158590827
 20
495.2624140520777
 30
0.0
  0
SPLINE
  5
D2
330
1F
100
AcDbEntity
  8
0
  6
Continuous
 62
     7
370
    15
100
AcDbSpline
210
0.0
220
0.0
230
1.0
 70
     8
 71
     3
 72
    12
 73
     8
 74
     0
 42
0.00000001
 43
0.00000001
 40
0.0
 40
0.0
 40
0.0
 40
0.0
 40
0.1470351976386611
 40
0.3147440290416214
 40
0.5377799119938923
 40
0.7839574364499213
 40
1.0
 40
1.0
 40
1.0
 40
1.0
 10
401.7207824775252
 20
495.2624140520777
 30
0.0
 10
401.6551333832603
 20
495.3907362130118
 30
0.0
 10
401.5146047155419
 20
495.6654230539609
 30
0.0
 10
401.0981734908661
 20
495.9564482777092
 30
0.0
 10
400.4899248432433
 20
496.20176749505
 30
0.0
 10
399.6559259286272
 20
496.3700353596681
 30
0.0
 10
399.0316492075054
 20
496.3852070482776
 30
0.0
 10
398.7398610600505
 20
496.3922983248915
 30
0.0
  0
LINE
  5
D3
330
1F
100
AcDbEntity
  8
0
  6
Continuous
 62
     7
370
    15
100
AcDbLine
 10
417.2939972171
 20
542.6964385648
 30
0.0
 11
417.2939972171
 21
537.554204299
 31
0.0
  0
LINE
  5
D4
330
1F
100
AcDbEntity
  8
0
  6
Continuous
 62
     7
370
    15
100
AcDbLine
 10
411.2759993562
 20
537.554204299
 30
0.0
 11
411.2759993562
 21
542.6964385648
 31
0.0
  0
LINE
  5
D5
330
1F
100
AcDbEntity
  8
0
  6
Continuous
 62
     7
370
    15
100
AcDbLine
 10
417.2939972171
 20
537.554204299
 30
0.0
 11
417.2939972171
 21
491.6763229509
 31
0.0
  0
LINE
  5
D6
330
1F
100
AcDbEntity
  8
0
  6
Continuous
 62
     7
370
    15
100
AcDbLine
 10
411.2759993562
 20
491.6763229509
 30
0.0
 11
411.2759993562
 21
537.554204299
 31
0.0
  0
LINE
  5
D7
330
1F
100
AcDbEntity
  8
0
  6
Continuous
 62
     7
370
    15
100
AcDbLine
 10
417.2939972171
 20
546.1268944879
 30
0.0
 11
417.2939972171
 21
542.6964385648
 31
0.0
  0
LINE
  5
D8
330
1F
100
AcDbEntity
  8
0
  6
Continuous
 62
     7
370
    15
100
AcDbLine
 10
411.2759993562
 20
542.6964385648
 30
0.0
 11
411.2759993562
 21
546.1268944879
 31
0.0
  0
SPLINE
  5
D9
330
1F
100
AcDbEntity
  8
0
  6
Continuous
 62
     7
370
    15
100
AcDbSpline
210
0.0
220
0.0
230
1.0
 70
     8
 71
     3
 72
    23
 73
    19
 74
     0
 42
0.00000001
 43
0.00000001
 40
0.0
 40
0.0
 40
0.0
 40
0.0
 40
0.0657372571890482
 40
0.1469319906497119
 40
0.1966172478091554
 40
0.2466499538483766
 40
0.297220903427206
 40
0.3485291042501809
 40
0.3982142888784783
 40
0.4987288058840699
 40
0.5500369902843019
 40
0.6496679957313043
 40
0.7002388467595394
 40
0.7515468999930135
 40
0.8511789094809425
 40
0.9017502611515787
 40
0.9530588183099836
 40
1.0
 40
1.0
 40
1.0
 40
1.0
 10
326.7883599885974
 20
504.7406068285193
 30
0.0
 10
327.5190927376549
 20
504.7403416165704
 30
0.0
 10
329.152382930204
 20
504.739748830664
 30
0.0
 10
331.569664068406
 20
504.7388703426367
 30
0.0
 10
333.8668094327839
 20
504.7380342729487
 30
0.0
 10
335.8256020739263
 20
504.7373201452698
 30
0.0
 10
337.8382452582272
 20
504.7365886574609
 30
0.0
 10
339.8664375166879
 20
504.7358513446467
 30
0.0
 10
342.5680354902836
 20
504.7348612777978
 30
0.0
 10
345.2567538721073
 20
504.7338835727631
 30
0.0
 10
348.5085685432437
 20
504.7327036265871
 30
0.0
 10
351.0162327208654
 20
504.73178518259
 30
0.0
 10
353.3628053722728
 20
504.7309356492917
 30
0.0
 10
355.5861648647891
 20
504.730123586452
 30
0.0
 10
357.6129491769627
 20
504.7293889516564
 30
0.0
 10
359.3717377997144
 20
504.7287484518356
 30
0.0
 10
360.5818943031034
 20
504.7283103177836
 30
0.0
 10
361.1851412611265
 20
504.7280930670531
 30
0.0
 10
361.4733570405517
 20
504.7279892702784
 30
0.0
  0
SPLINE
  5
DA
330
1F
100
AcDbEntity
  8
0
  6
Continuous
 62
     7
370
    15
100
AcDbSpline
210
0.0
220
0.0
230
1.0
 70
     8
 71
     3
 72
    31
 73
    27
 74
     0
 42
0.00000001
 43
0.00000001
 40
0.0
 40
0.0
 40
0.0
 40
0.0
 40
0.0012600698530787
 40
0.0405647892749068
 40
0.0786265676936831
 40
0.1169545459299161
 40
0.1556948453793937
 40
0.19499991362697
 40
0.2522019243915907
 40
0.3151007255104331
 40
0.3493856365846856
 40
0.3874468097172183
 40
0.4257741838697023
 40
0.4645138836430917
 40
0.5038183855125833
 40
0.5801391579913403
 40
0.6188781917584432
 40
0.6581820052307301
 40
0.6962419776827242
 40
0.7345681464923912
 40
0.7733066157912057
 40
0.8126098471650323
 40
0.8889984661864476
 40
0.9276672672674042
 40
0.9669702555945585
 40
0.9999999999999999
 40
0.9999999999999999
 40
0.9999999999999999
 40
0.9999999999999999
 10
364.5742868223462
 20
504.726860507318
 30
0.0
 10
364.5751899381133
 20
504.7268605035149
 30
0.0
 10
364.604263485659
 20
504.7268603810822
 30
0.0
 10
364.5013368658888
 20
504.7268830626483
 30
0.0
 10
364.2544110863983
 20
504.7269779328837
 30
0.0
 10
363.823344278275
 20
504.7271297250435
 30
0.0
 10
363.2270121086859
 20
504.7273486200563
 30
0.0
 10
362.3421348433649
 20
504.7276621878162
 30
0.0
 10
361.0312219313907
 20
504.7281407874116
 30
0.0
 10
359.4579788225959
 20
504.7287081499932
 30
0.0
 10
357.8870090484012
 20
504.729276950877
 30
0.0
 10
356.4905079504186
 20
504.7297831167876
 30
0.0
 10
354.9264807924101
 20
504.7303502471425
 30
0.0
 10
353.2428179058367
 20
504.730963879506
 30
0.0
 10
350.8888205299789
 20
504.7318169940617
 30
0.0
 10
348.3747629495753
 20
504.7327311463316
 30
0.0
 10
345.7641800809841
 20
504.7336835649805
 30
0.0
 10
343.7623440584235
 20
504.734408571165
 30
0.0
 10
341.7451773993491
 20
504.7351471232574
 30
0.0
 10
339.7295141051338
 20
504.7358828497087
 30
0.0
 10
337.6975727175522
 20
504.7366217613095
 30
0.0
 10
335.0299198245835
 20
504.7375932656568
 30
0.0
 10
332.4235430323861
 20
504.7385459486858
 30
0.0
 10
329.9577918820312
 20
504.7394387821629
 30
0.0
 10
328.2265345199797
 20
504.7400706839344
 30
0.0
 10
327.2192119136124
 20
504.7404361968151
 30
0.0
 10
326.7592319437537
 20
504.740603103229
 30
0.0
  0
SPLINE
  5
DB
330
1F
100
AcDbEntity
  8
0
  6
Continuous
 62
     7
370
    15
100
AcDbSpline
210
0.0
220
0.0
230
1.0
 70
     8
 71
     3
 72
    18
 73
    14
 74
     0
 42
0.00000001
 43
0.00000001
 40
0.0
 40
0.0
 40
0.0
 40
0.0
 40
0.065022806557585
 40
0.1568005225942463
 40
0.2499162866820309
 40
0.4307329592010471
 40
0.5225120880465401
 40
0.6156291995547308
 40
0.7058024726807436
 40
0.7966063902947177
 40
0.8883871147966577
 40
0.9815058569493523
 40
1.0
 40
1.0
 40
1.0
 40
1.0
 10
326.0851797797952
 20
504.7408489723887
 30
0.0
 10
325.6887345235418
 20
504.7409931901266
 30
0.0
 10
324.7327188322552
 20
504.7413409668198
 30
0.0
 10
323.4106830545381
 20
504.7418213989473
 30
0.0
 10
321.5890206211651
 20
504.7424842588612
 30
0.0
 10
320.0422536534414
 20
504.7430481982549
 30
0.0
 10
318.7881592129748
 20
504.7434962082056
 30
0.0
 10
318.0015234639067
 20
504.7437843235309
 30
0.0
 10
317.3792004767755
 20
504.7440114119658
 30
0.0
 10
316.9180540746268
 20
504.7441747335364
 30
0.0
 10
316.6350756858531
 20
504.7442807947522
 30
0.0
 10
316.5130290488615
 20
504.7443243684654
 30
0.0
 10
316.5384645436242
 20
504.744315038356
 30
0.0
 10
316.5426791795764
 20
504.7443134923662
 30
0.0
  0
LINE
  5
DC
330
1F
100
AcDbEntity
  8
0
  6
Continuous
 62
     7
370
    15
100
AcDbLine
 10
340.545640994
 20
420.5543993254
 30
0.0
 11
364.6176417508
 21
420.5543993254
 31
0.0
  0
LINE
  5
DD
330
1F
100
AcDbEntity
  8
0
  6
Continuous
 62
     7
370
    15
100
AcDbLine
 10
316.4736420998
 20
420.5543993254
 30
0.0
 11
340.545640994
 21
420.5543993254
 31
0.0
  0
ELLIPSE
  5
DE
330
1F
100
AcDbEntity
  8
0
  6
Continuous
 62
     7
370
    15
100
AcDbEllipse
 10
387.2039956716
 20
472.7807774266
 30
0.0
 11
-3.835770119841414
 21
23.06790152486667
 31
0.0
210
0.0
220
0.0
230
0.9999999999999999
 40
0.0586903576
 41
2.098519483876206
 42
3.1318338303519
  0
SPLINE
  5
DF
330
1F
100
AcDbEntity
  8
0
  6
Continuous
 62
     7
370
    15
100
AcDbSpline
210
0.0
220
0.0
230
1.0
 70
     8
 71
     3
 72
    12
 73
     8
 74
     0
 42
0.00000001
 43
0.00000001
 40
0.0
 40
0.0
 40
0.0
 40
0.0
 40
0.5000000000000003
 40
0.5000000000000003
 40
0.7500000000000001
 40
0.7500000000000001
 40
1.0
 40
1.0
 40
1.0
 40
1.0
 10
387.2039956715665
 20
469.1576883181436
 30
0.0
 10
387.2039956715665
 20
467.6967017426704
 30
0.0
 10
387.2669741290824
 20
466.2840358183353
 30
0.0
 10
387.4572145448074
 20
464.2342217796926
 30
0.0
 10
387.5366108224563
 20
463.5625564896821
 30
0.0
 10
387.7278634337357
 20
462.2427707203831
 30
0.0
 10
387.8396745426459
 20
461.5959725452172
 30
0.0
 10
387.9658868580042
 20
460.9700345331132
 30
0.0
  0
LINE
  5
E0
330
1F
100
AcDbEntity
  8
0
  6
Continuous
 62
     7
370
    15
100
AcDbLine
 10
387.2039967367
 20
495.8497768481
 30
0.0
 11
387.2039967367
 21
469.1576881548
 31
0.0
  0
SPLINE
  5
E1
330
1F
100
AcDbEntity
  8
0
  6
Continuous
 62
     7
370
    15
100
AcDbSpline
210
0.0
220
0.0
230
1.0
 70
     8
 71
     3
 72
    12
 73
     8
 74
     0
 42
0.00000001
 43
0.00000001
 40
0.0
 40
0.0
 40
0.0
 40
0.0
 40
0.5
 40
0.5
 40
0.75
 40
0.75
 40
1.0
 40
1.0
 40
1.0
 40
1.0
 10
395.7515039271089
 20
494.4569372879419
 30
0.0
 10
395.7520426525702
 20
494.3659551247004
 30
0.0
 10
395.7887494276164
 20
494.2692207006398
 30
0.0
 10
395.8942136226694
 20
494.1255104972888
 30
0.0
 10
395.9377567384868
 20
494.0775190627741
 30
0.0
 10
396.0419721871179
 20
493.9816186231694
 30
0.0
 10
396.1028300335261
 20
493.9337016830723
 30
0.0
 10
396.1705052791656
 20
493.8874132423596
 30
0.0
  0
SPLINE
  5
E2
330
1F
100
AcDbEntity
  8
0
  6
Continuous
 62
     7
370
    15
100
AcDbSpline
210
0.0
220
0.0
230
1.0
 70
     8
 71
     3
 72
    12
 73
     8
 74
     0
 42
0.00000001
 43
0.00000001
 40
0.0
 40
0.0
 40
0.0
 40
0.0
 40
0.2499999999999993
 40
0.2499999999999993
 40
0.4999999999999986
 40
0.4999999999999986
 40
1.0
 40
1.0
 40
1.0
 40
1.0
 10
401.3504902203251
 20
493.8874132423596
 30
0.0
 10
401.4180435624088
 20
493.9336183036111
 30
0.0
 10
401.477979185967
 20
493.9807572914245
 30
0.0
 10
401.5823448383174
 20
494.0765988081999
 30
0.0
 10
401.6268352878999
 20
494.125535474307
 30
0.0
 10
401.7328006847036
 20
494.2700724960951
 30
0.0
 10
401.7689451779899
 20
494.3646702371291
 30
0.0
 10
401.7694915710052
 20
494.4569370554642
 30
0.0
  0
LINE
  5
E3
330
1F
100
AcDbEntity
  8
0
  6
Continuous
 62
     7
370
    15
100
AcDbLine
 10
422.308997918
 20
494.3452773829
 30
0.0
 11
422.308997918
 21
451.2162775015
 31
0.0
  0
LINE
  5
E4
330
1F
100
AcDbEntity
  8
0
  6
Continuous
 62
     7
370
    15
100
AcDbLine
 10
379.662641991
 20
472.7104006549
 30
0.0
 11
379.662641991
 21
450.1429002946
 31
0.0
  0
LINE
  5
E5
330
1F
100
AcDbEntity
  8
0
  6
Continuous
 62
     7
370
    15
100
AcDbLine
 10
379.662641991
 20
495.2779000838
 30
0.0
 11
379.662641991
 21
472.7104006549
 31
0.0
  0
LINE
  5
E6
330
1F
100
AcDbEntity
  8
0
  6
Continuous
 62
     7
370
    15
100
AcDbLine
 10
417.2939972171
 20
546.3688520928
 30
0.0
 11
417.2939972171
 21
546.1268944879
 31
0.0
  0
LINE
  5
E7
330
1F
100
AcDbEntity
  8
0
  6
Continuous
 62
     7
370
    15
100
AcDbLine
 10
411.2759993562
 20
546.1268944879
 30
0.0
 11
411.2759993562
 21
546.3688520928
 31
0.0
  0
LINE
  5
E8
330
1F
100
AcDbEntity
  8
0
  6
Continuous
 62
     7
370
    15
100
AcDbLine
 10
327.6942704954
 20
525.7277785083
 30
0.0
 11
353.4267248736
 21
525.7277785083
 31
0.0
  0
LINE
  5
E9
330
1F
100
AcDbEntity
  8
0
  6
Continuous
 62
     7
370
    15
100
AcDbLine
 10
352.5463479721
 20
525.8917210837
 30
0.0
 11
328.5746478626
 21
525.8917210837
 31
0.0
  0
LINE
  5
EA
330
1F
100
AcDbEntity
  8
0
  6
Continuous
 62
     7
370
    15
100
AcDbLine
 10
501.5143693575
 20
611.9671164294
 30
0.0
 11
501.5612335094
 21
611.8383852978
 31
0.0
  0
LWPOLYLINE
  5
EB
330
1F
100
AcDbEntity
  8
0
  6
Continuous
 62
     7
370
    15
100
AcDbPolyline
 90
       10
 70
   128
 43
0.0
 10
501.5612335094
 20
611.8383852978
 10
503.4830660709
 20
612.5378756066
 10
505.3428352961
 20
613.214775755
 10
507.0762128719
 20
613.8456760188
 10
508.6232514271
 20
614.4087461968
 10
509.9304557928
 20
614.8845253726
 10
510.9525860437
 20
615.2565477629
 10
511.6543115267
 20
615.5119536658
 10
512.0113433489
 20
615.6419066926
 10
512.0562703499
 20
615.6582681676
  0
LWPOLYLINE
  5
EC
330
1F
100
AcDbEntity
  8
0
  6
Continuous
 62
     7
370
    15
100
AcDbPolyline
 90
       10
 70
   128
 43
0.0
 10
501.5143693575
 20
611.9671164294
 10
499.5925516972
 20
611.2676261206
 10
497.732782472
 20
610.5907259722
 10
495.9994048962
 20
609.9598406096
 10
494.4523812422
 20
609.3967555304
 10
493.1451917776
 20
608.9209912558
 10
492.1230764278
 20
608.5489688655
 10
491.4213658461
 20
608.2935629626
 10
491.064348925
 20
608.163624837
 10
491.019421924
 20
608.1472782632
  0
LWPOLYLINE
  5
ED
330
1F
100
AcDbEntity
  8
0
  6
Continuous
 62
     7
370
    15
100
AcDbPolyline
 90
       20
 70
   128
 43
0.0
 10
512.0977253803
 20
614.7517709275
 10
512.0872945675
 20
614.7479711314
 10
511.8377895245
 20
614.6571634551
 10
511.2634242662
 20
614.4481150647
 10
510.3826464304
 20
614.1275314828
 10
509.2237682232
 20
613.705739214
 10
507.8240425476
 20
613.196283414
 10
506.2284411081
 20
612.6155255576
 10
504.4882686028
 20
611.9821666022
 10
502.6594490894
 20
611.3165168305
 10
500.8007527479
 20
610.6400190135
 10
498.9719332346
 20
609.9743692418
 10
497.2317607292
 20
609.3410102864
 10
495.6361592897
 20
608.76025243
 10
494.2364336142
 20
608.25079663
 10
493.077555407
 20
607.8290043612
 10
492.1967775711
 20
607.5084207793
 10
491.6224123129
 20
607.2993723889
 10
491.3729072699
 20
607.2085647126
 10
491.362476457
 20
607.2047649165
  0
SPLINE
  5
EE
330
1F
100
AcDbEntity
  8
0
  6
Continuous
 62
     7
370
    15
100
AcDbSpline
210
0.0
220
0.0
230
1.0
 70
     8
 71
     3
 72
    12
 73
     8
 74
     0
 42
0.00000001
 43
0.00000001
 40
0.0
 40
0.0
 40
0.0
 40
0.0
 40
0.2499999999999967
 40
0.2499999999999967
 40
0.4999999999999933
 40
0.4999999999999933
 40
1.0
 40
1.0
 40
1.0
 40
1.0
 10
395.7783643590332
 20
494.745313386155
 30
0.0
 10
395.7783643590332
 20
494.8329763120326
 30
0.0
 10
395.7970319406187
 20
494.9190277402467
 30
0.0
 10
395.8687799858634
 20
495.07927658451
 30
0.0
 10
395.9218784978136
 20
495.1525694061393
 30
0.0
 10
396.1188101069407
 20
495.3346075486349
 30
0.0
 10
396.3022374939538
 20
495.4050715752088
 30
0.0
 10
396.4887525681724
 20
495.4050715752088
 30
0.0
  0
SPLINE
  5
EF
330
1F
100
AcDbEntity
  8
0
  6
Continuous
 62
     7
370
    15
100
AcDbSpline
210
0.0
220
0.0
230
1.0
 70
     8
 71
     3
 72
    12
 73
     8
 74
     0
 42
0.00000001
 43
0.00000001
 40
0.0
 40
0.0
 40
0.0
 40
0.0
 40
0.2500000000000031
 40
0.2500000000000031
 40
0.5000000000000062
 40
0.5000000000000062
 40
1.0
 40
1.0
 40
1.0
 40
1.0
 10
401.0322429313184
 20
495.4050715752089
 30
0.0
 10
401.125515471206
 20
495.4050715752089
 30
0.0
 10
401.2170240063012
 20
495.3882778630394
 30
0.0
 10
401.388643987775
 20
495.3228066690061
 30
0.0
 10
401.46734083385
 20
495.274289175402
 30
0.0
 10
401.6646183314658
 20
495.0922019813227
 30
0.0
 10
401.7426311404574
 20
494.9206753441885
 30
0.0
 10
401.7426311404574
 20
494.745313386155
 30
0.0
  0
ARC
  5
F0
330
1F
100
AcDbEntity
  8
0
  6
Continuous
 62
     7
370
    15
100
AcDbCircle
 10
398.7604973057
 20
499.9325979806
 30
0.0
 40
6.57664921652681
100
AcDbArc
 50
246.8078331132
 51
293.1921668868
  0
LINE
  5
F1
330
1F
100
AcDbEntity
  8
0
  6
Continuous
 62
     7
370
    15
100
AcDbLine
 10
395.7514965126
 20
494.8776642074
 30
0.0
 11
395.7514965126
 21
494.4569373717
 31
0.0
  0
ARC
  5
F2
330
1F
100
AcDbEntity
  8
0
  6
Continuous
 62
     7
370
    15
100
AcDbCircle
 10
395.7758369385
 20
494.8780988246
 30
0.0
 40
0.0243443058329565
100
AcDbArc
 50
178.5677942538
 51
181.0229519181
  0
ARC
  5
F3
330
1F
100
AcDbEntity
  8
0
  6
Continuous
 62
     7
370
    15
100
AcDbCircle
 10
395.7757104338
 20
494.879141285
 30
0.0
 40
0.0242140856238754
100
AcDbArc
 50
178.5630296276
 51
181.0269844329
  0
LINE
  5
F4
330
1F
100
AcDbEntity
  8
0
  6
Continuous
 62
     7
370
    15
100
AcDbLine
 10
395.7515039631
 20
494.8797485073
 30
0.0
 11
395.7514965126
 21
494.8825312992
 31
0.0
  0
ARC
  5
F5
330
1F
100
AcDbEntity
  8
0
  6
Continuous
 62
     7
370
    15
100
AcDbCircle
 10
396.124815639
 20
494.8843873039
 30
0.0
 40
0.3733237401144897
100
AcDbArc
 50
180.2848510968
 51
201.8715774616
  0
ARC
  5
F6
330
1F
100
AcDbEntity
  8
0
  6
Continuous
 62
     7
370
    15
100
AcDbCircle
 10
401.3963583931
 20
494.8843521738
 30
0.0
 40
0.3731441484884037
100
AcDbArc
 50
338.1231653897
 51
359.720406052
  0
LINE
  5
F7
330
1F
100
AcDbEntity
  8
0
  6
Continuous
 62
     7
370
    15
100
AcDbLine
 10
401.7694980988
 20
494.8825312992
 30
0.0
 11
401.7694906482
 21
494.8797485073
 31
0.0
  0
ARC
  5
F8
330
1F
100
AcDbEntity
  8
0
  6
Continuous
 62
     7
370
    15
100
AcDbCircle
 10
401.6967807426
 20
494.8789677486
 30
0.0
 40
0.0727140973763687
100
AcDbArc
 50
359.7947676681
 51
0.6152182714
  0
ARC
  5
F9
330
1F
100
AcDbEntity
  8
0
  6
Continuous
 62
     7
370
    15
100
AcDbCircle
 10
401.6964805463
 20
494.8779249777
 30
0.0
 40
0.0730180181429833
100
AcDbArc
 50
359.7953783059
 51
0.613875522
  0
LINE
  5
FA
330
1F
100
AcDbEntity
  8
0
  6
Continuous
 62
     7
370
    15
100
AcDbLine
 10
401.7694980988
 20
494.8776642074
 30
0.0
 11
401.7694980988
 21
494.4569373717
 31
0.0
  0
LINE
  5
FB
330
1F
100
AcDbEntity
  8
0
  6
Continuous
 62
     7
370
    15
100
AcDbLine
 10
401.0322445222
 20
495.4050703188
 30
0.0
 11
396.4887538144
 21
495.4050703188
 31
0.0
  0
LINE
  5
FC
330
1F
100
AcDbEntity
  8
0
  6
Continuous
 62
     7
370
    15
100
AcDbLine
 10
401.7270931193
 20
494.8825312992
 30
0.0
 11
401.7694980988
 21
494.8825312992
 31
0.0
  0
LINE
  5
FD
330
1F
100
AcDbEntity
  8
0
  6
Continuous
 62
     7
370
    15
100
AcDbLine
 10
395.7514965126
 20
494.8825312992
 30
0.0
 11
395.795890797
 21
494.8825312992
 31
0.0
  0
LINE
  5
FE
330
1F
100
AcDbEntity
  8
0
  6
Continuous
 62
     7
370
    15
100
AcDbLine
 10
401.7694906482
 20
494.8776642074
 30
0.0
 11
401.7694906482
 21
494.8797485073
 31
0.0
  0
LINE
  5
FF
330
1F
100
AcDbEntity
  8
0
  6
Continuous
 62
     7
370
    15
100
AcDbLine
 10
395.7515039631
 20
494.8797485073
 30
0.0
 11
395.7515039631
 21
494.8776642074
 31
0.0
  0
ARC
  5
100
330
1F
100
AcDbEntity
  8
0
  6
Continuous
 62
     7
370
    15
100
AcDbCircle
 10
401.3958751783
 20
494.8757256195
 30
0.0
 40
0.3736371273532494
100
AcDbArc
 50
0.6169058982
 51
21.8662403896
  0
LINE
  5
101
330
1F
100
AcDbEntity
  8
0
  6
Continuous
 62
     7
370
    15
100
AcDbLine
 10
401.7426313051
 20
495.1091332575
 30
0.0
 11
401.7426313051
 21
495.0148834129
 31
0.0
  0
LINE
  5
102
330
1F
100
AcDbEntity
  8
0
  6
Continuous
 62
     7
370
    15
100
AcDbLine
 10
395.7783633062
 20
495.1091332575
 30
0.0
 11
395.7783633062
 21
495.0148834129
 31
0.0
  0
ARC
  5
103
330
1F
100
AcDbEntity
  8
0
  6
Continuous
 62
     7
370
    15
100
AcDbCircle
 10
396.1252121587
 20
494.8757071894
 30
0.0
 40
0.3737300464928254
100
AcDbArc
 50
158.1364318713
 51
179.3804218409
  0
LINE
  5
104
330
1F
100
AcDbEntity
  8
0
  6
Continuous
 62
     7
370
    15
100
AcDbLine
 10
401.7426313051
 20
495.0148834129
 30
0.0
 11
401.6788245329
 21
495.0148834129
 31
0.0
  0
LINE
  5
105
330
1F
100
AcDbEntity
  8
0
  6
Continuous
 62
     7
370
    15
100
AcDbLine
 10
395.8428369054
 20
495.0148834129
 30
0.0
 11
395.7783633062
 21
495.0148834129
 31
0.0
  0
SPLINE
  5
106
330
1F
100
AcDbEntity
  8
0
  6
Continuous
 62
     7
370
    15
100
AcDbSpline
210
0.0
220
0.0
230
1.0
 70
     8
 71
     3
 72
    10
 73
     6
 74
     0
 42
0.00000001
 43
0.00000001
 40
0.0
 40
0.0
 40
0.0
 40
0.0
 40
0.5
 40
0.5
 40
1.0
 40
1.0
 40
1.0
 40
1.0
 10
396.3869665405003
 20
495.6746406740341
 30
0.0
 10
396.2271149197801
 20
495.6746406740341
 30
0.0
 10
396.0705068865882
 20
495.6144797973747
 30
0.0
 10
395.8451944032864
 20
495.4063806126186
 30
0.0
 10
395.7783643587678
 20
495.2593986778781
 30
0.0
 10
395.7783643587678
 20
495.1091336548452
 30
0.0
  0
LINE
  5
107
330
1F
100
AcDbEntity
  8
0
  6
Continuous
 62
     7
370
    15
100
AcDbLine
 10
396.3869677075
 20
495.6746397753
 30
0.0
 11
401.1340306291
 21
495.6746397753
 31
0.0
  0
SPLINE
  5
108
330
1F
100
AcDbEntity
  8
0
  6
Continuous
 62
     7
370
    15
100
AcDbSpline
210
0.0
220
0.0
230
1.0
 70
     8
 71
     3
 72
    10
 73
     6
 74
     0
 42
0.00000001
 43
0.00000001
 40
0.0
 40
0.0
 40
0.0
 40
0.0
 40
0.5
 40
0.5
 40
1.0
 40
1.0
 40
1.0
 40
1.0
 10
401.742631140192
 20
495.1091336548452
 30
0.0
 10
401.742631140192
 20
495.2593689428962
 30
0.0
 10
401.6759276753094
 20
495.4061101842796
 30
0.0
 10
401.450997029941
 20
495.6141633080466
 30
0.0
 10
401.2938548198354
 20
495.6746406740341
 30
0.0
 10
401.1340289584595
 20
495.6746406740341
 30
0.0
  0
LINE
  5
109
330
1F
100
AcDbEntity
  8
0
  6
Continuous
 62
     8
370
     0
100
AcDbLine
 10
412.2789965161
 20
543.6389444609
 30
0.0
 11
416.2909926065
 21
543.6389444609
 31
0.0
  0
ARC
  5
10A
330
1F
100
AcDbEntity
  8
0
  6
Continuous
 62
     8
370
     0
100
AcDbCircle
 10
416.3203271359
 20
542.6652156577
 30
0.0
 40
0.9741705686880836
100
AcDbArc
 50
1.8366878303
 51
91.7255693073
  0
ARC
  5
10B
330
1F
100
AcDbEntity
  8
0
  6
Continuous
 62
     8
370
     0
100
AcDbCircle
 10
412.2496548981
 20
542.6652308982
 30
0.0
 40
0.9741555485568287
100
AcDbArc
 50
88.2739869639
 51
178.1641806859
  0
SPLINE
  5
10C
330
1F
100
AcDbEntity
  8
0
  6
Continuous
 62
     8
370
    15
100
AcDbSpline
210
0.0
220
0.0
230
1.0
 70
     8
 71
     3
 72
    16
 73
    12
 74
     0
 42
0.00000001
 43
0.00000001
 40
0.0
 40
0.0
 40
0.0
 40
0.0
 40
0.1250000000000051
 40
0.1250000000000051
 40
0.2500000000000101
 40
0.2500000000000101
 40
0.5000000000000068
 40
0.5000000000000068
 40
0.7500000000000034
 40
0.7500000000000034
 40
1.0
 40
1.0
 40
1.0
 40
1.0
 10
416.2909956715665
 20
490.0212107084224
 30
0.0
 10
416.3824661607077
 20
490.0212107084224
 30
0.0
 10
416.4719654199473
 20
490.0457704813585
 30
0.0
 10
416.631833702277
 20
490.1261917302647
 30
0.0
 10
416.7046149586661
 20
490.1824491193498
 30
0.0
 10
416.8957133307389
 20
490.3711472196119
 30
0.0
 10
416.990036214973
 20
490.5208463663403
 30
0.0
 10
417.1421505178376
 20
490.837268261253
 30
0.0
 10
417.1975083744253
 20
491.0021005044926
 30
0.0
 10
417.2738255111811
 20
491.338679200877
 30
0.0
 10
417.2939956715664
 20
491.5073878325057
 30
0.0
 10
417.2939956715664
 20
491.6763230933867
 30
0.0
  0
LINE
  5
10D
330
1F
100
AcDbEntity
  8
0
  6
Continuous
 62
     8
370
    15
100
AcDbLine
 10
412.2789965161
 20
490.0212099989
 30
0.0
 11
416.2909926065
 21
490.0212099989
 31
0.0
  0
SPLINE
  5
10E
330
1F
100
AcDbEntity
  8
0
  6
Continuous
 62
     8
370
    15
100
AcDbSpline
210
0.0
220
0.0
230
1.0
 70
     8
 71
     3
 72
    18
 73
    14
 74
     0
 42
0.00000001
 43
0.00000001
 40
0.0
 40
0.0
 40
0.0
 40
0.0
 40
0.2499999999999979
 40
0.2499999999999979
 40
0.4999999999999958
 40
0.4999999999999958
 40
0.6249999999999968
 40
0.6249999999999968
 40
0.7499999999999979
 40
0.7499999999999979
 40
0.8749999999999989
 40
0.8749999999999989
 40
1.0
 40
1.0
 40
1.0
 40
1.0
 10
411.2759956715665
 20
491.6763230933867
 30
0.0
 10
411.2759956715665
 20
491.5074740020618
 30
0.0
 10
411.2962685700595
 20
491.3380559043495
 30
0.0
 10
411.3726162187147
 20
491.0016835583438
 30
0.0
 10
411.4281517795725
 20
490.8364560029503
 30
0.0
 10
411.5423184364318
 20
490.599219967649
 30
0.0
 10
411.5852535388664
 20
490.5226788278609
 30
0.0
 10
411.6837716609182
 20
490.3764252476427
 30
0.0
 10
411.7398327100088
 20
490.3062343796831
 30
0.0
 10
411.8658204276329
 20
490.1821955335251
 30
0.0
 10
411.9372469167232
 20
490.12671427686
 30
0.0
 10
412.0981506923227
 20
490.0456436208499
 30
0.0
 10
412.1875487983601
 20
490.0212107084224
 30
0.0
 10
412.2789956715665
 20
490.0212107084224
 30
0.0
  0
ARC
  5
10F
330
1F
100
AcDbEntity
  8
0
  6
Continuous
 62
     8
370
     0
100
AcDbCircle
 10
416.3203272916
 20
546.0956794438
 30
0.0
 40
0.9741701610909486
100
AcDbArc
 50
1.8362258962
 51
91.7255791907
  0
LINE
  5
110
330
1F
100
AcDbEntity
  8
0
  6
Continuous
 62
     8
370
     0
100
AcDbLine
 10
416.2909926065
 20
547.0694078346
 30
0.0
 11
412.2789965161
 21
547.0694078346
 31
0.0
  0
ARC
  5
111
330
1F
100
AcDbEntity
  8
0
  6
Continuous
 62
     8
370
     0
100
AcDbCircle
 10
412.2496547426
 20
546.0956946841
 30
0.0
 40
0.9741551412317095
100
AcDbArc
 50
88.2739770892
 51
178.1646426115
  0
LINE
  5
112
330
1F
100
AcDbEntity
  8
0
  6
Continuous
 62
     8
370
     0
100
AcDbLine
 10
316.4884985575
 20
517.0041805347
 30
0.0
 11
364.6324982085
 21
517.0041805347
 31
0.0
  0
LINE
  5
113
330
1F
100
AcDbEntity
  8
0
  6
Continuous
 62
     8
370
     0
100
AcDbLine
 10
316.5655450114
 20
517.1622147997
 30
0.0
 11
364.5554517546
 21
517.1622147997
 31
0.0
  0
SPLINE
  5
114
330
1F
100
AcDbEntity
  8
0
  6
Continuous
 62
     8
370
     0
100
AcDbSpline
210
0.0
220
0.0
230
1.0
 70
     8
 71
     3
 72
    30
 73
    26
 74
     0
 42
0.00000001
 43
0.00000001
 40
0.0
 40
0.0
 40
0.0
 40
0.0
 40
0.0218209265748483
 40
0.0524645011260477
 40
0.0836005540381166
 40
0.1228759993510675
 40
0.1624770797821124
 40
0.2026703964832673
 40
0.2429728391954171
 40
0.3174736043679375
 40
0.3924007880873597
 40
0.4687438351453233
 40
0.5456705229432398
 40
0.5928049362383083
 40
0.6401534573833448
 40
0.6883008735181766
 40
0.7367967855395265
 40
0.7730061076702769
 40
0.809438603963776
 40
0.8466877202151275
 40
0.8842781289949518
 40
0.9161149460067325
 40
0.9482257185702965
 40
0.9812674503030795
 40
1.0
 40
1.0
 40
1.0
 40
1.0
 10
346.7089923481691
 20
472.7104006548609
 30
0.0
 10
346.719188641329
 20
473.0419850548033
 30
0.0
 10
346.7437037980127
 20
473.8392202255687
 30
0.0
 10
346.970601084899
 20
475.0930401573502
 30
0.0
 10
347.4067009218482
 20
476.5617103102324
 30
0.0
 10
348.0421824977536
 20
478.0983496191142
 30
0.0
 10
348.8475246733336
 20
479.6951152259787
 30
0.0
 10
349.7355673020023
 20
481.2519389903041
 30
0.0
 10
350.94224847441
 20
483.2043766501881
 30
0.0
 10
352.4824923379298
 20
485.5125461962776
 30
0.0
 10
354.3404752922761
 20
488.1514605606706
 30
0.0
 10
356.2006420119852
 20
490.7076590856272
 30
0.0
 10
357.7856822219986
 20
492.8399988838119
 30
0.0
 10
359.0831257112986
 20
494.5656421430738
 30
0.0
 10
360.1154502296843
 20
495.9290494510946
 30
0.0
 10
361.0964385710358
 20
497.2173506947724
 30
0.0
 10
361.9300270246501
 20
498.3070897614439
 30
0.0
 10
362.6186921854293
 20
499.2045749965922
 30
0.0
 10
363.1787044539766
 20
499.9327518600451
 30
0.0
 10
363.668868439605
 20
500.5689098115005
 30
0.0
 10
364.0525000069297
 20
501.0660695361292
 30
0.0
 10
364.3333851479097
 20
501.4297079476116
 30
0.0
 10
364.5160442186186
 20
501.666019735944
 30
0.0
 10
364.6121807322425
 20
501.7903355534451
 30
0.0
 10
364.6074931964404
 20
501.7842774686214
 30
0.0
 10
364.6057971903357
 20
501.7820855816092
 30
0.0
  0
SPLINE
  5
115
330
1F
100
AcDbEntity
  8
0
  6
Continuous
 62
     8
370
     0
100
AcDbSpline
210
0.0
220
0.0
230
1.0
 70
     8
 71
     3
 72
    30
 73
    26
 74
     0
 42
0.00000001
 43
0.00000001
 40
0.0
 40
0.0
 40
0.0
 40
0.0
 40
0.0091269794657171
 40
0.0417621293558156
 40
0.0754224918894275
 40
0.1094237386028603
 40
0.1411093432998247
 40
0.1730252068745995
 40
0.2055862027855272
 40
0.2383363672084749
 40
0.2853448249743206
 40
0.3327496025296666
 40
0.3811902027479229
 40
0.429908710179297
 40
0.4972132509638708
 40
0.5649977534606762
 40
0.6340455869595079
 40
0.7034494112604723
 40
0.765372210834987
 40
0.8275789235016667
 40
0.8599438334130142
 40
0.8924184999497768
 40
0.925452414569195
 40
0.9588559333122687
 40
1.0
 40
1.0
 40
1.0
 40
1.0
 10
364.6085166522536
 20
443.6351990540709
 30
0.0
 10
364.6111791045558
 20
443.6317556937396
 30
0.0
 10
364.6233616319587
 20
443.6159999817744
 30
0.0
 10
364.5524530978636
 20
443.707693577763
 30
0.0
 10
364.3910200262168
 20
443.9165164147266
 30
0.0
 10
364.1341567947692
 20
444.2489860548518
 30
0.0
 10
363.8046972835367
 20
444.6758264313106
 30
0.0
 10
363.4110527481536
 20
445.1864067755007
 30
0.0
 10
362.950268817637
 20
445.7849533608108
 30
0.0
 10
362.3530249031775
 20
446.5621505548004
 30
0.0
 10
361.5982294039159
 20
447.546908690738
 30
0.0
 10
360.6655970683299
 20
448.7684688443512
 30
0.0
 10
359.6516555538602
 20
450.1031735059962
 30
0.0
 10
358.4341818708913
 20
451.7160416081562
 30
0.0
 10
357.0067426163544
 20
453.6251238428469
 30
0.0
 10
355.3645296011006
 20
455.8561117895707
 30
0.0
 10
353.6736513082454
 20
458.2069318048131
 30
0.0
 10
352.0276768253655
 20
460.5785882007545
 30
0.0
 10
350.4700926005555
 20
462.9526889472571
 30
0.0
 10
349.2715309315619
 20
464.9485821206176
 30
0.0
 10
348.3823682755385
 20
466.6318180961003
 30
0.0
 10
347.7619432746478
 20
467.9691879289447
 30
0.0
 10
347.2392098776028
 20
469.3696975157661
 30
0.0
 10
346.8094277287278
 20
470.9507062696499
 30
0.0
 10
346.744710742019
 20
472.084590738507
 30
0.0
 10
346.7089923481691
 20
472.7104006548609
 30
0.0
  0
SPLINE
  5
116
330
1F
100
AcDbEntity
  8
0
  6
Continuous
 62
     8
370
     0
100
AcDbSpline
210
0.0
220
0.0
230
1.0
 70
     8
 71
     3
 72
    30
 73
    26
 74
     0
 42
0.00000001
 43
0.00000001
 40
0.0
 40
0.0
 40
0.0
 40
0.0
 40
0.0342590321021142
 40
0.0612806269123019
 40
0.0889476682021512
 40
0.1227362095128038
 40
0.1538876870872515
 40
0.2149287977503475
 40
0.2763064165629215
 40
0.3450571091686381
 40
0.4141269678326138
 40
0.4843076394595108
 40
0.554954630136445
 40
0.6035623291977315
 40
0.6524119066761366
 40
0.7021740072281245
 40
0.7523385893986285
 40
0.7851379991746835
 40
0.8181076757143618
 40
0.8516812743702837
 40
0.885498436131522
 40
0.9189342880717456
 40
0.9526713520922409
 40
0.9874296143587139
 40
0.9999999999999999
 40
0.9999999999999999
 40
0.9999999999999999
 40
0.9999999999999999
 10
348.2498301430607
 20
472.7104006548609
 30
0.0
 10
348.2959505354866
 20
472.2100471988494
 30
0.0
 10
348.3784480956298
 20
471.3150431201955
 30
0.0
 10
348.8898707448591
 20
470.1150060568732
 30
0.0
 10
349.5271981109814
 20
469.0048172399651
 30
0.0
 10
350.313035670465
 20
467.9234053308805
 30
0.0
 10
351.4687570108192
 20
466.5359809923434
 30
0.0
 10
352.9726609505577
 20
464.9504100782951
 30
0.0
 10
354.9009995151573
 20
463.086425208344
 30
0.0
 10
356.9266316817583
 20
461.2340690002653
 30
0.0
 10
359.0219165507477
 20
459.3844303320083
 30
0.0
 10
361.0871471005934
 20
457.603440619149
 30
0.0
 10
362.8797692437785
 20
456.0821281211148
 30
0.0
 10
364.3929538606013
 20
454.8100795178103
 30
0.0
 10
365.6491165183822
 20
453.7606822791192
 30
0.0
 10
366.8308476163999
 20
452.7784308892181
 30
0.0
 10
367.7871393618717
 20
451.9867918772414
 30
0.0
 10
368.534509757049
 20
451.3696962491891
 30
0.0
 10
369.1071959001595
 20
450.8976702953069
 30
0.0
 10
369.6077151095452
 20
450.4857387590638
 30
0.0
 10
370.0210133090237
 20
450.1459974638157
 30
0.0
 10
370.3390362881889
 20
449.8848122049931
 30
0.0
 10
370.5454523431499
 20
449.7153969289862
 30
0.0
 10
370.6423098220557
 20
449.635926545622
 30
0.0
 10
370.6256554234567
 20
449.6495931671469
 30
0.0
 10
370.6212320515189
 20
449.6532229920115
 30
0.0
  0
SPLINE
  5
117
330
1F
100
AcDbEntity
  8
0
  6
Continuous
 62
     8
370
     0
100
AcDbSpline
210
0.0
220
0.0
230
1.0
 70
     8
 71
     3
 72
    31
 73
    27
 74
     0
 42
0.00000001
 43
0.00000001
 40
0.0
 40
0.0
 40
0.0
 40
0.0
 40
0.0251430141627083
 40
0.0544915546634193
 40
0.0840568097279049
 40
0.1179582263326699
 40
0.1553779672288507
 40
0.1931358156971423
 40
0.2318309446797719
 40
0.2707948369946714
 40
0.3193654917310934
 40
0.3682943371736641
 40
0.4181576253669951
 40
0.4682724228918291
 40
0.5060948169094507
 40
0.5439950965795981
 40
0.620270885207595
 40
0.6980740611693628
 40
0.776334994872161
 40
0.8139990875324566
 40
0.8517503599412416
 40
0.8899617744137361
 40
0.9285433515561367
 40
0.9548354432890866
 40
0.9818565332353694
 40
1.0
 40
1.0
 40
1.0
 40
1.0
 10
370.630943883327
 20
495.7755467136587
 30
0.0
 10
370.6248906332469
 20
495.7705804089782
 30
0.0
 10
370.6117716410092
 20
495.7598171146003
 30
0.0
 10
370.4884600301566
 20
495.6586332716088
 30
0.0
 10
370.2729762404866
 20
495.4817444598497
 30
0.0
 10
369.9383841679356
 20
495.2069158989954
 30
0.0
 10
369.4677192965839
 20
494.8199202967891
 30
0.0
 10
368.8682801545585
 20
494.3263417893165
 30
0.0
 10
368.1632142883817
 20
493.7447223437593
 30
0.0
 10
367.2986194908825
 20
493.0298534174347
 30
0.0
 10
366.2664231698375
 20
492.1737439539951
 30
0.0
 10
365.0565013663993
 20
491.165783051466
 30
0.0
 10
363.7548930119093
 20
490.0753656125494
 30
0.0
 10
362.4911801293741
 20
489.0091066351677
 30
0.0
 10
361.2997815408942
 20
487.9957686725793
 30
0.0
 10
359.8286148721084
 20
486.7339342193118
 30
0.0
 10
357.9207356283899
 20
485.0728273800304
 30
0.0
 10
355.5703615572541
 20
482.9601805451112
 30
0.0
 10
353.6114382746094
 20
481.1029403615937
 30
0.0
 10
352.0969220698405
 20
479.5510485169538
 30
0.0
 10
351.0123257534488
 20
478.3534516012398
 30
0.0
 10
349.9833393479107
 20
477.0772343187502
 30
0.0
 10
349.1605010438009
 20
475.8367575251502
 30
0.0
 10
348.5903828064867
 20
474.6349094832382
 30
0.0
 10
348.2949390231496
 20
473.6303809186654
 30
0.0
 10
348.2627579114817
 20
472.9740580939043
 30
0.0
 10
348.2498301430607
 20
472.7104006548609
 30
0.0
  0
LINE
  5
118
330
1F
100
AcDbEntity
  8
0
  6
Continuous
 62
     8
370
     0
100
AcDbLine
 10
409.2699938604
 20
490.1646802415
 30
0.0
 11
409.2699938604
 21
495.8497768481
 31
0.0
  0
SPLINE
  5
119
330
1F
100
AcDbEntity
  8
0
  6
Continuous
 62
     8
370
     0
100
AcDbSpline
210
0.0
220
0.0
230
1.0
 70
     8
 71
     3
 72
    20
 73
    16
 74
     0
 42
0.00000001
 43
0.00000001
 40
0.0
 40
0.0
 40
0.0
 40
0.0
 40
0.1249999999999962
 40
0.1249999999999962
 40
0.2499999999999924
 40
0.2499999999999924
 40
0.4999999999999929
 40
0.4999999999999929
 40
0.6249999999999947
 40
0.6249999999999947
 40
0.7499999999999963
 40
0.7499999999999963
 40
0.8749999999999981
 40
0.8749999999999981
 40
1.0
 40
1.0
 40
1.0
 40
1.0
 10
412.2789956715665
 20
488.0107710309661
 30
0.0
 10
412.0793102686561
 20
488.0107710309661
 30
0.0
 10
411.8829803937538
 20
488.0263001883549
 30
0.0
 10
411.4967308428613
 20
488.0868152974206
 30
0.0
 10
411.3051072207319
 20
488.1325432450987
 30
0.0
 10
410.7608819096307
 20
488.3081517272362
 30
0.0
 10
410.4288331453413
 20
488.4794101996962
 30
0.0
 10
410.0155110910322
 20
488.7864201933505
 30
0.0
 10
409.8896701458901
 20
488.8986784918391
 30
0.0
 10
409.6716824952919
 20
489.1333860105353
 30
0.0
 10
409.5791925648231
 20
489.2556016355317
 30
0.0
 10
409.4274718956843
 20
489.5090128496719
 30
0.0
 10
409.3684703767524
 20
489.6408175082132
 30
0.0
 10
409.2902192028766
 20
489.9023747824577
 30
0.0
 10
409.2699956715664
 20
490.0334151632244
 30
0.0
 10
409.2699956715664
 20
490.1646794400437
 30
0.0
  0
LINE
  5
11A
330
1F
100
AcDbEntity
  8
0
  6
Continuous
 62
     8
370
     0
100
AcDbLine
 10
416.2909926065
 20
488.0107714077
 30
0.0
 11
412.2789965161
 21
488.0107714077
 31
0.0
  0
SPLINE
  5
11B
330
1F
100
AcDbEntity
  8
0
  6
Continuous
 62
     8
370
     0
100
AcDbSpline
210
0.0
220
0.0
230
1.0
 70
     8
 71
     3
 72
    22
 73
    18
 74
     0
 42
0.00000001
 43
0.00000001
 40
0.0
 40
0.0
 40
0.0
 40
0.0
 40
0.1250000000000007
 40
0.1250000000000007
 40
0.2500000000000006
 40
0.2500000000000006
 40
0.3750000000000004
 40
0.3750000000000004
 40
0.5000000000000003
 40
0.5000000000000003
 40
0.6250000000000002
 40
0.6250000000000002
 40
0.7500000000000001
 40
0.7500000000000001
 40
0.8750000000000001
 40
0.8750000000000001
 40
1.0
 40
1.0
 40
1.0
 40
1.0
 10
419.2999956715665
 20
490.1646794400437
 30
0.0
 10
419.2999956715665
 20
490.0331601320523
 30
0.0
 10
419.2796990322508
 20
489.9021841500045
 30
0.0
 10
419.2016925836671
 20
489.6413374791698
 30
0.0
 10
419.1432590530878
 20
489.5103359154239
 30
0.0
 10
418.9906661115714
 20
489.2552926567332
 30
0.0
 10
418.8979613542116
 20
489.1330385227465
 30
0.0
 10
418.681051154224
 20
488.8994378252571
 30
0.0
 10
418.555153888194
 20
488.7869317068374
 30
0.0
 10
418.2785064771288
 20
488.581419495503
 30
0.0
 10
418.1284649591659
 20
488.488420605521
 30
0.0
 10
417.8048229629852
 20
488.3230473043513
 30
0.0
 10
417.6289374827805
 20
488.2500851266941
 30
0.0
 10
417.2660784567593
 20
488.1328585237551
 30
0.0
 10
417.0786408526466
 20
488.0879220754455
 30
0.0
 10
416.6914305304198
 20
488.026735393901
 30
0.0
 10
416.4910824517
 20
488.0107710309661
 30
0.0
 10
416.2909956715665
 20
488.0107710309661
 30
0.0
  0
LINE
  5
11C
330
1F
100
AcDbEntity
  8
0
  6
Continuous
 62
     8
370
     0
100
AcDbLine
 10
419.2999989876
 20
495.8497768481
 30
0.0
 11
419.2999989876
 21
490.1646802415
 31
0.0
  0
LWPOLYLINE
  5
11D
330
1F
100
AcDbEntity
  8
0
  6
Continuous
 62
     8
370
     0
100
AcDbPolyline
 90
        9
 70
   128
 43
0.0
 10
401.7426313051
 20
494.7453139563
 10
401.4111810514
 20
494.3954719444
 10
400.7412658223
 20
494.107823654
 10
399.8184257337
 20
493.9190985848
 10
398.7604991683
 20
493.8533937772
 10
397.7025726029
 20
493.9190985848
 10
396.7797325143
 20
494.107823654
 10
396.1098135599
 20
494.3954719444
 10
395.7783633062
 20
494.7453139563
  0
ARC
  5
11E
330
1F
100
AcDbEntity
  8
0
  6
Continuous
 62
     8
370
     0
100
AcDbCircle
 10
398.7604991683
 20
498.5738611887
 30
0.0
 40
3.898982242877718
100
AcDbArc
 50
234.3627932331
 51
305.6372067669
  0
ARC
  5
11F
330
1F
100
AcDbEntity
  8
0
  6
Continuous
 62
     8
370
     0
100
AcDbCircle
 10
398.7604991683
 20
492.4014830793
 30
0.0
 40
4.043167860993898
100
AcDbArc
 50
54.0522335908
 51
125.9477664092
  0
LINE
  5
120
330
1F
100
AcDbEntity
  8
0
  6
Continuous
 62
     7
370
    15
100
AcDbLine
 10
171.4043276935
 20
349.5025973571
 30
0.0
 11
171.4043276935
 21
193.8616585721
 31
0.0
  0
LINE
  5
121
330
1F
100
AcDbEntity
  8
0
  6
Continuous
 62
     7
370
    15
100
AcDbLine
 10
193.4703276112
 20
193.8616585721
 30
0.0
 11
193.4703276112
 21
349.5025973571
 31
0.0
  0
LINE
  5
122
330
1F
100
AcDbEntity
  8
0
  6
Continuous
 62
     7
370
    15
100
AcDbLine
 10
193.4703276112
 20
188.201392888
 30
0.0
 11
193.4703276112
 21
193.8616585721
 31
0.0
  0
LINE
  5
123
330
1F
100
AcDbEntity
  8
0
  6
Continuous
 62
     7
370
    15
100
AcDbLine
 10
171.4043276935
 20
193.8616585721
 30
0.0
 11
171.4043276935
 21
188.201392888
 31
0.0
  0
LINE
  5
124
330
1F
100
AcDbEntity
  8
0
  6
Continuous
 62
     7
370
    15
100
AcDbLine
 10
193.4703294738
 20
188.1599378576
 30
0.0
 11
193.4703294738
 21
188.201392888
 31
0.0
  0
LINE
  5
125
330
1F
100
AcDbEntity
  8
0
  6
Continuous
 62
     7
370
    15
100
AcDbLine
 10
171.4043286248
 20
188.201392888
 30
0.0
 11
171.4043286248
 21
188.1599378576
 31
0.0
  0
ARC
  5
126
330
1F
100
AcDbEntity
  8
0
  6
Continuous
 62
     7
370
    15
100
AcDbCircle
 10
148.9496753897
 20
277.6110505552
 30
0.0
 40
1.002999999999986
100
AcDbArc
 50
90.0
 51
180.0
  0
ARC
  5
127
330
1F
100
AcDbEntity
  8
0
  6
Continuous
 62
     7
370
    15
100
AcDbCircle
 10
148.9496753897
 20
273.5990505552
 30
0.0
 40
1.002999999999986
100
AcDbArc
 50
180.0
 51
270.0
  0
LINE
  5
128
330
1F
100
AcDbEntity
  8
0
  6
Continuous
 62
     7
370
    15
100
AcDbLine
 10
147.9466766669
 20
277.6110497107
 30
0.0
 11
147.9466766669
 21
273.5990536203
 31
0.0
  0
SPLINE
  5
129
330
1F
100
AcDbEntity
  8
0
  6
Continuous
 62
     7
370
    15
100
AcDbSpline
210
0.0
220
0.0
230
1.0
 70
     8
 71
     3
 72
    10
 73
     6
 74
     0
 42
0.00000001
 43
0.00000001
 40
0.0
 40
0.0
 40
0.0
 40
0.0
 40
0.106487703321292
 40
0.6295906525590236
 40
1.0
 40
1.0
 40
1.0
 40
1.0
 10
159.2465065970133
 20
342.8326707835289
 30
0.0
 10
159.2541558973419
 20
342.7957223300477
 30
0.0
 10
159.2993811002083
 20
342.5772708073582
 30
0.0
 10
159.3623137388603
 20
342.1466161995509
 30
0.0
 10
159.3637681319042
 20
341.7818955605777
 30
0.0
 10
159.3643710567663
 20
341.6306990584338
 30
0.0
  0
SPLINE
  5
12A
330
1F
100
AcDbEntity
  8
0
  6
Continuous
 62
     7
370
    15
100
AcDbSpline
210
0.0
220
0.0
230
1.0
 70
     8
 71
     3
 72
    10
 73
     6
 74
     0
 42
0.00000001
 43
0.00000001
 40
0.0
 40
0.0
 40
0.0
 40
0.0
 40
0.3325830159967267
 40
0.7833801494762976
 40
1.0
 40
1.0
 40
1.0
 40
1.0
 10
205.5140626235912
 20
341.6365157645408
 30
0.0
 10
205.513124225931
 20
341.7638951373365
 30
0.0
 10
205.51091388426
 20
342.0639299175304
 30
0.0
 10
205.5541103927695
 20
342.4457242869883
 30
0.0
 10
205.6019286383042
 20
342.6964644942717
 30
0.0
 10
205.6174487425993
 20
342.7778458608294
 30
0.0
  0
LINE
  5
12B
330
1F
100
AcDbEntity
  8
0
  6
Continuous
 62
     7
370
    15
100
AcDbLine
 10
205.4425612642
 20
269.0855514993
 30
0.0
 11
205.4425612642
 21
301.2948212017
 31
0.0
  0
LINE
  5
12C
330
1F
100
AcDbEntity
  8
0
  6
Continuous
 62
     7
370
    15
100
AcDbLine
 10
159.3045596584
 20
302.6860494901
 30
0.0
 11
159.3045596584
 21
278.6140468706
 31
0.0
  0
LINE
  5
12D
330
1F
100
AcDbEntity
  8
0
  6
Continuous
 62
     7
370
    15
100
AcDbLine
 10
159.3045596584
 20
272.5960490097
 30
0.0
 11
159.3045596584
 21
269.0855514993
 31
0.0
  0
ARC
  5
12E
330
1F
100
AcDbEntity
  8
0
  6
Continuous
 62
     7
370
    15
100
AcDbCircle
 10
203.9380605533
 20
269.0855505552
 30
0.0
 40
1.504500000000007
100
AcDbArc
 50
270.0
 51
0.0
  0
ARC
  5
12F
330
1F
100
AcDbEntity
  8
0
  6
Continuous
 62
     7
370
    15
100
AcDbCircle
 10
160.8090605533
 20
269.0855505552
 30
0.0
 40
1.504500000000007
100
AcDbArc
 50
180.0
 51
270.0
  0
LINE
  5
130
330
1F
100
AcDbEntity
  8
0
  6
Continuous
 62
     7
370
    15
100
AcDbLine
 10
159.3683440789
 20
341.6402160838
 30
0.0
 11
159.3683440789
 21
310.7289046784
 31
0.0
  0
LINE
  5
131
330
1F
100
AcDbEntity
  8
0
  6
Continuous
 62
     7
370
    15
100
AcDbLine
 10
205.5063456847
 20
310.7289046784
 30
0.0
 11
205.5063456847
 21
341.6362614844
 31
0.0
  0
ARC
  5
132
330
1F
100
AcDbEntity
  8
0
  6
Continuous
 62
     7
370
    15
100
AcDbCircle
 10
159.8698448306
 20
310.7289052727
 30
0.0
 40
0.5015000000000214
100
AcDbArc
 50
180.0
 51
270.0
  0
ARC
  5
133
330
1F
100
AcDbEntity
  8
0
  6
Continuous
 62
     7
370
    15
100
AcDbCircle
 10
205.0048448306
 20
310.7289052727
 30
0.0
 40
0.5015000000000214
100
AcDbArc
 50
270.0
 51
0.0
  0
ARC
  5
134
330
1F
100
AcDbEntity
  8
0
  6
Continuous
 62
     7
370
    15
100
AcDbCircle
 10
182.4373441543
 20
308.2726914362
 30
0.0
 40
22.06600000000002
100
AcDbArc
 50
344.9348961657
 51
0.1857306123
  0
ARC
  5
135
330
1F
100
AcDbEntity
  8
0
  6
Continuous
 62
     7
370
    15
100
AcDbCircle
 10
182.4373441543
 20
308.2726914362
 30
0.0
 40
22.066
100
AcDbArc
 50
179.8179786593
 51
194.6656904941
  0
LINE
  5
136
330
1F
100
AcDbEntity
  8
0
  6
Continuous
 62
     7
370
    15
100
AcDbLine
 10
204.5033280357
 20
308.3463785042
 30
0.0
 11
204.5033280357
 21
310.2274042358
 31
0.0
  0
LINE
  5
137
330
1F
100
AcDbEntity
  8
0
  6
Continuous
 62
     7
370
    15
100
AcDbLine
 10
160.3713282003
 20
310.2274042358
 30
0.0
 11
160.3713282003
 21
308.3463785042
 31
0.0
  0
LINE
  5
138
330
1F
100
AcDbEntity
  8
0
  6
Continuous
 62
     7
370
    15
100
AcDbLine
 10
165.8901800021
 20
272.5962427248
 30
0.0
 11
165.8941139086
 21
272.5981426229
 31
0.0
  0
ARC
  5
139
330
1F
100
AcDbEntity
  8
0
  6
Continuous
 62
     7
370
    15
100
AcDbCircle
 10
218.8800790751
 20
355.8400484798
 30
0.0
 40
0.5015000000000214
100
AcDbArc
 50
90.0
 51
180.0
  0
ARC
  5
13A
330
1F
100
AcDbEntity
  8
0
  6
Continuous
 62
     7
370
    15
100
AcDbCircle
 10
218.8800790751
 20
348.8190484798
 30
0.0
 40
0.5014999999999645
100
AcDbArc
 50
180.0
 51
270.0
  0
ARC
  5
13B
330
1F
100
AcDbEntity
  8
0
  6
Continuous
 62
     7
370
    15
100
AcDbCircle
 10
237.4355790751
 20
349.3205484798
 30
0.0
 40
1.002999999999986
100
AcDbArc
 50
270.0
 51
360.0
  0
ARC
  5
13C
330
1F
100
AcDbEntity
  8
0
  6
Continuous
 62
     7
370
    15
100
AcDbCircle
 10
237.4355790751
 20
355.3385484798
 30
0.0
 40
1.0030000000001
100
AcDbArc
 50
0.0
 51
90.0
  0
LINE
  5
13D
330
1F
100
AcDbEntity
  8
0
  6
Continuous
 62
     7
370
    15
100
AcDbLine
 10
218.8800782516
 20
348.3175485198
 30
0.0
 11
237.4355778649
 21
348.3175485198
 31
0.0
  0
LINE
  5
13E
330
1F
100
AcDbEntity
  8
0
  6
Continuous
 62
     7
370
    15
100
AcDbLine
 10
237.4355778649
 20
356.3415481512
 30
0.0
 11
218.8800782516
 21
356.3415481512
 31
0.0
  0
LINE
  5
13F
330
1F
100
AcDbEntity
  8
0
  6
Continuous
 62
     7
370
    15
100
AcDbLine
 10
210.8996254011
 20
350.3235484277
 30
0.0
 11
218.3718890502
 21
350.3235484277
 31
0.0
  0
LINE
  5
140
330
1F
100
AcDbEntity
  8
0
  6
Continuous
 62
     7
370
    15
100
AcDbLine
 10
218.3826588645
 20
354.3355482434
 30
0.0
 11
210.8996254011
 21
354.3355482434
 31
0.0
  0
LINE
  5
141
330
1F
100
AcDbEntity
  8
0
  6
Continuous
 62
     7
370
    15
100
AcDbLine
 10
210.8996254011
 20
354.3355482434
 30
0.0
 11
205.9868857815
 21
354.3355482434
 31
0.0
  0
LINE
  5
142
330
1F
100
AcDbEntity
  8
0
  6
Continuous
 62
     7
370
    15
100
AcDbLine
 10
206.4894237175
 20
350.3235484277
 30
0.0
 11
210.8996254011
 21
350.3235484277
 31
0.0
  0
ARC
  5
143
330
1F
100
AcDbEntity
  8
0
  6
Continuous
 62
     7
370
    15
100
AcDbCircle
 10
182.4373278296
 20
349.5025975758
 30
0.0
 40
11.03300000000002
100
AcDbArc
 50
0.0
 51
180.0
  0
LWPOLYLINE
  5
144
330
1F
100
AcDbEntity
  8
0
  6
Continuous
 62
     7
370
    15
100
AcDbPolyline
 90
       18
 70
   128
 43
0.0
 10
171.4051612272
 20
188.3288127174
 10
171.5708388566
 20
186.4069801559
 10
172.1123554363
 20
184.5472109308
 10
173.0109820693
 20
182.8138333549
 10
174.2356386586
 20
181.2667947997
 10
175.7439663253
 20
179.959590434
 10
177.4837979666
 20
178.9374601831
 10
179.3949568729
 20
178.2357347001
 10
181.4113426573
 20
177.8787028779
 10
183.46321416
 20
177.8786879768
 10
185.479603204
 20
178.2357048978
 10
187.3907693281
 20
178.9374154796
 10
189.1306102826
 20
179.9595308294
 10
190.6389505222
 20
181.2667202939
 10
191.8636220126
 20
182.8137439479
 10
192.7622654094
 20
184.5471215238
 10
193.3037996843
 20
186.4068907489
 10
193.4694959401
 20
188.3287233104
  0
LWPOLYLINE
  5
145
330
1F
100
AcDbEntity
  8
0
  6
Continuous
 62
     7
370
    15
100
AcDbPolyline
 90
       19
 70
   128
 43
0.0
 10
193.4703294738
 20
188.1599378576
 10
193.2930242821
 20
186.3087368001
 10
192.766808401
 20
184.5170211782
 10
191.9085946485
 20
182.8423988809
 10
190.7459669366
 20
181.3386780013
 10
189.3162922553
 20
180.0542128076
 10
187.6655220605
 20
179.0302497138
 10
185.8467135663
 20
178.2997500886
 10
183.9183247267
 20
177.8861385574
 10
181.9423353501
 20
177.8027516593
 10
179.9822556405
 20
178.0522567024
 10
178.1010836913
 20
178.6266219606
 10
176.3592827684
 20
179.5073997964
 10
174.8128346718
 20
180.6662780036
 10
173.5114440872
 20
182.0660036792
 10
172.4969395055
 20
183.6616051187
 10
171.8019269957
 20
185.4017776241
 10
171.4487443297
 20
187.2305971374
 10
171.4043286248
 20
188.1599378576
  0
LINE
  5
146
330
1F
100
AcDbEntity
  8
0
  6
Continuous
 62
     7
370
    15
100
AcDbLine
 10
161.0146076038
 20
278.6140468706
 30
0.0
 11
166.1568400069
 21
278.6140468706
 31
0.0
  0
LINE
  5
147
330
1F
100
AcDbEntity
  8
0
  6
Continuous
 62
     7
370
    15
100
AcDbLine
 10
166.1568400069
 20
272.5960490097
 30
0.0
 11
161.0146076038
 21
272.5960490097
 31
0.0
  0
LINE
  5
148
330
1F
100
AcDbEntity
  8
0
  6
Continuous
 62
     7
370
    15
100
AcDbLine
 10
151.5894909008
 20
278.6140468706
 30
0.0
 11
161.0146076038
 21
278.6140468706
 31
0.0
  0
LINE
  5
149
330
1F
100
AcDbEntity
  8
0
  6
Continuous
 62
     7
370
    15
100
AcDbLine
 10
161.0146076038
 20
272.5960490097
 30
0.0
 11
151.5894909008
 21
272.5960490097
 31
0.0
  0
LINE
  5
14A
330
1F
100
AcDbEntity
  8
0
  6
Continuous
 62
     7
370
    15
100
AcDbLine
 10
166.1568400069
 20
278.6140468706
 30
0.0
 11
171.4043276935
 21
278.6140468706
 31
0.0
  0
LINE
  5
14B
330
1F
100
AcDbEntity
  8
0
  6
Continuous
 62
     7
370
    15
100
AcDbLine
 10
171.4043276935
 20
272.5960490097
 30
0.0
 11
166.1568400069
 21
272.5960490097
 31
0.0
  0
LINE
  5
14C
330
1F
100
AcDbEntity
  8
0
  6
Continuous
 62
     7
370
    15
100
AcDbLine
 10
148.9496738269
 20
278.6140468706
 30
0.0
 11
151.5894909008
 21
278.6140468706
 31
0.0
  0
LINE
  5
14D
330
1F
100
AcDbEntity
  8
0
  6
Continuous
 62
     7
370
    15
100
AcDbLine
 10
151.5894909008
 20
272.5960490097
 30
0.0
 11
148.9496738269
 21
272.5960490097
 31
0.0
  0
ARC
  5
14E
330
1F
100
AcDbEntity
  8
0
  6
Continuous
 62
     7
370
    15
100
AcDbCircle
 10
182.4373290493
 20
349.3295484771
 30
0.0
 40
11.98584999999998
100
AcDbArc
 50
336.9995801569
 51
203.0003899996
  0
ARC
  5
14F
330
1F
100
AcDbEntity
  8
0
  6
Continuous
 62
     7
370
    15
100
AcDbCircle
 10
182.4373290493
 20
349.3295484771
 30
0.0
 40
24.07200000000003
100
AcDbArc
 50
90.0
 51
242.7203839976
  0
ARC
  5
150
330
1F
100
AcDbEntity
  8
0
  6
Continuous
 62
     7
370
    15
100
AcDbCircle
 10
182.4373290493
 20
349.3295484771
 30
0.0
 40
24.072
100
AcDbArc
 50
297.2796094696
 51
90.0
  0
ARC
  5
151
330
1F
100
AcDbEntity
  8
0
  6
Continuous
 62
     7
370
    15
100
AcDbCircle
 10
182.4373448306
 20
349.3444052727
 30
0.0
 40
24.07200000000003
100
AcDbArc
 50
0.0
 51
179.9567931878
  0
SPLINE
  5
152
330
1F
100
AcDbEntity
  8
0
  6
Continuous
 62
     7
370
    15
100
AcDbSpline
210
0.0
220
0.0
230
1.0
 70
     8
 71
     3
 72
    12
 73
     8
 74
     0
 42
0.00000001
 43
0.00000001
 40
0.0
 40
0.0
 40
0.0
 40
0.0
 40
0.5000000000000004
 40
0.5000000000000004
 40
0.7500000000000002
 40
0.7500000000000002
 40
1.0
 40
1.0
 40
1.0
 40
1.0
 10
205.1455140214557
 20
301.9241593688092
 30
0.0
 10
204.9124529417401
 20
302.176520994428
 30
0.0
 10
204.5467129297352
 20
302.3668202953355
 30
0.0
 10
203.8004515032906
 20
302.5580339180532
 30
0.0
 10
203.518541850141
 20
302.6060453509041
 30
0.0
 10
202.8859401903634
 20
302.6701519261363
 30
0.0
 10
202.5355493918886
 20
302.686050555247
 30
0.0
 10
202.1550076080344
 20
302.686050555247
 30
0.0
  0
ELLIPSE
  5
153
330
1F
100
AcDbEntity
  8
0
  6
Continuous
 62
     7
370
    15
100
AcDbEllipse
 10
182.3735605533
 20
302.6860505552
 30
0.0
 11
23.06779173699852
 21
-1.430278980506614
 31
0.0
210
0.0
220
0.0
230
1.0
 40
0.1650759016
 41
0.0102348916022364
 42
0.1708846120807101
  0
LINE
  5
154
330
1F
100
AcDbEntity
  8
0
  6
Continuous
 62
     7
370
    15
100
AcDbLine
 10
202.155007477
 20
302.6860494901
 30
0.0
 11
193.4703276112
 21
302.6860494901
 31
0.0
  0
LINE
  5
155
330
1F
100
AcDbEntity
  8
0
  6
Continuous
 62
     7
370
    15
100
AcDbLine
 10
171.4043276935
 20
302.6860494901
 30
0.0
 11
159.3045596584
 21
302.6860494901
 31
0.0
  0
LINE
  5
156
330
1F
100
AcDbEntity
  8
0
  6
Continuous
 62
     7
370
    15
100
AcDbLine
 10
202.6375629558
 20
267.5810483088
 30
0.0
 11
193.4703276112
 21
267.5810483088
 31
0.0
  0
LINE
  5
157
330
1F
100
AcDbEntity
  8
0
  6
Continuous
 62
     7
370
    15
100
AcDbLine
 10
171.4043276935
 20
267.5810483088
 30
0.0
 11
160.8090609863
 21
267.5810483088
 31
0.0
  0
LINE
  5
158
330
1F
100
AcDbEntity
  8
0
  6
Continuous
 62
     7
370
    15
100
AcDbLine
 10
203.9380599364
 20
267.5810483088
 30
0.0
 11
202.6375629558
 21
267.5810483088
 31
0.0
  0
LINE
  5
159
330
1F
100
AcDbEntity
  8
0
  6
Continuous
 62
     7
370
    15
100
AcDbLine
 10
205.0048452421
 20
310.2274042358
 30
0.0
 11
193.4703276112
 21
310.2274042358
 31
0.0
  0
LINE
  5
15A
330
1F
100
AcDbEntity
  8
0
  6
Continuous
 62
     7
370
    15
100
AcDbLine
 10
171.4043276935
 20
310.2274042358
 30
0.0
 11
159.8698445215
 21
310.2274042358
 31
0.0
  0
LINE
  5
15B
330
1F
100
AcDbEntity
  8
0
  6
Continuous
 62
     7
370
    15
100
AcDbLine
 10
218.3785796716
 20
352.3295483355
 30
0.0
 11
218.3785796716
 21
355.8400486399
 31
0.0
  0
LINE
  5
15C
330
1F
100
AcDbEntity
  8
0
  6
Continuous
 62
     7
370
    15
100
AcDbLine
 10
218.3785796716
 20
348.8190484968
 30
0.0
 11
218.3785796716
 21
352.3295483355
 31
0.0
  0
LINE
  5
15D
330
1F
100
AcDbEntity
  8
0
  6
Continuous
 62
     7
370
    15
100
AcDbLine
 10
238.4385787501
 20
352.3295483355
 30
0.0
 11
238.4385787501
 21
349.3205484738
 31
0.0
  0
LINE
  5
15E
330
1F
100
AcDbEntity
  8
0
  6
Continuous
 62
     7
370
    15
100
AcDbLine
 10
238.4385787501
 20
355.3385481973
 30
0.0
 11
238.4385787501
 21
352.3295483355
 31
0.0
  0
LWPOLYLINE
  5
15F
330
1F
100
AcDbEntity
  8
0
  6
Continuous
 62
     8
370
     0
100
AcDbPolyline
 90
       19
 70
   128
 43
0.0
 10
171.4043276935
 20
193.8616585721
 10
171.5816328852
 20
192.0104575147
 10
172.1078487664
 20
190.2187418927
 10
172.9660625189
 20
188.5441195955
 10
174.1286902308
 20
187.0403987159
 10
175.558364912
 20
185.755918621
 10
177.2091351069
 20
184.7319704284
 10
179.0279433682
 20
184.001455902
 10
180.9563322078
 20
183.5878592719
 10
182.9323215262
 20
183.5044723739
 10
184.8924012939
 20
183.7539774169
 10
186.7735730103
 20
184.3283426751
 10
188.5153743989
 20
185.209120511
 10
190.0618220299
 20
186.3679987182
 10
191.3632121488
 20
187.7677243938
 10
192.3777176618
 20
189.3633109321
 10
193.0727301716
 20
191.1034834375
 10
193.4259119063
 20
192.9323178519
 10
193.4703276112
 20
193.8616585721
  0
LINE
  5
160
330
1F
100
AcDbEntity
  8
0
  6
Continuous
 62
     8
370
     0
100
AcDbLine
 10
160.6715605213
 20
273.5990536203
 30
0.0
 11
160.6715605213
 21
277.6110497107
 31
0.0
  0
LINE
  5
161
330
1F
100
AcDbEntity
  8
0
  6
Continuous
 62
     8
370
     0
100
AcDbLine
 10
167.0993505596
 20
277.6110497107
 30
0.0
 11
167.0993505596
 21
273.5990536203
 31
0.0
  0
LWPOLYLINE
  5
162
330
1F
100
AcDbEntity
  8
0
  6
Continuous
 62
     8
370
     0
100
AcDbPolyline
 90
        9
 70
   128
 43
0.0
 10
160.6715605213
 20
277.6110497107
 10
160.6781524225
 20
277.8067243089
 10
160.6976748063
 20
277.9948812713
 10
160.7293751641
 20
278.1682860841
 10
160.7720371886
 20
278.3202779283
 10
160.8240217521
 20
278.4450155486
 10
160.8833302363
 20
278.5377007713
 10
160.9476827635
 20
278.5947796692
 10
161.0146076038
 20
278.6140468706
  0
ARC
  5
163
330
1F
100
AcDbEntity
  8
0
  6
Continuous
 62
     8
370
     0
100
AcDbCircle
 10
166.1256300593
 20
277.6403846646
 30
0.0
 40
0.9741622823415107
100
AcDbArc
 50
358.2743910299
 51
88.1640591521
  0
LWPOLYLINE
  5
164
330
1F
100
AcDbEntity
  8
0
  6
Continuous
 62
     8
370
     0
100
AcDbPolyline
 90
        9
 70
   128
 43
0.0
 10
161.0146076038
 20
272.5960490097
 10
160.9476827635
 20
272.6153236617
 10
160.8833302363
 20
272.6724025597
 10
160.8240217521
 20
272.7650877823
 10
160.7720371886
 20
272.8898254027
 10
160.7293751641
 20
273.0418172468
 10
160.6976748063
 20
273.2152220597
 10
160.6781524225
 20
273.4033715715
 10
160.6715605213
 20
273.5990536203
  0
ARC
  5
165
330
1F
100
AcDbEntity
  8
0
  6
Continuous
 62
     8
370
     0
100
AcDbCircle
 10
166.1256148186
 20
273.5697257552
 30
0.0
 40
0.9741773026463721
100
AcDbArc
 50
271.8368093632
 51
1.7251652423
  0
LWPOLYLINE
  5
166
330
1F
100
AcDbEntity
  8
0
  6
Continuous
 62
     8
370
     0
100
AcDbPolyline
 90
        9
 70
   128
 43
0.0
 10
151.2464438184
 20
277.6110497107
 10
151.2530357196
 20
277.8067243089
 10
151.2725581034
 20
277.9948812713
 10
151.3042584612
 20
278.1682860841
 10
151.3469204857
 20
278.3202779283
 10
151.3989050492
 20
278.4450155486
 10
151.4582116707
 20
278.5377007713
 10
151.5225660606
 20
278.5947796692
 10
151.5894909008
 20
278.6140468706
  0
LINE
  5
167
330
1F
100
AcDbEntity
  8
0
  6
Continuous
 62
     8
370
     0
100
AcDbLine
 10
151.2464438184
 20
277.6110497107
 30
0.0
 11
151.2464438184
 21
273.5990536203
 31
0.0
  0
LWPOLYLINE
  5
168
330
1F
100
AcDbEntity
  8
0
  6
Continuous
 62
     8
370
     0
100
AcDbPolyline
 90
        9
 70
   128
 43
0.0
 10
151.5894909008
 20
272.5960490097
 10
151.5225660606
 20
272.6153236617
 10
151.4582116707
 20
272.6724025597
 10
151.3989050492
 20
272.7650877823
 10
151.3469204857
 20
272.8898254027
 10
151.3042584612
 20
273.0418172468
 10
151.2725581034
 20
273.2152220597
 10
151.2530357196
 20
273.4033715715
 10
151.2464438184
 20
273.5990536203
  0
ARC
  5
169
330
1F
100
AcDbEntity
  8
0
  6
Continuous
 62
     8
370
     0
100
AcDbCircle
 10
182.4373290493
 20
349.3295484771
 30
0.0
 40
13.17511183337007
100
AcDbArc
 50
90.0
 51
213.1321306052
  0
ARC
  5
16A
330
1F
100
AcDbEntity
  8
0
  6
Continuous
 62
     8
370
     0
100
AcDbCircle
 10
182.4373290493
 20
349.3295484771
 30
0.0
 40
13.17511183337007
100
AcDbArc
 50
326.8678499859
 51
90.0
  0
SPLINE
  5
16B
330
1F
100
AcDbEntity
  8
0
  6
Continuous
 62
     8
370
     0
100
AcDbSpline
210
0.0
220
0.0
230
1.0
 70
     8
 71
     3
 72
    25
 73
    21
 74
     0
 42
0.00000001
 43
0.00000001
 40
0.0
 40
0.0
 40
0.0
 40
0.0
 40
0.0135159682633403
 40
0.0483957115483814
 40
0.0846629796172022
 40
0.1116969079541644
 40
0.1534583959457032
 40
0.1955398843274251
 40
0.2463314237174508
 40
0.2976743628308039
 40
0.3491143545261063
 40
0.4525274399731364
 40
0.5577223499336558
 40
0.6106116487955975
 40
0.6635920414629516
 40
0.73875094624355
 40
0.8142612765207433
 40
0.8910951550065686
 40
0.9685146369500949
 40
1.0
 40
1.0
 40
1.0
 40
1.0
 10
205.5055838628719
 20
341.6365977500312
 30
0.0
 10
205.5051330205057
 20
341.6344533052275
 30
0.0
 10
205.5035187197995
 20
341.6267748370532
 30
0.0
 10
205.4641454228148
 20
341.4396724790083
 30
0.0
 10
205.3791682334923
 20
341.0541701233702
 30
0.0
 10
205.2552841853839
 20
340.5249787163268
 30
0.0
 10
205.092668569961
 20
339.8760529796463
 30
0.0
 10
204.8543546240196
 20
339.0087663895114
 30
0.0
 10
204.5542361089012
 20
338.0220809860647
 30
0.0
 10
204.184312566705
 20
336.9332267760704
 30
0.0
 10
203.6202727703015
 20
335.4422754914452
 30
0.0
 10
202.7799669183779
 20
333.5352082096576
 30
0.0
 10
201.7530998593843
 20
331.6285784828622
 30
0.0
 10
200.8059726125333
 20
330.1163293179757
 30
0.0
 10
199.9230186220678
 20
328.8395977104393
 30
0.0
 10
198.8293014689805
 20
327.4386333101389
 30
0.0
 10
197.4697264252343
 20
325.9339678744822
 30
0.0
 10
195.9415951127026
 20
324.4998056339869
 30
0.0
 10
194.5911629606682
 20
323.4123588774456
 30
0.0
 10
193.7216977629132
 20
322.8396899511891
 30
0.0
 10
193.4703276111792
 20
322.6741262515055
 30
0.0
  0
SPLINE
  5
16C
330
1F
100
AcDbEntity
  8
0
  6
Continuous
 62
     8
370
     0
100
AcDbSpline
210
0.0
220
0.0
230
1.0
 70
     8
 71
     3
 72
    23
 73
    19
 74
     0
 42
0.00000001
 43
0.00000001
 40
0.0
 40
0.0
 40
0.0
 40
0.0
 40
0.0588768110784652
 40
0.1265314340717624
 40
0.1954781245855512
 40
0.2647725806934025
 40
0.3170701525003961
 40
0.3694754179267781
 40
0.4749430551960957
 40
0.5825226330455827
 40
0.6907351591510843
 40
0.7428138453793902
 40
0.7950130763081349
 40
0.8478485523303831
 40
0.9011958576355862
 40
0.9375503135359554
 40
0.9749127658204556
 40
1.0
 40
1.0
 40
1.0
 40
1.0
 10
171.4043276934932
 20
322.6734985400902
 30
0.0
 10
170.9408089482369
 20
322.9888187738475
 30
0.0
 10
169.9446664859991
 20
323.6664696288842
 30
0.0
 10
168.5615674717424
 20
324.8353796607589
 30
0.0
 10
167.2178491132461
 20
326.1346503033273
 30
0.0
 10
166.0896618021164
 20
327.3989646257167
 30
0.0
 10
165.1442954368898
 20
328.5902419290653
 30
0.0
 10
164.0881380881567
 20
330.0614445903579
 30
0.0
 10
162.9102079459365
 20
331.9693059889397
 30
0.0
 10
161.7228306228386
 20
334.319685952284
 30
0.0
 10
160.9217984348975
 20
336.278607799211
 30
0.0
 10
160.3946496385146
 20
337.7931241852021
 30
0.0
 10
160.0571655151821
 20
338.8777204656861
 30
0.0
 10
159.7720550908688
 20
339.9067068810193
 30
0.0
 10
159.569562185354
 20
340.7295451826411
 30
0.0
 10
159.4407118107764
 20
341.2996634204133
 30
0.0
 10
159.3777815659645
 20
341.5951072036502
 30
0.0
 10
159.3710487713249
 20
341.6272883153279
 30
0.0
 10
159.3683440788696
 20
341.6402160837528
 30
0.0
  0
LINE
  5
16D
330
1F
100
AcDbEntity
  8
0
  6
Continuous
 62
     8
370
     0
100
AcDbLine
 10
167.2085118099
 20
280.6200523664
 30
0.0
 11
171.4043276935
 21
280.6200523664
 31
0.0
  0
LINE
  5
16E
330
1F
100
AcDbEntity
  8
0
  6
Continuous
 62
     8
370
     0
100
AcDbLine
 10
171.4043276935
 20
270.5900472392
 30
0.0
 11
167.2085118099
 21
270.5900472392
 31
0.0
  0
SPLINE
  5
16F
330
1F
100
AcDbEntity
  8
0
  6
Continuous
 62
     8
370
     0
100
AcDbSpline
210
0.0
220
0.0
230
1.0
 70
     8
 71
     3
 72
    21
 73
    17
 74
     0
 42
0.00000001
 43
0.00000001
 40
0.0
 40
0.0
 40
0.0
 40
0.0
 40
0.0344974801707627
 40
0.1566478464342932
 40
0.2182970899399415
 40
0.3432972395800795
 40
0.4065620783778543
 40
0.4705631940806918
 40
0.5380350948594884
 40
0.6059482755960142
 40
0.6752619899102988
 40
0.7450664543363991
 40
0.8078001367879661
 40
0.8709126305182143
 40
0.935241018315915
 40
1.0
 40
1.0
 40
1.0
 40
1.0
 10
165.167475546808
 20
278.6140468706357
 30
0.0
 10
165.1772260518391
 20
278.6542964433499
 30
0.0
 10
165.2215016223211
 20
278.8370636731408
 30
0.0
 10
165.30727123424
 20
279.0779255877343
 30
0.0
 10
165.4503429070377
 20
279.397518120632
 30
0.0
 10
165.5875681872302
 20
279.6357077750855
 30
0.0
 10
165.7446351170899
 20
279.8511318405007
 30
0.0
 10
165.8753173163075
 20
280.0037344753983
 30
0.0
 10
166.0184141386095
 20
280.1445469492146
 30
0.0
 10
166.1744384999826
 20
280.2718574132161
 30
0.0
 10
166.3407770219899
 20
280.3820243787784
 30
0.0
 10
166.510501517925
 20
280.4701271121681
 30
0.0
 10
166.6810239994107
 20
280.5370621985015
 30
0.0
 10
166.8515324240614
 20
280.5840523043663
 30
0.0
 10
167.027615056659
 20
280.6143236575824
 30
0.0
 10
167.1480789492489
 20
280.6181385550526
 30
0.0
 10
167.2085118099163
 20
280.6200523664223
 30
0.0
  0
SPLINE
  5
170
330
1F
100
AcDbEntity
  8
0
  6
Continuous
 62
     8
370
     0
100
AcDbSpline
210
0.0
220
0.0
230
1.0
 70
     8
 71
     3
 72
    21
 73
    17
 74
     0
 42
0.00000001
 43
0.00000001
 40
0.0
 40
0.0
 40
0.0
 40
0.0
 40
0.0492708525784331
 40
0.1396655437644972
 40
0.2177134171037473
 40
0.2920582267904064
 40
0.3422659260511425
 40
0.4343273321183504
 40
0.5137483351228807
 40
0.5893598930695322
 40
0.645145050216311
 40
0.7389926092770694
 40
0.815295476663765
 40
0.8924635264197459
 40
0.9795433809592878
 40
1.0
 40
1.0
 40
1.0
 40
1.0
 10
167.2085118099163
 20
270.5900472392308
 30
0.0
 10
167.1625244426614
 20
270.5912024289938
 30
0.0
 10
167.0321664253382
 20
270.5944769858148
 30
0.0
 10
166.832352608743
 20
270.6280315226747
 30
0.0
 10
166.6162439379667
 20
270.6946266459962
 30
0.0
 10
166.4424582863351
 20
270.7731310205556
 30
0.0
 10
166.2635290230763
 20
270.8758173733906
 30
0.0
 10
166.089003361374
 20
271.0024042559791
 30
0.0
 10
165.9080280001566
 20
271.1703768777816
 30
0.0
 10
165.7650187444125
 20
271.3332197064634
 30
0.0
 10
165.6233892100281
 20
271.5235826382204
 30
0.0
 10
165.494787573238
 20
271.7325408778316
 30
0.0
 10
165.3713966836171
 20
271.9805781602632
 30
0.0
 10
165.2703379145426
 20
272.2384841759068
 30
0.0
 10
165.1998636635091
 20
272.4438731356316
 30
0.0
 10
165.1742576433843
 20
272.5717273543955
 30
0.0
 10
165.1693866207312
 20
272.5960490097272
 30
0.0
  0
ENDSEC
  0
SECTION
  2
OBJECTS
  0
DICTIONARY
  5
C
330
0
100
AcDbDictionary
281
     1
  3
ACAD_GROUP
350
D
  3
ACAD_LAYOUT
350
1A
  3
ACAD_MATERIAL
350
3B
  3
ACAD_MLEADERSTYLE
350
172
  3
ACAD_MLINESTYLE
350
17
  3
ACAD_PLOTSETTINGS
350
19
  3
ACAD_PLOTSTYLENAME
350
E
  3
ACAD_TABLESTYLE
350
171
  3
ACAD_VISUALSTYLE
350
2A
  0
DICTIONARY
  5
D
102
{ACAD_REACTORS
330
C
102
}
330
C
100
AcDbDictionary
281
     1
  0
DICTIONARY
  5
1A
102
{ACAD_REACTORS
330
C
102
}
330
C
100
AcDbDictionary
281
     1
  3
Layout1
350
1E
  3
Layout2
350
26
  3
Model
350
22
  0
DICTIONARY
  5
3B
102
{ACAD_REACTORS
330
C
102
}
330
C
100
AcDbDictionary
281
     1
  3
ByBlock
350
3D
  3
ByLayer
350
3C
  3
Global
350
3E
  0
DICTIONARY
  5
172
102
{ACAD_REACTORS
330
C
102
}
330
C
100
AcDbDictionary
281
     1
  0
DICTIONARY
  5
17
102
{ACAD_REACTORS
330
C
102
}
330
C
100
AcDbDictionary
281
     1
  3
Standard
350
18
  0
DICTIONARY
  5
19
102
{ACAD_REACTORS
330
C
102
}
330
C
100
AcDbDictionary
281
     1
  0
ACDBDICTIONARYWDFLT
  5
E
102
{ACAD_REACTORS
330
C
102
}
330
C
100
AcDbDictionary
281
     1
  3
Normal
350
F
100
AcDbDictionaryWithDefault
340
F
  0
DICTIONARY
  5
171
102
{ACAD_REACTORS
330
C
102
}
330
C
100
AcDbDictionary
281
     1
  0
DICTIONARY
  5
2A
102
{ACAD_REACTORS
330
C
102
}
330
C
100
AcDbDictionary
281
     1
  3
2dWireframe
350
2F
  3
3D Hidden
350
31
  3
3dWireframe
350
30
  3
Basic
350
32
  3
Brighten
350
36
  3
ColorChange
350
3A
  3
Conceptual
350
34
  3
Dim
350
35
  3
Facepattern
350
39
  3
Flat
350
2B
  3
FlatWithEdges
350
2C
  3
Gouraud
350
2D
  3
GouraudWithEdges
350
2E
  3
Linepattern
350
38
  3
Realistic
350
33
  3
Thicken
350
37
  0
LAYOUT
  5
1E
102
{ACAD_REACTORS
330
1A
102
}
330
1A
100
AcDbPlotSettings
  1

  2
none_device
  4

  6

 40
0.0
 41
0.0
 42
0.0
 43
0.0
 44
0.0
 45
0.0
 46
0.0
 47
0.0
 48
0.0
 49
0.0
140
0.0
141
0.0
142
1.0
143
1.0
 70
   688
 72
     0
 73
     0
 74
     5
  7

 75
    16
 76
     0
 77
     2
 78
   300
147
1.0
148
0.0
149
0.0
100
AcDbLayout
  1
Layout1
 70
     1
 71
     1
 10
0.0
 20
0.0
 11
420.0
 21
297.0
 12
0.0
 22
0.0
 32
0.0
 14
1.0000000000E+20
 24
1.0000000000E+20
 34
1.0000000000E+20
 15
-1.0000000000E+20
 25
-1.0000000000E+20
 35
-1.0000000000E+20
146
0.0
 13
0.0
 23
0.0
 33
0.0
 16
1.0
 26
0.0
 36
0.0
 17
0.0
 27
1.0
 37
0.0
 76
     0
330
1B
  0
LAYOUT
  5
26
102
{ACAD_REACTORS
330
1A
102
}
330
1A
100
AcDbPlotSettings
  1

  2
none_device
  4

  6

 40
0.0
 41
0.0
 42
0.0
 43
0.0
 44
0.0
 45
0.0
 46
0.0
 47
0.0
 48
0.0
 49
0.0
140
0.0
141
0.0
142
1.0
143
1.0
 70
   688
 72
     0
 73
     0
 74
     5
  7

 75
    16
 76
     0
 77
     2
 78
   300
147
1.0
148
0.0
149
0.0
100
AcDbLayout
  1
Layout2
 70
     1
 71
     2
 10
0.0
 20
0.0
 11
0.0
 21
0.0
 12
0.0
 22
0.0
 32
0.0
 14
0.0
 24
0.0
 34
0.0
 15
0.0
 25
0.0
 35
0.0
146
0.0
 13
0.0
 23
0.0
 33
0.0
 16
1.0
 26
0.0
 36
0.0
 17
0.0
 27
1.0
 37
0.0
 76
     0
330
23
  0
LAYOUT
  5
22
102
{ACAD_REACTORS
330
1A
102
}
330
1A
100
AcDbPlotSettings
  1

  2
none_device
  4

  6

 40
0.0
 41
0.0
 42
0.0
 43
0.0
 44
0.0
 45
0.0
 46
0.0
 47
0.0
 48
0.0
 49
0.0
140
0.0
141
0.0
142
1.0
143
1.0
 70
  1712
 72
     0
 73
     0
 74
     0
  7

 75
     0
 76
     0
 77
     2
 78
   300
147
1.0
148
0.0
149
0.0
100
AcDbLayout
  1
Model
 70
     1
 71
     0
 10
0.0
 20
0.0
 11
594.0
 21
841.0
 12
0.0
 22
0.0
 32
0.0
 14
0.0
 24
0.0
 34
0.0
 15
594.0
 25
841.0
 35
0.0
146
0.0
 13
0.0
 23
0.0
 33
0.0
 16
1.0
 26
0.0
 36
0.0
 17
0.0
 27
1.0
 37
0.0
 76
     0
330
1F
331
29
  0
MATERIAL
  5
3D
102
{ACAD_REACTORS
330
3B
102
}
330
3B
100
AcDbMaterial
  1
ByBlock
 72
     1
 94
      127
  0
MATERIAL
  5
3C
102
{ACAD_REACTORS
330
3B
102
}
330
3B
100
AcDbMaterial
  1
ByLayer
 72
     1
 94
      127
  0
MATERIAL
  5
3E
102
{ACAD_REACTORS
330
3B
102
}
330
3B
100
AcDbMaterial
  1
Global
 72
     1
 94
      127
  0
MLINESTYLE
  5
18
102
{ACAD_REACTORS
330
17
102
}
330
17
100
AcDbMlineStyle
  2
Standard
 70
     0
  3

 62
   256
 51
90.0
 52
90.0
 71
     2
 49
0.5
 62
   256
  6
BYLAYER
 49
-0.5
 62
   256
  6
BYLAYER
  0
ACDBPLACEHOLDER
  5
F
102
{ACAD_REACTORS
330
E
102
}
330
E
  0
VISUALSTYLE
  5
2F
102
{ACAD_REACTORS
330
2A
102
}
330
2A
100
AcDbVisualStyle
  2
2dWireframe
 70
     4
177
     2
291
     0
 71
     0
176
     1
 72
     2
176
     1
 73
     0
176
     1
 90
        0
176
     1
 40
-0.6
176
     1
 41
-30.0
176
     1
 62
     5
 63
     7
421
 16777215
176
     1
 74
     1
176
     1
 91
        4
176
     1
 64
     7
176
     1
 65
   257
176
     1
 75
     1
176
     1
175
     1
176
     1
 42
1.0
176
     1
 92
        0
176
     1
 66
   257
176
     1
 43
1.0
176
     1
 76
     1
176
     1
 77
     6
176
     1
 78
     2
176
     1
 67
     7
176
     1
 79
     5
176
     1
170
     0
176
     1
171
     0
176
     1
290
     0
176
     1
 93
        1
176
     1
 44
0.0
176
     1
173
     0
176
     1
  0
VISUALSTYLE
  5
31
102
{ACAD_REACTORS
330
2A
102
}
330
2A
100
AcDbVisualStyle
  2
3D Hidden
 70
     6
177
     2
291
     0
 71
     1
176
     1
 72
     2
176
     1
 73
     2
176
     1
 90
        0
176
     1
 40
-0.6
176
     1
 41
-30.0
176
     1
 62
     5
 63
     7
421
 16777215
176
     1
 74
     2
176
     1
 91
        2
176
     1
 64
     7
176
     1
 65
   257
176
     1
 75
     2
176
     1
175
     1
176
     1
 42
40.0
176
     1
 92
        0
176
     1
 66
   257
176
     1
 43
1.0
176
     1
 76
     1
176
     1
 77
     6
176
     1
 78
     2
176
     1
 67
     7
176
     1
 79
     3
176
     1
170
     0
176
     1
171
     0
176
     1
290
     0
176
     1
 93
        1
176
     1
 44
0.0
176
     1
173
     0
176
     1
  0
VISUALSTYLE
  5
30
102
{ACAD_REACTORS
330
2A
102
}
330
2A
100
AcDbVisualStyle
  2
3dWireframe
 70
     5
177
     2
291
     0
 71
     0
176
     1
 72
     2
176
     1
 73
     0
176
     1
 90
        0
176
     1
 40
-0.6
176
     1
 41
-30.0
176
     1
 62
     5
 63
     7
421
 16777215
176
     1
 74
     1
176
     1
 91
        4
176
     1
 64
     7
176
     1
 65
   257
176
     1
 75
     1
176
     1
175
     1
176
     1
 42
1.0
176
     1
 92
        0
176
     1
 66
   257
176
     1
 43
1.0
176
     1
 76
     1
176
     1
 77
     6
176
     1
 78
     2
176
     1
 67
     7
176
     1
 79
     5
176
     1
170
     0
176
     1
171
     0
176
     1
290
     0
176
     1
 93
        1
176
     1
 44
0.0
176
     1
173
     0
176
     1
  0
VISUALSTYLE
  5
32
102
{ACAD_REACTORS
330
2A
102
}
330
2A
100
AcDbVisualStyle
  2
Basic
 70
     7
177
     2
291
     1
 71
     1
176
     1
 72
     0
176
     1
 73
     1
176
     1
 90
        0
176
     1
 40
-0.6
176
     1
 41
-30.0
176
     1
 62
     5
 63
     7
421
 16777215
176
     1
 74
     0
176
     1
 91
        4
176
     1
 64
     7
176
     1
 65
   257
176
     1
 75
     1
176
     1
175
     1
176
     1
 42
1.0
176
     1
 92
        8
176
     1
 66
     7
176
     1
 43
1.0
176
     1
 76
     1
176
     1
 77
     6
176
     1
 78
     2
176
     1
 67
     7
176
     1
 79
     5
176
     1
170
     0
176
     1
171
     0
176
     1
290
     0
176
     1
 93
        1
176
     1
 44
0.0
176
     1
173
     0
176
     1
  0
VISUALSTYLE
  5
36
102
{ACAD_REACTORS
330
2A
102
}
330
2A
100
AcDbVisualStyle
  2
Brighten
 70
    12
177
     2
291
     1
 71
     2
176
     1
 72
     2
176
     1
 73
     0
176
     1
 90
        0
176
     1
 40
-0.6
176
     1
 41
-30.0
176
     1
 62
     5
 63
     7
421
 16777215
176
     1
 74
     1
176
     1
 91
        4
176
     1
 64
     7
176
     1
 65
   257
176
     1
 75
     1
176
     1
175
     1
176
     1
 42
1.0
176
     1
 92
        8
176
     1
 66
     7
176
     1
 43
1.0
176
     1
 76
     1
176
     1
 77
     6
176
     1
 78
     2
176
     1
 67
     7
176
     1
 79
     5
176
     1
170
     0
176
     1
171
     0
176
     1
290
     0
176
     1
 93
        1
176
     1
 44
50.0
176
     1
173
     0
176
     1
  0
VISUALSTYLE
  5
3A
102
{ACAD_REACTORS
330
2A
102
}
330
2A
100
AcDbVisualStyle
  2
ColorChange
 70
    16
177
     2
291
     1
 71
     2
176
     1
 72
     2
176
     1
 73
     3
176
     1
 90
        0
176
     1
 40
-0.6
176
     1
 41
-30.0
176
     1
 62
     5
 63
     8
421
  8421504
176
     1
 74
     1
176
     1
 91
        4
176
     1
 64
     7
176
     1
 65
   257
176
     1
 75
     1
176
     1
175
     1
176
     1
 42
1.0
176
     1
 92
        8
176
     1
 66
     8
424
  8421504
176
     1
 43
1.0
176
     1
 76
     1
176
     1
 77
     6
176
     1
 78
     2
176
     1
 67
     7
176
     1
 79
     5
176
     1
170
     0
176
     1
171
     0
176
     1
290
     0
176
     1
 93
        1
176
     1
 44
0.0
176
     1
173
     0
176
     1
  0
VISUALSTYLE
  5
34
102
{ACAD_REACTORS
330
2A
102
}
330
2A
100
AcDbVisualStyle
  2
Conceptual
 70
     9
177
     2
291
     0
 71
     3
176
     1
 72
     2
176
     1
 73
     0
176
     1
 90
        0
176
     1
 40
-0.6
176
     1
 41
-30.0
176
     1
 62
     5
 63
     7
421
 16777215
176
     1
 74
     2
176
     1
 91
        2
176
     1
 64
     7
176
     1
 65
   257
176
     1
 75
     1
176
     1
175
     1
176
     1
 42
40.0
176
     1
 92
        8
176
     1
 66
     7
176
     1
 43
1.0
176
     1
 76
     1
176
     1
 77
     6
176
     1
 78
     2
176
     1
 67
     7
176
     1
 79
     3
176
     1
170
     0
176
     1
171
     0
176
     1
290
     0
176
     1
 93
        1
176
     1
 44
0.0
176
     1
173
     0
176
     1
  0
VISUALSTYLE
  5
35
102
{ACAD_REACTORS
330
2A
102
}
330
2A
100
AcDbVisualStyle
  2
Dim
 70
    11
177
     2
291
     1
 71
     2
176
     1
 72
     2
176
     1
 73
     0
176
     1
 90
        0
176
     1
 40
-0.6
176
     1
 41
-30.0
176
     1
 62
     5
 63
     7
421
 16777215
176
     1
 74
     1
176
     1
 91
        4
176
     1
 64
     7
176
     1
 65
   257
176
     1
 75
     1
176
     1
175
     1
176
     1
 42
1.0
176
     1
 92
        8
176
     1
 66
     7
176
     1
 43
1.0
176
     1
 76
     1
176
     1
 77
     6
176
     1
 78
     2
176
     1
 67
     7
176
     1
 79
     5
176
     1
170
     0
176
     1
171
     0
176
     1
290
     0
176
     1
 93
        1
176
     1
 44
-50.0
176
     1
173
     0
176
     1
  0
VISUALSTYLE
  5
39
102
{ACAD_REACTORS
330
2A
102
}
330
2A
100
AcDbVisualStyle
  2
Facepattern
 70
    15
177
     2
291
     1
 71
     2
176
     1
 72
     2
176
     1
 73
     0
176
     1
 90
        0
176
     1
 40
-0.6
176
     1
 41
-30.0
176
     1
 62
     5
 63
     7
421
 16777215
176
     1
 74
     1
176
     1
 91
        4
176
     1
 64
     7
176
     1
 65
   257
176
     1
 75
     1
176
     1
175
     1
176
     1
 42
1.0
176
     1
 92
        8
176
     1
 66
     7
176
     1
 43
1.0
176
     1
 76
     1
176
     1
 77
     6
176
     1
 78
     2
176
     1
 67
     7
176
     1
 79
     5
176
     1
170
     0
176
     1
171
     0
176
     1
290
     0
176
     1
 93
        1
176
     1
 44
0.0
176
     1
173
     0
176
     1
  0
VISUALSTYLE
  5
2B
102
{ACAD_REACTORS
330
2A
102
}
330
2A
100
AcDbVisualStyle
  2
Flat
 70
     0
177
     2
291
     1
 71
     2
176
     1
 72
     1
176
     1
 73
     1
176
     1
 90
        2
176
     1
 40
-0.6
176
     1
 41
30.0
176
     1
 62
     5
 63
     7
421
 16777215
176
     1
 74
     0
176
     1
 91
        4
176
     1
 64
     7
176
     1
 65
   257
176
     1
 75
     1
176
     1
175
     1
176
     1
 42
1.0
176
     1
 92
        8
176
     1
 66
     7
176
     1
 43
1.0
176
     1
 76
     1
176
     1
 77
     6
176
     1
 78
     2
176
     1
 67
     7
176
     1
 79
     5
176
     1
170
     0
176
     1
171
     0
176
     1
290
     0
176
     1
 93
       13
176
     1
 44
0.0
176
     1
173
     0
176
     1
  0
VISUALSTYLE
  5
2C
102
{ACAD_REACTORS
330
2A
102
}
330
2A
100
AcDbVisualStyle
  2
FlatWithEdges
 70
     1
177
     2
291
     1
 71
     2
176
     1
 72
     1
176
     1
 73
     1
176
     1
 90
        2
176
     1
 40
-0.6
176
     1
 41
30.0
176
     1
 62
     5
 63
     7
421
 16777215
176
     1
 74
     1
176
     1
 91
        4
176
     1
 64
     7
176
     1
 65
   257
176
     1
 75
     1
176
     1
175
     1
176
     1
 42
1.0
176
     1
 92
        0
176
     1
 66
   257
176
     1
 43
1.0
176
     1
 76
     1
176
     1
 77
     6
176
     1
 78
     2
176
     1
 67
     7
176
     1
 79
     5
176
     1
170
     0
176
     1
171
     0
176
     1
290
     0
176
     1
 93
       13
176
     1
 44
0.0
176
     1
173
     0
176
     1
  0
VISUALSTYLE
  5
2D
102
{ACAD_REACTORS
330
2A
102
}
330
2A
100
AcDbVisualStyle
  2
Gouraud
 70
     2
177
     2
291
     1
 71
     2
176
     1
 72
     2
176
     1
 73
     1
176
     1
 90
        2
176
     1
 40
-0.6
176
     1
 41
30.0
176
     1
 62
     5
 63
     7
421
 16777215
176
     1
 74
     0
176
     1
 91
        4
176
     1
 64
     7
176
     1
 65
   257
176
     1
 75
     1
176
     1
175
     1
176
     1
 42
1.0
176
     1
 92
        0
176
     1
 66
     7
176
     1
 43
1.0
176
     1
 76
     1
176
     1
 77
     6
176
     1
 78
     2
176
     1
 67
     7
176
     1
 79
     5
176
     1
170
     0
176
     1
171
     0
176
     1
290
     0
176
     1
 93
       13
176
     1
 44
0.0
176
     1
173
     0
176
     1
  0
VISUALSTYLE
  5
2E
102
{ACAD_REACTORS
330
2A
102
}
330
2A
100
AcDbVisualStyle
  2
GouraudWithEdges
 70
     3
177
     2
291
     1
 71
     2
176
     1
 72
     2
176
     1
 73
     1
176
     1
 90
        2
176
     1
 40
-0.6
176
     1
 41
30.0
176
     1
 62
     5
 63
     7
421
 16777215
176
     1
 74
     1
176
     1
 91
        4
176
     1
 64
     7
176
     1
 65
   257
176
     1
 75
     1
176
     1
175
     1
176
     1
 42
1.0
176
     1
 92
        0
176
     1
 66
   257
176
     1
 43
1.0
176
     1
 76
     1
176
     1
 77
     6
176
     1
 78
     2
176
     1
 67
     7
176
     1
 79
     5
176
     1
170
     0
176
     1
171
     0
176
     1
290
     0
176
     1
 93
       13
176
     1
 44
0.0
176
     1
173
     0
176
     1
  0
VISUALSTYLE
  5
38
102
{ACAD_REACTORS
330
2A
102
}
330
2A
100
AcDbVisualStyle
  2
Linepattern
 70
    14
177
     2
291
     1
 71
     2
176
     1
 72
     2
176
     1
 73
     0
176
     1
 90
        0
176
     1
 40
-0.6
176
     1
 41
-30.0
176
     1
 62
     5
 63
     7
421
 16777215
176
     1
 74
     1
176
     1
 91
        4
176
     1
 64
     7
176
     1
 65
   257
176
     1
 75
     7
176
     1
175
     7
176
     1
 42
1.0
176
     1
 92
        8
176
     1
 66
     7
176
     1
 43
1.0
176
     1
 76
     1
176
     1
 77
     6
176
     1
 78
     2
176
     1
 67
     7
176
     1
 79
     5
176
     1
170
     0
176
     1
171
     0
176
     1
290
     0
176
     1
 93
        1
176
     1
 44
0.0
176
     1
173
     0
176
     1
  0
VISUALSTYLE
  5
33
102
{ACAD_REACTORS
330
2A
102
}
330
2A
100
AcDbVisualStyle
  2
Realistic
 70
     8
177
     2
291
     0
 71
     2
176
     1
 72
     2
176
     1
 73
     0
176
     1
 90
        0
176
     1
 40
-0.6
176
     1
 41
-30.0
176
     1
 62
     5
 63
     7
421
 16777215
176
     1
 74
     1
176
     1
 91
        0
176
     1
 64
     7
176
     1
 65
   257
176
     1
 75
     1
176
     1
175
     1
176
     1
 42
1.0
176
     1
 92
        8
176
     1
 66
     8
424
  7895160
176
     1
 43
1.0
176
     1
 76
     1
176
     1
 77
     6
176
     1
 78
     2
176
     1
 67
     7
176
     1
 79
     5
176
     1
170
     0
176
     1
171
     0
176
     1
290
     0
176
     1
 93
       13
176
     1
 44
0.0
176
     1
173
     0
176
     1
  0
VISUALSTYLE
  5
37
102
{ACAD_REACTORS
330
2A
102
}
330
2A
100
AcDbVisualStyle
  2
Thicken
 70
    13
177
     2
291
     1
 71
     2
176
     1
 72
     2
176
     1
 73
     0
176
     1
 90
        0
176
     1
 40
-0.6
176
     1
 41
-30.0
176
     1
 62
     5
 63
     7
421
 16777215
176
     1
 74
     1
176
     1
 91
        4
176
     1
 64
     7
176
     1
 65
   257
176
     1
 75
     1
176
     1
175
     1
176
     1
 42
1.0
176
     1
 92
       12
176
     1
 66
     7
176
     1
 43
1.0
176
     1
 76
     1
176
     1
 77
     6
176
     1
 78
     2
176
     1
 67
     7
176
     1
 79
     5
176
     1
170
     0
176
     1
171
     0
176
     1
290
     0
176
     1
 93
        1
176
     1
 44
0.0
176
     1
173
     0
176
     1
  0
ENDSEC
  0
EOF
