  0
SECTION
  2
HEADER
  9
$ACADVER
  1
AC1015
  9
$ACADMAINTVER
 70
     6
  9
$DWGCODEPAGE
  3
ANSI_1252
  9
$INSBASE
 10
0.0
 20
0.0
 30
0.0
  9
$EXTMIN
 10
0.0
 20
0.0
 30
0.0
  9
$EXTMAX
 10
594.0
 20
841.0
 30
0.0
  9
$LIMMIN
 10
0.0
 20
0.0
  9
$LIMMAX
 10
594.0
 20
841.0
  9
$ORTHOMODE
 70
     0
  9
$REGENMODE
 70
     1
  9
$FILLMODE
 70
     1
  9
$QTEXTMODE
 70
     0
  9
$MIRRTEXT
 70
     1
  9
$LTSCALE
 40
1.0
  9
$ATTMODE
 70
     1
  9
$TEXTSIZE
 40
10.0
  9
$TRACEWID
 40
1.0
  9
$TEXTSTYLE
  7
Standard
  9
$CLAYER
  8
0
  9
$CELTYPE
  6
ByLayer
  9
$CECOLOR
 62
   256
  9
$CELTSCALE
 40
1.0
  9
$DISPSILH
 70
     0
  9
$DIMSCALE
 40
1.0
  9
$DIMASZ
 40
2.5
  9
$DIMEXO
 40
0.0
  9
$DIMDLI
 40
3.75
  9
$DIMRND
 40
0.0
  9
$DIMDLE
 40
0.0
  9
$DIMEXE
 40
1.0
  9
$DIMTP
 40
0.0
  9
$DIMTM
 40
0.0
  9
$DIMTXT
 40
3.5
  9
$DIMCEN
 40
2.5
  9
$DIMTSZ
 40
0.0
  9
$DIMTOL
 70
     0
  9
$DIMLIM
 70
     0
  9
$DIMTIH
 70
     1
  9
$DIMTOH
 70
     1
  9
$DIMSE1
 70
     0
  9
$DIMSE2
 70
     0
  9
$DIMTAD
 70
     1
  9
$DIMZIN
 70
     0
  9
$DIMBLK
  1

  9
$DIMASO
 70
     1
  9
$DIMSHO
 70
     1
  9
$DIMPOST
  1

  9
$DIMAPOST
  1

  9
$DIMALT
 70
     0
  9
$DIMALTD
 70
     3
  9
$DIMALTF
 40
0.0393700787
  9
$DIMLFAC
 40
1.0
  9
$DIMTOFL
 70
     1
  9
$DIMTVP
 40
0.0
  9
$DIMTIX
 70
     0
  9
$DIMSOXD
 70
     0
  9
$DIMSAH
 70
     0
  9
$DIMBLK1
  1

  9
$DIMBLK2
  1

  9
$DIMSTYLE
  2
ISO-25
  9
$DIMCLRD
 70
     0
  9
$DIMCLRE
 70
     0
  9
$DIMCLRT
 70
     0
  9
$DIMTFAC
 40
1.0
  9
$DIMGAP
 40
1.5
  9
$DIMJUST
 70
     0
  9
$DIMSD1
 70
     0
  9
$DIMSD2
 70
     0
  9
$DIMTOLJ
 70
     0
  9
$DIMTZIN
 70
     0
  9
$DIMALTZ
 70
     0
  9
$DIMALTTZ
 70
     0
  9
$DIMUPT
 70
     0
  9
$DIMDEC
 70
     2
  9
$DIMTDEC
 70
     2
  9
$DIMALTU
 70
     2
  9
$DIMALTTD
 70
     3
  9
$DIMTXSTY
  7
Standard
  9
$DIMAUNIT
 70
     0
  9
$DIMADEC
 70
     2
  9
$DIMALTRND
 40
0.0
  9
$DIMAZIN
 70
     0
  9
$DIMDSEP
 70
    44
  9
$DIMATFIT
 70
     3
  9
$DIMFRAC
 70
     0
  9
$DIMLDRBLK
  1

  9
$DIMLUNIT
 70
     2
  9
$DIMLWD
 70
    -2
  9
$DIMLWE
 70
    -2
  9
$DIMTMOVE
 70
     0
  9
$LUNITS
 70
     2
  9
$LUPREC
 70
     2
  9
$SKETCHINC
 40
1.0
  9
$FILLETRAD
 40
10.0
  9
$AUNITS
 70
     0
  9
$AUPREC
 70
     2
  9
$MENU
  1
.
  9
$ELEVATION
 40
0.0
  9
$PELEVATION
 40
0.0
  9
$THICKNESS
 40
0.0
  9
$LIMCHECK
 70
     0
  9
$CHAMFERA
 40
0.0
  9
$CHAMFERB
 40
0.0
  9
$CHAMFERC
 40
0.0
  9
$CHAMFERD
 40
0.0
  9
$SKPOLY
 70
     0
  9
$TDCREATE
 40
2458858.45477537
  9
$TDUCREATE
 40
2458858.413108704
  9
$TDUPDATE
 40
2458858.454776273
  9
$TDUUPDATE
 40
2458858.413109607
  9
$TDINDWG
 40
0.0000000116
  9
$TDUSRTIMER
 40
0.0000000116
  9
$USRTIMER
 70
     1
  9
$ANGBASE
 50
0.0
  9
$ANGDIR
 70
     0
  9
$PDMODE
 70
     0
  9
$PDSIZE
 40
-1.0
  9
$PLINEWID
 40
0.0
  9
$SPLFRAME
 70
     0
  9
$SPLINETYPE
 70
     6
  9
$SPLINESEGS
 70
     8
  9
$HANDSEED
  5
483
  9
$SURFTAB1
 70
     6
  9
$SURFTAB2
 70
     6
  9
$SURFTYPE
 70
     6
  9
$SURFU
 70
     6
  9
$SURFV
 70
     6
  9
$UCSBASE
  2

  9
$UCSNAME
  2

  9
$UCSORG
 10
0.0
 20
0.0
 30
0.0
  9
$UCSXDIR
 10
1.0
 20
0.0
 30
0.0
  9
$UCSYDIR
 10
0.0
 20
1.0
 30
0.0
  9
$UCSORTHOREF
  2

  9
$UCSORTHOVIEW
 70
     0
  9
$UCSORGTOP
 10
0.0
 20
0.0
 30
0.0
  9
$UCSORGBOTTOM
 10
0.0
 20
0.0
 30
0.0
  9
$UCSORGLEFT
 10
0.0
 20
0.0
 30
0.0
  9
$UCSORGRIGHT
 10
0.0
 20
0.0
 30
0.0
  9
$UCSORGFRONT
 10
0.0
 20
0.0
 30
0.0
  9
$UCSORGBACK
 10
0.0
 20
0.0
 30
0.0
  9
$PUCSBASE
  2

  9
$PUCSNAME
  2

  9
$PUCSORG
 10
0.0
 20
0.0
 30
0.0
  9
$PUCSXDIR
 10
1.0
 20
0.0
 30
0.0
  9
$PUCSYDIR
 10
0.0
 20
1.0
 30
0.0
  9
$PUCSORTHOREF
  2

  9
$PUCSORTHOVIEW
 70
     0
  9
$PUCSORGTOP
 10
0.0
 20
0.0
 30
0.0
  9
$PUCSORGBOTTOM
 10
0.0
 20
0.0
 30
0.0
  9
$PUCSORGLEFT
 10
0.0
 20
0.0
 30
0.0
  9
$PUCSORGRIGHT
 10
0.0
 20
0.0
 30
0.0
  9
$PUCSORGFRONT
 10
0.0
 20
0.0
 30
0.0
  9
$PUCSORGBACK
 10
0.0
 20
0.0
 30
0.0
  9
$USERI1
 70
     0
  9
$USERI2
 70
     0
  9
$USERI3
 70
     0
  9
$USERI4
 70
     0
  9
$USERI5
 70
     0
  9
$USERR1
 40
0.0
  9
$USERR2
 40
0.0
  9
$USERR3
 40
0.0
  9
$USERR4
 40
0.0
  9
$USERR5
 40
0.0
  9
$WORLDVIEW
 70
     1
  9
$SHADEDGE
 70
     3
  9
$SHADEDIF
 70
    70
  9
$TILEMODE
 70
     1
  9
$MAXACTVP
 70
    64
  9
$PINSBASE
 10
0.0
 20
0.0
 30
0.0
  9
$PLIMCHECK
 70
     0
  9
$PEXTMIN
 10
1.0000000000E+20
 20
1.0000000000E+20
 30
1.0000000000E+20
  9
$PEXTMAX
 10
-1.0000000000E+20
 20
-1.0000000000E+20
 30
-1.0000000000E+20
  9
$PLIMMIN
 10
0.0
 20
0.0
  9
$PLIMMAX
 10
420.0
 20
297.0
  9
$UNITMODE
 70
     0
  9
$VISRETAIN
 70
     1
  9
$PLINEGEN
 70
     0
  9
$PSLTSCALE
 70
     1
  9
$TREEDEPTH
 70
  3020
  9
$CMLSTYLE
  2
Standard
  9
$CMLJUST
 70
     0
  9
$CMLSCALE
 40
20.0
  9
$PROXYGRAPHICS
 70
     1
  9
$MEASUREMENT
 70
     1
  9
$CELWEIGHT
370
    -1
  9
$ENDCAPS
280
     0
  9
$JOINSTYLE
280
     0
  9
$LWDISPLAY
290
     1
  9
$INSUNITS
 70
     4
  9
$HYPERLINKBASE
  1

  9
$STYLESHEET
  1

  9
$XEDIT
290
     1
  9
$CEPSNTYPE
380
     0
  9
$PSTYLEMODE
290
     1
  9
$FINGERPRINTGUID
  2
{7644995c-1699-4cff-ad20-9bc0bd08230f}
  9
$VERSIONGUID
  2
{FAEB1C32-E019-11D5-929B-00C0DF256EC4}
  9
$EXTNAMES
290
     1
  9
$PSVPSCALE
 40
0.0
  9
$OLESTARTUP
290
     0
  0
ENDSEC
  0
SECTION
  2
CLASSES
  0
CLASS
  1
ACDBDICTIONARYWDFLT
  2
AcDbDictionaryWithDefault
  3
ObjectDBX Classes
 90
        0
280
     0
281
     0
  0
CLASS
  1
VISUALSTYLE
  2
AcDbVisualStyle
  3
ObjectDBX Classes
 90
     4095
280
     0
281
     0
  0
CLASS
  1
MATERIAL
  2
AcDbMaterial
  3
ObjectDBX Classes
 90
     1153
280
     0
281
     0
  0
CLASS
  1
SCALE
  2
AcDbScale
  3
ObjectDBX Classes
 90
     1153
280
     0
281
     0
  0
CLASS
  1
TABLESTYLE
  2
AcDbTableStyle
  3
ObjectDBX Classes
 90
     4095
280
     0
281
     0
  0
CLASS
  1
MLEADERSTYLE
  2
AcDbMLeaderStyle
  3
ACDB_MLEADERSTYLE_CLASS
 90
     4095
280
     0
281
     0
  0
CLASS
  1
SUN
  2
AcDbSun
  3
SCENEOE
 90
     1153
280
     0
281
     0
  0
CLASS
  1
ACDBPLACEHOLDER
  2
AcDbPlaceHolder
  3
ObjectDBX Classes
 90
        0
280
     0
281
     0
  0
CLASS
  1
LAYOUT
  2
AcDbLayout
  3
ObjectDBX Classes
 90
        0
280
     0
281
     0
  0
ENDSEC
  0
SECTION
  2
TABLES
  0
TABLE
  2
VPORT
  5
8
330
0
100
AcDbSymbolTable
 70
     1
  0
VPORT
  5
29
330
8
100
AcDbSymbolTableRecord
100
AcDbViewportTableRecord
  2
*Active
 70
     0
 10
0.0
 20
0.0
 11
1.0
 21
1.0
 12
297.0
 22
420.5
 13
0.0
 23
0.0
 14
10.0
 24
10.0
 15
10.0
 25
10.0
 16
0.0
 26
0.0
 36
1.0
 17
0.0
 27
0.0
 37
0.0
 40
841.0
 41
0.7063020214
 42
50.0
 43
0.0
 44
0.0
 50
0.0
 51
0.0
 71
     0
 72
  2000
 73
     1
 74
     3
 75
     0
 76
     0
 77
     0
 78
     0
281
     0
 65
     1
110
0.0
120
0.0
130
0.0
111
1.0
121
0.0
131
0.0
112
0.0
122
1.0
132
0.0
 79
     0
146
0.0
  0
ENDTAB
  0
TABLE
  2
LTYPE
  5
5
330
0
100
AcDbSymbolTable
 70
     6
  0
LTYPE
  5
14
330
5
100
AcDbSymbolTableRecord
100
AcDbLinetypeTableRecord
  2
ByBlock
 70
     0
  3

 72
    65
 73
     0
 40
0.0
  0
LTYPE
  5
15
330
5
100
AcDbSymbolTableRecord
100
AcDbLinetypeTableRecord
  2
ByLayer
 70
     0
  3

 72
    65
 73
     0
 40
0.0
  0
LTYPE
  5
16
330
5
100
AcDbSymbolTableRecord
100
AcDbLinetypeTableRecord
  2
Continuous
 70
     0
  3
Solid line
 72
    65
 73
     0
 40
0.0
  0
LTYPE
  5
6E
330
5
100
AcDbSymbolTableRecord
100
AcDbLinetypeTableRecord
  2
HIDDEN
 70
     0
  3
Hidden __ __ __ __ __ __ __ __ __ __ __ __ __ __
 72
    65
 73
     2
 40
1.905
 49
1.27
 74
     0
 49
-0.635
 74
     0
  0
LTYPE
  5
6F
330
5
100
AcDbSymbolTableRecord
100
AcDbLinetypeTableRecord
  2
PHANTOM
 70
     0
  3
Phantom ______  __  __  ______  __  __  ______
 72
    65
 73
     6
 40
12.7
 49
6.35
 74
     0
 49
-1.27
 74
     0
 49
1.27
 74
     0
 49
-1.27
 74
     0
 49
1.27
 74
     0
 49
-1.27
 74
     0
  0
LTYPE
  5
70
330
5
100
AcDbSymbolTableRecord
100
AcDbLinetypeTableRecord
  2
CENTER
 70
     0
  3
Center ____ _ ____ _ ____ _ ____ _ ____ _ ____
 72
    65
 73
     4
 40
10.16
 49
6.35
 74
     0
 49
-1.27
 74
     0
 49
1.27
 74
     0
 49
-1.27
 74
     0
  0
LTYPE
  5
71
330
5
100
AcDbSymbolTableRecord
100
AcDbLinetypeTableRecord
  2
CENTERX2
 70
     0
  3
Center (2x) ________  __  ________  __  _____
 72
    65
 73
     4
 40
20.32
 49
12.7
 74
     0
 49
-2.54
 74
     0
 49
2.54
 74
     0
 49
-2.54
 74
     0
  0
LTYPE
  5
72
330
5
100
AcDbSymbolTableRecord
100
AcDbLinetypeTableRecord
  2
DOT2
 70
     0
  3
Dot (.5x) ........................................
 72
    65
 73
     2
 40
0.635
 49
0.0
 74
     0
 49
-0.635
 74
     0
  0
ENDTAB
  0
TABLE
  2
LAYER
  5
2
330
0
100
AcDbSymbolTable
 70
     1
  0
LAYER
  5
10
330
2
100
AcDbSymbolTableRecord
100
AcDbLayerTableRecord
  2
0
 70
     0
 62
     7
  6
Continuous
370
    -3
390
F
  0
ENDTAB
  0
TABLE
  2
STYLE
  5
3
330
0
100
AcDbSymbolTable
 70
     3
  0
STYLE
  5
11
330
3
100
AcDbSymbolTableRecord
100
AcDbTextStyleTableRecord
  2
Standard
 70
     0
 40
0.0
 41
1.0
 50
0.0
 71
     0
 42
10.0
  3
txt
  4

  0
STYLE
  5
76
330
3
100
AcDbSymbolTableRecord
100
AcDbTextStyleTableRecord
  2
SLDTEXTSTYLE0
 70
     0
 40
0.0
 41
0.96
 50
0.0
 71
     0
 42
10.0
  3
ISOCP3
  4

  0
STYLE
  5
8D
330
3
100
AcDbSymbolTableRecord
100
AcDbTextStyleTableRecord
  2
SLDTEXTSTYLE1
 70
     0
 40
0.0
 41
0.605
 50
0.0
 71
     0
 42
10.0
  3
TXT
  4

  0
ENDTAB
  0
TABLE
  2
VIEW
  5
6
330
0
100
AcDbSymbolTable
 70
     0
  0
ENDTAB
  0
TABLE
  2
UCS
  5
7
330
0
100
AcDbSymbolTable
 70
     0
  0
ENDTAB
  0
TABLE
  2
APPID
  5
9
330
0
100
AcDbSymbolTable
 70
     1
  0
APPID
  5
12
330
9
100
AcDbSymbolTableRecord
100
AcDbRegAppTableRecord
  2
ACAD
 70
     0
  0
ENDTAB
  0
TABLE
  2
DIMSTYLE
  5
A
330
0
100
AcDbSymbolTable
 70
     2
100
AcDbDimStyleTable
  0
DIMSTYLE
105
27
330
A
100
AcDbSymbolTableRecord
100
AcDbDimStyleTableRecord
  2
ISO-25
 70
     0
 41
2.5
 42
0.625
 43
3.75
 44
1.25
 73
     0
 74
     0
 77
     1
 78
     8
140
2.5
141
2.5
143
0.0393700787
147
0.625
171
     3
172
     1
178
     0
271
     2
272
     2
274
     3
278
    44
283
     0
284
     8
340
11
  0
DIMSTYLE
105
77
102
{ACAD_REACTORS
330
75
330
82
102
}
330
A
100
AcDbSymbolTableRecord
100
AcDbDimStyleTableRecord
  2
SLDDIMSTYLE0
 70
     0
 41
2.5
 44
0.0
 45
0.000000001
 73
     0
 74
     0
 77
     1
 78
    12
 79
     3
140
6.0
147
1.5
173
     1
178
     0
271
     2
272
     2
276
     2
284
    12
340
76
  0
ENDTAB
  0
TABLE
  2
BLOCK_RECORD
  5
1
330
0
100
AcDbSymbolTable
 70
     3
  0
BLOCK_RECORD
  5
1F
330
1
100
AcDbSymbolTableRecord
100
AcDbBlockTableRecord
  2
*Model_Space
340
22
  0
BLOCK_RECORD
  5
1B
330
1
100
AcDbSymbolTableRecord
100
AcDbBlockTableRecord
  2
*Paper_Space
340
1E
  0
BLOCK_RECORD
  5
23
330
1
100
AcDbSymbolTableRecord
100
AcDbBlockTableRecord
  2
*Paper_Space0
340
26
  0
BLOCK_RECORD
  5
78
330
1
100
AcDbSymbolTableRecord
100
AcDbBlockTableRecord
  2
_D
340
0
  0
BLOCK_RECORD
  5
83
330
1
100
AcDbSymbolTableRecord
100
AcDbBlockTableRecord
  2
_D_1
340
0
  0
ENDTAB
  0
ENDSEC
  0
SECTION
  2
BLOCKS
  0
BLOCK
  5
20
330
1F
100
AcDbEntity
  8
0
100
AcDbBlockBegin
  2
*Model_Space
 70
     0
 10
0.0
 20
0.0
 30
0.0
  3
*Model_Space
  1

  0
ENDBLK
  5
21
330
1F
100
AcDbEntity
  8
0
100
AcDbBlockEnd
  0
BLOCK
  5
1C
330
1B
100
AcDbEntity
 67
     1
  8
0
100
AcDbBlockBegin
  2
*Paper_Space
 70
     0
 10
0.0
 20
0.0
 30
0.0
  3
*Paper_Space
  1

  0
ENDBLK
  5
1D
330
1B
100
AcDbEntity
 67
     1
  8
0
100
AcDbBlockEnd
  0
BLOCK
  5
24
330
23
100
AcDbEntity
  8
0
100
AcDbBlockBegin
  2
*Paper_Space0
 70
     0
 10
0.0
 20
0.0
 30
0.0
  3
*Paper_Space0
  1

  0
ENDBLK
  5
25
330
23
100
AcDbEntity
  8
0
100
AcDbBlockEnd
  0
BLOCK
  5
79
330
78
100
AcDbEntity
  8
0
100
AcDbBlockBegin
  2
_D
 70
     0
 10
0.0
 20
0.0
 30
0.0
  3
_D
  1

  0
SOLID
  5
7B
330
78
100
AcDbEntity
  8
0
  6
Continuous
 62
     7
370
    18
100
AcDbTrace
 10
42.7614395004
 20
152.0299240879
 30
0.0
 11
42.4614395004
 21
149.5299240879
 31
0.0
 12
43.0614395004
 22
149.5299240879
 32
0.0
 13
43.0614395004
 23
149.5299240879
 33
0.0
  0
SOLID
  5
7C
330
78
100
AcDbEntity
  8
0
  6
Continuous
 62
     7
370
    18
100
AcDbTrace
 10
42.7614395004
 20
52.0299240879
 30
0.0
 11
43.0614395004
 21
54.5299240879
 31
0.0
 12
42.4614395004
 22
54.5299240879
 32
0.0
 13
42.4614395004
 23
54.5299240879
 33
0.0
  0
LINE
  5
7D
330
78
100
AcDbEntity
  8
0
  6
Continuous
 62
     7
370
     0
100
AcDbLine
 10
56.6850079902
 20
152.0299240879
 30
0.0
 11
41.7614395004
 21
152.0299240879
 31
0.0
  0
LINE
  5
7E
330
78
100
AcDbEntity
  8
0
  6
Continuous
 62
     7
370
     0
100
AcDbLine
 10
56.6850079902
 20
52.0299240879
 30
0.0
 11
41.7614395004
 21
52.0299240879
 31
0.0
  0
LINE
  5
7F
330
78
100
AcDbEntity
  8
0
  6
Continuous
 62
     7
370
     0
100
AcDbLine
 10
42.7614395004
 20
152.0299240879
 30
0.0
 11
42.7614395004
 21
52.0299240879
 31
0.0
  0
MTEXT
  5
80
330
78
100
AcDbEntity
  8
0
  6
Continuous
 62
     7
370
    18
100
AcDbMText
 10
35.0270332946
 20
94.3680541463
 30
0.0
 40
6.0
 41
0.0
 71
     1
 72
     1
  1
100
  7
SLDTEXTSTYLE0
 11
-7.044195017643634E-15
 21
1.0
 31
0.0
 73
     1
 44
1.0
  0
MTEXT
  5
81
330
78
100
AcDbEntity
  8
0
  6
Continuous
 62
     7
370
    18
100
AcDbMText
 10
35.0270332946
 20
105.7430548466
 30
0.0
 40
6.0
 41
0.0
 71
     1
 72
     1
  1
mm
  7
SLDTEXTSTYLE0
 11
-7.044195017643634E-15
 21
1.0
 31
0.0
 73
     1
 44
1.0
  0
ENDBLK
  5
7A
330
78
100
AcDbEntity
  8
0
100
AcDbBlockEnd
  0
BLOCK
  5
84
330
83
100
AcDbEntity
  8
0
100
AcDbBlockBegin
  2
_D_1
 70
     0
 10
0.0
 20
0.0
 30
0.0
  3
_D_1
  1

  0
SOLID
  5
86
330
83
100
AcDbEntity
  8
0
  6
Continuous
 62
     7
370
    18
100
AcDbTrace
 10
56.6850079902
 20
38.4602342313
 30
0.0
 11
59.1850079902
 21
38.1602342313
 31
0.0
 12
59.1850079902
 22
38.7602342313
 32
0.0
 13
59.1850079902
 23
38.7602342313
 33
0.0
  0
SOLID
  5
87
330
83
100
AcDbEntity
  8
0
  6
Continuous
 62
     7
370
    18
100
AcDbTrace
 10
156.6850079902
 20
38.4602342313
 30
0.0
 11
154.1850079902
 21
38.7602342313
 31
0.0
 12
154.1850079902
 22
38.1602342313
 32
0.0
 13
154.1850079902
 23
38.1602342313
 33
0.0
  0
LINE
  5
88
330
83
100
AcDbEntity
  8
0
  6
Continuous
 62
     7
370
     0
100
AcDbLine
 10
56.6850079902
 20
52.0299240879
 30
0.0
 11
56.6850079902
 21
37.4602342313
 31
0.0
  0
LINE
  5
89
330
83
100
AcDbEntity
  8
0
  6
Continuous
 62
     7
370
     0
100
AcDbLine
 10
156.6850079902
 20
52.0299240879
 30
0.0
 11
156.6850079902
 21
37.4602342313
 31
0.0
  0
LINE
  5
8A
330
83
100
AcDbEntity
  8
0
  6
Continuous
 62
     7
370
     0
100
AcDbLine
 10
56.6850079902
 20
38.4602342313
 30
0.0
 11
156.6850079902
 21
38.4602342313
 31
0.0
  0
MTEXT
  5
8B
330
83
100
AcDbEntity
  8
0
  6
Continuous
 62
     7
370
    18
100
AcDbMText
 10
93.9626484861
 20
46.1946404371
 30
0.0
 40
6.0
 41
0.0
 71
     1
 72
     1
  1
100
  7
SLDTEXTSTYLE0
 73
     1
 44
1.0
  0
MTEXT
  5
8C
330
83
100
AcDbEntity
  8
0
  6
Continuous
 62
     7
370
    18
100
AcDbMText
 10
105.3376491864
 20
46.1946404371
 30
0.0
 40
6.0
 41
0.0
 71
     1
 72
     1
  1
mm
  7
SLDTEXTSTYLE0
 73
     1
 44
1.0
  0
ENDBLK
  5
85
330
83
100
AcDbEntity
  8
0
100
AcDbBlockEnd
  0
ENDSEC
  0
SECTION
  2
ENTITIES
  0
LINE
  5
73
330
1F
100
AcDbEntity
  8
0
  6
Continuous
 62
     7
370
    18
100
AcDbLine
 10
56.6850079902
 20
152.0299240879
 30
0.0
 11
56.6850079902
 21
52.0299240879
 31
0.0
  0
LINE
  5
74
330
1F
100
AcDbEntity
  8
0
  6
Continuous
 62
     7
370
    18
100
AcDbLine
 10
56.6850079902
 20
52.0299240879
 30
0.0
 11
156.6850079902
 21
52.0299240879
 31
0.0
  0
DIMENSION
  5
75
330
1F
100
AcDbEntity
  8
0
  6
Continuous
 62
     7
370
    18
100
AcDbDimension
  2
_D
 10
42.7614395004
 20
52.0299240879
 30
0.0
 11
42.7614395004
 21
105.4472211621
 31
0.0
 70
   160
  1
<>mm
 71
     2
 42
-1.0
  3
SLDDIMSTYLE0
100
AcDbAlignedDimension
 13
56.6850079902
 23
152.0299240879
 33
0.0
 14
56.6850079902
 24
52.0299240879
 34
0.0
 50
90.0
100
AcDbRotatedDimension
  0
DIMENSION
  5
82
330
1F
100
AcDbEntity
  8
0
  6
Continuous
 62
     7
370
    18
100
AcDbDimension
  2
_D_1
 10
156.6850079902
 20
38.4602342313
 30
0.0
 11
105.0418155019
 21
38.4602342313
 31
0.0
 70
   160
  1
<>mm
 71
     2
 42
-1.0
  3
SLDDIMSTYLE0
100
AcDbAlignedDimension
 13
56.6850079902
 23
52.0299240879
 33
0.0
 14
156.6850079902
 24
52.0299240879
 34
0.0
100
AcDbRotatedDimension
  0
MTEXT
  5
8E
330
1F
100
AcDbEntity
  8
0
  6
Continuous
 62
     7
370
     0
100
AcDbMText
 10
412.8252631579
 20
48.4342449499
 30
0.0
 40
10.0
 41
0.0
 71
     1
 72
     1
  1
KLUDI GmbH & Co KG
  7
SLDTEXTSTYLE1
 73
     1
 44
1.0
  0
MTEXT
  5
8F
330
1F
100
AcDbEntity
  8
0
  6
Continuous
 62
     7
370
     0
100
AcDbMText
 10
210.0873490389
 20
48.4342449499
 30
0.0
 40
10.0
 41
0.0
 71
     1
 72
     1
  1
20 850 05 15
  7
SLDTEXTSTYLE1
 73
     1
 44
1.0
  0
LINE
  5
90
330
1F
100
AcDbEntity
  8
0
  6
Continuous
 62
     7
370
    25
100
AcDbLine
 10
412.7154076828
 20
373.6479508918
 30
0.0
 11
412.7154076828
 21
366.7479514372
 31
0.0
  0
LINE
  5
91
330
1F
100
AcDbEntity
  8
0
  6
Continuous
 62
     7
370
    25
100
AcDbLine
 10
428.7154103054
 20
366.7479514372
 30
0.0
 11
428.7154103054
 21
373.6479508918
 31
0.0
  0
LINE
  5
92
330
1F
100
AcDbEntity
  8
0
  6
Continuous
 62
     7
370
    25
100
AcDbLine
 10
413.7154078467
 20
366.7479514372
 30
0.0
 11
413.7154078467
 21
281.7479486805
 31
0.0
  0
LINE
  5
93
330
1F
100
AcDbEntity
  8
0
  6
Continuous
 62
     7
370
    25
100
AcDbLine
 10
427.7154082788
 20
281.7479486805
 30
0.0
 11
427.7154082788
 21
366.7479514372
 31
0.0
  0
LINE
  5
94
330
1F
100
AcDbEntity
  8
0
  6
Continuous
 62
     7
370
    25
100
AcDbLine
 10
375.7154081372
 20
361.6479526502
 30
0.0
 11
382.9154085374
 21
361.6479526502
 31
0.0
  0
LINE
  5
95
330
1F
100
AcDbEntity
  8
0
  6
Continuous
 62
     7
370
    25
100
AcDbLine
 10
382.9154085374
 20
419.6479509812
 30
0.0
 11
375.7154081372
 21
419.6479509812
 31
0.0
  0
ARC
  5
96
330
1F
100
AcDbEntity
  8
0
  6
Continuous
 62
     7
370
    25
100
AcDbCircle
 10
382.9154085172
 20
362.4479518157
 30
0.0
 40
0.8000000000000114
100
AcDbArc
 50
270.0
 51
0.0
  0
ARC
  5
97
330
1F
100
AcDbEntity
  8
0
  6
Continuous
 62
     7
370
    25
100
AcDbCircle
 10
382.9154085172
 20
418.8479518157
 30
0.0
 40
0.8000000000000114
100
AcDbArc
 50
0.0
 51
90.0
  0
ARC
  5
98
330
1F
100
AcDbEntity
  8
0
  6
Continuous
 62
     7
370
    25
100
AcDbCircle
 10
437.4154085172
 20
370.9479518157
 30
0.0
 40
0.3000000000000114
100
AcDbArc
 50
270.0
 51
0.0
  0
LINE
  5
99
330
1F
100
AcDbEntity
  8
0
  6
Continuous
 62
     7
370
    25
100
AcDbLine
 10
431.9824861718
 20
370.6479522627
 30
0.0
 11
437.4154085649
 21
370.6479522627
 31
0.0
  0
LINE
  5
9A
330
1F
100
AcDbEntity
  8
0
  6
Continuous
 62
     7
370
    25
100
AcDbLine
 10
383.7154085172
 20
370.6479522627
 30
0.0
 11
409.4620688243
 21
370.6479522627
 31
0.0
  0
LINE
  5
9B
330
1F
100
AcDbEntity
  8
0
  6
Continuous
 62
     7
370
    25
100
AcDbLine
 10
398.5192241503
 20
410.6479513687
 30
0.0
 11
383.7154085172
 21
410.6479513687
 31
0.0
  0
ARC
  5
9C
330
1F
100
AcDbEntity
  8
0
  6
Continuous
 62
     7
370
    25
100
AcDbCircle
 10
432.7154085172
 20
408.8479518157
 30
0.0
 40
0.5
100
AcDbArc
 50
270.0
 51
359.999999688
  0
ARC
  5
9D
330
1F
100
AcDbEntity
  8
0
  6
Continuous
 62
     7
370
    25
100
AcDbCircle
 10
408.4154085172
 20
605.6479518157
 30
0.0
 40
0.2000000000000455
100
AcDbArc
 50
90.0
 51
180.0
  0
ARC
  5
9E
330
1F
100
AcDbEntity
  8
0
  6
Continuous
 62
     7
370
    25
100
AcDbCircle
 10
433.0154085172
 20
605.6479518157
 30
0.0
 40
0.2000000000000455
100
AcDbArc
 50
360.0
 51
90.0
  0
LINE
  5
9F
330
1F
100
AcDbEntity
  8
0
  6
Continuous
 62
     7
370
    25
100
AcDbLine
 10
408.2154078765
 20
605.647955392
 30
0.0
 11
408.2154078765
 21
411.5979525488
 31
0.0
  0
LINE
  5
A0
330
1F
100
AcDbEntity
  8
0
  6
Continuous
 62
     7
370
    25
100
AcDbLine
 10
433.215408249
 20
408.8479525638
 30
0.0
 11
433.215408249
 21
532.263312791
 31
0.0
  0
LINE
  5
A1
330
1F
100
AcDbEntity
  8
0
  6
Continuous
 62
     7
370
    25
100
AcDbLine
 10
433.215408249
 20
534.7812067014
 30
0.0
 11
433.215408249
 21
537.7802293044
 31
0.0
  0
LINE
  5
A2
330
1F
100
AcDbEntity
  8
0
  6
Continuous
 62
     7
370
    25
100
AcDbLine
 10
433.215408249
 20
540.2939508897
 30
0.0
 11
433.215408249
 21
543.2965944749
 31
0.0
  0
LINE
  5
A3
330
1F
100
AcDbEntity
  8
0
  6
Continuous
 62
     7
370
    25
100
AcDbLine
 10
433.215408249
 20
545.8069782001
 30
0.0
 11
433.215408249
 21
548.8624315005
 31
0.0
  0
LINE
  5
A4
330
1F
100
AcDbEntity
  8
0
  6
Continuous
 62
     7
370
    25
100
AcDbLine
 10
433.215408249
 20
551.3702820283
 30
0.0
 11
433.215408249
 21
554.2977790576
 31
0.0
  0
LINE
  5
A5
330
1F
100
AcDbEntity
  8
0
  6
Continuous
 62
     7
370
    25
100
AcDbLine
 10
433.215408249
 20
556.803930853
 30
0.0
 11
433.215408249
 21
559.8326663715
 31
0.0
  0
LINE
  5
A6
330
1F
100
AcDbEntity
  8
0
  6
Continuous
 62
     7
370
    25
100
AcDbLine
 10
433.215408249
 20
562.3379240972
 30
0.0
 11
433.215408249
 21
565.3579722386
 31
0.0
  0
LINE
  5
A7
330
1F
100
AcDbEntity
  8
0
  6
Continuous
 62
     7
370
    25
100
AcDbLine
 10
433.215408249
 20
567.8632448655
 30
0.0
 11
433.215408249
 21
570.891980384
 31
0.0
  0
LINE
  5
A8
330
1F
100
AcDbEntity
  8
0
  6
Continuous
 62
     7
370
    25
100
AcDbLine
 10
433.215408249
 20
573.3981321794
 30
0.0
 11
433.215408249
 21
576.3256143075
 31
0.0
  0
LINE
  5
A9
330
1F
100
AcDbEntity
  8
0
  6
Continuous
 62
     7
370
    25
100
AcDbLine
 10
433.215408249
 20
578.8334797364
 30
0.0
 11
433.215408249
 21
581.8889330369
 31
0.0
  0
LINE
  5
AA
330
1F
100
AcDbEntity
  8
0
  6
Continuous
 62
     7
370
    25
100
AcDbLine
 10
433.215408249
 20
584.3993167621
 30
0.0
 11
433.215408249
 21
587.4019454461
 31
0.0
  0
LINE
  5
AB
330
1F
100
AcDbEntity
  8
0
  6
Continuous
 62
     7
370
    25
100
AcDbLine
 10
433.215408249
 20
589.9156819326
 30
0.0
 11
433.215408249
 21
592.9146896344
 31
0.0
  0
LINE
  5
AC
330
1F
100
AcDbEntity
  8
0
  6
Continuous
 62
     7
370
    25
100
AcDbLine
 10
433.215408249
 20
595.432598446
 30
0.0
 11
433.215408249
 21
605.647955392
 31
0.0
  0
LINE
  5
AD
330
1F
100
AcDbEntity
  8
0
  6
Continuous
 62
     7
370
    25
100
AcDbLine
 10
433.0154085887
 20
605.8479587775
 30
0.0
 11
432.9984436167
 21
607.7919940692
 31
0.0
  0
LINE
  5
AE
330
1F
100
AcDbEntity
  8
0
  6
Continuous
 62
     7
370
    25
100
AcDbLine
 10
408.4323743714
 20
607.7919940692
 30
0.0
 11
408.4154093994
 21
605.8479587775
 31
0.0
  0
ARC
  5
AF
330
1F
100
AcDbEntity
  8
0
  6
Continuous
 62
     7
370
    25
100
AcDbCircle
 10
432.4984621118
 20
607.7876358637
 30
0.0
 40
0.5000000000001137
100
AcDbArc
 50
0.4999999944
 51
90.0
  0
ARC
  5
B0
330
1F
100
AcDbEntity
  8
0
  6
Continuous
 62
     7
370
    25
100
AcDbCircle
 10
408.9323549227
 20
607.7876358637
 30
0.0
 40
0.4999999999999989
100
AcDbArc
 50
94.474350626
 51
179.5000000056
  0
ARC
  5
B1
330
1F
100
AcDbEntity
  8
0
  6
Continuous
 62
     7
370
    25
100
AcDbCircle
 10
420.7154085172
 20
457.2079518157
 30
0.0
 40
151.5400000000128
100
AcDbArc
 50
85.5260345206
 51
94.4743506266
  0
LINE
  5
B2
330
1F
100
AcDbEntity
  8
0
  6
Continuous
 62
     7
370
    25
100
AcDbLine
 10
432.2154099477
 20
403.6479520839
 30
0.0
 11
431.9474609924
 21
404.6479522478
 31
0.0
  0
LINE
  5
B3
330
1F
100
AcDbEntity
  8
0
  6
Continuous
 62
     7
370
    25
100
AcDbLine
 10
409.4833569957
 20
404.6479522478
 30
0.0
 11
409.2154080404
 21
403.6479520839
 31
0.0
  0
ARC
  5
B4
330
1F
100
AcDbEntity
  8
0
  6
Continuous
 62
     7
370
    25
100
AcDbCircle
 10
431.6654085172
 20
408.7479518157
 30
0.0
 40
0.5000000000000556
100
AcDbArc
 50
270.0
 51
305.278872595
  0
LWPOLYLINE
  5
B5
330
1F
100
AcDbEntity
  8
0
  6
Continuous
 62
     7
370
    25
100
AcDbPolyline
 90
        3
 70
   128
 43
0.0
 10
431.0483361019
 20
404.9748120126
 10
430.5272350443
 20
405.2465104726
 10
430.0309071673
 20
405.5053352606
  0
ARC
  5
B6
330
1F
100
AcDbEntity
  8
0
  6
Continuous
 62
     7
370
    25
100
AcDbCircle
 10
410.3999085172
 20
407.2479518157
 30
0.0
 40
1.0
100
AcDbArc
 50
0.0
 51
90.0
  0
ARC
  5
B7
330
1F
100
AcDbEntity
  8
0
  6
Continuous
 62
     7
370
    25
100
AcDbCircle
 10
431.0309085172
 20
407.2479518157
 30
0.0
 40
1.000000000000026
100
AcDbArc
 50
90.0
 51
174.2801724245
  0
ARC
  5
B8
330
1F
100
AcDbEntity
  8
0
  6
Continuous
 62
     7
370
    25
100
AcDbCircle
 10
430.9209788203
 20
404.7417238739
 30
0.0
 40
0.2655769444012842
100
AcDbArc
 50
296.0926871337
 51
63.8374896441
  0
ARC
  5
B9
330
1F
100
AcDbEntity
  8
0
  6
Continuous
 62
     7
370
    25
100
AcDbCircle
 10
410.4986453537
 20
405.6401190561
 30
0.0
 40
0.2523101124362714
100
AcDbArc
 50
170.734940084
 51
245.9657001251
  0
LINE
  5
BA
330
1F
100
AcDbEntity
  8
0
  6
Continuous
 62
     7
370
    25
100
AcDbLine
 10
411.3999089582
 20
404.8922828627
 30
0.0
 11
411.3999089582
 21
404.6479522478
 31
0.0
  0
LINE
  5
BB
330
1F
100
AcDbEntity
  8
0
  6
Continuous
 62
     7
370
    25
100
AcDbLine
 10
411.3999089582
 20
407.2479515564
 30
0.0
 11
411.3999089582
 21
406.4018729371
 31
0.0
  0
LINE
  5
BC
330
1F
100
AcDbEntity
  8
0
  6
Continuous
 62
     7
370
    25
100
AcDbLine
 10
430.0309071673
 20
405.4962660414
 30
0.0
 11
430.0309071673
 21
405.6479514804
 31
0.0
  0
LINE
  5
BD
330
1F
100
AcDbEntity
  8
0
  6
Continuous
 62
     7
370
    25
100
AcDbLine
 10
430.4021211697
 20
370.6479522627
 30
0.0
 11
431.9541292621
 21
370.6479522627
 31
0.0
  0
LINE
  5
BE
330
1F
100
AcDbEntity
  8
0
  6
Continuous
 62
     7
370
    25
100
AcDbLine
 10
409.4618434442
 20
370.6479522627
 30
0.0
 11
410.9811192734
 21
370.6479522627
 31
0.0
  0
LINE
  5
BF
330
1F
100
AcDbEntity
  8
0
  6
Continuous
 62
     7
370
    25
100
AcDbLine
 10
431.4314077033
 20
548.803124879
 30
0.0
 11
431.9916466607
 21
548.8364438754
 31
0.0
  0
LINE
  5
C0
330
1F
100
AcDbEntity
  8
0
  6
Continuous
 62
     7
370
    25
100
AcDbLine
 10
432.1030812694
 20
551.2903671008
 30
0.0
 11
431.4331399632
 21
551.3917397004
 31
0.0
  0
LINE
  5
C1
330
1F
100
AcDbEntity
  8
0
  6
Continuous
 62
     7
370
    25
100
AcDbLine
 10
431.432212366
 20
554.3073307019
 30
0.0
 11
432.0128994418
 21
554.3520490867
 31
0.0
  0
LINE
  5
C2
330
1F
100
AcDbEntity
  8
0
  6
Continuous
 62
     7
370
    25
100
AcDbLine
 10
432.0814857615
 20
556.8075518352
 30
0.0
 11
431.4328829182
 21
556.8941424829
 31
0.0
  0
LINE
  5
C3
330
1F
100
AcDbEntity
  8
0
  6
Continuous
 62
     7
370
    25
100
AcDbLine
 10
431.4370775951
 20
592.8596894485
 30
0.0
 11
432.1682179702
 21
593.0098186475
 31
0.0
  0
LINE
  5
C4
330
1F
100
AcDbEntity
  8
0
  6
Continuous
 62
     7
370
    25
100
AcDbLine
 10
431.9285104407
 20
595.4545478564
 30
0.0
 11
431.4258197678
 21
595.4580943328
 31
0.0
  0
LINE
  5
C5
330
1F
100
AcDbEntity
  8
0
  6
Continuous
 62
     7
370
    25
100
AcDbLine
 10
431.4363139106
 20
587.3582850438
 30
0.0
 11
432.146451099
 21
587.491233204
 31
0.0
  0
LINE
  5
C6
330
1F
100
AcDbEntity
  8
0
  6
Continuous
 62
     7
370
    25
100
AcDbLine
 10
431.9494465722
 20
589.9397771102
 30
0.0
 11
431.4267697168
 21
589.9525921088
 31
0.0
  0
LINE
  5
C7
330
1F
100
AcDbEntity
  8
0
  6
Continuous
 62
     7
370
    25
100
AcDbLine
 10
431.4355614019
 20
581.8465392333
 30
0.0
 11
432.1247363819
 21
581.9631557208
 31
0.0
  0
LINE
  5
C8
330
1F
100
AcDbEntity
  8
0
  6
Continuous
 62
     7
370
    25
100
AcDbLine
 10
431.9704944623
 20
584.4147543651
 30
0.0
 11
431.42770849
 21
584.4375382405
 31
0.0
  0
LINE
  5
C9
330
1F
100
AcDbEntity
  8
0
  6
Continuous
 62
     7
370
    25
100
AcDbLine
 10
431.4322160912
 20
565.2989189368
 30
0.0
 11
432.0599647594
 21
565.3715919
 31
0.0
  0
LINE
  5
CA
330
1F
100
AcDbEntity
  8
0
  6
Continuous
 62
     7
370
    25
100
AcDbLine
 10
432.0342416299
 20
567.8279142123
 30
0.0
 11
431.4328270389
 21
567.8848068458
 31
0.0
  0
LINE
  5
CB
330
1F
100
AcDbEntity
  8
0
  6
Continuous
 62
     7
370
    25
100
AcDbLine
 10
431.4305546118
 20
543.2584773046
 30
0.0
 11
431.9704944623
 21
543.2811419707
 31
0.0
  0
LINE
  5
CC
330
1F
100
AcDbEntity
  8
0
  6
Continuous
 62
     7
370
    25
100
AcDbLine
 10
432.1247363819
 20
545.7327555162
 30
0.0
 11
431.4341234399
 21
545.8496104222
 31
0.0
  0
LINE
  5
CD
330
1F
100
AcDbEntity
  8
0
  6
Continuous
 62
     7
370
    25
100
AcDbLine
 10
431.4299175871
 20
537.7433936339
 30
0.0
 11
431.9494465722
 21
537.7561192256
 31
0.0
  0
LINE
  5
CE
330
1F
100
AcDbEntity
  8
0
  6
Continuous
 62
     7
370
    25
100
AcDbLine
 10
432.146451099
 20
540.2046631318
 30
0.0
 11
431.4349728061
 21
540.3378646117
 31
0.0
  0
LINE
  5
CF
330
1F
100
AcDbEntity
  8
0
  6
Continuous
 62
     7
370
    25
100
AcDbLine
 10
431.4293438924
 20
532.2378318053
 30
0.0
 11
431.9285104407
 21
532.2413484794
 31
0.0
  0
LINE
  5
D0
330
1F
100
AcDbEntity
  8
0
  6
Continuous
 62
     7
370
    25
100
AcDbLine
 10
432.1682179702
 20
534.6860776883
 30
0.0
 11
431.4357737435
 21
534.8364751083
 31
0.0
  0
LINE
  5
D1
330
1F
100
AcDbEntity
  8
0
  6
Continuous
 62
     7
370
    25
100
AcDbLine
 10
431.4328009618
 20
570.801753853
 30
0.0
 11
432.0814857615
 21
570.8883594018
 31
0.0
  0
LINE
  5
D2
330
1F
100
AcDbEntity
  8
0
  6
Continuous
 62
     7
370
    25
100
AcDbLine
 10
432.0128994418
 20
573.3438472491
 30
0.0
 11
431.4323017729
 21
573.3885656339
 31
0.0
  0
LINE
  5
D3
330
1F
100
AcDbEntity
  8
0
  6
Continuous
 62
     7
370
    25
100
AcDbLine
 10
431.432789786
 20
559.8111043912
 30
0.0
 11
432.0342416299
 21
559.8679970246
 31
0.0
  0
LINE
  5
D4
330
1F
100
AcDbEntity
  8
0
  6
Continuous
 62
     7
370
    25
100
AcDbLine
 10
432.0599647594
 20
562.3243044358
 30
0.0
 11
431.4316200448
 21
562.3970519048
 31
0.0
  0
LINE
  5
D5
330
1F
100
AcDbEntity
  8
0
  6
Continuous
 62
     7
370
    25
100
AcDbLine
 10
431.4334752394
 20
576.30421624
 30
0.0
 11
432.1030812694
 21
576.405529235
 31
0.0
  0
LINE
  5
D6
330
1F
100
AcDbEntity
  8
0
  6
Continuous
 62
     7
370
    25
100
AcDbLine
 10
431.9916466607
 20
578.8594524604
 30
0.0
 11
431.4304614795
 21
578.8928310615
 31
0.0
  0
LINE
  5
D7
330
1F
100
AcDbEntity
  8
0
  6
Continuous
 62
     7
370
    25
100
AcDbLine
 10
432.3332855834
 20
572.5224654418
 30
0.0
 11
432.330253197
 21
572.5907127601
 31
0.0
  0
LWPOLYLINE
  5
D8
330
1F
100
AcDbEntity
  8
0
  6
Continuous
 62
     7
370
    25
100
AcDbPolyline
 90
        4
 70
   128
 43
0.0
 10
432.2871813906
 20
573.0366151076
 10
432.2107235325
 20
573.2352922898
 10
432.122441603
 20
573.3107517701
 10
432.0128994418
 20
573.3438472491
  0
LWPOLYLINE
  5
D9
330
1F
100
AcDbEntity
  8
0
  6
Continuous
 62
     7
370
    25
100
AcDbPolyline
 90
        3
 70
   128
 43
0.0
 10
432.34511338
 20
572.2080211383
 10
432.3396148516
 20
572.3799209338
 10
432.3332855834
 20
572.5224654418
  0
LWPOLYLINE
  5
DA
330
1F
100
AcDbEntity
  8
0
  6
Continuous
 62
     7
370
    25
100
AcDbPolyline
 90
       10
 70
   128
 43
0.0
 10
432.0814857615
 20
570.8883594018
 10
432.1271913482
 20
570.8983133775
 10
432.1707288159
 20
570.9153454047
 10
432.1913557483
 20
570.9262232524
 10
432.2110662592
 20
570.9384869081
 10
432.229759766
 20
570.9520916682
 10
432.247354312
 20
570.9670226318
 10
432.2789708508
 20
571.0015337211
 10
432.3401065899
 20
571.1626301747
 10
432.3498109711
 20
571.3796953899
  0
LWPOLYLINE
  5
DB
330
1F
100
AcDbEntity
  8
0
  6
Continuous
 62
     7
370
    25
100
AcDbPolyline
 90
        4
 70
   128
 43
0.0
 10
432.3028350605
 20
567.517001484
 10
432.229066862
 20
567.7166919452
 10
432.1424203349
 20
567.7931796056
 10
432.0342416299
 20
567.8279142123
  0
LWPOLYLINE
  5
DC
330
1F
100
AcDbEntity
  8
0
  6
Continuous
 62
     7
370
    25
100
AcDbPolyline
 90
        3
 70
   128
 43
0.0
 10
432.3397899402
 20
567.0185874444
 10
432.3366681469
 20
567.1324919206
 10
432.3295789195
 20
567.2478567105
  0
ARC
  5
DD
330
1F
100
AcDbEntity
  8
0
  6
Continuous
 62
     7
370
    25
100
AcDbCircle
 10
432.021253998
 20
565.6742732234
 30
0.0
 40
0.3051466968336407
100
AcDbArc
 50
277.2881530405
 51
1.4114102739
  0
ARC
  5
DE
330
1F
100
AcDbEntity
  8
0
  6
Continuous
 62
     7
370
    25
100
AcDbCircle
 10
431.9723642037
 20
561.9642166974
 30
0.0
 40
0.370590119614759
100
AcDbArc
 50
350.5065252479
 51
76.3269432731
  0
LWPOLYLINE
  5
DF
330
1F
100
AcDbEntity
  8
0
  6
Continuous
 62
     7
370
    25
100
AcDbPolyline
 90
       13
 70
   128
 43
0.0
 10
432.0342416299
 20
559.8679970246
 10
432.0922891034
 20
559.8798732501
 10
432.1460413171
 20
559.9032084685
 10
432.1929240955
 20
559.9351863605
 10
432.2313430143
 20
559.972215746
 10
432.2608584894
 20
560.0108991605
 10
432.2821261717
 20
560.0489716273
 10
432.3066199554
 20
560.1259659272
 10
432.3204333318
 20
560.2405856591
 10
432.3320227099
 20
560.4403059226
 10
432.3410639895
 20
560.7053528768
 10
432.3468344642
 20
560.9951208573
 10
432.3478067649
 20
561.1111412984
  0
LWPOLYLINE
  5
E0
330
1F
100
AcDbEntity
  8
0
  6
Continuous
 62
     7
370
    25
100
AcDbPolyline
 90
        8
 70
   128
 43
0.0
 10
432.2552668286
 20
595.0298051578
 10
432.2360257042
 20
595.1618294459
 10
432.2027625872
 20
595.2703844052
 10
432.1423495544
 20
595.3619222385
 10
432.0990207029
 20
595.3995327693
 10
432.0475185646
 20
595.428902958
 10
431.9897355867
 20
595.4477678281
 10
431.9285104407
 20
595.4545478564
  0
ARC
  5
E1
330
1F
100
AcDbEntity
  8
0
  6
Continuous
 62
     7
370
    25
100
AcDbCircle
 10
416.3758938952
 20
592.7095256768
 30
0.0
 40
16.04799618730776
100
AcDbArc
 50
4.5354247003
 51
8.3131758665
  0
ARC
  5
E2
330
1F
100
AcDbEntity
  8
0
  6
Continuous
 62
     7
370
    25
100
AcDbCircle
 10
432.1137810561
 20
593.2971115033
 30
0.0
 40
0.2924054859214166
100
AcDbArc
 50
280.7300536141
 51
337.3244856173
  0
LWPOLYLINE
  5
E3
330
1F
100
AcDbEntity
  8
0
  6
Continuous
 62
     7
370
    25
100
AcDbPolyline
 90
        9
 70
   128
 43
0.0
 10
432.2650978697
 20
589.5365665895
 10
432.2495783103
 20
589.6546135884
 10
432.2192842496
 20
589.7563587171
 10
432.1946898831
 20
589.8022393924
 10
432.1614751948
 20
589.8448269111
 10
432.1190962924
 20
589.8823033315
 10
432.0682125522
 20
589.9121801597
 10
432.0107052458
 20
589.9319390994
 10
431.9494465722
 20
589.9397771102
  0
ARC
  5
E4
330
1F
100
AcDbEntity
  8
0
  6
Continuous
 62
     7
370
    25
100
AcDbCircle
 10
417.3232963442
 20
587.5663055161
 30
0.0
 40
15.07114333837085
100
AcDbArc
 50
3.6134634922
 51
7.5118185297
  0
ARC
  5
E5
330
1F
100
AcDbEntity
  8
0
  6
Continuous
 62
     7
370
    25
100
AcDbCircle
 10
432.0954578782
 20
587.7812286958
 30
0.0
 40
0.2944453663334437
100
AcDbArc
 50
279.9737303478
 51
341.2081718425
  0
LWPOLYLINE
  5
E6
330
1F
100
AcDbEntity
  8
0
  6
Continuous
 62
     7
370
    25
100
AcDbPolyline
 90
        7
 70
   128
 43
0.0
 10
432.3388809694
 20
583.3397994977
 10
432.3323542608
 20
583.4386687022
 10
432.3107662035
 20
583.7136100274
 10
432.2704362107
 20
584.0806703311
 10
432.1741598083
 20
584.311861847
 10
432.0826741291
 20
584.3850563508
 10
431.9704944623
 20
584.4147543651
  0
LWPOLYLINE
  5
E7
330
1F
100
AcDbEntity
  8
0
  6
Continuous
 62
     7
370
    25
100
AcDbPolyline
 90
        3
 70
   128
 43
0.0
 10
432.3625402881
 20
582.9486142141
 10
432.3523553444
 20
583.1356535894
 10
432.3388809694
 20
583.3397994977
  0
ARC
  5
E8
330
1F
100
AcDbEntity
  8
0
  6
Continuous
 62
     7
370
    25
100
AcDbCircle
 10
432.070688857
 20
582.2625766728
 30
0.0
 40
0.3042598255129797
100
AcDbArc
 50
280.2320987418
 51
355.1965609217
  0
LWPOLYLINE
  5
E9
330
1F
100
AcDbEntity
  8
0
  6
Continuous
 62
     7
370
    25
100
AcDbPolyline
 90
        6
 70
   128
 43
0.0
 10
432.3186377419
 20
578.163419221
 10
432.2855906917
 20
578.5330127221
 10
432.2565632297
 20
578.6529819709
 10
432.1996407939
 20
578.753385995
 10
432.1082109941
 20
578.8273106557
 10
431.9916466607
 20
578.8594524604
  0
ARC
  5
EA
330
1F
100
AcDbEntity
  8
0
  6
Continuous
 62
     7
370
    25
100
AcDbCircle
 10
416.6214680122
 20
576.9979132221
 30
0.0
 40
15.74037933968298
100
AcDbArc
 50
1.9500568515
 51
4.2463873376
  0
ARC
  5
EB
330
1F
100
AcDbEntity
  8
0
  6
Continuous
 62
     7
370
    25
100
AcDbCircle
 10
432.0397476983
 20
576.7282535922
 30
0.0
 40
0.3288801483548319
100
AcDbArc
 50
281.1030036027
 51
6.8550828807
  0
ARC
  5
EC
330
1F
100
AcDbEntity
  8
0
  6
Continuous
 62
     7
370
    25
100
AcDbCircle
 10
432.0900655548
 20
545.4715700518
 30
0.0
 40
0.2634765891815768
100
AcDbArc
 50
19.0901208824
 51
82.4385305659
  0
LWPOLYLINE
  5
ED
330
1F
100
AcDbEntity
  8
0
  6
Continuous
 62
     7
370
    25
100
AcDbPolyline
 90
        3
 70
   128
 43
0.0
 10
432.3663736118
 20
545.4884509784
 10
432.3654162122
 20
545.4958866578
 10
432.3390523327
 20
545.5577413779
  0
ARC
  5
EE
330
1F
100
AcDbEntity
  8
0
  6
Continuous
 62
     7
370
    25
100
AcDbCircle
 10
431.9611707488
 20
543.5570621365
 30
0.0
 40
0.2760776512545755
100
AcDbArc
 50
271.9353650415
 51
309.0721534539
  0
ARC
  5
EF
330
1F
100
AcDbEntity
  8
0
  6
Continuous
 62
     7
370
    25
100
AcDbCircle
 10
432.1183990323
 20
534.4131446037
 30
0.0
 40
0.2774425980998091
100
AcDbArc
 50
37.8062319735
 51
79.655585534
  0
LINE
  5
F0
330
1F
100
AcDbEntity
  8
0
  6
Continuous
 62
     7
370
    25
100
AcDbLine
 10
431.928514166
 20
532.2413484794
 30
0.0
 11
431.9637889398
 21
532.2452823859
 31
0.0
  0
LWPOLYLINE
  5
F1
330
1F
100
AcDbEntity
  8
0
  6
Continuous
 62
     7
370
    25
100
AcDbPolyline
 90
        3
 70
   128
 43
0.0
 10
432.3323356343
 20
540.0830696565
 10
432.2588058544
 20
540.1582907182
 10
432.146451099
 20
540.2046631318
  0
LWPOLYLINE
  5
F2
330
1F
100
AcDbEntity
  8
0
  6
Continuous
 62
     7
370
    25
100
AcDbPolyline
 90
        3
 70
   128
 43
0.0
 10
432.3431017233
 20
540.0683026057
 10
432.3403040303
 20
540.0749187213
 10
432.3323356343
 20
540.0830696565
  0
LINE
  5
F3
330
1F
100
AcDbEntity
  8
0
  6
Continuous
 62
     7
370
    25
100
AcDbLine
 10
431.9494465722
 20
537.7561192256
 30
0.0
 11
432.0034707321
 21
537.763182376
 31
0.0
  0
LWPOLYLINE
  5
F4
330
1F
100
AcDbEntity
  8
0
  6
Continuous
 62
     7
370
    25
100
AcDbPolyline
 90
        5
 70
   128
 43
0.0
 10
432.3524186743
 20
550.9699027282
 10
432.3150800897
 20
551.0887543899
 10
432.2896140052
 20
551.1698018056
 10
432.2078625096
 20
551.2501786691
 10
432.1030812694
 20
551.2903671008
  0
ARC
  5
F5
330
1F
100
AcDbEntity
  8
0
  6
Continuous
 62
     7
370
    25
100
AcDbCircle
 10
431.9610518519
 20
549.1510929358
 30
0.0
 40
0.316132999774169
100
AcDbArc
 50
275.5536795788
 51
356.7608606182
  0
ARC
  5
F6
330
1F
100
AcDbEntity
  8
0
  6
Continuous
 62
     7
370
    25
100
AcDbCircle
 10
422.0214667014
 20
550.3341456813
 30
0.0
 40
10.32852048368959
100
AcDbArc
 50
355.3021899639
 51
357.8530142317
  0
ARC
  5
F7
330
1F
100
AcDbEntity
  8
0
  6
Continuous
 62
     7
370
    25
100
AcDbCircle
 10
432.0533908452
 20
556.5405506487
 30
0.0
 40
0.2684752463757941
100
AcDbArc
 50
19.7529651537
 51
83.9932165639
  0
ARC
  5
F8
330
1F
100
AcDbEntity
  8
0
  6
Continuous
 62
     7
370
    25
100
AcDbCircle
 10
411.9025241624
 20
556.1281418858
 30
0.0
 40
20.45339166606709
100
AcDbArc
 50
356.8452032196
 51
359.4469643062
  0
LWPOLYLINE
  5
F9
330
1F
100
AcDbEntity
  8
0
  6
Continuous
 62
     7
370
    25
100
AcDbPolyline
 90
       12
 70
   128
 43
0.0
 10
432.0128994418
 20
554.3520490867
 10
432.070827706
 20
554.3628673297
 10
432.1247103048
 20
554.3851445657
 10
432.1719693376
 20
554.4161091786
 10
432.2109582258
 20
554.4522146922
 10
432.2271446122
 20
554.4710795623
 10
432.2411628796
 20
554.4900338393
 10
432.2631905211
 20
554.527346347
 10
432.2893346084
 20
554.6033273679
 10
432.3054017855
 20
554.7180961114
 10
432.3205525411
 20
554.9180398923
 10
432.3249185813
 20
555.0025145751
  0
LWPOLYLINE
  5
FA
330
1F
100
AcDbEntity
  8
0
  6
Continuous
 62
     7
370
    25
100
AcDbPolyline
 90
        3
 70
   128
 43
0.0
 10
410.3956433369
 20
405.8847989184
 10
410.2882990969
 20
405.798030388
 10
410.2399746312
 20
405.66956934
  0
LINE
  5
FB
330
1F
100
AcDbEntity
  8
0
  6
Continuous
 62
     7
370
    25
100
AcDbLine
 10
411.449870689
 20
406.4346610796
 30
0.0
 11
410.3654554469
 21
405.869764578
 31
0.0
  0
LINE
  5
FC
330
1F
100
AcDbEntity
  8
0
  6
Continuous
 62
     7
370
    25
100
AcDbLine
 10
433.0278138054
 20
537.7756397468
 30
0.0
 11
433.3491685225
 21
537.7834926587
 31
0.0
  0
LINE
  5
FD
330
1F
100
AcDbEntity
  8
0
  6
Continuous
 62
     7
370
    25
100
AcDbLine
 10
433.5461730493
 20
540.2320514661
 30
0.0
 11
433.0302650465
 21
540.3286109906
 31
0.0
  0
LINE
  5
FE
330
1F
100
AcDbEntity
  8
0
  6
Continuous
 62
     7
370
    25
100
AcDbLine
 10
433.0282086862
 20
543.2887415629
 30
0.0
 11
433.3702164126
 21
543.30307648
 31
0.0
  0
LINE
  5
FF
330
1F
100
AcDbEntity
  8
0
  6
Continuous
 62
     7
370
    25
100
AcDbLine
 10
433.5244583322
 20
545.7547049266
 30
0.0
 11
433.0302538706
 21
545.8382855397
 31
0.0
  0
LINE
  5
100
330
1F
100
AcDbEntity
  8
0
  6
Continuous
 62
     7
370
    25
100
AcDbLine
 10
433.02742265
 20
532.2620014888
 30
0.0
 11
433.328232391
 21
532.2641025525
 31
0.0
  0
LINE
  5
101
330
1F
100
AcDbEntity
  8
0
  6
Continuous
 62
     7
370
    25
100
AcDbLine
 10
433.5679436458
 20
534.7088466626
 30
0.0
 11
433.0301756395
 21
534.8192344648
 31
0.0
  0
LINE
  5
102
330
1F
100
AcDbEntity
  8
0
  6
Continuous
 62
     7
370
    25
100
AcDbLine
 10
433.0285998417
 20
548.8513301355
 30
0.0
 11
433.3913648857
 21
548.8728772145
 31
0.0
  0
LINE
  5
103
330
1F
100
AcDbEntity
  8
0
  6
Continuous
 62
     7
370
    25
100
AcDbLine
 10
433.5027994944
 20
551.3268153411
 30
0.0
 11
433.0301458372
 21
551.3983111125
 31
0.0
  0
LINE
  5
104
330
1F
100
AcDbEntity
  8
0
  6
Continuous
 62
     7
370
    25
100
AcDbLine
 10
433.0289686454
 20
554.2834292394
 30
0.0
 11
433.4126176668
 21
554.3129484397
 31
0.0
  0
LINE
  5
105
330
1F
100
AcDbEntity
  8
0
  6
Continuous
 62
     7
370
    25
100
AcDbLine
 10
433.4812039865
 20
556.7684660894
 30
0.0
 11
433.0299521221
 21
556.8286667806
 31
0.0
  0
LINE
  5
106
330
1F
100
AcDbEntity
  8
0
  6
Continuous
 62
     7
370
    25
100
AcDbLine
 10
433.0293113721
 20
559.8150681001
 30
0.0
 11
433.4339598549
 21
559.8533193809
 31
0.0
  0
LINE
  5
107
330
1F
100
AcDbEntity
  8
0
  6
Continuous
 62
     7
370
    25
100
AcDbLine
 10
433.4596829844
 20
562.3096565944
 30
0.0
 11
433.0296839012
 21
562.3594115716
 31
0.0
  0
LINE
  5
108
330
1F
100
AcDbEntity
  8
0
  6
Continuous
 62
     7
370
    25
100
AcDbLine
 10
433.0296652747
 20
565.3364847642
 30
0.0
 11
433.4596829844
 21
565.3862397414
 31
0.0
  0
LINE
  5
109
330
1F
100
AcDbEntity
  8
0
  6
Continuous
 62
     7
370
    25
100
AcDbLine
 10
433.4339598549
 20
567.8425769549
 30
0.0
 11
433.0292852951
 21
567.8808282357
 31
0.0
  0
LINE
  5
10A
330
1F
100
AcDbEntity
  8
0
  6
Continuous
 62
     7
370
    25
100
AcDbLine
 10
433.0298962427
 20
570.8672295552
 30
0.0
 11
433.4812039865
 21
570.9274451476
 31
0.0
  0
LINE
  5
10B
330
1F
100
AcDbEntity
  8
0
  6
Continuous
 62
     7
370
    25
100
AcDbLine
 10
433.4126176668
 20
573.3829478961
 30
0.0
 11
433.0288904143
 21
573.4124819976
 31
0.0
  0
LINE
  5
10C
330
1F
100
AcDbEntity
  8
0
  6
Continuous
 62
     7
370
    25
100
AcDbLine
 10
433.0300527049
 20
576.2975852233
 30
0.0
 11
433.5027994944
 21
576.3690809947
 31
0.0
  0
LINE
  5
10D
330
1F
100
AcDbEntity
  8
0
  6
Continuous
 62
     7
370
    25
100
AcDbLine
 10
433.3913648857
 20
578.8230191213
 30
0.0
 11
433.0284620059
 21
578.8445811015
 31
0.0
  0
LINE
  5
10E
330
1F
100
AcDbEntity
  8
0
  6
Continuous
 62
     7
370
    25
100
AcDbLine
 10
433.0301458372
 20
581.8575958949
 30
0.0
 11
433.5244583322
 21
581.9412063104
 31
0.0
  0
LINE
  5
10F
330
1F
100
AcDbEntity
  8
0
  6
Continuous
 62
     7
370
    25
100
AcDbLine
 10
433.3702164126
 20
584.3928198558
 30
0.0
 11
433.028026147
 21
584.407169674
 31
0.0
  0
LINE
  5
110
330
1F
100
AcDbEntity
  8
0
  6
Continuous
 62
     7
370
    25
100
AcDbLine
 10
433.0301607383
 20
587.367270444
 30
0.0
 11
433.5461730493
 21
587.4638448697
 31
0.0
  0
LINE
  5
111
330
1F
100
AcDbEntity
  8
0
  6
Continuous
 62
     7
370
    25
100
AcDbLine
 10
433.3491685225
 20
589.9124036771
 30
0.0
 11
433.0275865627
 21
589.9202714902
 31
0.0
  0
LINE
  5
112
330
1F
100
AcDbEntity
  8
0
  6
Continuous
 62
     7
370
    25
100
AcDbLine
 10
433.0300862325
 20
592.8766469699
 30
0.0
 11
433.5679436458
 21
592.9870645743
 31
0.0
  0
LINE
  5
113
330
1F
100
AcDbEntity
  8
0
  6
Continuous
 62
     7
370
    25
100
AcDbLine
 10
433.328232391
 20
595.4318086845
 30
0.0
 11
433.0271544291
 21
595.4339097482
 31
0.0
  0
LWPOLYLINE
  5
114
330
1F
100
AcDbEntity
  8
0
  6
Continuous
 62
     7
370
    25
100
AcDbPolyline
 90
        7
 70
   128
 43
0.0
 10
433.7075488997
 20
588.9420400601
 10
433.6887175573
 20
589.1627411586
 10
433.6493039859
 20
589.5672629815
 10
433.6193265749
 20
589.6980951768
 10
433.5607910884
 20
589.8057709676
 10
433.4672564996
 20
589.8823331338
 10
433.3491685225
 20
589.9124036771
  0
ARC
  5
115
330
1F
100
AcDbEntity
  8
0
  6
Continuous
 62
     7
370
    25
100
AcDbCircle
 10
383.0367343652
 20
584.593585466
 30
0.0
 40
50.85705951927284
100
AcDbArc
 50
4.0706470891
 51
4.9049764478
  0
ARC
  5
116
330
1F
100
AcDbEntity
  8
0
  6
Continuous
 62
     7
370
    25
100
AcDbCircle
 10
433.4725697444
 20
587.7759319459
 30
0.0
 40
0.3206490131387494
100
AcDbArc
 50
283.2702721162
 51
340.6586044664
  0
LWPOLYLINE
  5
117
330
1F
100
AcDbEntity
  8
0
  6
Continuous
 62
     7
370
    25
100
AcDbPolyline
 90
        3
 70
   128
 43
0.0
 10
433.4942015244
 20
584.3563418132
 10
433.4887067212
 20
584.3609164697
 10
433.3702164126
 20
584.3928198558
  0
ARC
  5
118
330
1F
100
AcDbEntity
  8
0
  6
Continuous
 62
     7
370
    25
100
AcDbCircle
 10
433.3311831224
 20
584.0778184601
 30
0.0
 40
0.3227231903687057
100
AcDbArc
 50
4.3836471185
 51
59.6597631493
  0
ARC
  5
119
330
1F
100
AcDbEntity
  8
0
  6
Continuous
 62
     7
370
    25
100
AcDbCircle
 10
380.6954091192
 20
579.8755409713
 30
0.0
 40
53.13457158244188
100
AcDbArc
 50
3.4094928382
 51
4.0731914765
  0
LINE
  5
11A
330
1F
100
AcDbEntity
  8
0
  6
Continuous
 62
     7
370
    25
100
AcDbLine
 10
433.5244583322
 20
581.9412063104
 30
0.0
 11
433.5471975041
 21
581.9478671294
 31
0.0
  0
ARC
  5
11B
330
1F
100
AcDbEntity
  8
0
  6
Continuous
 62
     7
370
    25
100
AcDbCircle
 10
433.3719804242
 20
573.0551010298
 30
0.0
 40
0.3303557979190346
100
AcDbArc
 50
348.8304750559
 51
82.9341189831
  0
ARC
  5
11C
330
1F
100
AcDbEntity
  8
0
  6
Continuous
 62
     7
370
    25
100
AcDbCircle
 10
433.4476044523
 20
571.2149427441
 30
0.0
 40
0.2894543084425287
100
AcDbArc
 50
276.6658575466
 51
341.204230795
  0
ARC
  5
11D
330
1F
100
AcDbEntity
  8
0
  6
Continuous
 62
     7
370
    25
100
AcDbCircle
 10
433.4438414028
 20
562.079268813
 30
0.0
 40
0.2309317767522997
100
AcDbArc
 50
41.2490405851
 51
86.0665043169
  0
ARC
  5
11E
330
1F
100
AcDbEntity
  8
0
  6
Continuous
 62
     7
370
    25
100
AcDbCircle
 10
396.1851262062
 20
561.4435891094
 30
0.0
 40
37.54402329369792
100
AcDbArc
 50
358.0831738922
 51
359.8820172467
  0
ARC
  5
11F
330
1F
100
AcDbEntity
  8
0
  6
Continuous
 62
     7
370
    25
100
AcDbCircle
 10
433.3989074301
 20
560.1616685934
 30
0.0
 40
0.3103351565356134
100
AcDbArc
 50
276.4854110658
 51
4.8285468806
  0
LWPOLYLINE
  5
120
330
1F
100
AcDbEntity
  8
0
  6
Continuous
 62
     7
370
    25
100
AcDbPolyline
 90
        7
 70
   128
 43
0.0
 10
433.716124518
 20
594.3428467256
 10
433.7122092379
 20
594.3828265411
 10
433.6813340319
 20
594.6830551368
 10
433.6346039904
 20
595.0886498433
 10
433.5410843028
 20
595.3283499223
 10
433.4463240934
 20
595.4037199956
 10
433.328232391
 20
595.4318086845
  0
ARC
  5
121
330
1F
100
AcDbEntity
  8
0
  6
Continuous
 62
     7
370
    25
100
AcDbCircle
 10
383.0120003962
 20
589.2153438899
 30
0.0
 40
50.96272646047875
100
AcDbArc
 50
5.0596999128
 51
5.7744595683
  0
ARC
  5
122
330
1F
100
AcDbEntity
  8
0
  6
Continuous
 62
     7
370
    25
100
AcDbCircle
 10
433.4890789472
 20
593.296521317
 30
0.0
 40
0.3193479548657799
100
AcDbArc
 50
284.2974206836
 51
338.5322538223
  0
LWPOLYLINE
  5
123
330
1F
100
AcDbEntity
  8
0
  6
Continuous
 62
     7
370
    25
100
AcDbPolyline
 90
        7
 70
   128
 43
0.0
 10
433.6850369705
 20
578.3812592965
 10
433.6778769625
 20
578.4950594646
 10
433.6548472179
 20
578.612227295
 10
433.6018810404
 20
578.713078354
 10
433.5107306374
 20
578.7894319039
 10
433.4532270564
 20
578.8125734073
 10
433.3913648857
 20
578.8230191213
  0
LWPOLYLINE
  5
124
330
1F
100
AcDbEntity
  8
0
  6
Continuous
 62
     7
370
    25
100
AcDbPolyline
 90
        3
 70
   128
 43
0.0
 10
433.7148653699
 20
577.8593908292
 10
433.7016964687
 20
578.1165699702
 10
433.6850369705
 20
578.3812592965
  0
ARC
  5
125
330
1F
100
AcDbEntity
  8
0
  6
Continuous
 62
     7
370
    25
100
AcDbCircle
 10
433.4627900591
 20
576.654912375
 30
0.0
 40
0.2886179704761112
100
AcDbArc
 50
277.9682424489
 51
329.1650348225
  0
LINE
  5
126
330
1F
100
AcDbEntity
  8
0
  6
Continuous
 62
     7
370
    25
100
AcDbLine
 10
433.7240109576
 20
566.837270115
 30
0.0
 11
433.7220067514
 21
566.9684301358
 31
0.0
  0
LWPOLYLINE
  5
127
330
1F
100
AcDbEntity
  8
0
  6
Continuous
 62
     7
370
    25
100
AcDbPolyline
 90
        4
 70
   128
 43
0.0
 10
433.7027730776
 20
567.4908052426
 10
433.6337248219
 20
567.7215348226
 10
433.5466610623
 20
567.8047578078
 10
433.4339598549
 20
567.8425769549
  0
LWPOLYLINE
  5
128
330
1F
100
AcDbEntity
  8
0
  6
Continuous
 62
     7
370
    25
100
AcDbPolyline
 90
        3
 70
   128
 43
0.0
 10
433.7255346013
 20
566.7202810985
 10
433.7249348296
 20
566.7769353133
 10
433.7240109576
 20
566.837270115
  0
LWPOLYLINE
  5
129
330
1F
100
AcDbEntity
  8
0
  6
Continuous
 62
     7
370
    25
100
AcDbPolyline
 90
       12
 70
   128
 43
0.0
 10
433.4596829844
 20
565.3862397414
 10
433.5682006908
 20
565.4245208245
 10
433.6136157049
 20
565.4578845245
 10
433.6333001388
 20
565.476332162
 10
433.6508164538
 20
565.4952119332
 10
433.6661460234
 20
565.514047001
 10
433.6793149246
 20
565.5324350339
 10
433.6904162897
 20
565.5501078111
 10
433.6995916797
 20
565.5670057279
 10
433.7210046483
 20
565.6333605987
 10
433.7283099426
 20
565.7413344127
 10
433.7294461561
 20
565.8504705173
  0
LINE
  5
12A
330
1F
100
AcDbEntity
  8
0
  6
Continuous
 62
     7
370
    25
100
AcDbLine
 10
433.5838990642
 20
540.2158539039
 30
0.0
 11
433.5461730493
 21
540.2320514661
 31
0.0
  0
LWPOLYLINE
  5
12B
330
1F
100
AcDbEntity
  8
0
  6
Continuous
 62
     7
370
    25
100
AcDbPolyline
 90
        3
 70
   128
 43
0.0
 10
433.6069288088
 20
537.9474799377
 10
433.6175272597
 20
537.9667471391
 10
433.6252497865
 20
537.9918406945
  0
ARC
  5
12C
330
1F
100
AcDbEntity
  8
0
  6
Continuous
 62
     7
370
    25
100
AcDbCircle
 10
433.3360850241
 20
538.0886291488
 30
0.0
 40
0.3054168552607088
100
AcDbArc
 50
272.455197501
 51
332.4738980214
  0
ARC
  5
12D
330
1F
100
AcDbEntity
  8
0
  6
Continuous
 62
     7
370
    25
100
AcDbCircle
 10
433.4581429599
 20
556.506921898
 30
0.0
 40
0.2625588980707946
100
AcDbArc
 50
25.7535935629
 51
84.9611143478
  0
LINE
  5
12E
330
1F
100
AcDbEntity
  8
0
  6
Continuous
 62
     7
370
    25
100
AcDbLine
 10
433.4126176668
 20
554.3129484397
 30
0.0
 11
433.4608005715
 21
554.322038148
 31
0.0
  0
ARC
  5
12F
330
1F
100
AcDbEntity
  8
0
  6
Continuous
 62
     7
370
    25
100
AcDbCircle
 10
408.7334553597
 20
411.1818224893
 30
0.0
 40
0.2063818698481515
100
AcDbArc
 50
134.3621095169
 51
175.5182459978
  0
ARC
  5
130
330
1F
100
AcDbEntity
  8
0
  6
Continuous
 62
     7
370
    25
100
AcDbCircle
 10
408.4154085172
 20
411.5979518157
 30
0.0
 40
0.2000000000001023
100
AcDbArc
 50
180.0
 51
270.0
  0
ARC
  5
131
330
1F
100
AcDbEntity
  8
0
  6
Continuous
 62
     7
370
    25
100
AcDbCircle
 10
408.7154085172
 20
408.7479518157
 30
0.0
 40
0.5
100
AcDbArc
 50
180.0185122663
 51
270.0
  0
LINE
  5
132
330
1F
100
AcDbEntity
  8
0
  6
Continuous
 62
     7
370
    25
100
AcDbLine
 10
408.2154078765
 20
411.0479525518
 30
0.0
 11
408.2154078765
 21
408.7437748206
 31
0.0
  0
ARC
  5
133
330
1F
100
AcDbEntity
  8
0
  6
Continuous
 62
     7
370
    25
100
AcDbCircle
 10
408.4154085172
 20
411.0479518157
 30
0.0
 40
0.1999999999999886
100
AcDbArc
 50
90.0
 51
180.000003008
  0
LINE
  5
134
330
1F
100
AcDbEntity
  8
0
  6
Continuous
 62
     7
370
    25
100
AcDbLine
 10
430.1309088601
 20
406.3004630846
 30
0.0
 11
430.1309088601
 21
406.7113570166
 31
0.0
  0
LWPOLYLINE
  5
135
330
1F
100
AcDbEntity
  8
0
  6
Continuous
 62
     7
370
    25
100
AcDbPolyline
 90
        3
 70
   128
 43
0.0
 10
410.3855198605
 20
405.4150193226
 10
410.9057585133
 20
405.1436887351
 10
411.3999089582
 20
404.8859200668
  0
LINE
  5
136
330
1F
100
AcDbEntity
  8
0
  6
Continuous
 62
     7
370
    25
100
AcDbLine
 10
433.6180897785
 20
534.6928279143
 30
0.0
 11
433.5679436458
 21
534.7088466626
 31
0.0
  0
ARC
  5
137
330
1F
100
AcDbEntity
  8
0
  6
Continuous
 62
     7
370
    25
100
AcDbCircle
 10
389.7641169379
 20
537.8220696699
 30
0.0
 40
44.1785608980303
100
AcDbArc
 50
354.2504273909
 51
354.8918229304
  0
ARC
  5
138
330
1F
100
AcDbEntity
  8
0
  6
Continuous
 62
     7
370
    25
100
AcDbCircle
 10
433.2270790264
 20
532.6091542727
 30
0.0
 40
0.4078007674191133
100
AcDbArc
 50
332.9749729104
 51
359.7507996037
  0
ARC
  5
139
330
1F
100
AcDbEntity
  8
0
  6
Continuous
 62
     7
370
    25
100
AcDbCircle
 10
433.3298423309
 20
532.5563747235
 30
0.0
 40
0.2922766050012732
100
AcDbArc
 50
269.6843974936
 51
333.0382713287
  0
LINE
  5
13A
330
1F
100
AcDbEntity
  8
0
  6
Continuous
 62
     7
370
    25
100
AcDbLine
 10
433.5461730493
 20
587.4638448697
 30
0.0
 11
433.5775735212
 21
587.4735008222
 31
0.0
  0
ARC
  5
13B
330
1F
100
AcDbEntity
  8
0
  6
Continuous
 62
     7
370
    25
100
AcDbCircle
 10
433.3328957731
 20
538.1001745605
 30
0.0
 40
0.3170997150784516
100
AcDbArc
 50
272.941565463
 51
4.5275806388
  0
LINE
  5
13C
330
1F
100
AcDbEntity
  8
0
  6
Continuous
 62
     7
370
    25
100
AcDbLine
 10
433.5546592606
 20
545.7461665612
 30
0.0
 11
433.5244583322
 21
545.7547049266
 31
0.0
  0
ARC
  5
13D
330
1F
100
AcDbEntity
  8
0
  6
Continuous
 62
     7
370
    25
100
AcDbCircle
 10
389.603063904
 20
547.3202645477
 30
0.0
 40
44.21307508591935
100
AcDbArc
 50
356.20608938
 51
356.8413582335
  0
ARC
  5
13E
330
1F
100
AcDbEntity
  8
0
  6
Continuous
 62
     7
370
    25
100
AcDbCircle
 10
433.3490077403
 20
543.6173099862
 30
0.0
 40
0.3149484150803489
100
AcDbArc
 50
273.861228174
 51
4.2195606657
  0
LINE
  5
13F
330
1F
100
AcDbEntity
  8
0
  6
Continuous
 62
     7
370
    25
100
AcDbLine
 10
433.5188666714
 20
551.3205866557
 30
0.0
 11
433.5027994944
 21
551.3268153411
 31
0.0
  0
ARC
  5
140
330
1F
100
AcDbEntity
  8
0
  6
Continuous
 62
     7
370
    25
100
AcDbCircle
 10
389.4984705518
 20
552.0346166032
 30
0.0
 40
44.27176610207822
100
AcDbArc
 50
356.5871365373
 51
357.8842479685
  0
ARC
  5
141
330
1F
100
AcDbEntity
  8
0
  6
Continuous
 62
     7
370
    25
100
AcDbCircle
 10
433.3635012412
 20
549.1856438183
 30
0.0
 40
0.3140053043104177
100
AcDbArc
 50
275.0909070498
 51
3.0265114264
  0
LWPOLYLINE
  5
142
330
1F
100
AcDbEntity
  8
0
  6
Continuous
 62
     7
370
    25
100
AcDbPolyline
 90
       11
 70
   128
 43
0.0
 10
433.4126176668
 20
554.3129484397
 10
433.5084954632
 20
554.3381910068
 10
433.5511947406
 20
554.3615709287
 10
433.5706333054
 20
554.3750415784
 10
433.5886413587
 20
554.3893913966
 10
433.6051443947
 20
554.4045160752
 10
433.6201051606
 20
554.4204305154
 10
433.679281397
 20
554.5529316407
 10
433.6967641843
 20
554.7076205951
 10
433.7067591382
 20
554.9177716714
 10
433.7073626352
 20
554.9347291928
  0
ARC
  5
143
330
1F
100
AcDbEntity
  8
0
  6
Continuous
 62
     7
370
    25
100
AcDbCircle
 10
433.404725572
 20
561.9817271526
 30
0.0
 40
0.3325026856557382
100
AcDbArc
 50
346.4208814469
 51
80.4862602687
  0
LINE
  5
144
330
1F
100
AcDbEntity
  8
0
  6
Continuous
 62
     7
370
    25
100
AcDbLine
 10
412.7154076828
 20
366.7479514372
 30
0.0
 11
428.7154103054
 21
366.7479514372
 31
0.0
  0
LINE
  5
145
330
1F
100
AcDbEntity
  8
0
  6
Continuous
 62
     7
370
    25
100
AcDbLine
 10
413.7154078467
 20
281.7479486805
 30
0.0
 11
427.7154082788
 21
281.7479486805
 31
0.0
  0
LINE
  5
146
330
1F
100
AcDbEntity
  8
0
  6
Continuous
 62
     7
370
    25
100
AcDbLine
 10
375.7154081372
 20
361.6479526502
 30
0.0
 11
375.7154081372
 21
419.6479509812
 31
0.0
  0
LINE
  5
147
330
1F
100
AcDbEntity
  8
0
  6
Continuous
 62
     7
370
    25
100
AcDbLine
 10
383.7154085172
 20
418.8479523402
 30
0.0
 11
383.7154085172
 21
362.4479512912
 31
0.0
  0
LINE
  5
148
330
1F
100
AcDbEntity
  8
0
  6
Continuous
 62
     7
370
    25
100
AcDbLine
 10
437.7154099179
 20
402.64795192
 30
0.0
 11
437.7154099179
 21
370.9479517531
 31
0.0
  0
LWPOLYLINE
  5
149
330
1F
100
AcDbEntity
  8
0
  6
Continuous
 62
     7
370
    25
100
AcDbPolyline
 90
       10
 70
   128
 43
0.0
 10
406.7154085619
 20
403.541352902
 10
404.5337612165
 20
403.8376503852
 10
402.6067486388
 20
404.6462050867
 10
401.0567093624
 20
405.8032858413
 10
399.6303031577
 20
407.5785692078
 10
399.0702756105
 20
408.6871392321
 10
398.7516394241
 20
409.5936811757
 10
398.5667299835
 20
410.3660549265
 10
398.5178914277
 20
410.6476756972
 10
398.5192241503
 20
410.6398656261
  0
LWPOLYLINE
  5
14A
330
1F
100
AcDbEntity
  8
0
  6
Continuous
 62
     7
370
    25
100
AcDbPolyline
 90
       11
 70
   128
 43
0.0
 10
412.3971468193
 20
376.8856714707
 10
412.3810647411
 20
378.7564200577
 10
412.3617211712
 20
381.0067254346
 10
412.3408986611
 20
383.4292039503
 10
412.3189660145
 20
385.9805933428
 10
412.2963181121
 20
388.6153323804
 10
412.273359148
 20
391.2863696571
 10
412.2504970414
 20
393.9460060321
 10
412.2281397117
 20
396.546745975
 10
412.2066894902
 20
399.0421465826
 10
412.1922688914
 20
400.7197966096
  0
LWPOLYLINE
  5
14B
330
1F
100
AcDbEntity
  8
0
  6
Continuous
 62
     7
370
    25
100
AcDbPolyline
 90
       11
 70
   128
 43
0.0
 10
429.19804029
 20
396.0075311591
 10
429.180319084
 20
393.9460060321
 10
429.1574569775
 20
391.2863696571
 10
429.1344980134
 20
388.6153323804
 10
429.1118519736
 20
385.9805933428
 10
429.0899174643
 20
383.4292039503
 10
429.0690968169
 20
381.0067254346
 10
429.0497513844
 20
378.7564200577
 10
429.0322350694
 20
376.7184711289
 10
429.0168533457
 20
374.9292738032
 10
429.0059345199
 20
373.6590857845
  0
ARC
  5
14C
330
1F
100
AcDbEntity
  8
0
  6
Continuous
 62
     7
370
    25
100
AcDbCircle
 10
429.2391378289
 20
372.7083773447
 30
0.0
 40
0.5439369405554774
100
AcDbArc
 50
181.1404608229
 51
218.9242213255
  0
LWPOLYLINE
  5
14D
330
1F
100
AcDbEntity
  8
0
  6
Continuous
 62
     7
370
    25
100
AcDbPolyline
 90
       15
 70
   128
 43
0.0
 10
428.6953086389
 20
372.6975511056
 10
428.7059815956
 20
373.9205136192
 10
428.719191475
 20
375.4342639115
 10
428.7347110344
 20
377.2124939826
 10
428.7522683276
 20
379.2242950988
 10
428.7715578807
 20
381.4346988913
 10
428.7922444178
 20
383.8052869071
 10
428.8139703108
 20
386.2948546414
 10
428.8363555802
 20
388.8601301699
 10
428.8590165211
 20
391.4565257257
 10
428.8815508021
 20
394.0389129095
 10
428.9035747183
 20
396.5624061641
 10
428.9247008396
 20
398.9831445035
 10
428.9445603622
 20
401.2590510067
 10
428.9628142847
 20
403.35056961
  0
LWPOLYLINE
  5
14E
330
1F
100
AcDbEntity
  8
0
  6
Continuous
 62
     7
370
    25
100
AcDbPolyline
 90
        3
 70
   128
 43
0.0
 10
428.9935628308
 20
372.2199260485
 10
428.8466224802
 20
372.3313718331
 10
428.8159670664
 20
372.3679579091
  0
LWPOLYLINE
  5
14F
330
1F
100
AcDbEntity
  8
0
  6
Continuous
 62
     7
370
    25
100
AcDbPolyline
 90
       15
 70
   128
 43
0.0
 10
412.4680037034
 20
403.35056961
 10
412.4862557633
 20
401.2590510067
 10
412.5061171485
 20
398.9831445035
 10
412.5272432698
 20
396.5624061641
 10
412.5492653234
 20
394.0389129095
 10
412.571801467
 20
391.4565257257
 10
412.5944605453
 20
388.8601301699
 10
412.6168458147
 20
386.2948546414
 10
412.6385735703
 20
383.8052869071
 10
412.6592601074
 20
381.4346988913
 10
412.6785496605
 20
379.2242950988
 10
412.6961069537
 20
377.2124939826
 10
412.7116265131
 20
375.4342639115
 10
412.7248363925
 20
373.9205136192
 10
412.7355093492
 20
372.6975511056
  0
ARC
  5
150
330
1F
100
AcDbEntity
  8
0
  6
Continuous
 62
     7
370
    25
100
AcDbCircle
 10
412.1765161621
 20
372.7139087508
 30
0.0
 40
0.5592324702418591
100
AcDbArc
 50
321.6108989491
 51
358.3238495969
  0
LWPOLYLINE
  5
151
330
1F
100
AcDbEntity
  8
0
  6
Continuous
 62
     7
370
    25
100
AcDbPolyline
 90
        3
 70
   128
 43
0.0
 10
412.6148490591
 20
372.3679579091
 10
412.5364652259
 20
372.2849137378
 10
412.4372532947
 20
372.2199260485
  0
LWPOLYLINE
  5
152
330
1F
100
AcDbEntity
  8
0
  6
Continuous
 62
     7
370
    25
100
AcDbPolyline
 90
       10
 70
   128
 43
0.0
 10
398.8195356337
 20
410.3639650386
 10
398.8141870482
 20
410.3946781945
 10
398.8585561869
 20
410.1413435531
 10
399.0394870175
 20
409.3940167916
 10
399.3358329294
 20
408.5589613062
 10
399.8863907886
 20
407.4808753323
 10
401.2612408383
 20
405.7954254788
 10
402.7552536113
 20
404.6968960431
 10
404.6126162989
 20
403.929256205
 10
406.7154085619
 20
403.6479520839
  0
ARC
  5
153
330
1F
100
AcDbEntity
  8
0
  6
Continuous
 62
     7
370
    25
100
AcDbCircle
 10
436.7154031083
 20
402.6479452743
 30
0.0
 40
1.000006809654521
100
AcDbArc
 50
0.0003807697
 51
89.9997259519
  0
ARC
  5
154
330
1F
100
AcDbEntity
  8
0
  6
Continuous
 62
     7
370
    25
100
AcDbCircle
 10
412.168015154
 20
403.3479518157
 30
0.0
 40
0.3000000000000528
100
AcDbArc
 50
0.5
 51
90.0
  0
LINE
  5
155
330
1F
100
AcDbEntity
  8
0
  6
Continuous
 62
     7
370
    25
100
AcDbLine
 10
429.2628007365
 20
403.6479520839
 30
0.0
 11
436.7154078914
 21
403.6479520839
 31
0.0
  0
LINE
  5
156
330
1F
100
AcDbEntity
  8
0
  6
Continuous
 62
     7
370
    25
100
AcDbLine
 10
406.7154085619
 20
403.6479520839
 30
0.0
 11
412.1680153889
 21
403.6479520839
 31
0.0
  0
ARC
  5
157
330
1F
100
AcDbEntity
  8
0
  6
Continuous
 62
     7
370
    25
100
AcDbCircle
 10
429.2628018804
 20
403.3479518157
 30
0.0
 40
0.3000000000000528
100
AcDbArc
 50
90.0
 51
179.5
  0
LINE
  5
158
330
1F
100
AcDbEntity
  8
0
  6
Continuous
 62
     7
370
    25
100
AcDbLine
 10
421.1530821753
 20
408.3479515505
 30
0.0
 11
432.6834218932
 21
408.3479515505
 31
0.0
  0
LINE
  5
159
330
1F
100
AcDbEntity
  8
0
  6
Continuous
 62
     7
370
    25
100
AcDbLine
 10
409.0231029672
 20
408.3479515505
 30
0.0
 11
421.1530821753
 21
408.3479515505
 31
0.0
  0
ARC
  5
15A
330
1F
100
AcDbEntity
  8
0
  6
Continuous
 62
     7
370
    25
100
AcDbCircle
 10
409.0217268309
 20
408.8493910593
 30
0.0
 40
0.5014413971321546
100
AcDbArc
 50
180.16436584
 51
270.1572405091
  0
LINE
  5
15B
330
1F
100
AcDbEntity
  8
0
  6
Continuous
 62
     7
370
    25
100
AcDbLine
 10
420.7154089941
 20
605.8479587775
 30
0.0
 11
433.0154085887
 21
605.8479587775
 31
0.0
  0
LINE
  5
15C
330
1F
100
AcDbEntity
  8
0
  6
Continuous
 62
     7
370
    25
100
AcDbLine
 10
408.4154093994
 20
605.8479587775
 30
0.0
 11
420.7154089941
 21
605.8479587775
 31
0.0
  0
LINE
  5
15D
330
1F
100
AcDbEntity
  8
0
  6
Continuous
 62
     7
370
    25
100
AcDbLine
 10
408.5202874971
 20
411.1979513657
 30
0.0
 11
408.5202874971
 21
408.8479525638
 31
0.0
  0
LWPOLYLINE
  5
15E
330
1F
100
AcDbEntity
  8
0
  6
Continuous
 62
     7
370
    25
100
AcDbPolyline
 90
       12
 70
   128
 43
0.0
 10
431.4316871
 20
554.3146620732
 10
431.1795296503
 20
554.3538819295
 10
430.874994619
 20
554.5796941262
 10
430.6188287569
 20
554.9844394666
 10
430.5146510137
 20
555.3360919696
 10
430.4921092821
 20
555.7265023929
 10
430.5493818952
 20
556.0655336124
 10
430.6688184274
 20
556.3643316966
 10
430.854218675
 20
556.6295127612
 10
431.1083579792
 20
556.8293224317
 10
431.4087914659
 20
556.8966607791
 10
431.4318100346
 20
556.8864683848
  0
LWPOLYLINE
  5
15F
330
1F
100
AcDbEntity
  8
0
  6
Continuous
 62
     7
370
    25
100
AcDbPolyline
 90
       12
 70
   128
 43
0.0
 10
431.4308042062
 20
548.8140176278
 10
431.2006781233
 20
548.8448630315
 10
430.897297932
 20
549.06094477
 10
430.6335511042
 20
549.4603107911
 10
430.5204401148
 20
549.8165081483
 10
430.4907868041
 20
550.2167831403
 10
430.5447588099
 20
550.5610893708
 10
430.6607010199
 20
550.8592169028
 10
430.8408225311
 20
551.1220286828
 10
431.0885580612
 20
551.3220767718
 10
431.3849719597
 20
551.3963590604
 10
431.4309979213
 20
551.3780455333
  0
LWPOLYLINE
  5
160
330
1F
100
AcDbEntity
  8
0
  6
Continuous
 62
     7
370
    25
100
AcDbPolyline
 90
        9
 70
   128
 43
0.0
 10
430.6629175676
 20
538.365353201
 10
430.5341380073
 20
538.7246052962
 10
430.4887192679
 20
539.1370098334
 10
430.5342348648
 20
539.4961725217
 10
430.6426594389
 20
539.7955815536
 10
430.811768992
 20
540.0551746827
 10
431.0459109379
 20
540.2566085797
 10
431.3327061368
 20
540.3456728202
 10
431.4308228327
 20
540.3159748059
  0
ARC
  5
161
330
1F
100
AcDbEntity
  8
0
  6
Continuous
 62
     7
370
    25
100
AcDbCircle
 10
431.5059779218
 20
538.6387525763
 30
0.0
 40
0.8862832387490063
100
AcDbArc
 50
197.9675652202
 51
265.0599315352
  0
LWPOLYLINE
  5
162
330
1F
100
AcDbEntity
  8
0
  6
Continuous
 62
     7
370
    25
100
AcDbPolyline
 90
        9
 70
   128
 43
0.0
 10
430.6618595851
 20
532.8754077893
 10
430.5326925946
 20
533.2408438665
 10
430.4886224104
 20
533.6595068914
 10
430.5368276669
 20
534.0200106841
 10
430.64735703
 20
534.316558693
 10
430.8174351586
 20
534.5706532937
 10
431.0511188937
 20
534.7648005229
 10
431.3362265361
 20
534.8462204677
 10
431.4313443733
 20
534.8151664477
  0
ARC
  5
163
330
1F
100
AcDbEntity
  8
0
  6
Continuous
 62
     7
370
    25
100
AcDbCircle
 10
431.5291217693
 20
533.1552070342
 30
0.0
 40
0.9112800411983186
100
AcDbArc
 50
197.8809255454
 51
263.711610992
  0
LWPOLYLINE
  5
164
330
1F
100
AcDbEntity
  8
0
  6
Continuous
 62
     7
370
    25
100
AcDbPolyline
 90
        9
 70
   128
 43
0.0
 10
430.6697609259
 20
593.3370332461
 10
430.5443155004
 20
593.6476032477
 10
430.4893413914
 20
594.0106253368
 10
430.513011886
 20
594.3574647647
 10
430.6029552949
 20
594.6847836715
 10
430.7646515203
 20
595.0012247306
 10
431.0071567429
 20
595.2792058927
 10
431.3152308
 20
595.4446385842
 10
431.4255813492
 20
595.4322557193
  0
ARC
  5
165
330
1F
100
AcDbEntity
  8
0
  6
Continuous
 62
     7
370
    25
100
AcDbCircle
 10
431.3351218952
 20
593.5762793364
 30
0.0
 40
0.7070671193105531
100
AcDbArc
 50
199.7772341275
 51
278.018658944
  0
LWPOLYLINE
  5
166
330
1F
100
AcDbEntity
  8
0
  6
Continuous
 62
     7
370
    25
100
AcDbPolyline
 90
        9
 70
   128
 43
0.0
 10
430.6678498519
 20
587.8517071944
 10
430.5428626371
 20
588.1662260038
 10
430.4892929626
 20
588.5328094703
 10
430.5152470602
 20
588.8803492528
 10
430.6072505547
 20
589.2047624332
 10
430.7700122131
 20
589.5152132255
 10
431.0119176639
 20
589.7847901326
 10
431.3178049756
 20
589.9415354472
 10
431.4260954393
 20
589.9272154313
  0
ARC
  5
167
330
1F
100
AcDbEntity
  8
0
  6
Continuous
 62
     7
370
    25
100
AcDbCircle
 10
431.3495251876
 20
588.0923420467
 30
0.0
 40
0.7229013732208817
100
AcDbArc
 50
199.4432902823
 51
276.6598492803
  0
LWPOLYLINE
  5
168
330
1F
100
AcDbEntity
  8
0
  6
Continuous
 62
     7
370
    25
100
AcDbPolyline
 90
       12
 70
   128
 43
0.0
 10
431.4310426248
 20
570.8145986539
 10
431.3747907413
 20
570.7978050452
 10
431.0756387545
 20
570.8845149022
 10
430.7753207518
 20
571.1623321515
 10
430.5971028639
 20
571.4879523259
 10
430.5066714419
 20
571.8299786788
 10
430.4943928851
 20
572.2027461272
 10
430.555834098
 20
572.5351910335
 10
430.6814732386
 20
572.841782425
 10
430.8784479631
 20
573.119942401
 10
431.1478013528
 20
573.3273516637
 10
431.4317616058
 20
573.3809809428
  0
LWPOLYLINE
  5
169
330
1F
100
AcDbEntity
  8
0
  6
Continuous
 62
     7
370
    25
100
AcDbPolyline
 90
       12
 70
   128
 43
0.0
 10
431.4308936132
 20
565.3099606973
 10
431.3845733536
 20
565.2959983092
 10
431.0884947313
 20
565.3801749688
 10
430.7872416807
 20
565.6544308406
 10
430.6027690304
 20
565.9846405727
 10
430.5086272193
 20
566.3298259717
 10
430.4938825203
 20
566.7079280358
 10
430.5544445647
 20
567.0415352327
 10
430.6784520281
 20
567.3451612931
 10
430.8721149696
 20
567.6187466127
 10
431.137024088
 20
567.8231458408
 10
431.4325141145
 20
567.8812752706
  0
LWPOLYLINE
  5
16A
330
1F
100
AcDbEntity
  8
0
  6
Continuous
 62
     7
370
    25
100
AcDbPolyline
 90
       12
 70
   128
 43
0.0
 10
431.4325103892
 20
559.8142485362
 10
431.1587760581
 20
559.8624090892
 10
430.8536710573
 20
560.0975345117
 10
430.6404503418
 20
560.426194523
 10
430.5242250098
 20
560.77507541
 10
430.4900752736
 20
561.1702244025
 10
430.5388728512
 20
561.5142773133
 10
430.6508513523
 20
561.8192295772
 10
430.8293151093
 20
562.0941411
 10
431.0784662498
 20
562.309895013
 10
431.378687395
 20
562.3999278289
 10
431.4297983778
 20
562.3819272262
  0
LWPOLYLINE
  5
16B
330
1F
100
AcDbEntity
  8
0
  6
Continuous
 62
     7
370
    25
100
AcDbPolyline
 90
       11
 70
   128
 43
0.0
 10
433.0292741192
 20
592.8806553823
 10
432.9518625868
 20
592.9272662145
 10
432.8639755381
 20
593.1200276357
 10
432.7879572643
 20
593.4322516662
 10
432.7408993972
 20
593.8186834794
 10
432.7312546206
 20
594.2297022086
 10
432.7586504055
 20
594.6287255031
 10
432.8181693686
 20
594.9858616334
 10
432.9001741839
 20
595.26287422
 10
432.988605125
 20
595.4148809653
 10
433.0270165933
 20
595.4143445235
  0
LWPOLYLINE
  5
16C
330
1F
100
AcDbEntity
  8
0
  6
Continuous
 62
     7
370
    25
100
AcDbPolyline
 90
       11
 70
   128
 43
0.0
 10
433.0290543271
 20
587.3732309085
 10
432.9547943903
 20
587.4150286656
 10
432.866899891
 20
587.6042585116
 10
432.7900397016
 20
587.9146496993
 10
432.7417524887
 20
588.3015136462
 10
432.7311018837
 20
588.7135605556
 10
432.7577153576
 20
589.1124199372
 10
432.8163924051
 20
589.4683639747
 10
432.8975813819
 20
589.7450636369
 10
432.9857292009
 20
589.8992757541
 10
433.0271134509
 20
589.900840376
  0
LWPOLYLINE
  5
16D
330
1F
100
AcDbEntity
  8
0
  6
Continuous
 62
     7
370
    25
100
AcDbPolyline
 90
       11
 70
   128
 43
0.0
 10
433.0288419856
 20
581.8653743011
 10
432.9577708972
 20
581.9025079948
 10
432.8699248267
 20
582.0880721551
 10
432.7922450734
 20
582.3963920814
 10
432.7426763607
 20
582.7836434585
 10
432.7309454216
 20
583.1969718677
 10
432.7567430569
 20
583.5960398656
 10
432.8145856393
 20
583.9511345368
 10
432.8949699534
 20
584.2276851874
 10
432.9828197492
 20
584.3841175777
 10
433.0272326601
 20
584.3881110889
  0
LWPOLYLINE
  5
16E
330
1F
100
AcDbEntity
  8
0
  6
Continuous
 62
     7
370
    25
100
AcDbPolyline
 90
       11
 70
   128
 43
0.0
 10
433.0286333693
 20
576.3070623618
 10
432.9607921077
 20
576.3396959048
 10
432.8730540706
 20
576.5214304668
 10
432.7945845557
 20
576.8274705154
 10
432.7436821891
 20
577.2150199157
 10
432.7307889594
 20
577.6298831445
 10
432.7557335032
 20
578.0295322877
 10
432.8127453459
 20
578.3841352206
 10
432.8923324479
 20
578.6607007724
 10
432.9798693193
 20
578.8193832379
 10
433.0273742212
 20
578.8261036616
  0
LWPOLYLINE
  5
16F
330
1F
100
AcDbEntity
  8
0
  6
Continuous
 62
     7
370
    25
100
AcDbPolyline
 90
       11
 70
   128
 43
0.0
 10
433.0284024013
 20
570.8785395366
 10
432.9643609358
 20
570.9059129697
 10
432.8767979873
 20
571.0828642589
 10
432.7974642051
 20
571.3857303601
 10
432.7449785901
 20
571.7731754523
 10
432.7306064201
 20
572.1897523147
 10
432.7544445528
 20
572.5905786496
 10
432.810461743
 20
572.9453752977
 10
432.8891696764
 20
573.222730611
 10
432.9763712717
 20
573.3844827157
 10
433.0275530351
 20
573.3949433309
  0
LWPOLYLINE
  5
170
330
1F
100
AcDbEntity
  8
0
  6
Continuous
 62
     7
370
    25
100
AcDbPolyline
 90
       11
 70
   128
 43
0.0
 10
433.0281863345
 20
565.3493742686
 10
432.9678962363
 20
565.3719346267
 10
432.880579157
 20
565.5440430385
 10
432.8004481626
 20
565.8435563785
 10
432.7463643981
 20
566.2307630521
 10
432.7304536832
 20
566.6492621642
 10
432.7531593276
 20
567.0516680223
 10
432.8082042171
 20
567.4069862109
 10
432.8860478831
 20
567.6852206927
 10
432.9728918506
 20
567.8499530297
 10
433.0277542008
 20
567.8645114642
  0
LWPOLYLINE
  5
171
330
1F
100
AcDbEntity
  8
0
  6
Continuous
 62
     7
370
    25
100
AcDbPolyline
 90
       11
 70
   128
 43
0.0
 10
433.027307166
 20
532.2792421323
 10
432.9871261848
 20
532.2823713761
 10
432.9025546444
 20
532.4271063548
 10
432.8193614615
 20
532.7047596913
 10
432.7562066151
 20
533.0887030107
 10
432.7303158475
 20
533.5226397258
 10
432.746081276
 20
533.942718361
 10
432.79611565
 20
534.3075285894
 10
432.8695373965
 20
534.5924238902
 10
432.9539152218
 20
534.7714911443
 10
433.0292033387
 20
534.8144660932
  0
LWPOLYLINE
  5
172
330
1F
100
AcDbEntity
  8
0
  6
Continuous
 62
     7
370
    25
100
AcDbPolyline
 90
       11
 70
   128
 43
0.0
 10
433.0274040235
 20
537.7926866752
 10
432.9841198755
 20
537.7981703025
 10
432.8989709152
 20
537.9473458272
 10
432.8160869313
 20
538.2289181691
 10
432.7543588711
 20
538.6138449651
 10
432.7302338911
 20
539.0450249654
 10
432.7472323907
 20
539.4612292987
 10
432.7980416251
 20
539.823536132
 10
432.8721078468
 20
540.1068966132
 10
432.9568991793
 20
540.283713792
 10
433.028950019
 20
540.3215180379
  0
LWPOLYLINE
  5
173
330
1F
100
AcDbEntity
  8
0
  6
Continuous
 62
     7
370
    25
100
AcDbPolyline
 90
       11
 70
   128
 43
0.0
 10
433.0275195075
 20
543.3054010612
 10
432.9810502363
 20
543.3135519963
 10
432.8953685595
 20
543.4671978694
 10
432.8128720058
 20
543.7525849086
 10
432.7526005341
 20
544.1383163673
 10
432.7301966382
 20
544.5668141585
 10
432.7483872307
 20
544.9795465213
 10
432.7999936772
 20
545.3397224885
 10
432.8747379018
 20
545.6217120629
 10
432.9599427415
 20
545.796249364
 10
433.0287004245
 20
545.8290170175
  0
LWPOLYLINE
  5
174
330
1F
100
AcDbEntity
  8
0
  6
Continuous
 62
     7
370
    25
100
AcDbPolyline
 90
       11
 70
   128
 43
0.0
 10
433.027653618
 20
548.8673935872
 10
432.9779209925
 20
548.878554557
 10
432.8917587532
 20
549.0367005807
 10
432.8097241355
 20
549.3257831079
 10
432.7509390546
 20
549.7121553165
 10
432.7302040888
 20
550.1380603057
 10
432.7495532466
 20
550.5476932269
 10
432.8019680811
 20
550.906095956
 10
432.8774238361
 20
551.1868934375
 10
432.9630347324
 20
551.3590614539
 10
433.0284545554
 20
551.3870160323
  0
LWPOLYLINE
  5
175
330
1F
100
AcDbEntity
  8
0
  6
Continuous
 62
     7
370
    25
100
AcDbPolyline
 90
       11
 70
   128
 43
0.0
 10
433.0278063549
 20
554.2987029296
 10
432.9747768475
 20
554.313157056
 10
432.888189925
 20
554.4757585269
 10
432.8066880239
 20
554.7683428269
 10
432.7493893338
 20
555.1551769715
 10
432.7302525176
 20
555.5785934669
 10
432.7507043613
 20
555.9855143767
 10
432.8039387597
 20
556.342546199
 10
432.8801246716
 20
556.6223304015
 10
432.9661304487
 20
556.7921589357
 10
433.0282198621
 20
556.8155686599
  0
LWPOLYLINE
  5
176
330
1F
100
AcDbEntity
  8
0
  6
Continuous
 62
     7
370
    25
100
AcDbPolyline
 90
       11
 70
   128
 43
0.0
 10
433.0279702676
 20
559.8293732148
 10
432.9716476036
 20
559.8473589164
 10
432.8846956027
 20
560.0143264276
 10
432.8037822975
 20
560.3101889831
 10
432.7479550971
 20
560.6972764474
 10
432.7303270234
 20
561.1183683616
 10
432.7518331243
 20
561.5229944926
 10
432.8058870865
 20
561.879027937
 10
432.8828143311
 20
562.1579925758
 10
432.9692112637
 20
562.3255114299
 10
433.0280000699
 20
562.3447190267
  0
LWPOLYLINE
  5
177
330
1F
100
AcDbEntity
  8
0
  6
Continuous
 62
     7
370
    25
100
AcDbPolyline
 90
        9
 70
   128
 43
0.0
 10
430.6621650589
 20
543.8686202508
 10
430.5346893502
 20
544.2218969804
 10
430.4888533784
 20
544.627685402
 10
430.5322902633
 20
544.9849407416
 10
430.6390608085
 20
545.2868978721
 10
430.8076860739
 20
545.5516766053
 10
431.0427854193
 20
545.7598458272
 10
431.3315699233
 20
545.8554963809
 10
431.4303087426
 20
545.8273778897
  0
ARC
  5
178
330
1F
100
AcDbEntity
  8
0
  6
Continuous
 62
     7
370
    25
100
AcDbCircle
 10
431.4866411582
 20
544.1362349713
 30
0.0
 40
0.8668209024041786
100
AcDbArc
 50
197.9827877275
 51
266.2575854909
  0
LWPOLYLINE
  5
179
330
1F
100
AcDbEntity
  8
0
  6
Continuous
 62
     7
370
    25
100
AcDbPolyline
 90
        9
 70
   128
 43
0.0
 10
430.6660468114
 20
582.3559354287
 10
430.5414433015
 20
582.6745371562
 10
430.4892519845
 20
583.044845913
 10
430.5174934102
 20
583.3931307536
 10
430.6115234626
 20
583.7146531087
 10
430.7752984
 20
584.0192030412
 10
431.0165891779
 20
584.280524705
 10
431.3203418983
 20
584.4288359624
 10
431.4266095293
 20
584.4126384002
  0
ARC
  5
17A
330
1F
100
AcDbEntity
  8
0
  6
Continuous
 62
     7
370
    25
100
AcDbCircle
 10
431.3645243164
 20
582.5982957854
 30
0.0
 40
0.7393303506618468
100
AcDbArc
 50
199.1359441102
 51
275.3121127391
  0
LWPOLYLINE
  5
17B
330
1F
100
AcDbEntity
  8
0
  6
Continuous
 62
     7
370
    25
100
AcDbPolyline
 90
       12
 70
   128
 43
0.0
 10
431.4312624169
 20
576.3185660583
 10
431.3659394515
 20
576.2990753394
 10
431.0639413429
 20
576.3876776439
 10
430.7647185756
 20
576.6681920034
 10
430.5921147002
 20
576.9894312364
 10
430.4970750941
 20
577.3938934547
 10
430.5016385747
 20
577.7622352582
 10
430.5760065449
 20
578.0886153918
 10
430.7163978351
 20
578.3949385625
 10
430.9312688542
 20
578.6690901261
 10
431.2165441347
 20
578.8572768909
 10
431.4291650785
 20
578.8700769883
  0
LINE
  5
17C
330
1F
100
AcDbEntity
  8
0
  6
Continuous
 62
     7
370
    25
100
AcDbLine
 10
408.8938130421
 20
608.2861165744
 30
0.0
 11
432.5374687446
 21
608.2861165744
 31
0.0
  0
LINE
  5
17D
330
1F
100
AcDbEntity
  8
0
  6
Continuous
 62
     7
370
    25
100
AcDbLine
 10
412.3415468616
 20
403.6479520839
 30
0.0
 11
429.0892692638
 21
403.6479520839
 31
0.0
  0
LINE
  5
17E
330
1F
100
AcDbEntity
  8
0
  6
Continuous
 62
     7
370
    25
100
AcDbLine
 10
409.4833569957
 20
404.6479522478
 30
0.0
 11
431.9474609924
 21
404.6479522478
 31
0.0
  0
LINE
  5
17F
330
1F
100
AcDbEntity
  8
0
  6
Continuous
 62
     7
370
    25
100
AcDbLine
 10
412.7230799181
 20
374.1217836034
 30
0.0
 11
428.7077362073
 21
374.1217836034
 31
0.0
  0
LINE
  5
180
330
1F
100
AcDbEntity
  8
0
  6
Continuous
 62
     7
370
    25
100
AcDbLine
 10
412.35374905
 20
403.6479520839
 30
0.0
 11
412.1680153889
 21
403.6479520839
 31
0.0
  0
LINE
  5
181
330
1F
100
AcDbEntity
  8
0
  6
Continuous
 62
     7
370
    25
100
AcDbLine
 10
429.2628007365
 20
403.6479520839
 30
0.0
 11
429.0770689381
 21
403.6479520839
 31
0.0
  0
LINE
  5
182
330
1F
100
AcDbEntity
  8
0
  6
Continuous
 62
     7
370
    25
100
AcDbLine
 10
412.3543599976
 20
403.5781094101
 30
0.0
 11
412.35374905
 21
403.6479520839
 31
0.0
  0
LINE
  5
183
330
1F
100
AcDbEntity
  8
0
  6
Continuous
 62
     7
370
    25
100
AcDbLine
 10
429.0770689381
 20
403.6479520839
 30
0.0
 11
429.0764430893
 21
403.5766463023
 31
0.0
  0
LWPOLYLINE
  5
184
330
1F
100
AcDbEntity
  8
0
  6
Continuous
 62
     7
370
    25
100
AcDbPolyline
 90
       15
 70
   128
 43
0.0
 10
431.0392091406
 20
404.9772232067
 10
431.0553806258
 20
404.9689819333
 10
431.0401628149
 20
404.9432951254
 10
430.7848798467
 20
404.8930661049
 10
430.3261997534
 20
404.8508222443
 10
429.8432046903
 20
404.8199768406
 10
429.357896222
 20
404.7938364786
 10
428.6538461579
 20
404.7597072315
 10
428.2337302698
 20
404.7412502807
 10
427.8494591249
 20
404.7255863663
 10
427.512141539
 20
404.7127238703
 10
427.0752879215
 20
404.6972573963
 10
426.6905511154
 20
404.684264515
 10
426.1826934648
 20
404.667761479
 10
425.5512977375
 20
404.6479494539
  0
LWPOLYLINE
  5
185
330
1F
100
AcDbEntity
  8
0
  6
Continuous
 62
     7
370
    25
100
AcDbPolyline
 90
       11
 70
   128
 43
0.0
 10
411.6006797535
 20
404.6479522478
 10
411.7384652031
 20
404.6656203684
 10
413.0691016448
 20
404.7655019206
 10
415.262750013
 20
404.8604325619
 10
418.0714251829
 20
404.9603727874
 10
421.1788015796
 20
405.0552913216
 10
424.2335396243
 20
405.1551495907
 10
426.8915715052
 20
405.2502013039
 10
428.8524041308
 20
405.3498500255
 10
429.8951538635
 20
405.4451634404
 10
430.0309071673
 20
405.4962660414
  0
LINE
  5
186
330
1F
100
AcDbEntity
  8
0
  6
Continuous
 62
     7
370
    25
100
AcDbLine
 10
430.0277741981
 20
407.3479513866
 30
0.0
 11
430.0089652074
 21
407.3479513866
 31
0.0
  0
LINE
  5
187
330
1F
100
AcDbEntity
  8
0
  6
Continuous
 62
     7
370
    25
100
AcDbLine
 10
430.0089652074
 20
407.3479513866
 30
0.0
 11
430.0039397908
 21
407.2479515564
 31
0.0
  0
LINE
  5
188
330
1F
100
AcDbEntity
  8
0
  6
Continuous
 62
     7
370
    25
100
AcDbLine
 10
412.7272149904
 20
373.6479508918
 30
0.0
 11
428.7036011351
 21
373.6479508918
 31
0.0
  0
ARC
  5
189
330
1F
100
AcDbEntity
  8
0
  6
Continuous
 62
     7
370
    25
100
AcDbCircle
 10
410.4806158957
 20
405.6407030103
 30
0.0
 40
0.2376253390752251
100
AcDbArc
 50
170.1887589321
 51
242.9289807039
  0
LWPOLYLINE
  5
18A
330
1F
100
AcDbEntity
  8
0
  6
Continuous
 62
     7
370
    25
100
AcDbPolyline
 90
        5
 70
   128
 43
0.0
 10
412.5983702374
 20
405.7442735177
 10
412.5131560845
 20
405.6311457646
 10
412.1671511216
 20
405.3458723467
 10
411.4906793816
 20
404.9627718744
 10
411.3999089582
 20
404.892283794
  0
ARC
  5
18B
330
1F
100
AcDbEntity
  8
0
  6
Continuous
 62
     7
370
    25
100
AcDbCircle
 10
412.5331182428
 20
405.7799488356
 30
0.0
 40
0.0742912311763898
100
AcDbArc
 50
331.3811644653
 51
28.690732352
  0
ARC
  5
18C
330
1F
100
AcDbEntity
  8
0
  6
Continuous
 62
     7
370
    25
100
AcDbCircle
 10
411.2492689376
 20
404.5582849015
 30
0.0
 40
1.844261654428507
100
AcDbArc
 50
42.9878919021
 51
83.7613607689
  0
LINE
  5
18D
330
1F
100
AcDbEntity
  8
0
  6
Continuous
 62
     7
370
    25
100
AcDbLine
 10
430.0039397908
 20
405.6479514804
 30
0.0
 11
430.0039397908
 21
407.2479515564
 31
0.0
  0
LINE
  5
18E
330
1F
100
AcDbEntity
  8
0
  6
Continuous
 62
     7
370
    25
100
AcDbLine
 10
412.4372532947
 20
372.2199260485
 30
0.0
 11
412.6154078526
 21
372.3019252759
 31
0.0
  0
LWPOLYLINE
  5
18F
330
1F
100
AcDbEntity
  8
0
  6
Continuous
 62
     7
370
    25
100
AcDbPolyline
 90
        4
 70
   128
 43
0.0
 10
412.6154078526
 20
371.4296187502
 10
411.6048260016
 20
370.9703314346
 10
410.9481243772
 20
370.6495858025
 10
410.9811192734
 20
370.6658709091
  0
LWPOLYLINE
  5
190
330
1F
100
AcDbEntity
  8
0
  6
Continuous
 62
     7
370
    25
100
AcDbPolyline
 90
        4
 70
   128
 43
0.0
 10
430.4021211697
 20
370.6895004254
 10
430.4665612412
 20
370.6576678198
 10
429.8241908086
 20
370.9711882514
 10
428.8154082728
 20
371.4296187502
  0
LINE
  5
191
330
1F
100
AcDbEntity
  8
0
  6
Continuous
 62
     7
370
    25
100
AcDbLine
 10
428.8154082728
 20
372.3019252759
 30
0.0
 11
428.9935628308
 21
372.2199260485
 31
0.0
  0
LINE
  5
192
330
1F
100
AcDbEntity
  8
0
  6
Continuous
 62
     7
370
    25
100
AcDbLine
 10
412.6154078526
 20
371.4296187502
 30
0.0
 11
412.6154078526
 21
372.3019252759
 31
0.0
  0
LINE
  5
193
330
1F
100
AcDbEntity
  8
0
  6
Continuous
 62
     7
370
    25
100
AcDbLine
 10
428.8154082728
 20
372.3019252759
 30
0.0
 11
428.8154082728
 21
371.4296187502
 31
0.0
  0
LINE
  5
194
330
1F
100
AcDbEntity
  8
0
  6
Continuous
 62
     7
370
    25
100
AcDbLine
 10
428.8159670664
 20
372.3679579091
 30
0.0
 11
428.8154082728
 21
372.3019252759
 31
0.0
  0
LINE
  5
195
330
1F
100
AcDbEntity
  8
0
  6
Continuous
 62
     7
370
    25
100
AcDbLine
 10
412.6154078526
 20
372.3019252759
 30
0.0
 11
412.6148490591
 21
372.3679579091
 31
0.0
  0
LINE
  5
196
330
1F
100
AcDbEntity
  8
0
  6
Continuous
 62
     7
370
    25
100
AcDbLine
 10
431.9689410163
 20
543.2819317323
 30
0.0
 11
431.9704944623
 21
543.2811419707
 31
0.0
  0
ARC
  5
197
330
1F
100
AcDbEntity
  8
0
  6
Continuous
 62
     7
370
    25
100
AcDbCircle
 10
413.7790930719
 20
540.5169096583
 30
0.0
 40
18.38126227413623
100
AcDbArc
 50
351.3688140069
 51
358.6011939274
  0
ARC
  5
198
330
1F
100
AcDbEntity
  8
0
  6
Continuous
 62
     7
370
    25
100
AcDbCircle
 10
417.0197448052
 20
534.9090387885
 30
0.0
 40
15.15011389010787
100
AcDbArc
 50
349.896101843
 51
359.1567593943
  0
LWPOLYLINE
  5
199
330
1F
100
AcDbEntity
  8
0
  6
Continuous
 62
     7
370
    25
100
AcDbPolyline
 90
        3
 70
   128
 43
0.0
 10
432.3515320552
 20
571.9775001746
 10
432.3555963469
 20
571.7477540713
 10
432.3569486273
 20
571.5433399421
  0
LWPOLYLINE
  5
19A
330
1F
100
AcDbEntity
  8
0
  6
Continuous
 62
     7
370
    25
100
AcDbPolyline
 90
        3
 70
   128
 43
0.0
 10
432.3448712362
 20
566.8100307923
 10
432.3481830193
 20
566.5718059283
 10
432.3492857052
 20
566.3356374246
  0
LWPOLYLINE
  5
19B
330
1F
100
AcDbEntity
  8
0
  6
Continuous
 62
     7
370
    25
100
AcDbPolyline
 90
        3
 70
   128
 43
0.0
 10
432.3492857052
 20
561.3602738124
 10
432.3483581079
 20
561.5617673141
 10
432.3455641402
 20
561.7367963534
  0
LWPOLYLINE
  5
19C
330
1F
100
AcDbEntity
  8
0
  6
Continuous
 62
     7
370
    25
100
AcDbPolyline
 90
        3
 70
   128
 43
0.0
 10
432.398098184
 20
593.669716571
 10
432.4082794023
 20
593.5007225019
 10
432.4116731418
 20
593.3871011478
  0
LWPOLYLINE
  5
19D
330
1F
100
AcDbEntity
  8
0
  6
Continuous
 62
     7
370
    25
100
AcDbPolyline
 90
        3
 70
   128
 43
0.0
 10
432.3853129877
 20
588.194627617
 10
432.3938215507
 20
588.014830206
 10
432.3966564966
 20
587.8872911674
  0
LWPOLYLINE
  5
19E
330
1F
100
AcDbEntity
  8
0
  6
Continuous
 62
     7
370
    25
100
AcDbPolyline
 90
        3
 70
   128
 43
0.0
 10
432.372959925
 20
582.7349911672
 10
432.3798517121
 20
582.5412462693
 10
432.3821464909
 20
582.3948572618
  0
LWPOLYLINE
  5
19F
330
1F
100
AcDbEntity
  8
0
  6
Continuous
 62
     7
370
    25
100
AcDbPolyline
 90
        3
 70
   128
 43
0.0
 10
432.361422701
 20
577.2921036225
 10
432.3667982949
 20
577.0807604533
 10
432.3685901595
 20
576.9087563497
  0
ARC
  5
1A0
330
1F
100
AcDbEntity
  8
0
  6
Continuous
 62
     7
370
    25
100
AcDbCircle
 10
419.669403979
 20
545.3462548314
 30
0.0
 40
12.71282292167111
100
AcDbArc
 50
351.9330029434
 51
359.7962154005
  0
ARC
  5
1A1
330
1F
100
AcDbEntity
  8
0
  6
Continuous
 62
     7
370
    25
100
AcDbCircle
 10
417.9056066749
 20
534.8766708045
 30
0.0
 40
14.51717707183184
100
AcDbArc
 50
350.6669238506
 51
357.758219445
  0
ARC
  5
1A2
330
1F
100
AcDbEntity
  8
0
  6
Continuous
 62
     7
370
    25
100
AcDbCircle
 10
418.4458494723
 20
540.1179055101
 30
0.0
 40
13.95423498850685
100
AcDbArc
 50
351.4152842709
 51
358.729976839
  0
ARC
  5
1A3
330
1F
100
AcDbEntity
  8
0
  6
Continuous
 62
     7
370
    25
100
AcDbCircle
 10
414.116464952
 20
550.9263808592
 30
0.0
 40
18.25265620291235
100
AcDbArc
 50
356.9248107287
 51
359.56296016
  0
LWPOLYLINE
  5
1A4
330
1F
100
AcDbEntity
  8
0
  6
Continuous
 62
     7
370
    25
100
AcDbPolyline
 90
        3
 70
   128
 43
0.0
 10
432.3569486273
 20
556.1525712949
 10
432.3558086885
 20
556.3067685109
 10
432.3523925973
 20
556.4195703012
  0
LWPOLYLINE
  5
1A5
330
1F
100
AcDbEntity
  8
0
  6
Continuous
 62
     7
370
    25
100
AcDbPolyline
 90
       17
 70
   128
 43
0.0
 10
432.2949933244
 20
578.0942033273
 10
432.3025482131
 20
578.0602584821
 10
432.3120551539
 20
577.9630433065
 10
432.3220761848
 20
577.8173546535
 10
432.3310802115
 20
577.6453803521
 10
432.3377000524
 20
577.4732868415
 10
432.3409261538
 20
577.3273001653
 10
432.3402667774
 20
577.2296230537
 10
432.335822506
 20
577.1951268655
 10
432.3282713426
 20
577.2290717107
 10
432.3187606765
 20
577.3262868863
 10
432.3087396456
 20
577.4719755393
 10
432.2997356189
 20
577.6439498407
 10
432.2931157781
 20
577.8160433513
 10
432.289893402
 20
577.9620300275
 10
432.2905527783
 20
578.0597071391
 10
432.2949933244
 20
578.0942033273
  0
LWPOLYLINE
  5
1A6
330
1F
100
AcDbEntity
  8
0
  6
Continuous
 62
     7
370
    25
100
AcDbPolyline
 90
       17
 70
   128
 43
0.0
 10
432.2871515883
 20
583.6549143535
 10
432.2952913476
 20
583.6211036187
 10
432.3064895702
 20
583.524067257
 10
432.3190475238
 20
583.3785723191
 10
432.3310504092
 20
583.2067917329
 10
432.340672834
 20
583.0348472339
 10
432.3464507593
 20
582.8889201623
 10
432.3475012911
 20
582.7912579518
 10
432.3436642421
 20
582.7566872579
 10
432.3355282081
 20
582.7904979926
 10
432.3243262602
 20
582.8875343543
 10
432.3117683066
 20
583.0330292922
 10
432.2997654212
 20
583.2048098785
 10
432.2901429964
 20
583.3767543775
 10
432.2843687964
 20
583.522681449
 10
432.2833182646
 20
583.6203436595
 10
432.2871515883
 20
583.6549143535
  0
LWPOLYLINE
  5
1A7
330
1F
100
AcDbEntity
  8
0
  6
Continuous
 62
     7
370
    25
100
AcDbPolyline
 90
       17
 70
   128
 43
0.0
 10
432.3436642421
 20
544.9392090779
 10
432.3475012911
 20
544.9046532851
 10
432.3464507593
 20
544.8069761735
 10
432.340672834
 20
544.6610640031
 10
432.3310504092
 20
544.4891195041
 10
432.3190475238
 20
544.3173240167
 10
432.3064895702
 20
544.1718290788
 10
432.2952913476
 20
544.0748076182
 10
432.2871515883
 20
544.0409968835
 10
432.2833182646
 20
544.0755526763
 10
432.2843687964
 20
544.1732297879
 10
432.2901429964
 20
544.3191419583
 10
432.2997654212
 20
544.4910864574
 10
432.3117683066
 20
544.6628819448
 10
432.3243262602
 20
544.8083619815
 10
432.3355282081
 20
544.9053983432
 10
432.3436642421
 20
544.9392090779
  0
LWPOLYLINE
  5
1A8
330
1F
100
AcDbEntity
  8
0
  6
Continuous
 62
     7
370
    25
100
AcDbPolyline
 90
        8
 70
   128
 43
0.0
 10
410.3717008961
 20
405.4276527133
 10
410.4895169271
 20
405.4678905052
 10
410.5417920632
 20
405.4774663639
 10
410.6650488807
 20
405.4971880507
 10
411.1722546054
 20
405.5576858339
 10
411.6901537759
 20
405.6174758118
 10
412.4102337641
 20
405.713058379
 10
412.5984074903
 20
405.7445091423
  0
ARC
  5
1A9
330
1F
100
AcDbEntity
  8
0
  6
Continuous
 62
     7
370
    25
100
AcDbCircle
 10
399.0354730806
 20
546.6938810835
 30
0.0
 40
34.50177032467248
100
AcDbArc
 50
354.3599152151
 51
358.4401531501
  0
LWPOLYLINE
  5
1AA
330
1F
100
AcDbEntity
  8
0
  6
Continuous
 62
     7
370
    25
100
AcDbPolyline
 90
       10
 70
   128
 43
0.0
 10
433.328232391
 20
532.2641025525
 10
433.3428802324
 20
532.3554615718
 10
433.3735989762
 20
532.6190035087
 10
433.4156500531
 20
533.0146144372
 10
433.4626408649
 20
533.4820489627
 10
433.5074114037
 20
533.9501689416
 10
433.5431481136
 20
534.3476872188
 10
433.5644083453
 20
534.6141050798
 10
433.567958547
 20
534.7088466626
 10
433.5679436458
 20
534.7088466626
  0
ARC
  5
1AB
330
1F
100
AcDbEntity
  8
0
  6
Continuous
 62
     7
370
    25
100
AcDbCircle
 10
398.5773806893
 20
551.6832975882
 30
0.0
 40
34.92723805716708
100
AcDbArc
 50
355.3847052889
 51
359.4152047514
  0
ARC
  5
1AC
330
1F
100
AcDbEntity
  8
0
  6
Continuous
 62
     7
370
    25
100
AcDbCircle
 10
391.0549453134
 20
556.7035049945
 30
0.0
 40
42.42630840577522
100
AcDbArc
 50
356.7771320339
 51
0.0877285382
  0
ARC
  5
1AD
330
1F
100
AcDbEntity
  8
0
  6
Continuous
 62
     7
370
    25
100
AcDbCircle
 10
404.6487790172
 20
586.3151147239
 30
0.0
 40
29.17964551760829
100
AcDbArc
 50
3.3259482239
 51
6.5150774507
  0
LWPOLYLINE
  5
1AE
330
1F
100
AcDbEntity
  8
0
  6
Continuous
 62
     7
370
    25
100
AcDbPolyline
 90
        3
 70
   128
 43
0.0
 10
433.7792756392
 20
588.0080054742
 10
433.7879443897
 20
587.8671298963
 10
433.7908314897
 20
587.7933542472
  0
LWPOLYLINE
  5
1AF
330
1F
100
AcDbEntity
  8
0
  6
Continuous
 62
     7
370
    25
100
AcDbPolyline
 90
        9
 70
   128
 43
0.0
 10
433.6559350027
 20
584.0948413354
 10
433.6588407291
 20
584.105063532
 10
433.6678820086
 20
584.0184281808
 10
433.6820828153
 20
583.8411490661
 10
433.6989211274
 20
583.6067538005
 10
433.717368765
 20
583.3310525161
 10
433.7365838123
 20
583.0252061826
 10
433.7535003556
 20
582.7366004926
 10
433.7657379342
 20
582.5074057323
  0
LWPOLYLINE
  5
1B0
330
1F
100
AcDbEntity
  8
0
  6
Continuous
 62
     7
370
    25
100
AcDbPolyline
 90
        3
 70
   128
 43
0.0
 10
433.6647453142
 20
583.8670472842
 10
433.6581366492
 20
584.0128253442
 10
433.6559350027
 20
584.0948413354
  0
LWPOLYLINE
  5
1B1
330
1F
100
AcDbEntity
  8
0
  6
Continuous
 62
     7
370
    25
100
AcDbPolyline
 90
        3
 70
   128
 43
0.0
 10
433.7657379342
 20
582.5074057323
 10
433.7725961936
 20
582.3571275216
 10
433.7748835219
 20
582.2729210597
  0
LWPOLYLINE
  5
1B2
330
1F
100
AcDbEntity
  8
0
  6
Continuous
 62
     7
370
    25
100
AcDbPolyline
 90
        9
 70
   128
 43
0.0
 10
433.687070979
 20
573.0142484647
 10
433.688456787
 20
573.0877111894
 10
433.6927706731
 20
573.0671177846
 10
433.6995469762
 20
572.9481618148
 10
433.7075749768
 20
572.7561901551
 10
433.7163741125
 20
572.5061486703
 10
433.725530876
 20
572.206516121
 10
433.7335924042
 20
571.9021152001
 10
433.739415033
 20
571.6392140132
  0
LWPOLYLINE
  5
1B3
330
1F
100
AcDbEntity
  8
0
  6
Continuous
 62
     7
370
    25
100
AcDbPolyline
 90
        9
 70
   128
 43
0.0
 10
433.7437438203
 20
571.3111500484
 10
433.7423505617
 20
571.2375979167
 10
433.7380105985
 20
571.2587277633
 10
433.7311933173
 20
571.378875826
 10
433.7231243385
 20
571.572263096
 10
433.7142954005
 20
571.8237797958
 10
433.7051162852
 20
572.1248130542
 10
433.6970622076
 20
572.4300186378
 10
433.6912731064
 20
572.6927112085
  0
LWPOLYLINE
  5
1B4
330
1F
100
AcDbEntity
  8
0
  6
Continuous
 62
     7
370
    25
100
AcDbPolyline
 90
        3
 70
   128
 43
0.0
 10
433.739415033
 20
571.6392140132
 10
433.7426634861
 20
571.4467506152
 10
433.7437438203
 20
571.3111500484
  0
LWPOLYLINE
  5
1B5
330
1F
100
AcDbEntity
  8
0
  6
Continuous
 62
     7
370
    25
100
AcDbPolyline
 90
        9
 70
   128
 43
0.0
 10
433.7284962071
 20
561.9501213771
 10
433.7255457772
 20
562.0079080802
 10
433.7213175727
 20
561.9662444335
 10
433.7164150907
 20
561.8237744313
 10
433.7116653455
 20
561.6107772332
 10
433.70729558
 20
561.3436590177
 10
433.7035777403
 20
561.0325376731
 10
433.7012084557
 20
560.7266466361
 10
433.7004484964
 20
560.4736100179
  0
ARC
  5
1B6
330
1F
100
AcDbEntity
  8
0
  6
Continuous
 62
     7
370
    25
100
AcDbCircle
 10
388.4139537954
 20
561.5789552087
 30
0.0
 40
45.31653739804664
100
AcDbArc
 50
358.2407917641
 51
0.1324947347
  0
LWPOLYLINE
  5
1B7
330
1F
100
AcDbEntity
  8
0
  6
Continuous
 62
     7
370
    25
100
AcDbPolyline
 90
        3
 70
   128
 43
0.0
 10
433.7303700281
 20
561.6837482196
 10
433.7299006415
 20
561.8416111213
 10
433.7284962071
 20
561.9501213771
  0
LWPOLYLINE
  5
1B8
330
1F
100
AcDbEntity
  8
0
  6
Continuous
 62
     7
370
    25
100
AcDbPolyline
 90
        3
 70
   128
 43
0.0
 10
433.7928803993
 20
593.5186933023
 10
433.8033521903
 20
593.3842252236
 10
433.8068427874
 20
593.3173786145
  0
ARC
  5
1B9
330
1F
100
AcDbEntity
  8
0
  6
Continuous
 62
     7
370
    25
100
AcDbCircle
 10
403.0806236948
 20
591.1726444111
 30
0.0
 40
30.80173140079093
100
AcDbArc
 50
4.3682287034
 51
7.4265338553
  0
LWPOLYLINE
  5
1BA
330
1F
100
AcDbEntity
  8
0
  6
Continuous
 62
     7
370
    25
100
AcDbPolyline
 90
        9
 70
   128
 43
0.0
 10
433.759088291
 20
576.7112861615
 10
433.7569387985
 20
576.6805748683
 10
433.7502444519
 20
576.7471234542
 10
433.7397391332
 20
576.9079814893
 10
433.7273003889
 20
577.1315883142
 10
433.7136881782
 20
577.4021188956
 10
433.6995395256
 20
577.7090381127
 10
433.6871268583
 20
578.0049304706
 10
433.6782047881
 20
578.245688532
  0
LWPOLYLINE
  5
1BB
330
1F
100
AcDbEntity
  8
0
  6
Continuous
 62
     7
370
    25
100
AcDbPolyline
 90
        3
 70
   128
 43
0.0
 10
433.7523678673
 20
576.9780020457
 10
433.7574081851
 20
576.8128375751
 10
433.759088291
 20
576.7112861615
  0
LWPOLYLINE
  5
1BC
330
1F
100
AcDbEntity
  8
0
  6
Continuous
 62
     7
370
    25
100
AcDbPolyline
 90
        9
 70
   128
 43
0.0
 10
433.6717302335
 20
578.5051922542
 10
433.6738648249
 20
578.535963152
 10
433.6805032922
 20
578.4702788335
 10
433.6909303797
 20
578.3109854203
 10
433.7032946182
 20
578.0891071302
 10
433.716843499
 20
577.8202603799
 10
433.7309548987
 20
577.5147865754
 10
433.7433787418
 20
577.2194604617
 10
433.7523678673
 20
576.9780020457
  0
LWPOLYLINE
  5
1BD
330
1F
100
AcDbEntity
  8
0
  6
Continuous
 62
     7
370
    25
100
AcDbPolyline
 90
        9
 70
   128
 43
0.0
 10
433.7303700281
 20
566.0121481162
 10
433.7296324206
 20
565.82317159
 10
433.7273413671
 20
565.7087455732
 10
433.7237427367
 20
565.6938295108
 10
433.7194810046
 20
565.7731185895
 10
433.7148206664
 20
565.9354816419
 10
433.7099740637
 20
566.179175232
 10
433.7057235075
 20
566.4708356601
 10
433.7026650442
 20
566.7625556928
  0
LWPOLYLINE
  5
1BE
330
1F
100
AcDbEntity
  8
0
  6
Continuous
 62
     7
370
    25
100
AcDbPolyline
 90
        3
 70
   128
 43
0.0
 10
433.7281236781
 20
566.4752464038
 10
433.7298075093
 20
566.2285278779
 10
433.7303700281
 20
566.0121481162
  0
LWPOLYLINE
  5
1BF
330
1F
100
AcDbEntity
  8
0
  6
Continuous
 62
     7
370
    25
100
AcDbPolyline
 90
        9
 70
   128
 43
0.0
 10
433.7004484964
 20
567.2223012191
 10
433.7011823786
 20
567.4110840303
 10
433.7034659816
 20
567.5255100471
 10
433.7070571614
 20
567.5407688361
 10
433.7113077177
 20
567.4620460015
 10
433.7159606052
 20
567.3003833037
 10
433.7208034826
 20
567.0575241786
 10
433.7250577641
 20
566.7665790063
 10
433.7281236781
 20
566.4752464038
  0
ARC
  5
1C0
330
1F
100
AcDbEntity
  8
0
  6
Continuous
 62
     7
370
    25
100
AcDbCircle
 10
392.2470046339
 20
542.2934174826
 30
0.0
 40
41.61256823332764
100
AcDbArc
 50
354.243781967
 51
356.7062222668
  0
LWPOLYLINE
  5
1C1
330
1F
100
AcDbEntity
  8
0
  6
Continuous
 62
     7
370
    25
100
AcDbPolyline
 90
        3
 70
   128
 43
0.0
 10
433.7908314897
 20
539.9025420886
 10
433.7884733809
 20
539.9088303786
 10
433.7814027799
 20
539.8555587274
  0
LWPOLYLINE
  5
1C2
330
1F
100
AcDbEntity
  8
0
  6
Continuous
 62
     7
370
    25
100
AcDbPolyline
 90
        3
 70
   128
 43
0.0
 10
433.6399833096
 20
538.0699227792
 10
433.6424233747
 20
538.0640368205
 10
433.6497472955
 20
538.1198416692
  0
ARC
  5
1C3
330
1F
100
AcDbEntity
  8
0
  6
Continuous
 62
     7
370
    25
100
AcDbCircle
 10
393.3421762315
 20
556.7016195055
 30
0.0
 40
40.40281020263355
100
AcDbArc
 50
357.0303229267
 51
359.5506331348
  0
LWPOLYLINE
  5
1C4
330
1F
100
AcDbEntity
  8
0
  6
Continuous
 62
     7
370
    25
100
AcDbPolyline
 90
        3
 70
   128
 43
0.0
 10
433.7437438203
 20
556.3847462875
 10
433.7428572012
 20
556.4513991815
 10
433.7401936186
 20
556.4586709481
  0
LINE
  5
1C5
330
1F
100
AcDbEntity
  8
0
  6
Continuous
 62
     7
370
    25
100
AcDbLine
 10
408.8749053312
 20
408.2479517203
 30
0.0
 11
409.3708066625
 21
408.2479517203
 31
0.0
  0
ARC
  5
1C6
330
1F
100
AcDbEntity
  8
0
  6
Continuous
 62
     7
370
    25
100
AcDbCircle
 10
408.9072948254
 20
408.7282333432
 30
0.0
 40
0.4813725340906978
100
AcDbArc
 50
177.6522256533
 51
266.1418977073
  0
LINE
  5
1C7
330
1F
100
AcDbEntity
  8
0
  6
Continuous
 62
     7
370
    25
100
AcDbLine
 10
430.1271872951
 20
407.3379527074
 30
0.0
 11
430.1081771387
 21
407.3379527074
 31
0.0
  0
LINE
  5
1C8
330
1F
100
AcDbEntity
  8
0
  6
Continuous
 62
     7
370
    25
100
AcDbLine
 10
430.125056429
 20
407.2479515564
 30
0.0
 11
430.1271872951
 21
407.3379527074
 31
0.0
  0
LINE
  5
1C9
330
1F
100
AcDbEntity
  8
0
  6
Continuous
 62
     7
370
    25
100
AcDbLine
 10
430.1081771387
 20
407.3379527074
 30
0.0
 11
430.1036509109
 21
407.2479515564
 31
0.0
  0
LINE
  5
1CA
330
1F
100
AcDbEntity
  8
0
  6
Continuous
 62
     7
370
    25
100
AcDbLine
 10
430.1036509109
 20
405.6479514804
 30
0.0
 11
430.1036509109
 21
407.2479515564
 31
0.0
  0
LINE
  5
1CB
330
1F
100
AcDbEntity
  8
0
  6
Continuous
 62
     7
370
    25
100
AcDbLine
 10
430.0039397908
 20
405.6479514804
 30
0.0
 11
430.1036509109
 21
405.6479514804
 31
0.0
  0
LWPOLYLINE
  5
1CC
330
1F
100
AcDbEntity
  8
0
  6
Continuous
 62
     7
370
    25
100
AcDbPolyline
 90
        3
 70
   128
 43
0.0
 10
430.1226722432
 20
405.6479514804
 10
430.1290871931
 20
405.9935867083
 10
430.1309088601
 20
406.3004612219
  0
ARC
  5
1CD
330
1F
100
AcDbEntity
  8
0
  6
Continuous
 62
     7
370
    25
100
AcDbCircle
 10
404.2942232071
 20
406.3005434438
 30
0.0
 40
25.83668565312539
100
AcDbArc
 50
359.9998176636
 51
1.8417954482
  0
LINE
  5
1CE
330
1F
100
AcDbEntity
  8
0
  6
Continuous
 62
     7
370
    25
100
AcDbLine
 10
430.1175611449
 20
405.6479514804
 30
0.0
 11
430.1175611449
 21
407.1309308749
 31
0.0
  0
LINE
  5
1CF
330
1F
100
AcDbEntity
  8
0
  6
Continuous
 62
     7
370
    25
100
AcDbLine
 10
430.1036509109
 20
405.6479514804
 30
0.0
 11
430.1175611449
 21
405.6479514804
 31
0.0
  0
LINE
  5
1D0
330
1F
100
AcDbEntity
  8
0
  6
Continuous
 62
     7
370
    25
100
AcDbLine
 10
430.1309088601
 20
406.7113570166
 30
0.0
 11
430.125056429
 21
407.2479515564
 31
0.0
  0
LINE
  5
1D1
330
1F
100
AcDbEntity
  8
0
  6
Continuous
 62
     7
370
    25
100
AcDbLine
 10
430.0089652074
 20
407.3479513866
 30
0.0
 11
430.1088402403
 21
407.3378856522
 31
0.0
  0
LINE
  5
1D2
330
1F
100
AcDbEntity
  8
0
  6
Continuous
 62
     7
370
    25
100
AcDbLine
 10
430.1271872951
 20
407.3379527074
 30
0.0
 11
430.0277741981
 21
407.3479513866
 31
0.0
  0
LINE
  5
1D3
330
1F
100
AcDbEntity
  8
0
  6
Continuous
 62
     7
370
    25
100
AcDbLine
 10
430.1175611449
 20
405.6479514804
 30
0.0
 11
430.1226722432
 21
405.6479514804
 31
0.0
  0
LWPOLYLINE
  5
1D4
330
1F
100
AcDbEntity
  8
0
  6
Continuous
 62
     7
370
    25
100
AcDbPolyline
 90
        3
 70
   128
 43
0.0
 10
433.6239720119
 20
595.1539169294
 10
433.6269224418
 20
595.153514598
 10
433.6357737316
 20
595.0919131976
  0
ARC
  5
1D5
330
1F
100
AcDbEntity
  8
0
  6
Continuous
 62
     7
370
    25
100
AcDbCircle
 10
400.505282758
 20
591.1656219118
 30
0.0
 40
33.362331983981
100
AcDbArc
 50
5.5574658281
 51
6.7585943556
  0
ARC
  5
1D6
330
1F
100
AcDbEntity
  8
0
  6
Continuous
 62
     7
370
    25
100
AcDbCircle
 10
413.3284013813
 20
535.1140020702
 30
0.0
 40
20.46150155495738
100
AcDbArc
 50
352.9630520085
 51
354.3469300913
  0
LWPOLYLINE
  5
1D7
330
1F
100
AcDbEntity
  8
0
  6
Continuous
 62
     7
370
    25
100
AcDbPolyline
 90
        3
 70
   128
 43
0.0
 10
433.7579520775
 20
533.787418459
 10
433.7740863098
 20
533.9613597137
 10
433.7928803993
 20
534.1772179347
  0
LWPOLYLINE
  5
1D8
330
1F
100
AcDbEntity
  8
0
  6
Continuous
 62
     7
370
    25
100
AcDbPolyline
 90
        3
 70
   128
 43
0.0
 10
433.7928803993
 20
534.1772179347
 10
433.8033521903
 20
534.3116711122
 10
433.8068427874
 20
534.3785326224
  0
ARC
  5
1D9
330
1F
100
AcDbEntity
  8
0
  6
Continuous
 62
     7
370
    25
100
AcDbCircle
 10
401.6445565624
 20
586.3234055682
 30
0.0
 40
32.17004756005849
100
AcDbArc
 50
4.5257862534
 51
5.8029774785
  0
ARC
  5
1DA
330
1F
100
AcDbEntity
  8
0
  6
Continuous
 62
     7
370
    25
100
AcDbCircle
 10
475.6426320647
 20
585.8044885705
 30
0.0
 40
42.0214900241181
100
AcDbArc
 50
182.3317263386
 51
184.782419879
  0
LWPOLYLINE
  5
1DB
330
1F
100
AcDbEntity
  8
0
  6
Continuous
 62
     7
370
    25
100
AcDbPolyline
 90
        3
 70
   128
 43
0.0
 10
433.6559350027
 20
584.0948413354
 10
433.657864703
 20
584.1104577523
 10
433.6636612547
 20
584.0638767224
  0
ARC
  5
1DC
330
1F
100
AcDbEntity
  8
0
  6
Continuous
 62
     7
370
    25
100
AcDbCircle
 10
415.7675262428
 20
582.4662663499
 30
0.0
 40
17.96730383967663
100
AcDbArc
 50
3.7893346597
 51
5.101343158
  0
ARC
  5
1DD
330
1F
100
AcDbEntity
  8
0
  6
Continuous
 62
     7
370
    25
100
AcDbCircle
 10
417.9138348647
 20
545.0931550398
 30
0.0
 40
15.81703534506515
100
AcDbArc
 50
354.7301858977
 51
356.4124768425
  0
LWPOLYLINE
  5
1DE
330
1F
100
AcDbEntity
  8
0
  6
Continuous
 62
     7
370
    25
100
AcDbPolyline
 90
        3
 70
   128
 43
0.0
 10
433.7444479001
 20
544.8048900109
 10
433.7535003556
 20
544.9593107444
 10
433.7657379342
 20
545.1885055047
  0
LWPOLYLINE
  5
1DF
330
1F
100
AcDbEntity
  8
0
  6
Continuous
 62
     7
370
    25
100
AcDbPolyline
 90
        3
 70
   128
 43
0.0
 10
433.7657379342
 20
545.1885055047
 10
433.7725961936
 20
545.3387837154
 10
433.7748835219
 20
545.4229752761
  0
ARC
  5
1E0
330
1F
100
AcDbEntity
  8
0
  6
Continuous
 62
     7
370
    25
100
AcDbCircle
 10
388.4739283272
 20
552.1758467893
 30
0.0
 40
45.30190580129485
100
AcDbArc
 50
356.2363146409
 51
358.1557487246
  0
LWPOLYLINE
  5
1E1
330
1F
100
AcDbEntity
  8
0
  6
Continuous
 62
     7
370
    25
100
AcDbPolyline
 90
        3
 70
   128
 43
0.0
 10
433.7523678673
 20
550.7179091912
 10
433.7574081851
 20
550.8830736619
 10
433.759088291
 20
550.9846250754
  0
ARC
  5
1E2
330
1F
100
AcDbEntity
  8
0
  6
Continuous
 62
     7
370
    25
100
AcDbCircle
 10
476.0631984022
 20
579.5324595821
 30
0.0
 40
42.40384798795552
100
AcDbArc
 50
181.9274566539
 51
183.8212045241
  0
ARC
  5
1E3
330
1F
100
AcDbEntity
  8
0
  6
Continuous
 62
     7
370
    25
100
AcDbCircle
 10
405.7896662553
 20
576.5515001629
 30
0.0
 40
27.95626823002943
100
AcDbArc
 50
2.3865380511
 51
4.0125213462
  0
ARC
  5
1E4
330
1F
100
AcDbEntity
  8
0
  6
Continuous
 62
     7
370
    25
100
AcDbCircle
 10
396.5552699975
 20
575.7449365779
 30
0.0
 40
37.2174033535475
100
AcDbArc
 50
1.7349234661
 51
2.5890054918
  0
ARC
  5
1E5
330
1F
100
AcDbEntity
  8
0
  6
Continuous
 62
     7
370
    25
100
AcDbCircle
 10
373.1424293586
 20
566.0002845945
 30
0.0
 40
60.58750345534632
100
AcDbArc
 50
0.3448814873
 51
1.0338587569
  0
LINE
  5
1E6
330
1F
100
AcDbEntity
  8
0
  6
Continuous
 62
     8
370
    18
100
AcDbLine
 10
382.9154085374
 20
361.6479526502
 30
0.0
 11
382.9154085374
 21
419.6479509812
 31
0.0
  0
LINE
  5
1E7
330
1F
100
AcDbEntity
  8
0
  6
Continuous
 62
     8
370
    18
100
AcDbLine
 10
437.4154085649
 20
370.6479522627
 30
0.0
 11
437.4154085649
 21
402.8306932416
 31
0.0
  0
LWPOLYLINE
  5
1E8
330
1F
100
AcDbEntity
  8
0
  6
Continuous
 62
     8
370
    18
100
AcDbPolyline
 90
        9
 70
   128
 43
0.0
 10
437.7154099179
 20
402.64795192
 10
437.7096431685
 20
402.6836029482
 10
437.6925738884
 20
402.7178840008
 10
437.664850278
 20
402.7494772565
 10
437.6275414957
 20
402.777169202
 10
437.5820780529
 20
402.7998953354
 10
437.5302145613
 20
402.8167830077
 10
437.4739366008
 20
402.8271812242
 10
437.4154085649
 20
402.8306932416
  0
LINE
  5
1E9
330
1F
100
AcDbEntity
  8
0
  6
Continuous
 62
     8
370
    18
100
AcDbLine
 10
436.7154078914
 20
403.541352902
 30
0.0
 11
429.2628007365
 21
403.541352902
 31
0.0
  0
ARC
  5
1EA
330
1F
100
AcDbEntity
  8
0
  6
Continuous
 62
     8
370
    18
100
AcDbCircle
 10
436.710701739
 20
402.8366367268
 30
0.0
 40
0.7047318891047406
100
AcDbArc
 50
359.516779846
 51
89.617379775
  0
LINE
  5
1EB
330
1F
100
AcDbEntity
  8
0
  6
Continuous
 62
     8
370
    18
100
AcDbLine
 10
412.1680153889
 20
403.541352902
 30
0.0
 11
406.7154085619
 21
403.541352902
 31
0.0
  0
LWPOLYLINE
  5
1EC
330
1F
100
AcDbEntity
  8
0
  6
Continuous
 62
     8
370
    18
100
AcDbPolyline
 90
        5
 70
   128
 43
0.0
 10
412.4372532947
 20
372.2199260485
 10
412.4269305153
 20
373.4207789641
 10
412.4139627797
 20
374.9292738032
 10
412.3985829187
 20
376.7184711289
 10
412.3971468193
 20
376.8856714707
  0
LINE
  5
1ED
330
1F
100
AcDbEntity
  8
0
  6
Continuous
 62
     8
370
    18
100
AcDbLine
 10
412.1922688914
 20
400.7197966096
 30
0.0
 11
412.1680153889
 21
403.541352902
 31
0.0
  0
ARC
  5
1EE
330
1F
100
AcDbEntity
  8
0
  6
Continuous
 62
     8
370
    18
100
AcDbCircle
 10
412.6873590032
 20
337.5207055046
 30
0.0
 40
38.33964253378993
100
AcDbArc
 50
59.7835336402
 51
64.8297617971
  0
ARC
  5
1EF
330
1F
100
AcDbEntity
  8
0
  6
Continuous
 62
     8
370
    18
100
AcDbCircle
 10
428.2191639564
 20
338.5209167707
 30
0.0
 40
37.21144891614117
100
AcDbArc
 50
115.0946195512
 51
120.2694938464
  0
LWPOLYLINE
  5
1F0
330
1F
100
AcDbEntity
  8
0
  6
Continuous
 62
     8
370
    18
100
AcDbPolyline
 90
        5
 70
   128
 43
0.0
 10
429.2628007365
 20
403.541352902
 10
429.244289769
 20
401.3876433712
 10
429.2241284979
 20
399.0421465826
 10
429.2026782764
 20
396.546745975
 10
429.19804029
 20
396.0075311591
  0
LWPOLYLINE
  5
1F1
330
1F
100
AcDbEntity
  8
0
  6
Continuous
 62
     8
370
    18
100
AcDbPolyline
 90
        3
 70
   128
 43
0.0
 10
429.0059345199
 20
373.6590857845
 10
429.0038856102
 20
373.4207789641
 10
428.9935628308
 20
372.2199260485
  0
LWPOLYLINE
  5
1F2
330
1F
100
AcDbEntity
  8
0
  6
Continuous
 62
     8
370
    18
100
AcDbPolyline
 90
        9
 70
   128
 43
0.0
 10
428.9628142847
 20
403.35056961
 10
428.9688641561
 20
403.3881149483
 10
428.9861308766
 20
403.4241273296
 10
429.0139550699
 20
403.4572339845
 10
429.0512713028
 20
403.4861701769
 10
429.0966602398
 20
403.5098322895
 10
429.1483896209
 20
403.5273188022
 10
429.2044813169
 20
403.5379610252
 10
429.2628007365
 20
403.541352902
  0
LWPOLYLINE
  5
1F3
330
1F
100
AcDbEntity
  8
0
  6
Continuous
 62
     8
370
    18
100
AcDbPolyline
 90
        9
 70
   128
 43
0.0
 10
412.1680153889
 20
403.541352902
 10
412.2263348086
 20
403.5379610252
 10
412.2824283672
 20
403.5273188022
 10
412.3341558857
 20
403.5098322895
 10
412.3795448227
 20
403.4861701769
 10
412.4168629182
 20
403.4572339845
 10
412.4446852488
 20
403.4241273296
 10
412.4619519694
 20
403.3881149483
 10
412.4680037034
 20
403.35056961
  0
LINE
  5
1F4
330
1F
100
AcDbEntity
  8
0
  6
Continuous
 62
     8
370
    18
100
AcDbLine
 10
406.7154085619
 20
403.6479520839
 30
0.0
 11
406.7154085619
 21
403.541352902
 31
0.0
  0
LINE
  5
1F5
330
1F
100
AcDbEntity
  8
0
  6
Continuous
 62
     8
370
    18
100
AcDbLine
 10
436.7154078914
 20
403.6479520839
 30
0.0
 11
436.7154078914
 21
403.541352902
 31
0.0
  0
LINE
  5
1F6
330
1F
100
AcDbEntity
  8
0
  6
Continuous
 62
     8
370
    18
100
AcDbLine
 10
412.1680153889
 20
403.541352902
 30
0.0
 11
412.1680153889
 21
403.6479520839
 31
0.0
  0
LINE
  5
1F7
330
1F
100
AcDbEntity
  8
0
  6
Continuous
 62
     8
370
    18
100
AcDbLine
 10
429.2628007365
 20
403.6479520839
 30
0.0
 11
429.2628007365
 21
403.541352902
 31
0.0
  0
LINE
  5
1F8
330
1F
100
AcDbEntity
  8
0
  6
Continuous
 62
     8
370
    18
100
AcDbLine
 10
408.5202874971
 20
408.8479525638
 30
0.0
 11
433.215408249
 21
408.8479525638
 31
0.0
  0
LINE
  5
1F9
330
1F
100
AcDbEntity
  8
0
  6
Continuous
 62
     8
370
    18
100
AcDbLine
 10
433.215408249
 20
605.647955392
 30
0.0
 11
408.2154078765
 21
605.647955392
 31
0.0
  0
ARC
  5
1FA
330
1F
100
AcDbEntity
  8
0
  6
Continuous
 62
     8
370
    18
100
AcDbCircle
 10
407.9627696682
 20
411.2892244139
 30
0.0
 40
0.5649397302930554
100
AcDbArc
 50
350.7024018234
 51
33.1258441809
  0
LINE
  5
1FB
330
1F
100
AcDbEntity
  8
0
  6
Continuous
 62
     8
370
    18
100
AcDbLine
 10
408.2154078765
 20
411.5979525488
 30
0.0
 11
408.4358910454
 21
411.5979525488
 31
0.0
  0
LINE
  5
1FC
330
1F
100
AcDbEntity
  8
0
  6
Continuous
 62
     8
370
    18
100
AcDbLine
 10
408.4323743714
 20
607.7919940692
 30
0.0
 11
432.997959329
 21
607.7919940692
 31
0.0
  0
LINE
  5
1FD
330
1F
100
AcDbEntity
  8
0
  6
Continuous
 62
     8
370
    18
100
AcDbLine
 10
408.8933492435
 20
608.2861165744
 30
0.0
 11
408.8938130421
 21
608.2861165744
 31
0.0
  0
ARC
  5
1FE
330
1F
100
AcDbEntity
  8
0
  6
Continuous
 62
     8
370
    18
100
AcDbCircle
 10
410.0532662032
 20
408.7269390032
 30
0.0
 40
0.4789879671538412
100
AcDbArc
 50
233.8663343536
 51
269.903151245
  0
LINE
  5
1FF
330
1F
100
AcDbEntity
  8
0
  6
Continuous
 62
     8
370
    18
100
AcDbLine
 10
430.0039397908
 20
407.2479515564
 30
0.0
 11
411.3999089582
 21
407.2479515564
 31
0.0
  0
LINE
  5
200
330
1F
100
AcDbEntity
  8
0
  6
Continuous
 62
     8
370
    18
100
AcDbLine
 10
412.4372532947
 20
372.2199260485
 30
0.0
 11
412.4372644706
 21
372.2186203343
 31
0.0
  0
LWPOLYLINE
  5
201
330
1F
100
AcDbEntity
  8
0
  6
Continuous
 62
     8
370
    18
100
AcDbPolyline
 90
        6
 70
   128
 43
0.0
 10
412.4372644706
 20
372.2186203343
 10
410.9931799007
 20
371.5042046499
 10
410.1639246924
 20
371.0564843607
 10
409.6259238554
 20
370.7525267494
 10
409.447372554
 20
370.6494069886
 10
409.4618434442
 20
370.6577814412
  0
ARC
  5
202
330
1F
100
AcDbEntity
  8
0
  6
Continuous
 62
     8
370
    18
100
AcDbCircle
 10
413.1583352962
 20
338.4163782301
 30
0.0
 40
37.32754543758713
100
AcDbArc
 50
59.7657279232
 51
64.8984861255
  0
LINE
  5
203
330
1F
100
AcDbEntity
  8
0
  6
Continuous
 62
     8
370
    18
100
AcDbLine
 10
428.9935516549
 20
372.2186203343
 30
0.0
 11
428.9935628308
 21
372.2199260485
 31
0.0
  0
LINE
  5
204
330
1F
100
AcDbEntity
  8
0
  6
Continuous
 62
     8
370
    18
100
AcDbLine
 10
431.9846542908
 20
548.8571564895
 30
0.0
 11
431.9916466607
 21
548.8364438754
 31
0.0
  0
ARC
  5
205
330
1F
100
AcDbEntity
  8
0
  6
Continuous
 62
     8
370
    18
100
AcDbCircle
 10
447.1585777997
 20
549.3381125951
 30
0.0
 40
15.1815438421198
100
AcDbArc
 50
172.6116510797
 51
181.8154521617
  0
LWPOLYLINE
  5
206
330
1F
100
AcDbEntity
  8
0
  6
Continuous
 62
     8
370
    18
100
AcDbPolyline
 90
        3
 70
   128
 43
0.0
 10
431.9981845451
 20
554.4607083541
 10
432.0114614798
 20
554.3526451331
 10
432.0128994418
 20
554.3520490867
  0
ARC
  5
207
330
1F
100
AcDbEntity
  8
0
  6
Continuous
 62
     8
370
    18
100
AcDbCircle
 10
449.0352198181
 20
555.0308788652
 30
0.0
 40
17.0465734182642
100
AcDbArc
 50
174.0175034236
 51
181.9167757342
  0
ARC
  5
208
330
1F
100
AcDbEntity
  8
0
  6
Continuous
 62
     8
370
    18
100
AcDbCircle
 10
446.4645227259
 20
595.6615561668
 30
0.0
 40
14.54015273436058
100
AcDbArc
 50
182.5695592419
 51
190.5080359824
  0
ARC
  5
209
330
1F
100
AcDbEntity
  8
0
  6
Continuous
 62
     8
370
    18
100
AcDbCircle
 10
433.2318764806
 20
595.2626972882
 30
0.0
 40
1.317410214981438
100
AcDbArc
 50
171.6264078375
 51
191.0724470241
  0
ARC
  5
20A
330
1F
100
AcDbEntity
  8
0
  6
Continuous
 62
     8
370
    18
100
AcDbCircle
 10
445.6805791813
 20
589.802902175
 30
0.0
 40
13.73012878229923
100
AcDbArc
 50
181.5482513536
 51
189.6927526759
  0
ARC
  5
20B
330
1F
100
AcDbEntity
  8
0
  6
Continuous
 62
     8
370
    18
100
AcDbCircle
 10
433.7569473606
 20
589.7072312941
 30
0.0
 40
1.822398599902172
100
AcDbArc
 50
172.6688267705
 51
188.6886503488
  0
ARC
  5
20C
330
1F
100
AcDbEntity
  8
0
  6
Continuous
 62
     8
370
    18
100
AcDbCircle
 10
444.4380771778
 20
583.9149261974
 30
0.0
 40
12.46706739972245
100
AcDbArc
 50
180.4784298296
 51
189.0069399026
  0
ARC
  5
20D
330
1F
100
AcDbEntity
  8
0
  6
Continuous
 62
     8
370
    18
100
AcDbCircle
 10
434.6761237882
 20
584.1170448506
 30
0.0
 40
2.721959037898076
100
AcDbArc
 50
173.7208123771
 51
186.459434011
  0
ARC
  5
20E
330
1F
100
AcDbEntity
  8
0
  6
Continuous
 62
     8
370
    18
100
AcDbCircle
 10
437.1375606444
 20
566.1264641664
 30
0.0
 40
5.133401611989208
100
AcDbArc
 50
177.7757154986
 51
188.4560709602
  0
ARC
  5
20F
330
1F
100
AcDbEntity
  8
0
  6
Continuous
 62
     8
370
    18
100
AcDbCircle
 10
443.1379417537
 20
566.8828091013
 30
0.0
 40
11.14384942963619
100
AcDbArc
 50
175.1349253379
 51
182.8655632944
  0
ARC
  5
210
330
1F
100
AcDbEntity
  8
0
  6
Continuous
 62
     8
370
    18
100
AcDbCircle
 10
446.4338048107
 20
543.5927847483
 30
0.0
 40
14.46820355771174
100
AcDbArc
 50
171.4942575996
 51
181.2311090562
  0
ARC
  5
211
330
1F
100
AcDbEntity
  8
0
  6
Continuous
 62
     8
370
    18
100
AcDbCircle
 10
444.2827187384
 20
537.9960081543
 30
0.0
 40
12.33560493146311
100
AcDbArc
 50
169.6857357495
 51
181.1142939251
  0
ARC
  5
212
330
1F
100
AcDbEntity
  8
0
  6
Continuous
 62
     8
370
    18
100
AcDbCircle
 10
444.2886713949
 20
532.2635417984
 30
0.0
 40
12.3601808788537
100
AcDbArc
 50
168.6971348382
 51
180.1028774748
  0
ARC
  5
213
330
1F
100
AcDbEntity
  8
0
  6
Continuous
 62
     8
370
    18
100
AcDbCircle
 10
444.1873744496
 20
572.455201071
 30
0.0
 40
12.20686420608946
100
AcDbArc
 50
175.8252377511
 51
187.3746845473
  0
ARC
  5
214
330
1F
100
AcDbEntity
  8
0
  6
Continuous
 62
     8
370
    18
100
AcDbCircle
 10
432.8601274453
 20
560.117326549
 30
0.0
 40
0.8627007544620428
100
AcDbArc
 50
171.4055550369
 51
196.7987217647
  0
ARC
  5
215
330
1F
100
AcDbEntity
  8
0
  6
Continuous
 62
     8
370
    18
100
AcDbCircle
 10
447.2390515043
 20
560.8985582351
 30
0.0
 40
15.24589868249363
100
AcDbArc
 50
174.634046844
 51
182.4522024618
  0
LWPOLYLINE
  5
216
330
1F
100
AcDbEntity
  8
0
  6
Continuous
 62
     8
370
    18
100
AcDbPolyline
 90
        7
 70
   128
 43
0.0
 10
431.986427529
 20
578.0981670362
 10
432.0045324398
 20
577.6283185226
 10
432.0291305316
 20
577.1590958577
 10
432.056481613
 20
576.7619352084
 10
432.0824208094
 20
576.4973203879
 10
432.102999313
 20
576.4055143338
 10
432.1030812694
 20
576.405529235
  0
ARC
  5
217
330
1F
100
AcDbEntity
  8
0
  6
Continuous
 62
     8
370
    18
100
AcDbCircle
 10
434.9709156015
 20
578.4583669338
 30
0.0
 40
3.006145874930377
100
AcDbArc
 50
172.3326273213
 51
186.881781558
  0
LWPOLYLINE
  5
218
330
1F
100
AcDbEntity
  8
0
  6
Continuous
 62
     8
370
    18
100
AcDbPolyline
 90
        9
 70
   128
 43
0.0
 10
432.2738672031
 20
572.703857277
 10
432.2759645415
 20
572.9023556453
 10
432.2824987007
 20
573.0264078122
 10
432.2927395237
 20
573.0487446529
 10
432.3048020137
 20
572.9738365155
 10
432.3179373873
 20
572.8130827886
 10
432.3315123452
 20
572.5679884893
 10
432.3432768119
 20
572.2728262883
 10
432.3515320552
 20
571.9775001746
  0
LWPOLYLINE
  5
219
330
1F
100
AcDbEntity
  8
0
  6
Continuous
 62
     8
370
    18
100
AcDbPolyline
 90
        3
 70
   128
 43
0.0
 10
432.2792651487
 20
572.2706060153
 10
432.2752157582
 20
572.4998603803
 10
432.2738672031
 20
572.703857277
  0
LWPOLYLINE
  5
21A
330
1F
100
AcDbEntity
  8
0
  6
Continuous
 62
     8
370
    18
100
AcDbPolyline
 90
        9
 70
   128
 43
0.0
 10
432.3569486273
 20
571.5433399421
 10
432.3548512889
 20
571.3447819692
 10
432.3483134044
 20
571.2207298022
 10
432.3380651308
 20
571.1984674674
 10
432.3259951902
 20
571.2735395175
 10
432.3128560914
 20
571.4344869596
 10
432.2992736829
 20
571.6798047763
 10
432.2875129415
 20
571.9751606923
 10
432.2792651487
 20
572.2706060153
  0
LWPOLYLINE
  5
21B
330
1F
100
AcDbEntity
  8
0
  6
Continuous
 62
     8
370
    18
100
AcDbPolyline
 90
        9
 70
   128
 43
0.0
 10
432.3492857052
 20
566.3356374246
 10
432.3475757969
 20
566.0696516973
 10
432.3422449065
 20
565.8475051862
 10
432.3338890804
 20
565.7104592067
 10
432.3240468634
 20
565.6732510072
 10
432.3133329285
 20
565.7298903209
 10
432.3022613657
 20
565.8852796298
 10
432.2926687432
 20
566.1215226394
 10
432.2859371437
 20
566.3954804879
  0
LWPOLYLINE
  5
21C
330
1F
100
AcDbEntity
  8
0
  6
Continuous
 62
     8
370
    18
100
AcDbPolyline
 90
        9
 70
   128
 43
0.0
 10
432.2815301252
 20
566.8694864255
 10
432.2832400335
 20
567.1354274493
 10
432.2885709239
 20
567.3575590592
 10
432.2969230247
 20
567.4946199399
 10
432.3067615164
 20
567.5318877441
 10
432.3174754513
 20
567.4753229362
 10
432.3285470141
 20
567.3200379354
 10
432.3381396366
 20
567.0838992339
 10
432.3448712362
 20
566.8100307923
  0
LWPOLYLINE
  5
21D
330
1F
100
AcDbEntity
  8
0
  6
Continuous
 62
     8
370
    18
100
AcDbPolyline
 90
        3
 70
   128
 43
0.0
 10
432.2859371437
 20
566.3954804879
 10
432.2826328112
 20
566.633526538
 10
432.2815301252
 20
566.8694864255
  0
LWPOLYLINE
  5
21E
330
1F
100
AcDbEntity
  8
0
  6
Continuous
 62
     8
370
    18
100
AcDbPolyline
 90
        9
 70
   128
 43
0.0
 10
432.2852591408
 20
560.4496191484
 10
432.2917448712
 20
560.269508813
 10
432.3012778891
 20
560.1724873525
 10
432.3124574853
 20
560.1827840549
 10
432.3233539594
 20
560.2901022178
 10
432.3334234191
 20
560.4810009938
 10
432.3420251144
 20
560.7520382148
 10
432.3475236429
 20
561.062846635
 10
432.3492857052
 20
561.3602738124
  0
LWPOLYLINE
  5
21F
330
1F
100
AcDbEntity
  8
0
  6
Continuous
 62
     8
370
    18
100
AcDbPolyline
 90
        9
 70
   128
 43
0.0
 10
432.3455641402
 20
561.7367963534
 10
432.3390821351
 20
561.9170109969
 10
432.3295491172
 20
562.0141516667
 10
432.318369521
 20
562.0039443713
 10
432.3074693216
 20
561.8966709119
 10
432.2973961366
 20
561.705787037
 10
432.2887944413
 20
561.4347349149
 10
432.2832921875
 20
561.1238817912
 10
432.2815301252
 20
560.8264099103
  0
LWPOLYLINE
  5
220
330
1F
100
AcDbEntity
  8
0
  6
Continuous
 62
     8
370
    18
100
AcDbPolyline
 90
        3
 70
   128
 43
0.0
 10
432.2815301252
 20
560.8264099103
 10
432.2824614478
 20
560.624767397
 10
432.2852591408
 20
560.4496191484
  0
LWPOLYLINE
  5
221
330
1F
100
AcDbEntity
  8
0
  6
Continuous
 62
     8
370
    18
100
AcDbPolyline
 90
        9
 70
   128
 43
0.0
 10
432.4116731418
 20
593.3871011478
 10
432.4068041874
 20
593.3332036477
 10
432.39163108
 20
593.3779518348
 10
432.3678488267
 20
593.5221056682
 10
432.3398495449
 20
593.7354157907
 10
432.3093729449
 20
594.0016250354
 10
432.2778867913
 20
594.3106453162
 10
432.2506400181
 20
594.6137647372
 10
432.2315516306
 20
594.8641042453
  0
LWPOLYLINE
  5
222
330
1F
100
AcDbEntity
  8
0
  6
Continuous
 62
     8
370
    18
100
AcDbPolyline
 90
        9
 70
   128
 43
0.0
 10
432.2191426886
 20
595.1296429378
 10
432.2239296866
 20
595.1834808332
 10
432.2388308478
 20
595.1405058843
 10
432.2622182203
 20
594.9998240214
 10
432.2898449732
 20
594.7905223113
 10
432.3200160993
 20
594.5282916766
 10
432.3513159884
 20
594.2228625756
 10
432.3786372674
 20
593.92135248
 10
432.398098184
 20
593.669716571
  0
LWPOLYLINE
  5
223
330
1F
100
AcDbEntity
  8
0
  6
Continuous
 62
     8
370
    18
100
AcDbPolyline
 90
        3
 70
   128
 43
0.0
 10
432.2315516306
 20
594.8641042453
 10
432.2222458554
 20
595.0223247748
 10
432.2191426886
 20
595.1296429378
  0
LWPOLYLINE
  5
224
330
1F
100
AcDbEntity
  8
0
  6
Continuous
 62
     8
370
    18
100
AcDbPolyline
 90
        9
 70
   128
 43
0.0
 10
432.3966564966
 20
587.8872911674
 10
432.3925475014
 20
587.8140221578
 10
432.379747404
 20
587.8380577308
 10
432.3596829904
 20
587.9635553104
 10
432.3360571993
 20
588.1630073529
 10
432.3103415204
 20
588.4205143195
 10
432.28377275
 20
588.7268821937
 10
432.2607728077
 20
589.0344123584
 10
432.2446572019
 20
589.2949889642
  0
LWPOLYLINE
  5
225
330
1F
100
AcDbEntity
  8
0
  6
Continuous
 62
     8
370
    18
100
AcDbPolyline
 90
        9
 70
   128
 43
0.0
 10
432.2341593338
 20
589.5867686015
 10
432.2382087244
 20
589.6598289949
 10
432.2508113814
 20
589.6371643287
 10
432.2705852223
 20
589.5145873767
 10
432.2939427925
 20
589.3186073047
 10
432.319434954
 20
589.0646915179
 10
432.345869614
 20
588.7616764051
 10
432.3689217103
 20
588.4559045774
 10
432.3853129877
 20
588.194627617
  0
LWPOLYLINE
  5
226
330
1F
100
AcDbEntity
  8
0
  6
Continuous
 62
     8
370
    18
100
AcDbPolyline
 90
        3
 70
   128
 43
0.0
 10
432.2446572019
 20
589.2949889642
 10
432.2367856635
 20
589.4651751262
 10
432.2341593338
 20
589.5867686015
  0
LWPOLYLINE
  5
227
330
1F
100
AcDbEntity
  8
0
  6
Continuous
 62
     8
370
    18
100
AcDbPolyline
 90
        9
 70
   128
 43
0.0
 10
432.3821464909
 20
582.3948572618
 10
432.3787751032
 20
582.2941999179
 10
432.368262334
 20
582.2880308372
 10
432.3517891003
 20
582.3854248267
 10
432.3323877884
 20
582.5630764705
 10
432.3112691177
 20
582.805697177
 10
432.2894463671
 20
583.1055383426
 10
432.2705516947
 20
583.4166894895
 10
432.2573082877
 20
583.689723466
  0
LWPOLYLINE
  5
228
330
1F
100
AcDbEntity
  8
0
  6
Continuous
 62
     8
370
    18
100
AcDbPolyline
 90
        9
 70
   128
 43
0.0
 10
432.2486693395
 20
584.0167443496
 10
432.2520034743
 20
584.1170738679
 10
432.2623858584
 20
584.1241221171
 10
432.2786728276
 20
584.0289185983
 10
432.2978990508
 20
583.8540236693
 10
432.3188724352
 20
583.6143533927
 10
432.3406095041
 20
583.3174477559
 10
432.3595377041
 20
583.0081145507
 10
432.372959925
 20
582.7349911672
  0
LWPOLYLINE
  5
229
330
1F
100
AcDbEntity
  8
0
  6
Continuous
 62
     8
370
    18
100
AcDbPolyline
 90
        3
 70
   128
 43
0.0
 10
432.2573082877
 20
583.689723466
 10
432.2508300079
 20
583.8756303531
 10
432.2486693395
 20
584.0167443496
  0
LWPOLYLINE
  5
22A
330
1F
100
AcDbEntity
  8
0
  6
Continuous
 62
     8
370
    18
100
AcDbPolyline
 90
        9
 70
   128
 43
0.0
 10
432.3685901595
 20
576.9087563497
 10
432.3659004999
 20
576.7680297834
 10
432.3575297726
 20
576.7157416087
 10
432.3444055749
 20
576.7682234985
 10
432.3289493454
 20
576.9091139775
 10
432.3121259345
 20
577.1243314487
 10
432.2947362793
 20
577.4084220868
 10
432.2796823812
 20
577.7191560012
 10
432.2691249085
 20
578.0060033542
  0
LWPOLYLINE
  5
22B
330
1F
100
AcDbEntity
  8
0
  6
Continuous
 62
     8
370
    18
100
AcDbPolyline
 90
        9
 70
   128
 43
0.0
 10
432.2622293962
 20
578.3805738431
 10
432.2648967041
 20
578.5209427816
 10
432.2732041014
 20
578.5735885841
 10
432.2862351669
 20
578.5223136884
 10
432.3016057147
 20
578.3831070405
 10
432.3183583451
 20
578.1698267203
 10
432.3357032968
 20
577.8877924424
 10
432.3507758213
 20
577.5785635453
 10
432.361422701
 20
577.2921036225
  0
LWPOLYLINE
  5
22C
330
1F
100
AcDbEntity
  8
0
  6
Continuous
 62
     8
370
    18
100
AcDbPolyline
 90
        3
 70
   128
 43
0.0
 10
432.2691249085
 20
578.0060033542
 10
432.2639504803
 20
578.2123099309
 10
432.2622293962
 20
578.3805738431
  0
LWPOLYLINE
  5
22D
330
1F
100
AcDbEntity
  8
0
  6
Continuous
 62
     8
370
    18
100
AcDbPolyline
 90
        3
 70
   128
 43
0.0
 10
432.3821464909
 20
545.3010390741
 10
432.3803248239
 20
545.3844110709
 10
432.3748523725
 20
545.4175512534
  0
ARC
  5
22E
330
1F
100
AcDbEntity
  8
0
  6
Continuous
 62
     8
370
    18
100
AcDbCircle
 10
444.7391904543
 20
543.6462969088
 30
0.0
 40
12.49056436490965
100
AcDbArc
 50
171.8475543049
 51
179.8492211268
  0
LWPOLYLINE
  5
22F
330
1F
100
AcDbEntity
  8
0
  6
Continuous
 62
     8
370
    18
100
AcDbPolyline
 90
        3
 70
   128
 43
0.0
 10
432.2486693395
 20
543.6791668874
 10
432.2506102158
 20
543.5938875419
 10
432.2564291192
 20
543.5622523767
  0
LWPOLYLINE
  5
230
330
1F
100
AcDbEntity
  8
0
  6
Continuous
 62
     8
370
    18
100
AcDbPolyline
 90
        3
 70
   128
 43
0.0
 10
432.4116731418
 20
534.3088100892
 10
432.4090542627
 20
534.3579094154
 10
432.4011939002
 20
534.3555252296
  0
ARC
  5
231
330
1F
100
AcDbEntity
  8
0
  6
Continuous
 62
     8
370
    18
100
AcDbCircle
 10
446.4899531282
 20
532.0181532445
 30
0.0
 40
14.28133202405003
100
AcDbArc
 50
170.5802373104
 51
177.8005174945
  0
LWPOLYLINE
  5
232
330
1F
100
AcDbEntity
  8
0
  6
Continuous
 62
     8
370
    18
100
AcDbPolyline
 90
        3
 70
   128
 43
0.0
 10
432.2191426886
 20
532.566253398
 10
432.2220111621
 20
532.5160364848
 10
432.2306091321
 20
532.5223694783
  0
LWPOLYLINE
  5
233
330
1F
100
AcDbEntity
  8
0
  6
Continuous
 62
     8
370
    18
100
AcDbPolyline
 90
        3
 70
   128
 43
0.0
 10
432.3966564966
 20
539.8086200696
 10
432.3944399489
 20
539.8719351035
 10
432.387794031
 20
539.8840646487
  0
ARC
  5
234
330
1F
100
AcDbEntity
  8
0
  6
Continuous
 62
     8
370
    18
100
AcDbCircle
 10
445.9453225591
 20
537.8164342687
 30
0.0
 40
13.71428726465857
100
AcDbArc
 50
171.3287554747
 51
178.7770252088
  0
LWPOLYLINE
  5
235
330
1F
100
AcDbEntity
  8
0
  6
Continuous
 62
     8
370
    18
100
AcDbPolyline
 90
        3
 70
   128
 43
0.0
 10
432.2341593338
 20
538.1091426355
 10
432.2365584208
 20
538.0442480785
 10
432.2437445057
 20
538.0349348527
  0
LWPOLYLINE
  5
236
330
1F
100
AcDbEntity
  8
0
  6
Continuous
 62
     8
370
    18
100
AcDbPolyline
 90
        6
 70
   128
 43
0.0
 10
432.2682792676
 20
549.1364489537
 10
432.2785387171
 20
549.1325299483
 10
432.29352556
 20
549.2317567807
 10
432.311041875
 20
549.4258891088
 10
432.3280925287
 20
549.6762882215
 10
432.3428372277
 20
549.947191332
  0
LWPOLYLINE
  5
237
330
1F
100
AcDbEntity
  8
0
  6
Continuous
 62
     8
370
    18
100
AcDbPolyline
 90
        3
 70
   128
 43
0.0
 10
432.3685901595
 20
550.7871548873
 10
432.367133571
 20
550.8996884566
 10
432.3627675308
 20
550.9644787055
  0
LWPOLYLINE
  5
238
330
1F
100
AcDbEntity
  8
0
  6
Continuous
 62
     8
370
    18
100
AcDbPolyline
 90
        9
 70
   128
 43
0.0
 10
432.3627675308
 20
550.9644787055
 10
432.352593763
 20
550.9710650188
 10
432.3376329971
 20
550.8737753373
 10
432.3200794292
 20
550.680537079
 10
432.3029654456
 20
550.4301677686
 10
432.287147863
 20
550.1403550845
 10
432.2736362351
 20
549.8240034324
 10
432.2649972869
 20
549.534160946
 10
432.2622293962
 20
549.3153224927
  0
LWPOLYLINE
  5
239
330
1F
100
AcDbEntity
  8
0
  6
Continuous
 62
     8
370
    18
100
AcDbPolyline
 90
        3
 70
   128
 43
0.0
 10
432.2622293962
 20
549.3153224927
 10
432.2637418641
 20
549.2009858829
 10
432.2682792676
 20
549.1364489537
  0
LWPOLYLINE
  5
23A
330
1F
100
AcDbEntity
  8
0
  6
Continuous
 62
     8
370
    18
100
AcDbPolyline
 90
        9
 70
   128
 43
0.0
 10
432.2784418596
 20
554.724712227
 10
432.2863953544
 20
554.6473453981
 10
432.2980853153
 20
554.6703229886
 10
432.3117943836
 20
554.7984133702
 10
432.3251532746
 20
555.0025592786
 10
432.337502612
 20
555.2659820062
 10
432.3480451835
 20
555.5789957982
 10
432.354787959
 20
555.8912347299
 10
432.3569486273
 20
556.1525712949
  0
LWPOLYLINE
  5
23B
330
1F
100
AcDbEntity
  8
0
  6
Continuous
 62
     8
370
    18
100
AcDbPolyline
 90
        9
 70
   128
 43
0.0
 10
432.3523925973
 20
556.4195703012
 10
432.3444465531
 20
556.497205351
 10
432.3327565921
 20
556.4744363767
 10
432.3190475238
 20
556.3464950067
 10
432.3056811822
 20
556.1423938018
 10
432.2933281196
 20
555.8789412719
 10
432.2827780975
 20
555.5658380729
 10
432.2760315968
 20
555.2534799319
 10
432.2738672031
 20
554.99205396
  0
LWPOLYLINE
  5
23C
330
1F
100
AcDbEntity
  8
0
  6
Continuous
 62
     8
370
    18
100
AcDbPolyline
 90
        3
 70
   128
 43
0.0
 10
432.2738672031
 20
554.99205396
 10
432.2750108672
 20
554.837588523
 10
432.2784418596
 20
554.724712227
  0
ARC
  5
23D
330
1F
100
AcDbEntity
  8
0
  6
Continuous
 62
     8
370
    18
100
AcDbCircle
 10
411.1706881217
 20
392.6031018816
 30
0.0
 40
13.28925343067994
100
AcDbArc
 50
83.833051199
 51
93.4470227482
  0
LWPOLYLINE
  5
23E
330
1F
100
AcDbEntity
  8
0
  6
Continuous
 62
     8
370
    18
100
AcDbPolyline
 90
        3
 70
   128
 43
0.0
 10
411.4004863782
 20
404.8937403825
 10
410.8748013509
 20
405.1672185999
 10
410.3724515421
 20
405.429095332
  0
ARC
  5
23F
330
1F
100
AcDbEntity
  8
0
  6
Continuous
 62
     8
370
    18
100
AcDbCircle
 10
467.4742420964
 20
536.270084668
 30
0.0
 40
34.15861604594848
100
AcDbArc
 50
173.3394237899
 51
177.4606616325
  0
ARC
  5
240
330
1F
100
AcDbEntity
  8
0
  6
Continuous
 62
     8
370
    18
100
AcDbCircle
 10
467.7220776587
 20
542.3725273522
 30
0.0
 40
34.36446264310046
100
AcDbArc
 50
174.3517601869
 51
178.4483081783
  0
LWPOLYLINE
  5
241
330
1F
100
AcDbEntity
  8
0
  6
Continuous
 62
     8
370
    18
100
AcDbPolyline
 90
       10
 70
   128
 43
0.0
 10
433.5679436458
 20
534.7088466626
 10
433.5532585515
 20
534.6174876433
 10
433.5225398077
 20
534.3539457065
 10
433.4804850055
 20
533.9583347779
 10
433.4334979189
 20
533.4909002524
 10
433.3887273801
 20
533.0227802735
 10
433.3529906703
 20
532.6252619964
 10
433.3317267133
 20
532.3588441354
 10
433.3281802369
 20
532.2641025525
 10
433.328232391
 20
532.2641025525
  0
ARC
  5
242
330
1F
100
AcDbEntity
  8
0
  6
Continuous
 62
     8
370
    18
100
AcDbCircle
 10
468.189994231
 20
548.5221525428
 30
0.0
 40
34.80039672344909
100
AcDbArc
 50
175.3773570105
 51
179.4225530298
  0
ARC
  5
243
330
1F
100
AcDbEntity
  8
0
  6
Continuous
 62
     8
370
    18
100
AcDbCircle
 10
468.5801561304
 20
554.5593826162
 30
0.0
 40
35.16840188845904
100
AcDbArc
 50
176.3986267425
 51
180.4014897759
  0
ARC
  5
244
330
1F
100
AcDbEntity
  8
0
  6
Continuous
 62
     8
370
    18
100
AcDbCircle
 10
468.5061802457
 20
560.7143411551
 30
0.0
 40
35.08278782588484
100
AcDbArc
 50
177.3936970927
 51
181.4063268812
  0
ARC
  5
245
330
1F
100
AcDbEntity
  8
0
  6
Continuous
 62
     8
370
    18
100
AcDbCircle
 10
456.8955438118
 20
566.5856592538
 30
0.0
 40
23.46653318845353
100
AcDbArc
 50
179.4719237625
 51
182.9297737482
  0
ARC
  5
246
330
1F
100
AcDbEntity
  8
0
  6
Continuous
 62
     8
370
    18
100
AcDbCircle
 10
451.1436892683
 20
567.2549858856
 30
0.0
 40
17.71947457342981
100
AcDbArc
 50
178.0996805853
 51
181.4650816452
  0
ARC
  5
247
330
1F
100
AcDbEntity
  8
0
  6
Continuous
 62
     8
370
    18
100
AcDbCircle
 10
468.4836751834
 20
573.1338322503
 30
0.0
 40
35.07194226067813
100
AcDbArc
 50
179.5930252441
 51
183.6068776457
  0
ARC
  5
248
330
1F
100
AcDbEntity
  8
0
  6
Continuous
 62
     8
370
    18
100
AcDbCircle
 10
476.4456841679
 20
579.5815922833
 30
0.0
 40
43.06287929138098
100
AcDbArc
 50
181.5343747661
 51
184.2782669509
  0
ARC
  5
249
330
1F
100
AcDbEntity
  8
0
  6
Continuous
 62
     8
370
    18
100
AcDbCircle
 10
436.0889717852
 20
578.6727539112
 30
0.0
 40
2.701788781130672
100
AcDbArc
 50
176.8117392545
 51
185.1866474586
  0
ARC
  5
24A
330
1F
100
AcDbEntity
  8
0
  6
Continuous
 62
     8
370
    18
100
AcDbCircle
 10
467.5111843731
 20
585.3101213056
 30
0.0
 40
34.15328879074766
100
AcDbArc
 50
181.5390559575
 51
185.6609193242
  0
ARC
  5
24B
330
1F
100
AcDbEntity
  8
0
  6
Continuous
 62
     8
370
    18
100
AcDbCircle
 10
467.8454764462
 20
591.4556801959
 30
0.0
 40
34.5308117886972
100
AcDbArc
 50
182.5615584967
 51
186.6383560809
  0
ARC
  5
24C
330
1F
100
AcDbEntity
  8
0
  6
Continuous
 62
     8
370
    18
100
AcDbCircle
 10
469.0331432286
 20
597.7157455481
 30
0.0
 40
35.77905539836484
100
AcDbArc
 50
184.1019493874
 51
187.5946238382
  0
LWPOLYLINE
  5
24D
330
1F
100
AcDbEntity
  8
0
  6
Continuous
 62
     8
370
    18
100
AcDbPolyline
 90
        3
 70
   128
 43
0.0
 10
433.328232391
 20
595.4318086845
 10
433.3289811743
 20
595.3801165563
 10
433.3457412554
 20
595.1564203244
  0
ARC
  5
24E
330
1F
100
AcDbEntity
  8
0
  6
Continuous
 62
     8
370
    18
100
AcDbCircle
 10
474.5450461969
 20
529.4918832112
 30
0.0
 40
41.03458894829225
100
AcDbArc
 50
173.2436975633
 51
175.7372591808
  0
LWPOLYLINE
  5
24F
330
1F
100
AcDbEntity
  8
0
  6
Continuous
 62
     8
370
    18
100
AcDbPolyline
 90
        3
 70
   128
 43
0.0
 10
433.6239720119
 20
532.5419943076
 10
433.6269224418
 20
532.542396639
 10
433.6357737316
 20
532.6039831382
  0
ARC
  5
250
330
1F
100
AcDbEntity
  8
0
  6
Continuous
 62
     8
370
    18
100
AcDbCircle
 10
392.7993900435
 20
537.4361881134
 30
0.0
 40
41.12128934795908
100
AcDbArc
 50
353.2515214142
 51
355.7357223522
  0
LWPOLYLINE
  5
251
330
1F
100
AcDbEntity
  8
0
  6
Continuous
 62
     8
370
    18
100
AcDbPolyline
 90
        3
 70
   128
 43
0.0
 10
433.8068427874
 20
534.3785326224
 10
433.803989215
 20
534.3786071282
 10
433.7954210473
 20
534.3194644195
  0
LWPOLYLINE
  5
252
330
1F
100
AcDbEntity
  8
0
  6
Continuous
 62
     8
370
    18
100
AcDbPolyline
 90
        3
 70
   128
 43
0.0
 10
433.6511480046
 20
589.4172529918
 10
433.642773552
 20
589.5540605527
 10
433.6399833096
 20
589.6259735566
  0
ARC
  5
253
330
1F
100
AcDbEntity
  8
0
  6
Continuous
 62
     8
370
    18
100
AcDbCircle
 10
462.8933228585
 20
591.1146307368
 30
0.0
 40
29.29139603017066
100
AcDbArc
 50
183.3220366788
 51
186.5106239452
  0
ARC
  5
254
330
1F
100
AcDbEntity
  8
0
  6
Continuous
 62
     8
370
    18
100
AcDbCircle
 10
475.6439798513
 20
541.8913388847
 30
0.0
 40
42.02284010349441
100
AcDbArc
 50
175.217619494
 51
177.6682342884
  0
LWPOLYLINE
  5
255
330
1F
100
AcDbEntity
  8
0
  6
Continuous
 62
     8
370
    18
100
AcDbPolyline
 90
        3
 70
   128
 43
0.0
 10
433.6559350027
 20
543.6010699016
 10
433.657864703
 20
543.5854385835
 10
433.6636612547
 20
543.6320196134
  0
ARC
  5
256
330
1F
100
AcDbEntity
  8
0
  6
Continuous
 62
     8
370
    18
100
AcDbCircle
 10
391.6072649845
 20
547.1427452899
 30
0.0
 40
42.20267363589539
100
AcDbArc
 50
355.2282054841
 51
357.6645352883
  0
LWPOLYLINE
  5
257
330
1F
100
AcDbEntity
  8
0
  6
Continuous
 62
     8
370
    18
100
AcDbPolyline
 90
        3
 70
   128
 43
0.0
 10
433.7748835219
 20
545.4229752761
 10
433.7730208767
 20
545.4388450128
 10
433.7674403919
 20
545.3948418838
  0
LWPOLYLINE
  5
258
330
1F
100
AcDbEntity
  8
0
  6
Continuous
 62
     8
370
    18
100
AcDbPolyline
 90
        9
 70
   128
 43
0.0
 10
433.7748835219
 20
582.2729210597
 10
433.7719554437
 20
582.2628329736
 10
433.7628433836
 20
582.3504070979
 10
433.7485308183
 20
582.5292955381
 10
433.7315956486
 20
582.7653746348
 10
433.7130623294
 20
583.0426703435
 10
433.693795128
 20
583.3497981769
 10
433.6768934859
 20
583.6387614947
 10
433.6647453142
 20
583.8670472842
  0
ARC
  5
259
330
1F
100
AcDbEntity
  8
0
  6
Continuous
 62
     8
370
    18
100
AcDbCircle
 10
475.9644520343
 20
548.1663874366
 30
0.0
 40
42.30512465925128
100
AcDbArc
 50
176.1738701959
 51
178.6125650011
  0
LWPOLYLINE
  5
25A
330
1F
100
AcDbEntity
  8
0
  6
Continuous
 62
     8
370
    18
100
AcDbPolyline
 90
        3
 70
   128
 43
0.0
 10
433.6717302335
 20
549.1907189828
 10
433.6731495691
 20
549.1582344514
 10
433.6774075759
 20
549.1881857854
  0
ARC
  5
25B
330
1F
100
AcDbEntity
  8
0
  6
Continuous
 62
     8
370
    18
100
AcDbCircle
 10
391.2306183625
 20
552.0182380199
 30
0.0
 40
42.54102855104743
100
AcDbArc
 50
356.1855673152
 51
358.6077560952
  0
LWPOLYLINE
  5
25C
330
1F
100
AcDbEntity
  8
0
  6
Continuous
 62
     8
370
    18
100
AcDbPolyline
 90
        3
 70
   128
 43
0.0
 10
433.759088291
 20
550.9846250754
 10
433.7577211095
 20
551.0170201999
 10
433.7536195649
 20
550.9893636447
  0
LWPOLYLINE
  5
25D
330
1F
100
AcDbEntity
  8
0
  6
Continuous
 62
     8
370
    18
100
AcDbPolyline
 90
        3
 70
   128
 43
0.0
 10
433.6912731064
 20
572.6927112085
 10
433.6881215108
 20
572.8811363917
 10
433.687070979
 20
573.0142484647
  0
LWPOLYLINE
  5
25E
330
1F
100
AcDbEntity
  8
0
  6
Continuous
 62
     8
370
    18
100
AcDbPolyline
 90
        3
 70
   128
 43
0.0
 10
433.7004484964
 20
560.4736100179
 10
433.7009216083
 20
560.3148530465
 10
433.7023446692
 20
560.2061490756
  0
LWPOLYLINE
  5
25F
330
1F
100
AcDbEntity
  8
0
  6
Continuous
 62
     8
370
    18
100
AcDbPolyline
 90
        3
 70
   128
 43
0.0
 10
433.7023446692
 20
560.2061490756
 10
433.7053025497
 20
560.1493607503
 10
433.7091321481
 20
560.1877759439
  0
ARC
  5
260
330
1F
100
AcDbEntity
  8
0
  6
Continuous
 62
     8
370
    18
100
AcDbCircle
 10
464.4315314169
 20
597.3076355652
 30
0.0
 40
30.88355070568853
100
AcDbArc
 50
184.3633967791
 51
187.423557039
  0
LWPOLYLINE
  5
261
330
1F
100
AcDbEntity
  8
0
  6
Continuous
 62
     8
370
    18
100
AcDbPolyline
 90
        3
 70
   128
 43
0.0
 10
433.6374948157
 20
594.9579517585
 10
433.6273545755
 20
595.0886796456
 10
433.6239720119
 20
595.1539169294
  0
LWPOLYLINE
  5
262
330
1F
100
AcDbEntity
  8
0
  6
Continuous
 62
     8
370
    18
100
AcDbPolyline
 90
        3
 70
   128
 43
0.0
 10
433.6782047881
 20
578.245688532
 10
433.6733470095
 20
578.4061442357
 10
433.6717302335
 20
578.5051922542
  0
LWPOLYLINE
  5
263
330
1F
100
AcDbEntity
  8
0
  6
Continuous
 62
     8
370
    18
100
AcDbPolyline
 90
        3
 70
   128
 43
0.0
 10
433.7026650442
 20
566.7625556928
 10
433.7010035647
 20
567.007456277
 10
433.7004484964
 20
567.2223012191
  0
ARC
  5
264
330
1F
100
AcDbEntity
  8
0
  6
Continuous
 62
     8
370
    18
100
AcDbCircle
 10
475.0661318758
 20
535.6874570876
 30
0.0
 40
41.49460118855537
100
AcDbArc
 50
174.2349590329
 51
176.7084792305
  0
ARC
  5
265
330
1F
100
AcDbEntity
  8
0
  6
Continuous
 62
     8
370
    18
100
AcDbCircle
 10
473.8327725914
 20
554.3708281841
 30
0.0
 40
40.14690493794946
100
AcDbArc
 50
177.018984006
 51
179.5563870242
  0
LWPOLYLINE
  5
266
330
1F
100
AcDbEntity
  8
0
  6
Continuous
 62
     8
370
    18
100
AcDbPolyline
 90
        3
 70
   128
 43
0.0
 10
433.687070979
 20
554.6816627723
 10
433.6879874004
 20
554.6144138318
 10
433.690729214
 20
554.6084533673
  0
ARC
  5
267
330
1F
100
AcDbEntity
  8
0
  6
Continuous
 62
     8
370
    18
100
AcDbCircle
 10
408.6341437771
 20
411.5962034741
 30
0.0
 40
0.1982604471342017
100
AcDbArc
 50
179.4945239972
 51
269.4853201806
  0
LINE
  5
268
330
1F
100
AcDbEntity
  8
0
  6
Continuous
 62
     8
370
    18
100
AcDbLine
 10
408.4951175732
 20
411.0479506892
 30
0.0
 11
408.4263263626
 21
411.0479506892
 31
0.0
  0
ARC
  5
269
330
1F
100
AcDbEntity
  8
0
  6
Continuous
 62
     8
370
    18
100
AcDbCircle
 10
408.6246565809
 20
411.0496222836
 30
0.0
 40
0.1983372468429599
100
AcDbArc
 50
90.4922032141
 51
180.4823587925
  0
LINE
  5
26A
330
1F
100
AcDbEntity
  8
0
  6
Continuous
 62
     8
370
    18
100
AcDbLine
 10
408.5202874971
 20
411.0479525518
 30
0.0
 11
408.4951175732
 21
411.0479525518
 31
0.0
  0
ARC
  5
26B
330
1F
100
AcDbEntity
  8
0
  6
Continuous
 62
     8
370
    18
100
AcDbCircle
 10
408.9723514347
 20
408.553879282
 30
0.0
 40
0.3210722909733604
100
AcDbArc
 50
187.1552321566
 51
252.3319327459
  0
LINE
  5
26C
330
1F
100
AcDbEntity
  8
0
  6
Continuous
 62
     8
370
    18
100
AcDbLine
 10
408.6229509098
 20
408.7479527336
 30
0.0
 11
408.4263263626
 21
408.7479527336
 31
0.0
  0
LINE
  5
26D
330
1F
100
AcDbEntity
  8
0
  6
Continuous
 62
     8
370
    18
100
AcDbLine
 10
408.4263263626
 20
408.747950871
 30
0.0
 11
408.4263263626
 21
411.0479525518
 31
0.0
  0
LINE
  5
26E
330
1F
100
AcDbEntity
  8
0
  6
Continuous
 62
     8
370
    18
100
AcDbLine
 10
408.4263263626
 20
408.747950871
 30
0.0
 11
408.2154320909
 21
408.747950871
 31
0.0
  0
LINE
  5
26F
330
1F
100
AcDbEntity
  8
0
  6
Continuous
 62
     8
370
    18
100
AcDbLine
 10
408.4263263626
 20
411.0479525518
 30
0.0
 11
408.2154078765
 21
411.0479525518
 31
0.0
  0
LINE
  5
270
330
1F
100
AcDbEntity
  8
0
  6
Continuous
 62
     8
370
    18
100
AcDbLine
 10
430.125056429
 20
407.2479515564
 30
0.0
 11
430.1036509109
 21
407.2479515564
 31
0.0
  0
LINE
  5
271
330
1F
100
AcDbEntity
  8
0
  6
Continuous
 62
     8
370
    18
100
AcDbLine
 10
430.1036509109
 20
407.2479515564
 30
0.0
 11
430.0039397908
 21
407.2479515564
 31
0.0
  0
LINE
  5
272
330
1F
100
AcDbEntity
  8
0
  6
Continuous
 62
     8
370
    18
100
AcDbLine
 10
430.1309088601
 20
406.3004612219
 30
0.0
 11
430.1175611449
 21
406.3004612219
 31
0.0
  0
LINE
  5
273
330
1F
100
AcDbEntity
  8
0
  6
Continuous
 62
     7
370
    25
100
AcDbLine
 10
179.8467567555
 20
372.2058630776
 30
0.0
 11
179.8467567555
 21
366.7479514372
 31
0.0
  0
LINE
  5
274
330
1F
100
AcDbEntity
  8
0
  6
Continuous
 62
     7
370
    25
100
AcDbLine
 10
195.8467575155
 20
366.7479514372
 30
0.0
 11
195.8467575155
 21
372.3176497263
 31
0.0
  0
LINE
  5
275
330
1F
100
AcDbEntity
  8
0
  6
Continuous
 62
     7
370
    25
100
AcDbLine
 10
180.8467569195
 20
366.7479514372
 30
0.0
 11
180.8467569195
 21
281.7479486805
 31
0.0
  0
LINE
  5
276
330
1F
100
AcDbEntity
  8
0
  6
Continuous
 62
     7
370
    25
100
AcDbLine
 10
194.8467573516
 20
281.7479486805
 30
0.0
 11
194.8467573516
 21
366.7479514372
 31
0.0
  0
LWPOLYLINE
  5
277
330
1F
100
AcDbEntity
  8
0
  6
Continuous
 62
     7
370
    25
100
AcDbPolyline
 90
        3
 70
   128
 43
0.0
 10
172.5576833255
 20
403.5415242654
 10
172.5565825023
 20
403.5402194825
 10
172.5417511903
 20
403.5226100352
  0
ARC
  5
278
330
1F
100
AcDbEntity
  8
0
  6
Continuous
 62
     7
370
    25
100
AcDbCircle
 10
175.8467571355
 20
408.8479518157
 30
0.0
 40
0.5
100
AcDbArc
 50
180.000000312
 51
270.0
  0
ARC
  5
279
330
1F
100
AcDbEntity
  8
0
  6
Continuous
 62
     7
370
    25
100
AcDbCircle
 10
199.8467571355
 20
408.8479518157
 30
0.0
 40
0.5
100
AcDbArc
 50
270.0
 51
359.999999688
  0
ARC
  5
27A
330
1F
100
AcDbEntity
  8
0
  6
Continuous
 62
     7
370
    25
100
AcDbCircle
 10
175.5467571355
 20
605.6479518157
 30
0.0
 40
0.2000000000000455
100
AcDbArc
 50
90.0
 51
180.0
  0
ARC
  5
27B
330
1F
100
AcDbEntity
  8
0
  6
Continuous
 62
     7
370
    25
100
AcDbCircle
 10
200.1467571355
 20
605.6479518157
 30
0.0
 40
0.2000000000000455
100
AcDbArc
 50
0.0
 51
90.0
  0
LINE
  5
27C
330
1F
100
AcDbEntity
  8
0
  6
Continuous
 62
     7
370
    25
100
AcDbLine
 10
175.3467569493
 20
605.647955392
 30
0.0
 11
175.3467569493
 21
408.8479525638
 31
0.0
  0
LINE
  5
27D
330
1F
100
AcDbEntity
  8
0
  6
Continuous
 62
     7
370
    25
100
AcDbLine
 10
200.3467573218
 20
408.8479525638
 30
0.0
 11
200.3467573218
 21
605.647955392
 31
0.0
  0
LINE
  5
27E
330
1F
100
AcDbEntity
  8
0
  6
Continuous
 62
     7
370
    25
100
AcDbLine
 10
200.1467567302
 20
605.8479587775
 30
0.0
 11
200.1297917582
 21
607.7919940692
 31
0.0
  0
LINE
  5
27F
330
1F
100
AcDbEntity
  8
0
  6
Continuous
 62
     7
370
    25
100
AcDbLine
 10
175.5637225128
 20
607.7919940692
 30
0.0
 11
175.5467575408
 21
605.8479587775
 31
0.0
  0
ARC
  5
280
330
1F
100
AcDbEntity
  8
0
  6
Continuous
 62
     7
370
    25
100
AcDbCircle
 10
199.6298107301
 20
607.7876358637
 30
0.0
 40
0.4999999999999989
100
AcDbArc
 50
0.4999999944
 51
85.525649374
  0
ARC
  5
281
330
1F
100
AcDbEntity
  8
0
  6
Continuous
 62
     7
370
    25
100
AcDbCircle
 10
176.063703541
 20
607.7876358637
 30
0.0
 40
0.4999999999999705
100
AcDbArc
 50
94.4743506259
 51
179.5000000056
  0
ARC
  5
282
330
1F
100
AcDbEntity
  8
0
  6
Continuous
 62
     7
370
    25
100
AcDbCircle
 10
187.8467571355
 20
457.2079518157
 30
0.0
 40
151.5400000000129
100
AcDbArc
 50
85.5256493734
 51
90.0
  0
ARC
  5
283
330
1F
100
AcDbEntity
  8
0
  6
Continuous
 62
     7
370
    25
100
AcDbCircle
 10
187.8467571355
 20
457.2079518157
 30
0.0
 40
151.5400000000129
100
AcDbArc
 50
90.0
 51
94.4743506266
  0
LINE
  5
284
330
1F
100
AcDbEntity
  8
0
  6
Continuous
 62
     7
370
    25
100
AcDbLine
 10
199.3467571579
 20
403.6479520839
 30
0.0
 11
199.0788082026
 21
404.6479522478
 31
0.0
  0
LINE
  5
285
330
1F
100
AcDbEntity
  8
0
  6
Continuous
 62
     7
370
    25
100
AcDbLine
 10
176.6147060685
 20
404.6479522478
 30
0.0
 11
176.3467571132
 21
403.6479520839
 31
0.0
  0
ARC
  5
286
330
1F
100
AcDbEntity
  8
0
  6
Continuous
 62
     7
370
    25
100
AcDbCircle
 10
176.8967571355
 20
408.7479518157
 30
0.0
 40
0.5
100
AcDbArc
 50
234.4911699051
 51
270.0
  0
ARC
  5
287
330
1F
100
AcDbEntity
  8
0
  6
Continuous
 62
     7
370
    25
100
AcDbCircle
 10
198.7967571355
 20
408.7479518157
 30
0.0
 40
0.5000000000000228
100
AcDbArc
 50
270.0
 51
305.278872595
  0
ARC
  5
288
330
1F
100
AcDbEntity
  8
0
  6
Continuous
 62
     7
370
    25
100
AcDbCircle
 10
198.0552783833
 20
405.1939539746
 30
0.0
 40
0.2634895157660092
100
AcDbArc
 50
295.098746769
 51
65.0089963615
  0
LWPOLYLINE
  5
289
330
1F
100
AcDbEntity
  8
0
  6
Continuous
 62
     7
370
    25
100
AcDbPolyline
 90
        3
 70
   128
 43
0.0
 10
178.5601467259
 20
405.0645943028
 10
178.0393083013
 20
404.7928604525
 10
177.8635314099
 20
404.7011689511
  0
LWPOLYLINE
  5
28A
330
1F
100
AcDbEntity
  8
0
  6
Continuous
 62
     7
370
    25
100
AcDbPolyline
 90
        3
 70
   128
 43
0.0
 10
198.1770541884
 20
405.427391943
 10
197.6560220487
 20
405.6991257933
 10
197.1622571714
 20
405.9566830513
  0
ARC
  5
28B
330
1F
100
AcDbEntity
  8
0
  6
Continuous
 62
     7
370
    25
100
AcDbCircle
 10
177.5312571355
 20
407.2479518157
 30
0.0
 40
1.0
100
AcDbArc
 50
0.0
 51
90.0
  0
ARC
  5
28C
330
1F
100
AcDbEntity
  8
0
  6
Continuous
 62
     7
370
    25
100
AcDbCircle
 10
198.1622571355
 20
407.2479518157
 30
0.0
 40
1.0
100
AcDbArc
 50
90.0
 51
180.0
  0
LWPOLYLINE
  5
28D
330
1F
100
AcDbEntity
  8
0
  6
Continuous
 62
     7
370
    25
100
AcDbPolyline
 90
        3
 70
   128
 43
0.0
 10
197.4628247686
 20
404.588003945
 10
197.6567484803
 20
404.6891483706
 10
198.1783990182
 20
404.9612128404
  0
LINE
  5
28E
330
1F
100
AcDbEntity
  8
0
  6
Continuous
 62
     7
370
    25
100
AcDbLine
 10
187.7221975578
 20
406.5068572056
 30
0.0
 11
187.722205576
 21
406.5068572056
 31
0.0
  0
LINE
  5
28F
330
1F
100
AcDbEntity
  8
0
  6
Continuous
 62
     7
370
    25
100
AcDbLine
 10
178.5312570996
 20
407.2479515564
 30
0.0
 11
178.5312570996
 21
405.0495217782
 31
0.0
  0
LINE
  5
290
330
1F
100
AcDbEntity
  8
0
  6
Continuous
 62
     7
370
    25
100
AcDbLine
 10
197.1622571714
 20
405.9484455031
 30
0.0
 11
197.1622571714
 21
407.2479515564
 31
0.0
  0
LINE
  5
291
330
1F
100
AcDbEntity
  8
0
  6
Continuous
 62
     7
370
    25
100
AcDbLine
 10
179.8467567555
 20
366.7479514372
 30
0.0
 11
195.8467575155
 21
366.7479514372
 31
0.0
  0
LINE
  5
292
330
1F
100
AcDbEntity
  8
0
  6
Continuous
 62
     7
370
    25
100
AcDbLine
 10
180.8467569195
 20
281.7479486805
 30
0.0
 11
194.8467573516
 21
281.7479486805
 31
0.0
  0
ARC
  5
293
330
1F
100
AcDbEntity
  8
0
  6
Continuous
 62
     7
370
    25
100
AcDbCircle
 10
187.8467571355
 20
390.6479518157
 30
0.0
 40
19.99999999999998
100
AcDbArc
 50
142.4728673939
 51
37.5271326061
  0
LINE
  5
294
330
1F
100
AcDbEntity
  8
0
  6
Continuous
 62
     7
370
    25
100
AcDbLine
 10
172.7868762232
 20
403.6479520839
 30
0.0
 11
202.9066380478
 21
403.6479520839
 31
0.0
  0
ARC
  5
295
330
1F
100
AcDbEntity
  8
0
  6
Continuous
 62
     7
370
    25
100
AcDbCircle
 10
202.9066376131
 20
403.3479518157
 30
0.0
 40
0.3000000000000238
100
AcDbArc
 50
40.1409415161
 51
90.0
  0
ARC
  5
296
330
1F
100
AcDbEntity
  8
0
  6
Continuous
 62
     7
370
    25
100
AcDbCircle
 10
187.8359727162
 20
390.6392851891
 30
0.0
 40
20.01383168824839
100
AcDbArc
 50
37.5280045301
 51
40.1400046396
  0
ARC
  5
297
330
1F
100
AcDbEntity
  8
0
  6
Continuous
 62
     7
370
    25
100
AcDbCircle
 10
187.8494347939
 20
390.6458111176
 30
0.0
 40
20.00342731304141
100
AcDbArc
 50
139.8593159533
 51
142.472674877
  0
ARC
  5
298
330
1F
100
AcDbEntity
  8
0
  6
Continuous
 62
     7
370
    25
100
AcDbCircle
 10
172.7868766579
 20
403.3479518157
 30
0.0
 40
0.3000000000000114
100
AcDbArc
 50
90.0
 51
139.8590584839
  0
ARC
  5
299
330
1F
100
AcDbEntity
  8
0
  6
Continuous
 62
     7
370
    25
100
AcDbCircle
 10
190.0064049976
 20
533.4869814963
 30
0.0
 40
1.222292090096734
100
AcDbArc
 50
276.903057932
 51
97.271241466
  0
ARC
  5
29A
330
1F
100
AcDbEntity
  8
0
  6
Continuous
 62
     7
370
    25
100
AcDbCircle
 10
185.6884407267
 20
588.6876994202
 30
0.0
 40
1.22419328022953
100
AcDbArc
 50
98.4967708766
 51
278.7389017765
  0
ARC
  5
29B
330
1F
100
AcDbEntity
  8
0
  6
Continuous
 62
     7
370
    25
100
AcDbCircle
 10
190.0050750523
 20
539.0081971442
 30
0.0
 40
1.224193283453215
100
AcDbArc
 50
278.4966994928
 51
98.7389731603
  0
ARC
  5
29C
330
1F
100
AcDbEntity
  8
0
  6
Continuous
 62
     7
370
    25
100
AcDbCircle
 10
185.6921564446
 20
577.5963025419
 30
0.0
 40
1.226878569773659
100
AcDbArc
 50
285.004047604
 51
105.0708011779
  0
CIRCLE
  5
29D
330
1F
100
AcDbEntity
  8
0
  6
Continuous
 62
     7
370
    25
100
AcDbCircle
 10
190.0053416408
 20
533.555383441
 30
0.0
 40
1.284968757730597
  0
CIRCLE
  5
29E
330
1F
100
AcDbEntity
  8
0
  6
Continuous
 62
     7
370
    25
100
AcDbCircle
 10
185.6786327889
 20
533.5291498331
 30
0.0
 40
1.275055595369432
  0
CIRCLE
  5
29F
330
1F
100
AcDbEntity
  8
0
  6
Continuous
 62
     7
370
    25
100
AcDbCircle
 10
185.6706251595
 20
588.652646461
 30
0.0
 40
1.27996310029101
  0
CIRCLE
  5
2A0
330
1F
100
AcDbEntity
  8
0
  6
Continuous
 62
     7
370
    25
100
AcDbCircle
 10
185.6795363744
 20
539.0438997324
 30
0.0
 40
1.274151340255899
  0
CIRCLE
  5
2A1
330
1F
100
AcDbEntity
  8
0
  6
Continuous
 62
     7
370
    25
100
AcDbCircle
 10
190.0089385827
 20
539.0651019819
 30
0.0
 40
1.282349812813847
  0
CIRCLE
  5
2A2
330
1F
100
AcDbEntity
  8
0
  6
Continuous
 62
     7
370
    25
100
AcDbCircle
 10
190.0288257669
 20
583.1242451952
 30
0.0
 40
1.271732998365402
  0
CIRCLE
  5
2A3
330
1F
100
AcDbEntity
  8
0
  6
Continuous
 62
     7
370
    25
100
AcDbCircle
 10
185.6800329188
 20
544.5582444324
 30
0.0
 40
1.273588048342519
  0
CIRCLE
  5
2A4
330
1F
100
AcDbEntity
  8
0
  6
Continuous
 62
     7
370
    25
100
AcDbCircle
 10
190.0122916754
 20
544.5745496195
 30
0.0
 40
1.280026409862958
  0
CIRCLE
  5
2A5
330
1F
100
AcDbEntity
  8
0
  6
Continuous
 62
     7
370
    25
100
AcDbCircle
 10
185.6730156872
 20
583.1404839279
 30
0.0
 40
1.278195395878883
  0
CIRCLE
  5
2A6
330
1F
100
AcDbEntity
  8
0
  6
Continuous
 62
     7
370
    25
100
AcDbCircle
 10
190.0153633282
 20
550.1337236466
 30
0.0
 40
1.2780048648107
  0
CIRCLE
  5
2A7
330
1F
100
AcDbEntity
  8
0
  6
Continuous
 62
     7
370
    25
100
AcDbCircle
 10
190.0272852039
 20
577.5661572005
 30
0.0
 40
1.272040117554231
  0
CIRCLE
  5
2A8
330
1F
100
AcDbEntity
  8
0
  6
Continuous
 62
     7
370
    25
100
AcDbCircle
 10
185.6801893526
 20
550.1222537175
 30
0.0
 40
1.273320114184915
  0
CIRCLE
  5
2A9
330
1F
100
AcDbEntity
  8
0
  6
Continuous
 62
     7
370
    25
100
AcDbCircle
 10
185.6751370323
 20
577.5781969293
 30
0.0
 40
1.276668551567057
  0
CIRCLE
  5
2AA
330
1F
100
AcDbEntity
  8
0
  6
Continuous
 62
     7
370
    25
100
AcDbCircle
 10
185.6768639211
 20
572.1456768161
 30
0.0
 40
1.275430984476221
  0
CIRCLE
  5
2AB
330
1F
100
AcDbEntity
  8
0
  6
Continuous
 62
     7
370
    25
100
AcDbCircle
 10
190.0181543099
 20
555.5626440448
 30
0.0
 40
1.276282021979001
  0
CIRCLE
  5
2AC
330
1F
100
AcDbEntity
  8
0
  6
Continuous
 62
     7
370
    25
100
AcDbCircle
 10
185.6799806748
 20
555.5559256281
 30
0.0
 40
1.273356508129111
  0
CIRCLE
  5
2AD
330
1F
100
AcDbEntity
  8
0
  6
Continuous
 62
     7
370
    25
100
AcDbCircle
 10
190.0255092806
 20
572.1379575491
 30
0.0
 40
1.272615891740285
  0
CIRCLE
  5
2AE
330
1F
100
AcDbEntity
  8
0
  6
Continuous
 62
     7
370
    25
100
AcDbCircle
 10
185.6793918412
 20
561.0892710981
 30
0.0
 40
1.273690671765021
  0
CIRCLE
  5
2AF
330
1F
100
AcDbEntity
  8
0
  6
Continuous
 62
     7
370
    25
100
AcDbCircle
 10
190.0234676091
 20
566.609590901
 30
0.0
 40
1.27345622539189
  0
CIRCLE
  5
2B0
330
1F
100
AcDbEntity
  8
0
  6
Continuous
 62
     7
370
    25
100
AcDbCircle
 10
190.0206997039
 20
561.0913603934
 30
0.0
 40
1.274839818213337
  0
CIRCLE
  5
2B1
330
1F
100
AcDbEntity
  8
0
  6
Continuous
 62
     7
370
    25
100
AcDbCircle
 10
185.6782150249
 20
566.6129122019
 30
0.0
 40
1.274472751549102
  0
LINE
  5
2B2
330
1F
100
AcDbEntity
  8
0
  6
Continuous
 62
     7
370
    25
100
AcDbLine
 10
175.8547412596
 20
408.3479515505
 30
0.0
 11
199.8147691034
 21
408.3479515505
 31
0.0
  0
LINE
  5
2B3
330
1F
100
AcDbEntity
  8
0
  6
Continuous
 62
     7
370
    25
100
AcDbLine
 10
175.5467575408
 20
605.8479587775
 30
0.0
 11
200.1467567302
 21
605.8479587775
 31
0.0
  0
CIRCLE
  5
2B4
330
1F
100
AcDbEntity
  8
0
  6
Continuous
 62
     7
370
    25
100
AcDbCircle
 10
181.33253268
 20
555.5830552957
 30
0.0
 40
1.286551917386604
  0
LWPOLYLINE
  5
2B5
330
1F
100
AcDbEntity
  8
0
  6
Continuous
 62
     7
370
    25
100
AcDbPolyline
 90
       20
 70
   128
 43
0.0
 10
182.2402748644
 20
549.1598735791
 10
181.8836733132
 20
548.9143173438
 10
181.4856414117
 20
548.8079826575
 10
181.0416748181
 20
548.8448630315
 10
180.5956104204
 20
549.06094477
 10
180.2388389028
 20
549.4603107911
 10
180.0936065979
 20
549.8165081483
 10
180.0562526464
 20
550.2167831403
 10
180.1244589865
 20
550.5610893708
 10
180.2743646681
 20
550.8592169028
 10
180.5169541754
 20
551.1220286828
 10
180.8719599053
 20
551.3220767718
 10
181.3344276875
 20
551.3963590604
 10
181.8340645537
 20
551.2812028867
 10
182.2530018531
 20
550.9827922326
 10
182.5152445949
 20
550.5801330548
 10
182.615454904
 20
550.1516054612
 10
182.5764068767
 20
549.7440139991
 10
182.4213323548
 20
549.3850003224
 10
182.2402748644
 20
549.1598735791
  0
LWPOLYLINE
  5
2B6
330
1F
100
AcDbEntity
  8
0
  6
Continuous
 62
     7
370
    25
100
AcDbPolyline
 90
       20
 70
   128
 43
0.0
 10
180.2772745855
 20
538.365353201
 10
180.1109617941
 20
538.7246052962
 10
180.0536593787
 20
539.1370098334
 10
180.1110833317
 20
539.4961725217
 10
180.2507235102
 20
539.7955815536
 10
180.4769883297
 20
540.0551746827
 10
180.8089526735
 20
540.2566085797
 10
181.2495599866
 20
540.3456728202
 10
181.746109984
 20
540.2570258123
 10
182.1881208002
 20
539.9783293944
 10
182.483416646
 20
539.5762960654
 10
182.6101808242
 20
539.1366373044
 10
182.5886127904
 20
538.7169908029
 10
182.4463420912
 20
538.3497367841
 10
182.2066392183
 20
538.0545000774
 10
181.8864309594
 20
537.8471802217
 10
181.4990007683
 20
537.7479086858
 10
181.0627757937
 20
537.7870242339
 10
180.6188022151
 20
538.001958583
 10
180.2772745855
 20
538.365353201
  0
LWPOLYLINE
  5
2B7
330
1F
100
AcDbEntity
  8
0
  6
Continuous
 62
     7
370
    25
100
AcDbPolyline
 90
       20
 70
   128
 43
0.0
 10
180.2758827239
 20
532.8754077893
 10
180.1091242946
 20
533.2408438665
 10
180.0535369098
 20
533.6595068914
 10
180.114375557
 20
534.0200106841
 10
180.2568711705
 20
534.316558693
 10
180.4847574226
 20
534.5706532937
 10
180.8165988318
 20
534.7648005229
 10
181.2552284814
 20
534.8462204677
 10
181.7494776465
 20
534.7511510593
 10
182.1909352571
 20
534.466777299
 10
182.4863754578
 20
534.0582768661
 10
182.6113431148
 20
533.6125682336
 10
182.5858355865
 20
533.1900309068
 10
182.4394069977
 20
532.8242073995
 10
182.1972472958
 20
532.5338880759
 10
181.8770353116
 20
532.3332588416
 10
181.4916340068
 20
532.2409312469
 10
181.0582719177
 20
532.2863499862
 10
180.61638683
 20
532.5071106893
 10
180.2758827239
 20
532.8754077893
  0
LWPOLYLINE
  5
2B8
330
1F
100
AcDbEntity
  8
0
  6
Continuous
 62
     7
370
    25
100
AcDbPolyline
 90
       20
 70
   128
 43
0.0
 10
195.4101413853
 20
532.8638146859
 10
195.0176559754
 20
532.4646870834
 10
194.583478979
 20
532.2728048307
 10
194.0611835003
 20
532.2592000705
 10
193.5943575941
 20
532.4567596656
 10
193.2776110612
 20
532.7865074617
 10
193.1128931597
 20
533.168051694
 10
193.0781301476
 20
533.5639308435
 10
193.1617768846
 20
533.951405738
 10
193.3583781488
 20
534.3058149558
 10
193.6610919788
 20
534.5973263723
 10
194.0563131489
 20
534.7903709155
 10
194.5166766077
 20
534.843478654
 10
194.988198708
 20
534.7154180747
 10
195.3775911957
 20
534.3978892308
 10
195.5573466971
 20
534.0818207008
 10
195.6380588367
 20
533.7048064214
 10
195.6129145242
 20
533.3556424123
 10
195.5025369666
 20
533.0278019649
 10
195.4101413853
 20
532.8638146859
  0
LWPOLYLINE
  5
2B9
330
1F
100
AcDbEntity
  8
0
  6
Continuous
 62
     7
370
    25
100
AcDbPolyline
 90
       20
 70
   128
 43
0.0
 10
195.4122787706
 20
538.3592735273
 10
195.0175265215
 20
537.9619936687
 10
194.5888471223
 20
537.7765040141
 10
194.0700753025
 20
537.7651493293
 10
193.6013257496
 20
537.9633794767
 10
193.2800073541
 20
538.2964502317
 10
193.1129024729
 20
538.6824499112
 10
193.0783997655
 20
539.0808324557
 10
193.1632306792
 20
539.4676069957
 10
193.3601304322
 20
539.8183952314
 10
193.6611459955
 20
540.1047061425
 10
194.0527229003
 20
540.292773698
 10
194.5089592032
 20
540.3427670938
 10
194.9786526516
 20
540.2139316541
 10
195.3710747316
 20
539.895270322
 10
195.554729215
 20
539.5755510074
 10
195.6376644216
 20
539.1931425077
 10
195.6121657409
 20
538.8418625337
 10
195.5013974935
 20
538.5163615686
 10
195.4122787706
 20
538.3592735273
  0
LWPOLYLINE
  5
2BA
330
1F
100
AcDbEntity
  8
0
  6
Continuous
 62
     7
370
    25
100
AcDbPolyline
 90
       20
 70
   128
 43
0.0
 10
195.4141954325
 20
543.8639859897
 10
195.0170985788
 20
543.4686730844
 10
194.5936890684
 20
543.2895015222
 10
194.0784227468
 20
543.2806204301
 10
193.6080256842
 20
543.479729746
 10
193.2823193624
 20
543.8161979657
 10
193.112863823
 20
544.2068170053
 10
193.0786810249
 20
544.6079115611
 10
193.1648157902
 20
544.9941794616
 10
193.3621732883
 20
545.3415106279
 10
193.6616721928
 20
545.6227104407
 10
194.0497743331
 20
545.805771206
 10
194.501960314
 20
545.8525161487
 10
194.9696910001
 20
545.7226227265
 10
195.3648115873
 20
545.4026947957
 10
195.5523305937
 20
545.0789968711
 10
195.6373719863
 20
544.690911029
 10
195.6113303445
 20
544.3373064738
 10
195.499939508
 20
544.0139959794
 10
195.4141954325
 20
543.8639859897
  0
LWPOLYLINE
  5
2BB
330
1F
100
AcDbEntity
  8
0
  6
Continuous
 62
     7
370
    25
100
AcDbPolyline
 90
       20
 70
   128
 43
0.0
 10
195.4179924346
 20
554.8922310811
 10
195.0931499146
 20
554.5526038152
 10
194.6911054097
 20
554.3558190805
 10
194.1914210461
 20
554.3146918756
 10
193.7017232545
 20
554.4796179277
 10
193.337438292
 20
554.8034350616
 10
193.1341873847
 20
555.1979135018
 10
193.0757450305
 20
555.6062947255
 10
193.1426945507
 20
555.998016451
 10
193.321487996
 20
556.3492219192
 10
193.6007273748
 20
556.6356520396
 10
193.9675790623
 20
556.8297843677
 10
194.4024238169
 20
556.8979124766
 10
194.8672408603
 20
556.8006376964
 10
195.2873213582
 20
556.5120320064
 10
195.513466037
 20
556.1845193845
 10
195.6309994116
 20
555.7747076493
 10
195.620780009
 20
555.4048757297
 10
195.5219657525
 20
555.0807158691
 10
195.4179924346
 20
554.8922310811
  0
CIRCLE
  5
2BC
330
1F
100
AcDbEntity
  8
0
  6
Continuous
 62
     7
370
    25
100
AcDbCircle
 10
194.3429878332
 20
561.1033206379
 30
0.0
 40
1.294052328046234
  0
CIRCLE
  5
2BD
330
1F
100
AcDbEntity
  8
0
  6
Continuous
 62
     7
370
    25
100
AcDbCircle
 10
194.3473600139
 20
566.5772543493
 30
0.0
 40
1.291275582447619
  0
CIRCLE
  5
2BE
330
1F
100
AcDbEntity
  8
0
  6
Continuous
 62
     7
370
    25
100
AcDbCircle
 10
194.3506019836
 20
572.0687186232
 30
0.0
 40
1.289425536825092
  0
LWPOLYLINE
  5
2BF
330
1F
100
AcDbEntity
  8
0
  6
Continuous
 62
     7
370
    25
100
AcDbPolyline
 90
       20
 70
   128
 43
0.0
 10
195.4193456463
 20
576.8369774562
 10
195.1069702759
 20
576.5216092807
 10
194.7239163697
 20
576.3429592591
 10
194.2440659173
 20
576.3078372222
 10
193.7525166563
 20
576.4689336759
 10
193.3656438619
 20
576.7993073207
 10
193.1417520523
 20
577.2136341077
 10
193.0756127827
 20
577.6405374747
 10
193.1430843092
 20
578.0390690309
 10
193.3219038315
 20
578.3840011102
 10
193.5944623679
 20
578.6558429938
 10
193.9465865858
 20
578.8344036084
 10
194.3628412105
 20
578.8930247766
 10
194.8150518715
 20
578.7958543044
 10
195.2420139119
 20
578.510541771
 10
195.495813749
 20
578.159902547
 10
195.6166812584
 20
577.8025876027
 10
195.6315549455
 20
577.4123559934
 10
195.5481657192
 20
577.0787189942
 10
195.4193456463
 20
576.8369774562
  0
LWPOLYLINE
  5
2C0
330
1F
100
AcDbEntity
  8
0
  6
Continuous
 62
     7
370
    25
100
AcDbPolyline
 90
       20
 70
   128
 43
0.0
 10
195.4162778698
 20
587.8609161121
 10
195.1071360513
 20
587.5574092609
 10
194.7303955808
 20
587.3888175231
 10
194.2587938525
 20
587.360147689
 10
193.7686294682
 20
587.5235240203
 10
193.3746190175
 20
587.8591130715
 10
193.143367897
 20
588.2841537934
 10
193.0755610943
 20
588.7213985664
 10
193.1455783911
 20
589.1242365581
 10
193.3268323906
 20
589.4663672191
 10
193.5984535508
 20
589.7305052024
 10
193.9454787776
 20
589.9000655156
 10
194.3541282221
 20
589.9515192252
 10
194.80006596
 20
589.8505936605
 10
195.2274964556
 20
589.5629714471
 10
195.4918840334
 20
589.1987721664
 10
195.6163809068
 20
588.8327400428
 10
195.6314860277
 20
588.4323607427
 10
195.5453247197
 20
588.0968014938
 10
195.4162778698
 20
587.8609161121
  0
LWPOLYLINE
  5
2C1
330
1F
100
AcDbEntity
  8
0
  6
Continuous
 62
     7
370
    25
100
AcDbPolyline
 90
       20
 70
   128
 43
0.0
 10
195.4098186821
 20
593.3405946237
 10
195.0992337793
 20
593.0444936496
 10
194.7229482598
 20
592.8834717017
 10
194.2537037089
 20
592.862237547
 10
193.7653488844
 20
593.0317084533
 10
193.3714203901
 20
593.3733175737
 10
193.1406624049
 20
593.8050042134
 10
193.0757156938
 20
594.2473749858
 10
193.1501185886
 20
594.6514646751
 10
193.3351411849
 20
594.9906002027
 10
193.6083777241
 20
595.2488820296
 10
193.9545954942
 20
595.4114089948
 10
194.3607727431
 20
595.4560230714
 10
194.80395656
 20
595.3489135247
 10
195.2299146347
 20
595.0552265388
 10
195.4951934881
 20
594.6831892472
 10
195.6182216659
 20
594.3127910834
 10
195.6305272311
 20
593.9088504058
 10
195.5410248033
 20
593.5736338836
 10
195.4098186821
 20
593.3405946237
  0
LWPOLYLINE
  5
2C2
330
1F
100
AcDbEntity
  8
0
  6
Continuous
 62
     7
370
    25
100
AcDbPolyline
 90
       20
 70
   128
 43
0.0
 10
180.2862767495
 20
593.3370332461
 10
180.1238936737
 20
593.6476032477
 10
180.0544365674
 20
594.0106253368
 10
180.084219332
 20
594.3574647647
 10
180.1991142697
 20
594.6847836715
 10
180.4128667705
 20
595.0012247306
 10
180.7523976445
 20
595.2792058927
 10
181.2215183295
 20
595.4446385842
 10
181.744007989
 20
595.409948681
 10
182.1823517225
 20
595.1748232585
 10
182.4640418768
 20
594.8286096793
 10
182.59874558
 20
594.4417159301
 10
182.6069896474
 20
594.0457622748
 10
182.4982293315
 20
593.663249467
 10
182.2776912145
 20
593.3198522073
 10
181.9532524228
 20
593.0466096145
 10
181.5407789677
 20
592.8804318648
 10
181.0721113711
 20
592.8637574655
 10
180.6092594184
 20
593.0348973018
 10
180.2862767495
 20
593.3370332461
  0
LWPOLYLINE
  5
2C3
330
1F
100
AcDbEntity
  8
0
  6
Continuous
 62
     7
370
    25
100
AcDbPolyline
 90
       20
 70
   128
 43
0.0
 10
180.2837617129
 20
587.8517071944
 10
180.1220449984
 20
588.1662260038
 10
180.0543778941
 20
588.5328094703
 10
180.0870449647
 20
588.8803492528
 10
180.2046719372
 20
589.2047624332
 10
180.4201175824
 20
589.5152132255
 10
180.759309455
 20
589.7847901326
 10
181.2256431572
 20
589.9415354472
 10
181.7453081153
 20
589.9008850795
 10
182.1838711753
 20
589.6613787156
 10
182.466648183
 20
589.3098901254
 10
182.6002524599
 20
588.9183472139
 10
182.6053733371
 20
588.5206799251
 10
182.4931508295
 20
588.1401638728
 10
182.2705018699
 20
587.8020118219
 10
181.9462810077
 20
587.5358919841
 10
181.5362098992
 20
587.3770009023
 10
181.0707749232
 20
587.3663614732
 10
180.6097939975
 20
587.5420163613
 10
180.2837617129
 20
587.8517071944
  0
CIRCLE
  5
2C4
330
1F
100
AcDbEntity
  8
0
  6
Continuous
 62
     7
370
    25
100
AcDbCircle
 10
181.3183056923
 20
572.096922374
 30
0.0
 40
1.293594052479746
  0
CIRCLE
  5
2C5
330
1F
100
AcDbEntity
  8
0
  6
Continuous
 62
     7
370
    25
100
AcDbCircle
 10
181.3233865407
 20
566.5879786204
 30
0.0
 40
1.290936529599228
  0
CIRCLE
  5
2C6
330
1F
100
AcDbEntity
  8
0
  6
Continuous
 62
     7
370
    25
100
AcDbCircle
 10
181.3286873289
 20
561.0927484819
 30
0.0
 40
1.288294544791209
  0
LWPOLYLINE
  5
2C7
330
1F
100
AcDbEntity
  8
0
  6
Continuous
 62
     7
370
    25
100
AcDbPolyline
 90
       20
 70
   128
 43
0.0
 10
180.2762845896
 20
543.8686202508
 10
180.1116593547
 20
544.2218969804
 10
180.0538256198
 20
544.627685402
 10
180.1086148612
 20
544.9849407416
 10
180.2460259191
 20
545.2868978721
 10
180.4713989973
 20
545.5516766053
 10
180.8043677725
 20
545.7598458272
 10
181.2477313347
 20
545.8554963809
 10
181.7466552734
 20
545.7717071515
 10
182.1883005455
 20
545.4972724658
 10
182.4820862517
 20
545.1010058862
 10
182.6093496188
 20
544.6671734792
 10
182.5906025611
 20
544.2505817157
 10
182.4515807807
 20
543.8823591214
 10
182.2136353135
 20
543.5828159791
 10
181.8928691923
 20
543.3695207578
 10
181.5029411942
 20
543.2642440539
 10
181.0635692805
 20
543.2982783061
 10
180.617720484
 20
543.5089956266
 10
180.2762845896
 20
543.8686202508
  0
LWPOLYLINE
  5
2C8
330
1F
100
AcDbEntity
  8
0
  6
Continuous
 62
     7
370
    25
100
AcDbPolyline
 90
       20
 70
   128
 43
0.0
 10
195.4161721647
 20
549.3984113675
 10
195.0167567834
 20
549.0049909097
 10
194.5985352054
 20
548.8319586259
 10
194.0867767103
 20
548.8255213243
 10
193.6148830123
 20
549.0255098086
 10
193.2848031997
 20
549.3653754932
 10
193.1128819838
 20
549.760733102
 10
193.0789459862
 20
550.1647780877
 10
193.1663822748
 20
550.5507628661
 10
193.3642417557
 20
550.8948306781
 10
193.6622952476
 20
551.1710684043
 10
194.0469999231
 20
551.3492564899
 10
194.4951621249
 20
551.3927529794
 10
194.9608317941
 20
551.2617568713
 10
195.3584683493
 20
550.9405474406
 10
195.5499804012
 20
550.6126175862
 10
195.6371568508
 20
550.2185265761
 10
195.610480047
 20
549.862329219
 10
195.4983306482
 20
549.5410452825
 10
195.4161721647
 20
549.3984113675
  0
LWPOLYLINE
  5
2C9
330
1F
100
AcDbEntity
  8
0
  6
Continuous
 62
     7
370
    25
100
AcDbPolyline
 90
       20
 70
   128
 43
0.0
 10
195.4178257279
 20
582.3641012651
 10
195.1070992641
 20
582.0547233564
 10
194.7272532984
 20
581.8811546308
 10
194.2515444375
 20
581.8492214423
 10
193.7606145061
 20
582.0114056808
 10
193.3700974464
 20
582.3443721276
 10
193.1425399512
 20
582.764003728
 10
193.0755927592
 20
583.1959585887
 10
193.1443131894
 20
583.5965018016
 10
193.3242996588
 20
583.939958666
 10
193.5963422425
 20
584.2079113465
 10
193.945878315
 20
584.3819569093
 10
194.3583075322
 20
584.4370017987
 10
194.8074015222
 20
584.3380133849
 10
195.2346839376
 20
584.0515981656
 10
195.4937592514
 20
583.6943279248
 10
195.6164679855
 20
583.3327810508
 10
195.631513036
 20
582.9375873548
 10
195.5468162328
 20
582.603056286
 10
195.4178257279
 20
582.3641012651
  0
LWPOLYLINE
  5
2CA
330
1F
100
AcDbEntity
  8
0
  6
Continuous
 62
     7
370
    25
100
AcDbPolyline
 90
       20
 70
   128
 43
0.0
 10
180.2813905656
 20
582.3559354287
 10
180.1202419579
 20
582.6745371562
 10
180.0543262057
 20
583.044845913
 10
180.0898789793
 20
583.3931307536
 10
180.210204459
 20
583.7146531087
 10
180.4272827126
 20
584.0192030412
 10
180.7661001935
 20
584.280524705
 10
181.2297013953
 20
584.4288359624
 10
181.7466259368
 20
584.3822698337
 10
182.1853836432
 20
584.1383229238
 10
182.4692074574
 20
583.7814848167
 10
182.6016946129
 20
583.3852033359
 10
182.6036732077
 20
582.9857181054
 10
182.4879815236
 20
582.6071094018
 10
182.2632296376
 20
582.2741131526
 10
181.9392225139
 20
582.0150117618
 10
181.531519293
 20
581.8632881385
 10
181.0692787535
 20
581.858624075
 10
180.6101818934
 20
582.0388387185
 10
180.2813905656
 20
582.3559354287
  0
LWPOLYLINE
  5
2CB
330
1F
100
AcDbEntity
  8
0
  6
Continuous
 62
     7
370
    25
100
AcDbPolyline
 90
       20
 70
   128
 43
0.0
 10
182.1858483732
 20
576.646987651
 10
181.7345885925
 20
576.3745944244
 10
181.3033503845
 20
576.2990753394
 10
180.8354893133
 20
576.3876776439
 10
180.4129580401
 20
576.6681920034
 10
180.1851211481
 20
576.9894312364
 10
180.0641502619
 20
577.3938934547
 10
180.0698895372
 20
577.7622352582
 10
180.1644020147
 20
578.0886153918
 10
180.3480760559
 20
578.3949385625
 10
180.6435516469
 20
578.6690901261
 10
181.0661881596
 20
578.8572768909
 10
181.5756183482
 20
578.876052354
 10
182.0535907887
 20
578.6874036533
 10
182.3934280678
 20
578.3532749158
 10
182.5743798531
 20
577.9595862371
 10
182.6160896003
 20
577.5552432281
 10
182.5356372997
 20
577.1675001126
 10
182.3441638976
 20
576.8201838475
 10
182.1858483732
 20
576.646987651
  0
LINE
  5
2CC
330
1F
100
AcDbEntity
  8
0
  6
Continuous
 62
     7
370
    25
100
AcDbLine
 10
187.8467571356
 20
608.2861165744
 30
0.0
 11
187.9514885718
 21
608.2861165744
 31
0.0
  0
ARC
  5
2CD
330
1F
100
AcDbEntity
  8
0
  6
Continuous
 62
     7
370
    25
100
AcDbCircle
 10
181.3915163002
 20
544.5046065572
 30
0.0
 40
1.223515785388563
100
AcDbArc
 50
267.8755549177
 51
1.2007855126
  0
ARC
  5
2CE
330
1F
100
AcDbEntity
  8
0
  6
Continuous
 62
     7
370
    25
100
AcDbCircle
 10
181.3856115027
 20
544.508030294
 30
0.0
 40
1.225069979383815
100
AcDbArc
 50
60.8891609976
 51
241.0718472926
  0
CIRCLE
  5
2CF
330
1F
100
AcDbEntity
  8
0
  6
Continuous
 62
     7
370
    25
100
AcDbCircle
 10
194.3142339092
 20
583.2055318664
 30
0.0
 40
0.4493838052400759
  0
CIRCLE
  5
2D0
330
1F
100
AcDbEntity
  8
0
  6
Continuous
 62
     7
370
    25
100
AcDbCircle
 10
181.3771025404
 20
544.4898291335
 30
0.0
 40
0.4493812649082398
  0
CIRCLE
  5
2D1
330
1F
100
AcDbEntity
  8
0
  6
Continuous
 62
     7
370
    25
100
AcDbCircle
 10
181.3789872866
 20
583.2052785815
 30
0.0
 40
0.449636475398879
  0
CIRCLE
  5
2D2
330
1F
100
AcDbEntity
  8
0
  6
Continuous
 62
     7
370
    25
100
AcDbCircle
 10
181.3788312774
 20
577.6444516761
 30
0.0
 40
0.4497521056586303
  0
CIRCLE
  5
2D3
330
1F
100
AcDbEntity
  8
0
  6
Continuous
 62
     7
370
    25
100
AcDbCircle
 10
194.3159242294
 20
550.051025305
 30
0.0
 40
0.4497445680337968
  0
ARC
  5
2D4
330
1F
100
AcDbEntity
  8
0
  6
Continuous
 62
     7
370
    25
100
AcDbCircle
 10
181.3870299318
 20
555.5804735052
 30
0.0
 40
1.227011290015359
100
AcDbArc
 50
38.6423095589
 51
218.6960793737
  0
ARC
  5
2D5
330
1F
100
AcDbEntity
  8
0
  6
Continuous
 62
     7
370
    25
100
AcDbCircle
 10
194.3054130326
 20
555.5791371505
 30
0.0
 40
1.227009631494506
100
AcDbArc
 50
141.3133556575
 51
321.3659547348
  0
ARC
  5
2D6
330
1F
100
AcDbEntity
  8
0
  6
Continuous
 62
     7
370
    25
100
AcDbCircle
 10
194.3054151236
 20
572.1167623725
 30
0.0
 40
1.227010452809431
100
AcDbArc
 50
38.6418413439
 51
218.6957190062
  0
ARC
  5
2D7
330
1F
100
AcDbEntity
  8
0
  6
Continuous
 62
     7
370
    25
100
AcDbCircle
 10
181.3870273718
 20
572.1154268736
 30
0.0
 40
1.227009339512422
100
AcDbArc
 50
141.3138957125
 51
321.3662840262
  0
LINE
  5
2D8
330
1F
100
AcDbEntity
  8
0
  6
Continuous
 62
     7
370
    25
100
AcDbLine
 10
176.6147060685
 20
404.6479522478
 30
0.0
 11
199.0788082026
 21
404.6479522478
 31
0.0
  0
LWPOLYLINE
  5
2D9
330
1F
100
AcDbEntity
  8
0
  6
Continuous
 62
     7
370
    25
100
AcDbPolyline
 90
       32
 70
   128
 43
0.0
 10
198.1661213927
 20
405.4250412848
 10
198.1840893991
 20
405.4042765167
 10
198.104865513
 20
405.3773706075
 10
197.904407642
 20
405.3463733983
 10
197.5470060847
 20
405.3112811637
 10
196.9397735216
 20
405.2696976107
 10
195.9190905459
 20
405.2189060715
 10
195.1134280666
 20
405.1858646092
 10
194.2976546839
 20
405.1554066357
 10
193.5050707675
 20
405.1275330824
 10
192.9029846929
 20
405.1073345584
 10
192.2979379438
 20
405.0880254474
 10
191.6948132116
 20
405.0696094748
 10
191.0978959773
 20
405.0520875719
 10
190.5109150234
 20
405.0354569447
 10
189.4309299664
 20
405.005650897
 10
189.0897525141
 20
404.9962948304
 10
188.7253860027
 20
404.9861536589
 10
188.1233807785
 20
404.9689819333
 10
187.2309935993
 20
404.9432951254
 10
185.4872325334
 20
404.8930661049
 10
184.024270055
 20
404.8508222443
 10
182.9816616505
 20
404.8199768406
 10
182.1641001284
 20
404.7938364786
 10
181.2160686955
 20
404.7597072315
 10
180.7432674236
 20
404.7412502807
 10
180.3576174557
 20
404.7255863663
 10
180.0505250126
 20
404.7127238703
 10
179.6910703547
 20
404.6972573963
 10
179.4054802872
 20
404.684264515
 10
179.0678972743
 20
404.667761479
 10
178.7040695913
 20
404.6479494539
  0
ARC
  5
2DA
330
1F
100
AcDbEntity
  8
0
  6
Continuous
 62
     7
370
    25
100
AcDbCircle
 10
192.0172032872
 20
465.1350306741
 30
0.0
 40
60.48730241448785
100
AcDbArc
 50
270.1674910457
 51
275.8418484359
  0
LWPOLYLINE
  5
2DB
330
1F
100
AcDbEntity
  8
0
  6
Continuous
 62
     7
370
    25
100
AcDbPolyline
 90
       11
 70
   128
 43
0.0
 10
178.563083186
 20
405.0582780731
 10
179.2211389534
 20
405.1551495907
 10
180.8729815662
 20
405.2502013039
 10
183.3115798786
 20
405.3498500255
 10
186.2622078175
 20
405.4451634404
 10
187.8467685504
 20
405.4962660414
 10
190.3353062358
 20
405.5732864183
 10
193.1675683141
 20
405.6712392014
 10
195.3994972996
 20
405.7678750944
 10
196.7790877811
 20
405.8663540748
 10
197.0963092886
 20
405.9484455031
  0
LINE
  5
2DC
330
1F
100
AcDbEntity
  8
0
  6
Continuous
 62
     7
370
    25
100
AcDbLine
 10
188.555090585
 20
407.3479495239
 30
0.0
 11
188.3425935653
 21
407.3479495239
 31
0.0
  0
LINE
  5
2DD
330
1F
100
AcDbEntity
  8
0
  6
Continuous
 62
     7
370
    25
100
AcDbLine
 10
188.3425904803
 20
407.347938348
 30
0.0
 11
188.3425905385
 21
407.253790949
 31
0.0
  0
LWPOLYLINE
  5
2DE
330
1F
100
AcDbEntity
  8
0
  6
Continuous
 62
     7
370
    25
100
AcDbPolyline
 90
        9
 70
   128
 43
0.0
 10
188.3425905385
 20
407.253790949
 10
188.3425903639
 20
407.2530607921
 10
188.342590131
 20
407.2523306352
 10
188.3425900146
 20
407.2516023409
 10
188.3425898982
 20
407.250872184
 10
188.3425897818
 20
407.2501420271
 10
188.3425897236
 20
407.2494118702
 10
188.3425896654
 20
407.2486817133
 10
188.3425896654
 20
407.2479515564
  0
LWPOLYLINE
  5
2DF
330
1F
100
AcDbEntity
  8
0
  6
Continuous
 62
     7
370
    25
100
AcDbPolyline
 90
        3
 70
   128
 43
0.0
 10
187.518371748
 20
407.2479515564
 10
187.4922390985
 20
407.2906526965
 10
187.4571739013
 20
407.3479513866
  0
LINE
  5
2E0
330
1F
100
AcDbEntity
  8
0
  6
Continuous
 62
     7
370
    25
100
AcDbLine
 10
187.4571739013
 20
407.3479513866
 30
0.0
 11
187.1384238025
 21
407.3479513866
 31
0.0
  0
LINE
  5
2E1
330
1F
100
AcDbEntity
  8
0
  6
Continuous
 62
     7
370
    25
100
AcDbLine
 10
188.3479131052
 20
407.2479515564
 30
0.0
 11
188.3479131052
 21
405.9011436295
 31
0.0
  0
LINE
  5
2E2
330
1F
100
AcDbEntity
  8
0
  6
Continuous
 62
     7
370
    25
100
AcDbLine
 10
188.5626942517
 20
405.6479514804
 30
0.0
 11
188.5626942517
 21
407.2479515564
 31
0.0
  0
LINE
  5
2E3
330
1F
100
AcDbEntity
  8
0
  6
Continuous
 62
     7
370
    25
100
AcDbLine
 10
188.2405225611
 20
405.6479514804
 30
0.0
 11
188.5626942517
 21
405.6479514804
 31
0.0
  0
LWPOLYLINE
  5
2E4
330
1F
100
AcDbEntity
  8
0
  6
Continuous
 62
     7
370
    25
100
AcDbPolyline
 90
        3
 70
   128
 43
0.0
 10
188.2405225611
 20
405.6479514804
 10
188.0319450415
 20
405.9935867083
 10
187.8467573378
 20
406.3004612219
  0
LWPOLYLINE
  5
2E5
330
1F
100
AcDbEntity
  8
0
  6
Continuous
 62
     7
370
    25
100
AcDbPolyline
 90
        4
 70
   128
 43
0.0
 10
187.8467573378
 20
406.3004612219
 10
187.6381433817
 20
406.6461569857
 10
187.4918654344
 20
406.8885541749
 10
187.3456011658
 20
407.1309308749
  0
LINE
  5
2E6
330
1F
100
AcDbEntity
  8
0
  6
Continuous
 62
     7
370
    25
100
AcDbLine
 10
187.3456011658
 20
405.6479514804
 30
0.0
 11
187.3456011658
 21
407.1309308749
 31
0.0
  0
LINE
  5
2E7
330
1F
100
AcDbEntity
  8
0
  6
Continuous
 62
     7
370
    25
100
AcDbLine
 10
187.1308200193
 20
405.6479514804
 30
0.0
 11
187.3456011658
 21
405.6479514804
 31
0.0
  0
LINE
  5
2E8
330
1F
100
AcDbEntity
  8
0
  6
Continuous
 62
     7
370
    25
100
AcDbLine
 10
187.1308200193
 20
405.6479514804
 30
0.0
 11
187.1308200193
 21
407.2479515564
 31
0.0
  0
LINE
  5
2E9
330
1F
100
AcDbEntity
  8
0
  6
Continuous
 62
     7
370
    25
100
AcDbLine
 10
187.8467571355
 20
406.7113570166
 30
0.0
 11
187.5148465756
 21
407.2479515564
 31
0.0
  0
LINE
  5
2EA
330
1F
100
AcDbEntity
  8
0
  6
Continuous
 62
     7
370
    25
100
AcDbLine
 10
188.3479131052
 20
405.9011436295
 30
0.0
 11
187.8467571355
 21
406.7113570166
 31
0.0
  0
LINE
  5
2EB
330
1F
100
AcDbEntity
  8
0
  6
Continuous
 62
     7
370
    25
100
AcDbLine
 10
187.8467571355
 20
406.7113570166
 30
0.0
 11
188.3425904803
 21
405.9011436295
 31
0.0
  0
LINE
  5
2EC
330
1F
100
AcDbEntity
  8
0
  6
Continuous
 62
     7
370
    25
100
AcDbLine
 10
188.3425431574
 20
405.9011436295
 30
0.0
 11
188.3479131052
 21
405.9011436295
 31
0.0
  0
LINE
  5
2ED
330
1F
100
AcDbEntity
  8
0
  6
Continuous
 62
     7
370
    25
100
AcDbLine
 10
187.518371748
 20
407.2479515564
 30
0.0
 11
187.514824544
 21
407.2479515564
 31
0.0
  0
LINE
  5
2EE
330
1F
100
AcDbEntity
  8
0
  6
Continuous
 62
     7
370
    25
100
AcDbLine
 10
187.518371748
 20
407.2479515564
 30
0.0
 11
187.8467571355
 21
406.7113570166
 31
0.0
  0
LINE
  5
2EF
330
1F
100
AcDbEntity
  8
0
  6
Continuous
 62
     7
370
    25
100
AcDbLine
 10
187.8467573378
 20
406.3004612219
 30
0.0
 11
187.8467578762
 21
406.3004612219
 31
0.0
  0
LINE
  5
2F0
330
1F
100
AcDbEntity
  8
0
  6
Continuous
 62
     7
370
    25
100
AcDbLine
 10
188.236340457
 20
405.6479514804
 30
0.0
 11
188.2405225611
 21
405.6479514804
 31
0.0
  0
LWPOLYLINE
  5
2F1
330
1F
100
AcDbEntity
  8
0
  6
Continuous
 62
     7
370
    25
100
AcDbPolyline
 90
        3
 70
   128
 43
0.0
 10
188.236340457
 20
405.6479514804
 10
188.0293932322
 20
405.9945664596
 10
187.9435741053
 20
406.1383039918
  0
LINE
  5
2F2
330
1F
100
AcDbEntity
  8
0
  6
Continuous
 62
     7
370
    25
100
AcDbLine
 10
187.4530149057
 20
407.3379527074
 30
0.0
 11
187.1308622199
 21
407.3379527074
 31
0.0
  0
LINE
  5
2F3
330
1F
100
AcDbEntity
  8
0
  6
Continuous
 62
     7
370
    25
100
AcDbLine
 10
187.5148465756
 20
407.2479515564
 30
0.0
 11
187.4530149057
 21
407.3379527074
 31
0.0
  0
LINE
  5
2F4
330
1F
100
AcDbEntity
  8
0
  6
Continuous
 62
     7
370
    25
100
AcDbLine
 10
187.1308622199
 20
407.3379527074
 30
0.0
 11
187.1308200193
 21
407.2479515564
 31
0.0
  0
LINE
  5
2F5
330
1F
100
AcDbEntity
  8
0
  6
Continuous
 62
     7
370
    25
100
AcDbLine
 10
187.4530150512
 20
407.3379527074
 30
0.0
 11
187.4571739013
 21
407.3479513866
 31
0.0
  0
LINE
  5
2F6
330
1F
100
AcDbEntity
  8
0
  6
Continuous
 62
     7
370
    25
100
AcDbLine
 10
187.1384238025
 20
407.3479513866
 30
0.0
 11
187.1308117538
 21
407.3378856522
 31
0.0
  0
LINE
  5
2F7
330
1F
100
AcDbEntity
  8
0
  6
Continuous
 62
     7
370
    25
100
AcDbLine
 10
188.3425905967
 20
407.3479495239
 30
0.0
 11
188.3478835939
 21
407.3379489821
 31
0.0
  0
LINE
  5
2F8
330
1F
100
AcDbEntity
  8
0
  6
Continuous
 62
     7
370
    25
100
AcDbLine
 10
188.5626520511
 20
407.3379489821
 30
0.0
 11
188.555090585
 21
407.3479495239
 31
0.0
  0
LINE
  5
2F9
330
1F
100
AcDbEntity
  8
0
  6
Continuous
 62
     7
370
    25
100
AcDbLine
 10
188.5626520511
 20
407.3379489821
 30
0.0
 11
188.3478835939
 21
407.3379489821
 31
0.0
  0
LINE
  5
2FA
330
1F
100
AcDbEntity
  8
0
  6
Continuous
 62
     7
370
    25
100
AcDbLine
 10
188.3478835939
 20
407.3379471195
 30
0.0
 11
188.3479131052
 21
407.2479515564
 31
0.0
  0
LINE
  5
2FB
330
1F
100
AcDbEntity
  8
0
  6
Continuous
 62
     7
370
    25
100
AcDbLine
 10
188.5626942517
 20
407.2479515564
 30
0.0
 11
188.5626520511
 21
407.3379508448
 31
0.0
  0
LINE
  5
2FC
330
1F
100
AcDbEntity
  8
0
  6
Continuous
 62
     7
370
    25
100
AcDbLine
 10
188.3425904803
 20
407.2479515564
 30
0.0
 11
188.3425431574
 21
405.9011436295
 31
0.0
  0
LINE
  5
2FD
330
1F
100
AcDbEntity
  8
0
  6
Continuous
 62
     7
370
    25
100
AcDbLine
 10
187.3509237908
 20
407.1221112501
 30
0.0
 11
187.350923849
 21
405.6479514804
 31
0.0
  0
LINE
  5
2FE
330
1F
100
AcDbEntity
  8
0
  6
Continuous
 62
     7
370
    25
100
AcDbLine
 10
187.350923849
 20
405.6479514804
 30
0.0
 11
187.3456011658
 21
405.6479514804
 31
0.0
  0
LINE
  5
2FF
330
1F
100
AcDbEntity
  8
0
  6
Continuous
 62
     7
370
    25
100
AcDbLine
 10
179.8828818269
 20
372.3019252759
 30
0.0
 11
180.0745093629
 21
372.2199260485
 31
0.0
  0
ARC
  5
300
330
1F
100
AcDbEntity
  8
0
  6
Continuous
 62
     7
370
    25
100
AcDbCircle
 10
189.2200354045
 20
391.9133157007
 30
0.0
 40
18.02844371992199
100
AcDbArc
 50
40.6091674348
 51
62.8008803806
  0
ARC
  5
301
330
1F
100
AcDbEntity
  8
0
  6
Continuous
 62
     7
370
    25
100
AcDbCircle
 10
186.5309551763
 20
391.8226005925
 30
0.0
 40
18.13115120900715
100
AcDbArc
 50
117.2021468738
 51
139.2914265428
  0
ARC
  5
302
330
1F
100
AcDbEntity
  8
0
  6
Continuous
 62
     7
370
    25
100
AcDbCircle
 10
186.7941626042
 20
391.7837154032
 30
0.0
 40
18.46411434536726
100
AcDbArc
 50
118.1673585004
 51
140.4476343806
  0
ARC
  5
303
330
1F
100
AcDbEntity
  8
0
  6
Continuous
 62
     7
370
    25
100
AcDbCircle
 10
188.8849981423
 20
391.7808498896
 30
0.0
 40
18.47700753948883
100
AcDbArc
 50
39.5308742091
 51
61.7960925265
  0
ARC
  5
304
330
1F
100
AcDbEntity
  8
0
  6
Continuous
 62
     7
370
    25
100
AcDbCircle
 10
187.8467571355
 20
390.6479518157
 30
0.0
 40
29.00000000000006
100
AcDbArc
 50
115.5332289441
 51
256.0320373253
  0
ARC
  5
305
330
1F
100
AcDbEntity
  8
0
  6
Continuous
 62
     7
370
    25
100
AcDbCircle
 10
187.8467571355
 20
390.6479518157
 30
0.0
 40
29.00000000000004
100
AcDbArc
 50
283.9679626747
 51
64.4667710559
  0
ARC
  5
306
330
1F
100
AcDbEntity
  8
0
  6
Continuous
 62
     8
370
    18
100
AcDbCircle
 10
187.8467571355
 20
390.6479518157
 30
0.0
 40
19.70000000000002
100
AcDbArc
 50
142.4728673939
 51
37.5271326061
  0
LINE
  5
307
330
1F
100
AcDbEntity
  8
0
  6
Continuous
 62
     8
370
    18
100
AcDbLine
 10
203.4701366342
 20
402.64795192
 30
0.0
 11
172.2233776368
 21
402.64795192
 31
0.0
  0
LWPOLYLINE
  5
308
330
1F
100
AcDbEntity
  8
0
  6
Continuous
 62
     8
370
    18
100
AcDbPolyline
 90
        9
 70
   128
 43
0.0
 10
203.4701366342
 20
402.64795192
 10
203.5165537514
 20
402.6836029482
 10
203.5611845918
 20
402.7178840008
 10
203.6023173846
 20
402.7494772565
 10
203.6383707441
 20
402.777169202
 10
203.667960725
 20
402.7998953354
 10
203.6899455257
 20
402.8167830077
 10
203.7034850932
 20
402.8271812242
 10
203.7080560244
 20
402.8306932416
  0
LWPOLYLINE
  5
309
330
1F
100
AcDbEntity
  8
0
  6
Continuous
 62
     8
370
    18
100
AcDbPolyline
 90
        9
 70
   128
 43
0.0
 10
172.2233776368
 20
402.64795192
 10
172.1769605197
 20
402.6836029482
 10
172.1323296793
 20
402.7178840008
 10
172.0911968864
 20
402.7494772565
 10
172.0551435269
 20
402.777169202
 10
172.0255535461
 20
402.7998953354
 10
172.0035687454
 20
402.8167830077
 10
171.9900291778
 20
402.8271812242
 10
171.9854582466
 20
402.8306932416
  0
ARC
  5
30A
330
1F
100
AcDbEntity
  8
0
  6
Continuous
 62
     8
370
    18
100
AcDbCircle
 10
178.2174883446
 20
389.0768880224
 30
0.0
 40
28.66827551410307
100
AcDbArc
 50
28.2540959075
 51
30.5482917831
  0
ARC
  5
30B
330
1F
100
AcDbEntity
  8
0
  6
Continuous
 62
     8
370
    18
100
AcDbCircle
 10
197.4895436064
 20
389.0692708301
 30
0.0
 40
28.68378850404152
100
AcDbArc
 50
149.4523286822
 51
151.7452836273
  0
CIRCLE
  5
30C
330
1F
100
AcDbEntity
  8
0
  6
Continuous
 62
     8
370
    18
100
AcDbCircle
 10
185.6892862235
 20
594.2048017686
 30
0.0
 40
1.226321703832269
  0
ARC
  5
30D
330
1F
100
AcDbEntity
  8
0
  6
Continuous
 62
     8
370
    18
100
AcDbCircle
 10
185.6836936909
 20
594.2345352906
 30
0.0
 40
0.9248047360020468
100
AcDbArc
 50
128.5341496324
 51
277.3737431127
  0
LWPOLYLINE
  5
30E
330
1F
100
AcDbEntity
  8
0
  6
Continuous
 62
     8
370
    18
100
AcDbPolyline
 90
        3
 70
   128
 43
0.0
 10
186.2750274727
 20
593.5186933023
 10
186.053204829
 20
593.3842252236
 10
185.8023841765
 20
593.3173786145
  0
ARC
  5
30F
330
1F
100
AcDbEntity
  8
0
  6
Continuous
 62
     8
370
    18
100
AcDbCircle
 10
185.6922193632
 20
594.2367530788
 30
0.0
 40
0.9248108644803805
100
AcDbArc
 50
309.0642655226
 51
97.3732136429
  0
LWPOLYLINE
  5
310
330
1F
100
AcDbEntity
  8
0
  6
Continuous
 62
     8
370
    18
100
AcDbPolyline
 90
        3
 70
   128
 43
0.0
 10
185.1075579311
 20
594.9579517585
 10
185.326678808
 20
595.0886796456
 10
185.5735365666
 20
595.1539169294
  0
CIRCLE
  5
311
330
1F
100
AcDbEntity
  8
0
  6
Continuous
 62
     8
370
    18
100
AcDbCircle
 10
185.6931527482
 20
539.0104265044
 30
0.0
 40
1.226960444129059
  0
ARC
  5
312
330
1F
100
AcDbEntity
  8
0
  6
Continuous
 62
     8
370
    18
100
AcDbCircle
 10
185.6909523272
 20
538.9861674425
 30
0.0
 40
0.9264342131143333
100
AcDbArc
 50
290.7527018392
 51
81.5488902196
  0
LWPOLYLINE
  5
313
330
1F
100
AcDbEntity
  8
0
  6
Continuous
 62
     8
370
    18
100
AcDbPolyline
 90
        3
 70
   128
 43
0.0
 10
185.8271061342
 20
539.9025420886
 10
185.5927562706
 20
539.9088303786
 10
185.3645512733
 20
539.8555587274
  0
ARC
  5
314
330
1F
100
AcDbEntity
  8
0
  6
Continuous
 62
     8
370
    18
100
AcDbCircle
 10
185.6849719402
 20
538.9862983505
 30
0.0
 40
0.9264356462033
100
AcDbArc
 50
110.2345417442
 51
261.5486830308
  0
LWPOLYLINE
  5
315
330
1F
100
AcDbEntity
  8
0
  6
Continuous
 62
     8
370
    18
100
AcDbPolyline
 90
        3
 70
   128
 43
0.0
 10
185.5488146089
 20
538.0699227792
 10
185.7873414542
 20
538.0640368205
 10
186.019220519
 20
538.1198416692
  0
ARC
  5
316
330
1F
100
AcDbEntity
  8
0
  6
Continuous
 62
     8
370
    18
100
AcDbCircle
 10
189.9977175168
 20
533.4854589606
 30
0.0
 40
1.221856482064025
100
AcDbArc
 50
128.5859845687
 51
277.3160661989
  0
LWPOLYLINE
  5
317
330
1F
100
AcDbEntity
  8
0
  6
Continuous
 62
     8
370
    18
100
AcDbPolyline
 90
        3
 70
   128
 43
0.0
 10
189.8517034847
 20
534.6994440299
 10
189.661196679
 20
534.6603582841
 10
189.235659795
 20
534.4405512553
  0
ARC
  5
318
330
1F
100
AcDbEntity
  8
0
  6
Continuous
 62
     8
370
    18
100
AcDbCircle
 10
190.0012945343
 20
533.459157998
 30
0.0
 40
0.9248107535191296
100
AcDbArc
 50
129.0642413021
 51
277.3732378634
  0
LWPOLYLINE
  5
319
330
1F
100
AcDbEntity
  8
0
  6
Continuous
 62
     8
370
    18
100
AcDbPolyline
 90
        3
 70
   128
 43
0.0
 10
190.5859563399
 20
532.7379445773
 10
190.366835463
 20
532.6072166902
 10
190.1199777044
 20
532.5419943076
  0
ARC
  5
31A
330
1F
100
AcDbEntity
  8
0
  6
Continuous
 62
     8
370
    18
100
AcDbCircle
 10
190.0098158447
 20
533.4613673701
 30
0.0
 40
0.9248126336297581
100
AcDbArc
 50
308.5341350075
 51
97.3733839692
  0
LWPOLYLINE
  5
31B
330
1F
100
AcDbEntity
  8
0
  6
Continuous
 62
     8
370
    18
100
AcDbPolyline
 90
        3
 70
   128
 43
0.0
 10
189.4184867983
 20
534.1772179347
 10
189.640309442
 20
534.3116711122
 10
189.8911300946
 20
534.3785326224
  0
ARC
  5
31C
330
1F
100
AcDbEntity
  8
0
  6
Continuous
 62
     8
370
    18
100
AcDbCircle
 10
190.0099522976
 20
594.2356661437
 30
0.0
 40
0.9248189528633712
100
AcDbArc
 50
291.7075697147
 51
83.1673568742
  0
LWPOLYLINE
  5
31D
330
1F
100
AcDbEntity
  8
0
  6
Continuous
 62
     8
370
    18
100
AcDbPolyline
 90
        3
 70
   128
 43
0.0
 10
189.8911300946
 20
593.3173786145
 10
190.1254371173
 20
593.3173041087
 10
190.3520146284
 20
593.3764319163
  0
ARC
  5
31E
330
1F
100
AcDbEntity
  8
0
  6
Continuous
 62
     8
370
    18
100
AcDbCircle
 10
190.0011442898
 20
594.2356192007
 30
0.0
 40
0.9248074919500412
100
AcDbArc
 50
112.1931215346
 51
263.1679713721
  0
LWPOLYLINE
  5
31F
330
1F
100
AcDbEntity
  8
0
  6
Continuous
 62
     8
370
    18
100
AcDbPolyline
 90
        3
 70
   128
 43
0.0
 10
190.1199777044
 20
595.1539169294
 10
189.8817710012
 20
595.153514598
 10
189.6518170966
 20
595.0919131976
  0
ARC
  5
320
330
1F
100
AcDbEntity
  8
0
  6
Continuous
 62
     8
370
    18
100
AcDbCircle
 10
185.6835551859
 20
533.460237004
 30
0.0
 40
0.9248101135516676
100
AcDbArc
 50
111.7073351145
 51
263.1677147801
  0
LWPOLYLINE
  5
321
330
1F
100
AcDbEntity
  8
0
  6
Continuous
 62
     8
370
    18
100
AcDbPolyline
 90
        3
 70
   128
 43
0.0
 10
185.8023841765
 20
534.3785326224
 10
185.5680771537
 20
534.3786071282
 10
185.3414996426
 20
534.3194644195
  0
ARC
  5
322
330
1F
100
AcDbEntity
  8
0
  6
Continuous
 62
     8
370
    18
100
AcDbCircle
 10
185.6923575425
 20
533.4602831683
 30
0.0
 40
0.9248177767175574
100
AcDbArc
 50
292.1936938824
 51
83.1672715746
  0
LWPOLYLINE
  5
323
330
1F
100
AcDbEntity
  8
0
  6
Continuous
 62
     8
370
    18
100
AcDbPolyline
 90
        3
 70
   128
 43
0.0
 10
185.5735365666
 20
532.5419943076
 10
185.8117432698
 20
532.542396639
 10
186.0416971745
 20
532.6039831382
  0
CIRCLE
  5
324
330
1F
100
AcDbEntity
  8
0
  6
Continuous
 62
     8
370
    18
100
AcDbCircle
 10
190.0050225145
 20
594.213402987
 30
0.0
 40
1.226351734018051
  0
CIRCLE
  5
325
330
1F
100
AcDbEntity
  8
0
  6
Continuous
 62
     8
370
    18
100
AcDbCircle
 10
185.6884925075
 20
533.4825043847
 30
0.0
 40
1.22635559578259
  0
ARC
  5
326
330
1F
100
AcDbEntity
  8
0
  6
Continuous
 62
     8
370
    18
100
AcDbCircle
 10
190.0085492805
 20
588.7095987025
 30
0.0
 40
0.9264339154850258
100
AcDbArc
 50
290.2341231253
 51
81.5491016496
  0
LWPOLYLINE
  5
327
330
1F
100
AcDbEntity
  8
0
  6
Continuous
 62
     8
370
    18
100
AcDbPolyline
 90
        3
 70
   128
 43
0.0
 10
189.8664081368
 20
587.7933542472
 10
190.1007580004
 20
587.7870808583
 10
190.3289629977
 20
587.8403376084
  0
ARC
  5
328
330
1F
100
AcDbEntity
  8
0
  6
Continuous
 62
     8
370
    18
100
AcDbCircle
 10
190.0025578497
 20
588.7097284521
 30
0.0
 40
0.926433175005506
100
AcDbArc
 50
110.7524553939
 51
261.549136665
  0
LWPOLYLINE
  5
329
330
1F
100
AcDbEntity
  8
0
  6
Continuous
 62
     8
370
    18
100
AcDbPolyline
 90
        3
 70
   128
 43
0.0
 10
190.1446996622
 20
589.6259735566
 10
189.9061728168
 20
589.6318595153
 10
189.674293752
 20
589.5760546666
  0
ARC
  5
32A
330
1F
100
AcDbEntity
  8
0
  6
Continuous
 62
     8
370
    18
100
AcDbCircle
 10
185.6943256633
 20
588.6888985241
 30
0.0
 40
1.223891553490986
100
AcDbArc
 50
310.1574449046
 51
98.7775422928
  0
LWPOLYLINE
  5
32B
330
1F
100
AcDbEntity
  8
0
  6
Continuous
 62
     8
370
    18
100
AcDbPolyline
 90
        3
 70
   128
 43
0.0
 10
185.8744347833
 20
587.4777178508
 10
186.0641972294
 20
587.5220339042
 10
186.4836013542
 20
587.7535085422
  0
ARC
  5
32C
330
1F
100
AcDbEntity
  8
0
  6
Continuous
 62
     8
370
    18
100
AcDbCircle
 10
185.6908447497
 20
588.7104978004
 30
0.0
 40
0.9264277743393654
100
AcDbArc
 50
310.6871358829
 51
98.8187635598
  0
LWPOLYLINE
  5
32D
330
1F
100
AcDbEntity
  8
0
  6
Continuous
 62
     8
370
    18
100
AcDbPolyline
 90
        3
 70
   128
 43
0.0
 10
185.088069075
 20
589.4172529918
 10
185.3036751404
 20
589.5540605527
 10
185.5488146089
 20
589.6259735566
  0
ARC
  5
32E
330
1F
100
AcDbEntity
  8
0
  6
Continuous
 62
     8
370
    18
100
AcDbCircle
 10
185.6850910834
 20
588.7088405565
 30
0.0
 40
0.9264358893692849
100
AcDbArc
 50
130.1228655923
 51
278.8177412832
  0
LWPOLYLINE
  5
32F
330
1F
100
AcDbEntity
  8
0
  6
Continuous
 62
     8
370
    18
100
AcDbPolyline
 90
        3
 70
   128
 43
0.0
 10
186.2948091134
 20
588.0080054742
 10
186.0764295693
 20
587.8671298963
 10
185.8271061342
 20
587.7933542472
  0
ARC
  5
330
330
1F
100
AcDbEntity
  8
0
  6
Continuous
 62
     8
370
    18
100
AcDbCircle
 10
189.9991885688
 20
539.0069977939
 30
0.0
 40
1.22389154191618
100
AcDbArc
 50
130.1574429755
 51
278.7775442219
  0
LWPOLYLINE
  5
331
330
1F
100
AcDbEntity
  8
0
  6
Continuous
 62
     8
370
    18
100
AcDbPolyline
 90
        3
 70
   128
 43
0.0
 10
189.8190794877
 20
540.218178485
 10
189.6293171581
 20
540.1738773328
 10
189.2099129168
 20
539.9423877936
  0
ARC
  5
332
330
1F
100
AcDbEntity
  8
0
  6
Continuous
 62
     8
370
    18
100
AcDbCircle
 10
190.0026771005
 20
538.9854020299
 30
0.0
 40
0.9264300656179568
100
AcDbArc
 50
130.6876322136
 51
278.8182672292
  0
LWPOLYLINE
  5
333
330
1F
100
AcDbEntity
  8
0
  6
Continuous
 62
     8
370
    18
100
AcDbPolyline
 90
        3
 70
   128
 43
0.0
 10
190.6054449633
 20
538.278643344
 10
190.3898391306
 20
538.1418357831
 10
190.1446996622
 20
538.0699227792
  0
ARC
  5
334
330
1F
100
AcDbEntity
  8
0
  6
Continuous
 62
     8
370
    18
100
AcDbCircle
 10
190.0084333683
 20
538.9870604982
 30
0.0
 40
0.926432786983934
100
AcDbArc
 50
310.1221850554
 51
98.8184082093
  0
LWPOLYLINE
  5
335
330
1F
100
AcDbEntity
  8
0
  6
Continuous
 62
     8
370
    18
100
AcDbPolyline
 90
        3
 70
   128
 43
0.0
 10
189.3987051576
 20
539.6878908616
 10
189.6170847017
 20
539.8287813407
 10
189.8664081368
 20
539.9025420886
  0
CIRCLE
  5
336
330
1F
100
AcDbEntity
  8
0
  6
Continuous
 62
     8
370
    18
100
AcDbCircle
 10
190.0042542295
 20
588.6907865583
 30
0.0
 40
1.226959733652833
  0
ARC
  5
337
330
1F
100
AcDbEntity
  8
0
  6
Continuous
 62
     8
370
    18
100
AcDbCircle
 10
190.0074126358
 20
583.183769524
 30
0.0
 40
0.9277356257973736
100
AcDbArc
 50
287.9256735575
 51
79.1241068103
  0
LWPOLYLINE
  5
338
330
1F
100
AcDbEntity
  8
0
  6
Continuous
 62
     8
370
    18
100
AcDbPolyline
 90
        3
 70
   128
 43
0.0
 10
189.8286478959
 20
582.2729210597
 10
190.0626447882
 20
582.2570662242
 10
190.292953876
 20
582.3010693532
  0
ARC
  5
339
330
1F
100
AcDbEntity
  8
0
  6
Continuous
 62
     8
370
    18
100
AcDbCircle
 10
190.0036913313
 20
583.1839933267
 30
0.0
 40
0.9277353501689576
100
AcDbArc
 50
108.4824714018
 51
259.1243445232
  0
LWPOLYLINE
  5
33A
330
1F
100
AcDbEntity
  8
0
  6
Continuous
 62
     8
370
    18
100
AcDbPolyline
 90
        3
 70
   128
 43
0.0
 10
190.1824599031
 20
584.0948413354
 10
189.9439554095
 20
584.1104577523
 10
189.7095857553
 20
584.0638767224
  0
ARC
  5
33B
330
1F
100
AcDbEntity
  8
0
  6
Continuous
 62
     8
370
    18
100
AcDbCircle
 10
185.6860955414
 20
544.5121413006
 30
0.0
 40
0.9277340709859225
100
AcDbArc
 50
107.9252939563
 51
259.1244715938
  0
LWPOLYLINE
  5
33C
330
1F
100
AcDbEntity
  8
0
  6
Continuous
 62
     8
370
    18
100
AcDbPolyline
 90
        3
 70
   128
 43
0.0
 10
185.8648663752
 20
545.4229752761
 10
185.6308694828
 20
545.4388450128
 10
185.4005606279
 20
545.3948418838
  0
ARC
  5
33D
330
1F
100
AcDbEntity
  8
0
  6
Continuous
 62
     8
370
    18
100
AcDbCircle
 10
185.6898182447
 20
544.511902697
 30
0.0
 40
0.927736542548552
100
AcDbArc
 50
288.4827525158
 51
79.1240634092
  0
LWPOLYLINE
  5
33E
330
1F
100
AcDbEntity
  8
0
  6
Continuous
 62
     8
370
    18
100
AcDbPolyline
 90
        3
 70
   128
 43
0.0
 10
185.5110543679
 20
543.6010699016
 10
185.7495588615
 20
543.5854385835
 10
185.9839285157
 20
543.6320196134
  0
ARC
  5
33F
330
1F
100
AcDbEntity
  8
0
  6
Continuous
 62
     8
370
    18
100
AcDbCircle
 10
185.6902353461
 20
577.5956824785
 30
0.0
 40
1.226778650464551
100
AcDbArc
 50
137.2442668151
 51
285.0982094945
  0
LWPOLYLINE
  5
340
330
1F
100
AcDbEntity
  8
0
  6
Continuous
 62
     8
370
    18
100
AcDbPolyline
 90
        3
 70
   128
 43
0.0
 10
185.3731527358
 20
578.7809829455
 10
185.1771747593
 20
578.7100832206
 10
184.7894674998
 20
578.4285108787
  0
ARC
  5
341
330
1F
100
AcDbEntity
  8
0
  6
Continuous
 62
     8
370
    18
100
AcDbCircle
 10
185.6870359752
 20
577.6078595018
 30
0.0
 40
0.9287263862169768
100
AcDbArc
 50
136.6243870167
 51
285.1204873165
  0
LWPOLYLINE
  5
342
330
1F
100
AcDbEntity
  8
0
  6
Continuous
 62
     8
370
    18
100
AcDbPolyline
 90
        3
 70
   128
 43
0.0
 10
186.3706781428
 20
576.9780020457
 10
186.1692329535
 20
576.8128375751
 10
185.9292939903
 20
576.7112861615
  0
ARC
  5
343
330
1F
100
AcDbEntity
  8
0
  6
Continuous
 62
     8
370
    18
100
AcDbCircle
 10
185.688888747
 20
577.6086255134
 30
0.0
 40
0.9287210227737464
100
AcDbArc
 50
317.2326113297
 51
105.1208235732
  0
LWPOLYLINE
  5
344
330
1F
100
AcDbEntity
  8
0
  6
Continuous
 62
     8
370
    18
100
AcDbPolyline
 90
        3
 70
   128
 43
0.0
 10
185.011975364
 20
578.245688532
 10
185.2109463785
 20
578.4061442357
 10
185.4466268692
 20
578.5051922542
  0
LWPOLYLINE
  5
345
330
1F
100
AcDbEntity
  8
0
  6
Continuous
 62
     8
370
    18
100
AcDbPolyline
 90
        3
 70
   128
 43
0.0
 10
185.0591538373
 20
583.8670472842
 10
185.2689910579
 20
584.0128253442
 10
185.5110543679
 20
584.0948413354
  0
ARC
  5
346
330
1F
100
AcDbEntity
  8
0
  6
Continuous
 62
     8
370
    18
100
AcDbCircle
 10
185.6897248281
 20
583.1844717401
 30
0.0
 40
0.9277369958232994
100
AcDbArc
 50
313.1300494948
 51
101.1038208301
  0
LWPOLYLINE
  5
347
330
1F
100
AcDbEntity
  8
0
  6
Continuous
 62
     8
370
    18
100
AcDbPolyline
 90
        3
 70
   128
 43
0.0
 10
186.3239783693
 20
582.5074057323
 10
186.1113441542
 20
582.3571275216
 10
185.8648663752
 20
582.2729210597
  0
ARC
  5
348
330
1F
100
AcDbEntity
  8
0
  6
Continuous
 62
     8
370
    18
100
AcDbCircle
 10
185.6861951353
 20
583.1832930718
 30
0.0
 40
0.9277395175206922
100
AcDbArc
 50
132.5225843294
 51
281.1038393332
  0
LWPOLYLINE
  5
349
330
1F
100
AcDbEntity
  8
0
  6
Continuous
 62
     8
370
    18
100
AcDbPolyline
 90
        3
 70
   128
 43
0.0
 10
190.6343606666
 20
543.8288639527
 10
190.4245234459
 20
543.6830858928
 10
190.1824599031
 20
543.6010699016
  0
ARC
  5
34A
330
1F
100
AcDbEntity
  8
0
  6
Continuous
 62
     8
370
    18
100
AcDbCircle
 10
190.0037881183
 20
544.5114388186
 30
0.0
 40
0.927736585314454
100
AcDbArc
 50
133.1299611563
 51
281.1039091687
  0
LWPOLYLINE
  5
34B
330
1F
100
AcDbEntity
  8
0
  6
Continuous
 62
     8
370
    18
100
AcDbPolyline
 90
        3
 70
   128
 43
0.0
 10
189.3695359017
 20
545.1885055047
 10
189.5821701169
 20
545.3387837154
 10
189.8286478959
 20
545.4229752761
  0
ARC
  5
34C
330
1F
100
AcDbEntity
  8
0
  6
Continuous
 62
     8
370
    18
100
AcDbCircle
 10
190.0073249301
 20
544.5126124925
 30
0.0
 40
0.9277315777620999
100
AcDbArc
 50
312.5225679736
 51
101.1043002508
  0
CIRCLE
  5
34D
330
1F
100
AcDbEntity
  8
0
  6
Continuous
 62
     8
370
    18
100
AcDbCircle
 10
190.0016166872
 20
544.5268995111
 30
0.0
 40
1.22742708581681
  0
CIRCLE
  5
34E
330
1F
100
AcDbEntity
  8
0
  6
Continuous
 62
     8
370
    18
100
AcDbCircle
 10
185.6919230657
 20
583.1690239546
 30
0.0
 40
1.227429846149176
  0
CIRCLE
  5
34F
330
1F
100
AcDbEntity
  8
0
  6
Continuous
 62
     8
370
    18
100
AcDbCircle
 10
190.0035549196
 20
583.1686051497
 30
0.0
 40
1.227440210709129
  0
CIRCLE
  5
350
330
1F
100
AcDbEntity
  8
0
  6
Continuous
 62
     8
370
    18
100
AcDbCircle
 10
185.6899588792
 20
544.5272948962
 30
0.0
 40
1.227436542539977
  0
ARC
  5
351
330
1F
100
AcDbEntity
  8
0
  6
Continuous
 62
     8
370
    18
100
AcDbCircle
 10
190.0065420213
 20
577.6081020978
 30
0.0
 40
0.9287285128489067
100
AcDbArc
 50
283.8904094714
 51
75.00174019
  0
LWPOLYLINE
  5
352
330
1F
100
AcDbEntity
  8
0
  6
Continuous
 62
     8
370
    18
100
AcDbPolyline
 90
        3
 70
   128
 43
0.0
 10
189.7642202807
 20
576.7112861615
 10
189.9965686157
 20
576.6788761359
 10
190.2294977467
 20
576.7065326911
  0
ARC
  5
353
330
1F
100
AcDbEntity
  8
0
  6
Continuous
 62
     8
370
    18
100
AcDbCircle
 10
190.00456028
 20
577.6083729629
 30
0.0
 40
0.9287238795877019
100
AcDbArc
 50
104.4480036317
 51
255.0020073033
  0
LWPOLYLINE
  5
354
330
1F
100
AcDbEntity
  8
0
  6
Continuous
 62
     8
370
    18
100
AcDbPolyline
 90
        3
 70
   128
 43
0.0
 10
190.2468874018
 20
578.5051922542
 10
190.0100148182
 20
578.5376767856
 10
189.7728424651
 20
578.5077254516
  0
ARC
  5
355
330
1F
100
AcDbEntity
  8
0
  6
Continuous
 62
     8
370
    18
100
AcDbCircle
 10
185.6869545078
 20
550.0878016396
 30
0.0
 40
0.9287166774277915
100
AcDbArc
 50
103.8893589333
 51
255.0026777248
  0
LWPOLYLINE
  5
356
330
1F
100
AcDbEntity
  8
0
  6
Continuous
 62
     8
370
    18
100
AcDbPolyline
 90
        3
 70
   128
 43
0.0
 10
185.9292939903
 20
550.9846250754
 10
185.6969463538
 20
551.0170201999
 10
185.4640181541
 20
550.9893636447
  0
ARC
  5
357
330
1F
100
AcDbEntity
  8
0
  6
Continuous
 62
     8
370
    18
100
AcDbCircle
 10
185.6889596668
 20
550.0875382468
 30
0.0
 40
0.928722437120544
100
AcDbArc
 50
284.447664971
 51
75.0023459641
  0
LWPOLYLINE
  5
358
330
1F
100
AcDbEntity
  8
0
  6
Continuous
 62
     8
370
    18
100
AcDbPolyline
 90
        3
 70
   128
 43
0.0
 10
185.4466268692
 20
549.1907189828
 10
185.6834994528
 20
549.1582344514
 10
185.9206718059
 20
549.1881857854
  0
LWPOLYLINE
  5
359
330
1F
100
AcDbEntity
  8
0
  6
Continuous
 62
     8
370
    18
100
AcDbPolyline
 90
        3
 70
   128
 43
0.0
 10
190.6815398384
 20
549.450222705
 10
190.4825685911
 20
549.2897670013
 10
190.2468874018
 20
549.1907189828
  0
ARC
  5
35A
330
1F
100
AcDbEntity
  8
0
  6
Continuous
 62
     8
370
    18
100
AcDbCircle
 10
190.0046149371
 20
550.0872793178
 30
0.0
 40
0.9287176004933635
100
AcDbArc
 50
137.2318777096
 51
285.1215571933
  0
LWPOLYLINE
  5
35B
330
1F
100
AcDbEntity
  8
0
  6
Continuous
 62
     8
370
    18
100
AcDbPolyline
 90
        3
 70
   128
 43
0.0
 10
189.3228361282
 20
550.7179091912
 10
189.5242813175
 20
550.8830736619
 10
189.7642202807
 20
550.9846250754
  0
ARC
  5
35C
330
1F
100
AcDbEntity
  8
0
  6
Continuous
 62
     8
370
    18
100
AcDbCircle
 10
190.0064757332
 20
550.0880497933
 30
0.0
 40
0.9287275923131307
100
AcDbArc
 50
316.624622129
 51
105.1203034436
  0
CIRCLE
  5
35D
330
1F
100
AcDbEntity
  8
0
  6
Continuous
 62
     8
370
    18
100
AcDbCircle
 10
190.002002913
 20
550.0987644025
 30
0.0
 40
1.227794877351833
  0
CIRCLE
  5
35E
330
1F
100
AcDbEntity
  8
0
  6
Continuous
 62
     8
370
    18
100
AcDbCircle
 10
190.00303329
 20
577.5968622168
 30
0.0
 40
1.227806518193562
  0
CIRCLE
  5
35F
330
1F
100
AcDbEntity
  8
0
  6
Continuous
 62
     8
370
    18
100
AcDbCircle
 10
185.690518029
 20
550.099048687
 30
0.0
 40
1.227801664351205
  0
CIRCLE
  5
360
330
1F
100
AcDbEntity
  8
0
  6
Continuous
 62
     8
370
    18
100
AcDbCircle
 10
185.6916255037
 20
555.5409972107
 30
0.0
 40
1.228057693566213
  0
ARC
  5
361
330
1F
100
AcDbEntity
  8
0
  6
Continuous
 62
     8
370
    18
100
AcDbCircle
 10
185.6883799358
 20
555.5330839785
 30
0.0
 40
0.9293832645886506
100
AcDbArc
 50
275.7968695193
 51
66.4015589953
  0
LWPOLYLINE
  5
362
330
1F
100
AcDbEntity
  8
0
  6
Continuous
 62
     8
370
    18
100
AcDbPolyline
 90
        3
 70
   128
 43
0.0
 10
186.0604344534
 20
556.3847462875
 10
185.8354405399
 20
556.4513991815
 10
185.6009104654
 20
556.4586709481
  0
ARC
  5
363
330
1F
100
AcDbEntity
  8
0
  6
Continuous
 62
     8
370
    18
100
AcDbCircle
 10
185.6875545484
 20
555.5333275516
 30
0.0
 40
0.9293909826975394
100
AcDbArc
 50
95.3492659929
 51
246.400850261
  0
LWPOLYLINE
  5
364
330
1F
100
AcDbEntity
  8
0
  6
Continuous
 62
     8
370
    18
100
AcDbPolyline
 90
        3
 70
   128
 43
0.0
 10
185.3154864061
 20
554.6816627723
 10
185.5440692875
 20
554.6144138318
 10
185.7822494481
 20
554.6084533673
  0
LWPOLYLINE
  5
365
330
1F
100
AcDbEntity
  8
0
  6
Continuous
 62
     8
370
    18
100
AcDbPolyline
 90
        3
 70
   128
 43
0.0
 10
184.9242978629
 20
572.6927112085
 10
185.0971471417
 20
572.8811363917
 10
185.3154864061
 20
573.0142484647
  0
ARC
  5
366
330
1F
100
AcDbEntity
  8
0
  6
Continuous
 62
     8
370
    18
100
AcDbCircle
 10
185.6883178937
 20
572.1629121063
 30
0.0
 40
0.9293959937626716
100
AcDbArc
 50
325.7030416389
 51
113.6503785957
  0
LWPOLYLINE
  5
367
330
1F
100
AcDbEntity
  8
0
  6
Continuous
 62
     8
370
    18
100
AcDbPolyline
 90
        3
 70
   128
 43
0.0
 10
186.4561181415
 20
571.6392140132
 10
186.2818614013
 20
571.4467506152
 10
186.0604344534
 20
571.3111500484
  0
ARC
  5
368
330
1F
100
AcDbEntity
  8
0
  6
Continuous
 62
     8
370
    18
100
AcDbCircle
 10
185.6875958839
 20
572.1624791741
 30
0.0
 40
0.929392209567975
100
AcDbArc
 50
145.2138660868
 51
293.650957385
  0
LWPOLYLINE
  5
369
330
1F
100
AcDbEntity
  8
0
  6
Continuous
 62
     8
370
    18
100
AcDbPolyline
 90
        3
 70
   128
 43
0.0
 10
190.7692164082
 20
555.0032000285
 10
190.5963671293
 20
554.8147599441
 10
190.3780278649
 20
554.6816627723
  0
ARC
  5
36A
330
1F
100
AcDbEntity
  8
0
  6
Continuous
 62
     8
370
    18
100
AcDbCircle
 10
190.0051860978
 20
555.5329849281
 30
0.0
 40
0.929387107890242
100
AcDbArc
 50
145.7027201263
 51
293.6513103343
  0
LWPOLYLINE
  5
36B
330
1F
100
AcDbEntity
  8
0
  6
Continuous
 62
     8
370
    18
100
AcDbPolyline
 90
        3
 70
   128
 43
0.0
 10
189.2373961296
 20
556.0566823226
 10
189.4116528697
 20
556.2491457206
 10
189.6330798177
 20
556.3847462875
  0
ARC
  5
36C
330
1F
100
AcDbEntity
  8
0
  6
Continuous
 62
     8
370
    18
100
AcDbCircle
 10
190.0059212504
 20
555.5334252353
 30
0.0
 40
0.9293859627790748
100
AcDbArc
 50
325.2141110729
 51
113.6513187463
  0
ARC
  5
36D
330
1F
100
AcDbEntity
  8
0
  6
Continuous
 62
     8
370
    18
100
AcDbCircle
 10
190.0059620766
 20
572.162583296
 30
0.0
 40
0.9293903972142903
100
AcDbArc
 50
275.3491380382
 51
66.4009928523
  0
LWPOLYLINE
  5
36E
330
1F
100
AcDbEntity
  8
0
  6
Continuous
 62
     8
370
    18
100
AcDbPolyline
 90
        3
 70
   128
 43
0.0
 10
189.6330798177
 20
571.3111500484
 10
189.8580737311
 20
571.2445120555
 10
190.0926040385
 20
571.2372402888
  0
ARC
  5
36F
330
1F
100
AcDbEntity
  8
0
  6
Continuous
 62
     8
370
    18
100
AcDbCircle
 10
190.0051522516
 20
572.1628173081
 30
0.0
 40
0.9293949738115395
100
AcDbArc
 50
95.797906428
 51
246.4006690301
  0
LWPOLYLINE
  5
370
330
1F
100
AcDbEntity
  8
0
  6
Continuous
 62
     8
370
    18
100
AcDbPolyline
 90
        3
 70
   128
 43
0.0
 10
190.3780278649
 20
573.0142484647
 10
190.1494449835
 20
573.0814974052
 10
189.911264823
 20
573.0874578696
  0
CIRCLE
  5
371
330
1F
100
AcDbEntity
  8
0
  6
Continuous
 62
     8
370
    18
100
AcDbCircle
 10
185.6912964663
 20
572.1556763103
 30
0.0
 40
1.228051839110299
  0
CIRCLE
  5
372
330
1F
100
AcDbEntity
  8
0
  6
Continuous
 62
     8
370
    18
100
AcDbCircle
 10
190.0022180029
 20
555.54021982
 30
0.0
 40
1.228052119187091
  0
CIRCLE
  5
373
330
1F
100
AcDbEntity
  8
0
  6
Continuous
 62
     8
370
    18
100
AcDbCircle
 10
190.0026344259
 20
572.155492991
 30
0.0
 40
1.228054289960593
  0
CIRCLE
  5
374
330
1F
100
AcDbEntity
  8
0
  6
Continuous
 62
     8
370
    18
100
AcDbCircle
 10
185.6912864713
 20
566.6142819613
 30
0.0
 40
1.22818460623376
  0
ARC
  5
375
330
1F
100
AcDbEntity
  8
0
  6
Continuous
 62
     8
370
    18
100
AcDbCircle
 10
185.6878961564
 20
566.6171232926
 30
0.0
 40
0.9297428262555356
100
AcDbArc
 50
171.0007126255
 51
319.4062885769
  0
LWPOLYLINE
  5
376
330
1F
100
AcDbEntity
  8
0
  6
Continuous
 62
     8
370
    18
100
AcDbPolyline
 90
        3
 70
   128
 43
0.0
 10
186.6068493241
 20
566.4752464038
 10
186.5333623851
 20
566.2285278779
 10
186.3938896118
 20
566.0121481162
  0
ARC
  5
377
330
1F
100
AcDbEntity
  8
0
  6
Continuous
 62
     8
370
    18
100
AcDbCircle
 10
185.6880220539
 20
566.6173178814
 30
0.0
 40
0.9297461251587441
100
AcDbArc
 50
351.2103833485
 51
139.4058004441
  0
LWPOLYLINE
  5
378
330
1F
100
AcDbEntity
  8
0
  6
Continuous
 62
     8
370
    18
100
AcDbPolyline
 90
        3
 70
   128
 43
0.0
 10
184.7695981983
 20
566.7625556928
 10
184.8432888642
 20
567.007456277
 10
184.9820312477
 20
567.2223012191
  0
CIRCLE
  5
379
330
1F
100
AcDbEntity
  8
0
  6
Continuous
 62
     8
370
    18
100
AcDbCircle
 10
190.0022273875
 20
561.0816083142
 30
0.0
 40
1.22818181099293
  0
ARC
  5
37A
330
1F
100
AcDbEntity
  8
0
  6
Continuous
 62
     8
370
    18
100
AcDbCircle
 10
190.0056225807
 20
561.0787827103
 30
0.0
 40
0.9297399273294279
100
AcDbArc
 50
351.0000811671
 51
139.4069200353
  0
LWPOLYLINE
  5
37B
330
1F
100
AcDbEntity
  8
0
  6
Continuous
 62
     8
370
    18
100
AcDbPolyline
 90
        3
 70
   128
 43
0.0
 10
189.0866649469
 20
561.220649932
 10
189.160151886
 20
561.4673684579
 10
189.2996246593
 20
561.6837482196
  0
ARC
  5
37C
330
1F
100
AcDbEntity
  8
0
  6
Continuous
 62
     8
370
    18
100
AcDbCircle
 10
190.0054841315
 20
561.0785729354
 30
0.0
 40
0.9297389778078308
100
AcDbArc
 50
171.2099710906
 51
319.4070802302
  0
LWPOLYLINE
  5
37D
330
1F
100
AcDbEntity
  8
0
  6
Continuous
 62
     8
370
    18
100
AcDbPolyline
 90
        3
 70
   128
 43
0.0
 10
190.9239160727
 20
560.933340643
 10
190.8502254069
 20
560.68845496
 10
190.7114830233
 20
560.4736100179
  0
ARC
  5
37E
330
1F
100
AcDbEntity
  8
0
  6
Continuous
 62
     8
370
    18
100
AcDbCircle
 10
190.0056347144
 20
566.6171470457
 30
0.0
 40
0.9297491106750592
100
AcDbArc
 50
249.5885099383
 51
40.6079076989
  0
LWPOLYLINE
  5
37F
330
1F
100
AcDbEntity
  8
0
  6
Continuous
 62
     8
370
    18
100
AcDbPolyline
 90
        3
 70
   128
 43
0.0
 10
189.2996246593
 20
566.0121481162
 10
189.4732875649
 20
565.8543001157
 10
189.6813754124
 20
565.7457749587
  0
ARC
  5
380
330
1F
100
AcDbEntity
  8
0
  6
Continuous
 62
     8
370
    18
100
AcDbCircle
 10
190.0054614119
 20
566.6173033443
 30
0.0
 40
0.9297410238917476
100
AcDbArc
 50
69.7801013617
 51
220.6084205725
  0
LWPOLYLINE
  5
381
330
1F
100
AcDbEntity
  8
0
  6
Continuous
 62
     8
370
    18
100
AcDbPolyline
 90
        3
 70
   128
 43
0.0
 10
190.7114830233
 20
567.2223012191
 10
190.5365452535
 20
567.3810581905
 10
190.3268023293
 20
567.4897472602
  0
ARC
  5
382
330
1F
100
AcDbEntity
  8
0
  6
Continuous
 62
     8
370
    18
100
AcDbCircle
 10
185.6878730144
 20
561.0787599617
 30
0.0
 40
0.9297413909422606
100
AcDbArc
 50
69.587902728
 51
220.607972227
  0
LWPOLYLINE
  5
383
330
1F
100
AcDbEntity
  8
0
  6
Continuous
 62
     8
370
    18
100
AcDbPolyline
 90
        3
 70
   128
 43
0.0
 10
186.3938896118
 20
561.6837482196
 10
186.2202267062
 20
561.8416111213
 10
186.0121388586
 20
561.9501213771
  0
ARC
  5
384
330
1F
100
AcDbEntity
  8
0
  6
Continuous
 62
     8
370
    18
100
AcDbCircle
 10
185.6880456466
 20
561.0785980054
 30
0.0
 40
0.9297432360247614
100
AcDbArc
 50
249.7806252373
 51
40.6078966968
  0
LWPOLYLINE
  5
385
330
1F
100
AcDbEntity
  8
0
  6
Continuous
 62
     8
370
    18
100
AcDbPolyline
 90
        3
 70
   128
 43
0.0
 10
184.9820312477
 20
560.4736100179
 10
185.1569690175
 20
560.3148530465
 10
185.3667119417
 20
560.2061490756
  0
CIRCLE
  5
386
330
1F
100
AcDbEntity
  8
0
  6
Continuous
 62
     8
370
    18
100
AcDbCircle
 10
190.0024111726
 20
566.6144311534
 30
0.0
 40
1.228187107753915
  0
CIRCLE
  5
387
330
1F
100
AcDbEntity
  8
0
  6
Continuous
 62
     8
370
    18
100
AcDbCircle
 10
185.6911325266
 20
561.0814595172
 30
0.0
 40
1.228182253881431
  0
LINE
  5
388
330
1F
100
AcDbEntity
  8
0
  6
Continuous
 62
     8
370
    18
100
AcDbLine
 10
175.3467569493
 20
408.8479525638
 30
0.0
 11
200.3467573218
 21
408.8479525638
 31
0.0
  0
LINE
  5
389
330
1F
100
AcDbEntity
  8
0
  6
Continuous
 62
     8
370
    18
100
AcDbLine
 10
187.8467571355
 20
605.647955392
 30
0.0
 11
175.3467569493
 21
605.647955392
 31
0.0
  0
LINE
  5
38A
330
1F
100
AcDbEntity
  8
0
  6
Continuous
 62
     8
370
    18
100
AcDbLine
 10
200.3467573218
 20
605.647955392
 30
0.0
 11
187.8467571355
 21
605.647955392
 31
0.0
  0
LINE
  5
38B
330
1F
100
AcDbEntity
  8
0
  6
Continuous
 62
     8
370
    18
100
AcDbLine
 10
187.955572334
 20
607.7919940692
 30
0.0
 11
200.1297917582
 21
607.7919940692
 31
0.0
  0
LINE
  5
38C
330
1F
100
AcDbEntity
  8
0
  6
Continuous
 62
     8
370
    18
100
AcDbLine
 10
175.5637225128
 20
607.7919940692
 30
0.0
 11
187.955572334
 21
607.7919940692
 31
0.0
  0
LINE
  5
38D
330
1F
100
AcDbEntity
  8
0
  6
Continuous
 62
     8
370
    18
100
AcDbLine
 10
176.024697385
 20
608.2861165744
 30
0.0
 11
187.8467571355
 21
608.2861165744
 31
0.0
  0
LINE
  5
38E
330
1F
100
AcDbEntity
  8
0
  6
Continuous
 62
     8
370
    18
100
AcDbLine
 10
187.9514885718
 20
608.2861165744
 30
0.0
 11
199.6688168861
 21
608.2861165744
 31
0.0
  0
CIRCLE
  5
38F
330
1F
100
AcDbEntity
  8
0
  6
Continuous
 62
     8
370
    18
100
AcDbCircle
 10
194.3023550392
 20
594.228490558
 30
0.0
 40
1.226179239396944
  0
ARC
  5
390
330
1F
100
AcDbEntity
  8
0
  6
Continuous
 62
     8
370
    18
100
AcDbCircle
 10
194.3105510448
 20
594.2594038138
 30
0.0
 40
0.9242630806393609
100
AcDbArc
 50
98.494883923
 51
250.6966788051
  0
LWPOLYLINE
  5
391
330
1F
100
AcDbEntity
  8
0
  6
Continuous
 62
     8
370
    18
100
AcDbPolyline
 90
        3
 70
   128
 43
0.0
 10
194.0050182298
 20
593.3871011478
 10
194.2178966842
 20
593.3380018216
 10
194.4362257041
 20
593.3403860074
  0
ARC
  5
392
330
1F
100
AcDbEntity
  8
0
  6
Continuous
 62
     8
370
    18
100
AcDbCircle
 10
194.320087984
 20
594.2573326152
 30
0.0
 40
0.9242721740048438
100
AcDbArc
 50
277.2184765473
 51
70.6965052197
  0
LWPOLYLINE
  5
393
330
1F
100
AcDbEntity
  8
0
  6
Continuous
 62
     8
370
    18
100
AcDbPolyline
 90
        3
 70
   128
 43
0.0
 10
194.6256264478
 20
595.1296429378
 10
194.402497857
 20
595.1798747522
 10
194.1740178868
 20
595.1735268575
  0
CIRCLE
  5
394
330
1F
100
AcDbEntity
  8
0
  6
Continuous
 62
     8
370
    18
100
AcDbCircle
 10
181.3911594049
 20
533.4674082832
 30
0.0
 40
1.226181702395772
  0
ARC
  5
395
330
1F
100
AcDbEntity
  8
0
  6
Continuous
 62
     8
370
    18
100
AcDbCircle
 10
181.3829517135
 20
533.4365008873
 30
0.0
 40
0.9242730548737479
100
AcDbArc
 50
278.495513165
 51
70.6961391853
  0
LWPOLYLINE
  5
396
330
1F
100
AcDbEntity
  8
0
  6
Continuous
 62
     8
370
    18
100
AcDbPolyline
 90
        3
 70
   128
 43
0.0
 10
181.6884960413
 20
534.3088100892
 10
181.4756175868
 20
534.3579094154
 10
181.257288567
 20
534.3555252296
  0
ARC
  5
397
330
1F
100
AcDbEntity
  8
0
  6
Continuous
 62
     8
370
    18
100
AcDbCircle
 10
181.3734438432
 20
533.4385694986
 30
0.0
 40
0.9242834309158049
100
AcDbArc
 50
97.2194851544
 51
250.6955965127
  0
LWPOLYLINE
  5
398
330
1F
100
AcDbEntity
  8
0
  6
Continuous
 62
     8
370
    18
100
AcDbPolyline
 90
        3
 70
   128
 43
0.0
 10
181.0678878233
 20
532.566253398
 10
181.291016414
 20
532.5160364848
 10
181.5194963842
 20
532.5223694783
  0
CIRCLE
  5
399
330
1F
100
AcDbEntity
  8
0
  6
Continuous
 62
     8
370
    18
100
AcDbCircle
 10
181.3866642876
 20
594.2267849435
 30
0.0
 40
1.22613592721361
  0
ARC
  5
39A
330
1F
100
AcDbEntity
  8
0
  6
Continuous
 62
     8
370
    18
100
AcDbCircle
 10
181.3738415459
 20
594.2561501671
 30
0.0
 40
0.9242584322436758
100
AcDbArc
 50
138.8695993987
 51
289.9036805222
  0
LWPOLYLINE
  5
39B
330
1F
100
AcDbEntity
  8
0
  6
Continuous
 62
     8
370
    18
100
AcDbPolyline
 90
        3
 70
   128
 43
0.0
 10
182.0932637334
 20
593.669716571
 10
181.9103277653
 20
593.5007225019
 10
181.6884960413
 20
593.3871011478
  0
ARC
  5
39C
330
1F
100
AcDbEntity
  8
0
  6
Continuous
 62
     8
370
    18
100
AcDbCircle
 10
181.3825421611
 20
594.2605913009
 30
0.0
 40
0.9242608397149258
100
AcDbArc
 50
320.2607791666
 51
109.9036160959
  0
LWPOLYLINE
  5
39D
330
1F
100
AcDbEntity
  8
0
  6
Continuous
 62
     8
370
    18
100
AcDbPolyline
 90
        3
 70
   128
 43
0.0
 10
180.677676703
 20
594.8641042453
 10
180.8553721189
 20
595.0223247748
 10
181.0678878233
 20
595.1296429378
  0
CIRCLE
  5
39E
330
1F
100
AcDbEntity
  8
0
  6
Continuous
 62
     8
370
    18
100
AcDbCircle
 10
194.3068718533
 20
533.4691379996
 30
0.0
 40
1.226136085447501
  0
ARC
  5
39F
330
1F
100
AcDbEntity
  8
0
  6
Continuous
 62
     8
370
    18
100
AcDbCircle
 10
194.3196692407
 20
533.4397525516
 30
0.0
 40
0.924265255376875
100
AcDbArc
 50
318.8694434477
 51
109.9032976498
  0
LWPOLYLINE
  5
3A0
330
1F
100
AcDbEntity
  8
0
  6
Continuous
 62
     8
370
    18
100
AcDbPolyline
 90
        3
 70
   128
 43
0.0
 10
193.6002505377
 20
534.0261797649
 10
193.7831865057
 20
534.1951887351
 10
194.0050182298
 20
534.3088100892
  0
ARC
  5
3A1
330
1F
100
AcDbEntity
  8
0
  6
Continuous
 62
     8
370
    18
100
AcDbCircle
 10
194.3109822155
 20
533.4353121325
 30
0.0
 40
0.9242640731030433
100
AcDbArc
 50
140.2615179823
 51
289.9028772802
  0
LWPOLYLINE
  5
3A2
330
1F
100
AcDbEntity
  8
0
  6
Continuous
 62
     8
370
    18
100
AcDbPolyline
 90
        3
 70
   128
 43
0.0
 10
195.015837568
 20
532.8317920905
 10
194.8381421521
 20
532.6735864621
 10
194.6256264478
 20
532.566253398
  0
CIRCLE
  5
3A3
330
1F
100
AcDbEntity
  8
0
  6
Continuous
 62
     8
370
    18
100
AcDbCircle
 10
194.3032055378
 20
588.7130597689
 30
0.0
 40
1.226771503040306
  0
ARC
  5
3A4
330
1F
100
AcDbEntity
  8
0
  6
Continuous
 62
     8
370
    18
100
AcDbCircle
 10
194.3119868713
 20
588.7379918522
 30
0.0
 40
0.9258839536656498
100
AcDbArc
 50
94.5355340624
 51
246.7510419745
  0
LWPOLYLINE
  5
3A5
330
1F
100
AcDbEntity
  8
0
  6
Continuous
 62
     8
370
    18
100
AcDbPolyline
 90
        3
 70
   128
 43
0.0
 10
193.9465153396
 20
587.8872911674
 10
194.1558547683
 20
587.8239612323
 10
194.3741348937
 20
587.8118316871
  0
ARC
  5
3A6
330
1F
100
AcDbEntity
  8
0
  6
Continuous
 62
     8
370
    18
100
AcDbCircle
 10
194.3186515903
 20
588.7360607711
 30
0.0
 40
0.9258929726145346
100
AcDbArc
 50
273.4354561982
 51
66.7508630999
  0
LWPOLYLINE
  5
3A7
330
1F
100
AcDbEntity
  8
0
  6
Continuous
 62
     8
370
    18
100
AcDbPolyline
 90
        3
 70
   128
 43
0.0
 10
194.6841293379
 20
589.5867686015
 10
194.4660280265
 20
589.6516631585
 10
194.2387704171
 20
589.6609763843
  0
CIRCLE
  5
3A8
330
1F
100
AcDbEntity
  8
0
  6
Continuous
 62
     8
370
    18
100
AcDbCircle
 10
181.3902710128
 20
538.9828418197
 30
0.0
 40
1.226764176644989
  0
ARC
  5
3A9
330
1F
100
AcDbEntity
  8
0
  6
Continuous
 62
     8
370
    18
100
AcDbCircle
 10
181.3815307667
 20
538.95791883
 30
0.0
 40
0.9258831343544958
100
AcDbArc
 50
274.5353290693
 51
66.7512469676
  0
LWPOLYLINE
  5
3AA
330
1F
100
AcDbEntity
  8
0
  6
Continuous
 62
     8
370
    18
100
AcDbPolyline
 90
        3
 70
   128
 43
0.0
 10
181.7469989314
 20
539.8086200696
 10
181.5376595028
 20
539.8719351035
 10
181.3193793773
 20
539.8840646487
  0
ARC
  5
3AB
330
1F
100
AcDbEntity
  8
0
  6
Continuous
 62
     8
370
    18
100
AcDbCircle
 10
181.3748559539
 20
538.9598438815
 30
0.0
 40
0.92588426765744
100
AcDbArc
 50
93.4350715141
 51
246.7510847361
  0
LWPOLYLINE
  5
3AC
330
1F
100
AcDbEntity
  8
0
  6
Continuous
 62
     8
370
    18
100
AcDbPolyline
 90
        3
 70
   128
 43
0.0
 10
181.0093849331
 20
538.1091426355
 10
181.2274862446
 20
538.0442480785
 10
181.4547438539
 20
538.0349348527
  0
CIRCLE
  5
3AD
330
1F
100
AcDbEntity
  8
0
  6
Continuous
 62
     8
370
    18
100
AcDbCircle
 10
181.3871892598
 20
588.7116316856
 30
0.0
 40
1.226741873417258
  0
ARC
  5
3AE
330
1F
100
AcDbEntity
  8
0
  6
Continuous
 62
     8
370
    18
100
AcDbCircle
 10
181.3752099686
 20
588.7352432398
 30
0.0
 40
0.9258778267061238
100
AcDbArc
 50
142.8030446273
 51
293.6752961767
  0
LWPOLYLINE
  5
3AF
330
1F
100
AcDbEntity
  8
0
  6
Continuous
 62
     8
370
    18
100
AcDbPolyline
 90
        3
 70
   128
 43
0.0
 10
182.1302470185
 20
588.194627617
 10
181.9596538685
 20
588.014830206
 10
181.7469989314
 20
587.8872911674
  0
ARC
  5
3B0
330
1F
100
AcDbEntity
  8
0
  6
Continuous
 62
     8
370
    18
100
AcDbCircle
 10
181.3811692437
 20
588.738811934
 30
0.0
 40
0.9258801669714284
100
AcDbArc
 50
324.0026305216
 51
113.674918326
  0
LWPOLYLINE
  5
3B1
330
1F
100
AcDbEntity
  8
0
  6
Continuous
 62
     8
370
    18
100
AcDbPolyline
 90
        3
 70
   128
 43
0.0
 10
180.6376908339
 20
589.2949889642
 10
180.8043882616
 20
589.4651751262
 10
181.0093849331
 20
589.5867686015
  0
CIRCLE
  5
3B2
330
1F
100
AcDbEntity
  8
0
  6
Continuous
 62
     8
370
    18
100
AcDbCircle
 10
194.306327516
 20
538.9842619438
 30
0.0
 40
1.226738256770608
  0
ARC
  5
3B3
330
1F
100
AcDbEntity
  8
0
  6
Continuous
 62
     8
370
    18
100
AcDbCircle
 10
194.3183011689
 20
538.9606596027
 30
0.0
 40
0.9258842564254428
100
AcDbArc
 50
322.8028411247
 51
113.674909991
  0
LWPOLYLINE
  5
3B4
330
1F
100
AcDbEntity
  8
0
  6
Continuous
 62
     8
370
    18
100
AcDbPolyline
 90
        3
 70
   128
 43
0.0
 10
193.5632672526
 20
539.50128362
 10
193.7338604025
 20
539.6810661298
 10
193.9465153396
 20
539.8086200696
  0
ARC
  5
3B5
330
1F
100
AcDbEntity
  8
0
  6
Continuous
 62
     8
370
    18
100
AcDbCircle
 10
194.3123346997
 20
538.9570909878
 30
0.0
 40
0.9258766987525775
100
AcDbArc
 50
144.001838584
 51
293.6757102636
  0
LWPOLYLINE
  5
3B6
330
1F
100
AcDbEntity
  8
0
  6
Continuous
 62
     8
370
    18
100
AcDbPolyline
 90
        3
 70
   128
 43
0.0
 10
195.0558234371
 20
538.4009073716
 10
194.8891260095
 20
538.2307212096
 10
194.6841293379
 20
538.1091426355
  0
ARC
  5
3B7
330
1F
100
AcDbEntity
  8
0
  6
Continuous
 62
     8
370
    18
100
AcDbCircle
 10
181.3862541942
 20
544.5034040082
 30
0.0
 40
1.228802421793099
100
AcDbArc
 50
1.2517031041
 51
61.0202864029
  0
LWPOLYLINE
  5
3B8
330
1F
100
AcDbEntity
  8
0
  6
Continuous
 62
     8
370
    18
100
AcDbPolyline
 90
        3
 70
   128
 43
0.0
 10
180.7930298514
 20
543.4358160239
 10
180.879837963
 20
543.3920364123
 10
181.3461604893
 20
543.2819317323
  0
ARC
  5
3B9
330
1F
100
AcDbEntity
  8
0
  6
Continuous
 62
     8
370
    18
100
AcDbCircle
 10
181.3803670646
 20
544.489233993
 30
0.0
 40
0.9271860795219888
100
AcDbArc
 50
268.7967115354
 51
61.1110698224
  0
LWPOLYLINE
  5
3BA
330
1F
100
AcDbEntity
  8
0
  6
Continuous
 62
     8
370
    18
100
AcDbPolyline
 90
        3
 70
   128
 43
0.0
 10
181.8283029265
 20
545.3010390741
 10
181.6258720487
 20
545.3844110709
 10
181.409526746
 20
545.4175512534
  0
ARC
  5
3BB
330
1F
100
AcDbEntity
  8
0
  6
Continuous
 62
     8
370
    18
100
AcDbCircle
 10
181.376015052
 20
544.4909718951
 30
0.0
 40
0.927185170805022
100
AcDbArc
 50
87.9286802835
 51
241.1111622042
  0
LWPOLYLINE
  5
3BC
330
1F
100
AcDbEntity
  8
0
  6
Continuous
 62
     8
370
    18
100
AcDbPolyline
 90
        3
 70
   128
 43
0.0
 10
180.928080938
 20
543.6791668874
 10
181.137276943
 20
543.5938875419
 10
181.3608963407
 20
543.5622523767
  0
CIRCLE
  5
3BD
330
1F
100
AcDbEntity
  8
0
  6
Continuous
 62
     8
370
    18
100
AcDbCircle
 10
181.38757331
 20
583.1863411707
 30
0.0
 40
1.227226094377768
  0
ARC
  5
3BE
330
1F
100
AcDbEntity
  8
0
  6
Continuous
 62
     8
370
    18
100
AcDbCircle
 10
181.3763078558
 20
583.204405553
 30
0.0
 40
0.9271828189435257
100
AcDbArc
 50
148.437199064
 51
299.1759320307
  0
LWPOLYLINE
  5
3BF
330
1F
100
AcDbEntity
  8
0
  6
Continuous
 62
     8
370
    18
100
AcDbPolyline
 90
        3
 70
   128
 43
0.0
 10
182.1780019805
 20
582.7349911672
 10
182.0262499518
 20
582.5412462693
 10
181.8283029265
 20
582.3948572618
  0
ARC
  5
3C0
330
1F
100
AcDbEntity
  8
0
  6
Continuous
 62
     8
370
    18
100
AcDbCircle
 10
181.3800730778
 20
583.2071950197
 30
0.0
 40
0.9271822970723912
100
AcDbArc
 50
329.3835102846
 51
119.1757426008
  0
LWPOLYLINE
  5
3C1
330
1F
100
AcDbEntity
  8
0
  6
Continuous
 62
     8
370
    18
100
AcDbPolyline
 90
        3
 70
   128
 43
0.0
 10
180.5862860188
 20
583.689723466
 10
180.7356980994
 20
583.8756303531
 10
180.928080938
 20
584.0167443496
  0
CIRCLE
  5
3C2
330
1F
100
AcDbEntity
  8
0
  6
Continuous
 62
     8
370
    18
100
AcDbCircle
 10
194.3059395922
 20
544.5095712921
 30
0.0
 40
1.227227896511411
  0
ARC
  5
3C3
330
1F
100
AcDbEntity
  8
0
  6
Continuous
 62
     8
370
    18
100
AcDbCircle
 10
194.3172097306
 20
544.4914939629
 30
0.0
 40
0.9271816585883379
100
AcDbArc
 50
328.4369243843
 51
119.1762067104
  0
LWPOLYLINE
  5
3C4
330
1F
100
AcDbEntity
  8
0
  6
Continuous
 62
     8
370
    18
100
AcDbPolyline
 90
        3
 70
   128
 43
0.0
 10
193.5155122906
 20
544.9609200698
 10
193.6672643192
 20
545.1546649676
 10
193.8652113445
 20
545.3010390741
  0
ARC
  5
3C5
330
1F
100
AcDbEntity
  8
0
  6
Continuous
 62
     8
370
    18
100
AcDbCircle
 10
194.3134338081
 20
544.4887090156
 30
0.0
 40
0.9271796092774742
100
AcDbArc
 50
149.3828948652
 51
299.1763580203
  0
LWPOLYLINE
  5
3C6
330
1F
100
AcDbEntity
  8
0
  6
Continuous
 62
     8
370
    18
100
AcDbPolyline
 90
        3
 70
   128
 43
0.0
 10
195.1072282523
 20
544.0061728698
 10
194.9578161716
 20
543.8202659827
 10
194.765433333
 20
543.6791668874
  0
ARC
  5
3C7
330
1F
100
AcDbEntity
  8
0
  6
Continuous
 62
     8
370
    18
100
AcDbCircle
 10
194.3174992191
 20
583.2049393419
 30
0.0
 40
0.9271851708050003
100
AcDbArc
 50
267.9286802835
 51
61.1111622042
  0
LWPOLYLINE
  5
3C8
330
1F
100
AcDbEntity
  8
0
  6
Continuous
 62
     8
370
    18
100
AcDbPolyline
 90
        3
 70
   128
 43
0.0
 10
193.8652113445
 20
582.3948572618
 10
194.0676422223
 20
582.3114852649
 10
194.2839875251
 20
582.2783599836
  0
ARC
  5
3C9
330
1F
100
AcDbEntity
  8
0
  6
Continuous
 62
     8
370
    18
100
AcDbCircle
 10
194.3131455646
 20
583.2066627842
 30
0.0
 40
0.9271856727579235
100
AcDbArc
 50
88.7966095282
 51
241.1111718296
  0
LWPOLYLINE
  5
3CA
330
1F
100
AcDbEntity
  8
0
  6
Continuous
 62
     8
370
    18
100
AcDbPolyline
 90
        3
 70
   128
 43
0.0
 10
194.765433333
 20
584.0167443496
 10
194.556237328
 20
584.1020236951
 10
194.3326179303
 20
584.1336439592
  0
CIRCLE
  5
3CB
330
1F
100
AcDbEntity
  8
0
  6
Continuous
 62
     8
370
    18
100
AcDbCircle
 10
181.3889613121
 20
550.0641339124
 30
0.0
 40
1.227606282199754
  0
ARC
  5
3CC
330
1F
100
AcDbEntity
  8
0
  6
Continuous
 62
     8
370
    18
100
AcDbCircle
 10
181.3794823487
 20
550.0504896157
 30
0.0
 40
0.9281663829699747
100
AcDbArc
 50
259.9911919526
 51
52.5305705052
  0
LWPOLYLINE
  5
3CD
330
1F
100
AcDbEntity
  8
0
  6
Continuous
 62
     8
370
    18
100
AcDbPolyline
 90
        3
 70
   128
 43
0.0
 10
181.9441212706
 20
550.7871548873
 10
181.756093762
 20
550.8996884566
 10
181.5467953115
 20
550.9644787055
  0
ARC
  5
3CE
330
1F
100
AcDbEntity
  8
0
  6
Continuous
 62
     8
370
    18
100
AcDbCircle
 10
181.3769090632
 20
550.0519876726
 30
0.0
 40
0.9281709015625906
100
AcDbArc
 50
79.4535048478
 51
232.5301972914
  0
LWPOLYLINE
  5
3CF
330
1F
100
AcDbEntity
  8
0
  6
Continuous
 62
     8
370
    18
100
AcDbPolyline
 90
        3
 70
   128
 43
0.0
 10
180.8122625939
 20
549.3153224927
 10
181.0042654529
 20
549.2009858829
 10
181.2181674309
 20
549.1364489537
  0
CIRCLE
  5
3D0
330
1F
100
AcDbEntity
  8
0
  6
Continuous
 62
     8
370
    18
100
AcDbCircle
 10
181.3878255257
 20
577.630864823
 30
0.0
 40
1.227593348425626
  0
ARC
  5
3D1
330
1F
100
AcDbEntity
  8
0
  6
Continuous
 62
     8
370
    18
100
AcDbCircle
 10
181.3771349655
 20
577.6436144614
 30
0.0
 40
0.9281648100124364
100
AcDbArc
 50
157.0183729105
 51
307.6523011758
  0
LWPOLYLINE
  5
3D2
330
1F
100
AcDbEntity
  8
0
  6
Continuous
 62
     8
370
    18
100
AcDbPolyline
 90
        3
 70
   128
 43
0.0
 10
182.2374105818
 20
577.2921036225
 10
182.1165048882
 20
577.0807604533
 10
181.9441212706
 20
576.9087563497
  0
ARC
  5
3D3
330
1F
100
AcDbEntity
  8
0
  6
Continuous
 62
     8
370
    18
100
AcDbCircle
 10
181.3792500784
 20
577.6457204531
 30
0.0
 40
0.92816179215705
100
AcDbArc
 50
337.6052167045
 51
127.6525368687
  0
LWPOLYLINE
  5
3D4
330
1F
100
AcDbEntity
  8
0
  6
Continuous
 62
     8
370
    18
100
AcDbPolyline
 90
        3
 70
   128
 43
0.0
 10
180.5226385027
 20
578.0060033542
 10
180.6428131081
 20
578.2123099309
 10
180.8122625939
 20
578.3805738431
  0
CIRCLE
  5
3D5
330
1F
100
AcDbEntity
  8
0
  6
Continuous
 62
     8
370
    18
100
AcDbCircle
 10
194.3056887453
 20
550.0650315128
 30
0.0
 40
1.227593348425669
  0
ARC
  5
3D6
330
1F
100
AcDbEntity
  8
0
  6
Continuous
 62
     8
370
    18
100
AcDbCircle
 10
194.3163736669
 20
550.0522894707
 30
0.0
 40
0.9281671490938603
100
AcDbArc
 50
337.0189239529
 51
127.6517501334
  0
LWPOLYLINE
  5
3D7
330
1F
100
AcDbEntity
  8
0
  6
Continuous
 62
     8
370
    18
100
AcDbPolyline
 90
        3
 70
   128
 43
0.0
 10
193.4561036892
 20
550.4038076144
 10
193.5770093828
 20
550.6151358825
 10
193.7493930004
 20
550.7871548873
  0
ARC
  5
3D8
330
1F
100
AcDbEntity
  8
0
  6
Continuous
 62
     8
370
    18
100
AcDbCircle
 10
194.3142718864
 20
550.0501907972
 30
0.0
 40
0.9281689006222573
100
AcDbArc
 50
157.6053984118
 51
307.6515984338
  0
LWPOLYLINE
  5
3D9
330
1F
100
AcDbEntity
  8
0
  6
Continuous
 62
     8
370
    18
100
AcDbPolyline
 90
        3
 70
   128
 43
0.0
 10
195.1708757683
 20
549.6899078828
 10
195.0507011629
 20
549.4836013061
 10
194.8812516771
 20
549.3153224927
  0
CIRCLE
  5
3DA
330
1F
100
AcDbEntity
  8
0
  6
Continuous
 62
     8
370
    18
100
AcDbCircle
 10
194.3080118917
 20
583.1903791533
 30
0.0
 40
1.227237469897787
  0
ARC
  5
3DB
330
1F
100
AcDbEntity
  8
0
  6
Continuous
 62
     8
370
    18
100
AcDbCircle
 10
194.3166119868
 20
577.6439138888
 30
0.0
 40
0.9281626302553414
100
AcDbArc
 50
259.4529841333
 51
52.5303331759
  0
LWPOLYLINE
  5
3DC
330
1F
100
AcDbEntity
  8
0
  6
Continuous
 62
     8
370
    18
100
AcDbPolyline
 90
        3
 70
   128
 43
0.0
 10
193.7493930004
 20
576.9087563497
 10
193.937420509
 20
576.7962078792
 10
194.1467189595
 20
576.7314325315
  0
ARC
  5
3DD
330
1F
100
AcDbEntity
  8
0
  6
Continuous
 62
     8
370
    18
100
AcDbCircle
 10
194.3140392217
 20
577.6454184111
 30
0.0
 40
0.9281682756632481
100
AcDbArc
 50
79.9916701249
 51
232.5300923329
  0
LWPOLYLINE
  5
3DE
330
1F
100
AcDbEntity
  8
0
  6
Continuous
 62
     8
370
    18
100
AcDbPolyline
 90
        3
 70
   128
 43
0.0
 10
194.8812516771
 20
578.3805738431
 10
194.6892488181
 20
578.4949104529
 10
194.4753468402
 20
578.5594622832
  0
ARC
  5
3DF
330
1F
100
AcDbEntity
  8
0
  6
Continuous
 62
     8
370
    18
100
AcDbCircle
 10
181.3882786905
 20
555.579089745
 30
0.0
 40
1.226901443971846
100
AcDbArc
 50
245.7203661358
 51
38.7291985768
  0
LWPOLYLINE
  5
3E0
330
1F
100
AcDbEntity
  8
0
  6
Continuous
 62
     8
370
    18
100
AcDbPolyline
 90
        3
 70
   128
 43
0.0
 10
180.4293805167
 20
554.8133592349
 10
180.4937805414
 20
554.739136551
 10
180.8837886333
 20
554.4607083541
  0
ARC
  5
3E1
330
1F
100
AcDbEntity
  8
0
  6
Continuous
 62
     8
370
    18
100
AcDbCircle
 10
181.3788495109
 20
555.571677995
 30
0.0
 40
0.9288337021630837
100
AcDbArc
 50
245.7635887793
 51
38.7116079513
  0
LWPOLYLINE
  5
3E2
330
1F
100
AcDbEntity
  8
0
  6
Continuous
 62
     8
370
    18
100
AcDbPolyline
 90
        3
 70
   128
 43
0.0
 10
182.103621903
 20
556.1525712949
 10
181.9476612277
 20
556.3067685109
 10
181.759592741
 20
556.4195703012
  0
ARC
  5
3E3
330
1F
100
AcDbEntity
  8
0
  6
Continuous
 62
     8
370
    18
100
AcDbCircle
 10
181.3775477981
 20
555.5729393362
 30
0.0
 40
0.9288392375755234
100
AcDbArc
 50
65.7125706011
 51
218.7107078991
  0
LWPOLYLINE
  5
3E4
330
1F
100
AcDbEntity
  8
0
  6
Continuous
 62
     8
370
    18
100
AcDbPolyline
 90
        3
 70
   128
 43
0.0
 10
180.6527619615
 20
554.99205396
 10
180.8090546533
 20
554.837588523
 10
180.9975608617
 20
554.724712227
  0
ARC
  5
3E5
330
1F
100
AcDbEntity
  8
0
  6
Continuous
 62
     8
370
    18
100
AcDbCircle
 10
194.3064828812
 20
555.5806305564
 30
0.0
 40
1.226912631874592
100
AcDbArc
 50
350.9116341226
 51
141.3990223574
  0
LWPOLYLINE
  5
3E6
330
1F
100
AcDbEntity
  8
0
  6
Continuous
 62
     8
370
    18
100
AcDbPolyline
 90
        3
 70
   128
 43
0.0
 10
195.2638911448
 20
554.8130612117
 10
195.3514471084
 20
554.93751571
 10
195.5179927304
 20
555.3868304235
  0
ARC
  5
3E7
330
1F
100
AcDbEntity
  8
0
  6
Continuous
 62
     8
370
    18
100
AcDbCircle
 10
194.3157895925
 20
555.5730795805
 30
0.0
 40
0.9288365989611511
100
AcDbArc
 50
350.8455605625
 51
141.3992492422
  0
LWPOLYLINE
  5
3E8
330
1F
100
AcDbEntity
  8
0
  6
Continuous
 62
     8
370
    18
100
AcDbPolyline
 90
        3
 70
   128
 43
0.0
 10
193.3977032445
 20
555.7184110623
 10
193.465154282
 20
555.9481571656
 10
193.589892368
 20
556.1525712949
  0
ARC
  5
3E9
330
1F
100
AcDbEntity
  8
0
  6
Continuous
 62
     8
370
    18
100
AcDbCircle
 10
194.3148507839
 20
555.57153561
 30
0.0
 40
0.9288336813310287
100
AcDbArc
 50
170.9016922039
 51
321.3998999563
  0
LWPOLYLINE
  5
3EA
330
1F
100
AcDbEntity
  8
0
  6
Continuous
 62
     8
370
    18
100
AcDbPolyline
 90
        3
 70
   128
 43
0.0
 10
195.232795681
 20
555.4253052217
 10
195.1652999401
 20
555.1960508567
 10
195.0407523095
 20
554.99205396
  0
CIRCLE
  5
3EB
330
1F
100
AcDbEntity
  8
0
  6
Continuous
 62
     8
370
    18
100
AcDbCircle
 10
194.3073900262
 20
577.6331936988
 30
0.0
 40
1.227608205486634
  0
CIRCLE
  5
3EC
330
1F
100
AcDbEntity
  8
0
  6
Continuous
 62
     8
370
    18
100
AcDbCircle
 10
181.3880404689
 20
566.5992802361
 30
0.0
 40
1.227977066080184
  0
ARC
  5
3ED
330
1F
100
AcDbEntity
  8
0
  6
Continuous
 62
     8
370
    18
100
AcDbCircle
 10
181.3780930444
 20
566.6019592247
 30
0.0
 40
0.9291812972909874
100
AcDbArc
 50
192.8392092006
 51
343.3443010887
  0
LWPOLYLINE
  5
3EE
330
1F
100
AcDbEntity
  8
0
  6
Continuous
 62
     8
370
    18
100
AcDbPolyline
 90
        3
 70
   128
 43
0.0
 10
182.2841499366
 20
566.8100307923
 10
182.3075116977
 20
566.5718059283
 10
182.2682899788
 20
566.3356374246
  0
ARC
  5
3EF
330
1F
100
AcDbEntity
  8
0
  6
Continuous
 62
     8
370
    18
100
AcDbCircle
 10
181.3782900063
 20
566.6031697562
 30
0.0
 40
0.9291790470283786
100
AcDbArc
 50
12.8634201505
 51
163.3445898167
  0
LWPOLYLINE
  5
3F0
330
1F
100
AcDbEntity
  8
0
  6
Continuous
 62
     8
370
    18
100
AcDbPolyline
 90
        3
 70
   128
 43
0.0
 10
180.4721435897
 20
566.3954804879
 10
180.4488805488
 20
566.633526538
 10
180.4880938858
 20
566.8694864255
  0
CIRCLE
  5
3F1
330
1F
100
AcDbEntity
  8
0
  6
Continuous
 62
     8
370
    18
100
AcDbCircle
 10
194.3054738021
 20
561.0966160997
 30
0.0
 40
1.227977066080184
  0
ARC
  5
3F2
330
1F
100
AcDbEntity
  8
0
  6
Continuous
 62
     8
370
    18
100
AcDbCircle
 10
194.3154191213
 20
561.0939402377
 30
0.0
 40
0.9291826551963135
100
AcDbArc
 50
12.8389923781
 51
163.343568293
  0
LWPOLYLINE
  5
3F3
330
1F
100
AcDbEntity
  8
0
  6
Continuous
 62
     8
370
    18
100
AcDbPolyline
 90
        3
 70
   128
 43
0.0
 10
193.4093643345
 20
560.8858655435
 10
193.3860025733
 20
561.1241053086
 10
193.4252242923
 20
561.3602738124
  0
ARC
  5
3F4
330
1F
100
AcDbEntity
  8
0
  6
Continuous
 62
     8
370
    18
100
AcDbCircle
 10
194.3152249693
 20
561.0927478653
 30
0.0
 40
0.9291844729921982
100
AcDbArc
 50
192.8646900663
 51
343.3433199009
  0
LWPOLYLINE
  5
3F5
330
1F
100
AcDbEntity
  8
0
  6
Continuous
 62
     8
370
    18
100
AcDbPolyline
 90
        3
 70
   128
 43
0.0
 10
195.2213706814
 20
561.3004158479
 10
195.2446337223
 20
561.0623697978
 10
195.2054203853
 20
560.8264099103
  0
CIRCLE
  5
3F6
330
1F
100
AcDbEntity
  8
0
  6
Continuous
 62
     8
370
    18
100
AcDbCircle
 10
194.3053105625
 20
566.5998499097
 30
0.0
 40
1.227981412908873
  0
ARC
  5
3F7
330
1F
100
AcDbEntity
  8
0
  6
Continuous
 62
     8
370
    18
100
AcDbCircle
 10
194.3150816448
 20
566.6031124512
 30
0.0
 40
0.9291872780426861
100
AcDbArc
 50
43.8041868524
 51
196.7298276319
  0
LWPOLYLINE
  5
3F8
330
1F
100
AcDbEntity
  8
0
  6
Continuous
 62
     8
370
    18
100
AcDbPolyline
 90
        3
 70
   128
 43
0.0
 10
193.4252242923
 20
566.3356374246
 10
193.5122889831
 20
566.1341439229
 10
193.6447025642
 20
565.9590999824
  0
ARC
  5
3F9
330
1F
100
AcDbEntity
  8
0
  6
Continuous
 62
     8
370
    18
100
AcDbCircle
 10
194.3155619837
 20
566.6020132742
 30
0.0
 40
0.9291877429114676
100
AcDbArc
 50
223.7814073803
 51
16.7296982656
  0
LWPOLYLINE
  5
3FA
330
1F
100
AcDbEntity
  8
0
  6
Continuous
 62
     8
370
    18
100
AcDbPolyline
 90
        3
 70
   128
 43
0.0
 10
195.2054203853
 20
566.8694864255
 10
195.1182630278
 20
567.0711438399
 10
194.9856850683
 20
567.2462920886
  0
CIRCLE
  5
3FB
330
1F
100
AcDbEntity
  8
0
  6
Continuous
 62
     8
370
    18
100
AcDbCircle
 10
181.388188389
 20
561.0960679976
 30
0.0
 40
1.22797497059624
  0
ARC
  5
3FC
330
1F
100
AcDbEntity
  8
0
  6
Continuous
 62
     8
370
    18
100
AcDbCircle
 10
181.3784399449
 20
561.0927862449
 30
0.0
 40
0.9291838793325163
100
AcDbArc
 50
223.8033163798
 51
16.7306981046
  0
LWPOLYLINE
  5
3FD
330
1F
100
AcDbEntity
  8
0
  6
Continuous
 62
     8
370
    18
100
AcDbPolyline
 90
        3
 70
   128
 43
0.0
 10
182.2682899788
 20
561.3602738124
 10
182.1812252879
 20
561.5617673141
 10
182.0488117069
 20
561.7367963534
  0
ARC
  5
3FE
330
1F
100
AcDbEntity
  8
0
  6
Continuous
 62
     8
370
    18
100
AcDbCircle
 10
181.3779461296
 20
561.0938936181
 30
0.0
 40
0.9291848846443771
100
AcDbArc
 50
43.7806746933
 51
196.7304309527
  0
LWPOLYLINE
  5
3FF
330
1F
100
AcDbEntity
  8
0
  6
Continuous
 62
     8
370
    18
100
AcDbPolyline
 90
        3
 70
   128
 43
0.0
 10
180.4880938858
 20
560.8264099103
 10
180.5752512432
 20
560.624767397
 10
180.7078292027
 20
560.4496191484
  0
LWPOLYLINE
  5
400
330
1F
100
AcDbEntity
  8
0
  6
Continuous
 62
     8
370
    18
100
AcDbPolyline
 90
        3
 70
   128
 43
0.0
 10
180.46071859
 20
572.2706060153
 10
180.528214331
 20
572.4998603803
 10
180.6527619615
 20
572.703857277
  0
ARC
  5
401
330
1F
100
AcDbEntity
  8
0
  6
Continuous
 62
     8
370
    18
100
AcDbCircle
 10
181.3786634871
 20
572.124375627
 30
0.0
 40
0.9288336813310287
100
AcDbArc
 50
350.9016922039
 51
141.3998999563
  0
LWPOLYLINE
  5
402
330
1F
100
AcDbEntity
  8
0
  6
Continuous
 62
     8
370
    18
100
AcDbPolyline
 90
        3
 70
   128
 43
0.0
 10
182.2958110265
 20
571.9775001746
 10
182.2283599891
 20
571.7477540713
 10
182.103621903
 20
571.5433399421
  0
ARC
  5
403
330
1F
100
AcDbEntity
  8
0
  6
Continuous
 62
     8
370
    18
100
AcDbCircle
 10
181.3777168003
 20
572.1228138594
 30
0.0
 40
0.9288316526775476
100
AcDbArc
 50
170.8443993977
 51
321.4004104071
  0
ARC
  5
404
330
1F
100
AcDbEntity
  8
0
  6
Continuous
 62
     8
370
    18
100
AcDbCircle
 10
194.315976513
 20
572.1229641162
 30
0.0
 40
0.9288362716428051
100
AcDbArc
 50
245.7118085713
 51
38.7114699289
  0
LWPOLYLINE
  5
405
330
1F
100
AcDbEntity
  8
0
  6
Continuous
 62
     8
370
    18
100
AcDbPolyline
 90
        3
 70
   128
 43
0.0
 10
193.589892368
 20
571.5433399421
 10
193.7458530433
 20
571.3891278249
 10
193.9339215301
 20
571.2763409358
  0
ARC
  5
406
330
1F
100
AcDbEntity
  8
0
  6
Continuous
 62
     8
370
    18
100
AcDbCircle
 10
194.3146747517
 20
572.1242255022
 30
0.0
 40
0.9288366582451504
100
AcDbArc
 50
65.7643467754
 51
218.7108499551
  0
LWPOLYLINE
  5
407
330
1F
100
AcDbEntity
  8
0
  6
Continuous
 62
     8
370
    18
100
AcDbPolyline
 90
        3
 70
   128
 43
0.0
 10
195.0407523095
 20
572.703857277
 10
194.8844596177
 20
572.858322714
 10
194.6959534094
 20
572.97119901
  0
ARC
  5
408
330
1F
100
AcDbEntity
  8
0
  6
Continuous
 62
     8
370
    18
100
AcDbCircle
 10
194.3066659353
 20
572.1153783913
 30
0.0
 40
1.226899128275025
100
AcDbArc
 50
245.7723524874
 51
38.7287984134
  0
LWPOLYLINE
  5
409
330
1F
100
AcDbEntity
  8
0
  6
Continuous
 62
     8
370
    18
100
AcDbPolyline
 90
        3
 70
   128
 43
0.0
 10
193.3477615371
 20
571.3496546489
 10
193.4129317656
 20
571.2746124011
 10
193.8031917803
 20
570.9965418321
  0
ARC
  5
40A
330
1F
100
AcDbEntity
  8
0
  6
Continuous
 62
     8
370
    18
100
AcDbCircle
 10
181.388099755
 20
572.1169274447
 30
0.0
 40
1.226909867744978
100
AcDbArc
 50
350.8544568335
 51
141.3998978212
  0
LWPOLYLINE
  5
40B
330
1F
100
AcDbEntity
  8
0
  6
Continuous
 62
     8
370
    18
100
AcDbPolyline
 90
        3
 70
   128
 43
0.0
 10
182.3455096587
 20
571.3493566257
 10
182.4324230097
 20
571.4727680427
 10
182.5994128726
 20
571.9219188434
  0
LINE
  5
40C
330
1F
100
AcDbEntity
  8
0
  6
Continuous
 62
     8
370
    18
100
AcDbLine
 10
188.3425904803
 20
407.2479515564
 30
0.0
 11
187.518371748
 21
407.2479515564
 31
0.0
  0
LINE
  5
40D
330
1F
100
AcDbEntity
  8
0
  6
Continuous
 62
     8
370
    18
100
AcDbLine
 10
187.1384238025
 20
407.2479515564
 30
0.0
 11
178.5312570996
 21
407.2479515564
 31
0.0
  0
LINE
  5
40E
330
1F
100
AcDbEntity
  8
0
  6
Continuous
 62
     8
370
    18
100
AcDbLine
 10
197.1622571714
 20
407.2479515564
 30
0.0
 11
188.5550904685
 21
407.2479515564
 31
0.0
  0
LINE
  5
40F
330
1F
100
AcDbEntity
  8
0
  6
Continuous
 62
     8
370
    18
100
AcDbLine
 10
188.5626942517
 20
407.2479515564
 30
0.0
 11
188.3479131052
 21
407.2479515564
 31
0.0
  0
LINE
  5
410
330
1F
100
AcDbEntity
  8
0
  6
Continuous
 62
     8
370
    18
100
AcDbLine
 10
187.5148465756
 20
407.2479515564
 30
0.0
 11
187.1308200193
 21
407.2479515564
 31
0.0
  0
LINE
  5
411
330
1F
100
AcDbEntity
  8
0
  6
Continuous
 62
     8
370
    18
100
AcDbLine
 10
188.3479131052
 20
407.2479515564
 30
0.0
 11
188.3425904803
 21
407.2479515564
 31
0.0
  0
ARC
  5
412
330
1F
100
AcDbEntity
  8
0
  6
Continuous
 62
     8
370
    18
100
AcDbCircle
 10
187.8467571355
 20
390.6479518157
 30
0.0
 40
28.2
100
AcDbArc
 50
284.372617014
 51
63.687778168
  0
ARC
  5
413
330
1F
100
AcDbEntity
  8
0
  6
Continuous
 62
     8
370
    18
100
AcDbCircle
 10
187.8467571355
 20
390.6479518157
 30
0.0
 40
28.20000000000001
100
AcDbArc
 50
116.312221832
 51
255.627382986
  0
LINE
  5
414
330
1F
100
AcDbEntity
  8
0
  6
Continuous
 62
     7
370
    25
100
AcDbLine
 10
193.0753720358
 20
103.3584042568
 30
0.0
 11
193.0786125727
 21
103.3354303915
 31
0.0
  0
LINE
  5
415
330
1F
100
AcDbEntity
  8
0
  6
Continuous
 62
     7
370
    25
100
AcDbLine
 10
195.5334568761
 20
103.4211567718
 30
0.0
 11
195.6394986614
 21
104.9267365712
 31
0.0
  0
LINE
  5
416
330
1F
100
AcDbEntity
  8
0
  6
Continuous
 62
     7
370
    25
100
AcDbLine
 10
180.0535043135
 20
104.9339934367
 30
0.0
 11
180.1600573949
 21
103.4211567718
 31
0.0
  0
LINE
  5
417
330
1F
100
AcDbEntity
  8
0
  6
Continuous
 62
     7
370
    25
100
AcDbLine
 10
182.6149016984
 20
103.3354303915
 30
0.0
 11
182.6181422353
 21
103.3584042568
 31
0.0
  0
LINE
  5
418
330
1F
100
AcDbEntity
  8
0
  6
Continuous
 62
     7
370
    25
100
AcDbLine
 10
188.7411520134
 20
102.2437415201
 30
0.0
 11
188.7742241511
 21
101.9634283263
 31
0.0
  0
LINE
  5
419
330
1F
100
AcDbEntity
  8
0
  6
Continuous
 62
     7
370
    25
100
AcDbLine
 10
191.2303810373
 20
101.9934392649
 30
0.0
 11
191.2958111048
 21
102.6949114281
 31
0.0
  0
LINE
  5
41A
330
1F
100
AcDbEntity
  8
0
  6
Continuous
 62
     7
370
    25
100
AcDbLine
 10
184.3978908278
 20
102.6928960461
 30
0.0
 11
184.4631332338
 21
101.9934392649
 31
0.0
  0
LINE
  5
41B
330
1F
100
AcDbEntity
  8
0
  6
Continuous
 62
     7
370
    25
100
AcDbLine
 10
186.9192901199
 20
101.9634283263
 30
0.0
 11
186.9523866467
 21
102.2439464111
 31
0.0
  0
LWPOLYLINE
  5
41C
330
1F
100
AcDbEntity
  8
0
  6
Continuous
 62
     7
370
    25
100
AcDbPolyline
 90
        5
 70
   128
 43
0.0
 10
190.5876541409
 20
101.6778587479
 10
190.7496304616
 20
101.7067632753
 10
190.9666686684
 20
101.7702273208
 10
191.1466514125
 20
101.8654718179
 10
191.2303805716
 20
101.9934318144
  0
LWPOLYLINE
  5
41D
330
1F
100
AcDbEntity
  8
0
  6
Continuous
 62
     7
370
    25
100
AcDbPolyline
 90
        6
 70
   128
 43
0.0
 10
188.7742254899
 20
101.9634171504
 10
188.8440023308
 20
101.8289341707
 10
188.9796683231
 20
101.7387448925
 10
189.2913731413
 20
101.6580700058
 10
189.5779810279
 20
101.6395143349
 10
189.6764137914
 20
101.6378565807
  0
LWPOLYLINE
  5
41E
330
1F
100
AcDbEntity
  8
0
  6
Continuous
 62
     7
370
    25
100
AcDbPolyline
 90
        3
 70
   128
 43
0.0
 10
182.3894005634
 20
103.1366153735
 10
182.5362696677
 20
103.2148576457
 10
182.6148919195
 20
103.3353670616
  0
LWPOLYLINE
  5
41F
330
1F
100
AcDbEntity
  8
0
  6
Continuous
 62
     7
370
    25
100
AcDbPolyline
 90
        7
 70
   128
 43
0.0
 10
180.1600541353
 20
103.4212089259
 10
180.2351387583
 20
103.2780013162
 10
180.3908549614
 20
103.1781188328
 10
180.7426611326
 20
103.0818536062
 10
181.04554912
 20
103.0523344058
 10
181.3551677756
 20
103.0359729308
 10
181.517582982
 20
103.0323668498
  0
LWPOLYLINE
  5
420
330
1F
100
AcDbEntity
  8
0
  6
Continuous
 62
     7
370
    25
100
AcDbPolyline
 90
       10
 70
   128
 43
0.0
 10
194.3185372643
 20
103.0202708322
 10
194.6929643295
 20
103.0407822806
 10
194.8186579525
 20
103.0514701385
 10
194.9952497512
 20
103.0710688907
 10
195.1347888812
 20
103.0925116617
 10
195.2511725381
 20
103.1186818261
 10
195.3811926201
 20
103.1734920222
 10
195.4574879624
 20
103.2384648103
 10
195.5084485367
 20
103.3192365546
 10
195.5305511497
 20
103.414820053
  0
LINE
  5
421
330
1F
100
AcDbEntity
  8
0
  6
Continuous
 62
     7
370
    25
100
AcDbLine
 10
194.105761721
 20
103.0167653341
 30
0.0
 11
194.3185372643
 21
103.0202708322
 31
0.0
  0
LWPOLYLINE
  5
422
330
1F
100
AcDbEntity
  8
0
  6
Continuous
 62
     7
370
    25
100
AcDbPolyline
 90
       10
 70
   128
 43
0.0
 10
193.0849190235
 20
103.3331877667
 10
193.094165194
 20
103.2730355043
 10
193.1583412356
 20
103.1676693935
 10
193.2345029332
 20
103.1064405221
 10
193.3771801546
 20
103.0542566556
 10
193.4868326776
 20
103.0368185717
 10
193.6232798166
 20
103.0247784335
 10
193.7753927327
 20
103.0176780302
 10
193.9680423952
 20
103.0144966323
 10
194.105761721
 20
103.0167653341
  0
ARC
  5
423
330
1F
100
AcDbEntity
  8
0
  6
Continuous
 62
     7
370
    25
100
AcDbCircle
 10
186.4924577883
 20
102.2223413676
 30
0.0
 40
0.4991992254571003
100
AcDbArc
 50
276.2337359748
 51
328.7648099423
  0
LWPOLYLINE
  5
424
330
1F
100
AcDbEntity
  8
0
  6
Continuous
 62
     7
370
    25
100
AcDbPolyline
 90
        7
 70
   128
 43
0.0
 10
184.463139753
 20
101.9933722097
 10
184.5193590402
 20
101.8628641147
 10
184.6312432449
 20
101.7724550444
 10
184.899613158
 20
101.6844934899
 10
185.16675
 20
101.656121679
 10
185.461487285
 20
101.640479185
 10
185.6120961152
 20
101.6374467987
  0
LWPOLYLINE
  5
425
330
1F
100
AcDbEntity
  8
0
  6
Continuous
 62
     7
370
    25
100
AcDbPolyline
 90
        6
 70
   128
 43
0.0
 10
188.7741957458
 20
101.9642255384
 10
188.8415333947
 20
101.8339893896
 10
188.9722776964
 20
101.7474732477
 10
189.2735292336
 20
101.6718610305
 10
189.5542064581
 20
101.6559577662
 10
189.652112093
 20
101.6545719582
  0
LINE
  5
426
330
1F
100
AcDbEntity
  8
0
  6
Continuous
 62
     7
370
    25
100
AcDbLine
 10
195.6394986614
 20
104.9267365712
 30
0.0
 11
195.639911703
 21
104.9326039035
 31
0.0
  0
LINE
  5
427
330
1F
100
AcDbEntity
  8
0
  6
Continuous
 62
     7
370
    25
100
AcDbLine
 10
180.0534069903
 20
104.9353755195
 30
0.0
 11
180.0535043135
 21
104.9339934367
 31
0.0
  0
LINE
  5
428
330
1F
100
AcDbEntity
  8
0
  6
Continuous
 62
     7
370
    25
100
AcDbLine
 10
184.3976908263
 20
102.6950418133
 30
0.0
 11
184.3978908278
 21
102.6928960461
 31
0.0
  0
LINE
  5
429
330
1F
100
AcDbEntity
  8
0
  6
Continuous
 62
     7
370
    25
100
AcDbLine
 10
188.7410862387
 20
102.2442965884
 30
0.0
 11
188.7411520134
 21
102.2437415201
 31
0.0
  0
ARC
  5
42A
330
1F
100
AcDbEntity
  8
0
  6
Continuous
 62
     7
370
    25
100
AcDbCircle
 10
182.255853695
 20
103.4088941293
 30
0.0
 40
0.3645113945461128
100
AcDbArc
 50
269.5895711104
 51
347.4105362359
  0
LINE
  5
42B
330
1F
100
AcDbEntity
  8
0
  6
Continuous
 62
     7
370
    25
100
AcDbLine
 10
158.84675797
 20
159.7123299841
 30
0.0
 11
158.84675797
 21
152.5123295839
 31
0.0
  0
LINE
  5
42C
330
1F
100
AcDbEntity
  8
0
  6
Continuous
 62
     7
370
    25
100
AcDbLine
 10
216.8467563011
 20
152.5123295839
 30
0.0
 11
216.8467563011
 21
159.7123299841
 31
0.0
  0
ARC
  5
42D
330
1F
100
AcDbEntity
  8
0
  6
Continuous
 62
     7
370
    25
100
AcDbCircle
 10
159.6467571355
 20
152.5123296041
 30
0.0
 40
0.799999999999983
100
AcDbArc
 50
180.0
 51
270.0
  0
ARC
  5
42E
330
1F
100
AcDbEntity
  8
0
  6
Continuous
 62
     7
370
    25
100
AcDbCircle
 10
216.0467571355
 20
152.5123296041
 30
0.0
 40
0.799999999999983
100
AcDbArc
 50
270.0
 51
0.0
  0
LWPOLYLINE
  5
42F
330
1F
100
AcDbEntity
  8
0
  6
Continuous
 62
     7
370
    25
100
AcDbPolyline
 90
        3
 70
   128
 43
0.0
 10
185.5131351754
 20
126.9925586063
 10
185.3587384235
 20
126.9622161168
 10
185.2259548746
 20
126.9344925064
  0
LINE
  5
430
330
1F
100
AcDbEntity
  8
0
  6
Continuous
 62
     7
370
    25
100
AcDbLine
 10
167.8467575826
 20
106.2757684964
 30
0.0
 11
167.8467575826
 21
98.0123295564
 31
0.0
  0
LINE
  5
431
330
1F
100
AcDbEntity
  8
0
  6
Continuous
 62
     7
370
    25
100
AcDbLine
 10
167.8467575826
 20
151.7123296041
 30
0.0
 11
167.8467575826
 21
123.1488916207
 31
0.0
  0
LINE
  5
432
330
1F
100
AcDbEntity
  8
0
  6
Continuous
 62
     7
370
    25
100
AcDbLine
 10
207.8467566885
 20
98.0123295564
 30
0.0
 11
207.8467566885
 21
151.7123296041
 31
0.0
  0
ARC
  5
433
330
1F
100
AcDbEntity
  8
0
  6
Continuous
 62
     7
370
    25
100
AcDbCircle
 10
168.1467571355
 20
98.0123296041
 30
0.0
 40
0.2999999999999829
100
AcDbArc
 50
180.0
 51
270.0
  0
ARC
  5
434
330
1F
100
AcDbEntity
  8
0
  6
Continuous
 62
     7
370
    25
100
AcDbCircle
 10
207.5467571355
 20
98.0123296041
 30
0.0
 40
0.2999999999999829
100
AcDbArc
 50
270.0
 51
0.0
  0
ARC
  5
435
330
1F
100
AcDbEntity
  8
0
  6
Continuous
 62
     7
370
    25
100
AcDbCircle
 10
187.8467571355
 20
114.7123287916
 30
0.0
 40
12.29999959468845
100
AcDbArc
 50
179.9999984364
 51
0.0000015636
  0
ARC
  5
436
330
1F
100
AcDbEntity
  8
0
  6
Continuous
 62
     7
370
    25
100
AcDbCircle
 10
187.8467571355
 20
114.7123307047
 30
0.0
 40
12.29999959468855
100
AcDbArc
 50
359.9999926521
 51
180.0000073479
  0
CIRCLE
  5
437
330
1F
100
AcDbEntity
  8
0
  6
Continuous
 62
     7
370
    25
100
AcDbCircle
 10
187.8467571355
 20
114.7123296041
 30
0.0
 40
12.50000000000001
  0
LINE
  5
438
330
1F
100
AcDbEntity
  8
0
  6
Continuous
 62
     7
370
    25
100
AcDbLine
 10
180.1600573949
 20
103.4211567718
 30
0.0
 11
180.1605235219
 21
103.4185639698
 31
0.0
  0
LINE
  5
439
330
1F
100
AcDbEntity
  8
0
  6
Continuous
 62
     7
370
    25
100
AcDbLine
 10
182.6135685101
 20
103.3312990445
 30
0.0
 11
182.6149016984
 21
103.3354303915
 31
0.0
  0
LWPOLYLINE
  5
43A
330
1F
100
AcDbEntity
  8
0
  6
Continuous
 62
     7
370
    25
100
AcDbPolyline
 90
        9
 70
   128
 43
0.0
 10
190.3520146284
 20
101.632317074
 10
190.6061020113
 20
101.650321402
 10
190.8078602414
 20
101.6761749167
 10
190.9184324454
 20
101.7061374266
 10
190.9276110951
 20
101.7351797897
 10
190.8429687742
 20
101.7618975717
 10
190.661102663
 20
101.784614392
 10
190.4047302801
 20
101.7991132218
 10
190.1199777044
 20
101.8037661094
  0
LWPOLYLINE
  5
43B
330
1F
100
AcDbEntity
  8
0
  6
Continuous
 62
     7
370
    25
100
AcDbPolyline
 90
        3
 70
   128
 43
0.0
 10
189.8911300946
 20
101.6208953339
 10
190.1254371173
 20
101.6237489063
 10
190.3520146284
 20
101.632317074
  0
LWPOLYLINE
  5
43C
330
1F
100
AcDbEntity
  8
0
  6
Continuous
 62
     7
370
    25
100
AcDbPolyline
 90
        9
 70
   128
 43
0.0
 10
181.6884960413
 20
103.0160649795
 10
181.3977292172
 20
103.0209339339
 10
181.0888509631
 20
103.0361070413
 10
180.8126449019
 20
103.0598892946
 10
180.6096906207
 20
103.0878885764
 10
180.4844808198
 20
103.1183651764
 10
180.4505420282
 20
103.14985133
 10
180.5213528119
 20
103.1770981032
 10
180.677676703
 20
103.1961864907
  0
LWPOLYLINE
  5
43D
330
1F
100
AcDbEntity
  8
0
  6
Continuous
 62
     7
370
    25
100
AcDbPolyline
 90
        3
 70
   128
 43
0.0
 10
182.0932637334
 20
103.0296399373
 10
181.9103277653
 20
103.019458719
 10
181.6884960413
 20
103.0160649795
  0
LWPOLYLINE
  5
43E
330
1F
100
AcDbEntity
  8
0
  6
Continuous
 62
     7
370
    25
100
AcDbPolyline
 90
        9
 70
   128
 43
0.0
 10
185.8023841765
 20
101.6208953339
 10
185.5107488941
 20
101.6253954846
 10
185.2224621821
 20
101.639413752
 10
184.9851893626
 20
101.6614190418
 10
184.8310971532
 20
101.6874662716
 10
184.7613988343
 20
101.7159647424
 10
184.7868167229
 20
101.7455919761
 10
184.9109906602
 20
101.7715758759
 10
185.1075579311
 20
101.7902433056
  0
LWPOLYLINE
  5
43F
330
1F
100
AcDbEntity
  8
0
  6
Continuous
 62
     7
370
    25
100
AcDbPolyline
 90
        3
 70
   128
 43
0.0
 10
186.2750274727
 20
101.634857722
 10
186.053204829
 20
101.624385931
 10
185.8023841765
 20
101.6208953339
  0
LWPOLYLINE
  5
440
330
1F
100
AcDbEntity
  8
0
  6
Continuous
 62
     7
370
    25
100
AcDbPolyline
 90
        3
 70
   128
 43
0.0
 10
189.4184867983
 20
101.634857722
 10
189.640309442
 20
101.624385931
 10
189.8911300946
 20
101.6208953339
  0
LWPOLYLINE
  5
441
330
1F
100
AcDbEntity
  8
0
  6
Continuous
 62
     7
370
    25
100
AcDbPolyline
 90
        3
 70
   128
 43
0.0
 10
185.8023841765
 20
101.6208953339
 10
185.5680771537
 20
101.6237489063
 10
185.3414996426
 20
101.632317074
  0
LINE
  5
442
330
1F
100
AcDbEntity
  8
0
  6
Continuous
 62
     7
370
    25
100
AcDbLine
 10
158.84675797
 20
159.7123299841
 30
0.0
 11
216.8467563011
 21
159.7123299841
 31
0.0
  0
LINE
  5
443
330
1F
100
AcDbEntity
  8
0
  6
Continuous
 62
     7
370
    25
100
AcDbLine
 10
216.04675766
 20
151.7123296041
 30
0.0
 11
159.646756611
 21
151.7123296041
 31
0.0
  0
ELLIPSE
  5
444
330
1F
100
AcDbEntity
  8
0
  6
Continuous
 62
     7
370
    25
100
AcDbEllipse
 10
187.8467571355
 20
123.1488917463
 30
0.0
 11
19.99999999999997
 21
0.0
 31
0.0
210
0.0
220
0.0
230
1.0
 40
0.0085959648
 41
2.606285306221253
 42
3.644765193210019
  0
ELLIPSE
  5
445
330
1F
100
AcDbEntity
  8
0
  6
Continuous
 62
     7
370
    25
100
AcDbEllipse
 10
187.8467571355
 20
106.2757674618
 30
0.0
 11
19.99999999999997
 21
0.0
 31
0.0
210
0.0
220
0.0
230
1.0
 40
0.0085959648
 41
2.17852100064127
 42
3.741882457970966
  0
ARC
  5
446
330
1F
100
AcDbEntity
  8
0
  6
Continuous
 62
     7
370
    25
100
AcDbCircle
 10
187.8467571355
 20
114.7123296041
 30
0.0
 40
14.00000000000002
100
AcDbArc
 50
217.6276976449
 51
90.0
  0
ARC
  5
447
330
1F
100
AcDbEntity
  8
0
  6
Continuous
 62
     7
370
    25
100
AcDbCircle
 10
187.8467571355
 20
114.7123296041
 30
0.0
 40
14.00000000000001
100
AcDbArc
 50
90.0
 51
142.3723023551
  0
LINE
  5
448
330
1F
100
AcDbEntity
  8
0
  6
Continuous
 62
     7
370
    25
100
AcDbLine
 10
176.5339184917
 20
122.9597344179
 30
0.0
 11
172.7868762232
 21
122.9597344179
 31
0.0
  0
ARC
  5
449
330
1F
100
AcDbEntity
  8
0
  6
Continuous
 62
     7
370
    25
100
AcDbCircle
 10
187.8731785153
 20
114.6925019082
 30
0.0
 40
14.03303072216647
100
AcDbArc
 50
142.3740485332
 51
143.9049422364
  0
LINE
  5
44A
330
1F
100
AcDbEntity
  8
0
  6
Continuous
 62
     7
370
    25
100
AcDbLine
 10
172.7868762232
 20
106.4649238366
 30
0.0
 11
176.5339184917
 21
106.4649238366
 31
0.0
  0
ARC
  5
44B
330
1F
100
AcDbEntity
  8
0
  6
Continuous
 62
     7
370
    25
100
AcDbCircle
 10
187.8277260699
 20
114.6981316368
 30
0.0
 40
13.97625845113517
100
AcDbArc
 50
216.0921220943
 51
217.6292286276
  0
LINE
  5
44C
330
1F
100
AcDbEntity
  8
0
  6
Continuous
 62
     7
370
    25
100
AcDbLine
 10
203.4701366342
 20
97.7123282034
 30
0.0
 11
172.2233776368
 21
97.7123282034
 31
0.0
  0
LINE
  5
44D
330
1F
100
AcDbEntity
  8
0
  6
Continuous
 62
     7
370
    25
100
AcDbLine
 10
178.7908818938
 20
106.3429131288
 30
0.0
 11
176.7430348687
 21
106.3506691832
 31
0.0
  0
LINE
  5
44E
330
1F
100
AcDbEntity
  8
0
  6
Continuous
 62
     7
370
    25
100
AcDbLine
 10
176.7430348687
 20
123.0739890713
 30
0.0
 11
178.5617895789
 21
123.0808789957
 31
0.0
  0
ARC
  5
44F
330
1F
100
AcDbEntity
  8
0
  6
Continuous
 62
     7
370
    25
100
AcDbCircle
 10
187.8467571355
 20
114.7123296041
 30
0.0
 40
13.90000000000008
100
AcDbArc
 50
216.9815820663
 51
143.0184179337
  0
LINE
  5
450
330
1F
100
AcDbEntity
  8
0
  6
Continuous
 62
     7
370
    25
100
AcDbLine
 10
177.9885186247
 20
123.0656164814
 30
0.0
 11
178.5062399126
 21
122.9949775267
 31
0.0
  0
LINE
  5
451
330
1F
100
AcDbEntity
  8
0
  6
Continuous
 62
     7
370
    25
100
AcDbLine
 10
177.9858122013
 20
123.0656071681
 30
0.0
 11
177.9885186247
 21
123.0656164814
 31
0.0
  0
LINE
  5
452
330
1F
100
AcDbEntity
  8
0
  6
Continuous
 62
     7
370
    25
100
AcDbLine
 10
177.9858122013
 20
123.0656071681
 30
0.0
 11
176.7331609867
 21
123.0608611483
 31
0.0
  0
LINE
  5
453
330
1F
100
AcDbEntity
  8
0
  6
Continuous
 62
     7
370
    25
100
AcDbLine
 10
176.7331609867
 20
123.0608611483
 30
0.0
 11
176.7430348687
 21
123.0739890713
 31
0.0
  0
LINE
  5
454
330
1F
100
AcDbEntity
  8
0
  6
Continuous
 62
     7
370
    25
100
AcDbLine
 10
176.7331609867
 20
106.3637971062
 30
0.0
 11
177.9858122013
 21
106.3590510864
 31
0.0
  0
LINE
  5
455
330
1F
100
AcDbEntity
  8
0
  6
Continuous
 62
     7
370
    25
100
AcDbLine
 10
177.9885186247
 20
106.3590436358
 30
0.0
 11
177.9858122013
 21
106.3590510864
 31
0.0
  0
LINE
  5
456
330
1F
100
AcDbEntity
  8
0
  6
Continuous
 62
     7
370
    25
100
AcDbLine
 10
178.6879754059
 20
106.4538485486
 30
0.0
 11
177.9885186247
 21
106.3590436358
 31
0.0
  0
LWPOLYLINE
  5
457
330
1F
100
AcDbEntity
  8
0
  6
Continuous
 62
     7
370
    25
100
AcDbPolyline
 90
        3
 70
   128
 43
0.0
 10
176.7430348687
 20
106.3506691832
 10
176.738072782
 20
106.357262947
 10
176.7331609867
 20
106.3637971062
  0
ELLIPSE
  5
458
330
1F
100
AcDbEntity
  8
0
  6
Continuous
 62
     7
370
    25
100
AcDbEllipse
 10
187.8467571355
 20
122.8489031694
 30
0.0
 11
19.69999999999999
 21
0.0
 31
0.0
210
0.0
220
0.0
230
1.0
 40
0.0087268678
 41
2.441001059283769
 42
4.202458694329835
  0
ELLIPSE
  5
459
330
1F
100
AcDbEntity
  8
0
  6
Continuous
 62
     7
370
    25
100
AcDbEllipse
 10
187.8467571355
 20
106.5757560388
 30
0.0
 11
19.69999999999999
 21
0.0
 31
0.0
210
0.0
220
0.0
230
1.0
 40
0.0087268678
 41
2.080726612850268
 42
3.842184247896774
  0
LINE
  5
45A
330
1F
100
AcDbEntity
  8
0
  6
Continuous
 62
     7
370
    25
100
AcDbLine
 10
177.8910752751
 20
122.9492384124
 30
0.0
 11
176.5262751274
 21
122.9492384124
 31
0.0
  0
LINE
  5
45B
330
1F
100
AcDbEntity
  8
0
  6
Continuous
 62
     7
370
    25
100
AcDbLine
 10
178.4281615533
 20
122.8728476096
 30
0.0
 11
177.8910752751
 21
122.9492384124
 31
0.0
  0
LINE
  5
45C
330
1F
100
AcDbEntity
  8
0
  6
Continuous
 62
     7
370
    25
100
AcDbLine
 10
176.5339186636
 20
122.9597343903
 30
0.0
 11
176.5262748745
 21
122.9492393024
 31
0.0
  0
LINE
  5
45D
330
1F
100
AcDbEntity
  8
0
  6
Continuous
 62
     7
370
    25
100
AcDbLine
 10
176.5262751274
 20
106.4754217047
 30
0.0
 11
177.8910752751
 21
106.4754217047
 31
0.0
  0
LINE
  5
45E
330
1F
100
AcDbEntity
  8
0
  6
Continuous
 62
     7
370
    25
100
AcDbLine
 10
177.8910752751
 20
106.4754217047
 30
0.0
 11
178.5786092646
 21
106.571746536
 31
0.0
  0
LINE
  5
45F
330
1F
100
AcDbEntity
  8
0
  6
Continuous
 62
     7
370
    25
100
AcDbLine
 10
176.5262748745
 20
106.4754199058
 30
0.0
 11
176.5339186636
 21
106.4649248178
 31
0.0
  0
LINE
  5
460
330
1F
100
AcDbEntity
  8
0
  6
Continuous
 62
     7
370
    25
100
AcDbLine
 10
172.2233776368
 20
97.7123282034
 30
0.0
 11
168.1467570729
 21
97.7123282034
 31
0.0
  0
LINE
  5
461
330
1F
100
AcDbEntity
  8
0
  6
Continuous
 62
     7
370
    25
100
AcDbLine
 10
207.5467571981
 20
97.7123282034
 30
0.0
 11
203.4701366342
 21
97.7123282034
 31
0.0
  0
ARC
  5
462
330
1F
100
AcDbEntity
  8
0
  6
Continuous
 62
     7
370
    25
100
AcDbCircle
 10
187.8467571355
 20
114.7123296041
 30
0.0
 40
12.92138833107545
100
AcDbArc
 50
139.7240316541
 51
140.3970834125
  0
ARC
  5
463
330
1F
100
AcDbEntity
  8
0
  6
Continuous
 62
     7
370
    25
100
AcDbCircle
 10
187.8467571355
 20
114.7123296041
 30
0.0
 40
12.92138833107549
100
AcDbArc
 50
219.6029165875
 51
220.2759683459
  0
ARC
  5
464
330
1F
100
AcDbEntity
  8
0
  6
Continuous
 62
     8
370
    18
100
AcDbCircle
 10
187.8467571355
 20
114.7123296041
 30
0.0
 40
11.82205999548646
100
AcDbArc
 50
270.5075890006
 51
90.0
  0
LINE
  5
465
330
1F
100
AcDbEntity
  8
0
  6
Continuous
 62
     8
370
    18
100
AcDbLine
 10
187.8467571356
 20
102.8902693767
 30
0.0
 11
187.9514885718
 21
102.890735038
 31
0.0
  0
ARC
  5
466
330
1F
100
AcDbEntity
  8
0
  6
Continuous
 62
     8
370
    18
100
AcDbCircle
 10
187.8467571355
 20
114.7123296041
 30
0.0
 40
11.82205999548646
100
AcDbArc
 50
90.5075890006
 51
270.0000000001
  0
LINE
  5
467
330
1F
100
AcDbEntity
  8
0
  6
Continuous
 62
     8
370
    18
100
AcDbLine
 10
187.8467571355
 20
126.5343888778
 30
0.0
 11
187.7420256992
 21
126.5339250792
 31
0.0
  0
CIRCLE
  5
468
330
1F
100
AcDbEntity
  8
0
  6
Continuous
 62
     8
370
    18
100
AcDbCircle
 10
187.8467571355
 20
114.7123296041
 30
0.0
 40
12.28303455609253
  0
ARC
  5
469
330
1F
100
AcDbEntity
  8
0
  6
Continuous
 62
     8
370
    18
100
AcDbCircle
 10
193.9593415146
 20
101.061237502
 30
0.0
 40
2.438777720049494
100
AcDbArc
 50
85.6034519305
 51
111.16994056
  0
ARC
  5
46A
330
1F
100
AcDbEntity
  8
0
  6
Continuous
 62
     8
370
    18
100
AcDbCircle
 10
194.664874787
 20
100.0704411568
 30
0.0
 40
3.46146356021102
100
AcDbArc
 50
75.4674990409
 51
98.6162048626
  0
LWPOLYLINE
  5
46B
330
1F
100
AcDbEntity
  8
0
  6
Continuous
 62
     8
370
    18
100
AcDbPolyline
 90
        3
 70
   128
 43
0.0
 10
180.4430164762
 20
103.488748439
 10
180.2148904085
 20
103.4555188495
 10
180.1600573949
 20
103.4211567718
  0
ARC
  5
46C
330
1F
100
AcDbEntity
  8
0
  6
Continuous
 62
     8
370
    18
100
AcDbCircle
 10
181.1236190157
 20
97.6700901811
 30
0.0
 40
5.858327725440203
100
AcDbArc
 50
75.2526190739
 51
96.671513309
  0
ARC
  5
46D
330
1F
100
AcDbEntity
  8
0
  6
Continuous
 62
     8
370
    18
100
AcDbCircle
 10
190.0463211655
 20
98.3758634657
 30
0.0
 40
3.80642252559492
100
AcDbArc
 50
71.8763376019
 51
109.5237476855
  0
LWPOLYLINE
  5
46E
330
1F
100
AcDbEntity
  8
0
  6
Continuous
 62
     8
370
    18
100
AcDbPolyline
 90
        4
 70
   128
 43
0.0
 10
184.9157960519
 20
102.0819968659
 10
184.6103583362
 20
102.0496576208
 10
184.4694732122
 20
102.0066640455
 10
184.4631332338
 20
101.9934392649
  0
ARC
  5
46F
330
1F
100
AcDbEntity
  8
0
  6
Continuous
 62
     8
370
    18
100
AcDbCircle
 10
185.6166283591
 20
96.9380512504
 30
0.0
 40
5.191468233419504
100
AcDbArc
 50
75.467828772
 51
97.7584427383
  0
LWPOLYLINE
  5
470
330
1F
100
AcDbEntity
  8
0
  6
Continuous
 62
     8
370
    18
100
AcDbPolyline
 90
        3
 70
   128
 43
0.0
 10
190.1199777044
 20
101.8037661094
 10
189.8817710012
 20
101.8008156795
 10
189.6518170966
 20
101.7919643897
  0
LWPOLYLINE
  5
471
330
1F
100
AcDbEntity
  8
0
  6
Continuous
 62
     8
370
    18
100
AcDbPolyline
 90
        9
 70
   128
 43
0.0
 10
189.6518170966
 20
101.7919643897
 10
189.399712383
 20
101.7738334019
 10
189.2002864174
 20
101.7479500849
 10
189.0917709229
 20
101.7180471796
 10
189.084010794
 20
101.6891053993
 10
189.1694596402
 20
101.6625105519
 10
189.3513990931
 20
101.6399278421
 10
189.6071890501
 20
101.6255184192
 10
189.8911300946
 20
101.6208953339
  0
LWPOLYLINE
  5
472
330
1F
100
AcDbEntity
  8
0
  6
Continuous
 62
     8
370
    18
100
AcDbPolyline
 90
        9
 70
   128
 43
0.0
 10
181.0678878233
 20
103.2085954327
 10
181.3560828
 20
103.2038084347
 10
181.6621903695
 20
103.1889072735
 10
181.936842519
 20
103.165519901
 10
182.1403211348
 20
103.1378931481
 10
182.2680194296
 20
103.107722022
 10
182.3066981874
 20
103.0764221329
 10
182.2425361156
 20
103.0491008539
 10
182.0932637334
 20
103.0296399373
  0
LWPOLYLINE
  5
473
330
1F
100
AcDbEntity
  8
0
  6
Continuous
 62
     8
370
    18
100
AcDbPolyline
 90
        3
 70
   128
 43
0.0
 10
180.677676703
 20
103.1961864907
 10
180.8553721189
 20
103.2054922659
 10
181.0678878233
 20
103.2085954327
  0
LWPOLYLINE
  5
474
330
1F
100
AcDbEntity
  8
0
  6
Continuous
 62
     8
370
    18
100
AcDbPolyline
 90
        9
 70
   128
 43
0.0
 10
194.1740178868
 20
103.1971289892
 10
193.890820387
 20
103.1783684272
 10
193.639180287
 20
103.1511924345
 10
193.4651277393
 20
103.1195609946
 10
193.39009853
 20
103.0888348002
 10
193.4100209169
 20
103.0605225939
 10
193.532040938
 20
103.0364050645
 10
193.7439415037
 20
103.0210047144
 10
194.0050182298
 20
103.0160649795
  0
LWPOLYLINE
  5
475
330
1F
100
AcDbEntity
  8
0
  6
Continuous
 62
     8
370
    18
100
AcDbPolyline
 90
        3
 70
   128
 43
0.0
 10
194.0050182298
 20
103.0160649795
 10
194.2178966842
 20
103.0186838586
 10
194.4362257041
 20
103.0265442211
  0
LWPOLYLINE
  5
476
330
1F
100
AcDbEntity
  8
0
  6
Continuous
 62
     8
370
    18
100
AcDbPolyline
 90
        9
 70
   128
 43
0.0
 10
194.4362257041
 20
103.0265442211
 10
194.7235042594
 20
103.0449285287
 10
194.9807681508
 20
103.0720076639
 10
195.1603280745
 20
103.1037918407
 10
195.2395230897
 20
103.134786256
 10
195.2223862886
 20
103.163441189
 10
195.1013641797
 20
103.1879237968
 10
194.8885565057
 20
103.2035774667
 10
194.6256264478
 20
103.2085954327
  0
LWPOLYLINE
  5
477
330
1F
100
AcDbEntity
  8
0
  6
Continuous
 62
     8
370
    18
100
AcDbPolyline
 90
        3
 70
   128
 43
0.0
 10
194.6256264478
 20
103.2085954327
 10
194.402497857
 20
103.2057269592
 10
194.1740178868
 20
103.1971289892
  0
LWPOLYLINE
  5
478
330
1F
100
AcDbEntity
  8
0
  6
Continuous
 62
     8
370
    18
100
AcDbPolyline
 90
        9
 70
   128
 43
0.0
 10
185.5735365666
 20
101.8037661094
 10
185.8642072316
 20
101.7992920358
 10
186.1516042977
 20
101.7853743512
 10
186.3885673361
 20
101.7635068971
 10
186.543152448
 20
101.7375975031
 10
186.6140675397
 20
101.709210791
 10
186.590664684
 20
101.6796543378
 10
186.4690677162
 20
101.6536518115
 10
186.2750274727
 20
101.634857722
  0
LWPOLYLINE
  5
479
330
1F
100
AcDbEntity
  8
0
  6
Continuous
 62
     8
370
    18
100
AcDbPolyline
 90
        3
 70
   128
 43
0.0
 10
185.1075579311
 20
101.7902433056
 10
185.326678808
 20
101.8003835458
 10
185.5735365666
 20
101.8037661094
  0
LINE
  5
47A
330
1F
100
AcDbEntity
  8
0
  6
Continuous
 62
     8
370
    18
100
AcDbLine
 10
158.84675797
 20
152.5123295839
 30
0.0
 11
216.8467563011
 21
152.5123295839
 31
0.0
  0
ELLIPSE
  5
47B
330
1F
100
AcDbEntity
  8
0
  6
Continuous
 62
     8
370
    18
100
AcDbEllipse
 10
187.8467571355
 20
123.1488917463
 30
0.0
 11
19.99999999999997
 21
0.0
 31
0.0
210
0.0
220
0.0
230
1.0
 40
0.0085959648
 41
2.441001059283776
 42
2.606285306221253
  0
ELLIPSE
  5
47C
330
1F
100
AcDbEntity
  8
0
  6
Continuous
 62
     8
370
    18
100
AcDbEllipse
 10
187.8467571355
 20
106.2757674618
 30
0.0
 11
19.99999999999997
 21
0.0
 31
0.0
210
0.0
220
0.0
230
1.0
 40
0.0085959648
 41
3.741882457970966
 42
3.8421842478967
  0
LINE
  5
47D
330
1F
100
AcDbEntity
  8
0
  6
Continuous
 62
     8
370
    18
100
AcDbLine
 10
176.7588328935
 20
106.1649373848
 30
0.0
 11
172.7868762232
 21
106.1649373848
 31
0.0
  0
LINE
  5
47E
330
1F
100
AcDbEntity
  8
0
  6
Continuous
 62
     8
370
    18
100
AcDbLine
 10
172.5575380392
 20
123.2597227324
 30
0.0
 11
172.7868762232
 21
123.2597227324
 31
0.0
  0
LINE
  5
47F
330
1F
100
AcDbEntity
  8
0
  6
Continuous
 62
     8
370
    18
100
AcDbLine
 10
172.7868762232
 20
123.2597227324
 30
0.0
 11
176.7588328935
 21
123.2597227324
 31
0.0
  0
LINE
  5
480
330
1F
100
AcDbEntity
  8
0
  6
Continuous
 62
     8
370
    18
100
AcDbLine
 10
172.7868762232
 20
106.1649373848
 30
0.0
 11
172.7868762232
 21
106.4649238366
 31
0.0
  0
LINE
  5
481
330
1F
100
AcDbEntity
  8
0
  6
Continuous
 62
     8
370
    18
100
AcDbLine
 10
172.7868762232
 20
106.1649373848
 30
0.0
 11
172.5575380392
 21
106.1649373848
 31
0.0
  0
ARC
  5
482
330
1F
100
AcDbEntity
  8
0
  6
Continuous
 62
     8
370
    18
100
AcDbCircle
 10
172.8296974008
 20
106.1945300653
 30
0.0
 40
0.2737634833600655
100
AcDbArc
 50
98.998968796
 51
186.2055579259
  0
ENDSEC
  0
SECTION
  2
OBJECTS
  0
DICTIONARY
  5
C
330
0
100
AcDbDictionary
281
     1
  3
ACAD_GROUP
350
D
  3
ACAD_LAYOUT
350
1A
  3
ACAD_MLINESTYLE
350
17
  3
ACAD_PLOTSETTINGS
350
19
  3
ACAD_PLOTSTYLENAME
350
E
  3
ACAD_SCALELIST
350
47
  0
DICTIONARY
  5
D
102
{ACAD_REACTORS
330
C
102
}
330
C
100
AcDbDictionary
281
     1
  0
DICTIONARY
  5
1A
102
{ACAD_REACTORS
330
C
102
}
330
C
100
AcDbDictionary
281
     1
  3
Layout1
350
1E
  3
Layout2
350
26
  3
Model
350
22
  0
DICTIONARY
  5
17
102
{ACAD_REACTORS
330
C
102
}
330
C
100
AcDbDictionary
281
     1
  3
Standard
350
18
  0
DICTIONARY
  5
19
102
{ACAD_REACTORS
330
C
102
}
330
C
100
AcDbDictionary
281
     1
  0
ACDBDICTIONARYWDFLT
  5
E
102
{ACAD_REACTORS
330
C
102
}
330
C
100
AcDbDictionary
281
     1
  3
Normal
350
F
100
AcDbDictionaryWithDefault
340
F
  0
DICTIONARY
  5
47
102
{ACAD_REACTORS
330
C
102
}
330
C
100
AcDbDictionary
281
     1
  3
A0
350
48
  3
A1
350
49
  3
A2
350
4A
  3
A3
350
4B
  3
A4
350
4C
  3
A5
350
4D
  3
A6
350
4E
  3
A7
350
4F
  3
A8
350
50
  3
A9
350
51
  3
B0
350
52
  3
B1
350
53
  3
B2
350
54
  3
B3
350
55
  3
B4
350
56
  3
B5
350
57
  3
B6
350
58
  3
B7
350
59
  3
B8
350
5A
  3
B9
350
5B
  3
C0
350
5C
  3
C1
350
5D
  3
C2
350
5E
  3
C3
350
5F
  3
C4
350
60
  3
C5
350
61
  3
C6
350
62
  3
C7
350
63
  3
C8
350
64
  3
C9
350
65
  3
D0
350
66
  3
D1
350
67
  3
D2
350
68
  0
LAYOUT
  5
1E
102
{ACAD_REACTORS
330
1A
102
}
330
1A
100
AcDbPlotSettings
  1

  2
none_device
  4

  6

 40
0.0
 41
0.0
 42
0.0
 43
0.0
 44
0.0
 45
0.0
 46
0.0
 47
0.0
 48
0.0
 49
0.0
140
0.0
141
0.0
142
1.0
143
1.0
 70
   688
 72
     1
 73
     0
 74
     5
  7

 75
    16
147
1.0
148
0.0
149
0.0
100
AcDbLayout
  1
Layout1
 70
     1
 71
     1
 10
0.0
 20
0.0
 11
420.0
 21
297.0
 12
0.0
 22
0.0
 32
0.0
 14
1.0000000000E+20
 24
1.0000000000E+20
 34
1.0000000000E+20
 15
-1.0000000000E+20
 25
-1.0000000000E+20
 35
-1.0000000000E+20
146
0.0
 13
0.0
 23
0.0
 33
0.0
 16
1.0
 26
0.0
 36
0.0
 17
0.0
 27
1.0
 37
0.0
 76
     0
330
1B
  0
LAYOUT
  5
26
102
{ACAD_REACTORS
330
1A
102
}
330
1A
100
AcDbPlotSettings
  1

  2
none_device
  4

  6

 40
0.0
 41
0.0
 42
0.0
 43
0.0
 44
0.0
 45
0.0
 46
0.0
 47
0.0
 48
0.0
 49
0.0
140
0.0
141
0.0
142
1.0
143
1.0
 70
   688
 72
     1
 73
     0
 74
     5
  7

 75
    16
147
1.0
148
0.0
149
0.0
100
AcDbLayout
  1
Layout2
 70
     1
 71
     2
 10
0.0
 20
0.0
 11
0.0
 21
0.0
 12
0.0
 22
0.0
 32
0.0
 14
0.0
 24
0.0
 34
0.0
 15
0.0
 25
0.0
 35
0.0
146
0.0
 13
0.0
 23
0.0
 33
0.0
 16
1.0
 26
0.0
 36
0.0
 17
0.0
 27
1.0
 37
0.0
 76
     0
330
23
  0
LAYOUT
  5
22
102
{ACAD_REACTORS
330
1A
102
}
330
1A
100
AcDbPlotSettings
  1

  2
none_device
  4
Letter_(8.50_x_11.00_Inches)
  6

 40
6.35
 41
6.35
 42
6.35000508
 43
6.35000508
 44
215.9
 45
279.4
 46
0.0
 47
0.0
 48
0.0
 49
0.0
140
0.0
141
0.0
142
1.0
143
1.0
 70
  1712
 72
     1
 73
     0
 74
     0
  7

 75
     0
147
1.0
148
0.0
149
0.0
100
AcDbLayout
  1
Model
 70
     1
 71
     0
 10
0.0
 20
0.0
 11
594.0
 21
841.0
 12
0.0
 22
0.0
 32
0.0
 14
0.0
 24
0.0
 34
0.0
 15
594.0
 25
841.0
 35
0.0
146
0.0
 13
0.0
 23
0.0
 33
0.0
 16
1.0
 26
0.0
 36
0.0
 17
0.0
 27
1.0
 37
0.0
 76
     0
330
1F
331
29
  0
MLINESTYLE
  5
18
102
{ACAD_REACTORS
330
17
102
}
330
17
100
AcDbMlineStyle
  2
Standard
 70
     0
  3

 62
   256
 51
90.0
 52
90.0
 71
     2
 49
0.5
 62
   256
  6
BYLAYER
 49
-0.5
 62
   256
  6
BYLAYER
  0
ACDBPLACEHOLDER
  5
F
102
{ACAD_REACTORS
330
E
102
}
330
E
  0
SCALE
  5
48
102
{ACAD_REACTORS
330
47
102
}
330
47
100
AcDbScale
 70
     0
300
1:1
140
1.0
141
1.0
290
     1
  0
SCALE
  5
49
102
{ACAD_REACTORS
330
47
102
}
330
47
100
AcDbScale
 70
     0
300
1:2
140
1.0
141
2.0
290
     0
  0
SCALE
  5
4A
102
{ACAD_REACTORS
330
47
102
}
330
47
100
AcDbScale
 70
     0
300
1:4
140
1.0
141
4.0
290
     0
  0
SCALE
  5
4B
102
{ACAD_REACTORS
330
47
102
}
330
47
100
AcDbScale
 70
     0
300
1:5
140
1.0
141
5.0
290
     0
  0
SCALE
  5
4C
102
{ACAD_REACTORS
330
47
102
}
330
47
100
AcDbScale
 70
     0
300
1:8
140
1.0
141
8.0
290
     0
  0
SCALE
  5
4D
102
{ACAD_REACTORS
330
47
102
}
330
47
100
AcDbScale
 70
     0
300
1:10
140
1.0
141
10.0
290
     0
  0
SCALE
  5
4E
102
{ACAD_REACTORS
330
47
102
}
330
47
100
AcDbScale
 70
     0
300
1:16
140
1.0
141
16.0
290
     0
  0
SCALE
  5
4F
102
{ACAD_REACTORS
330
47
102
}
330
47
100
AcDbScale
 70
     0
300
1:20
140
1.0
141
20.0
290
     0
  0
SCALE
  5
50
102
{ACAD_REACTORS
330
47
102
}
330
47
100
AcDbScale
 70
     0
300
1:30
140
1.0
141
30.0
290
     0
  0
SCALE
  5
51
102
{ACAD_REACTORS
330
47
102
}
330
47
100
AcDbScale
 70
     0
300
1:40
140
1.0
141
40.0
290
     0
  0
SCALE
  5
52
102
{ACAD_REACTORS
330
47
102
}
330
47
100
AcDbScale
 70
     0
300
1:50
140
1.0
141
50.0
290
     0
  0
SCALE
  5
53
102
{ACAD_REACTORS
330
47
102
}
330
47
100
AcDbScale
 70
     0
300
1:100
140
1.0
141
100.0
290
     0
  0
SCALE
  5
54
102
{ACAD_REACTORS
330
47
102
}
330
47
100
AcDbScale
 70
     0
300
2:1
140
2.0
141
1.0
290
     0
  0
SCALE
  5
55
102
{ACAD_REACTORS
330
47
102
}
330
47
100
AcDbScale
 70
     0
300
4:1
140
4.0
141
1.0
290
     0
  0
SCALE
  5
56
102
{ACAD_REACTORS
330
47
102
}
330
47
100
AcDbScale
 70
     0
300
8:1
140
8.0
141
1.0
290
     0
  0
SCALE
  5
57
102
{ACAD_REACTORS
330
47
102
}
330
47
100
AcDbScale
 70
     0
300
10:1
140
10.0
141
1.0
290
     0
  0
SCALE
  5
58
102
{ACAD_REACTORS
330
47
102
}
330
47
100
AcDbScale
 70
     0
300
100:1
140
100.0
141
1.0
290
     0
  0
SCALE
  5
59
102
{ACAD_REACTORS
330
47
102
}
330
47
100
AcDbScale
 70
     0
300
1/128" = 1'-0"
140
0.0078125
141
12.0
290
     0
  0
SCALE
  5
5A
102
{ACAD_REACTORS
330
47
102
}
330
47
100
AcDbScale
 70
     0
300
1/64" = 1'-0"
140
0.015625
141
12.0
290
     0
  0
SCALE
  5
5B
102
{ACAD_REACTORS
330
47
102
}
330
47
100
AcDbScale
 70
     0
300
1/32" = 1'-0"
140
0.03125
141
12.0
290
     0
  0
SCALE
  5
5C
102
{ACAD_REACTORS
330
47
102
}
330
47
100
AcDbScale
 70
     0
300
1/16" = 1'-0"
140
0.0625
141
12.0
290
     0
  0
SCALE
  5
5D
102
{ACAD_REACTORS
330
47
102
}
330
47
100
AcDbScale
 70
     0
300
3/32" = 1'-0"
140
0.09375
141
12.0
290
     0
  0
SCALE
  5
5E
102
{ACAD_REACTORS
330
47
102
}
330
47
100
AcDbScale
 70
     0
300
1/8" = 1'-0"
140
0.125
141
12.0
290
     0
  0
SCALE
  5
5F
102
{ACAD_REACTORS
330
47
102
}
330
47
100
AcDbScale
 70
     0
300
3/16" = 1'-0"
140
0.1875
141
12.0
290
     0
  0
SCALE
  5
60
102
{ACAD_REACTORS
330
47
102
}
330
47
100
AcDbScale
 70
     0
300
1/4" = 1'-0"
140
0.25
141
12.0
290
     0
  0
SCALE
  5
61
102
{ACAD_REACTORS
330
47
102
}
330
47
100
AcDbScale
 70
     0
300
3/8" = 1'-0"
140
0.375
141
12.0
290
     0
  0
SCALE
  5
62
102
{ACAD_REACTORS
330
47
102
}
330
47
100
AcDbScale
 70
     0
300
1/2" = 1'-0"
140
0.5
141
12.0
290
     0
  0
SCALE
  5
63
102
{ACAD_REACTORS
330
47
102
}
330
47
100
AcDbScale
 70
     0
300
3/4" = 1'-0"
140
0.75
141
12.0
290
     0
  0
SCALE
  5
64
102
{ACAD_REACTORS
330
47
102
}
330
47
100
AcDbScale
 70
     0
300
1" = 1'-0"
140
1.0
141
12.0
290
     0
  0
SCALE
  5
65
102
{ACAD_REACTORS
330
47
102
}
330
47
100
AcDbScale
 70
     0
300
1-1/2" = 1'-0"
140
1.5
141
12.0
290
     0
  0
SCALE
  5
66
102
{ACAD_REACTORS
330
47
102
}
330
47
100
AcDbScale
 70
     0
300
3" = 1'-0"
140
3.0
141
12.0
290
     0
  0
SCALE
  5
67
102
{ACAD_REACTORS
330
47
102
}
330
47
100
AcDbScale
 70
     0
300
6" = 1'-0"
140
6.0
141
12.0
290
     0
  0
SCALE
  5
68
102
{ACAD_REACTORS
330
47
102
}
330
47
100
AcDbScale
 70
     0
300
1'-0" = 1'-0"
140
12.0
141
12.0
290
     0
  0
ENDSEC
  0
EOF
