  0
SECTION
  2
HEADER
  9
$ACADVER
  1
AC1032
  9
$ACADMAINTVER
 90
        4
  9
$DWGCODEPAGE
  3
ANSI_1252
  9
$LASTSAVEDBY
  1
MKramer
  9
$REQUIREDVERSIONS
160
                 0
  9
$INSBASE
 10
0.0
 20
0.0
 30
0.0
  9
$EXTMIN
 10
33.76143973320001
 20
37.46023423129998
 30
0.0
  9
$EXTMAX
 10
520.6771150059001
 20
451.9831858043
 30
0.0
  9
$LIMMIN
 10
0.0
 20
0.0
  9
$LIMMAX
 10
594.0
 20
841.0
  9
$ORTHOMODE
 70
     0
  9
$REGENMODE
 70
     1
  9
$FILLMODE
 70
     1
  9
$QTEXTMODE
 70
     0
  9
$MIRRTEXT
 70
     1
  9
$LTSCALE
 40
1.0
  9
$ATTMODE
 70
     1
  9
$TEXTSIZE
 40
10.0
  9
$TRACEWID
 40
1.0
  9
$TEXTSTYLE
  7
STANDARD
  9
$CLAYER
  8
0
  9
$CELTYPE
  6
ByLayer
  9
$CECOLOR
 62
   256
  9
$CELTSCALE
 40
1.0
  9
$DISPSILH
 70
     0
  9
$DIMSCALE
 40
1.0
  9
$DIMASZ
 40
2.5
  9
$DIMEXO
 40
0.0
  9
$DIMDLI
 40
3.75
  9
$DIMRND
 40
0.0
  9
$DIMDLE
 40
0.0
  9
$DIMEXE
 40
1.0
  9
$DIMTP
 40
0.0
  9
$DIMTM
 40
0.0
  9
$DIMTXT
 40
3.5
  9
$DIMCEN
 40
2.5
  9
$DIMTSZ
 40
0.0
  9
$DIMTOL
 70
     0
  9
$DIMLIM
 70
     0
  9
$DIMTIH
 70
     1
  9
$DIMTOH
 70
     1
  9
$DIMSE1
 70
     0
  9
$DIMSE2
 70
     0
  9
$DIMTAD
 70
     1
  9
$DIMZIN
 70
     0
  9
$DIMBLK
  1

  9
$DIMASO
 70
     1
  9
$DIMSHO
 70
     1
  9
$DIMPOST
  1

  9
$DIMAPOST
  1

  9
$DIMALT
 70
     0
  9
$DIMALTD
 70
     3
  9
$DIMALTF
 40
0.0393700787
  9
$DIMLFAC
 40
1.0
  9
$DIMTOFL
 70
     1
  9
$DIMTVP
 40
0.0
  9
$DIMTIX
 70
     0
  9
$DIMSOXD
 70
     0
  9
$DIMSAH
 70
     0
  9
$DIMBLK1
  1

  9
$DIMBLK2
  1

  9
$DIMSTYLE
  2
ISO-25
  9
$DIMCLRD
 70
     0
  9
$DIMCLRE
 70
     0
  9
$DIMCLRT
 70
     0
  9
$DIMTFAC
 40
1.0
  9
$DIMGAP
 40
1.5
  9
$DIMJUST
 70
     0
  9
$DIMSD1
 70
     0
  9
$DIMSD2
 70
     0
  9
$DIMTOLJ
 70
     1
  9
$DIMTZIN
 70
     0
  9
$DIMALTZ
 70
     0
  9
$DIMALTTZ
 70
     0
  9
$DIMUPT
 70
     0
  9
$DIMDEC
 70
     2
  9
$DIMTDEC
 70
     2
  9
$DIMALTU
 70
     2
  9
$DIMALTTD
 70
     2
  9
$DIMTXSTY
  7
STANDARD
  9
$DIMAUNIT
 70
     0
  9
$DIMADEC
 70
     0
  9
$DIMALTRND
 40
0.0
  9
$DIMAZIN
 70
     0
  9
$DIMDSEP
 70
    46
  9
$DIMATFIT
 70
     3
  9
$DIMFRAC
 70
     0
  9
$DIMLDRBLK
  1

  9
$DIMLUNIT
 70
     2
  9
$DIMLWD
 70
    -2
  9
$DIMLWE
 70
    -2
  9
$DIMTMOVE
 70
     2
  9
$DIMFXL
 40
1.0
  9
$DIMFXLON
 70
     0
  9
$DIMJOGANG
 40
0.7853981633974483
  9
$DIMTFILL
 70
     0
  9
$DIMTFILLCLR
 70
     0
  9
$DIMARCSYM
 70
     0
  9
$DIMLTYPE
  6

  9
$DIMLTEX1
  6

  9
$DIMLTEX2
  6

  9
$DIMTXTDIRECTION
 70
     0
  9
$LUNITS
 70
     2
  9
$LUPREC
 70
     2
  9
$SKETCHINC
 40
1.0
  9
$FILLETRAD
 40
10.0
  9
$AUNITS
 70
     0
  9
$AUPREC
 70
     2
  9
$MENU
  1
.
  9
$ELEVATION
 40
0.0
  9
$PELEVATION
 40
0.0
  9
$THICKNESS
 40
0.0
  9
$LIMCHECK
 70
     0
  9
$CHAMFERA
 40
0.0
  9
$CHAMFERB
 40
0.0
  9
$CHAMFERC
 40
0.0
  9
$CHAMFERD
 40
0.0
  9
$SKPOLY
 70
     0
  9
$TDCREATE
 40
2458400.498354051
  9
$TDUCREATE
 40
2458400.456687384
  9
$TDUPDATE
 40
2459915.283495359
  9
$TDUUPDATE
 40
2459915.241828692
  9
$TDINDWG
 40
0.0004729167
  9
$TDUSRTIMER
 40
0.0004729051
  9
$USRTIMER
 70
     1
  9
$ANGBASE
 50
0.0
  9
$ANGDIR
 70
     0
  9
$PDMODE
 70
     0
  9
$PDSIZE
 40
-1.0
  9
$PLINEWID
 40
0.0
  9
$SPLFRAME
 70
     0
  9
$SPLINETYPE
 70
     6
  9
$SPLINESEGS
 70
     8
  9
$HANDSEED
  5
587
  9
$SURFTAB1
 70
     6
  9
$SURFTAB2
 70
     6
  9
$SURFTYPE
 70
     6
  9
$SURFU
 70
     6
  9
$SURFV
 70
     6
  9
$UCSBASE
  2

  9
$UCSNAME
  2

  9
$UCSORG
 10
0.0
 20
0.0
 30
0.0
  9
$UCSXDIR
 10
1.0
 20
0.0
 30
0.0
  9
$UCSYDIR
 10
0.0
 20
1.0
 30
0.0
  9
$UCSORTHOREF
  2

  9
$UCSORTHOVIEW
 70
     0
  9
$UCSORGTOP
 10
0.0
 20
0.0
 30
0.0
  9
$UCSORGBOTTOM
 10
0.0
 20
0.0
 30
0.0
  9
$UCSORGLEFT
 10
0.0
 20
0.0
 30
0.0
  9
$UCSORGRIGHT
 10
0.0
 20
0.0
 30
0.0
  9
$UCSORGFRONT
 10
0.0
 20
0.0
 30
0.0
  9
$UCSORGBACK
 10
0.0
 20
0.0
 30
0.0
  9
$PUCSBASE
  2

  9
$PUCSNAME
  2

  9
$PUCSORG
 10
0.0
 20
0.0
 30
0.0
  9
$PUCSXDIR
 10
1.0
 20
0.0
 30
0.0
  9
$PUCSYDIR
 10
0.0
 20
1.0
 30
0.0
  9
$PUCSORTHOREF
  2

  9
$PUCSORTHOVIEW
 70
     0
  9
$PUCSORGTOP
 10
0.0
 20
0.0
 30
0.0
  9
$PUCSORGBOTTOM
 10
0.0
 20
0.0
 30
0.0
  9
$PUCSORGLEFT
 10
0.0
 20
0.0
 30
0.0
  9
$PUCSORGRIGHT
 10
0.0
 20
0.0
 30
0.0
  9
$PUCSORGFRONT
 10
0.0
 20
0.0
 30
0.0
  9
$PUCSORGBACK
 10
0.0
 20
0.0
 30
0.0
  9
$USERI1
 70
     0
  9
$USERI2
 70
     0
  9
$USERI3
 70
     0
  9
$USERI4
 70
     0
  9
$USERI5
 70
     0
  9
$USERR1
 40
0.0
  9
$USERR2
 40
0.0
  9
$USERR3
 40
0.0
  9
$USERR4
 40
0.0
  9
$USERR5
 40
0.0
  9
$WORLDVIEW
 70
     1
  9
$SHADEDGE
 70
     3
  9
$SHADEDIF
 70
    70
  9
$TILEMODE
 70
     1
  9
$MAXACTVP
 70
    64
  9
$PINSBASE
 10
0.0
 20
0.0
 30
0.0
  9
$PLIMCHECK
 70
     0
  9
$PEXTMIN
 10
1.000000000000000E+20
 20
1.000000000000000E+20
 30
1.000000000000000E+20
  9
$PEXTMAX
 10
-1.000000000000000E+20
 20
-1.000000000000000E+20
 30
-1.000000000000000E+20
  9
$PLIMMIN
 10
0.0
 20
0.0
  9
$PLIMMAX
 10
0.0
 20
0.0
  9
$UNITMODE
 70
     0
  9
$VISRETAIN
 70
     1
  9
$PLINEGEN
 70
     0
  9
$PSLTSCALE
 70
     1
  9
$TREEDEPTH
 70
  3020
  9
$CMLSTYLE
  2
Standard
  9
$CMLJUST
 70
     0
  9
$CMLSCALE
 40
1.0
  9
$PROXYGRAPHICS
 70
     1
  9
$MEASUREMENT
 70
     0
  9
$CELWEIGHT
370
    -1
  9
$ENDCAPS
280
     0
  9
$JOINSTYLE
280
     0
  9
$LWDISPLAY
290
     0
  9
$INSUNITS
 70
     0
  9
$HYPERLINKBASE
  1

  9
$STYLESHEET
  1

  9
$XEDIT
290
     1
  9
$CEPSNTYPE
380
     0
  9
$PSTYLEMODE
290
     1
  9
$FINGERPRINTGUID
  2
{0e1c273c-1547-4311-a213-e624ce24e5dd}
  9
$VERSIONGUID
  2
{FAEB1C32-E019-11D5-929B-00C0DF256EC4}
  9
$EXTNAMES
290
     1
  9
$PSVPSCALE
 40
0.0
  9
$OLESTARTUP
290
     0
  9
$SORTENTS
280
   127
  9
$INDEXCTL
280
     0
  9
$HIDETEXT
280
     1
  9
$XCLIPFRAME
280
     2
  9
$HALOGAP
280
     0
  9
$OBSCOLOR
 70
   257
  9
$OBSLTYPE
280
     0
  9
$INTERSECTIONDISPLAY
280
     0
  9
$INTERSECTIONCOLOR
 70
   257
  9
$DIMASSOC
280
     2
  9
$PROJECTNAME
  1

  9
$CAMERADISPLAY
290
     0
  9
$LENSLENGTH
 40
50.0
  9
$CAMERAHEIGHT
 40
0.0
  9
$STEPSPERSEC
 40
2.0
  9
$STEPSIZE
 40
6.0
  9
$3DDWFPREC
 40
2.0
  9
$PSOLWIDTH
 40
0.25
  9
$PSOLHEIGHT
 40
4.0
  9
$LOFTANG1
 40
1.570796326794897
  9
$LOFTANG2
 40
1.570796326794897
  9
$LOFTMAG1
 40
0.0
  9
$LOFTMAG2
 40
0.0
  9
$LOFTPARAM
 70
     7
  9
$LOFTNORMALS
280
     1
  9
$LATITUDE
 40
37.795
  9
$LONGITUDE
 40
-122.394
  9
$NORTHDIRECTION
 40
0.0
  9
$TIMEZONE
 70
 -8000
  9
$LIGHTGLYPHDISPLAY
280
     1
  9
$TILEMODELIGHTSYNCH
280
     1
  9
$SOLIDHIST
280
     0
  9
$SHOWHIST
280
     1
  9
$DWFFRAME
280
     2
  9
$DGNFRAME
280
     2
  9
$REALWORLDSCALE
290
     1
  9
$INTERFERECOLOR
 62
   256
  9
$CSHADOW
280
     0
  9
$SHADOWPLANELOCATION
 40
0.0
  0
ENDSEC
  0
SECTION
  2
CLASSES
  0
CLASS
  1
ACDBDICTIONARYWDFLT
  2
AcDbDictionaryWithDefault
  3
ObjectDBX Classes
 90
        0
 91
        3
280
     0
281
     0
  0
CLASS
  1
MATERIAL
  2
AcDbMaterial
  3
ObjectDBX Classes
 90
     1153
 91
        3
280
     0
281
     0
  0
CLASS
  1
SCALE
  2
AcDbScale
  3
ObjectDBX Classes
 90
     1153
 91
        3
280
     0
281
     0
  0
CLASS
  1
VISUALSTYLE
  2
AcDbVisualStyle
  3
ObjectDBX Classes
 90
     4095
 91
        3
280
     0
281
     0
  0
CLASS
  1
TABLESTYLE
  2
AcDbTableStyle
  3
ObjectDBX Classes
 90
     4095
 91
        3
280
     0
281
     0
  0
CLASS
  1
MLEADERSTYLE
  2
AcDbMLeaderStyle
  3
ACDB_MLEADERSTYLE_CLASS
 90
     4095
 91
        3
280
     0
281
     0
  0
CLASS
  1
DICTIONARYVAR
  2
AcDbDictionaryVar
  3
ObjectDBX Classes
 90
        0
 91
        3
280
     0
281
     0
  0
CLASS
  1
CELLSTYLEMAP
  2
AcDbCellStyleMap
  3
ObjectDBX Classes
 90
     1152
 91
        3
280
     0
281
     0
  0
ENDSEC
  0
SECTION
  2
TABLES
  0
TABLE
  2
VPORT
  5
50B
330
0
100
AcDbSymbolTable
 70
     1
  0
VPORT
  5
522
330
50B
100
AcDbSymbolTableRecord
100
AcDbViewportTableRecord
  2
*ACTIVE
 70
     0
 10
0.0
 20
0.0
 11
1.0
 21
1.0
 12
297.0
 22
420.5
 13
0.0
 23
0.0
 14
10.0
 24
10.0
 15
10.0
 25
10.0
 16
0.0
 26
0.0
 36
1.0
 17
0.0
 27
0.0
 37
0.0
 40
841.0
 41
0.7063020214
 42
50.0
 43
0.0
 44
0.0
 50
0.0
 51
0.0
 71
     0
 72
  2000
 73
     1
 74
     3
 75
     0
 76
     0
 77
     0
 78
     0
281
     0
 65
     0
110
0.0
120
0.0
130
0.0
111
1.0
121
0.0
131
0.0
112
0.0
122
1.0
132
0.0
 79
     0
146
0.0
348
55F
 60
     3
 61
     5
292
     1
282
     1
141
0.0
142
0.0
 63
   256
  0
ENDTAB
  0
TABLE
  2
LTYPE
  5
508
330
0
100
AcDbSymbolTable
 70
     6
  0
LTYPE
  5
516
330
508
100
AcDbSymbolTableRecord
100
AcDbLinetypeTableRecord
  2
ByBlock
 70
     0
  3

 72
    65
 73
     0
 40
0.0
  0
LTYPE
  5
517
330
508
100
AcDbSymbolTableRecord
100
AcDbLinetypeTableRecord
  2
ByLayer
 70
     0
  3

 72
    65
 73
     0
 40
0.0
  0
LTYPE
  5
518
330
508
100
AcDbSymbolTableRecord
100
AcDbLinetypeTableRecord
  2
CONTINUOUS
 70
     0
  3
Solid line
 72
    65
 73
     0
 40
0.0
  0
LTYPE
  5
524
330
508
100
AcDbSymbolTableRecord
100
AcDbLinetypeTableRecord
  2
HIDDEN
 70
     0
  3
Hidden __ __ __ __ __ __ __ __ __ __ __ __ __ __
 72
    65
 73
     2
 40
1.905
 49
1.27
 74
     0
 49
-0.635
 74
     0
  0
LTYPE
  5
525
330
508
100
AcDbSymbolTableRecord
100
AcDbLinetypeTableRecord
  2
PHANTOM
 70
     0
  3
Phantom ______  __  __  ______  __  __  ______
 72
    65
 73
     6
 40
12.7
 49
6.35
 74
     0
 49
-1.27
 74
     0
 49
1.27
 74
     0
 49
-1.27
 74
     0
 49
1.27
 74
     0
 49
-1.27
 74
     0
  0
LTYPE
  5
526
330
508
100
AcDbSymbolTableRecord
100
AcDbLinetypeTableRecord
  2
CENTER
 70
     0
  3
Center ____ _ ____ _ ____ _ ____ _ ____ _ ____
 72
    65
 73
     4
 40
10.16
 49
6.35
 74
     0
 49
-1.27
 74
     0
 49
1.27
 74
     0
 49
-1.27
 74
     0
  0
LTYPE
  5
527
330
508
100
AcDbSymbolTableRecord
100
AcDbLinetypeTableRecord
  2
CENTERX2
 70
     0
  3
Center (2x) ________  __  ________  __  _____
 72
    65
 73
     4
 40
20.32
 49
12.7
 74
     0
 49
-2.54
 74
     0
 49
2.54
 74
     0
 49
-2.54
 74
     0
  0
LTYPE
  5
528
330
508
100
AcDbSymbolTableRecord
100
AcDbLinetypeTableRecord
  2
DOT2
 70
     0
  3
Dot (.5x) ........................................
 72
    65
 73
     2
 40
0.635
 49
0.0
 74
     0
 49
-0.635
 74
     0
  0
ENDTAB
  0
TABLE
  2
LAYER
  5
506
330
0
100
AcDbSymbolTable
 70
     1
  0
LAYER
  5
513
330
506
100
AcDbSymbolTableRecord
100
AcDbLayerTableRecord
  2
0
 70
     0
 62
     7
  6
CONTINUOUS
370
    -3
390
512
347
52D
348
0
  0
ENDTAB
  0
TABLE
  2
STYLE
  5
507
330
0
100
AcDbSymbolTable
 70
     1
  0
STYLE
  5
514
330
507
100
AcDbSymbolTableRecord
100
AcDbTextStyleTableRecord
  2
STANDARD
 70
     0
 40
0.0
 41
1.0
 50
0.0
 71
     0
 42
10.0
  3
txt
  4

  0
ENDTAB
  0
TABLE
  2
VIEW
  5
509
330
0
100
AcDbSymbolTable
 70
     0
  0
ENDTAB
  0
TABLE
  2
UCS
  5
50A
330
0
100
AcDbSymbolTable
 70
     0
  0
ENDTAB
  0
TABLE
  2
APPID
  5
50C
330
0
100
AcDbSymbolTable
 70
     1
  0
APPID
  5
515
330
50C
100
AcDbSymbolTableRecord
100
AcDbRegAppTableRecord
  2
ACAD
 70
     0
  0
ENDTAB
  0
TABLE
  2
DIMSTYLE
  5
50D
330
0
100
AcDbSymbolTable
 70
     2
100
AcDbDimStyleTable
  0
DIMSTYLE
105
530
330
50D
100
AcDbSymbolTableRecord
100
AcDbDimStyleTableRecord
  2
ISO-25
 70
     0
 41
2.5
 42
0.625
 43
3.75
 44
1.25
 73
     0
 74
     0
 77
     1
 78
     8
140
2.5
141
2.5
143
0.0393700787
147
0.625
171
     3
172
     1
178
     0
340
514
  0
DIMSTYLE
105
531
330
50D
100
AcDbSymbolTableRecord
100
AcDbDimStyleTableRecord
  2
SLDDIMSTYLE0
 70
     0
 41
2.5
 44
0.0
 45
0.000000001
 73
     0
 74
     0
 77
     1
 78
    12
140
6.0
147
1.5
173
     1
178
     0
340
514
  0
ENDTAB
  0
TABLE
  2
BLOCK_RECORD
  5
505
330
0
100
AcDbSymbolTable
 70
     2
  0
BLOCK_RECORD
  5
51F
102
{ACAD_XDICTIONARY
360
578
102
}
330
505
100
AcDbSymbolTableRecord
100
AcDbBlockTableRecord
  2
*Model_Space
340
520
 70
     0
280
     1
281
     0
  0
BLOCK_RECORD
  5
51D
330
505
100
AcDbSymbolTableRecord
100
AcDbBlockTableRecord
  2
*Paper_Space
340
51E
 70
     0
280
     1
281
     0
  0
BLOCK_RECORD
  5
535
330
505
100
AcDbSymbolTableRecord
100
AcDbBlockTableRecord
  2
_D
340
0
 70
     0
280
     1
281
     0
  0
BLOCK_RECORD
  5
537
330
505
100
AcDbSymbolTableRecord
100
AcDbBlockTableRecord
  2
_D_1
340
0
 70
     0
280
     1
281
     0
  0
ENDTAB
  0
ENDSEC
  0
SECTION
  2
BLOCKS
  0
BLOCK
  5
532
330
51F
100
AcDbEntity
  8
0
100
AcDbBlockBegin
  2
*Model_Space
 70
     0
 10
0.0
 20
0.0
 30
0.0
  3
*Model_Space
  1

  0
ENDBLK
  5
21
330
51F
100
AcDbEntity
  8
0
100
AcDbBlockEnd
  0
BLOCK
  5
533
330
51D
100
AcDbEntity
 67
     1
  8
0
100
AcDbBlockBegin
  2
*Paper_Space
 70
     0
 10
0.0
 20
0.0
 30
0.0
  3
*Paper_Space
  1

  0
ENDBLK
  5
1D
330
51D
100
AcDbEntity
 67
     1
  8
0
100
AcDbBlockEnd
  0
BLOCK
  5
534
330
535
100
AcDbEntity
  8
0
100
AcDbBlockBegin
  2
_D
 70
     0
 10
0.0
 20
0.0
 30
0.0
  3
_D
  1

  0
SOLID
  5
7A
330
535
100
AcDbEntity
  8
0
  6
Continuous
 62
     7
100
AcDbTrace
 10
42.7614395004
 20
152.0299240879
 30
0.0
 11
42.4614395004
 21
149.5299240879
 31
0.0
 12
43.0614395004
 22
149.5299240879
 32
0.0
 13
43.0614395004
 23
149.5299240879
 33
0.0
  0
SOLID
  5
7B
330
535
100
AcDbEntity
  8
0
  6
Continuous
 62
     7
100
AcDbTrace
 10
42.7614395004
 20
52.0299240879
 30
0.0
 11
43.0614395004
 21
54.5299240879
 31
0.0
 12
42.4614395004
 22
54.5299240879
 32
0.0
 13
42.4614395004
 23
54.5299240879
 33
0.0
  0
LINE
  5
7C
330
535
100
AcDbEntity
  8
0
  6
Continuous
 62
     7
100
AcDbLine
 10
56.6850079902
 20
152.0299240879
 30
0.0
 11
41.7614395004
 21
152.0299240879
 31
0.0
  0
LINE
  5
7D
330
535
100
AcDbEntity
  8
0
  6
Continuous
 62
     7
100
AcDbLine
 10
56.6850079902
 20
52.0299240879
 30
0.0
 11
41.7614395004
 21
52.0299240879
 31
0.0
  0
LINE
  5
7E
330
535
100
AcDbEntity
  8
0
  6
Continuous
 62
     7
100
AcDbLine
 10
42.7614395004
 20
152.0299240879
 30
0.0
 11
42.7614395004
 21
52.0299240879
 31
0.0
  0
TEXT
  5
7F
330
535
100
AcDbEntity
  8
0
  6
Continuous
 62
     7
100
AcDbText
 10
39.7614397332
 20
94.3680541463
 30
0.0
 40
6.0
  1
100
 50
90.0
 41
0.7
 11
42.7614397332
 21
94.3680541463
 31
0.0
100
AcDbText
 73
     1
  0
TEXT
  5
80
330
535
100
AcDbEntity
  8
0
  6
Continuous
 62
     7
100
AcDbText
 10
39.7614397332
 20
105.7430548466
 30
0.0
 40
6.0
  1
mm
 50
90.0
 41
0.7
 11
42.7614397332
 21
105.7430548466
 31
0.0
100
AcDbText
 73
     1
  0
ENDBLK
  5
79
330
535
100
AcDbEntity
  8
0
100
AcDbBlockEnd
  0
BLOCK
  5
536
330
537
100
AcDbEntity
  8
0
100
AcDbBlockBegin
  2
_D_1
 70
     0
 10
0.0
 20
0.0
 30
0.0
  3
_D_1
  1

  0
SOLID
  5
85
330
537
100
AcDbEntity
  8
0
  6
Continuous
 62
     7
100
AcDbTrace
 10
56.6850079902
 20
38.4602342313
 30
0.0
 11
59.1850079902
 21
38.1602342313
 31
0.0
 12
59.1850079902
 22
38.7602342313
 32
0.0
 13
59.1850079902
 23
38.7602342313
 33
0.0
  0
SOLID
  5
86
330
537
100
AcDbEntity
  8
0
  6
Continuous
 62
     7
100
AcDbTrace
 10
156.6850079902
 20
38.4602342313
 30
0.0
 11
154.1850079902
 21
38.7602342313
 31
0.0
 12
154.1850079902
 22
38.1602342313
 32
0.0
 13
154.1850079902
 23
38.1602342313
 33
0.0
  0
LINE
  5
87
330
537
100
AcDbEntity
  8
0
  6
Continuous
 62
     7
100
AcDbLine
 10
56.6850079902
 20
52.0299240879
 30
0.0
 11
56.6850079902
 21
37.4602342313
 31
0.0
  0
LINE
  5
88
330
537
100
AcDbEntity
  8
0
  6
Continuous
 62
     7
100
AcDbLine
 10
156.6850079902
 20
52.0299240879
 30
0.0
 11
156.6850079902
 21
37.4602342313
 31
0.0
  0
LINE
  5
89
330
537
100
AcDbEntity
  8
0
  6
Continuous
 62
     7
100
AcDbLine
 10
56.6850079902
 20
38.4602342313
 30
0.0
 11
156.6850079902
 21
38.4602342313
 31
0.0
  0
TEXT
  5
8A
330
537
100
AcDbEntity
  8
0
  6
Continuous
 62
     7
100
AcDbText
 10
93.9626484861
 20
41.4602339984
 30
0.0
 40
6.0
  1
100
 41
0.7
 11
93.9626484861
 21
38.4602339984
 31
0.0
100
AcDbText
 73
     1
  0
TEXT
  5
8B
330
537
100
AcDbEntity
  8
0
  6
Continuous
 62
     7
100
AcDbText
 10
105.3376491864
 20
41.4602339984
 30
0.0
 40
6.0
  1
mm
 41
0.7
 11
105.3376491864
 21
38.4602339984
 31
0.0
100
AcDbText
 73
     1
  0
ENDBLK
  5
84
330
537
100
AcDbEntity
  8
0
100
AcDbBlockEnd
  0
ENDSEC
  0
SECTION
  2
ENTITIES
  0
LINE
  5
73
330
51F
100
AcDbEntity
  8
0
  6
Continuous
 62
     7
100
AcDbLine
 10
56.6850079902
 20
152.0299240879
 30
0.0
 11
56.6850079902
 21
52.0299240879
 31
0.0
  0
LINE
  5
74
330
51F
100
AcDbEntity
  8
0
  6
Continuous
 62
     7
100
AcDbLine
 10
56.6850079902
 20
52.0299240879
 30
0.0
 11
156.6850079902
 21
52.0299240879
 31
0.0
  0
DIMENSION
  5
75
330
51F
100
AcDbEntity
  8
0
  6
Continuous
 62
     7
100
AcDbDimension
280
     0
  2
_D
 10
42.7614395004
 20
52.0299240879
 30
0.0
 11
42.7614395004
 21
105.4472211621
 31
0.0
 70
   160
  1
<>mm
 71
     5
 42
-1.0
 73
     0
 74
     0
 75
     0
  3
SLDDIMSTYLE0
100
AcDbAlignedDimension
 13
56.6850079902
 23
152.0299240879
 33
0.0
 14
56.6850079902
 24
52.0299240879
 34
0.0
 50
90.0
100
AcDbRotatedDimension
  0
DIMENSION
  5
81
330
51F
100
AcDbEntity
  8
0
  6
Continuous
 62
     7
100
AcDbDimension
280
     0
  2
_D_1
 10
156.6850079902
 20
38.4602342313
 30
0.0
 11
105.0418155019
 21
38.4602342313
 31
0.0
 70
   160
  1
<>mm
 71
     5
 42
-1.0
 73
     0
 74
     0
 75
     0
  3
SLDDIMSTYLE0
100
AcDbAlignedDimension
 13
56.6850079902
 23
52.0299240879
 33
0.0
 14
156.6850079902
 24
52.0299240879
 34
0.0
100
AcDbRotatedDimension
  0
TEXT
  5
8C
330
51F
100
AcDbEntity
  8
0
  6
Continuous
 62
     7
100
AcDbText
 10
412.8252631579
 20
40.5435675522
 30
0.0
 40
10.0
  1
KLUDI GmbH & Co KG
 41
0.6222222222
 11
412.8252631579
 21
35.5435675522
 31
0.0
100
AcDbText
 73
     1
  0
TEXT
  5
8D
330
51F
100
AcDbEntity
  8
0
  6
Continuous
 62
     7
100
AcDbText
 10
210.0873490389
 20
40.5435675522
 30
0.0
 40
10.0
  1
48 290 .. 65
 41
0.6125
 11
210.0873490389
 21
35.5435675522
 31
0.0
100
AcDbText
 73
     1
  0
LINE
  5
8E
330
51F
100
AcDbEntity
  8
0
  6
Continuous
 62
     7
100
AcDbLine
 10
278.9035787558
 20
450.1001703034
 30
0.0
 11
278.9035787558
 21
429.2276752009
 31
0.0
  0
ARC
  5
8F
330
51F
100
AcDbEntity
  8
0
  6
Continuous
 62
     7
100
AcDbCircle
 10
280.4035787558
 20
450.1001703034
 30
0.0
 40
1.5
100
AcDbArc
 50
90.0
 51
180.0
  0
ARC
  5
90
330
51F
100
AcDbEntity
  8
0
  6
Continuous
 62
     7
100
AcDbCircle
 10
279.1035787558
 20
429.2276752009
 30
0.0
 40
0.1999999999999826
100
AcDbArc
 50
189.2221197056
 51
248.0
  0
LINE
  5
91
330
51F
100
AcDbEntity
  8
0
  6
Continuous
 62
     7
100
AcDbLine
 10
324.8296045443
 20
355.5092443663
 30
0.0
 11
324.8296045443
 21
363.0104840814
 31
0.0
  0
LWPOLYLINE
  5
92
330
51F
100
AcDbEntity
  8
0
  6
Continuous
 62
     7
100
AcDbPolyline
 90
        8
 70
   128
 43
0.0
 10
384.9599823547
 20
451.5993367384
 10
372.2007199983
 20
451.7346235075
 10
357.7303890166
 20
451.7901890962
 10
343.6795092361
 20
451.8199962307
 10
330.0480670962
 20
451.8381666226
 10
312.5251827145
 20
451.934631181
 10
295.74803316
 20
451.9396862678
 10
280.9071373403
 20
451.5993367384
  0
LWPOLYLINE
  5
93
330
51F
100
AcDbEntity
  8
0
  6
Continuous
 62
     7
100
AcDbPolyline
 90
        3
 70
   128
 43
0.0
 10
417.4962095538
 20
414.8150483646
 10
393.3826956562
 20
414.8652157292
 10
364.6818996978
 20
414.9281752492
  0
ARC
  5
94
330
51F
100
AcDbEntity
  8
0
  6
Continuous
 62
     7
100
AcDbCircle
 10
301.8296045443
 20
414.1001703034
 30
0.0
 40
21.64486082191338
100
AcDbArc
 50
143.7917674239
 51
170.9531540197
  0
ARC
  5
95
330
51F
100
AcDbEntity
  8
0
  6
Continuous
 62
     7
100
AcDbCircle
 10
301.8296045443
 20
414.1001703034
 30
0.0
 40
21.64486082191338
100
AcDbArc
 50
9.0468459803
 51
15.2684548419
  0
LINE
  5
96
330
51F
100
AcDbEntity
  8
0
  6
Continuous
 62
     7
100
AcDbLine
 10
280.3296045443
 20
415.9312310784
 30
0.0
 11
280.3296045443
 21
414.7083480064
 31
0.0
  0
LINE
  5
97
330
51F
100
AcDbEntity
  8
0
  6
Continuous
 62
     7
100
AcDbLine
 10
323.3296045443
 20
415.0131486217
 30
0.0
 11
323.3296045443
 21
415.9312310784
 31
0.0
  0
ARC
  5
98
330
51F
100
AcDbEntity
  8
0
  6
Continuous
 62
     7
100
AcDbCircle
 10
313.3296045443
 20
415.9312310784
 30
0.0
 40
10.0
100
AcDbArc
 50
0.0
 51
9.0468459803
  0
ARC
  5
99
330
51F
100
AcDbEntity
  8
0
  6
Continuous
 62
     7
100
AcDbCircle
 10
290.3296045443
 20
415.9312310784
 30
0.0
 40
9.999999999999947
100
AcDbArc
 50
170.9531540197
 51
180.0
  0
LWPOLYLINE
  5
9A
330
51F
100
AcDbEntity
  8
0
  6
Continuous
 62
     7
100
AcDbPolyline
 90
        3
 70
   128
 43
0.0
 10
390.6719159159
 20
394.4487304871
 10
396.1419547131
 20
394.4041156309
 10
398.4230526488
 20
394.4047146331
  0
ARC
  5
9B
330
51F
100
AcDbEntity
  8
0
  6
Continuous
 62
     7
100
AcDbCircle
 10
323.1329898292
 20
720.5306498606
 30
0.0
 40
333.9233109071807
100
AcDbArc
 50
286.5496636569
 51
287.5064250285
  0
LINE
  5
9C
330
51F
100
AcDbEntity
  8
0
  6
Continuous
 62
     7
100
AcDbLine
 10
324.9035787558
 20
420.0001703034
 30
0.0
 11
324.9035787558
 21
424.2642110827
 31
0.0
  0
ARC
  5
9D
330
51F
100
AcDbEntity
  8
0
  6
Continuous
 62
     7
100
AcDbCircle
 10
324.7035787558
 20
420.0001703034
 30
0.0
 40
0.1999999999999886
100
AcDbArc
 50
270.0
 51
0.0
  0
LINE
  5
9E
330
51F
100
AcDbEntity
  8
0
  6
Continuous
 62
     7
100
AcDbLine
 10
423.1651011535
 20
398.7050505754
 30
0.0
 11
421.8451002375
 21
401.5358016748
 31
0.0
  0
LINE
  5
9F
330
51F
100
AcDbEntity
  8
0
  6
Continuous
 62
     7
100
AcDbLine
 10
398.6574354882
 20
394.4730712045
 30
0.0
 11
401.4137142646
 21
388.5622122936
 31
0.0
  0
LINE
  5
A0
330
51F
100
AcDbEntity
  8
0
  6
Continuous
 62
     7
100
AcDbLine
 10
401.4137142646
 20
388.5622122936
 30
0.0
 11
402.5640208188
 21
388.4615735105
 31
0.0
  0
LINE
  5
A1
330
51F
100
AcDbEntity
  8
0
  6
Continuous
 62
     7
100
AcDbLine
 10
422.5027921336
 20
397.7591752688
 30
0.0
 11
423.1651011535
 21
398.7050505754
 31
0.0
  0
LWPOLYLINE
  5
A2
330
51F
100
AcDbEntity
  8
0
  6
Continuous
 62
     7
100
AcDbPolyline
 90
       15
 70
   128
 43
0.0
 10
324.8715904663
 20
363.0084380434
 10
325.0708465931
 20
367.4338655178
 10
325.8277037328
 20
372.2106387124
 10
327.0542836952
 20
376.4687335199
 10
328.2590056779
 20
379.3450902954
 10
329.6955935957
 20
381.9616297418
 10
331.3591480374
 20
384.323188593
 10
333.250850818
 20
386.4286001526
 10
335.3768296575
 20
388.2718150917
 10
337.7441129655
 20
389.8458949141
 10
340.3547906785
 20
391.1487764195
 10
343.2018703593
 20
392.1873625919
 10
347.3368210084
 20
393.1895404571
 10
351.8261023428
 20
393.7869558784
 10
356.0285433276
 20
393.9707471576
  0
LINE
  5
A3
330
51F
100
AcDbEntity
  8
0
  6
Continuous
 62
     7
100
AcDbLine
 10
324.9022597269
 20
426.8001703034
 30
0.0
 11
325.0535787558
 21
426.8001703034
 31
0.0
  0
LINE
  5
A4
330
51F
100
AcDbEntity
  8
0
  6
Continuous
 62
     7
100
AcDbLine
 10
325.0535787558
 20
426.8001703034
 30
0.0
 11
325.6541261257
 21
427.0187516703
 31
0.0
  0
ARC
  5
A5
330
51F
100
AcDbEntity
  8
0
  6
Continuous
 62
     7
100
AcDbCircle
 10
325.5857220971
 20
427.2066901944
 30
0.0
 40
0.2000000000000359
100
AcDbArc
 50
289.9999999999999
 51
0.0
  0
LINE
  5
A6
330
51F
100
AcDbEntity
  8
0
  6
Continuous
 62
     7
100
AcDbLine
 10
325.7857220971
 20
427.2066901944
 30
0.0
 11
325.7857220971
 21
434.2357349333
 31
0.0
  0
LWPOLYLINE
  5
A7
330
51F
100
AcDbEntity
  8
0
  6
Continuous
 62
     7
100
AcDbPolyline
 90
        3
 70
   128
 43
0.0
 10
325.8323740582
 20
434.1190829689
 10
326.1050230826
 20
435.1144647669
 10
326.4068007455
 20
435.8074069396
  0
ARC
  5
A8
330
51F
100
AcDbEntity
  8
0
  6
Continuous
 62
     7
100
AcDbCircle
 10
342.4113945683
 20
429.4128837134
 30
0.0
 40
17.21374427853923
100
AcDbArc
 50
91.32820346509999
 51
157.6362739788
  0
LWPOLYLINE
  5
A9
330
51F
100
AcDbEntity
  8
0
  6
Continuous
 62
     7
100
AcDbPolyline
 90
        3
 70
   128
 43
0.0
 10
342.7722556533
 20
446.6671132025
 10
342.7927390381
 20
446.6712815295
 10
342.8110213481
 20
446.6774172034
  0
LWPOLYLINE
  5
AA
330
51F
100
AcDbEntity
  8
0
  6
Continuous
 62
     7
100
AcDbPolyline
 90
        3
 70
   128
 43
0.0
 10
341.1100852259
 20
446.539792786
 10
341.9907653382
 20
446.6203689374
 10
342.9038923698
 20
446.6719436465
  0
LINE
  5
AB
330
51F
100
AcDbEntity
  8
0
  6
Continuous
 62
     7
100
AcDbLine
 10
274.2684572903
 20
329.6037227901
 30
0.0
 11
278.8296045443
 21
317.0720737031
 31
0.0
  0
LINE
  5
AC
330
51F
100
AcDbEntity
  8
0
  6
Continuous
 62
     7
100
AcDbLine
 10
278.8296045443
 20
328.7672913038
 30
0.0
 11
278.0272277735
 21
330.9718033634
 31
0.0
  0
LINE
  5
AD
330
51F
100
AcDbEntity
  8
0
  6
Continuous
 62
     7
100
AcDbLine
 10
259.3890720488
 20
330.9196825035
 30
0.0
 11
272.3890720488
 21
330.9196825035
 31
0.0
  0
LINE
  5
AE
330
51F
100
AcDbEntity
  8
0
  6
Continuous
 62
     7
100
AcDbLine
 10
272.3890720488
 20
334.9196825035
 30
0.0
 11
259.3890720488
 21
334.9196825035
 31
0.0
  0
ARC
  5
AF
330
51F
100
AcDbEntity
  8
0
  6
Continuous
 62
     7
100
AcDbCircle
 10
272.3890720488
 20
328.9196825035
 30
0.0
 40
2.000000000000014
100
AcDbArc
 50
20.0
 51
90.0
  0
ARC
  5
B0
330
51F
100
AcDbEntity
  8
0
  6
Continuous
 62
     7
100
AcDbCircle
 10
272.3890720488
 20
328.9196825035
 30
0.0
 40
6.0
100
AcDbArc
 50
20.0
 51
90.0
  0
LWPOLYLINE
  5
B1
330
51F
100
AcDbEntity
  8
0
  6
Continuous
 62
     7
100
AcDbPolyline
 90
        5
 70
   128
 43
0.0
 10
305.2405645628
 20
414.7074730338
 10
311.4774510162
 20
414.7074016641
 10
317.7607138972
 20
414.7069288275
 10
324.1078825064
 20
414.7058336319
 10
330.4772370153
 20
414.7042036705
  0
ARC
  5
B2
330
51F
100
AcDbEntity
  8
0
  6
Continuous
 62
     7
100
AcDbCircle
 10
305.5331264905
 20
438.4725746778
 30
0.0
 40
18.67418751343132
100
AcDbArc
 50
247.2082048784
 51
270.7917951216
  0
LINE
  5
B3
330
51F
100
AcDbEntity
  8
0
  6
Continuous
 62
     7
100
AcDbLine
 10
280.2807372058
 20
414.7067569577
 30
0.0
 11
301.8296045443
 21
414.7067569577
 31
0.0
  0
ARC
  5
B4
330
51F
100
AcDbEntity
  8
0
  6
Continuous
 62
     7
100
AcDbCircle
 10
280.3296045443
 20
413.2075531746
 30
0.0
 40
1.500000000000012
100
AcDbArc
 50
91.8669251722
 51
180.0
  0
LINE
  5
B5
330
51F
100
AcDbEntity
  8
0
  6
Continuous
 62
     7
100
AcDbLine
 10
278.8296045443
 20
413.2075531746
 30
0.0
 11
278.8296045443
 21
402.6673911509
 31
0.0
  0
LINE
  5
B6
330
51F
100
AcDbEntity
  8
0
  6
Continuous
 62
     7
100
AcDbLine
 10
278.8296045443
 20
292.9196825035
 30
0.0
 11
306.2207097767
 21
292.9196825035
 31
0.0
  0
LINE
  5
B7
330
51F
100
AcDbEntity
  8
0
  6
Continuous
 62
     7
100
AcDbLine
 10
278.8296045443
 20
317.0720737031
 30
0.0
 11
278.8296045443
 21
292.9196825035
 31
0.0
  0
ARC
  5
B8
330
51F
100
AcDbEntity
  8
0
  6
Continuous
 62
     7
100
AcDbCircle
 10
84.858275274
 20
322.9196825035
 30
0.0
 40
194.0594525076225
100
AcDbArc
 50
358.2732403690999
 51
1.7267596309
  0
LINE
  5
B9
330
51F
100
AcDbEntity
  8
0
  6
Continuous
 62
     7
100
AcDbLine
 10
278.8296045443
 20
402.6673911509
 30
0.0
 11
278.8296045443
 21
328.7672913038
 31
0.0
  0
LINE
  5
BA
330
51F
100
AcDbEntity
  8
0
  6
Continuous
 62
     7
100
AcDbLine
 10
280.5240467039
 20
451.5993367384
 30
0.0
 11
308.933360294
 21
451.5993367384
 31
0.0
  0
LINE
  5
BB
330
51F
100
AcDbEntity
  8
0
  6
Continuous
 62
     7
100
AcDbLine
 10
298.2990530703
 20
421.256493212
 30
0.0
 11
279.028657505
 21
429.0422384026
 31
0.0
  0
LINE
  5
BC
330
51F
100
AcDbEntity
  8
0
  6
Continuous
 62
     7
100
AcDbLine
 10
305.7911849386
 20
419.8001703034
 30
0.0
 11
315.7818396254
 21
419.8001703034
 31
0.0
  0
LINE
  5
BD
330
51F
100
AcDbEntity
  8
0
  6
Continuous
 62
     7
100
AcDbLine
 10
324.8296045443
 20
292.9196825035
 30
0.0
 11
324.8296045443
 21
355.5092443663
 31
0.0
  0
LINE
  5
BE
330
51F
100
AcDbEntity
  8
0
  6
Continuous
 62
     7
100
AcDbLine
 10
306.2207097767
 20
292.9196825035
 30
0.0
 11
324.8296045443
 21
292.9196825035
 31
0.0
  0
LWPOLYLINE
  5
BF
330
51F
100
AcDbEntity
  8
0
  6
Continuous
 62
     7
100
AcDbPolyline
 90
        7
 70
   128
 43
0.0
 10
308.9333604324
 20
451.5991698236
 10
313.8477394654
 20
451.5992403474
 10
318.8310204231
 20
451.5993618972
 10
323.9553204537
 20
451.5994167508
 10
329.0834195374
 20
451.5991324125
 10
334.2621629043
 20
451.599438648
 10
339.3869626713
 20
451.5994475277
  0
LWPOLYLINE
  5
C0
330
51F
100
AcDbEntity
  8
0
  6
Continuous
 62
     7
100
AcDbPolyline
 90
        4
 70
   128
 43
0.0
 10
417.3790810951
 20
414.8159037322
 10
391.0483227559
 20
414.8708073762
 10
364.7471054213
 20
414.9280395526
 10
364.6968915647
 20
414.9281423621
  0
LWPOLYLINE
  5
C1
330
51F
100
AcDbEntity
  8
0
  6
Continuous
 62
     7
100
AcDbPolyline
 90
        4
 70
   128
 43
0.0
 10
364.6818998661
 20
414.9281730567
 10
350.9391052899
 20
414.9563105211
 10
337.2195187407
 20
414.9864119782
 10
323.3296045443
 20
415.0131486217
  0
LWPOLYLINE
  5
C2
330
51F
100
AcDbEntity
  8
0
  6
Continuous
 62
     7
100
AcDbPolyline
 90
       11
 70
   128
 43
0.0
 10
301.8296045443
 20
414.7083902577
 10
305.2540913551
 20
414.7085834301
 10
308.5916558242
 20
414.718075989
 10
311.9203975397
 20
414.7482942162
 10
314.9646791747
 20
414.7949885512
 10
317.6332856475
 20
414.8510307887
 10
319.8567508107
 20
414.9079770249
 10
321.5660971714
 20
414.9575920846
 10
322.7189828686
 20
414.9936429766
 10
323.1758581379
 20
415.008267859
 10
323.3296045443
 20
415.0131486217
  0
LWPOLYLINE
  5
C3
330
51F
100
AcDbEntity
  8
0
  6
Continuous
 62
     7
100
AcDbPolyline
 90
        9
 70
   128
 43
0.0
 10
280.3296045443
 20
414.7083480064
 10
280.3234961205
 20
414.7081493228
 10
280.3173876986
 20
414.7079505828
 10
280.3112792786
 20
414.7077517864
 10
280.3051708603
 20
414.7075529336
 10
280.2990624439
 20
414.7073540243
 10
280.2929540294
 20
414.7071550585
 10
280.2868456167
 20
414.7069560363
 10
280.2807372058
 20
414.7067569577
  0
LINE
  5
C4
330
51F
100
AcDbEntity
  8
0
  6
Continuous
 62
     7
100
AcDbLine
 10
301.8296045443
 20
414.7083480064
 30
0.0
 11
280.3296045443
 21
414.7083480064
 31
0.0
  0
LINE
  5
C5
330
51F
100
AcDbEntity
  8
0
  6
Continuous
 62
     7
100
AcDbLine
 10
425.3296045443
 20
413.1797834228
 30
0.0
 11
425.3296045443
 21
403.6890898859
 31
0.0
  0
LWPOLYLINE
  5
C6
330
51F
100
AcDbEntity
  8
0
  6
Continuous
 62
     7
100
AcDbPolyline
 90
        3
 70
   128
 43
0.0
 10
398.386355769
 20
394.3990972099
 10
394.6158988818
 20
394.3629033525
 10
390.8158958893
 20
394.3266524476
  0
LINE
  5
C7
330
51F
100
AcDbEntity
  8
0
  6
Continuous
 62
     7
100
AcDbLine
 10
423.5810018155
 20
402.0747460394
 30
0.0
 11
424.3350457697
 21
402.3199673033
 31
0.0
  0
LINE
  5
C8
330
51F
100
AcDbEntity
  8
0
  6
Continuous
 62
     7
100
AcDbLine
 10
411.2128083945
 20
398.2973120563
 30
0.0
 11
418.4220626138
 21
400.4931786946
 31
0.0
  0
LINE
  5
C9
330
51F
100
AcDbEntity
  8
0
  6
Continuous
 62
     7
100
AcDbLine
 10
410.2511454545
 20
398.0261610164
 30
0.0
 11
411.212751689
 21
398.2972947844
 31
0.0
  0
LINE
  5
CA
330
51F
100
AcDbEntity
  8
0
  6
Continuous
 62
     7
100
AcDbLine
 10
417.379065885
 20
414.816831549
 30
0.0
 11
422.1360313814
 21
414.8081197873
 31
0.0
  0
LINE
  5
CB
330
51F
100
AcDbEntity
  8
0
  6
Continuous
 62
     7
100
AcDbLine
 10
422.1360313814
 20
414.8081197873
 30
0.0
 11
423.9007439078
 21
414.768364966
 31
0.0
  0
LINE
  5
CC
330
51F
100
AcDbEntity
  8
0
  6
Continuous
 62
     7
100
AcDbLine
 10
342.8117081408
 20
446.6571775358
 30
0.0
 11
343.4654915549
 21
446.6899288887
 31
0.0
  0
LINE
  5
CD
330
51F
100
AcDbEntity
  8
0
  6
Continuous
 62
     7
100
AcDbLine
 10
325.0535787558
 20
432.432289128
 30
0.0
 11
325.156426119
 21
432.7622203139
 31
0.0
  0
ARC
  5
CE
330
51F
100
AcDbEntity
  8
0
  6
Continuous
 62
     7
100
AcDbCircle
 10
336.2028850184
 20
429.3965107649
 30
0.0
 40
11.55521442497471
100
AcDbArc
 50
164.7685201714
 51
183.2651187792
  0
LINE
  5
CF
330
51F
100
AcDbEntity
  8
0
  6
Continuous
 62
     7
100
AcDbLine
 10
324.7035787558
 20
419.8001703034
 30
0.0
 11
315.7818396254
 21
419.8001703034
 31
0.0
  0
ARC
  5
D0
330
51F
100
AcDbEntity
  8
0
  6
Continuous
 62
     7
100
AcDbCircle
 10
423.8766989574
 20
403.6986815029
 30
0.0
 40
1.452905586840352
100
AcDbArc
 50
288.3891350159
 51
359.9999997963
  0
ARC
  5
D1
330
51F
100
AcDbEntity
  8
0
  6
Continuous
 62
     7
100
AcDbCircle
 10
423.8295880925
 20
413.2700371701
 30
0.0
 40
1.500016451747008
100
AcDbArc
 50
359.9996648527001
 51
87.2810574975
  0
LINE
  5
D2
330
51F
100
AcDbEntity
  8
0
  6
Continuous
 62
     7
100
AcDbLine
 10
425.3296045443
 20
413.2700283958
 30
0.0
 11
425.3296045443
 21
413.1797834228
 31
0.0
  0
LINE
  5
D3
330
51F
100
AcDbEntity
  8
0
  6
Continuous
 62
     7
100
AcDbLine
 10
344.7158993599
 20
446.6986585242
 30
0.0
 11
340.1556448287
 21
446.6668214244
 31
0.0
  0
LINE
  5
D4
330
51F
100
AcDbEntity
  8
0
  6
Continuous
 62
     7
100
AcDbLine
 10
385.2203338029
 20
446.9814374154
 30
0.0
 11
344.7158993599
 21
446.6986585242
 31
0.0
  0
LINE
  5
D5
330
51F
100
AcDbEntity
  8
0
  6
Continuous
 62
     7
100
AcDbLine
 10
387.9035787558
 20
450.1001703034
 30
0.0
 11
387.9035787558
 21
448.4897347125
 31
0.0
  0
ARC
  5
D6
330
51F
100
AcDbEntity
  8
0
  6
Continuous
 62
     7
100
AcDbCircle
 10
386.4035787558
 20
448.4897347125
 30
0.0
 40
1.500000000000039
100
AcDbArc
 50
270.4
 51
0.0
  0
LINE
  5
D7
330
51F
100
AcDbEntity
  8
0
  6
Continuous
 62
     7
100
AcDbLine
 10
386.4140506463
 20
446.9897712665
 30
0.0
 11
385.2203338029
 21
446.9814374154
 31
0.0
  0
ARC
  5
D8
330
51F
100
AcDbEntity
  8
0
  6
Continuous
 62
     7
100
AcDbCircle
 10
386.4035787558
 20
450.1001703034
 30
0.0
 40
1.500000000000014
100
AcDbArc
 50
0.0
 51
88.0897868283
  0
LINE
  5
D9
330
51F
100
AcDbEntity
  8
0
  6
Continuous
 62
     7
100
AcDbLine
 10
411.212751689
 20
398.2972947844
 30
0.0
 11
410.2512678628
 21
398.0044364397
 31
0.0
  0
LINE
  5
DA
330
51F
100
AcDbEntity
  8
0
  6
Continuous
 62
     7
100
AcDbLine
 10
410.2512678628
 20
398.0044364397
 30
0.0
 11
398.443041804
 21
394.4077690354
 31
0.0
  0
ARC
  5
DB
330
51F
100
AcDbEntity
  8
0
  6
Continuous
 62
     7
100
AcDbCircle
 10
398.3847670768
 20
394.5990909007
 30
0.0
 40
0.1999999999999957
100
AcDbArc
 50
270.4551652166999
 51
286.9402106910001
  0
LINE
  5
DC
330
51F
100
AcDbEntity
  8
0
  6
Continuous
 62
     7
100
AcDbLine
 10
407.9429082542
 20
391.6068254525
 30
0.0
 11
406.4964339744
 21
394.7087995558
 31
0.0
  0
LINE
  5
DD
330
51F
100
AcDbEntity
  8
0
  6
Continuous
 62
     7
100
AcDbLine
 10
407.9429082542
 20
391.6068254525
 30
0.0
 11
401.4137142646
 21
388.5622122936
 31
0.0
  0
LINE
  5
DE
330
51F
100
AcDbEntity
  8
0
  6
Continuous
 62
     7
100
AcDbLine
 10
423.1651011535
 20
398.7050505754
 30
0.0
 11
416.635907164
 21
395.6604374165
 31
0.0
  0
LINE
  5
DF
330
51F
100
AcDbEntity
  8
0
  6
Continuous
 62
     7
100
AcDbLine
 10
415.1894328842
 20
398.7624115198
 30
0.0
 11
416.635907164
 21
395.6604374165
 31
0.0
  0
LINE
  5
E0
330
51F
100
AcDbEntity
  8
0
  6
Continuous
 62
     7
100
AcDbLine
 10
406.4964339744
 20
394.7087995558
 30
0.0
 11
415.1894328842
 21
398.7624115198
 31
0.0
  0
LWPOLYLINE
  5
E1
330
51F
100
AcDbEntity
  8
0
  6
Continuous
 62
     7
100
AcDbPolyline
 90
        3
 70
   128
 43
0.0
 10
412.5334064762
 20
393.1103743897
 10
411.4198407551
 20
392.6334329698
 10
407.9429082542
 20
391.6068254525
  0
LINE
  5
E2
330
51F
100
AcDbEntity
  8
0
  6
Continuous
 62
     7
100
AcDbLine
 10
412.5334064762
 20
393.1103743897
 30
0.0
 11
402.5640208188
 21
388.4615735105
 31
0.0
  0
LINE
  5
E3
330
51F
100
AcDbEntity
  8
0
  6
Continuous
 62
     7
100
AcDbLine
 10
422.5027921336
 20
397.7591752688
 30
0.0
 11
412.5334064762
 21
393.1103743897
 31
0.0
  0
LWPOLYLINE
  5
E4
330
51F
100
AcDbEntity
  8
0
  6
Continuous
 62
     7
100
AcDbPolyline
 90
        3
 70
   128
 43
0.0
 10
416.635907164
 20
395.6604374165
 10
414.6703554449
 20
394.2756890474
 10
412.5334064762
 20
393.1103743897
  0
LINE
  5
E5
330
51F
100
AcDbEntity
  8
0
  6
Continuous
 62
     7
100
AcDbLine
 10
356.0272308952
 20
393.9925866098
 30
0.0
 11
390.8158973137
 21
394.3265440918
 31
0.0
  0
LINE
  5
E6
330
51F
100
AcDbEntity
  8
0
  6
Continuous
 62
     7
100
AcDbLine
 10
325.0535787558
 20
426.8001703034
 30
0.0
 11
325.0535787558
 21
432.432289128
 31
0.0
  0
ARC
  5
E7
330
51F
100
AcDbEntity
  8
0
  6
Continuous
 62
     7
100
AcDbCircle
 10
342.5942129621
 20
429.9337413016
 30
0.0
 40
17.96731689703866
100
AcDbArc
 50
183.810912735
 51
190.0439734286
  0
LWPOLYLINE
  5
E8
330
51F
100
AcDbEntity
  8
0
  6
Continuous
 62
     7
100
AcDbPolyline
 90
        3
 70
   128
 43
0.0
 10
325.6541261257
 20
434.0095812383
 10
325.3017103398
 20
433.1757695524
 10
325.1563823398
 20
432.7625169542
  0
LWPOLYLINE
  5
E9
330
51F
100
AcDbEntity
  8
0
  6
Continuous
 62
     7
100
AcDbPolyline
 90
        4
 70
   128
 43
0.0
 10
325.7843012018
 20
434.2140361322
 10
325.7849639694
 20
434.2308879671
 10
325.7588124662
 20
434.2061955732
 10
325.6541261257
 20
434.0095812383
  0
LINE
  5
EA
330
51F
100
AcDbEntity
  8
0
  6
Continuous
 62
     7
100
AcDbLine
 10
326.466285152
 20
436.0501703034
 30
0.0
 11
326.4270767865
 21
435.9872802526
 31
0.0
  0
LINE
  5
EB
330
51F
100
AcDbEntity
  8
0
  6
Continuous
 62
     7
100
AcDbLine
 10
326.466285152
 20
436.0501703034
 30
0.0
 11
326.6907390815
 21
436.4840524641
 31
0.0
  0
LINE
  5
EC
330
51F
100
AcDbEntity
  8
0
  6
Continuous
 62
     7
100
AcDbLine
 10
340.2031641451
 20
446.3803005778
 30
0.0
 11
341.9207501071
 21
446.5886125058
 31
0.0
  0
LINE
  5
ED
330
51F
100
AcDbEntity
  8
0
  6
Continuous
 62
     7
100
AcDbLine
 10
324.9034837906
 20
424.263925624
 30
0.0
 11
324.9022597269
 21
426.8001703034
 31
0.0
  0
LINE
  5
EE
330
51F
100
AcDbEntity
  8
0
  6
Continuous
 62
     7
100
AcDbLine
 10
259.3890720488
 20
330.9196825035
 30
0.0
 11
259.3890720488
 21
334.9196825035
 31
0.0
  0
LWPOLYLINE
  5
EF
330
51F
100
AcDbEntity
  8
0
  6
Continuous
 62
     8
100
AcDbPolyline
 90
        3
 70
   128
 43
0.0
 10
301.8296045443
 20
414.7067941722
 10
301.8296645443
 20
414.7067941722
 10
305.2405645628
 20
414.7074730338
  0
LINE
  5
F0
330
51F
100
AcDbEntity
  8
0
  6
Continuous
 62
     8
100
AcDbLine
 10
305.7911821391
 20
419.8001703034
 30
0.0
 11
305.5733070213
 21
419.8002384295
 31
0.0
  0
ARC
  5
F1
330
51F
100
AcDbEntity
  8
0
  6
Continuous
 62
     8
100
AcDbCircle
 10
321.8145814438
 20
450.4582370458
 30
0.0
 40
17.60939222009903
100
AcDbArc
 50
358.8348759067001
 51
3.7154058935
  0
LWPOLYLINE
  5
F2
330
51F
100
AcDbEntity
  8
0
  6
Continuous
 62
     8
100
AcDbPolyline
 90
        6
 70
   128
 43
0.0
 10
340.155562832
 20
446.6670361735
 10
339.8891592432
 20
446.7747240633
 10
339.6637429747
 20
447.0653544831
 10
339.4943979734
 20
447.5215955739
 10
339.4413493908
 20
447.8155075558
 10
339.4202675926
 20
448.1616542344
  0
LWPOLYLINE
  5
F3
330
51F
100
AcDbEntity
  8
0
  6
Continuous
 62
     8
100
AcDbPolyline
 90
        9
 70
   128
 43
0.0
 10
385.2101233759
 20
451.5996831164
 10
385.7614829578
 20
451.6000531463
 10
386.0342505644
 20
451.5997032802
 10
386.166499472
 20
451.5990798835
 10
386.2296176814
 20
451.5986828081
 10
386.2867980815
 20
451.5984053005
 10
386.3259833925
 20
451.5986384735
 10
386.4370392292
 20
451.6001020699
 10
386.4535784514
 20
451.5995878564
  0
LINE
  5
F4
330
51F
100
AcDbEntity
  8
0
  6
Continuous
 62
     8
100
AcDbLine
 10
344.7056892677
 20
451.5993367384
 30
0.0
 11
385.2101237106
 21
451.5993367384
 31
0.0
  0
LWPOLYLINE
  5
F5
330
51F
100
AcDbEntity
  8
0
  6
Continuous
 62
     8
100
AcDbPolyline
 90
        3
 70
   128
 43
0.0
 10
339.3869626713
 20
451.5994475277
 10
342.0461848366
 20
451.599214472
 10
344.7056894985
 20
451.5990941619
  0
LINE
  5
F6
330
51F
100
AcDbEntity
  8
0
  6
Continuous
 62
     8
100
AcDbLine
 10
339.4203328498
 20
450.1001703033
 30
0.0
 11
339.4203328498
 21
448.1614834455
 31
0.0
  0
LWPOLYLINE
  5
F7
330
51F
100
AcDbEntity
  8
0
  6
Continuous
 62
     8
100
AcDbPolyline
 90
        6
 70
   128
 43
0.0
 10
421.3944286818
 20
414.6793496762
 10
420.2385813636
 20
414.7156462728
 10
419.2761377697
 20
414.747650452
 10
418.5082514068
 20
414.7743530901
 10
417.6614603274
 20
414.8054286628
 10
417.4962025662
 20
414.8115592886
  0
LWPOLYLINE
  5
F8
330
51F
100
AcDbEntity
  8
0
  6
Continuous
 62
     8
100
AcDbPolyline
 90
        5
 70
   128
 43
0.0
 10
350.6087160638
 20
414.698773284
 10
353.6087081172
 20
414.6979647445
 10
365.6086764031
 20
414.6946732642
 10
377.6086444167
 20
414.6912669359
 10
421.3947765726
 20
414.6793391935
  0
LWPOLYLINE
  5
F9
330
51F
100
AcDbEntity
  8
0
  6
Continuous
 62
     8
100
AcDbPolyline
 90
        4
 70
   128
 43
0.0
 10
330.4772370153
 20
414.7042036705
 10
333.4772291542
 20
414.7035604406
 10
345.4771972431
 20
414.7001492766
 10
350.6087160638
 20
414.698773284
  0
LINE
  5
FA
330
51F
100
AcDbEntity
  8
0
  6
Continuous
 62
     8
100
AcDbLine
 10
301.8296045443
 20
414.708348051
 30
0.0
 11
301.8296045443
 21
414.7067557281
 31
0.0
  0
ARC
  5
FB
330
51F
100
AcDbEntity
  8
0
  6
Continuous
 62
     8
100
AcDbCircle
 10
422.9402981085
 20
454.8952517165
 30
0.0
 40
40.22585943143641
100
AcDbArc
 50
268.8575196047
 51
271.2933873887
  0
ARC
  5
FC
330
51F
100
AcDbEntity
  8
0
  6
Continuous
 62
     8
100
AcDbCircle
 10
423.8296180519
 20
413.1797705183
 30
0.0
 40
1.499986492437245
100
AcDbArc
 50
0.000492923
 51
89.2873610019
  0
LWPOLYLINE
  5
FD
330
51F
100
AcDbEntity
  8
0
  6
Continuous
 62
     8
100
AcDbPolyline
 90
        3
 70
   128
 43
0.0
 10
421.3922980923
 20
414.6792605917
 10
421.3947751709
 20
414.6792566818
 10
422.1382458324
 20
414.6773890291
  0
ARC
  5
FE
330
51F
100
AcDbEntity
  8
0
  6
Continuous
 62
     8
100
AcDbCircle
 10
423.9293758263
 20
403.6896160719
 30
0.0
 40
1.400228816773559
100
AcDbArc
 50
285.2897599987
 51
359.9784690648
  0
LWPOLYLINE
  5
FF
330
51F
100
AcDbEntity
  8
0
  6
Continuous
 62
     8
100
AcDbPolyline
 90
       11
 70
   128
 43
0.0
 10
398.3863558615
 20
394.3990972107
 10
398.4539714346
 20
394.4201822795
 10
398.8263553136
 20
394.5352781399
 10
399.5386845429
 20
394.754980819
 10
400.5368292069
 20
395.062361719
 10
401.8490928676
 20
395.4657229305
 10
403.0391136577
 20
395.8307664515
 10
404.6988076452
 20
396.3386640622
 10
406.5708541471
 20
396.9098075794
 10
409.4788844104
 20
397.792510212
 10
410.2512739078
 20
398.0257357035
  0
LWPOLYLINE
  5
100
330
51F
100
AcDbEntity
  8
0
  6
Continuous
 62
     8
100
AcDbPolyline
 90
        5
 70
   128
 43
0.0
 10
424.3350457697
 20
402.3199673033
 10
424.3344586871
 20
402.322106085
 10
424.3343163144
 20
402.3231342323
 10
424.3342129615
 20
402.3241170028
 10
424.2986170872
 20
402.3389489661
  0
LWPOLYLINE
  5
101
330
51F
100
AcDbEntity
  8
0
  6
Continuous
 62
     8
100
AcDbPolyline
 90
        3
 70
   128
 43
0.0
 10
423.8482742482
 20
414.6796409873
 10
423.8794714531
 20
414.7163703236
 10
423.9007439078
 20
414.768364966
  0
LINE
  5
102
330
51F
100
AcDbEntity
  8
0
  6
Continuous
 62
     8
100
AcDbLine
 10
324.6466234569
 20
427.7282098128
 30
0.0
 11
324.6466234569
 21
427.6925243365
 31
0.0
  0
LWPOLYLINE
  5
103
330
51F
100
AcDbEntity
  8
0
  6
Continuous
 62
     8
100
AcDbPolyline
 90
       24
 70
   128
 43
0.0
 10
325.5544586959
 20
434.3120349529
 10
325.7411022263
 20
434.9042213091
 10
325.9469819745
 20
435.4906136352
 10
327.3601228223
 20
438.4518668679
 10
328.4477335797
 20
440.0470400231
 10
329.0007699479
 20
440.7241585186
 10
329.2591888709
 20
441.0161920897
 10
329.3758677713
 20
441.1434469155
 10
329.422207147
 20
441.1932253263
 10
329.4688303325
 20
441.2428807001
 10
329.4700976197
 20
441.2442253148
 10
329.4805656039
 20
441.2553255962
 10
329.5101282022
 20
441.2865619759
 10
329.6234206096
 20
441.4047034772
 10
330.0764033706
 20
441.8535054501
 10
331.063693486
 20
442.7171907039
 10
332.3939552352
 20
443.6790235962
 10
333.4254333975
 20
444.2955379775
 10
334.3710666241
 20
444.7777004512
 10
335.2117142067
 20
445.1478311631
 10
337.1376847216
 20
445.8170094554
 10
338.9690131326
 20
446.2570612166
 10
341.2016192881
 20
446.5765199555
 10
342.8117081408
 20
446.6571775358
  0
LINE
  5
104
330
51F
100
AcDbEntity
  8
0
  6
Continuous
 62
     8
100
AcDbLine
 10
325.5543328795
 20
434.3121884651
 30
0.0
 11
325.1563527031
 21
432.7623793304
 31
0.0
  0
LINE
  5
105
330
51F
100
AcDbEntity
  8
0
  6
Continuous
 62
     8
100
AcDbLine
 10
324.647163435
 20
427.7265074542
 30
0.0
 11
324.6664513359
 21
428.7389685957
 31
0.0
  0
ARC
  5
106
330
51F
100
AcDbEntity
  8
0
  6
Continuous
 62
     8
100
AcDbCircle
 10
273.0934715567
 20
447.3236371147
 30
0.0
 40
71.62515453852262
100
AcDbArc
 50
359.5000486887
 51
0.6999522263
  0
ARC
  5
107
330
51F
100
AcDbEntity
  8
0
  6
Continuous
 62
     8
100
AcDbCircle
 10
267.4350886684
 20
450.45841697
 30
0.0
 40
77.27902312327969
100
AcDbArc
 50
359.7343898161001
 51
0.8459250623
  0
LINE
  5
108
330
51F
100
AcDbEntity
  8
0
  6
Continuous
 62
     8
100
AcDbLine
 10
344.7132814152
 20
450.1001703034
 30
0.0
 11
344.7132814152
 21
448.1986219703
 31
0.0
  0
LINE
  5
109
330
51F
100
AcDbEntity
  8
0
  6
Continuous
 62
     8
100
AcDbLine
 10
325.6541261257
 20
427.0187516703
 30
0.0
 11
325.6541261257
 21
434.0095812383
 31
0.0
  0
ARC
  5
10A
330
51F
100
AcDbEntity
  8
0
  6
Continuous
 62
     8
100
AcDbCircle
 10
336.1056860013
 20
429.8797132923
 30
0.0
 40
11.44455549621985
100
AcDbArc
 50
147.7465309281
 51
157.2150880179
  0
LINE
  5
10B
330
51F
100
AcDbEntity
  8
0
  6
Continuous
 62
     8
100
AcDbLine
 10
341.9207501071
 20
446.5886125058
 30
0.0
 11
342.3497887689
 21
446.6406470897
 31
0.0
  0
LINE
  5
10C
330
51F
100
AcDbEntity
  8
0
  6
Continuous
 62
     8
100
AcDbLine
 10
274.2684572903
 20
329.6037227901
 30
0.0
 11
278.0272277735
 21
330.9718033634
 31
0.0
  0
LINE
  5
10D
330
51F
100
AcDbEntity
  8
0
  6
Continuous
 62
     8
100
AcDbLine
 10
272.3890720488
 20
330.9196825035
 30
0.0
 11
272.3890720488
 21
334.9196825035
 31
0.0
  0
LWPOLYLINE
  5
10E
330
51F
100
AcDbEntity
  8
0
  6
Continuous
 62
     7
100
AcDbPolyline
 90
        6
 70
   128
 43
0.0
 10
134.7505975639
 20
414.812444013
 10
132.2941532937
 20
414.8061377627
 10
129.5826321286
 20
414.7926198756
 10
127.3804258912
 20
414.777222695
 10
124.9999383979
 20
414.7564291722
 10
123.4189378843
 20
414.7395096676
  0
LINE
  5
10F
330
51F
100
AcDbEntity
  8
0
  6
Continuous
 62
     7
100
AcDbLine
 10
135.5269959809
 20
414.814437204
 30
0.0
 11
134.7505975639
 21
414.812444013
 31
0.0
  0
LINE
  5
110
330
51F
100
AcDbEntity
  8
0
  6
Continuous
 62
     7
100
AcDbLine
 10
149.6534363636
 20
396.7356055378
 30
0.0
 11
149.6534363636
 21
398.0044364397
 31
0.0
  0
LINE
  5
111
330
51F
100
AcDbEntity
  8
0
  6
Continuous
 62
     7
100
AcDbLine
 10
125.6534363636
 20
398.0044364397
 30
0.0
 11
125.6534363636
 21
396.7356055378
 31
0.0
  0
LINE
  5
112
330
51F
100
AcDbEntity
  8
0
  6
Continuous
 62
     7
100
AcDbLine
 10
130.5777952936
 20
389.5376056607
 30
0.0
 11
131.1674320494
 21
389.355684097
 31
0.0
  0
LINE
  5
113
330
51F
100
AcDbEntity
  8
0
  6
Continuous
 62
     7
100
AcDbLine
 10
144.1394406779
 20
389.355684097
 30
0.0
 11
144.7290774337
 21
389.5376056607
 31
0.0
  0
LWPOLYLINE
  5
114
330
51F
100
AcDbEntity
  8
0
  6
Continuous
 62
     7
100
AcDbPolyline
 90
        9
 70
   128
 43
0.0
 10
149.6534363636
 20
396.7576745832
 10
150.2906916727
 20
397.07912133
 10
151.9352032234
 20
398.0388427524
 10
152.7696667248
 20
398.5700780235
 10
153.4226013454
 20
399.0039823566
 10
153.8888780086
 20
399.3239657785
 10
154.1710929551
 20
399.5246415136
 10
154.2704131135
 20
399.603588376
 10
154.2649315957
 20
399.6007506745
  0
LWPOLYLINE
  5
115
330
51F
100
AcDbEntity
  8
0
  6
Continuous
 62
     7
100
AcDbPolyline
 90
        9
 70
   128
 43
0.0
 10
121.0419411316
 20
399.6007506745
 10
121.0364596138
 20
399.603588376
 10
121.1357797721
 20
399.5246415136
 10
121.4179947187
 20
399.3239657785
 10
121.8842713818
 20
399.0039823566
 10
122.5372060025
 20
398.5700780235
 10
123.9420253162
 20
397.6920008567
 10
125.2706861654
 20
396.9423870683
 10
125.6534363636
 20
396.7520156567
  0
LWPOLYLINE
  5
116
330
51F
100
AcDbEntity
  8
0
  6
Continuous
 62
     7
100
AcDbPolyline
 90
        3
 70
   128
 43
0.0
 10
159.1546614108
 20
451.5985378879
 10
148.4657100508
 20
451.8801987505
 10
137.5201325134
 20
451.9831858043
  0
LWPOLYLINE
  5
117
330
51F
100
AcDbEntity
  8
0
  6
Continuous
 62
     7
100
AcDbPolyline
 90
        3
 70
   128
 43
0.0
 10
137.7867402139
 20
451.9831858043
 10
126.8411626765
 20
451.8801987505
 10
116.1522113165
 20
451.5985378879
  0
LINE
  5
118
330
51F
100
AcDbEntity
  8
0
  6
Continuous
 62
     7
100
AcDbLine
 10
116.1534363636
 20
415.9312310784
 30
0.0
 11
116.1534363636
 21
414.7083480064
 31
0.0
  0
LINE
  5
119
330
51F
100
AcDbEntity
  8
0
  6
Continuous
 62
     7
100
AcDbLine
 10
159.1534363636
 20
414.7083902577
 30
0.0
 11
159.1534363636
 21
415.9312310784
 31
0.0
  0
ARC
  5
11A
330
51F
100
AcDbEntity
  8
0
  6
Continuous
 62
     7
100
AcDbCircle
 10
149.1534363636
 20
415.9312310784
 30
0.0
 40
10.00000000000003
100
AcDbArc
 50
0.0
 51
9.0468459803
  0
ARC
  5
11B
330
51F
100
AcDbEntity
  8
0
  6
Continuous
 62
     7
100
AcDbCircle
 10
126.1534363636
 20
415.9312310784
 30
0.0
 40
9.999999999999986
100
AcDbArc
 50
170.9531540197
 51
180.0
  0
ARC
  5
11C
330
51F
100
AcDbEntity
  8
0
  6
Continuous
 62
     7
100
AcDbCircle
 10
137.6534363636
 20
414.1001703034
 30
0.0
 40
21.64486082191336
100
AcDbArc
 50
164.6418941298
 51
170.9531540197
  0
ARC
  5
11D
330
51F
100
AcDbEntity
  8
0
  6
Continuous
 62
     7
100
AcDbCircle
 10
137.6534363636
 20
414.1001703034
 30
0.0
 40
21.64486082191336
100
AcDbArc
 50
9.0468459803
 51
15.2684548419
  0
LINE
  5
11E
330
51F
100
AcDbEntity
  8
0
  6
Continuous
 62
     7
100
AcDbLine
 10
160.6534363636
 20
420.2944388107
 30
0.0
 11
160.6534363636
 21
450.1001703034
 31
0.0
  0
LINE
  5
11F
330
51F
100
AcDbEntity
  8
0
  6
Continuous
 62
     7
100
AcDbLine
 10
114.6534363636
 20
450.1001703034
 30
0.0
 11
114.6534363636
 21
420.2944388107
 31
0.0
  0
ARC
  5
120
330
51F
100
AcDbEntity
  8
0
  6
Continuous
 62
     7
100
AcDbCircle
 10
116.1534363636
 20
450.1001703034
 30
0.0
 40
1.5
100
AcDbArc
 50
90.0
 51
180.0
  0
ARC
  5
121
330
51F
100
AcDbEntity
  8
0
  6
Continuous
 62
     7
100
AcDbCircle
 10
159.1534363636
 20
450.1001703034
 30
0.0
 40
1.5
100
AcDbArc
 50
0.0
 51
90.0
  0
LINE
  5
122
330
51F
100
AcDbEntity
  8
0
  6
Continuous
 62
     7
100
AcDbLine
 10
114.6534363636
 20
402.8534631894
 30
0.0
 11
114.6534363636
 21
292.9196825035
 31
0.0
  0
LINE
  5
123
330
51F
100
AcDbEntity
  8
0
  6
Continuous
 62
     7
100
AcDbLine
 10
160.6534363636
 20
292.9196825035
 30
0.0
 11
160.6534363636
 21
402.8534631894
 31
0.0
  0
LWPOLYLINE
  5
124
330
51F
100
AcDbEntity
  8
0
  6
Continuous
 62
     7
100
AcDbPolyline
 90
        6
 70
   128
 43
0.0
 10
160.1166738284
 20
419.800277251
 10
160.1549041076
 20
419.8002995381
 10
160.3927266782
 20
419.831594601
 10
160.6004576651
 20
420.016058309
 10
160.6534197818
 20
420.2852351187
 10
160.6518080712
 20
420.2993684017
  0
LWPOLYLINE
  5
125
330
51F
100
AcDbEntity
  8
0
  6
Continuous
 62
     7
100
AcDbPolyline
 90
        5
 70
   128
 43
0.0
 10
114.6706121841
 20
420.2658571634
 10
114.672524895
 20
420.1107638462
 10
114.8281868641
 20
419.8744859245
 10
115.0611428161
 20
419.8034847261
 10
115.1902708756
 20
419.8016698389
  0
LINE
  5
126
330
51F
100
AcDbEntity
  8
0
  6
Continuous
 62
     7
100
AcDbLine
 10
114.6534363636
 20
413.2075531746
 30
0.0
 11
114.6534363636
 21
402.8534631894
 31
0.0
  0
LINE
  5
127
330
51F
100
AcDbEntity
  8
0
  6
Continuous
 62
     7
100
AcDbLine
 10
160.6534363636
 20
402.8534631894
 30
0.0
 11
160.6534363636
 21
413.2075928924
 31
0.0
  0
LINE
  5
128
330
51F
100
AcDbEntity
  8
0
  6
Continuous
 62
     7
100
AcDbLine
 10
150.1126830821
 20
398.299940976
 30
0.0
 11
150.1962246617
 21
398.0261610164
 31
0.0
  0
LWPOLYLINE
  5
129
330
51F
100
AcDbEntity
  8
0
  6
Continuous
 62
     7
100
AcDbPolyline
 90
        9
 70
   128
 43
0.0
 10
150.1127976583
 20
398.2996824586
 10
149.9075860485
 20
398.7216584801
 10
149.170474467
 20
399.4070776498
 10
148.0256715013
 20
400.0170431681
 10
146.4905379727
 20
400.5530108341
 10
144.6316521004
 20
400.9958203123
 10
142.5170506738
 20
401.3258906572
 10
140.1401112663
 20
401.5384698314
 10
137.6534363636
 20
401.6093717839
  0
LWPOLYLINE
  5
12A
330
51F
100
AcDbEntity
  8
0
  6
Continuous
 62
     7
100
AcDbPolyline
 90
        9
 70
   128
 43
0.0
 10
125.1934201053
 20
398.2973120563
 10
125.3992866788
 20
398.7216584801
 10
126.1363982603
 20
399.4070776498
 10
127.281201226
 20
400.0170431681
 10
128.8163347546
 20
400.5530108341
 10
130.6752206269
 20
400.9958203123
 10
132.7898220535
 20
401.3258906572
 10
135.166761461
 20
401.5384698314
 10
137.6534363636
 20
401.6093717839
  0
LINE
  5
12B
330
51F
100
AcDbEntity
  8
0
  6
Continuous
 62
     7
100
AcDbLine
 10
125.1106480656
 20
398.0261610164
 30
0.0
 11
125.1941707574
 21
398.2972947844
 31
0.0
  0
LWPOLYLINE
  5
12C
330
51F
100
AcDbEntity
  8
0
  6
Continuous
 62
     7
100
AcDbPolyline
 90
        5
 70
   128
 43
0.0
 10
151.116059359
 20
414.7468837098
 10
148.2904137278
 20
414.7743530901
 10
144.8867381849
 20
414.7971815957
 10
141.3505540834
 20
414.8113855588
 10
139.776185352
 20
414.8133095558
  0
LWPOLYLINE
  5
12D
330
51F
100
AcDbEntity
  8
0
  6
Continuous
 62
     7
100
AcDbPolyline
 90
       12
 70
   128
 43
0.0
 10
137.6534363636
 20
401.5358016748
 10
135.9456583044
 20
401.4998574685
 10
134.2726456815
 20
401.3927565701
 10
132.6684562076
 20
401.2166792448
 10
131.1657465542
 20
400.9752099194
 10
129.7951075563
 20
400.673264213
 10
128.5844414714
 20
400.3169888694
 10
127.5583939697
 20
399.9136366271
 10
126.7378524194
 20
399.4714185747
 10
126.1395206803
 20
398.9993369965
 10
125.7755790611
 20
398.507002112
 10
125.6534363636
 20
398.0044364397
  0
LWPOLYLINE
  5
12E
330
51F
100
AcDbEntity
  8
0
  6
Continuous
 62
     7
100
AcDbPolyline
 90
       12
 70
   128
 43
0.0
 10
149.6534363636
 20
398.0044364397
 10
149.5312936662
 20
398.507002112
 10
149.167352047
 20
398.9993369965
 10
148.5690203079
 20
399.4714185747
 10
147.7484787576
 20
399.9136366271
 10
146.7224312559
 20
400.3169888694
 10
145.511765171
 20
400.673264213
 10
144.1411261731
 20
400.9752099194
 10
142.6384165197
 20
401.2166792448
 10
141.0342270457
 20
401.3927565701
 10
139.3612144229
 20
401.4998574685
 10
137.6534363636
 20
401.5358016748
  0
ARC
  5
12F
330
51F
100
AcDbEntity
  8
0
  6
Continuous
 62
     7
100
AcDbCircle
 10
133.2051416923
 20
399.2764367702
 30
0.0
 40
10.08701048269822
100
AcDbArc
 50
229.4946509126
 51
254.9021492175
  0
ARC
  5
130
330
51F
100
AcDbEntity
  8
0
  6
Continuous
 62
     7
100
AcDbCircle
 10
142.1017310349
 20
399.2764367702
 30
0.0
 40
10.08701048269725
100
AcDbArc
 50
285.0978507825
 51
310.5053490874
  0
ARC
  5
131
330
51F
100
AcDbEntity
  8
0
  6
Continuous
 62
     7
100
AcDbCircle
 10
147.0302873672
 20
396.7356055378
 30
0.0
 40
2.596643054663914
100
AcDbArc
 50
308.6891720236
 51
51.31082797639999
  0
LINE
  5
132
330
51F
100
AcDbEntity
  8
0
  6
Continuous
 62
     7
100
AcDbLine
 10
148.6534363636
 20
398.7624115198
 30
0.0
 11
148.6534363636
 21
395.6604374165
 31
0.0
  0
LWPOLYLINE
  5
133
330
51F
100
AcDbEntity
  8
0
  6
Continuous
 62
     7
100
AcDbPolyline
 90
       17
 70
   128
 43
0.0
 10
148.6534363636
 20
395.6604374165
 10
147.8453104197
 20
396.3107005746
 10
146.8234012265
 20
396.9048099247
 10
145.6091442007
 20
397.4303035165
 10
144.228009419
 20
397.8761586739
 10
142.708967361
 20
398.2330232047
 10
141.0838812294
 20
398.493411571
 10
139.3868385915
 20
398.6518619048
 10
137.6534363636
 20
398.7050505754
 10
135.9200341358
 20
398.6518619048
 10
134.2229914979
 20
398.493411571
 10
132.5979053662
 20
398.2330232047
 10
131.0788633083
 20
397.8761586739
 10
129.6977285265
 20
397.4303035165
 10
128.4834715008
 20
396.9048099247
 10
127.4615623076
 20
396.3107005746
 10
126.6534363636
 20
395.6604374165
  0
LINE
  5
134
330
51F
100
AcDbEntity
  8
0
  6
Continuous
 62
     7
100
AcDbLine
 10
126.6534363636
 20
398.7624115198
 30
0.0
 11
126.6534363636
 21
395.6604374165
 31
0.0
  0
ARC
  5
135
330
51F
100
AcDbEntity
  8
0
  6
Continuous
 62
     7
100
AcDbCircle
 10
128.2765853601
 20
396.7356055378
 30
0.0
 40
2.596643054663923
100
AcDbArc
 50
128.6891720236
 51
231.3108279764
  0
LWPOLYLINE
  5
136
330
51F
100
AcDbEntity
  8
0
  6
Continuous
 62
     7
100
AcDbPolyline
 90
       22
 70
   128
 43
0.0
 10
148.6534363636
 20
393.1103743897
 10
148.5305754521
 20
393.8032422077
 10
148.1647372273
 20
394.4806325036
 10
147.5640939106
 20
395.1274134975
 10
146.7420628811
 20
395.7291371708
 10
145.7170069538
 20
396.272362011
 10
144.5118241841
 20
396.7449532727
 10
143.1534363636
 20
397.1363540481
 10
141.6721876317
 20
397.4378210907
 10
140.1011666372
 20
397.6426201249
 10
138.4754673931
 20
397.7461762787
 10
136.8314053342
 20
397.7461762787
 10
135.2057060901
 20
397.6426201249
 10
133.6346850956
 20
397.4378210907
 10
132.1534363636
 20
397.1363540481
 10
130.7950485432
 20
396.7449532727
 10
129.5898657735
 20
396.272362011
 10
128.5648098462
 20
395.7291371708
 10
127.7427788167
 20
395.1274134975
 10
127.1421355
 20
394.4806325036
 10
126.7762972752
 20
393.8032422077
 10
126.6534363636
 20
393.1103743897
  0
LINE
  5
137
330
51F
100
AcDbEntity
  8
0
  6
Continuous
 62
     7
100
AcDbLine
 10
126.6534363636
 20
395.6604374165
 30
0.0
 11
126.6534363636
 21
393.1103743897
 31
0.0
  0
LINE
  5
138
330
51F
100
AcDbEntity
  8
0
  6
Continuous
 62
     7
100
AcDbLine
 10
148.6534363636
 20
395.6604374165
 30
0.0
 11
148.6534363636
 21
393.1103743897
 31
0.0
  0
LWPOLYLINE
  5
139
330
51F
100
AcDbEntity
  8
0
  6
Continuous
 62
     7
100
AcDbPolyline
 90
       22
 70
   128
 43
0.0
 10
126.6534363636
 20
393.1103743897
 10
126.7762972752
 20
392.4175065716
 10
127.1421355
 20
391.7401162757
 10
127.7427788167
 20
391.0933352818
 10
128.5648098462
 20
390.4916116085
 10
129.5898657735
 20
389.9483867683
 10
130.7950485432
 20
389.4757955066
 10
132.1534363636
 20
389.0843947312
 10
133.6346850956
 20
388.7829276886
 10
135.2057060901
 20
388.5781286544
 10
136.8314053342
 20
388.4745725006
 10
138.4754673931
 20
388.4745725006
 10
140.1011666372
 20
388.5781286544
 10
141.6721876317
 20
388.7829276886
 10
143.1534363636
 20
389.0843947312
 10
144.5118241841
 20
389.4757955066
 10
145.7170069538
 20
389.9483867683
 10
146.7420628811
 20
390.4916116085
 10
147.5640939106
 20
391.0933352818
 10
148.1647372273
 20
391.7401162757
 10
148.5305754521
 20
392.4175065716
 10
148.6534363636
 20
393.1103743897
  0
LINE
  5
13A
330
51F
100
AcDbEntity
  8
0
  6
Continuous
 62
     7
100
AcDbLine
 10
118.6015188906
 20
414.6818342167
 30
0.0
 11
118.6223917885
 21
414.6793391935
 31
0.0
  0
ARC
  5
13B
330
51F
100
AcDbEntity
  8
0
  6
Continuous
 62
     7
100
AcDbCircle
 10
117.0984117465
 20
229.6069052452
 30
0.0
 40
185.1019792778305
100
AcDbArc
 50
89.5925301378
 51
90.22375418030002
  0
LINE
  5
13C
330
51F
100
AcDbEntity
  8
0
  6
Continuous
 62
     7
100
AcDbLine
 10
116.1534377352
 20
414.708348051
 30
0.0
 11
116.1045313017
 21
414.7067557281
 31
0.0
  0
LWPOLYLINE
  5
13D
330
51F
100
AcDbEntity
  8
0
  6
Continuous
 62
     7
100
AcDbPolyline
 90
       11
 70
   128
 43
0.0
 10
116.1534363636
 20
414.7083902577
 10
116.4209455625
 20
414.7090994412
 10
117.2445005147
 20
414.718075989
 10
118.644758514
 20
414.7474697413
 10
120.6322785166
 20
414.7949885512
 10
123.0398954781
 20
414.8501903416
 10
125.9371230575
 20
414.9079770249
 10
129.0826709487
 20
414.9570977861
 10
132.5658167607
 20
414.9936429766
 10
135.0730791944
 20
415.0082350761
 10
137.6534363636
 20
415.0131486217
  0
LINE
  5
13E
330
51F
100
AcDbEntity
  8
0
  6
Continuous
 62
     7
100
AcDbLine
 10
159.153434991
 20
414.708348051
 30
0.0
 11
159.2023414246
 21
414.7067557281
 31
0.0
  0
ARC
  5
13F
330
51F
100
AcDbEntity
  8
0
  6
Continuous
 62
     7
100
AcDbCircle
 10
158.2082546896
 20
229.7355780624
 30
0.0
 40
184.9733082488037
100
AcDbArc
 50
89.77602627170002
 51
90.4076894103
  0
LINE
  5
140
330
51F
100
AcDbEntity
  8
0
  6
Continuous
 62
     7
100
AcDbLine
 10
156.6844809425
 20
414.6793391943
 30
0.0
 11
156.7069235051
 21
414.6820293418
 31
0.0
  0
LWPOLYLINE
  5
141
330
51F
100
AcDbEntity
  8
0
  6
Continuous
 62
     7
100
AcDbPolyline
 90
       11
 70
   128
 43
0.0
 10
137.6534363636
 20
415.0131486217
 10
141.0344625032
 20
415.0046345203
 10
144.4154896681
 20
414.9784426352
 10
147.6983207926
 20
414.9359451024
 10
150.7865832401
 20
414.881103932
 10
153.4224884939
 20
414.8243286697
 10
155.6804116589
 20
414.7708450285
 10
157.3711157716
 20
414.7315842813
 10
158.5427496682
 20
414.711160232
 10
158.9980191496
 20
414.708819544
 10
159.1534363636
 20
414.7083902577
  0
LINE
  5
142
330
51F
100
AcDbEntity
  8
0
  6
Continuous
 62
     7
100
AcDbLine
 10
126.6534363636
 20
393.1103743897
 30
0.0
 11
126.6534363636
 21
391.6068254525
 31
0.0
  0
LINE
  5
143
330
51F
100
AcDbEntity
  8
0
  6
Continuous
 62
     7
100
AcDbLine
 10
148.6534363636
 20
393.1103743897
 30
0.0
 11
148.6534363636
 21
391.6068254525
 31
0.0
  0
LWPOLYLINE
  5
144
330
51F
100
AcDbEntity
  8
0
  6
Continuous
 62
     7
100
AcDbPolyline
 90
        4
 70
   128
 43
0.0
 10
149.6534363636
 20
397.0548959012
 10
149.6734461206
 20
397.0709047763
 10
150.050544003
 20
397.6742267798
 10
150.0567315303
 20
397.7095299995
  0
ARC
  5
145
330
51F
100
AcDbEntity
  8
0
  6
Continuous
 62
     7
100
AcDbCircle
 10
148.8981973423
 20
398.0566644044
 30
0.0
 40
1.29861212144582
100
AcDbArc
 50
305.5613244001
 51
358.6352725546001
  0
LWPOLYLINE
  5
146
330
51F
100
AcDbEntity
  8
0
  6
Continuous
 62
     7
100
AcDbPolyline
 90
        3
 70
   128
 43
0.0
 10
125.1984535132
 20
398.0044364397
 10
125.3537285479
 20
397.4489482833
 10
125.6534363636
 20
397.0890689134
  0
LWPOLYLINE
  5
147
330
51F
100
AcDbEntity
  8
0
  6
Continuous
 62
     7
100
AcDbPolyline
 90
        3
 70
   128
 43
0.0
 10
125.6534363636
 20
397.0147609448
 10
125.1374513194
 20
397.792510212
 10
125.1104316261
 20
398.0257357035
  0
LWPOLYLINE
  5
148
330
51F
100
AcDbEntity
  8
0
  6
Continuous
 62
     7
100
AcDbPolyline
 90
        7
 70
   128
 43
0.0
 10
158.0246088705
 20
451.5991698236
 10
156.3047781377
 20
451.5992403474
 10
154.835608774
 20
451.5993618972
 10
153.623988509
 20
451.5994167508
 10
152.7511717955
 20
451.5991324125
 10
152.2191865845
 20
451.599438648
 10
151.9888262531
 20
451.5994475277
  0
LINE
  5
149
330
51F
100
AcDbEntity
  8
0
  6
Continuous
 62
     7
100
AcDbLine
 10
159.1546825173
 20
451.5993367384
 30
0.0
 11
158.024608925
 21
451.5993367384
 31
0.0
  0
LWPOLYLINE
  5
14A
330
51F
100
AcDbEntity
  8
0
  6
Continuous
 62
     7
100
AcDbPolyline
 90
        7
 70
   128
 43
0.0
 10
117.2822638568
 20
451.5991698236
 10
119.0020945896
 20
451.5992403474
 10
120.4712639533
 20
451.5993618972
 10
121.6828842182
 20
451.5994167508
 10
122.5557009318
 20
451.5991324125
 10
123.0876861428
 20
451.599438648
 10
123.3180464742
 20
451.5994475277
  0
LINE
  5
14B
330
51F
100
AcDbEntity
  8
0
  6
Continuous
 62
     7
100
AcDbLine
 10
123.8322949875
 20
451.5993367384
 30
0.0
 11
123.3377394992
 21
451.5993367384
 31
0.0
  0
LINE
  5
14C
330
51F
100
AcDbEntity
  8
0
  6
Continuous
 62
     7
100
AcDbLine
 10
116.15219021
 20
451.5993367384
 30
0.0
 11
117.2822638022
 21
451.5993367384
 31
0.0
  0
LINE
  5
14D
330
51F
100
AcDbEntity
  8
0
  6
Continuous
 62
     7
100
AcDbLine
 10
137.6534363656
 20
446.692053512
 30
0.0
 11
138.825108595
 21
446.6913273924
 31
0.0
  0
ARC
  5
14E
330
51F
100
AcDbEntity
  8
0
  6
Continuous
 62
     7
100
AcDbCircle
 10
152.101679812
 20
448.017285571
 30
0.0
 40
1.29357110832796
100
AcDbArc
 50
281.4924071652
 51
345.4077192995
  0
ARC
  5
14F
330
51F
100
AcDbEntity
  8
0
  6
Continuous
 62
     7
100
AcDbCircle
 10
123.190840493
 20
447.99324828
 30
0.0
 40
1.267586562522246
100
AcDbArc
 50
197.9210371525
 51
260.7576078221
  0
LWPOLYLINE
  5
150
330
51F
100
AcDbEntity
  8
0
  6
Continuous
 62
     7
100
AcDbPolyline
 90
        3
 70
   128
 43
0.0
 10
141.0959498152
 20
432.7625908535
 10
140.1223744858
 20
433.7260293138
 10
139.6531313493
 20
434.0095856462
  0
ARC
  5
151
330
51F
100
AcDbEntity
  8
0
  6
Continuous
 62
     7
100
AcDbCircle
 10
138.8988296578
 20
432.8204181891
 30
0.0
 40
1.408222384025925
100
AcDbArc
 50
57.61260490819999
 51
98.25784113449998
  0
LWPOLYLINE
  5
152
330
51F
100
AcDbEntity
  8
0
  6
Continuous
 62
     7
100
AcDbPolyline
 90
        3
 70
   128
 43
0.0
 10
138.6965694116
 20
434.2140397574
 10
137.7390157806
 20
434.1256281607
 10
136.6102914516
 20
434.2140361322
  0
ARC
  5
153
330
51F
100
AcDbEntity
  8
0
  6
Continuous
 62
     7
100
AcDbCircle
 10
136.3970989714
 20
432.8715840414
 30
0.0
 40
1.359275045606932
100
AcDbArc
 50
80.97631274280002
 51
123.1534481646
  0
LWPOLYLINE
  5
154
330
51F
100
AcDbEntity
  8
0
  6
Continuous
 62
     7
100
AcDbPolyline
 90
        3
 70
   128
 43
0.0
 10
135.6537343035
 20
434.0095812383
 10
134.5482496588
 20
433.1757695524
 10
134.2108710221
 20
432.7625169542
  0
LINE
  5
155
330
51F
100
AcDbEntity
  8
0
  6
Continuous
 62
     7
100
AcDbLine
 10
134.0015617571
 20
432.432289128
 30
0.0
 11
134.2107202872
 21
432.7622203139
 31
0.0
  0
LINE
  5
156
330
51F
100
AcDbEntity
  8
0
  6
Continuous
 62
     7
100
AcDbLine
 10
141.0961039232
 20
432.7622888464
 30
0.0
 11
141.3053109702
 21
432.432289128
 31
0.0
  0
ARC
  5
157
330
51F
100
AcDbEntity
  8
0
  6
Continuous
 62
     7
100
AcDbCircle
 10
137.6534363636
 20
430.8001703034
 30
0.0
 40
3.999999999999968
100
AcDbArc
 50
155.918876022
 51
24.081123978
  0
ARC
  5
158
330
51F
100
AcDbEntity
  8
0
  6
Continuous
 62
     7
100
AcDbCircle
 10
137.6534363636
 20
430.8001703034
 30
0.0
 40
3.569682227422198
100
AcDbArc
 50
106.9911186602
 51
73.00908045850001
  0
LINE
  5
159
330
51F
100
AcDbEntity
  8
0
  6
Continuous
 62
     7
100
AcDbLine
 10
155.7430431929
 20
419.8001703034
 30
0.0
 11
119.5638295344
 21
419.8001703034
 31
0.0
  0
LINE
  5
15A
330
51F
100
AcDbEntity
  8
0
  6
Continuous
 62
     7
100
AcDbLine
 10
137.6534363636
 20
292.9196825035
 30
0.0
 11
160.2303758116
 21
292.9196825035
 31
0.0
  0
LINE
  5
15B
330
51F
100
AcDbEntity
  8
0
  6
Continuous
 62
     7
100
AcDbLine
 10
115.0764969157
 20
292.9196825035
 30
0.0
 11
137.6534363636
 21
292.9196825035
 31
0.0
  0
LINE
  5
15C
330
51F
100
AcDbEntity
  8
0
  6
Continuous
 62
     7
100
AcDbLine
 10
160.1195557029
 20
419.8001703034
 30
0.0
 11
155.7430431929
 21
419.8001703034
 31
0.0
  0
LINE
  5
15D
330
51F
100
AcDbEntity
  8
0
  6
Continuous
 62
     7
100
AcDbLine
 10
115.1873170243
 20
419.8001703034
 30
0.0
 11
119.5638295344
 21
419.8001703034
 31
0.0
  0
LINE
  5
15E
330
51F
100
AcDbEntity
  8
0
  6
Continuous
 62
     7
100
AcDbLine
 10
114.6534363636
 20
292.9196825035
 30
0.0
 11
115.0764969157
 21
292.9196825035
 31
0.0
  0
LINE
  5
15F
330
51F
100
AcDbEntity
  8
0
  6
Continuous
 62
     7
100
AcDbLine
 10
160.2303758116
 20
292.9196825035
 30
0.0
 11
160.6534363636
 21
292.9196825035
 31
0.0
  0
ARC
  5
160
330
51F
100
AcDbEntity
  8
0
  6
Continuous
 62
     7
100
AcDbCircle
 10
116.1534363636
 20
413.2075531746
 30
0.0
 40
1.499999999999943
100
AcDbArc
 50
91.8698084471
 51
179.9984828903
  0
ARC
  5
161
330
51F
100
AcDbEntity
  8
0
  6
Continuous
 62
     7
100
AcDbCircle
 10
159.1534363636
 20
413.2075531746
 30
0.0
 40
1.500000000000028
100
AcDbArc
 50
0.0
 51
88.1330748278
  0
LINE
  5
162
330
51F
100
AcDbEntity
  8
0
  6
Continuous
 62
     8
100
AcDbLine
 10
117.1449071547
 20
403.6900998075
 30
0.0
 11
117.1449071547
 21
413.1775083148
 31
0.0
  0
ARC
  5
163
330
51F
100
AcDbEntity
  8
0
  6
Continuous
 62
     8
100
AcDbCircle
 10
119.4287044823
 20
454.6578825037
 30
0.0
 40
39.9885362365411
100
AcDbArc
 50
268.8508419471
 51
271.3001290648
  0
ARC
  5
164
330
51F
100
AcDbEntity
  8
0
  6
Continuous
 62
     8
100
AcDbCircle
 10
118.6449133191
 20
413.1774931458
 30
0.0
 40
1.500006164552966
100
AcDbArc
 50
90.6947754562
 51
179.9994205861
  0
ARC
  5
165
330
51F
100
AcDbEntity
  8
0
  6
Continuous
 62
     8
100
AcDbCircle
 10
155.8781682449
 20
454.657882504
 30
0.0
 40
39.98853623684213
100
AcDbArc
 50
268.6998709352
 51
271.1491580529
  0
ARC
  5
166
330
51F
100
AcDbEntity
  8
0
  6
Continuous
 62
     8
100
AcDbCircle
 10
156.6619594081
 20
413.1774931458
 30
0.0
 40
1.500006164552679
100
AcDbArc
 50
0.0005794139
 51
89.30522454380001
  0
LINE
  5
167
330
51F
100
AcDbEntity
  8
0
  6
Continuous
 62
     8
100
AcDbLine
 10
158.1619655726
 20
403.6900998075
 30
0.0
 11
158.1619655726
 21
413.1775083148
 31
0.0
  0
LWPOLYLINE
  5
168
330
51F
100
AcDbEntity
  8
0
  6
Continuous
 62
     8
100
AcDbPolyline
 90
        4
 70
   128
 43
0.0
 10
137.6534376101
 20
414.768364966
 10
141.9465408909
 20
414.7402186605
 10
146.2396758114
 20
414.7163703236
 10
154.970844929
 20
414.6796409873
  0
LWPOLYLINE
  5
169
330
51F
100
AcDbEntity
  8
0
  6
Continuous
 62
     8
100
AcDbPolyline
 90
        4
 70
   128
 43
0.0
 10
120.3360277982
 20
414.6796409873
 10
129.0671969159
 20
414.7163703236
 10
133.3603145249
 20
414.7402185481
 10
137.6534351172
 20
414.768364966
  0
ARC
  5
16A
330
51F
100
AcDbEntity
  8
0
  6
Continuous
 62
     8
100
AcDbCircle
 10
156.7739069537
 20
403.6907473399
 30
0.0
 40
1.38805876993179
100
AcDbArc
 50
284.5066590212
 51
359.9732713918
  0
ARC
  5
16B
330
51F
100
AcDbEntity
  8
0
  6
Continuous
 62
     8
100
AcDbCircle
 10
156.0889899203
 20
398.4486885315
 30
0.0
 40
4.032700581675228
100
AcDbArc
 50
75.1635654498
 51
105.2736391892
  0
ARC
  5
16C
330
51F
100
AcDbEntity
  8
0
  6
Continuous
 62
     8
100
AcDbCircle
 10
119.2178828069
 20
398.4486885315
 30
0.0
 40
4.032700581675057
100
AcDbArc
 50
74.72636081079999
 51
104.8364345502
  0
ARC
  5
16D
330
51F
100
AcDbEntity
  8
0
  6
Continuous
 62
     8
100
AcDbCircle
 10
118.5329657736
 20
403.6907473399
 30
0.0
 40
1.38805876993206
100
AcDbArc
 50
180.0267286082
 51
255.4933409788
  0
LWPOLYLINE
  5
16E
330
51F
100
AcDbEntity
  8
0
  6
Continuous
 62
     8
100
AcDbPolyline
 90
        5
 70
   128
 43
0.0
 10
137.6534363636
 20
402.3199673033
 10
146.3087403526
 20
402.322106085
 10
149.1936518045
 20
402.3231342323
 10
152.078557406
 20
402.3241170028
 10
155.0266586482
 20
402.3389489661
  0
LWPOLYLINE
  5
16F
330
51F
100
AcDbEntity
  8
0
  6
Continuous
 62
     8
100
AcDbPolyline
 90
        5
 70
   128
 43
0.0
 10
137.6534363636
 20
402.3199673033
 10
128.9981323747
 20
402.322106085
 10
126.1132209228
 20
402.3231342323
 10
123.2283153212
 20
402.3241170028
 10
120.2802140791
 20
402.3389489661
  0
LINE
  5
170
330
51F
100
AcDbEntity
  8
0
  6
Continuous
 62
     8
100
AcDbLine
 10
157.1216052961
 20
402.3469419182
 30
0.0
 11
157.3574082197
 21
402.0489240005
 31
0.0
  0
LINE
  5
171
330
51F
100
AcDbEntity
  8
0
  6
Continuous
 62
     8
100
AcDbLine
 10
157.3573153477
 20
402.048866686
 30
0.0
 11
150.1962100849
 21
398.0261905683
 31
0.0
  0
LINE
  5
172
330
51F
100
AcDbEntity
  8
0
  6
Continuous
 62
     8
100
AcDbLine
 10
118.1852674312
 20
402.3469419182
 30
0.0
 11
117.9494645075
 21
402.0489240005
 31
0.0
  0
LINE
  5
173
330
51F
100
AcDbEntity
  8
0
  6
Continuous
 62
     8
100
AcDbLine
 10
117.9495573796
 20
402.048866686
 30
0.0
 11
125.1106626449
 21
398.026190567
 31
0.0
  0
LINE
  5
174
330
51F
100
AcDbEntity
  8
0
  6
Continuous
 62
     8
100
AcDbLine
 10
137.6534320916
 20
414.816831549
 30
0.0
 11
137.6534374955
 21
414.8081197873
 31
0.0
  0
LINE
  5
175
330
51F
100
AcDbEntity
  8
0
  6
Continuous
 62
     8
100
AcDbLine
 10
137.6534374955
 20
414.8081197873
 30
0.0
 11
137.6534376101
 21
414.768364966
 31
0.0
  0
LWPOLYLINE
  5
176
330
51F
100
AcDbEntity
  8
0
  6
Continuous
 62
     8
100
AcDbPolyline
 90
        3
 70
   128
 43
0.0
 10
118.6230119863
 20
414.6792605917
 10
118.6230236324
 20
414.6792566818
 10
118.6267245112
 20
414.6773890291
  0
LWPOLYLINE
  5
177
330
51F
100
AcDbEntity
  8
0
  6
Continuous
 62
     8
100
AcDbPolyline
 90
        5
 70
   128
 43
0.0
 10
118.623124341
 20
414.6793496762
 10
121.3061356149
 20
414.7156462728
 10
124.0994601215
 20
414.747650452
 10
127.0164589995
 20
414.7743530901
 10
127.1309295715
 20
414.7750433484
  0
LINE
  5
178
330
51F
100
AcDbEntity
  8
0
  6
Continuous
 62
     8
100
AcDbLine
 10
134.7506011732
 20
414.8103584598
 30
0.0
 11
137.6534321286
 21
414.8159037096
 31
0.0
  0
LWPOLYLINE
  5
179
330
51F
100
AcDbEntity
  8
0
  6
Continuous
 62
     8
100
AcDbPolyline
 90
        3
 70
   128
 43
0.0
 10
156.6837496218
 20
414.6793496594
 10
152.6186889871
 20
414.732275967
 10
151.116059359
 20
414.7468837098
  0
LINE
  5
17A
330
51F
100
AcDbEntity
  8
0
  6
Continuous
 62
     8
100
AcDbLine
 10
139.776185352
 20
414.8133095558
 30
0.0
 11
137.6534405987
 21
414.8159037096
 31
0.0
  0
LINE
  5
17B
330
51F
100
AcDbEntity
  8
0
  6
Continuous
 62
     8
100
AcDbLine
 10
156.680148216
 20
414.6773890291
 30
0.0
 11
156.683860741
 21
414.6792605917
 31
0.0
  0
LINE
  5
17C
330
51F
100
AcDbEntity
  8
0
  6
Continuous
 62
     8
100
AcDbLine
 10
117.1209773639
 20
403.5329029222
 30
0.0
 11
117.1449071547
 21
403.6900998075
 31
0.0
  0
LINE
  5
17D
330
51F
100
AcDbEntity
  8
0
  6
Continuous
 62
     8
100
AcDbLine
 10
117.0818849109
 20
403.397387485
 30
0.0
 11
117.1209755695
 21
403.53258615
 31
0.0
  0
LINE
  5
17E
330
51F
100
AcDbEntity
  8
0
  6
Continuous
 62
     8
100
AcDbLine
 10
117.0013474945
 20
403.1509020136
 30
0.0
 11
117.0818818421
 21
403.3975748778
 31
0.0
  0
LINE
  5
17F
330
51F
100
AcDbEntity
  8
0
  6
Continuous
 62
     8
100
AcDbLine
 10
117.0013474945
 20
413.199319784
 30
0.0
 11
117.0013474945
 21
403.1509020136
 31
0.0
  0
LWPOLYLINE
  5
180
330
51F
100
AcDbEntity
  8
0
  6
Continuous
 62
     8
100
AcDbPolyline
 90
        3
 70
   128
 43
0.0
 10
117.1434235756
 20
413.1794868822
 10
117.0496153013
 20
413.1924924673
 10
117.0013474945
 20
413.199319784
  0
LINE
  5
181
330
51F
100
AcDbEntity
  8
0
  6
Continuous
 62
     8
100
AcDbLine
 10
117.1449071547
 20
413.1775083148
 30
0.0
 11
117.1434235753
 21
413.1793948344
 31
0.0
  0
LINE
  5
182
330
51F
100
AcDbEntity
  8
0
  6
Continuous
 62
     8
100
AcDbLine
 10
158.3055252328
 20
403.1509020136
 30
0.0
 11
158.2249908852
 21
403.3975748778
 31
0.0
  0
LINE
  5
183
330
51F
100
AcDbEntity
  8
0
  6
Continuous
 62
     8
100
AcDbLine
 10
158.2249878164
 20
403.397387485
 30
0.0
 11
158.1858971577
 21
403.53258615
 31
0.0
  0
LINE
  5
184
330
51F
100
AcDbEntity
  8
0
  6
Continuous
 62
     8
100
AcDbLine
 10
158.1858953634
 20
403.5329029222
 30
0.0
 11
158.1619655726
 21
403.6900998075
 31
0.0
  0
LWPOLYLINE
  5
185
330
51F
100
AcDbEntity
  8
0
  6
Continuous
 62
     8
100
AcDbPolyline
 90
        3
 70
   128
 43
0.0
 10
158.3055252328
 20
413.199319784
 10
158.2572574259
 20
413.1924924673
 10
158.1634491545
 20
413.179486883
  0
LINE
  5
186
330
51F
100
AcDbEntity
  8
0
  6
Continuous
 62
     8
100
AcDbLine
 10
158.3055252328
 20
413.199319784
 30
0.0
 11
158.3055252328
 21
403.1509020136
 31
0.0
  0
ARC
  5
187
330
51F
100
AcDbEntity
  8
0
  6
Continuous
 62
     8
100
AcDbCircle
 10
156.4424988762
 20
403.5328083481
 30
0.0
 40
1.743398295731312
100
AcDbArc
 50
301.6493084648001
 51
359.9926975884
  0
ARC
  5
188
330
51F
100
AcDbEntity
  8
0
  6
Continuous
 62
     8
100
AcDbCircle
 10
118.8646632665
 20
403.5331131936
 30
0.0
 40
1.743686846953149
100
AcDbArc
 50
180.0171676446
 51
238.3477946406
  0
ARC
  5
189
330
51F
100
AcDbEntity
  8
0
  6
Continuous
 62
     8
100
AcDbCircle
 10
117.6205246263
 20
407.3232552081
 30
0.0
 40
7.423235897827933
100
AcDbArc
 50
82.72481596420002
 51
83.4999870246
  0
ARC
  5
18A
330
51F
100
AcDbEntity
  8
0
  6
Continuous
 62
     8
100
AcDbCircle
 10
119.514248536
 20
423.8339454148
 30
0.0
 40
9.195705318508068
100
AcDbArc
 50
263.1331564966
 51
263.4222039136
  0
LINE
  5
18B
330
51F
100
AcDbEntity
  8
0
  6
Continuous
 62
     8
100
AcDbLine
 10
116.1044922861
 20
414.7067941722
 30
0.0
 11
116.3755446048
 21
414.7074730338
 31
0.0
  0
LINE
  5
18C
330
51F
100
AcDbEntity
  8
0
  6
Continuous
 62
     8
100
AcDbLine
 10
158.9313281224
 20
414.7074730338
 30
0.0
 11
159.2023804411
 21
414.7067941722
 31
0.0
  0
ARC
  5
18D
330
51F
100
AcDbEntity
  8
0
  6
Continuous
 62
     8
100
AcDbCircle
 10
155.6830537842
 20
424.7635484818
 30
0.0
 40
10.13174082891641
100
AcDbArc
 50
276.5911481424
 51
276.8534914473
  0
LWPOLYLINE
  5
18E
330
51F
100
AcDbEntity
  8
0
  6
Continuous
 62
     8
100
AcDbPolyline
 90
        3
 70
   128
 43
0.0
 10
156.750514246
 20
414.6872544813
 10
156.791038275
 20
414.6921120198
 10
156.8460122705
 20
414.698773284
  0
LINE
  5
18F
330
51F
100
AcDbEntity
  8
0
  6
Continuous
 62
     8
100
AcDbLine
 10
137.6534363636
 20
401.5358016748
 30
0.0
 11
137.6534363636
 21
401.6093717839
 31
0.0
  0
LINE
  5
190
330
51F
100
AcDbEntity
  8
0
  6
Continuous
 62
     8
100
AcDbLine
 10
150.1084192141
 20
398.0044364397
 30
0.0
 11
150.1127975853
 21
398.2996827216
 31
0.0
  0
LINE
  5
191
330
51F
100
AcDbEntity
  8
0
  6
Continuous
 62
     8
100
AcDbLine
 10
150.1084192141
 20
398.0044364397
 30
0.0
 11
149.6534363636
 21
398.0044364397
 31
0.0
  0
LINE
  5
192
330
51F
100
AcDbEntity
  8
0
  6
Continuous
 62
     8
100
AcDbLine
 10
125.1984535132
 20
398.0044364397
 30
0.0
 11
125.6534363636
 21
398.0044364397
 31
0.0
  0
LINE
  5
193
330
51F
100
AcDbEntity
  8
0
  6
Continuous
 62
     8
100
AcDbLine
 10
125.1941707574
 20
398.2972947844
 30
0.0
 11
125.1984535132
 21
398.0044364397
 31
0.0
  0
ARC
  5
194
330
51F
100
AcDbEntity
  8
0
  6
Continuous
 62
     8
100
AcDbCircle
 10
118.5013470327
 20
413.199320233
 30
0.0
 40
1.499999538285859
100
AcDbArc
 50
91.5466615954
 51
180.0000171508
  0
ARC
  5
195
330
51F
100
AcDbEntity
  8
0
  6
Continuous
 62
     8
100
AcDbCircle
 10
156.8055256945
 20
413.199320233
 30
0.0
 40
1.499999538285999
100
AcDbArc
 50
359.9999828492
 51
88.4533384046
  0
LINE
  5
196
330
51F
100
AcDbEntity
  8
0
  6
Continuous
 62
     8
100
AcDbLine
 10
150.0567315303
 20
397.7095299995
 30
0.0
 11
150.1084192141
 21
398.0044364397
 31
0.0
  0
LINE
  5
197
330
51F
100
AcDbEntity
  8
0
  6
Continuous
 62
     8
100
AcDbLine
 10
157.3572925702
 20
402.0486957799
 30
0.0
 11
157.4580142517
 21
401.8802490506
 31
0.0
  0
LWPOLYLINE
  5
198
330
51F
100
AcDbEntity
  8
0
  6
Continuous
 62
     8
100
AcDbPolyline
 90
        3
 70
   128
 43
0.0
 10
149.6534363636
 20
396.9653457011
 10
153.6340328181
 20
399.1986882658
 10
157.4508236095
 20
401.8751782092
  0
LWPOLYLINE
  5
199
330
51F
100
AcDbEntity
  8
0
  6
Continuous
 62
     8
100
AcDbPolyline
 90
        3
 70
   128
 43
0.0
 10
125.6534363636
 20
396.9653457011
 10
121.6728399092
 20
399.1986882658
 10
117.8560491178
 20
401.8751782092
  0
LINE
  5
19A
330
51F
100
AcDbEntity
  8
0
  6
Continuous
 62
     8
100
AcDbLine
 10
117.9495801571
 20
402.0486957799
 30
0.0
 11
117.8488584756
 21
401.8802490506
 31
0.0
  0
ARC
  5
19B
330
51F
100
AcDbEntity
  8
0
  6
Continuous
 62
     8
100
AcDbCircle
 10
118.9659339675
 20
403.3974048807
 30
0.0
 40
1.884052368392195
100
AcDbArc
 50
179.9948495163
 51
233.6328102906
  0
ARC
  5
19C
330
51F
100
AcDbEntity
  8
0
  6
Continuous
 62
     8
100
AcDbCircle
 10
156.3410008842
 20
403.3976071673
 30
0.0
 40
1.88399000126218
100
AcDbArc
 50
306.362101833
 51
359.9990180155
  0
LINE
  5
19D
330
51F
100
AcDbEntity
  8
0
  6
Continuous
 62
     8
100
AcDbLine
 10
157.4579928614
 20
401.8804561372
 30
0.0
 11
157.5430389945
 21
401.6333227607
 31
0.0
  0
ARC
  5
19E
330
51F
100
AcDbEntity
  8
0
  6
Continuous
 62
     8
100
AcDbCircle
 10
132.7145040616
 20
432.4167577374
 30
0.0
 40
39.54825898757007
100
AcDbArc
 50
295.4108025054
 51
308.8884534476999
  0
LWPOLYLINE
  5
19F
330
51F
100
AcDbEntity
  8
0
  6
Continuous
 62
     8
100
AcDbPolyline
 90
        3
 70
   128
 43
0.0
 10
117.8488798659
 20
401.8804561372
 10
117.7842868068
 20
401.6931729323
 10
117.7637261577
 20
401.6335921037
  0
ARC
  5
1A0
330
51F
100
AcDbEntity
  8
0
  6
Continuous
 62
     8
100
AcDbCircle
 10
142.5923686656
 20
432.4167577374
 30
0.0
 40
39.54825898757196
100
AcDbArc
 50
231.1115465523
 51
244.5891974946
  0
ARC
  5
1A1
330
51F
100
AcDbEntity
  8
0
  6
Continuous
 62
     8
100
AcDbCircle
 10
118.8908416018
 20
403.1499118236
 30
0.0
 40
1.88949423307581
100
AcDbArc
 50
179.9790985342
 51
233.3832147133
  0
ARC
  5
1A2
330
51F
100
AcDbEntity
  8
0
  6
Continuous
 62
     8
100
AcDbCircle
 10
156.4160311255
 20
403.1499118236
 30
0.0
 40
1.889494233075922
100
AcDbArc
 50
306.6167852867
 51
0.0209014658
  0
LINE
  5
1A3
330
51F
100
AcDbEntity
  8
0
  6
Continuous
 62
     8
100
AcDbLine
 10
122.1393730899
 20
448.4814008614
 30
0.0
 11
122.1393730899
 21
450.1001703034
 31
0.0
  0
ARC
  5
1A4
330
51F
100
AcDbEntity
  8
0
  6
Continuous
 62
     8
100
AcDbCircle
 10
124.3420733488
 20
432.1937436565
 30
0.0
 40
14.80438121838334
100
AcDbArc
 50
88.0751363139
 51
92.72068595870002
  0
ARC
  5
1A5
330
51F
100
AcDbEntity
  8
0
  6
Continuous
 62
     8
100
AcDbCircle
 10
123.639408751
 20
448.4814730772
 30
0.0
 40
1.500035662881418
100
AcDbArc
 50
180.0027583736
 51
269.9978524994
  0
LINE
  5
1A6
330
51F
100
AcDbEntity
  8
0
  6
Continuous
 62
     8
100
AcDbLine
 10
153.1674996374
 20
448.4814008614
 30
0.0
 11
153.1674996374
 21
450.1001703034
 31
0.0
  0
ARC
  5
1A7
330
51F
100
AcDbEntity
  8
0
  6
Continuous
 62
     8
100
AcDbCircle
 10
150.9647993785
 20
432.1937436565
 30
0.0
 40
14.80438121838533
100
AcDbArc
 50
87.27931404130001
 51
91.92486368610001
  0
ARC
  5
1A8
330
51F
100
AcDbEntity
  8
0
  6
Continuous
 62
     8
100
AcDbCircle
 10
151.6674639763
 20
448.4814730772
 30
0.0
 40
1.500035662881404
100
AcDbArc
 50
270.0021475006
 51
359.9972416264
  0
ARC
  5
1A9
330
51F
100
AcDbEntity
  8
0
  6
Continuous
 62
     8
100
AcDbCircle
 10
124.1806150831
 20
9.0066123986
 30
0.0
 40
442.5934656521101
100
AcDbArc
 50
89.9147254758
 51
90.07654160860001
  0
ARC
  5
1AA
330
51F
100
AcDbEntity
  8
0
  6
Continuous
 62
     8
100
AcDbCircle
 10
123.6393636205
 20
450.1001801251
 30
0.0
 40
1.499990530677427
100
AcDbArc
 50
91.9106229726
 51
180.0003751643
  0
ARC
  5
1AB
330
51F
100
AcDbEntity
  8
0
  6
Continuous
 62
     8
100
AcDbCircle
 10
151.1262576441
 20
9.0066123986
 30
0.0
 40
442.5934656520448
100
AcDbArc
 50
89.92345839140002
 51
90.0852745242
  0
ARC
  5
1AC
330
51F
100
AcDbEntity
  8
0
  6
Continuous
 62
     8
100
AcDbCircle
 10
151.6675091068
 20
450.1001801251
 30
0.0
 40
1.499990530677426
100
AcDbArc
 50
359.9996248356999
 51
88.0893770274
  0
LINE
  5
1AD
330
51F
100
AcDbEntity
  8
0
  6
Continuous
 62
     8
100
AcDbLine
 10
124.8393360789
 20
451.5993367384
 30
0.0
 11
137.6534363636
 21
451.5993367384
 31
0.0
  0
LINE
  5
1AE
330
51F
100
AcDbEntity
  8
0
  6
Continuous
 62
     8
100
AcDbLine
 10
150.4675366483
 20
451.5993367384
 30
0.0
 11
137.6534363636
 21
451.5993367384
 31
0.0
  0
LINE
  5
1AF
330
51F
100
AcDbEntity
  8
0
  6
Continuous
 62
     8
100
AcDbLine
 10
124.8393360789
 20
446.9897712665
 30
0.0
 11
150.4675366483
 21
446.9897712665
 31
0.0
  0
LWPOLYLINE
  5
1B0
330
51F
100
AcDbEntity
  8
0
  6
Continuous
 62
     8
100
AcDbPolyline
 90
        3
 70
   128
 43
0.0
 10
151.9888262531
 20
451.5994475277
 10
151.9474001281
 20
451.599214472
 10
151.9296021183
 20
451.5990941619
  0
LINE
  5
1B1
330
51F
100
AcDbEntity
  8
0
  6
Continuous
 62
     8
100
AcDbLine
 10
151.9296021746
 20
451.5993367384
 30
0.0
 11
151.7175195136
 21
451.5993367384
 31
0.0
  0
LINE
  5
1B2
330
51F
100
AcDbEntity
  8
0
  6
Continuous
 62
     8
100
AcDbLine
 10
137.6534363636
 20
451.9736062804
 30
0.0
 11
137.6534363636
 21
451.5992466312
 31
0.0
  0
LINE
  5
1B3
330
51F
100
AcDbEntity
  8
0
  6
Continuous
 62
     8
100
AcDbLine
 10
123.3772705527
 20
451.5993367384
 30
0.0
 11
123.5893532136
 21
451.5993367384
 31
0.0
  0
LWPOLYLINE
  5
1B4
330
51F
100
AcDbEntity
  8
0
  6
Continuous
 62
     8
100
AcDbPolyline
 90
        3
 70
   128
 43
0.0
 10
123.3180464742
 20
451.5994475277
 10
123.3594725992
 20
451.599214472
 10
123.377270609
 20
451.5990941619
  0
LINE
  5
1B5
330
51F
100
AcDbEntity
  8
0
  6
Continuous
 62
     8
100
AcDbLine
 10
137.6534363657
 20
446.692053512
 30
0.0
 11
134.2250396298
 21
446.6899288338
 31
0.0
  0
LWPOLYLINE
  5
1B6
330
51F
100
AcDbEntity
  8
0
  6
Continuous
 62
     8
100
AcDbPolyline
 90
        6
 70
   128
 43
0.0
 10
134.2250486043
 20
446.6899288633
 10
132.9266149133
 20
446.6883353441
 10
131.6446171601
 20
446.6864325979
 10
130.3361876194
 20
446.6841734346
 10
126.7855141716
 20
446.6764927466
 10
123.383671637
 20
446.6668214244
  0
LINE
  5
1B7
330
51F
100
AcDbEntity
  8
0
  6
Continuous
 62
     8
100
AcDbLine
 10
123.4272698673
 20
446.6986585242
 30
0.0
 11
123.383671637
 21
446.6668214244
 31
0.0
  0
LINE
  5
1B8
330
51F
100
AcDbEntity
  8
0
  6
Continuous
 62
     8
100
AcDbLine
 10
123.6393525282
 20
446.9814374154
 30
0.0
 11
123.4272698673
 21
446.6986585242
 31
0.0
  0
LINE
  5
1B9
330
51F
100
AcDbEntity
  8
0
  6
Continuous
 62
     8
100
AcDbLine
 10
151.667520199
 20
446.9814374154
 30
0.0
 11
151.87960286
 21
446.6986585242
 31
0.0
  0
LINE
  5
1BA
330
51F
100
AcDbEntity
  8
0
  6
Continuous
 62
     8
100
AcDbLine
 10
151.87960286
 20
446.6986585242
 30
0.0
 11
151.9232010903
 21
446.6668214244
 31
0.0
  0
LWPOLYLINE
  5
1BB
330
51F
100
AcDbEntity
  8
0
  6
Continuous
 62
     8
100
AcDbPolyline
 90
        6
 70
   128
 43
0.0
 10
141.081824123
 20
446.6899288633
 10
142.380257814
 20
446.6883353441
 10
143.6622555672
 20
446.6864325979
 10
144.9706851078
 20
446.6841734346
 10
148.5213585556
 20
446.6764927466
 10
151.9232010903
 20
446.6668214244
  0
LINE
  5
1BC
330
51F
100
AcDbEntity
  8
0
  6
Continuous
 62
     8
100
AcDbLine
 10
138.825108595
 20
446.6913273924
 30
0.0
 11
141.0818331676
 21
446.6899288341
 31
0.0
  0
LINE
  5
1BD
330
51F
100
AcDbEntity
  8
0
  6
Continuous
 62
     8
100
AcDbLine
 10
121.9272904289
 20
450.1001703034
 30
0.0
 11
122.1393730899
 21
450.1001703034
 31
0.0
  0
ARC
  5
1BE
330
51F
100
AcDbEntity
  8
0
  6
Continuous
 62
     8
100
AcDbCircle
 10
123.4272809596
 20
450.1001801251
 30
0.0
 40
1.499990530677436
100
AcDbArc
 50
91.91062296269999
 51
180.0003751643
  0
LINE
  5
1BF
330
51F
100
AcDbEntity
  8
0
  6
Continuous
 62
     8
100
AcDbLine
 10
153.3795822983
 20
450.1001703034
 30
0.0
 11
153.1674996374
 21
450.1001703034
 31
0.0
  0
ARC
  5
1C0
330
51F
100
AcDbEntity
  8
0
  6
Continuous
 62
     8
100
AcDbCircle
 10
151.8795917677
 20
450.1001801251
 30
0.0
 40
1.499990530677379
100
AcDbArc
 50
359.9996248356999
 51
88.0893770373
  0
LINE
  5
1C1
330
51F
100
AcDbEntity
  8
0
  6
Continuous
 62
     8
100
AcDbLine
 10
121.9272904289
 20
448.1986219703
 30
0.0
 11
122.1393730899
 21
448.4814008614
 31
0.0
  0
ARC
  5
1C2
330
51F
100
AcDbEntity
  8
0
  6
Continuous
 62
     8
100
AcDbCircle
 10
123.4273260901
 20
448.198694186
 30
0.0
 40
1.500035662881422
100
AcDbArc
 50
180.0027583731
 51
269.9978524994
  0
LINE
  5
1C3
330
51F
100
AcDbEntity
  8
0
  6
Continuous
 62
     8
100
AcDbLine
 10
153.3795822983
 20
448.1986219703
 30
0.0
 11
153.1674996374
 21
448.4814008614
 31
0.0
  0
ARC
  5
1C4
330
51F
100
AcDbEntity
  8
0
  6
Continuous
 62
     8
100
AcDbCircle
 10
151.8795466372
 20
448.198694186
 30
0.0
 40
1.500035662881422
100
AcDbArc
 50
270.0021475006
 51
359.9972416269
  0
LINE
  5
1C5
330
51F
100
AcDbEntity
  8
0
  6
Continuous
 62
     8
100
AcDbLine
 10
121.9272904289
 20
450.1001703034
 30
0.0
 11
121.9272904289
 21
448.1986219703
 31
0.0
  0
LINE
  5
1C6
330
51F
100
AcDbEntity
  8
0
  6
Continuous
 62
     8
100
AcDbLine
 10
153.3795822983
 20
450.1001703034
 30
0.0
 11
153.3795822983
 21
448.1986219703
 31
0.0
  0
ARC
  5
1C7
330
51F
100
AcDbEntity
  8
0
  6
Continuous
 62
     8
100
AcDbCircle
 10
137.6534771054
 20
408.5887226539
 30
0.0
 40
45.5805896609713
100
AcDbArc
 50
261.1852337359
 51
278.8146576053
  0
LWPOLYLINE
  5
1C8
330
51F
100
AcDbEntity
  8
0
  6
Continuous
 62
     8
100
AcDbPolyline
 90
       13
 70
   128
 43
0.0
 10
144.6382299075
 20
363.5466820077
 10
146.8745465357
 20
364.3882480814
 10
148.9758822244
 20
365.4700496947
 10
150.8366135212
 20
366.7248965108
 10
152.5300418332
 20
368.1875148943
 10
154.3987434199
 20
370.3000971295
 10
155.9596958342
 20
372.6868917047
 10
157.2343520052
 20
375.3478986198
 10
158.1916350798
 20
378.0956534884
 10
158.9162245633
 20
380.9998797967
 10
159.4493833323
 20
384.0605775447
 10
159.9608329314
 20
388.8275450269
 10
160.230375812
 20
393.7669401126
  0
LWPOLYLINE
  5
1C9
330
51F
100
AcDbEntity
  8
0
  6
Continuous
 62
     8
100
AcDbPolyline
 90
       12
 70
   128
 43
0.0
 10
130.6686428197
 20
363.5466820077
 10
128.4323261916
 20
364.3882480814
 10
126.3309905029
 20
365.4700496947
 10
124.4702592061
 20
366.7248965108
 10
122.7768308941
 20
368.1875148943
 10
120.9081293074
 20
370.3000971295
 10
119.3471768931
 20
372.6868917047
 10
118.0725207221
 20
375.3478986198
 10
116.7264794972
 20
379.5282077125
 10
115.8574893949
 20
384.0605775447
 10
115.3460397959
 20
388.8275450269
 10
115.0764969153
 20
393.7669401126
  0
LWPOLYLINE
  5
1CA
330
51F
100
AcDbEntity
  8
0
  6
Continuous
 62
     8
100
AcDbPolyline
 90
        3
 70
   128
 43
0.0
 10
115.0764969153
 20
393.7669401126
 10
114.9744133329
 20
397.8158284262
 10
114.9434911234
 20
401.9256772649
  0
LINE
  5
1CB
330
51F
100
AcDbEntity
  8
0
  6
Continuous
 62
     8
100
AcDbLine
 10
114.9434911233
 20
401.9256772649
 30
0.0
 11
114.9434911233
 21
402.882920877
 31
0.0
  0
LINE
  5
1CC
330
51F
100
AcDbEntity
  8
0
  6
Continuous
 62
     8
100
AcDbLine
 10
116.9609410797
 20
403.027139093
 30
0.0
 11
117.0013474945
 21
403.1509020136
 31
0.0
  0
LINE
  5
1CD
330
51F
100
AcDbEntity
  8
0
  6
Continuous
 62
     8
100
AcDbLine
 10
158.3459316476
 20
403.027139093
 30
0.0
 11
158.3055252328
 21
403.1509020136
 31
0.0
  0
LINE
  5
1CE
330
51F
100
AcDbEntity
  8
0
  6
Continuous
 62
     8
100
AcDbLine
 10
160.3633816039
 20
401.9256772649
 30
0.0
 11
160.3633816039
 21
402.882920877
 31
0.0
  0
LWPOLYLINE
  5
1CF
330
51F
100
AcDbEntity
  8
0
  6
Continuous
 62
     8
100
AcDbPolyline
 90
        3
 70
   128
 43
0.0
 10
160.230375812
 20
393.7669401126
 10
160.3324593944
 20
397.8158284262
 10
160.3633816039
 20
401.9256772649
  0
LINE
  5
1D0
330
51F
100
AcDbEntity
  8
0
  6
Continuous
 62
     8
100
AcDbLine
 10
116.9609410797
 20
413.2049138257
 30
0.0
 11
116.9609410797
 21
403.027139093
 31
0.0
  0
LINE
  5
1D1
330
51F
100
AcDbEntity
  8
0
  6
Continuous
 62
     8
100
AcDbLine
 10
117.0013474945
 20
413.199319784
 30
0.0
 11
116.9609410797
 21
413.2049138257
 31
0.0
  0
LINE
  5
1D2
330
51F
100
AcDbEntity
  8
0
  6
Continuous
 62
     8
100
AcDbLine
 10
158.3459316476
 20
413.2049138257
 30
0.0
 11
158.3055252328
 21
413.199319784
 31
0.0
  0
LINE
  5
1D3
330
51F
100
AcDbEntity
  8
0
  6
Continuous
 62
     8
100
AcDbLine
 10
158.3459316476
 20
413.2049138257
 30
0.0
 11
158.3459316476
 21
403.027139093
 31
0.0
  0
ARC
  5
1D4
330
51F
100
AcDbEntity
  8
0
  6
Continuous
 62
     8
100
AcDbCircle
 10
118.4609404871
 20
413.2049144281
 30
0.0
 40
1.499999407373587
100
AcDbArc
 50
91.7631483447
 51
180.0000230119
  0
ARC
  5
1D5
330
51F
100
AcDbEntity
  8
0
  6
Continuous
 62
     8
100
AcDbCircle
 10
156.8459322402
 20
413.2049144281
 30
0.0
 40
1.499999407373754
100
AcDbArc
 50
359.9999769881
 51
88.2368516552
  0
LINE
  5
1D6
330
51F
100
AcDbEntity
  8
0
  6
Continuous
 62
     8
100
AcDbLine
 10
153.4384422794
 20
450.1001703033
 30
0.0
 11
153.3795822983
 21
450.1001703034
 31
0.0
  0
ARC
  5
1D7
330
51F
100
AcDbEntity
  8
0
  6
Continuous
 62
     8
100
AcDbCircle
 10
151.9386252141
 20
450.1003600492
 30
0.0
 40
1.499817077361062
100
AcDbArc
 50
359.9927513581999
 51
88.08186697280001
  0
LINE
  5
1D8
330
51F
100
AcDbEntity
  8
0
  6
Continuous
 62
     8
100
AcDbLine
 10
121.8684304478
 20
450.1001703033
 30
0.0
 11
121.9272904289
 21
450.1001703034
 31
0.0
  0
ARC
  5
1D9
330
51F
100
AcDbEntity
  8
0
  6
Continuous
 62
     8
100
AcDbCircle
 10
123.3682475132
 20
450.1003600492
 30
0.0
 40
1.499817077361061
100
AcDbArc
 50
91.91813302720001
 51
180.0072486418
  0
LINE
  5
1DA
330
51F
100
AcDbEntity
  8
0
  6
Continuous
 62
     8
100
AcDbLine
 10
153.4384422794
 20
448.1614834455
 30
0.0
 11
153.3795822983
 21
448.1986219703
 31
0.0
  0
LINE
  5
1DB
330
51F
100
AcDbEntity
  8
0
  6
Continuous
 62
     8
100
AcDbLine
 10
151.9229664987
 20
446.6670361735
 30
0.0
 11
152.359408427
 21
446.7496491195
 31
0.0
  0
LWPOLYLINE
  5
1DC
330
51F
100
AcDbEntity
  8
0
  6
Continuous
 62
     8
100
AcDbPolyline
 90
        3
 70
   128
 43
0.0
 10
153.3535243553
 20
447.6913845865
 10
153.3977329507
 20
447.8155075558
 10
153.4382532206
 20
448.1616542344
  0
LINE
  5
1DD
330
51F
100
AcDbEntity
  8
0
  6
Continuous
 62
     8
100
AcDbLine
 10
121.8684304479
 20
448.1614834455
 30
0.0
 11
121.9272904289
 21
448.1986219703
 31
0.0
  0
LINE
  5
1DE
330
51F
100
AcDbEntity
  8
0
  6
Continuous
 62
     8
100
AcDbLine
 10
123.3839062286
 20
446.6670361735
 30
0.0
 11
122.9872515021
 21
446.7421179046
 31
0.0
  0
LWPOLYLINE
  5
1DF
330
51F
100
AcDbEntity
  8
0
  6
Continuous
 62
     8
100
AcDbPolyline
 90
        3
 70
   128
 43
0.0
 10
121.9847553439
 20
447.6032042997
 10
121.9091397766
 20
447.8155075558
 10
121.8686195067
 20
448.1616542344
  0
LINE
  5
1E0
330
51F
100
AcDbEntity
  8
0
  6
Continuous
 62
     8
100
AcDbLine
 10
153.4384422794
 20
450.1001703033
 30
0.0
 11
153.4384422794
 21
448.1614834455
 31
0.0
  0
LINE
  5
1E1
330
51F
100
AcDbEntity
  8
0
  6
Continuous
 62
     8
100
AcDbLine
 10
121.8684304478
 20
450.1001703033
 30
0.0
 11
121.8684304479
 21
448.1614834455
 31
0.0
  0
LWPOLYLINE
  5
1E2
330
51F
100
AcDbEntity
  8
0
  6
Continuous
 62
     8
100
AcDbPolyline
 90
        9
 70
   128
 43
0.0
 10
119.4051487727
 20
433.8374010909
 10
120.8512309121
 20
432.1198943119
 10
122.5828864985
 20
430.6787173727
 10
124.5990463008
 20
429.5275078399
 10
126.8971206708
 20
428.6724566176
 10
128.5291328873
 20
428.2763805029
 10
130.2415902071
 20
428.0009378484
 10
132.0768561598
 20
427.8254876463
 10
134.225103691
 20
427.7282080501
  0
LINE
  5
1E3
330
51F
100
AcDbEntity
  8
0
  6
Continuous
 62
     8
100
AcDbLine
 10
134.2249896164
 20
427.7265074542
 30
0.0
 11
134.2257587849
 21
428.7389685957
 31
0.0
  0
LWPOLYLINE
  5
1E4
330
51F
100
AcDbEntity
  8
0
  6
Continuous
 62
     8
100
AcDbPolyline
 90
        9
 70
   128
 43
0.0
 10
155.9017239545
 20
433.8374010909
 10
154.4556418152
 20
432.1198943119
 10
152.7239862288
 20
430.6787173727
 10
150.7078264265
 20
429.5275078399
 10
148.4097520565
 20
428.6724566176
 10
146.7777398399
 20
428.2763805029
 10
145.0652825202
 20
428.0009378484
 10
143.2300165675
 20
427.8254876463
 10
141.0817690363
 20
427.7282080501
  0
LINE
  5
1E5
330
51F
100
AcDbEntity
  8
0
  6
Continuous
 62
     8
100
AcDbLine
 10
141.0818831108
 20
427.7265074542
 30
0.0
 11
141.0811139425
 21
428.738968429
 31
0.0
  0
LWPOLYLINE
  5
1E6
330
51F
100
AcDbEntity
  8
0
  6
Continuous
 62
     8
100
AcDbPolyline
 90
        7
 70
   128
 43
0.0
 10
115.9115816577
 20
447.948767902
 10
115.9614026144
 20
445.9516556029
 10
116.1164878032
 20
443.9142269778
 10
116.3650630893
 20
442.0186550759
 10
116.7324692696
 20
440.1366643501
 10
117.8057178735
 20
436.7556121198
 10
119.4051487727
 20
433.8374010909
  0
LWPOLYLINE
  5
1E7
330
51F
100
AcDbEntity
  8
0
  6
Continuous
 62
     8
100
AcDbPolyline
 90
        7
 70
   128
 43
0.0
 10
159.3952910695
 20
447.948767902
 10
159.3454701128
 20
445.9516556029
 10
159.1903849241
 20
443.9142269778
 10
158.941809638
 20
442.0186550759
 10
158.5744034577
 20
440.1366643501
 10
157.5011548538
 20
436.7556121198
 10
155.9017239545
 20
433.8374010909
  0
ARC
  5
1E8
330
51F
100
AcDbEntity
  8
0
  6
Continuous
 62
     8
100
AcDbCircle
 10
157.9317989176
 20
450.1382929614
 30
0.0
 40
1.463988598294439
100
AcDbArc
 50
358.507833775
 51
86.36527902109998
  0
ARC
  5
1E9
330
51F
100
AcDbEntity
  8
0
  6
Continuous
 62
     8
100
AcDbCircle
 10
117.3750738097
 20
450.1382929614
 30
0.0
 40
1.46398859829444
100
AcDbArc
 50
93.6347209789
 51
181.492166225
  0
LINE
  5
1EA
330
51F
100
AcDbEntity
  8
0
  6
Continuous
 62
     8
100
AcDbLine
 10
159.3952910695
 20
447.948767902
 30
0.0
 11
159.3952910695
 21
450.1001703034
 31
0.0
  0
LINE
  5
1EB
330
51F
100
AcDbEntity
  8
0
  6
Continuous
 62
     8
100
AcDbLine
 10
115.9115816577
 20
447.948767902
 30
0.0
 11
115.9115816577
 21
450.1001703034
 31
0.0
  0
LINE
  5
1EC
330
51F
100
AcDbEntity
  8
0
  6
Continuous
 62
     8
100
AcDbLine
 10
160.3633816039
 20
402.882920877
 30
0.0
 11
160.3633816039
 21
413.2082919593
 31
0.0
  0
LINE
  5
1ED
330
51F
100
AcDbEntity
  8
0
  6
Continuous
 62
     8
100
AcDbLine
 10
114.9434911234
 20
402.882920877
 30
0.0
 11
114.9434911234
 21
413.2082919593
 31
0.0
  0
ARC
  5
1EE
330
51F
100
AcDbEntity
  8
0
  6
Continuous
 62
     8
100
AcDbCircle
 10
158.8721531559
 20
413.217391356
 30
0.0
 40
1.491256209778744
100
AcDbArc
 50
359.6503885418
 51
87.7258326101
  0
ARC
  5
1EF
330
51F
100
AcDbEntity
  8
0
  6
Continuous
 62
     8
100
AcDbCircle
 10
116.4347195714
 20
413.2173913559
 30
0.0
 40
1.491256209837326
100
AcDbArc
 50
92.27416739210001
 51
180.349611456
  0
ARC
  5
1F0
330
51F
100
AcDbEntity
  8
0
  6
Continuous
 62
     8
100
AcDbCircle
 10
137.6534363636
 20
430.8001703034
 30
0.0
 40
3.781418633081779
100
AcDbArc
 50
121.9259804473
 51
58.0741458494
  0
ARC
  5
1F1
330
51F
100
AcDbEntity
  8
0
  6
Continuous
 62
     8
100
AcDbCircle
 10
137.6505815357
 20
427.6897460692
 30
0.0
 40
3.425536177387202
100
AcDbArc
 50
179.9544225648
 51
270.0477501969
  0
LINE
  5
1F2
330
51F
100
AcDbEntity
  8
0
  6
Continuous
 62
     8
100
AcDbLine
 10
134.2250376518
 20
427.7282098128
 30
0.0
 11
134.2250376518
 21
427.6925243365
 31
0.0
  0
LINE
  5
1F3
330
51F
100
AcDbEntity
  8
0
  6
Continuous
 62
     8
100
AcDbLine
 10
141.0818350754
 20
427.7282098128
 30
0.0
 11
141.0818350754
 21
427.6925243365
 31
0.0
  0
ARC
  5
1F4
330
51F
100
AcDbEntity
  8
0
  6
Continuous
 62
     8
100
AcDbCircle
 10
137.6562911915
 20
427.6897460692
 30
0.0
 40
3.425536177387202
100
AcDbArc
 50
269.9522498031001
 51
0.0455774352
  0
LINE
  5
1F5
330
51F
100
AcDbEntity
  8
0
  6
Continuous
 62
     8
100
AcDbLine
 10
160.230375812
 20
393.7669428553
 30
0.0
 11
160.2303758116
 21
292.9196825035
 31
0.0
  0
LINE
  5
1F6
330
51F
100
AcDbEntity
  8
0
  6
Continuous
 62
     8
100
AcDbLine
 10
115.0764969153
 20
393.7669428553
 30
0.0
 11
115.0764969157
 21
292.9196825035
 31
0.0
  0
LWPOLYLINE
  5
1F7
330
51F
100
AcDbEntity
  8
0
  6
Continuous
 62
     8
100
AcDbPolyline
 90
        3
 70
   128
 43
0.0
 10
114.6534363636
 20
402.8534631894
 10
114.6831903877
 20
402.8629247886
 10
114.9434911233
 20
402.8829208753
  0
LWPOLYLINE
  5
1F8
330
51F
100
AcDbEntity
  8
0
  6
Continuous
 62
     8
100
AcDbPolyline
 90
        3
 70
   128
 43
0.0
 10
160.6534363636
 20
402.8534631894
 10
160.6236823396
 20
402.8629247886
 10
160.3633816039
 20
402.8829208753
  0
LWPOLYLINE
  5
1F9
330
51F
100
AcDbEntity
  8
0
  6
Continuous
 62
     8
100
AcDbPolyline
 90
        3
 70
   128
 43
0.0
 10
114.9434911233
 20
413.2082919593
 10
114.7265248615
 20
413.2078055532
 10
114.6534363636
 20
413.2075928924
  0
LWPOLYLINE
  5
1FA
330
51F
100
AcDbEntity
  8
0
  6
Continuous
 62
     8
100
AcDbPolyline
 90
        3
 70
   128
 43
0.0
 10
160.6534363636
 20
413.2075928924
 10
160.5812666841
 20
413.2078033639
 10
160.3633816039
 20
413.2082919593
  0
LINE
  5
1FB
330
51F
100
AcDbEntity
  8
0
  6
Continuous
 62
     7
100
AcDbLine
 10
135.6534363636
 20
248.3349461331
 30
0.0
 11
135.6534363636
 21
235.3349461331
 31
0.0
  0
LINE
  5
1FC
330
51F
100
AcDbEntity
  8
0
  6
Continuous
 62
     7
100
AcDbLine
 10
139.6534363636
 20
235.3349461331
 30
0.0
 11
139.6534363636
 21
248.3349461331
 31
0.0
  0
LINE
  5
1FD
330
51F
100
AcDbEntity
  8
0
  6
Continuous
 62
     7
100
AcDbLine
 10
139.6534363636
 20
231.5761756499
 30
0.0
 11
139.6534363636
 21
235.3349461331
 31
0.0
  0
LINE
  5
1FE
330
51F
100
AcDbEntity
  8
0
  6
Continuous
 62
     7
100
AcDbLine
 10
135.6534363636
 20
235.3349461331
 30
0.0
 11
135.6534363636
 21
231.5761756499
 31
0.0
  0
LINE
  5
1FF
330
51F
100
AcDbEntity
  8
0
  6
Continuous
 62
     7
100
AcDbLine
 10
135.6534363636
 20
231.5761756499
 30
0.0
 11
135.6534363636
 21
228.8074987965
 31
0.0
  0
LINE
  5
200
330
51F
100
AcDbEntity
  8
0
  6
Continuous
 62
     7
100
AcDbLine
 10
139.6534363636
 20
228.8073360483
 30
0.0
 11
139.6534363636
 21
231.5761756499
 31
0.0
  0
ARC
  5
201
330
51F
100
AcDbEntity
  8
0
  6
Continuous
 62
     7
100
AcDbCircle
 10
34.7777872822
 20
166.6169861417
 30
0.0
 40
87.10697492831751
100
AcDbArc
 50
1.1095183273
 51
21.3416270192
  0
ARC
  5
202
330
51F
100
AcDbEntity
  8
0
  6
Continuous
 62
     7
100
AcDbCircle
 10
240.5290854451
 20
166.6169861417
 30
0.0
 40
87.1069749283153
100
AcDbArc
 50
158.6583729808
 51
178.8904816727
  0
ARC
  5
203
330
51F
100
AcDbEntity
  8
0
  6
Continuous
 62
     7
100
AcDbCircle
 10
150.9110047583
 20
122.0746432222
 30
0.0
 40
2.297411308281327
100
AcDbArc
 50
258.870365772
 51
10.829634228
  0
ARC
  5
204
330
51F
100
AcDbEntity
  8
0
  6
Continuous
 62
     7
100
AcDbCircle
 10
124.395867969
 20
122.0746432222
 30
0.0
 40
2.297411308281316
100
AcDbArc
 50
169.170365772
 51
281.129634228
  0
LWPOLYLINE
  5
205
330
51F
100
AcDbEntity
  8
0
  6
Continuous
 62
     7
100
AcDbPolyline
 90
        3
 70
   128
 43
0.0
 10
121.8684304478
 20
168.303685332
 10
121.9127977462
 20
165.3039118934
 10
121.9272904289
 20
163.0107367666
  0
LWPOLYLINE
  5
206
330
51F
100
AcDbEntity
  8
0
  6
Continuous
 62
     7
100
AcDbPolyline
 90
        3
 70
   128
 43
0.0
 10
153.4384422794
 20
168.303685332
 10
153.3940749811
 20
165.3039118934
 10
153.3795822983
 20
163.0107367666
  0
LINE
  5
207
330
51F
100
AcDbEntity
  8
0
  6
Continuous
 62
     7
100
AcDbLine
 10
153.3795822983
 20
163.0107367666
 30
0.0
 11
153.1674996374
 21
122.5063023236
 31
0.0
  0
LINE
  5
208
330
51F
100
AcDbEntity
  8
0
  6
Continuous
 62
     7
100
AcDbLine
 10
121.9272904289
 20
163.0107367666
 30
0.0
 11
122.1393730899
 21
122.5063023236
 31
0.0
  0
LINE
  5
209
330
51F
100
AcDbEntity
  8
0
  6
Continuous
 62
     7
100
AcDbLine
 10
150.4675366483
 20
119.820439426
 30
0.0
 11
124.8393360789
 21
119.820439426
 31
0.0
  0
ARC
  5
20A
330
51F
100
AcDbEntity
  8
0
  6
Continuous
 62
     7
100
AcDbCircle
 10
137.6534363636
 20
205.820439426
 30
0.0
 40
22.99999999999999
100
AcDbArc
 50
340.9612250535999
 51
199.0387749463999
  0
LINE
  5
20B
330
51F
100
AcDbEntity
  8
0
  6
Continuous
 62
     7
100
AcDbLine
 10
121.8684304479
 20
168.303685332
 30
0.0
 11
121.9272904289
 21
163.0107367666
 31
0.0
  0
ARC
  5
20C
330
51F
100
AcDbEntity
  8
0
  6
Continuous
 62
     7
100
AcDbCircle
 10
-24.2337202572
 20
178.4400537565
 30
0.0
 40
141.1997253038184
100
AcDbArc
 50
359.5147478902
 51
9.7092621229
  0
ARC
  5
20D
330
51F
100
AcDbEntity
  8
0
  6
Continuous
 62
     7
100
AcDbCircle
 10
298.9009969884
 20
178.4916493108
 30
0.0
 40
140.5606007779215
100
AcDbArc
 50
170.2674990523
 51
180.5084909345
  0
LINE
  5
20E
330
51F
100
AcDbEntity
  8
0
  6
Continuous
 62
     7
100
AcDbLine
 10
154.9619720183
 20
82.3944136376
 30
0.0
 11
137.6534363636
 21
82.3944136376
 31
0.0
  0
LINE
  5
20F
330
51F
100
AcDbEntity
  8
0
  6
Continuous
 62
     7
100
AcDbLine
 10
137.6534363636
 20
82.3944136376
 30
0.0
 11
120.344900709
 21
82.3944136376
 31
0.0
  0
ARC
  5
210
330
51F
100
AcDbEntity
  8
0
  6
Continuous
 62
     7
100
AcDbCircle
 10
119.8437079138
 20
85.0922138731
 30
0.0
 40
2.743960701010493
100
AcDbArc
 50
169.5906691589
 51
280.5243308411
  0
ARC
  5
211
330
51F
100
AcDbEntity
  8
0
  6
Continuous
 62
     7
100
AcDbCircle
 10
155.4631648135
 20
85.0922138731
 30
0.0
 40
2.743960701010521
100
AcDbArc
 50
259.4756691589
 51
10.4093308411
  0
LINE
  5
212
330
51F
100
AcDbEntity
  8
0
  6
Continuous
 62
     7
100
AcDbLine
 10
117.1434235756
 20
86.3271447827
 30
0.0
 11
117.0013474945
 21
157.1127872866
 31
0.0
  0
LINE
  5
213
330
51F
100
AcDbEntity
  8
0
  6
Continuous
 62
     7
100
AcDbLine
 10
117.1449071547
 20
85.5879908302
 30
0.0
 11
117.1434235753
 21
86.327144932
 31
0.0
  0
LINE
  5
214
330
51F
100
AcDbEntity
  8
0
  6
Continuous
 62
     7
100
AcDbLine
 10
158.3055252328
 20
157.1127872866
 30
0.0
 11
158.1634491545
 21
86.3271462183
 31
0.0
  0
LINE
  5
215
330
51F
100
AcDbEntity
  8
0
  6
Continuous
 62
     7
100
AcDbLine
 10
158.1634491548
 20
86.3271463676
 30
0.0
 11
158.1619655726
 21
85.5879908302
 31
0.0
  0
ARC
  5
216
330
51F
100
AcDbEntity
  8
0
  6
Continuous
 62
     7
100
AcDbCircle
 10
137.6534363636
 20
205.8944136376
 30
0.0
 40
23.00000000000003
100
AcDbArc
 50
0.0
 51
90.0
  0
ARC
  5
217
330
51F
100
AcDbEntity
  8
0
  6
Continuous
 62
     7
100
AcDbCircle
 10
137.6534363636
 20
205.8944136376
 30
0.0
 40
23.00000000000003
100
AcDbArc
 50
90.0
 51
180.0
  0
LINE
  5
218
330
51F
100
AcDbEntity
  8
0
  6
Continuous
 62
     7
100
AcDbLine
 10
117.0013474945
 20
157.1127872866
 30
0.0
 11
116.9609410797
 21
177.2442127001
 31
0.0
  0
LINE
  5
219
330
51F
100
AcDbEntity
  8
0
  6
Continuous
 62
     7
100
AcDbLine
 10
158.3459316476
 20
177.2442127001
 30
0.0
 11
158.3055252328
 21
157.1127872866
 31
0.0
  0
ARC
  5
21A
330
51F
100
AcDbEntity
  8
0
  6
Continuous
 62
     7
100
AcDbCircle
 10
-42.2696185243
 20
178.6252855305
 30
0.0
 40
159.2365488007083
100
AcDbArc
 50
359.5030623493
 51
3.1788662718
  0
LINE
  5
21B
330
51F
100
AcDbEntity
  8
0
  6
Continuous
 62
     7
100
AcDbLine
 10
135.6534363636
 20
248.3349461331
 30
0.0
 11
139.6534363636
 21
248.3349461331
 31
0.0
  0
ARC
  5
21C
330
51F
100
AcDbEntity
  8
0
  6
Continuous
 62
     8
100
AcDbCircle
 10
34.7761729328
 20
166.6133441329
 30
0.0
 40
88.55865034620243
100
AcDbArc
 50
1.1152792378
 51
21.3057463407
  0
ARC
  5
21D
330
51F
100
AcDbEntity
  8
0
  6
Continuous
 62
     8
100
AcDbCircle
 10
240.5306997945
 20
166.6133441329
 30
0.0
 40
88.55865034620234
100
AcDbArc
 50
158.6942536593
 51
178.8847207622
  0
LWPOLYLINE
  5
21E
330
51F
100
AcDbEntity
  8
0
  6
Continuous
 62
     8
100
AcDbPolyline
 90
        3
 70
   128
 43
0.0
 10
151.9888262531
 20
168.3370555106
 10
151.9474001281
 20
165.6778333452
 10
151.9296021183
 20
163.0183286833
  0
LINE
  5
21F
330
51F
100
AcDbEntity
  8
0
  6
Continuous
 62
     8
100
AcDbLine
 10
151.9296021746
 20
163.0183289141
 30
0.0
 11
151.7175195136
 21
122.5138944712
 31
0.0
  0
LWPOLYLINE
  5
220
330
51F
100
AcDbEntity
  8
0
  6
Continuous
 62
     8
100
AcDbPolyline
 90
        9
 70
   128
 43
0.0
 10
151.7175194446
 20
122.5138948059
 10
151.6982573806
 20
121.962535224
 10
151.6534008206
 20
121.6897676174
 10
151.6119993985
 20
121.5575187098
 10
151.5834038909
 20
121.4944005004
 10
151.5440243811
 20
121.4372201003
 10
151.487226821
 20
121.3980347893
 10
151.0207814452
 20
121.2869789526
 10
150.4675366428
 20
121.2704397304
  0
LINE
  5
221
330
51F
100
AcDbEntity
  8
0
  6
Continuous
 62
     8
100
AcDbLine
 10
150.4675366483
 20
121.270439426
 30
0.0
 11
137.6534363636
 21
121.270439426
 31
0.0
  0
ARC
  5
222
330
51F
100
AcDbEntity
  8
0
  6
Continuous
 62
     8
100
AcDbCircle
 10
137.6534363636
 20
205.820439426
 30
0.0
 40
21.55000000000014
100
AcDbArc
 50
340.9612250535999
 51
90.0
  0
LINE
  5
223
330
51F
100
AcDbEntity
  8
0
  6
Continuous
 62
     8
100
AcDbLine
 10
124.8393360789
 20
121.270439426
 30
0.0
 11
137.6534363636
 21
121.270439426
 31
0.0
  0
LWPOLYLINE
  5
224
330
51F
100
AcDbEntity
  8
0
  6
Continuous
 62
     8
100
AcDbPolyline
 90
        9
 70
   128
 43
0.0
 10
123.5893532827
 20
122.5138948059
 10
123.6086153467
 20
121.962535224
 10
123.6534719067
 20
121.6897676174
 10
123.6948733287
 20
121.5575187098
 10
123.7234688364
 20
121.4944005004
 10
123.7628483461
 20
121.4372201003
 10
123.8196459063
 20
121.3980347893
 10
124.2860912821
 20
121.2869789526
 10
124.8393360844
 20
121.2704397304
  0
LINE
  5
225
330
51F
100
AcDbEntity
  8
0
  6
Continuous
 62
     8
100
AcDbLine
 10
123.3772705527
 20
163.0183289141
 30
0.0
 11
123.5893532136
 21
122.5138944712
 31
0.0
  0
LWPOLYLINE
  5
226
330
51F
100
AcDbEntity
  8
0
  6
Continuous
 62
     8
100
AcDbPolyline
 90
        3
 70
   128
 43
0.0
 10
123.3180464742
 20
168.3370555106
 10
123.3594725992
 20
165.6778333452
 10
123.377270609
 20
163.0183286833
  0
ARC
  5
227
330
51F
100
AcDbEntity
  8
0
  6
Continuous
 62
     8
100
AcDbCircle
 10
137.6534363636
 20
205.820439426
 30
0.0
 40
21.55000000000009
100
AcDbArc
 50
90.0
 51
199.0387749463999
  0
LWPOLYLINE
  5
228
330
51F
100
AcDbEntity
  8
0
  6
Continuous
 62
     8
100
AcDbPolyline
 90
        5
 70
   128
 43
0.0
 10
118.4608604568
 20
157.115302118
 10
118.467718
 20
154.1153100646
 10
118.4951097066
 20
142.1153417787
 10
118.5226065241
 20
130.1153737651
 10
118.6223917885
 20
86.3292416092
  0
LWPOLYLINE
  5
229
330
51F
100
AcDbEntity
  8
0
  6
Continuous
 62
     8
100
AcDbPolyline
 90
        4
 70
   128
 43
0.0
 10
118.4147886744
 20
177.2467811666
 10
118.421626332
 20
174.2467890276
 10
118.4490955516
 20
162.2468209387
 10
118.4608604568
 20
157.115302118
  0
ARC
  5
22A
330
51F
100
AcDbEntity
  8
0
  6
Continuous
 62
     8
100
AcDbCircle
 10
-1.2389903708
 20
179.610128539
 30
0.0
 40
119.6771166539668
100
AcDbArc
 50
358.8684667854999
 51
6.5926491186
  0
ARC
  5
22B
330
51F
100
AcDbEntity
  8
0
  6
Continuous
 62
     8
100
AcDbCircle
 10
276.6126567288
 20
179.6079575879
 30
0.0
 40
119.7438544390882
100
AcDbArc
 50
173.4102788295
 51
181.1298635139
  0
LWPOLYLINE
  5
22C
330
51F
100
AcDbEntity
  8
0
  6
Continuous
 62
     8
100
AcDbPolyline
 90
        4
 70
   128
 43
0.0
 10
156.8460122705
 20
157.115302118
 10
156.8528847058
 20
160.1152941387
 10
156.8803827364
 20
172.1152621452
 10
156.8920840529
 20
177.2467811666
  0
LWPOLYLINE
  5
22D
330
51F
100
AcDbEntity
  8
0
  6
Continuous
 62
     8
100
AcDbPolyline
 90
        3
 70
   128
 43
0.0
 10
156.6844809425
 20
86.3292430459
 10
156.791038275
 20
133.0671362829
 10
156.8460122705
 20
157.115302118
  0
LWPOLYLINE
  5
22E
330
51F
100
AcDbEntity
  8
0
  6
Continuous
 62
     8
100
AcDbPolyline
 90
        4
 70
   128
 43
0.0
 10
137.6534376101
 20
83.823274274
 10
141.9465408909
 20
83.8304335237
 10
146.2396758114
 20
83.8445467287
 10
154.970844929
 20
83.8757439336
  0
LWPOLYLINE
  5
22F
330
51F
100
AcDbEntity
  8
0
  6
Continuous
 62
     8
100
AcDbPolyline
 90
        4
 70
   128
 43
0.0
 10
120.3360277982
 20
83.8757439336
 10
129.0671969159
 20
83.8445467287
 10
133.3603145249
 20
83.8304335777
 10
137.6534351172
 20
83.823274274
  0
LWPOLYLINE
  5
230
330
51F
100
AcDbEntity
  8
0
  6
Continuous
 62
     8
100
AcDbPolyline
 90
        7
 70
   128
 43
0.0
 10
118.6267245112
 20
85.5857723494
 10
118.6777252751
 20
84.7067752489
 10
118.8074020325
 20
84.2781635379
 10
118.8974186622
 20
84.1474905229
 10
119.0264721664
 20
84.0572205424
 10
119.2429437771
 20
83.9741821878
 10
120.3360277982
 20
83.8757439336
  0
LWPOLYLINE
  5
231
330
51F
100
AcDbEntity
  8
0
  6
Continuous
 62
     8
100
AcDbPolyline
 90
        3
 70
   128
 43
0.0
 10
118.6230119863
 20
86.3317200895
 10
118.6230236324
 20
86.3292430109
 10
118.6267245112
 20
85.5857723494
  0
LINE
  5
232
330
51F
100
AcDbEntity
  8
0
  6
Continuous
 62
     8
100
AcDbLine
 10
156.680148216
 20
85.5857723494
 30
0.0
 11
156.683860741
 21
86.3317200895
 31
0.0
  0
LWPOLYLINE
  5
233
330
51F
100
AcDbEntity
  8
0
  6
Continuous
 62
     8
100
AcDbPolyline
 90
        7
 70
   128
 43
0.0
 10
154.970844929
 20
83.8757439336
 10
156.0639289502
 20
83.9741821878
 10
156.2804005609
 20
84.0572205424
 10
156.409454065
 20
84.1474905229
 10
156.4994706948
 20
84.2781635379
 10
156.6291474522
 20
84.7067752489
 10
156.680148216
 20
85.5857723494
  0
LWPOLYLINE
  5
234
330
51F
100
AcDbEntity
  8
0
  6
Continuous
 62
     8
100
AcDbPolyline
 90
        9
 70
   128
 43
0.0
 10
118.4608604568
 20
157.115302118
 10
118.1740474484
 20
157.1147362894
 10
117.8993850405
 20
157.1142098749
 10
117.6470698216
 20
157.1137424172
 10
117.4264687617
 20
157.1133512704
 10
117.245771472
 20
157.1130509553
 10
117.1116861726
 20
157.1128526208
 10
117.0291906567
 20
157.1127636301
 10
117.0013474945
 20
157.1127872866
  0
LWPOLYLINE
  5
235
330
51F
100
AcDbEntity
  8
0
  6
Continuous
 62
     8
100
AcDbPolyline
 90
        9
 70
   128
 43
0.0
 10
158.3055252328
 20
157.1127872866
 10
158.2776820705
 20
157.1127636301
 10
158.1951865547
 20
157.1128526208
 10
158.0611012553
 20
157.1130509553
 10
157.8804039655
 20
157.1133512704
 10
157.6598029057
 20
157.1137424172
 10
157.4074876868
 20
157.1142098749
 10
157.1328252788
 20
157.1147362894
 10
156.8460122705
 20
157.115302118
  0
ARC
  5
236
330
51F
100
AcDbEntity
  8
0
  6
Continuous
 62
     8
100
AcDbCircle
 10
-3.5214658623
 20
180.5101336238
 30
0.0
 40
120.4437929701984
100
AcDbArc
 50
3.3057665872
 51
10.4003204798
  0
ENDSEC
  0
SECTION
  2
OBJECTS
  0
DICTIONARY
  5
50F
330
0
100
AcDbDictionary
281
     1
  3
ACAD_DETAILVIEWSTYLE
350
582
  3
ACAD_GROUP
350
510
  3
ACAD_LAYOUT
350
51C
  3
ACAD_MATERIAL
350
52A
  3
ACAD_MLEADERSTYLE
350
575
  3
ACAD_MLINESTYLE
350
519
  3
ACAD_PLOTSETTINGS
350
51B
  3
ACAD_PLOTSTYLENAME
350
511
  3
ACAD_SCALELIST
350
538
  3
ACAD_SECTIONVIEWSTYLE
350
583
  3
ACAD_TABLESTYLE
350
573
  3
ACAD_VISUALSTYLE
350
55A
  3
ACDB_RECOMPOSE_DATA
350
586
  3
AcDbVariableDictionary
350
57A
  3
APPDATA
350
577
  0
DICTIONARY
  5
578
330
51F
100
AcDbDictionary
280
     1
281
     1
  3
DIM_BOUNDING_BOXES_V1
360
579
  0
DICTIONARY
  5
582
102
{ACAD_REACTORS
330
50F
102
}
330
50F
100
AcDbDictionary
281
     1
  0
DICTIONARY
  5
510
102
{ACAD_REACTORS
330
50F
102
}
330
50F
100
AcDbDictionary
281
     1
  0
DICTIONARY
  5
51C
102
{ACAD_REACTORS
330
50F
102
}
330
50F
100
AcDbDictionary
281
     1
  3
Blatt1
350
51E
  3
Model
350
520
  0
DICTIONARY
  5
52A
102
{ACAD_REACTORS
330
50F
102
}
330
50F
100
AcDbDictionary
281
     1
  3
ByBlock
350
52C
  3
ByLayer
350
52B
  3
Global
350
52D
  0
DICTIONARY
  5
575
102
{ACAD_REACTORS
330
50F
102
}
330
50F
100
AcDbDictionary
281
     1
  3
Standard
350
576
  0
DICTIONARY
  5
519
102
{ACAD_REACTORS
330
50F
102
}
330
50F
100
AcDbDictionary
281
     1
  3
Standard
350
51A
  0
DICTIONARY
  5
51B
102
{ACAD_REACTORS
330
50F
102
}
330
50F
100
AcDbDictionary
281
     1
  0
ACDBDICTIONARYWDFLT
  5
511
102
{ACAD_REACTORS
330
50F
102
}
330
50F
100
AcDbDictionary
281
     1
  3
Normal
350
512
100
AcDbDictionaryWithDefault
340
512
  0
DICTIONARY
  5
538
102
{ACAD_REACTORS
330
50F
102
}
330
50F
100
AcDbDictionary
281
     1
  3
A0
350
539
  3
A1
350
53A
  3
A2
350
53B
  3
A3
350
53C
  3
A4
350
53D
  3
A5
350
53E
  3
A6
350
53F
  3
A7
350
540
  3
A8
350
541
  3
A9
350
542
  3
B0
350
543
  3
B1
350
544
  3
B2
350
545
  3
B3
350
546
  3
B4
350
547
  3
B5
350
548
  3
B6
350
549
  3
B7
350
54A
  3
B8
350
54B
  3
B9
350
54C
  3
C0
350
54D
  3
C1
350
54E
  3
C2
350
54F
  3
C3
350
550
  3
C4
350
551
  3
C5
350
552
  3
C6
350
553
  3
C7
350
554
  3
C8
350
555
  3
C9
350
556
  3
D0
350
557
  3
D1
350
558
  3
D2
350
559
  0
DICTIONARY
  5
583
102
{ACAD_REACTORS
330
50F
102
}
330
50F
100
AcDbDictionary
281
     1
  0
DICTIONARY
  5
573
102
{ACAD_REACTORS
330
50F
102
}
330
50F
100
AcDbDictionary
281
     1
  3
Standard
350
574
  0
DICTIONARY
  5
55A
102
{ACAD_REACTORS
330
50F
102
}
330
50F
100
AcDbDictionary
281
     1
  3
2dWireframe
350
55F
  3
Basic
350
562
  3
Brighten
350
566
  3
ColorChange
350
56A
  3
Conceptual
350
564
  3
Dim
350
565
  3
EdgeColorOff
350
56D
  3
Facepattern
350
569
  3
Flat
350
55B
  3
FlatWithEdges
350
55C
  3
Gouraud
350
55D
  3
GouraudWithEdges
350
55E
  3
Hidden
350
561
  3
JitterOff
350
56B
  3
Linepattern
350
568
  3
OverhangOff
350
56C
  3
Realistic
350
563
  3
Shaded
350
572
  3
Shaded with edges
350
571
  3
Shades of Gray
350
56E
  3
Sketchy
350
56F
  3
Thicken
350
567
  3
Wireframe
350
560
  3
X-Ray
350
570
  0
XRECORD
  5
586
102
{ACAD_REACTORS
330
50F
102
}
330
50F
100
AcDbXrecord
280
     1
 90
        1
330
574
  0
DICTIONARY
  5
57A
102
{ACAD_REACTORS
330
50F
102
}
330
50F
100
AcDbDictionary
281
     1
  3
CANNOSCALE
350
57B
  3
CMLEADERSTYLE
350
580
  3
CTABLESTYLE
350
57F
  3
MSLTSCALE
350
581
  0
DICTIONARY
  5
577
102
{ACAD_REACTORS
330
50F
102
}
330
50F
100
AcDbDictionary
281
     1
  0
DICTIONARY
  5
579
102
{ACAD_REACTORS
330
578
102
}
330
578
100
AcDbDictionary
281
     1
  0
LAYOUT
  5
51E
102
{ACAD_REACTORS
330
51C
102
}
330
51C
100
AcDbPlotSettings
  1

  2
none_device
  4

  6

 40
0.0
 41
0.0
 42
0.0
 43
0.0
 44
0.0
 45
0.0
 46
0.0
 47
0.0
 48
0.0
 49
0.0
140
0.0
141
0.0
142
1.0
143
1.0
 70
   688
 72
     0
 73
     0
 74
     5
  7

 75
    16
 76
     0
 77
     2
 78
   300
147
1.0
148
0.0
149
0.0
100
AcDbLayout
  1
Blatt1
 70
     1
 71
     1
 10
0.0
 20
0.0
 11
0.0
 21
0.0
 12
0.0
 22
0.0
 32
0.0
 14
1.000000000000000E+20
 24
1.000000000000000E+20
 34
1.000000000000000E+20
 15
-1.000000000000000E+20
 25
-1.000000000000000E+20
 35
-1.000000000000000E+20
146
0.0
 13
0.0
 23
0.0
 33
0.0
 16
1.0
 26
0.0
 36
0.0
 17
0.0
 27
1.0
 37
0.0
 76
     0
330
51D
  0
LAYOUT
  5
520
102
{ACAD_REACTORS
330
51C
102
}
330
51C
100
AcDbPlotSettings
  1

  2
none_device
  4
Letter_(8.50_x_11.00_Inches)
  6

 40
6.35
 41
6.35
 42
6.35
 43
6.35
 44
215.9
 45
279.4
 46
0.0
 47
0.0
 48
0.0
 49
0.0
140
0.0
141
0.0
142
1.0
143
1.0
 70
  1712
 72
     0
 73
     0
 74
     0
  7

 75
     0
 76
     0
 77
     2
 78
   300
147
1.0
148
0.0
149
0.0
100
AcDbLayout
  1
Model
 70
     1
 71
     0
 10
0.0
 20
0.0
 11
12.0
 21
9.0
 12
0.0
 22
0.0
 32
0.0
 14
33.76143973320001
 24
37.46023423129998
 34
0.0
 15
520.6771150059001
 25
451.9831858043
 35
0.0
146
0.0
 13
0.0
 23
0.0
 33
0.0
 16
1.0
 26
0.0
 36
0.0
 17
0.0
 27
1.0
 37
0.0
 76
     0
330
51F
331
522
  0
MATERIAL
  5
52C
102
{ACAD_REACTORS
330
52A
102
}
330
52A
100
AcDbMaterial
  1
ByBlock
 72
     1
 94
      127
  0
MATERIAL
  5
52B
102
{ACAD_REACTORS
330
52A
102
}
330
52A
100
AcDbMaterial
  1
ByLayer
 72
     1
 94
      127
  0
MATERIAL
  5
52D
102
{ACAD_REACTORS
330
52A
102
}
330
52A
100
AcDbMaterial
  1
Global
 72
     1
 94
      127
  0
MLEADERSTYLE
  5
576
102
{ACAD_REACTORS
330
575
102
}
330
575
100
AcDbMLeaderStyle
179
     2
170
     2
171
     1
172
     0
 90
        2
 40
0.0
 41
0.0
173
     1
 91
-1056964608
340
516
 92
       -2
290
     1
 42
0.09
291
     1
 43
0.36
  3
Standard
341
0
 44
0.18
300

342
514
174
     1
178
     1
175
     1
176
     0
 93
-1056964608
 45
0.18
292
     0
297
     0
 46
0.18
343
0
 94
-1056964608
 47
1.0
 49
1.0
140
1.0
293
     1
141
0.0
294
     1
177
     0
142
1.0
295
     0
296
     0
143
0.125
271
     0
272
     9
273
     9
298
     0
  0
MLINESTYLE
  5
51A
102
{ACAD_REACTORS
330
519
102
}
330
519
100
AcDbMlineStyle
  2
Standard
 70
     0
  3

 62
   256
 51
90.0
 52
90.0
 71
     2
 49
0.5
 62
   256
  6
BYLAYER
 49
-0.5
 62
   256
  6
BYLAYER
  0
ACDBPLACEHOLDER
  5
512
102
{ACAD_REACTORS
330
511
102
}
330
511
  0
SCALE
  5
539
102
{ACAD_REACTORS
330
538
102
}
330
538
100
AcDbScale
 70
     0
300
1:1
140
1.0
141
1.0
290
     1
  0
SCALE
  5
53A
102
{ACAD_REACTORS
330
538
102
}
330
538
100
AcDbScale
 70
     0
300
1:2
140
1.0
141
2.0
290
     0
  0
SCALE
  5
53B
102
{ACAD_REACTORS
330
538
102
}
330
538
100
AcDbScale
 70
     0
300
1:4
140
1.0
141
4.0
290
     0
  0
SCALE
  5
53C
102
{ACAD_REACTORS
330
538
102
}
330
538
100
AcDbScale
 70
     0
300
1:5
140
1.0
141
5.0
290
     0
  0
SCALE
  5
53D
102
{ACAD_REACTORS
330
538
102
}
330
538
100
AcDbScale
 70
     0
300
1:8
140
1.0
141
8.0
290
     0
  0
SCALE
  5
53E
102
{ACAD_REACTORS
330
538
102
}
330
538
100
AcDbScale
 70
     0
300
1:10
140
1.0
141
10.0
290
     0
  0
SCALE
  5
53F
102
{ACAD_REACTORS
330
538
102
}
330
538
100
AcDbScale
 70
     0
300
1:16
140
1.0
141
16.0
290
     0
  0
SCALE
  5
540
102
{ACAD_REACTORS
330
538
102
}
330
538
100
AcDbScale
 70
     0
300
1:20
140
1.0
141
20.0
290
     0
  0
SCALE
  5
541
102
{ACAD_REACTORS
330
538
102
}
330
538
100
AcDbScale
 70
     0
300
1:30
140
1.0
141
30.0
290
     0
  0
SCALE
  5
542
102
{ACAD_REACTORS
330
538
102
}
330
538
100
AcDbScale
 70
     0
300
1:40
140
1.0
141
40.0
290
     0
  0
SCALE
  5
543
102
{ACAD_REACTORS
330
538
102
}
330
538
100
AcDbScale
 70
     0
300
1:50
140
1.0
141
50.0
290
     0
  0
SCALE
  5
544
102
{ACAD_REACTORS
330
538
102
}
330
538
100
AcDbScale
 70
     0
300
1:100
140
1.0
141
100.0
290
     0
  0
SCALE
  5
545
102
{ACAD_REACTORS
330
538
102
}
330
538
100
AcDbScale
 70
     0
300
2:1
140
2.0
141
1.0
290
     0
  0
SCALE
  5
546
102
{ACAD_REACTORS
330
538
102
}
330
538
100
AcDbScale
 70
     0
300
4:1
140
4.0
141
1.0
290
     0
  0
SCALE
  5
547
102
{ACAD_REACTORS
330
538
102
}
330
538
100
AcDbScale
 70
     0
300
8:1
140
8.0
141
1.0
290
     0
  0
SCALE
  5
548
102
{ACAD_REACTORS
330
538
102
}
330
538
100
AcDbScale
 70
     0
300
10:1
140
10.0
141
1.0
290
     0
  0
SCALE
  5
549
102
{ACAD_REACTORS
330
538
102
}
330
538
100
AcDbScale
 70
     0
300
100:1
140
100.0
141
1.0
290
     0
  0
SCALE
  5
54A
102
{ACAD_REACTORS
330
538
102
}
330
538
100
AcDbScale
 70
     0
300
1/128" = 1'-0"
140
0.0078125
141
12.0
290
     0
  0
SCALE
  5
54B
102
{ACAD_REACTORS
330
538
102
}
330
538
100
AcDbScale
 70
     0
300
1/64" = 1'-0"
140
0.015625
141
12.0
290
     0
  0
SCALE
  5
54C
102
{ACAD_REACTORS
330
538
102
}
330
538
100
AcDbScale
 70
     0
300
1/32" = 1'-0"
140
0.03125
141
12.0
290
     0
  0
SCALE
  5
54D
102
{ACAD_REACTORS
330
538
102
}
330
538
100
AcDbScale
 70
     0
300
1/16" = 1'-0"
140
0.0625
141
12.0
290
     0
  0
SCALE
  5
54E
102
{ACAD_REACTORS
330
538
102
}
330
538
100
AcDbScale
 70
     0
300
3/32" = 1'-0"
140
0.09375
141
12.0
290
     0
  0
SCALE
  5
54F
102
{ACAD_REACTORS
330
538
102
}
330
538
100
AcDbScale
 70
     0
300
1/8" = 1'-0"
140
0.125
141
12.0
290
     0
  0
SCALE
  5
550
102
{ACAD_REACTORS
330
538
102
}
330
538
100
AcDbScale
 70
     0
300
3/16" = 1'-0"
140
0.1875
141
12.0
290
     0
  0
SCALE
  5
551
102
{ACAD_REACTORS
330
538
102
}
330
538
100
AcDbScale
 70
     0
300
1/4" = 1'-0"
140
0.25
141
12.0
290
     0
  0
SCALE
  5
552
102
{ACAD_REACTORS
330
538
102
}
330
538
100
AcDbScale
 70
     0
300
3/8" = 1'-0"
140
0.375
141
12.0
290
     0
  0
SCALE
  5
553
102
{ACAD_REACTORS
330
538
102
}
330
538
100
AcDbScale
 70
     0
300
1/2" = 1'-0"
140
0.5
141
12.0
290
     0
  0
SCALE
  5
554
102
{ACAD_REACTORS
330
538
102
}
330
538
100
AcDbScale
 70
     0
300
3/4" = 1'-0"
140
0.75
141
12.0
290
     0
  0
SCALE
  5
555
102
{ACAD_REACTORS
330
538
102
}
330
538
100
AcDbScale
 70
     0
300
1" = 1'-0"
140
1.0
141
12.0
290
     0
  0
SCALE
  5
556
102
{ACAD_REACTORS
330
538
102
}
330
538
100
AcDbScale
 70
     0
300
1-1/2" = 1'-0"
140
1.5
141
12.0
290
     0
  0
SCALE
  5
557
102
{ACAD_REACTORS
330
538
102
}
330
538
100
AcDbScale
 70
     0
300
3" = 1'-0"
140
3.0
141
12.0
290
     0
  0
SCALE
  5
558
102
{ACAD_REACTORS
330
538
102
}
330
538
100
AcDbScale
 70
     0
300
6" = 1'-0"
140
6.0
141
12.0
290
     0
  0
SCALE
  5
559
102
{ACAD_REACTORS
330
538
102
}
330
538
100
AcDbScale
 70
     0
300
1'-0" = 1'-0"
140
12.0
141
12.0
290
     0
  0
TABLESTYLE
  5
574
102
{ACAD_REACTORS
330
573
102
}
102
{ACAD_XDICTIONARY
360
584
102
}
330
573
100
AcDbTableStyle
  3
Standard
 70
     0
 71
     0
 40
0.06
 41
0.06
280
     0
281
     0
  7
STANDARD
140
0.18
170
     2
 62
     0
 63
   257
283
     0
 90
        4
 91
        0
  1

274
    -2
284
     1
 64
     0
275
    -2
285
     1
 65
     0
276
    -2
286
     1
 66
     0
277
    -2
287
     1
 67
     0
278
    -2
288
     1
 68
     0
279
    -2
289
     1
 69
     0
  7
STANDARD
140
0.25
170
     5
 62
     0
 63
   257
283
     0
 90
        4
 91
        0
  1

274
    -2
284
     1
 64
     0
275
    -2
285
     1
 65
     0
276
    -2
286
     1
 66
     0
277
    -2
287
     1
 67
     0
278
    -2
288
     1
 68
     0
279
    -2
289
     1
 69
     0
  7
STANDARD
140
0.18
170
     5
 62
     0
 63
   257
283
     0
 90
        4
 91
        0
  1

274
    -2
284
     1
 64
     0
275
    -2
285
     1
 65
     0
276
    -2
286
     1
 66
     0
277
    -2
287
     1
 67
     0
278
    -2
288
     1
 68
     0
279
    -2
289
     1
 69
     0
  0
VISUALSTYLE
  5
55F
102
{ACAD_REACTORS
330
55A
102
}
330
55A
100
AcDbVisualStyle
  2
2dWireframe
 70
     4
177
     3
291
     0
 70
    58
 90
        0
176
     1
 90
        2
176
     1
 90
        0
176
     1
 90
        0
176
     1
 40
0.6
176
     1
 40
30.0
176
     1
 62
     7
420
 16777215
176
     1
 90
        1
176
     1
 90
        4
176
     1
 62
     7
176
     1
 62
   257
176
     1
 90
        1
176
     1
 90
        1
176
     1
 40
1.0
176
     1
 90
        0
176
     1
 62
   257
176
     1
 40
1.0
176
     1
 90
        1
176
     1
 90
        6
176
     1
 90
        2
176
     1
 62
     7
176
     1
 90
        5
176
     1
 90
        0
176
     1
 90
        0
176
     1
290
     0
176
     1
 90
        1
176
     1
 40
0.0
176
     1
 90
        0
176
     1
290
     1
176
     1
290
     1
176
     1
290
     0
176
     1
290
     0
176
     1
290
     0
176
     1
290
     0
176
     1
290
     0
176
     1
290
     0
176
     1
290
     0
176
     1
 90
       50
176
     1
 40
0.0
176
     1
 40
1.0
176
     1
 90
        0
176
     1
 62
    18
420
        0
176
     1
 90
       50
176
     1
 90
        3
176
     1
 62
     5
420
      255
176
     1
290
     0
176
     1
 90
       50
176
     1
 90
       50
176
     1
 90
       50
176
     1
290
     0
176
     1
 90
       50
176
     1
 62
   256
176
     0
 40
1.0
176
     0
 90
        2
176
     1
  1
strokes_ogs.tif
176
     1
290
     0
176
     1
 40
1.0
176
     1
 40
1.0
176
     1
  0
VISUALSTYLE
  5
562
102
{ACAD_REACTORS
330
55A
102
}
330
55A
100
AcDbVisualStyle
  2
Basic
 70
     7
177
     3
291
     1
 70
    58
 90
        1
176
     1
 90
        0
176
     1
 90
        1
176
     1
 90
        0
176
     1
 40
0.6
176
     1
 40
30.0
176
     1
 62
     7
420
 16777215
176
     1
 90
        0
176
     1
 90
        4
176
     1
 62
     7
176
     1
 62
   257
176
     1
 90
        1
176
     1
 90
        1
176
     1
 40
1.0
176
     1
 90
        8
176
     1
 62
     7
176
     1
 40
1.0
176
     1
 90
        1
176
     1
 90
        6
176
     1
 90
        2
176
     1
 62
     7
176
     1
 90
        5
176
     1
 90
        0
176
     1
 90
        0
176
     1
290
     0
176
     1
 90
        1
176
     1
 40
0.0
176
     1
 90
        0
176
     1
290
     0
176
     1
290
     1
176
     1
290
     1
176
     1
290
     0
176
     1
290
     0
176
     1
290
     0
176
     1
290
     0
176
     1
290
     0
176
     1
290
     0
176
     1
 90
       50
176
     1
 40
0.0
176
     1
 40
1.0
176
     1
 90
        0
176
     1
 62
    18
420
        0
176
     1
 90
       50
176
     1
 90
        3
176
     1
 62
     5
420
      255
176
     1
290
     0
176
     1
 90
       50
176
     1
 90
       50
176
     1
 90
       50
176
     1
290
     0
176
     1
 90
       50
176
     1
 62
   256
176
     0
 40
1.0
176
     0
 90
        2
176
     1
  1
strokes_ogs.tif
176
     1
290
     0
176
     1
 40
1.0
176
     1
 40
1.0
176
     1
  0
VISUALSTYLE
  5
566
102
{ACAD_REACTORS
330
55A
102
}
330
55A
100
AcDbVisualStyle
  2
Brighten
 70
    12
177
     3
291
     1
 70
    58
 90
        2
176
     1
 90
        2
176
     1
 90
        0
176
     1
 90
        0
176
     1
 40
0.6
176
     1
 40
30.0
176
     1
 62
     7
420
 16777215
176
     1
 90
        1
176
     1
 90
        4
176
     1
 62
     7
176
     1
 62
   257
176
     1
 90
        1
176
     1
 90
        1
176
     1
 40
1.0
176
     1
 90
        8
176
     1
 62
     7
176
     1
 40
1.0
176
     1
 90
        1
176
     1
 90
        6
176
     1
 90
        2
176
     1
 62
     7
176
     1
 90
        5
176
     1
 90
        0
176
     1
 90
        0
176
     1
290
     0
176
     1
 90
        1
176
     1
 40
50.0
176
     1
 90
        0
176
     1
290
     0
176
     1
290
     1
176
     1
290
     1
176
     1
290
     0
176
     1
290
     0
176
     1
290
     0
176
     1
290
     0
176
     1
290
     0
176
     1
290
     0
176
     1
 90
       50
176
     1
 40
0.0
176
     1
 40
1.0
176
     1
 90
        0
176
     1
 62
    18
420
        0
176
     1
 90
       50
176
     1
 90
        3
176
     1
 62
     5
420
      255
176
     1
290
     0
176
     1
 90
       50
176
     1
 90
       50
176
     1
 90
       50
176
     1
290
     0
176
     1
 90
       50
176
     1
 62
   256
176
     0
 40
1.0
176
     0
 90
        2
176
     1
  1
strokes_ogs.tif
176
     1
290
     0
176
     1
 40
1.0
176
     1
 40
1.0
176
     1
  0
VISUALSTYLE
  5
56A
102
{ACAD_REACTORS
330
55A
102
}
330
55A
100
AcDbVisualStyle
  2
ColorChange
 70
    16
177
     3
291
     1
 70
    58
 90
        2
176
     1
 90
        2
176
     1
 90
        3
176
     1
 90
        0
176
     1
 40
0.6
176
     1
 40
30.0
176
     1
 62
     8
420
  8421504
176
     1
 90
        1
176
     1
 90
        4
176
     1
 62
     7
176
     1
 62
   257
176
     1
 90
        1
176
     1
 90
        1
176
     1
 40
1.0
176
     1
 90
        8
176
     1
 62
     8
420
  8421504
176
     1
 40
1.0
176
     1
 90
        1
176
     1
 90
        6
176
     1
 90
        2
176
     1
 62
     7
176
     1
 90
        5
176
     1
 90
        0
176
     1
 90
        0
176
     1
290
     0
176
     1
 90
        1
176
     1
 40
0.0
176
     1
 90
        0
176
     1
290
     0
176
     1
290
     1
176
     1
290
     1
176
     1
290
     0
176
     1
290
     0
176
     1
290
     0
176
     1
290
     0
176
     1
290
     0
176
     1
290
     0
176
     1
 90
       50
176
     1
 40
0.0
176
     1
 40
1.0
176
     1
 90
        0
176
     1
 62
    18
420
        0
176
     1
 90
       50
176
     1
 90
        3
176
     1
 62
     5
420
      255
176
     1
290
     0
176
     1
 90
       50
176
     1
 90
       50
176
     1
 90
       50
176
     1
290
     0
176
     1
 90
       50
176
     1
 62
   256
176
     0
 40
1.0
176
     0
 90
        2
176
     1
  1
strokes_ogs.tif
176
     1
290
     0
176
     1
 40
1.0
176
     1
 40
1.0
176
     1
  0
VISUALSTYLE
  5
564
102
{ACAD_REACTORS
330
55A
102
}
330
55A
100
AcDbVisualStyle
  2
Conceptual
 70
     9
177
     3
291
     0
 70
    58
 90
        3
176
     1
 90
        2
176
     1
 90
        0
176
     1
 90
        0
176
     1
 40
0.6
176
     1
 40
30.0
176
     1
 62
     7
420
 16777215
176
     1
 90
        2
176
     1
 90
        2
176
     1
 62
     7
176
     1
 62
   257
176
     1
 90
        1
176
     1
 90
        1
176
     1
 40
179.0
176
     1
 90
        8
176
     1
 62
     7
176
     1
 40
1.0
176
     1
 90
        1
176
     1
 90
        6
176
     1
 90
        2
176
     1
 62
     7
176
     1
 90
        3
176
     1
 90
        0
176
     1
 90
        0
176
     1
290
     0
176
     1
 90
        1
176
     1
 40
0.0
176
     1
 90
        0
176
     1
290
     0
176
     1
290
     1
176
     1
290
     1
176
     1
290
     0
176
     1
290
     0
176
     1
290
     0
176
     1
290
     0
176
     1
290
     0
176
     1
290
     0
176
     1
 90
       50
176
     1
 40
0.0
176
     1
 40
1.0
176
     1
 90
        0
176
     1
 62
    18
420
        0
176
     1
 90
       50
176
     1
 90
        3
176
     1
 62
     5
420
      255
176
     1
290
     0
176
     1
 90
       50
176
     1
 90
       50
176
     1
 90
       50
176
     1
290
     0
176
     1
 90
       50
176
     1
 62
   256
176
     0
 40
1.0
176
     0
 90
        2
176
     1
  1
strokes_ogs.tif
176
     1
290
     0
176
     1
 40
1.0
176
     1
 40
1.0
176
     1
  0
VISUALSTYLE
  5
565
102
{ACAD_REACTORS
330
55A
102
}
330
55A
100
AcDbVisualStyle
  2
Dim
 70
    11
177
     3
291
     1
 70
    58
 90
        2
176
     1
 90
        2
176
     1
 90
        0
176
     1
 90
        0
176
     1
 40
0.6
176
     1
 40
30.0
176
     1
 62
     7
420
 16777215
176
     1
 90
        1
176
     1
 90
        4
176
     1
 62
     7
176
     1
 62
   257
176
     1
 90
        1
176
     1
 90
        1
176
     1
 40
1.0
176
     1
 90
        8
176
     1
 62
     7
176
     1
 40
1.0
176
     1
 90
        1
176
     1
 90
        6
176
     1
 90
        2
176
     1
 62
     7
176
     1
 90
        5
176
     1
 90
        0
176
     1
 90
        0
176
     1
290
     0
176
     1
 90
        1
176
     1
 40
-50.0
176
     1
 90
        0
176
     1
290
     0
176
     1
290
     1
176
     1
290
     1
176
     1
290
     0
176
     1
290
     0
176
     1
290
     0
176
     1
290
     0
176
     1
290
     0
176
     1
290
     0
176
     1
 90
       50
176
     1
 40
0.0
176
     1
 40
1.0
176
     1
 90
        0
176
     1
 62
    18
420
        0
176
     1
 90
       50
176
     1
 90
        3
176
     1
 62
     5
420
      255
176
     1
290
     0
176
     1
 90
       50
176
     1
 90
       50
176
     1
 90
       50
176
     1
290
     0
176
     1
 90
       50
176
     1
 62
   256
176
     0
 40
1.0
176
     0
 90
        2
176
     1
  1
strokes_ogs.tif
176
     1
290
     0
176
     1
 40
1.0
176
     1
 40
1.0
176
     1
  0
VISUALSTYLE
  5
56D
102
{ACAD_REACTORS
330
55A
102
}
330
55A
100
AcDbVisualStyle
  2
EdgeColorOff
 70
    22
177
     3
291
     1
 70
    58
 90
        2
176
     0
 90
        2
176
     0
 90
        0
176
     0
 90
        0
176
     0
 40
0.6
176
     0
 40
30.0
176
     0
 62
     7
420
 16777215
176
     0
 90
        1
176
     0
 90
        4
176
     0
 62
     7
176
     0
 62
   257
176
     0
 90
        1
176
     0
 90
        1
176
     0
 40
1.0
176
     0
 90
        8
176
     2
 62
     7
176
     0
 40
1.0
176
     0
 90
        1
176
     0
 90
        6
176
     0
 90
        2
176
     0
 62
     7
176
     0
 90
        5
176
     0
 90
        0
176
     0
 90
        0
176
     0
290
     0
176
     0
 90
        1
176
     0
 40
0.0
176
     0
 90
        0
176
     0
290
     0
176
     0
290
     1
176
     0
290
     1
176
     0
290
     0
176
     0
290
     0
176
     0
290
     0
176
     0
290
     0
176
     0
290
     0
176
     0
290
     0
176
     0
 90
       50
176
     0
 40
0.0
176
     0
 40
1.0
176
     0
 90
        0
176
     0
 62
    18
420
        0
176
     0
 90
       50
176
     0
 90
        3
176
     0
 62
     5
420
      255
176
     0
290
     0
176
     0
 90
       50
176
     0
 90
       50
176
     0
 90
       50
176
     0
290
     0
176
     0
 90
       50
176
     0
 62
   256
176
     0
 40
1.0
176
     0
 90
        2
176
     0
  1
strokes_ogs.tif
176
     0
290
     0
176
     0
 40
1.0
176
     0
 40
1.0
176
     0
  0
VISUALSTYLE
  5
569
102
{ACAD_REACTORS
330
55A
102
}
330
55A
100
AcDbVisualStyle
  2
Facepattern
 70
    15
177
     3
291
     1
 70
    58
 90
        2
176
     1
 90
        2
176
     1
 90
        0
176
     1
 90
        0
176
     1
 40
0.6
176
     1
 40
30.0
176
     1
 62
     7
420
 16777215
176
     1
 90
        1
176
     1
 90
        4
176
     1
 62
     7
176
     1
 62
   257
176
     1
 90
        1
176
     1
 90
        1
176
     1
 40
1.0
176
     1
 90
        8
176
     1
 62
     7
176
     1
 40
1.0
176
     1
 90
        1
176
     1
 90
        6
176
     1
 90
        2
176
     1
 62
     7
176
     1
 90
        5
176
     1
 90
        0
176
     1
 90
        0
176
     1
290
     0
176
     1
 90
        1
176
     1
 40
0.0
176
     1
 90
        0
176
     1
290
     0
176
     1
290
     1
176
     1
290
     1
176
     1
290
     0
176
     1
290
     0
176
     1
290
     0
176
     1
290
     0
176
     1
290
     0
176
     1
290
     0
176
     1
 90
       50
176
     1
 40
0.0
176
     1
 40
1.0
176
     1
 90
        0
176
     1
 62
    18
420
        0
176
     1
 90
       50
176
     1
 90
        3
176
     1
 62
     5
420
      255
176
     1
290
     0
176
     1
 90
       50
176
     1
 90
       50
176
     1
 90
       50
176
     1
290
     0
176
     1
 90
       50
176
     1
 62
   256
176
     0
 40
1.0
176
     0
 90
        2
176
     1
  1
strokes_ogs.tif
176
     1
290
     0
176
     1
 40
1.0
176
     1
 40
1.0
176
     1
  0
VISUALSTYLE
  5
55B
102
{ACAD_REACTORS
330
55A
102
}
330
55A
100
AcDbVisualStyle
  2
Flat
 70
     0
177
     3
291
     1
 70
    58
 90
        2
176
     1
 90
        1
176
     1
 90
        1
176
     1
 90
        2
176
     1
 40
0.6
176
     1
 40
30.0
176
     1
 62
     7
420
 16777215
176
     1
 90
        0
176
     1
 90
        0
176
     1
 62
     7
176
     1
 62
   257
176
     1
 90
        1
176
     1
 90
        1
176
     1
 40
1.0
176
     1
 90
        8
176
     1
 62
     7
176
     1
 40
1.0
176
     1
 90
        1
176
     1
 90
        6
176
     1
 90
        2
176
     1
 62
     7
176
     1
 90
        5
176
     1
 90
        0
176
     1
 90
        0
176
     1
290
     0
176
     1
 90
       13
176
     1
 40
0.0
176
     1
 90
        0
176
     1
290
     0
176
     1
290
     1
176
     1
290
     1
176
     1
290
     0
176
     1
290
     0
176
     1
290
     0
176
     1
290
     0
176
     1
290
     0
176
     1
290
     0
176
     1
 90
       50
176
     1
 40
0.0
176
     1
 40
1.0
176
     1
 90
        0
176
     1
 62
    18
420
        0
176
     1
 90
       50
176
     1
 90
        3
176
     1
 62
     5
420
      255
176
     1
290
     0
176
     1
 90
       50
176
     1
 90
       50
176
     1
 90
       50
176
     1
290
     0
176
     1
 90
       50
176
     1
 62
   256
176
     0
 40
1.0
176
     0
 90
        2
176
     1
  1
strokes_ogs.tif
176
     1
290
     0
176
     1
 40
1.0
176
     1
 40
1.0
176
     1
  0
VISUALSTYLE
  5
55C
102
{ACAD_REACTORS
330
55A
102
}
330
55A
100
AcDbVisualStyle
  2
FlatWithEdges
 70
     1
177
     3
291
     1
 70
    58
 90
        2
176
     1
 90
        1
176
     1
 90
        1
176
     1
 90
        2
176
     1
 40
0.6
176
     1
 40
30.0
176
     1
 62
     7
420
 16777215
176
     1
 90
        1
176
     1
 90
        0
176
     1
 62
     7
176
     1
 62
   257
176
     1
 90
        1
176
     1
 90
        1
176
     1
 40
1.0
176
     1
 90
        0
176
     1
 62
   257
176
     1
 40
1.0
176
     1
 90
        1
176
     1
 90
        6
176
     1
 90
        2
176
     1
 62
     7
176
     1
 90
        5
176
     1
 90
        0
176
     1
 90
        0
176
     1
290
     0
176
     1
 90
       13
176
     1
 40
0.0
176
     1
 90
        0
176
     1
290
     0
176
     1
290
     1
176
     1
290
     1
176
     1
290
     0
176
     1
290
     0
176
     1
290
     0
176
     1
290
     0
176
     1
290
     0
176
     1
290
     0
176
     1
 90
       50
176
     1
 40
0.0
176
     1
 40
1.0
176
     1
 90
        0
176
     1
 62
    18
420
        0
176
     1
 90
       50
176
     1
 90
        3
176
     1
 62
     5
420
      255
176
     1
290
     0
176
     1
 90
       50
176
     1
 90
       50
176
     1
 90
       50
176
     1
290
     0
176
     1
 90
       50
176
     1
 62
   256
176
     0
 40
1.0
176
     0
 90
        2
176
     1
  1
strokes_ogs.tif
176
     1
290
     0
176
     1
 40
1.0
176
     1
 40
1.0
176
     1
  0
VISUALSTYLE
  5
55D
102
{ACAD_REACTORS
330
55A
102
}
330
55A
100
AcDbVisualStyle
  2
Gouraud
 70
     2
177
     3
291
     1
 70
    58
 90
        2
176
     1
 90
        2
176
     1
 90
        1
176
     1
 90
        2
176
     1
 40
0.6
176
     1
 40
30.0
176
     1
 62
     7
420
 16777215
176
     1
 90
        0
176
     1
 90
        0
176
     1
 62
     7
176
     1
 62
   257
176
     1
 90
        1
176
     1
 90
        1
176
     1
 40
1.0
176
     1
 90
        0
176
     1
 62
     7
176
     1
 40
1.0
176
     1
 90
        1
176
     1
 90
        6
176
     1
 90
        2
176
     1
 62
     7
176
     1
 90
        5
176
     1
 90
        0
176
     1
 90
        0
176
     1
290
     0
176
     1
 90
       13
176
     1
 40
0.0
176
     1
 90
        0
176
     1
290
     0
176
     1
290
     1
176
     1
290
     1
176
     1
290
     0
176
     1
290
     0
176
     1
290
     0
176
     1
290
     0
176
     1
290
     0
176
     1
290
     0
176
     1
 90
       50
176
     1
 40
0.0
176
     1
 40
1.0
176
     1
 90
        0
176
     1
 62
    18
420
        0
176
     1
 90
       50
176
     1
 90
        3
176
     1
 62
     5
420
      255
176
     1
290
     0
176
     1
 90
       50
176
     1
 90
       50
176
     1
 90
       50
176
     1
290
     0
176
     1
 90
       50
176
     1
 62
   256
176
     0
 40
1.0
176
     0
 90
        2
176
     1
  1
strokes_ogs.tif
176
     1
290
     0
176
     1
 40
1.0
176
     1
 40
1.0
176
     1
  0
VISUALSTYLE
  5
55E
102
{ACAD_REACTORS
330
55A
102
}
330
55A
100
AcDbVisualStyle
  2
GouraudWithEdges
 70
     3
177
     3
291
     1
 70
    58
 90
        2
176
     1
 90
        2
176
     1
 90
        1
176
     1
 90
        2
176
     1
 40
0.6
176
     1
 40
30.0
176
     1
 62
     7
420
 16777215
176
     1
 90
        1
176
     1
 90
        0
176
     1
 62
     7
176
     1
 62
   257
176
     1
 90
        1
176
     1
 90
        1
176
     1
 40
1.0
176
     1
 90
        0
176
     1
 62
   257
176
     1
 40
1.0
176
     1
 90
        1
176
     1
 90
        6
176
     1
 90
        2
176
     1
 62
     7
176
     1
 90
        5
176
     1
 90
        0
176
     1
 90
        0
176
     1
290
     0
176
     1
 90
       13
176
     1
 40
0.0
176
     1
 90
        0
176
     1
290
     0
176
     1
290
     1
176
     1
290
     1
176
     1
290
     0
176
     1
290
     0
176
     1
290
     0
176
     1
290
     0
176
     1
290
     0
176
     1
290
     0
176
     1
 90
       50
176
     1
 40
0.0
176
     1
 40
1.0
176
     1
 90
        0
176
     1
 62
    18
420
        0
176
     1
 90
       50
176
     1
 90
        3
176
     1
 62
     5
420
      255
176
     1
290
     0
176
     1
 90
       50
176
     1
 90
       50
176
     1
 90
       50
176
     1
290
     0
176
     1
 90
       50
176
     1
 62
   256
176
     0
 40
1.0
176
     0
 90
        2
176
     1
  1
strokes_ogs.tif
176
     1
290
     0
176
     1
 40
1.0
176
     1
 40
1.0
176
     1
  0
VISUALSTYLE
  5
561
102
{ACAD_REACTORS
330
55A
102
}
330
55A
100
AcDbVisualStyle
  2
Hidden
 70
     6
177
     3
291
     0
 70
    58
 90
        1
176
     1
 90
        2
176
     1
 90
        2
176
     1
 90
        0
176
     1
 40
0.6
176
     1
 40
30.0
176
     1
 62
     7
420
 16777215
176
     1
 90
        2
176
     1
 90
        2
176
     1
 62
     7
176
     1
 62
   257
176
     1
 90
        2
176
     1
 90
        1
176
     1
 40
40.0
176
     1
 90
        0
176
     1
 62
   257
176
     1
 40
1.0
176
     1
 90
        1
176
     1
 90
        6
176
     1
 90
        2
176
     1
 62
     7
176
     1
 90
        3
176
     1
 90
        0
176
     1
 90
        0
176
     1
290
     0
176
     1
 90
        1
176
     1
 40
0.0
176
     1
 90
        0
176
     1
290
     0
176
     1
290
     1
176
     1
290
     1
176
     1
290
     0
176
     1
290
     0
176
     1
290
     0
176
     1
290
     0
176
     1
290
     0
176
     1
290
     0
176
     1
 90
       50
176
     1
 40
0.0
176
     1
 40
1.0
176
     1
 90
        0
176
     1
 62
    18
420
        0
176
     1
 90
       50
176
     1
 90
        3
176
     1
 62
     5
420
      255
176
     1
290
     0
176
     1
 90
       50
176
     1
 90
       50
176
     1
 90
       50
176
     1
290
     0
176
     1
 90
       50
176
     1
 62
   256
176
     0
 40
1.0
176
     0
 90
        2
176
     1
  1
strokes_ogs.tif
176
     1
290
     0
176
     1
 40
1.0
176
     1
 40
1.0
176
     1
  0
VISUALSTYLE
  5
56B
102
{ACAD_REACTORS
330
55A
102
}
330
55A
100
AcDbVisualStyle
  2
JitterOff
 70
    20
177
     3
291
     1
 70
    58
 90
        2
176
     0
 90
        2
176
     0
 90
        0
176
     0
 90
        0
176
     0
 40
0.6
176
     0
 40
30.0
176
     0
 62
     7
420
 16777215
176
     0
 90
        1
176
     0
 90
        4
176
     0
 62
     7
176
     0
 62
   257
176
     0
 90
        1
176
     0
 90
        1
176
     0
 40
1.0
176
     0
 90
       10
176
     2
 62
     7
176
     0
 40
1.0
176
     0
 90
        1
176
     0
 90
        6
176
     0
 90
        2
176
     0
 62
     7
176
     0
 90
        5
176
     0
 90
        0
176
     0
 90
        0
176
     0
290
     0
176
     0
 90
        1
176
     0
 40
0.0
176
     0
 90
        0
176
     0
290
     0
176
     0
290
     1
176
     0
290
     1
176
     0
290
     0
176
     0
290
     0
176
     0
290
     0
176
     0
290
     0
176
     0
290
     0
176
     0
290
     0
176
     0
 90
       50
176
     0
 40
0.0
176
     0
 40
1.0
176
     0
 90
        0
176
     0
 62
    18
420
        0
176
     0
 90
       50
176
     0
 90
        3
176
     0
 62
     5
420
      255
176
     0
290
     0
176
     0
 90
       50
176
     0
 90
       50
176
     0
 90
       50
176
     0
290
     0
176
     0
 90
       50
176
     0
 62
   256
176
     0
 40
1.0
176
     0
 90
        2
176
     0
  1
strokes_ogs.tif
176
     0
290
     0
176
     0
 40
1.0
176
     0
 40
1.0
176
     0
  0
VISUALSTYLE
  5
568
102
{ACAD_REACTORS
330
55A
102
}
330
55A
100
AcDbVisualStyle
  2
Linepattern
 70
    14
177
     3
291
     1
 70
    58
 90
        2
176
     1
 90
        2
176
     1
 90
        0
176
     1
 90
        0
176
     1
 40
0.6
176
     1
 40
30.0
176
     1
 62
     7
420
 16777215
176
     1
 90
        1
176
     1
 90
        4
176
     1
 62
     7
176
     1
 62
   257
176
     1
 90
        7
176
     1
 90
        7
176
     1
 40
1.0
176
     1
 90
        8
176
     1
 62
     7
176
     1
 40
1.0
176
     1
 90
        1
176
     1
 90
        6
176
     1
 90
        2
176
     1
 62
     7
176
     1
 90
        5
176
     1
 90
        0
176
     1
 90
        0
176
     1
290
     0
176
     1
 90
        1
176
     1
 40
0.0
176
     1
 90
        0
176
     1
290
     0
176
     1
290
     1
176
     1
290
     1
176
     1
290
     0
176
     1
290
     0
176
     1
290
     0
176
     1
290
     0
176
     1
290
     0
176
     1
290
     0
176
     1
 90
       50
176
     1
 40
0.0
176
     1
 40
1.0
176
     1
 90
        0
176
     1
 62
    18
420
        0
176
     1
 90
       50
176
     1
 90
        3
176
     1
 62
     5
420
      255
176
     1
290
     0
176
     1
 90
       50
176
     1
 90
       50
176
     1
 90
       50
176
     1
290
     0
176
     1
 90
       50
176
     1
 62
   256
176
     0
 40
1.0
176
     0
 90
        2
176
     1
  1
strokes_ogs.tif
176
     1
290
     0
176
     1
 40
1.0
176
     1
 40
1.0
176
     1
  0
VISUALSTYLE
  5
56C
102
{ACAD_REACTORS
330
55A
102
}
330
55A
100
AcDbVisualStyle
  2
OverhangOff
 70
    21
177
     3
291
     1
 70
    58
 90
        2
176
     0
 90
        2
176
     0
 90
        0
176
     0
 90
        0
176
     0
 40
0.6
176
     0
 40
30.0
176
     0
 62
     7
420
 16777215
176
     0
 90
        1
176
     0
 90
        4
176
     0
 62
     7
176
     0
 62
   257
176
     0
 90
        1
176
     0
 90
        1
176
     0
 40
1.0
176
     0
 90
        9
176
     2
 62
     7
176
     0
 40
1.0
176
     0
 90
        1
176
     0
 90
        6
176
     0
 90
        2
176
     0
 62
     7
176
     0
 90
        5
176
     0
 90
        0
176
     0
 90
        0
176
     0
290
     0
176
     0
 90
        1
176
     0
 40
0.0
176
     0
 90
        0
176
     0
290
     0
176
     0
290
     1
176
     0
290
     1
176
     0
290
     0
176
     0
290
     0
176
     0
290
     0
176
     0
290
     0
176
     0
290
     0
176
     0
290
     0
176
     0
 90
       50
176
     0
 40
0.0
176
     0
 40
1.0
176
     0
 90
        0
176
     0
 62
    18
420
        0
176
     0
 90
       50
176
     0
 90
        3
176
     0
 62
     5
420
      255
176
     0
290
     0
176
     0
 90
       50
176
     0
 90
       50
176
     0
 90
       50
176
     0
290
     0
176
     0
 90
       50
176
     0
 62
   256
176
     0
 40
1.0
176
     0
 90
        2
176
     0
  1
strokes_ogs.tif
176
     0
290
     0
176
     0
 40
1.0
176
     0
 40
1.0
176
     0
  0
VISUALSTYLE
  5
563
102
{ACAD_REACTORS
330
55A
102
}
330
55A
100
AcDbVisualStyle
  2
Realistic
 70
     8
177
     3
291
     0
 70
    58
 90
        2
176
     1
 90
        3
176
     1
 90
        0
176
     1
 90
        2
176
     1
 40
0.6
176
     1
 40
30.0
176
     1
 62
     7
420
 16777215
176
     1
 90
        0
176
     1
 90
        0
176
     1
 62
     7
176
     1
 62
   257
176
     1
 90
        1
176
     1
 90
        1
176
     1
 40
1.0
176
     1
 90
        8
176
     1
 62
   257
176
     1
 40
1.0
176
     1
 90
        1
176
     1
 90
        6
176
     1
 90
        2
176
     1
 62
     7
176
     1
 90
        3
176
     1
 90
        0
176
     1
 90
        0
176
     1
290
     0
176
     1
 90
       13
176
     1
 40
0.0
176
     1
 90
        0
176
     1
290
     0
176
     1
290
     1
176
     1
290
     1
176
     1
290
     0
176
     1
290
     0
176
     1
290
     0
176
     1
290
     0
176
     1
290
     0
176
     1
290
     0
176
     1
 90
       50
176
     1
 40
0.0
176
     1
 40
1.0
176
     1
 90
        0
176
     1
 62
    18
420
        0
176
     1
 90
       50
176
     1
 90
        3
176
     1
 62
     5
420
      255
176
     1
290
     0
176
     1
 90
       50
176
     1
 90
       50
176
     1
 90
       50
176
     1
290
     0
176
     1
 90
       50
176
     1
 62
   256
176
     0
 40
1.0
176
     0
 90
        2
176
     1
  1
strokes_ogs.tif
176
     1
290
     0
176
     1
 40
1.0
176
     1
 40
1.0
176
     1
  0
VISUALSTYLE
  5
572
102
{ACAD_REACTORS
330
55A
102
}
330
55A
100
AcDbVisualStyle
  2
Shaded
 70
    27
177
     3
291
     0
 70
    58
 90
        2
176
     1
 90
        2
176
     1
 90
        1
176
     1
 90
        2
176
     1
 40
0.6
176
     1
 40
30.0
176
     1
 62
     7
420
 16777215
176
     1
 90
        0
176
     1
 90
        4
176
     1
 62
     7
176
     1
 62
   257
176
     1
 90
        1
176
     1
 90
        1
176
     1
 40
1.0
176
     1
 90
        8
176
     1
 62
   257
176
     1
 40
1.0
176
     1
 90
        1
176
     1
 90
        6
176
     1
 90
        2
176
     1
 62
     8
420
  7895160
176
     1
 90
        3
176
     1
 90
        0
176
     1
 90
        0
176
     1
290
     0
176
     1
 90
        5
176
     1
 40
0.0
176
     1
 90
        0
176
     1
290
     0
176
     1
290
     1
176
     1
290
     1
176
     1
290
     0
176
     1
290
     0
176
     1
290
     0
176
     1
290
     0
176
     1
290
     0
176
     1
290
     0
176
     1
 90
       50
176
     1
 40
0.0
176
     1
 40
1.0
176
     1
 90
        0
176
     1
 62
    18
420
        0
176
     1
 90
       50
176
     1
 90
        3
176
     1
 62
     5
420
      255
176
     1
290
     0
176
     1
 90
       50
176
     1
 90
       50
176
     1
 90
       50
176
     1
290
     0
176
     1
 90
       50
176
     1
 62
   256
176
     0
 40
1.0
176
     0
 90
        2
176
     1
  1
strokes_ogs.tif
176
     1
290
     0
176
     1
 40
1.0
176
     1
 40
1.0
176
     1
  0
VISUALSTYLE
  5
571
102
{ACAD_REACTORS
330
55A
102
}
330
55A
100
AcDbVisualStyle
  2
Shaded with edges
 70
    26
177
     3
291
     0
 70
    58
 90
        2
176
     1
 90
        2
176
     1
 90
        1
176
     1
 90
        2
176
     1
 40
0.6
176
     1
 40
30.0
176
     1
 62
     7
420
 16777215
176
     1
 90
        1
176
     1
 90
       10
176
     1
 62
     7
176
     1
 62
   257
176
     1
 90
        2
176
     1
 90
        1
176
     1
 40
1.0
176
     1
 90
        8
176
     1
 62
   257
176
     1
 40
1.0
176
     1
 90
        1
176
     1
 90
        6
176
     1
 90
        2
176
     1
 62
     7
176
     1
 90
        3
176
     1
 90
        0
176
     1
 90
        0
176
     1
290
     0
176
     1
 90
        5
176
     1
 40
0.0
176
     1
 90
        0
176
     1
290
     0
176
     1
290
     1
176
     1
290
     1
176
     1
290
     0
176
     1
290
     0
176
     1
290
     0
176
     1
290
     0
176
     1
290
     0
176
     1
290
     0
176
     1
 90
       50
176
     1
 40
0.0
176
     1
 40
1.0
176
     1
 90
        0
176
     1
 62
    18
420
        0
176
     1
 90
       50
176
     1
 90
        3
176
     1
 62
     5
420
      255
176
     1
290
     0
176
     1
 90
       50
176
     1
 90
       50
176
     1
 90
       50
176
     1
290
     0
176
     1
 90
       50
176
     1
 62
   256
176
     0
 40
1.0
176
     0
 90
        2
176
     1
  1
strokes_ogs.tif
176
     1
290
     0
176
     1
 40
1.0
176
     1
 40
1.0
176
     1
  0
VISUALSTYLE
  5
56E
102
{ACAD_REACTORS
330
55A
102
}
330
55A
100
AcDbVisualStyle
  2
Shades of Gray
 70
    23
177
     3
291
     0
 70
    58
 90
        2
176
     1
 90
        2
176
     1
 90
        3
176
     1
 90
        0
176
     1
 40
0.6
176
     1
 40
30.0
176
     1
 62
     7
420
 16777215
176
     1
 90
        2
176
     1
 90
        2
176
     1
 62
     7
176
     1
 62
     7
176
     1
 90
        1
176
     1
 90
        1
176
     1
 40
40.0
176
     1
 90
        8
176
     1
 62
     7
176
     1
 40
1.0
176
     1
 90
        1
176
     1
 90
        6
176
     1
 90
        2
176
     1
 62
     7
176
     1
 90
        3
176
     1
 90
        0
176
     1
 90
        0
176
     1
290
     0
176
     1
 90
        1
176
     1
 40
0.0
176
     1
 90
        0
176
     1
290
     0
176
     1
290
     1
176
     1
290
     1
176
     1
290
     0
176
     1
290
     0
176
     1
290
     0
176
     1
290
     0
176
     1
290
     0
176
     1
290
     0
176
     1
 90
       50
176
     1
 40
0.0
176
     1
 40
1.0
176
     1
 90
        0
176
     1
 62
    18
420
        0
176
     1
 90
       50
176
     1
 90
        3
176
     1
 62
     5
420
      255
176
     1
290
     0
176
     1
 90
       50
176
     1
 90
       50
176
     1
 90
       50
176
     1
290
     0
176
     1
 90
       50
176
     1
 62
   256
176
     0
 40
1.0
176
     0
 90
        2
176
     1
  1
strokes_ogs.tif
176
     1
290
     0
176
     1
 40
1.0
176
     1
 40
1.0
176
     1
  0
VISUALSTYLE
  5
56F
102
{ACAD_REACTORS
330
55A
102
}
330
55A
100
AcDbVisualStyle
  2
Sketchy
 70
    24
177
     3
291
     0
 70
    58
 90
        1
176
     1
 90
        2
176
     1
 90
        2
176
     1
 90
        0
176
     1
 40
0.6
176
     1
 40
30.0
176
     1
 62
     7
420
 16777215
176
     1
 90
        2
176
     1
 90
        2
176
     1
 62
     7
176
     1
 62
     7
176
     1
 90
        1
176
     1
 90
        1
176
     1
 40
40.0
176
     1
 90
       11
176
     1
 62
     7
176
     1
 40
1.0
176
     1
 90
        1
176
     1
 90
        6
176
     1
 90
        2
176
     1
 62
     7
176
     1
 90
        6
176
     1
 90
        0
176
     1
 90
        0
176
     1
290
     0
176
     1
 90
        1
176
     1
 40
0.0
176
     1
 90
        0
176
     1
290
     0
176
     1
290
     1
176
     1
290
     1
176
     1
290
     0
176
     1
290
     0
176
     1
290
     0
176
     1
290
     0
176
     1
290
     0
176
     1
290
     0
176
     1
 90
       50
176
     1
 40
0.0
176
     1
 40
1.0
176
     1
 90
        0
176
     1
 62
    18
420
        0
176
     1
 90
       50
176
     1
 90
        3
176
     1
 62
     5
420
      255
176
     1
290
     0
176
     1
 90
       50
176
     1
 90
       50
176
     1
 90
       50
176
     1
290
     0
176
     1
 90
       50
176
     1
 62
   256
176
     0
 40
1.0
176
     0
 90
        2
176
     1
  1
strokes_ogs.tif
176
     1
290
     0
176
     1
 40
1.0
176
     1
 40
1.0
176
     1
  0
VISUALSTYLE
  5
567
102
{ACAD_REACTORS
330
55A
102
}
330
55A
100
AcDbVisualStyle
  2
Thicken
 70
    13
177
     3
291
     1
 70
    58
 90
        2
176
     1
 90
        2
176
     1
 90
        0
176
     1
 90
        0
176
     1
 40
0.6
176
     1
 40
30.0
176
     1
 62
     7
420
 16777215
176
     1
 90
        1
176
     1
 90
        4
176
     1
 62
     7
176
     1
 62
   257
176
     1
 90
        1
176
     1
 90
        1
176
     1
 40
1.0
176
     1
 90
       12
176
     1
 62
     7
176
     1
 40
1.0
176
     1
 90
        1
176
     1
 90
        6
176
     1
 90
        2
176
     1
 62
     7
176
     1
 90
        5
176
     1
 90
        0
176
     1
 90
        0
176
     1
290
     0
176
     1
 90
        1
176
     1
 40
0.0
176
     1
 90
        0
176
     1
290
     0
176
     1
290
     1
176
     1
290
     1
176
     1
290
     0
176
     1
290
     0
176
     1
290
     0
176
     1
290
     0
176
     1
290
     0
176
     1
290
     0
176
     1
 90
       50
176
     1
 40
0.0
176
     1
 40
1.0
176
     1
 90
        0
176
     1
 62
    18
420
        0
176
     1
 90
       50
176
     1
 90
        3
176
     1
 62
     5
420
      255
176
     1
290
     0
176
     1
 90
       50
176
     1
 90
       50
176
     1
 90
       50
176
     1
290
     0
176
     1
 90
       50
176
     1
 62
   256
176
     0
 40
1.0
176
     0
 90
        2
176
     1
  1
strokes_ogs.tif
176
     1
290
     0
176
     1
 40
1.0
176
     1
 40
1.0
176
     1
  0
VISUALSTYLE
  5
560
102
{ACAD_REACTORS
330
55A
102
}
330
55A
100
AcDbVisualStyle
  2
Wireframe
 70
     5
177
     3
291
     0
 70
    58
 90
        0
176
     1
 90
        2
176
     1
 90
        0
176
     1
 90
        0
176
     1
 40
0.6
176
     1
 40
30.0
176
     1
 62
     7
420
 16777215
176
     1
 90
        1
176
     1
 90
        4
176
     1
 62
     7
176
     1
 62
   257
176
     1
 90
        1
176
     1
 90
        1
176
     1
 40
1.0
176
     1
 90
        0
176
     1
 62
   257
176
     1
 40
1.0
176
     1
 90
        1
176
     1
 90
        6
176
     1
 90
        2
176
     1
 62
     7
176
     1
 90
        3
176
     1
 90
        0
176
     1
 90
        0
176
     1
290
     0
176
     1
 90
        1
176
     1
 40
0.0
176
     1
 90
        0
176
     1
290
     0
176
     1
290
     1
176
     1
290
     1
176
     1
290
     0
176
     1
290
     0
176
     1
290
     0
176
     1
290
     0
176
     1
290
     0
176
     1
290
     0
176
     1
 90
       50
176
     1
 40
0.0
176
     1
 40
1.0
176
     1
 90
        0
176
     1
 62
    18
420
        0
176
     1
 90
       50
176
     1
 90
        3
176
     1
 62
     5
420
      255
176
     1
290
     0
176
     1
 90
       50
176
     1
 90
       50
176
     1
 90
       50
176
     1
290
     0
176
     1
 90
       50
176
     1
 62
   256
176
     0
 40
1.0
176
     0
 90
        2
176
     1
  1
strokes_ogs.tif
176
     1
290
     0
176
     1
 40
1.0
176
     1
 40
1.0
176
     1
  0
VISUALSTYLE
  5
570
102
{ACAD_REACTORS
330
55A
102
}
330
55A
100
AcDbVisualStyle
  2
X-Ray
 70
    25
177
     3
291
     0
 70
    58
 90
        2
176
     1
 90
        2
176
     1
 90
        1
176
     1
 90
        1
176
     1
 40
0.5
176
     1
 40
30.0
176
     1
 62
     7
420
 16777215
176
     1
 90
        1
176
     1
 90
        0
176
     1
 62
     7
176
     1
 62
   257
176
     1
 90
        1
176
     1
 90
        1
176
     1
 40
1.0
176
     1
 90
        8
176
     1
 62
     7
176
     1
 40
1.0
176
     1
 90
        1
176
     1
 90
        6
176
     1
 90
        2
176
     1
 62
     7
176
     1
 90
        3
176
     1
 90
        0
176
     1
 90
        0
176
     1
290
     0
176
     1
 90
       13
176
     1
 40
0.0
176
     1
 90
        0
176
     1
290
     0
176
     1
290
     1
176
     1
290
     1
176
     1
290
     0
176
     1
290
     0
176
     1
290
     0
176
     1
290
     0
176
     1
290
     0
176
     1
290
     0
176
     1
 90
       50
176
     1
 40
0.0
176
     1
 40
1.0
176
     1
 90
        0
176
     1
 62
    18
420
        0
176
     1
 90
       50
176
     1
 90
        3
176
     1
 62
     5
420
      255
176
     1
290
     0
176
     1
 90
       50
176
     1
 90
       50
176
     1
 90
       50
176
     1
290
     0
176
     1
 90
       50
176
     1
 62
   256
176
     0
 40
1.0
176
     0
 90
        2
176
     1
  1
strokes_ogs.tif
176
     1
290
     0
176
     1
 40
1.0
176
     1
 40
1.0
176
     1
  0
DICTIONARYVAR
  5
57B
102
{ACAD_REACTORS
330
57A
102
}
330
57A
100
DictionaryVariables
280
     0
  1
1:1
  0
DICTIONARYVAR
  5
580
102
{ACAD_REACTORS
330
57A
102
}
330
57A
100
DictionaryVariables
280
     0
  1
Standard
  0
DICTIONARYVAR
  5
57F
102
{ACAD_REACTORS
330
57A
102
}
330
57A
100
DictionaryVariables
280
     0
  1
Standard
  0
DICTIONARYVAR
  5
581
102
{ACAD_REACTORS
330
57A
102
}
330
57A
100
DictionaryVariables
280
     0
  1
0
  0
DICTIONARY
  5
584
330
574
100
AcDbDictionary
280
     1
281
     1
  3
ACAD_ROUNDTRIP_2008_TABLESTYLE_CELLSTYLEMAP
360
585
  0
CELLSTYLEMAP
  5
585
102
{ACAD_REACTORS
330
584
102
}
330
584
100
AcDbCellStyleMap
 90
        3
300
CELLSTYLE
  1
TABLEFORMAT_BEGIN
 90
        5
170
     1
 91
        0
 92
    32768
 62
   257
 93
        1
300
CONTENTFORMAT
  1
CONTENTFORMAT_BEGIN
 90
        0
 91
        0
 92
        4
 93
        0
300

 40
0.0
140
1.0
 94
        5
 62
     0
340
514
144
0.25
309
CONTENTFORMAT_END
171
     1
301
MARGIN
  1
CELLMARGIN_BEGIN
 40
0.06
 40
0.06
 40
0.06
 40
0.06
 40
0.06
 40
0.06
309
CELLMARGIN_END
 94
        6
 95
        1
302
GRIDFORMAT
  1
GRIDFORMAT_BEGIN
 90
        0
 91
        1
 62
     0
 92
       -2
340
516
 93
        0
 40
0.045
309
GRIDFORMAT_END
 95
        2
302
GRIDFORMAT
  1
GRIDFORMAT_BEGIN
 90
        0
 91
        1
 62
     0
 92
       -2
340
516
 93
        0
 40
0.045
309
GRIDFORMAT_END
 95
        4
302
GRIDFORMAT
  1
GRIDFORMAT_BEGIN
 90
        0
 91
        1
 62
     0
 92
       -2
340
516
 93
        0
 40
0.045
309
GRIDFORMAT_END
 95
        8
302
GRIDFORMAT
  1
GRIDFORMAT_BEGIN
 90
        0
 91
        1
 62
     0
 92
       -2
340
516
 93
        0
 40
0.045
309
GRIDFORMAT_END
 95
       16
302
GRIDFORMAT
  1
GRIDFORMAT_BEGIN
 90
        0
 91
        1
 62
     0
 92
       -2
340
516
 93
        0
 40
0.045
309
GRIDFORMAT_END
 95
       32
302
GRIDFORMAT
  1
GRIDFORMAT_BEGIN
 90
        0
 91
        1
 62
     0
 92
       -2
340
516
 93
        0
 40
0.045
309
GRIDFORMAT_END
309
TABLEFORMAT_END
  1
CELLSTYLE_BEGIN
 90
        1
 91
        1
300
_TITLE
309
CELLSTYLE_END
300
CELLSTYLE
  1
TABLEFORMAT_BEGIN
 90
        5
170
     1
 91
        0
 92
        0
 62
   257
 93
        1
300
CONTENTFORMAT
  1
CONTENTFORMAT_BEGIN
 90
        0
 91
        0
 92
        4
 93
        0
300

 40
0.0
140
1.0
 94
        5
 62
     0
340
514
144
0.18
309
CONTENTFORMAT_END
171
     1
301
MARGIN
  1
CELLMARGIN_BEGIN
 40
0.06
 40
0.06
 40
0.06
 40
0.06
 40
0.06
 40
0.06
309
CELLMARGIN_END
 94
        6
 95
        1
302
GRIDFORMAT
  1
GRIDFORMAT_BEGIN
 90
        0
 91
        1
 62
     0
 92
       -2
340
516
 93
        0
 40
0.045
309
GRIDFORMAT_END
 95
        2
302
GRIDFORMAT
  1
GRIDFORMAT_BEGIN
 90
        0
 91
        1
 62
     0
 92
       -2
340
516
 93
        0
 40
0.045
309
GRIDFORMAT_END
 95
        4
302
GRIDFORMAT
  1
GRIDFORMAT_BEGIN
 90
        0
 91
        1
 62
     0
 92
       -2
340
516
 93
        0
 40
0.045
309
GRIDFORMAT_END
 95
        8
302
GRIDFORMAT
  1
GRIDFORMAT_BEGIN
 90
        0
 91
        1
 62
     0
 92
       -2
340
516
 93
        0
 40
0.045
309
GRIDFORMAT_END
 95
       16
302
GRIDFORMAT
  1
GRIDFORMAT_BEGIN
 90
        0
 91
        1
 62
     0
 92
       -2
340
516
 93
        0
 40
0.045
309
GRIDFORMAT_END
 95
       32
302
GRIDFORMAT
  1
GRIDFORMAT_BEGIN
 90
        0
 91
        1
 62
     0
 92
       -2
340
516
 93
        0
 40
0.045
309
GRIDFORMAT_END
309
TABLEFORMAT_END
  1
CELLSTYLE_BEGIN
 90
        2
 91
        1
300
_HEADER
309
CELLSTYLE_END
300
CELLSTYLE
  1
TABLEFORMAT_BEGIN
 90
        5
170
     1
 91
        0
 92
        0
 62
   257
 93
        1
300
CONTENTFORMAT
  1
CONTENTFORMAT_BEGIN
 90
        0
 91
        0
 92
        4
 93
        0
300

 40
0.0
140
1.0
 94
        2
 62
     0
340
514
144
0.18
309
CONTENTFORMAT_END
171
     1
301
MARGIN
  1
CELLMARGIN_BEGIN
 40
0.06
 40
0.06
 40
0.06
 40
0.06
 40
0.06
 40
0.06
309
CELLMARGIN_END
 94
        6
 95
        1
302
GRIDFORMAT
  1
GRIDFORMAT_BEGIN
 90
        0
 91
        1
 62
     0
 92
       -2
340
516
 93
        0
 40
0.045
309
GRIDFORMAT_END
 95
        2
302
GRIDFORMAT
  1
GRIDFORMAT_BEGIN
 90
        0
 91
        1
 62
     0
 92
       -2
340
516
 93
        0
 40
0.045
309
GRIDFORMAT_END
 95
        4
302
GRIDFORMAT
  1
GRIDFORMAT_BEGIN
 90
        0
 91
        1
 62
     0
 92
       -2
340
516
 93
        0
 40
0.045
309
GRIDFORMAT_END
 95
        8
302
GRIDFORMAT
  1
GRIDFORMAT_BEGIN
 90
        0
 91
        1
 62
     0
 92
       -2
340
516
 93
        0
 40
0.045
309
GRIDFORMAT_END
 95
       16
302
GRIDFORMAT
  1
GRIDFORMAT_BEGIN
 90
        0
 91
        1
 62
     0
 92
       -2
340
516
 93
        0
 40
0.045
309
GRIDFORMAT_END
 95
       32
302
GRIDFORMAT
  1
GRIDFORMAT_BEGIN
 90
        0
 91
        1
 62
     0
 92
       -2
340
516
 93
        0
 40
0.045
309
GRIDFORMAT_END
309
TABLEFORMAT_END
  1
CELLSTYLE_BEGIN
 90
        3
 91
        2
300
_DATA
309
CELLSTYLE_END
  0
ENDSEC
  0
EOF
