  0
SECTION
  2
HEADER
  9
$ACADVER
  1
AC1024
  9
$ACADMAINTVER
 70
     6
  9
$DWGCODEPAGE
  3
ANSI_1252
  9
$INSBASE
 10
0.0
 20
0.0
 30
0.0
  9
$EXTMIN
 10
0.0
 20
0.0
 30
0.0
  9
$EXTMAX
 10
594.0
 20
841.0
 30
0.0
  9
$LIMMIN
 10
0.0
 20
0.0
  9
$LIMMAX
 10
594.0
 20
841.0
  9
$ORTHOMODE
 70
     0
  9
$REGENMODE
 70
     1
  9
$FILLMODE
 70
     1
  9
$QTEXTMODE
 70
     0
  9
$MIRRTEXT
 70
     1
  9
$LTSCALE
 40
1.0
  9
$ATTMODE
 70
     1
  9
$TEXTSIZE
 40
10.0
  9
$TRACEWID
 40
1.0
  9
$TEXTSTYLE
  7
Standard
  9
$CLAYER
  8
0
  9
$CELTYPE
  6
ByLayer
  9
$CECOLOR
 62
   256
  9
$CELTSCALE
 40
1.0
  9
$DISPSILH
 70
     0
  9
$DIMSCALE
 40
1.0
  9
$DIMASZ
 40
2.5
  9
$DIMEXO
 40
0.0
  9
$DIMDLI
 40
3.75
  9
$DIMRND
 40
0.0
  9
$DIMDLE
 40
0.0
  9
$DIMEXE
 40
1.0
  9
$DIMTP
 40
0.0
  9
$DIMTM
 40
0.0
  9
$DIMTXT
 40
3.5
  9
$DIMCEN
 40
2.5
  9
$DIMTSZ
 40
0.0
  9
$DIMTOL
 70
     0
  9
$DIMLIM
 70
     0
  9
$DIMTIH
 70
     1
  9
$DIMTOH
 70
     1
  9
$DIMSE1
 70
     0
  9
$DIMSE2
 70
     0
  9
$DIMTAD
 70
     1
  9
$DIMZIN
 70
     0
  9
$DIMBLK
  1

  9
$DIMASO
 70
     1
  9
$DIMSHO
 70
     1
  9
$DIMPOST
  1

  9
$DIMAPOST
  1

  9
$DIMALT
 70
     0
  9
$DIMALTD
 70
     3
  9
$DIMALTF
 40
0.0393700787
  9
$DIMLFAC
 40
1.0
  9
$DIMTOFL
 70
     1
  9
$DIMTVP
 40
0.0
  9
$DIMTIX
 70
     0
  9
$DIMSOXD
 70
     0
  9
$DIMSAH
 70
     0
  9
$DIMBLK1
  1

  9
$DIMBLK2
  1

  9
$DIMSTYLE
  2
ISO-25
  9
$DIMCLRD
 70
     0
  9
$DIMCLRE
 70
     0
  9
$DIMCLRT
 70
     0
  9
$DIMTFAC
 40
1.0
  9
$DIMGAP
 40
1.5
  9
$DIMJUST
 70
     0
  9
$DIMSD1
 70
     0
  9
$DIMSD2
 70
     0
  9
$DIMTOLJ
 70
     0
  9
$DIMTZIN
 70
     0
  9
$DIMALTZ
 70
     0
  9
$DIMALTTZ
 70
     0
  9
$DIMUPT
 70
     0
  9
$DIMDEC
 70
     2
  9
$DIMTDEC
 70
     2
  9
$DIMALTU
 70
     2
  9
$DIMALTTD
 70
     3
  9
$DIMTXSTY
  7
Standard
  9
$DIMAUNIT
 70
     0
  9
$DIMADEC
 70
     2
  9
$DIMALTRND
 40
0.0
  9
$DIMAZIN
 70
     0
  9
$DIMDSEP
 70
    44
  9
$DIMATFIT
 70
     3
  9
$DIMFRAC
 70
     0
  9
$DIMLDRBLK
  1

  9
$DIMLUNIT
 70
     2
  9
$DIMLWD
 70
    -2
  9
$DIMLWE
 70
    -2
  9
$DIMTMOVE
 70
     0
  9
$DIMFXL
 40
1.0
  9
$DIMFXLON
 70
     0
  9
$DIMJOGANG
 40
0.7853981634
  9
$DIMTFILL
 70
     0
  9
$DIMTFILLCLR
 70
     0
  9
$DIMARCSYM
 70
     0
  9
$DIMLTYPE
  6

  9
$DIMLTEX1
  6

  9
$DIMLTEX2
  6

  9
$DIMTXTDIRECTION
 70
     0
  9
$LUNITS
 70
     2
  9
$LUPREC
 70
     2
  9
$SKETCHINC
 40
1.0
  9
$FILLETRAD
 40
10.0
  9
$AUNITS
 70
     0
  9
$AUPREC
 70
     2
  9
$MENU
  1
.
  9
$ELEVATION
 40
0.0
  9
$PELEVATION
 40
0.0
  9
$THICKNESS
 40
0.0
  9
$LIMCHECK
 70
     0
  9
$CHAMFERA
 40
10.0
  9
$CHAMFERB
 40
10.0
  9
$CHAMFERC
 40
20.0
  9
$CHAMFERD
 40
0.0
  9
$SKPOLY
 70
     0
  9
$TDCREATE
 40
2456183.29319765
  9
$TDUCREATE
 40
2456183.209864317
  9
$TDUPDATE
 40
2456183.293197662
  9
$TDUUPDATE
 40
2456183.209864329
  9
$TDINDWG
 40
0.0000000116
  9
$TDUSRTIMER
 40
0.0000000116
  9
$USRTIMER
 70
     1
  9
$ANGBASE
 50
0.0
  9
$ANGDIR
 70
     0
  9
$PDMODE
 70
     0
  9
$PDSIZE
 40
-1.0
  9
$PLINEWID
 40
0.0
  9
$SPLFRAME
 70
     0
  9
$SPLINETYPE
 70
     6
  9
$SPLINESEGS
 70
     8
  9
$HANDSEED
  5
179
  9
$SURFTAB1
 70
     6
  9
$SURFTAB2
 70
     6
  9
$SURFTYPE
 70
     6
  9
$SURFU
 70
     6
  9
$SURFV
 70
     6
  9
$UCSBASE
  2

  9
$UCSNAME
  2

  9
$UCSORG
 10
0.0
 20
0.0
 30
0.0
  9
$UCSXDIR
 10
1.0
 20
0.0
 30
0.0
  9
$UCSYDIR
 10
0.0
 20
1.0
 30
0.0
  9
$UCSORTHOREF
  2

  9
$UCSORTHOVIEW
 70
     0
  9
$UCSORGTOP
 10
0.0
 20
0.0
 30
0.0
  9
$UCSORGBOTTOM
 10
0.0
 20
0.0
 30
0.0
  9
$UCSORGLEFT
 10
0.0
 20
0.0
 30
0.0
  9
$UCSORGRIGHT
 10
0.0
 20
0.0
 30
0.0
  9
$UCSORGFRONT
 10
0.0
 20
0.0
 30
0.0
  9
$UCSORGBACK
 10
0.0
 20
0.0
 30
0.0
  9
$PUCSBASE
  2

  9
$PUCSNAME
  2

  9
$PUCSORG
 10
0.0
 20
0.0
 30
0.0
  9
$PUCSXDIR
 10
1.0
 20
0.0
 30
0.0
  9
$PUCSYDIR
 10
0.0
 20
1.0
 30
0.0
  9
$PUCSORTHOREF
  2

  9
$PUCSORTHOVIEW
 70
     0
  9
$PUCSORGTOP
 10
0.0
 20
0.0
 30
0.0
  9
$PUCSORGBOTTOM
 10
0.0
 20
0.0
 30
0.0
  9
$PUCSORGLEFT
 10
0.0
 20
0.0
 30
0.0
  9
$PUCSORGRIGHT
 10
0.0
 20
0.0
 30
0.0
  9
$PUCSORGFRONT
 10
0.0
 20
0.0
 30
0.0
  9
$PUCSORGBACK
 10
0.0
 20
0.0
 30
0.0
  9
$USERI1
 70
     0
  9
$USERI2
 70
     0
  9
$USERI3
 70
     0
  9
$USERI4
 70
     0
  9
$USERI5
 70
     0
  9
$USERR1
 40
0.0
  9
$USERR2
 40
0.0
  9
$USERR3
 40
0.0
  9
$USERR4
 40
0.0
  9
$USERR5
 40
0.0
  9
$WORLDVIEW
 70
     1
  9
$SHADEDGE
 70
     3
  9
$SHADEDIF
 70
    70
  9
$TILEMODE
 70
     1
  9
$MAXACTVP
 70
    64
  9
$PINSBASE
 10
0.0
 20
0.0
 30
0.0
  9
$PLIMCHECK
 70
     0
  9
$PEXTMIN
 10
1.0000000000E+20
 20
1.0000000000E+20
 30
1.0000000000E+20
  9
$PEXTMAX
 10
-1.0000000000E+20
 20
-1.0000000000E+20
 30
-1.0000000000E+20
  9
$PLIMMIN
 10
0.0
 20
0.0
  9
$PLIMMAX
 10
420.0
 20
297.0
  9
$UNITMODE
 70
     0
  9
$VISRETAIN
 70
     1
  9
$PLINEGEN
 70
     0
  9
$PSLTSCALE
 70
     1
  9
$TREEDEPTH
 70
  3020
  9
$CMLSTYLE
  2
Standard
  9
$CMLJUST
 70
     0
  9
$CMLSCALE
 40
20.0
  9
$PROXYGRAPHICS
 70
     1
  9
$MEASUREMENT
 70
     1
  9
$CELWEIGHT
370
    -1
  9
$ENDCAPS
280
     0
  9
$JOINSTYLE
280
     0
  9
$LWDISPLAY
290
     1
  9
$INSUNITS
 70
     4
  9
$HYPERLINKBASE
  1

  9
$STYLESHEET
  1

  9
$XEDIT
290
     1
  9
$CEPSNTYPE
380
     0
  9
$PSTYLEMODE
290
     1
  9
$FINGERPRINTGUID
  2
{CB3EC46E-5301-4FAF-8189-D33810AECD84}
  9
$VERSIONGUID
  2
{FAEB1C32-E019-11D5-929B-00C0DF256EC4}
  9
$EXTNAMES
290
     1
  9
$PSVPSCALE
 40
0.0
  9
$OLESTARTUP
290
     0
  9
$SORTENTS
280
   127
  9
$INDEXCTL
280
     0
  9
$HIDETEXT
280
     1
  9
$XCLIPFRAME
280
     2
  9
$HALOGAP
280
     0
  9
$OBSCOLOR
 70
   257
  9
$OBSLTYPE
280
     0
  9
$INTERSECTIONDISPLAY
280
     0
  9
$INTERSECTIONCOLOR
 70
   257
  9
$DIMASSOC
280
     2
  9
$PROJECTNAME
  1

  9
$CAMERADISPLAY
290
     0
  9
$LENSLENGTH
 40
50.0
  9
$CAMERAHEIGHT
 40
0.0
  9
$STEPSPERSEC
 40
2.0
  9
$STEPSIZE
 40
6.0
  9
$3DDWFPREC
 40
2.0
  9
$PSOLWIDTH
 40
5.0
  9
$PSOLHEIGHT
 40
80.0
  9
$LOFTANG1
 40
1.5707963268
  9
$LOFTANG2
 40
1.5707963268
  9
$LOFTMAG1
 40
0.0
  9
$LOFTMAG2
 40
0.0
  9
$LOFTPARAM
 70
     7
  9
$LOFTNORMALS
280
     1
  9
$LATITUDE
 40
37.795
  9
$LONGITUDE
 40
-122.394
  9
$NORTHDIRECTION
 40
0.0
  9
$TIMEZONE
 70
 -8000
  9
$LIGHTGLYPHDISPLAY
280
     1
  9
$TILEMODELIGHTSYNCH
280
     1
  9
$SOLIDHIST
280
     1
  9
$SHOWHIST
280
     1
  9
$DWFFRAME
280
     2
  9
$DGNFRAME
280
     2
  9
$REALWORLDSCALE
290
     1
  9
$INTERFERECOLOR
 62
   256
  9
$CSHADOW
280
     0
  9
$SHADOWPLANELOCATION
 40
0.0
  0
ENDSEC
  0
SECTION
  2
CLASSES
  0
CLASS
  1
ACDBDICTIONARYWDFLT
  2
AcDbDictionaryWithDefault
  3
ObjectDBX Classes
 90
        0
 91
        4
280
     0
281
     0
  0
CLASS
  1
VISUALSTYLE
  2
AcDbVisualStyle
  3
ObjectDBX Classes
 90
     4095
 91
        4
280
     0
281
     0
  0
CLASS
  1
MATERIAL
  2
AcDbMaterial
  3
ObjectDBX Classes
 90
     1153
 91
        4
280
     0
281
     0
  0
ENDSEC
  0
SECTION
  2
TABLES
  0
TABLE
  2
VPORT
  5
8
330
0
100
AcDbSymbolTable
 70
     1
  0
VPORT
  5
29
330
8
100
AcDbSymbolTableRecord
100
AcDbViewportTableRecord
  2
*Active
 70
     0
 10
0.0
 20
0.0
 11
1.0
 21
1.0
 12
297.0
 22
420.5
 13
0.0
 23
0.0
 14
10.0
 24
10.0
 15
10.0
 25
10.0
 16
0.0
 26
0.0
 36
1.0
 17
0.0
 27
0.0
 37
0.0
 40
841.0
 41
0.7063020214
 42
50.0
 43
0.0
 44
0.0
 50
0.0
 51
0.0
 71
     0
 72
  2000
 73
     1
 74
     3
 75
     0
 76
     0
 77
     0
 78
     0
281
     0
 65
     1
110
0.0
120
0.0
130
0.0
111
1.0
121
0.0
131
0.0
112
0.0
122
1.0
132
0.0
 79
     0
146
0.0
 60
     3
 61
     5
292
     1
282
     1
141
0.0
142
0.0
 63
   250
  0
ENDTAB
  0
TABLE
  2
LTYPE
  5
5
330
0
100
AcDbSymbolTable
 70
     6
  0
LTYPE
  5
14
330
5
100
AcDbSymbolTableRecord
100
AcDbLinetypeTableRecord
  2
ByBlock
 70
     0
  3

 72
    65
 73
     0
 40
0.0
  0
LTYPE
  5
15
330
5
100
AcDbSymbolTableRecord
100
AcDbLinetypeTableRecord
  2
ByLayer
 70
     0
  3

 72
    65
 73
     0
 40
0.0
  0
LTYPE
  5
16
330
5
100
AcDbSymbolTableRecord
100
AcDbLinetypeTableRecord
  2
Continuous
 70
     0
  3
Solid line
 72
    65
 73
     0
 40
0.0
  0
LTYPE
  5
3F
330
5
100
AcDbSymbolTableRecord
100
AcDbLinetypeTableRecord
  2
HIDDEN
 70
     0
  3
Hidden __ __ __ __ __ __ __ __ __ __ __ __ __ __
 72
    65
 73
     2
 40
1.905
 49
1.27
 74
     0
 49
-0.635
 74
     0
  0
LTYPE
  5
40
330
5
100
AcDbSymbolTableRecord
100
AcDbLinetypeTableRecord
  2
PHANTOM
 70
     0
  3
Phantom ______  __  __  ______  __  __  ______
 72
    65
 73
     6
 40
12.7
 49
6.35
 74
     0
 49
-1.27
 74
     0
 49
1.27
 74
     0
 49
-1.27
 74
     0
 49
1.27
 74
     0
 49
-1.27
 74
     0
  0
LTYPE
  5
41
330
5
100
AcDbSymbolTableRecord
100
AcDbLinetypeTableRecord
  2
CENTER
 70
     0
  3
Center ____ _ ____ _ ____ _ ____ _ ____ _ ____
 72
    65
 73
     4
 40
10.16
 49
6.35
 74
     0
 49
-1.27
 74
     0
 49
1.27
 74
     0
 49
-1.27
 74
     0
  0
LTYPE
  5
42
330
5
100
AcDbSymbolTableRecord
100
AcDbLinetypeTableRecord
  2
CENTERX2
 70
     0
  3
Center (2x) ________  __  ________  __  _____
 72
    65
 73
     4
 40
20.32
 49
12.7
 74
     0
 49
-2.54
 74
     0
 49
2.54
 74
     0
 49
-2.54
 74
     0
  0
LTYPE
  5
43
330
5
100
AcDbSymbolTableRecord
100
AcDbLinetypeTableRecord
  2
DOT2
 70
     0
  3
Dot (.5x) ........................................
 72
    65
 73
     2
 40
0.635
 49
0.0
 74
     0
 49
-0.635
 74
     0
  0
ENDTAB
  0
TABLE
  2
LAYER
  5
2
330
0
100
AcDbSymbolTable
 70
     1
  0
LAYER
  5
10
330
2
100
AcDbSymbolTableRecord
100
AcDbLayerTableRecord
  2
0
 70
     0
 62
     7
  6
Continuous
370
    -3
390
F
347
3E
  0
ENDTAB
  0
TABLE
  2
STYLE
  5
3
330
0
100
AcDbSymbolTable
 70
     3
  0
STYLE
  5
11
330
3
100
AcDbSymbolTableRecord
100
AcDbTextStyleTableRecord
  2
Standard
 70
     0
 40
0.0
 41
1.0
 50
0.0
 71
     0
 42
2.5
  3
txt
  4

  0
STYLE
  5
47
330
3
100
AcDbSymbolTableRecord
100
AcDbTextStyleTableRecord
  2
SLDTEXTSTYLE0
 70
     0
 40
0.0
 41
0.96
 50
0.0
 71
     0
 42
0.2
  3
ISOCP3
  4

  0
STYLE
  5
5E
330
3
100
AcDbSymbolTableRecord
100
AcDbTextStyleTableRecord
  2
SLDTEXTSTYLE1
 70
     0
 40
0.0
 41
0.605
 50
0.0
 71
     0
 42
0.2
  3
TXT
  4

  0
ENDTAB
  0
TABLE
  2
VIEW
  5
6
330
0
100
AcDbSymbolTable
 70
     0
  0
ENDTAB
  0
TABLE
  2
UCS
  5
7
330
0
100
AcDbSymbolTable
 70
     0
  0
ENDTAB
  0
TABLE
  2
APPID
  5
9
330
0
100
AcDbSymbolTable
 70
     1
  0
APPID
  5
12
330
9
100
AcDbSymbolTableRecord
100
AcDbRegAppTableRecord
  2
ACAD
 70
     0
  0
ENDTAB
  0
TABLE
  2
DIMSTYLE
  5
A
330
0
100
AcDbSymbolTable
 70
     2
100
AcDbDimStyleTable
  0
DIMSTYLE
105
27
330
A
100
AcDbSymbolTableRecord
100
AcDbDimStyleTableRecord
  2
ISO-25
 70
     0
 41
2.5
 42
0.625
 43
3.75
 44
1.25
 73
     0
 74
     0
 77
     1
 78
     8
140
2.5
141
2.5
143
0.0393700787
147
0.625
171
     3
172
     1
178
     0
271
     2
272
     2
274
     3
278
    44
283
     0
284
     8
340
11
  0
DIMSTYLE
105
48
102
{ACAD_REACTORS
330
46
330
53
102
}
330
A
100
AcDbSymbolTableRecord
100
AcDbDimStyleTableRecord
  2
SLDDIMSTYLE0
 70
     0
 41
2.5
 44
0.0
 45
0.000000001
 73
     0
 74
     0
 77
     1
 78
    12
 79
     3
140
6.0
147
1.5
173
     1
178
     0
271
     2
272
     2
276
     2
284
    12
340
47
  0
ENDTAB
  0
TABLE
  2
BLOCK_RECORD
  5
1
330
0
100
AcDbSymbolTable
 70
     3
  0
BLOCK_RECORD
  5
1F
330
1
100
AcDbSymbolTableRecord
100
AcDbBlockTableRecord
  2
*Model_Space
340
22
 70
     0
280
     1
281
     0
  0
BLOCK_RECORD
  5
1B
330
1
100
AcDbSymbolTableRecord
100
AcDbBlockTableRecord
  2
*Paper_Space
340
1E
 70
     0
280
     1
281
     0
  0
BLOCK_RECORD
  5
23
330
1
100
AcDbSymbolTableRecord
100
AcDbBlockTableRecord
  2
*Paper_Space0
340
26
 70
     0
280
     1
281
     0
  0
BLOCK_RECORD
  5
49
330
1
100
AcDbSymbolTableRecord
100
AcDbBlockTableRecord
  2
*D1
340
0
 70
     0
280
     1
281
     0
  0
BLOCK_RECORD
  5
54
330
1
100
AcDbSymbolTableRecord
100
AcDbBlockTableRecord
  2
*D2
340
0
 70
     0
280
     1
281
     0
  0
ENDTAB
  0
ENDSEC
  0
SECTION
  2
BLOCKS
  0
BLOCK
  5
20
330
1F
100
AcDbEntity
  8
0
100
AcDbBlockBegin
  2
*Model_Space
 70
     0
 10
0.0
 20
0.0
 30
0.0
  3
*Model_Space
  1

  0
ENDBLK
  5
21
330
1F
100
AcDbEntity
  8
0
100
AcDbBlockEnd
  0
BLOCK
  5
1C
330
1B
100
AcDbEntity
 67
     1
  8
0
100
AcDbBlockBegin
  2
*Paper_Space
 70
     0
 10
0.0
 20
0.0
 30
0.0
  3
*Paper_Space
  1

  0
ENDBLK
  5
1D
330
1B
100
AcDbEntity
 67
     1
  8
0
100
AcDbBlockEnd
  0
BLOCK
  5
24
330
23
100
AcDbEntity
  8
0
100
AcDbBlockBegin
  2
*Paper_Space0
 70
     0
 10
0.0
 20
0.0
 30
0.0
  3
*Paper_Space0
  1

  0
ENDBLK
  5
25
330
23
100
AcDbEntity
  8
0
100
AcDbBlockEnd
  0
BLOCK
  5
4A
330
49
100
AcDbEntity
  8
0
100
AcDbBlockBegin
  2
*D1
 70
     1
 10
0.0
 20
0.0
 30
0.0
  3
*D1
  1

  0
SOLID
  5
4C
330
49
100
AcDbEntity
  8
0
  6
Continuous
 62
     7
370
     0
100
AcDbTrace
 10
42.7614395004
 20
152.0299240879
 30
0.0
 11
42.4614395004
 21
149.5299240879
 31
0.0
 12
43.0614395004
 22
149.5299240879
 32
0.0
 13
43.0614395004
 23
149.5299240879
 33
0.0
  0
SOLID
  5
4D
330
49
100
AcDbEntity
  8
0
  6
Continuous
 62
     7
370
     0
100
AcDbTrace
 10
42.7614395004
 20
52.0299240879
 30
0.0
 11
43.0614395004
 21
54.5299240879
 31
0.0
 12
42.4614395004
 22
54.5299240879
 32
0.0
 13
42.4614395004
 23
54.5299240879
 33
0.0
  0
LINE
  5
4E
330
49
100
AcDbEntity
  8
0
  6
Continuous
 62
     7
370
     0
100
AcDbLine
 10
56.6850079902
 20
152.0299240879
 30
0.0
 11
41.7614395004
 21
152.0299240879
 31
0.0
  0
LINE
  5
4F
330
49
100
AcDbEntity
  8
0
  6
Continuous
 62
     7
370
     0
100
AcDbLine
 10
56.6850079902
 20
52.0299240879
 30
0.0
 11
41.7614395004
 21
52.0299240879
 31
0.0
  0
LINE
  5
50
330
49
100
AcDbEntity
  8
0
  6
Continuous
 62
     7
370
     0
100
AcDbLine
 10
42.7614395004
 20
152.0299240879
 30
0.0
 11
42.7614395004
 21
52.0299240879
 31
0.0
  0
MTEXT
  5
51
330
49
100
AcDbEntity
  8
0
  6
Continuous
 62
     7
370
     0
100
AcDbMText
 10
35.0270332946
 20
91.6722208134
 30
0.1
 40
6.0
 41
0.0
 46
0.0
 71
     1
 72
     1
  1
100
  7
SLDTEXTSTYLE0
 11
-7.044195017643634E-15
 21
1.0
 31
0.0
 73
     1
 44
1.0
  0
MTEXT
  5
52
330
49
100
AcDbEntity
  8
0
  6
Continuous
 62
     7
370
     0
100
AcDbMText
 10
35.0270332946
 20
108.4388881795
 30
0.1
 40
6.0
 41
0.0
 46
0.0
 71
     1
 72
     1
  1
mm
  7
SLDTEXTSTYLE0
 11
-7.044195017643634E-15
 21
1.0
 31
0.0
 73
     1
 44
1.0
  0
ENDBLK
  5
4B
330
49
100
AcDbEntity
  8
0
100
AcDbBlockEnd
  0
BLOCK
  5
55
330
54
100
AcDbEntity
  8
0
100
AcDbBlockBegin
  2
*D2
 70
     1
 10
0.0
 20
0.0
 30
0.0
  3
*D2
  1

  0
SOLID
  5
57
330
54
100
AcDbEntity
  8
0
  6
Continuous
 62
     7
370
     0
100
AcDbTrace
 10
56.6850079902
 20
38.4602342313
 30
0.0
 11
59.1850079902
 21
38.1602342313
 31
0.0
 12
59.1850079902
 22
38.7602342313
 32
0.0
 13
59.1850079902
 23
38.7602342313
 33
0.0
  0
SOLID
  5
58
330
54
100
AcDbEntity
  8
0
  6
Continuous
 62
     7
370
     0
100
AcDbTrace
 10
156.6850079902
 20
38.4602342313
 30
0.0
 11
154.1850079902
 21
38.7602342313
 31
0.0
 12
154.1850079902
 22
38.1602342313
 32
0.0
 13
154.1850079902
 23
38.1602342313
 33
0.0
  0
LINE
  5
59
330
54
100
AcDbEntity
  8
0
  6
Continuous
 62
     7
370
     0
100
AcDbLine
 10
56.6850079902
 20
52.0299240879
 30
0.0
 11
56.6850079902
 21
37.4602342313
 31
0.0
  0
LINE
  5
5A
330
54
100
AcDbEntity
  8
0
  6
Continuous
 62
     7
370
     0
100
AcDbLine
 10
156.6850079902
 20
52.0299240879
 30
0.0
 11
156.6850079902
 21
37.4602342313
 31
0.0
  0
LINE
  5
5B
330
54
100
AcDbEntity
  8
0
  6
Continuous
 62
     7
370
     0
100
AcDbLine
 10
56.6850079902
 20
38.4602342313
 30
0.0
 11
156.6850079902
 21
38.4602342313
 31
0.0
  0
MTEXT
  5
5C
330
54
100
AcDbEntity
  8
0
  6
Continuous
 62
     7
370
     0
100
AcDbMText
 10
91.2668151533
 20
46.1946404371
 30
0.1
 40
6.0
 41
0.0
 46
0.0
 71
     1
 72
     1
  1
100
  7
SLDTEXTSTYLE0
 73
     1
 44
1.0
  0
MTEXT
  5
5D
330
54
100
AcDbEntity
  8
0
  6
Continuous
 62
     7
370
     0
100
AcDbMText
 10
108.0334825193
 20
46.1946404371
 30
0.1
 40
6.0
 41
0.0
 46
0.0
 71
     1
 72
     1
  1
mm
  7
SLDTEXTSTYLE0
 73
     1
 44
1.0
  0
ENDBLK
  5
56
330
54
100
AcDbEntity
  8
0
100
AcDbBlockEnd
  0
ENDSEC
  0
SECTION
  2
ENTITIES
  0
LINE
  5
44
330
1F
100
AcDbEntity
  8
0
  6
Continuous
 62
     7
370
     0
100
AcDbLine
 10
56.6850079902
 20
152.0299240879
 30
0.0
 11
56.6850079902
 21
52.0299240879
 31
0.0
  0
LINE
  5
45
330
1F
100
AcDbEntity
  8
0
  6
Continuous
 62
     7
370
     0
100
AcDbLine
 10
56.6850079902
 20
52.0299240879
 30
0.0
 11
156.6850079902
 21
52.0299240879
 31
0.0
  0
DIMENSION
  5
46
330
1F
100
AcDbEntity
  8
0
  6
Continuous
 62
     7
370
     0
100
AcDbDimension
280
     0
  2
*D1
 10
42.7614395004
 20
52.0299240879
 30
0.0
 11
42.7614395004
 21
105.4472211621
 31
0.0
 70
   160
  1
<>mm
 71
     2
 42
-1.0
 73
     0
 74
     0
 75
     0
  3
SLDDIMSTYLE0
100
AcDbAlignedDimension
 13
56.6850079902
 23
152.0299240879
 33
0.0
 14
56.6850079902
 24
52.0299240879
 34
0.0
 50
90.0
100
AcDbRotatedDimension
  0
DIMENSION
  5
53
330
1F
100
AcDbEntity
  8
0
  6
Continuous
 62
     7
370
     0
100
AcDbDimension
280
     0
  2
*D2
 10
156.6850079902
 20
38.4602342313
 30
0.0
 11
105.0418155019
 21
38.4602342313
 31
0.0
 70
   160
  1
<>mm
 71
     2
 42
-1.0
 73
     0
 74
     0
 75
     0
  3
SLDDIMSTYLE0
100
AcDbAlignedDimension
 13
56.6850079902
 23
52.0299240879
 33
0.0
 14
156.6850079902
 24
52.0299240879
 34
0.0
100
AcDbRotatedDimension
  0
MTEXT
  5
5F
330
1F
100
AcDbEntity
  8
0
  6
Continuous
 62
     7
370
     0
100
AcDbMText
 10
265.5696211796
 20
47.4999097818
 30
0.0
 40
10.0
 41
0.0
 46
0.0
 71
     1
 72
     1
  1
53 029 05 75
  7
SLDTEXTSTYLE1
 73
     1
 44
1.0
  0
MTEXT
  5
60
330
1F
100
AcDbEntity
  8
0
  6
Continuous
 62
     7
370
     0
100
AcDbMText
 10
412.8252631579
 20
48.4342449499
 30
0.0
 40
10.0
 41
0.0
 46
0.0
 71
     1
 72
     1
  1
KLUDI GmbH & Co KG
  7
SLDTEXTSTYLE1
 73
     1
 44
1.0
  0
LINE
  5
61
330
1F
100
AcDbEntity
  8
0
  6
Continuous
 62
     7
370
    15
100
AcDbLine
 10
217.4332315313
 20
385.840530211
 30
0.0
 11
217.4332315313
 21
386.1874443118
 31
0.0
  0
LINE
  5
62
330
1F
100
AcDbEntity
  8
0
  6
Continuous
 62
     7
370
    15
100
AcDbLine
 10
198.9780315313
 20
386.1876235994
 30
0.0
 11
198.9780315313
 21
385.840530211
 31
0.0
  0
SPLINE
  5
63
330
1F
100
AcDbEntity
  8
0
  6
Continuous
 62
     7
370
    15
100
AcDbSpline
210
0.0
220
0.0
230
1.0
 70
     8
 71
     3
 72
    28
 73
    24
 74
     0
 42
0.00000001
 43
0.00000001
 40
0.0
 40
0.0
 40
0.0
 40
0.0
 40
0.0901998559303987
 40
0.1710719120444291
 40
0.243593270512278
 40
0.3086623118027059
 40
0.3671029723867267
 40
0.4196688684321819
 40
0.4759563847704004
 40
0.5258401143151215
 40
0.5702690705010273
 40
0.6100805584000051
 40
0.6460086164017472
 40
0.6824231095653214
 40
0.7155336725497001
 40
0.7459845786587783
 40
0.7749468920003887
 40
0.8082191577660791
 40
0.8384530374941408
 40
0.8727195746246579
 40
0.9117826020189774
 40
0.9568634391536378
 40
1.0
 40
1.0
 40
1.0
 40
1.0
 10
233.6079162480972
 20
326.603476115185
 30
0.0
 10
233.6816424759865
 20
329.0202881956164
 30
0.0
 10
233.8214707123262
 20
333.603983583894
 30
0.0
 10
234.0730108519369
 20
340.1155408757399
 30
0.0
 10
234.3372446707123
 20
345.9428434223508
 30
0.0
 10
234.6141345926658
 20
351.158185098196
 30
0.0
 10
234.9002332348695
 20
355.8288782803073
 30
0.0
 10
235.2097161176735
 20
360.2518314517191
 30
0.0
 10
235.5440038712806
 20
364.4314492452145
 30
0.0
 10
235.9053362523661
 20
368.3764079874991
 30
0.0
 10
236.2672135664885
 20
371.8691840827721
 30
0.0
 10
236.6270973871349
 20
374.9777888091594
 30
0.0
 10
236.9950061506636
 20
377.8573805804577
 30
0.0
 10
237.370404053004
 20
380.5411988477932
 30
0.0
 10
237.7519874340368
 20
383.0584620075673
 30
0.0
 10
238.1243530178212
 20
385.3616429255896
 30
0.0
 10
238.5101173826816
 20
387.6339951054166
 30
0.0
 10
238.9091500753336
 20
389.8951864678831
 30
0.0
 10
239.337739509949
 20
392.2799028558483
 30
0.0
 10
239.7897176339862
 20
394.8011927645437
 30
0.0
 10
240.2872914297944
 20
397.6819175027815
 30
0.0
 10
240.790424486488
 20
400.7795301780526
 30
0.0
 10
241.0823297031648
 20
402.9368850955626
 30
0.0
 10
241.2250655741917
 20
403.9917889330844
 30
0.0
  0
SPLINE
  5
64
330
1F
100
AcDbEntity
  8
0
  6
Continuous
 62
     7
370
    15
100
AcDbSpline
210
0.0
220
0.0
230
1.0
 70
     8
 71
     3
 72
    32
 73
    28
 74
     0
 42
0.00000001
 43
0.00000001
 40
0.0
 40
0.0
 40
0.0
 40
0.0
 40
0.033273336267915
 40
0.0677362775498288
 40
0.0965821307486958
 40
0.120554642010701
 40
0.1457101506644028
 40
0.1635936374022051
 40
0.1751292164488342
 40
0.1934672838280039
 40
0.2161026939183645
 40
0.2433654622235474
 40
0.2758592935918722
 40
0.3009008368937265
 40
0.3291214260461579
 40
0.3610680501871058
 40
0.3974355223468695
 40
0.4390903279737692
 40
0.4870960524239962
 40
0.533263756334125
 40
0.5857164288292436
 40
0.6454917658740744
 40
0.7137785855614722
 40
0.774279219674876
 40
0.8415996837799232
 40
0.9165457025078276
 40
1.0
 40
1.0
 40
1.0
 40
1.0
 10
175.1666962222598
 20
404.1204703417121
 30
0.0
 10
175.2765144918005
 20
403.2983042722171
 30
0.0
 10
175.5000773087585
 20
401.6245776393678
 30
0.0
 10
175.8686163127419
 20
399.2517361514786
 30
0.0
 10
176.2212910922585
 20
397.1143214397955
 30
0.0
 10
176.5505102356192
 20
395.2108609229028
 30
0.0
 10
176.8392181993431
 20
393.5854218382131
 30
0.0
 10
177.0761563168375
 20
392.2659009000219
 30
0.0
 10
177.2757312607321
 20
391.1547849102806
 30
0.0
 10
177.5011372050631
 20
389.8951887252876
 30
0.0
 10
177.7981716677427
 20
388.2166421536191
 30
0.0
 10
178.1538826927165
 20
386.1572859341913
 30
0.0
 10
178.5088869143987
 20
384.0111371419458
 30
0.0
 10
178.8514861954422
 20
381.8231164996542
 30
0.0
 10
179.1745974941898
 20
379.6359041855499
 30
0.0
 10
179.5168643289797
 20
377.1444637383189
 30
0.0
 10
179.8756887931152
 20
374.2921436374899
 30
0.0
 10
180.2479343863029
 20
371.0083293135291
 30
0.0
 10
180.6049950983454
 20
367.4542642382639
 30
0.0
 10
180.9465541537093
 20
363.6041650151206
 30
0.0
 10
181.2723011646949
 20
359.4323717524913
 30
0.0
 10
181.5958201925173
 20
354.6644866975392
 30
0.0
 10
181.8862569019662
 20
349.6707067663435
 30
0.0
 10
182.1476147590087
 20
344.4656181978185
 30
0.0
 10
182.3817985991672
 20
339.0733857044734
 30
0.0
 10
182.6074261551894
 20
333.0604168676932
 30
0.0
 10
182.7357424767179
 20
328.8315066091175
 30
0.0
 10
182.8033468144205
 20
326.6034761151851
 30
0.0
  0
SPLINE
  5
65
330
1F
100
AcDbEntity
  8
0
  6
Continuous
 62
     7
370
    15
100
AcDbSpline
210
0.0
220
0.0
230
1.0
 70
     8
 71
     3
 72
    10
 73
     6
 74
     0
 42
0.00000001
 43
0.00000001
 40
0.0
 40
0.0
 40
0.0
 40
0.0
 40
0.3422903968323004
 40
0.8611336292690884
 40
1.0
 40
1.0
 40
1.0
 40
1.0
 10
241.3119939968234
 20
408.3666297941247
 30
0.0
 10
241.3037738253627
 20
408.635286488195
 30
0.0
 10
241.2830935312363
 20
409.3111725666047
 30
0.0
 10
241.235940378694
 20
410.2170563958704
 30
0.0
 10
241.2054276580838
 20
410.9071136422802
 30
0.0
 10
241.1989853152142
 20
411.0528097746522
 30
0.0
  0
SPLINE
  5
66
330
1F
100
AcDbEntity
  8
0
  6
Continuous
 62
     7
370
    15
100
AcDbSpline
210
0.0
220
0.0
230
1.0
 70
     8
 71
     3
 72
    11
 73
     7
 74
     0
 42
0.00000001
 43
0.00000001
 40
0.0
 40
0.0
 40
0.0
 40
0.0
 40
0.0049953701163085
 40
0.3513479483591074
 40
0.7038295063592144
 40
1.0
 40
1.0
 40
1.0
 40
1.0
 10
175.2125605404014
 20
411.0354646649165
 30
0.0
 10
175.2122259620595
 20
411.0275637869294
 30
0.0
 10
175.1886934887389
 20
410.4718577618689
 30
0.0
 10
175.1374005367027
 20
409.5294644378052
 30
0.0
 10
175.091466373533
 20
408.2770123599437
 30
0.0
 10
175.0790618396461
 20
407.6188460364147
 30
0.0
 10
175.0733980066013
 20
407.3183313853868
 30
0.0
  0
SPLINE
  5
67
330
1F
100
AcDbEntity
  8
0
  6
Continuous
 62
     7
370
    15
100
AcDbSpline
210
0.0
220
0.0
230
1.0
 70
     8
 71
     3
 72
    18
 73
    14
 74
     0
 42
0.00000001
 43
0.00000001
 40
0.0
 40
0.0
 40
0.0
 40
0.0
 40
0.1087703364164252
 40
0.2034250542870103
 40
0.2846268571494866
 40
0.3526073406580857
 40
0.4072845666642438
 40
0.453071050511215
 40
0.523174732232775
 40
0.6125921229562089
 40
0.7214579623238854
 40
0.8502890505417647
 40
1.0
 40
1.0
 40
1.0
 40
1.0
 10
240.1603063274205
 20
412.4091613574601
 30
0.0
 10
239.2041938462016
 20
412.6219956841126
 30
0.0
 10
237.4160479251315
 20
413.0200438641573
 30
0.0
 10
234.6972477440017
 20
413.5032044321145
 30
0.0
 10
232.263301886188
 20
413.8715295380354
 30
0.0
 10
230.1544130905891
 20
414.1429991963376
 30
0.0
 10
228.3699749112392
 20
414.3429064561788
 30
0.0
 10
226.5324156354729
 20
414.5251673443246
 30
0.0
 10
224.2826894561742
 20
414.7169078399371
 30
0.0
 10
221.2878125453416
 20
414.9200513348703
 30
0.0
 10
217.5793547599831
 20
415.0984825400167
 30
0.0
 10
213.1389369286328
 20
415.2298199990548
 30
0.0
 10
209.9292093505937
 20
415.245159048606
 30
0.0
 10
208.204042954815
 20
415.2534034905984
 30
0.0
  0
SPLINE
  5
68
330
1F
100
AcDbEntity
  8
0
  6
Continuous
 62
     7
370
    15
100
AcDbSpline
210
0.0
220
0.0
230
1.0
 70
     8
 71
     3
 72
    19
 73
    15
 74
     0
 42
0.00000001
 43
0.00000001
 40
0.0
 40
0.0
 40
0.0
 40
0.0
 40
0.1092980250529242
 40
0.2042431257928856
 40
0.285248582595569
 40
0.352580513259405
 40
0.4063619794953053
 40
0.4514566417760021
 40
0.5082729945107608
 40
0.5794282938985676
 40
0.6647522377521574
 40
0.7629634242511333
 40
0.8743796629451106
 40
1.0
 40
1.0
 40
1.0
 40
1.0
 10
208.2050412289481
 20
415.2534044520449
 30
0.0
 10
206.9458261796339
 20
415.2491681340493
 30
0.0
 10
204.5927551374733
 20
415.2412518077584
 30
0.0
 10
201.3153631433972
 20
415.1724479108451
 30
0.0
 10
198.5348033288957
 20
415.079632592256
 30
0.0
 10
196.241251755194
 20
414.9739097096488
 30
0.0
 10
194.3707919024448
 20
414.8666921479966
 30
0.0
 10
192.6337035336463
 20
414.7498966722666
 30
0.0
 10
190.7228974208854
 20
414.6007275513704
 30
0.0
 10
188.4061137205454
 20
414.3857528188449
 30
0.0
 10
185.7077221558786
 20
414.0824567492197
 30
0.0
 10
182.7017174683577
 20
413.6659273696293
 30
0.0
 10
179.449358185615
 20
413.1156563523833
 30
0.0
 10
177.3588475789681
 20
412.6538834013269
 30
0.0
 10
176.250956755815
 20
412.4091613639313
 30
0.0
  0
SPLINE
  5
69
330
1F
100
AcDbEntity
  8
0
  6
Continuous
 62
     7
370
    15
100
AcDbSpline
210
0.0
220
0.0
230
1.0
 70
     8
 71
     3
 72
     9
 73
     5
 74
     0
 42
0.00000001
 43
0.00000001
 40
0.0
 40
0.0
 40
0.0
 40
0.0
 40
0.4261143177454046
 40
1.0
 40
1.0
 40
1.0
 40
1.0
 10
175.2510278992123
 20
411.5634601404439
 30
0.0
 10
175.2456130738514
 20
411.4858396950086
 30
0.0
 10
175.2329056262595
 20
411.3036809591886
 30
0.0
 10
175.2248689573058
 20
411.146826105353
 30
0.0
 10
175.2202568280602
 20
411.0568093505446
 30
0.0
  0
SPLINE
  5
6A
330
1F
100
AcDbEntity
  8
0
  6
Continuous
 62
     7
370
    15
100
AcDbSpline
210
0.0
220
0.0
230
1.0
 70
     8
 71
     3
 72
     9
 73
     5
 74
     0
 42
0.00000001
 43
0.00000001
 40
0.0
 40
0.0
 40
0.0
 40
0.0
 40
0.3951081793135434
 40
1.0
 40
1.0
 40
1.0
 40
1.0
 10
241.1914769978989
 20
411.0539839085696
 30
0.0
 10
241.1881973872287
 20
411.1165152492785
 30
0.0
 10
241.1798968486879
 20
411.274779096961
 30
0.0
 10
241.1676730855391
 20
411.454442257465
 30
0.0
 10
241.1602790311923
 20
411.5631190337327
 30
0.0
  0
SPLINE
  5
6B
330
1F
100
AcDbEntity
  8
0
  6
Continuous
 62
     7
370
    15
100
AcDbSpline
210
0.0
220
0.0
230
1.0
 70
     8
 71
     3
 72
    11
 73
     7
 74
     0
 42
0.00000001
 43
0.00000001
 40
0.0
 40
0.0
 40
0.0
 40
0.0
 40
0.1550438623612143
 40
0.3649741997555619
 40
0.6394126658193082
 40
0.9999999999999999
 40
0.9999999999999999
 40
0.9999999999999999
 40
0.9999999999999999
 10
241.1603050232981
 20
411.5780583043456
 30
0.0
 10
241.1445792125623
 20
411.6524989048047
 30
0.0
 10
241.1075605579611
 20
411.8277325333283
 30
0.0
 10
240.9303383560579
 20
412.0368462655543
 30
0.0
 10
240.6274239632704
 20
412.2619268257647
 30
0.0
 10
240.3104225413771
 20
412.3610284247264
 30
0.0
 10
240.1304193074801
 20
412.4173013846108
 30
0.0
  0
SPLINE
  5
6C
330
1F
100
AcDbEntity
  8
0
  6
Continuous
 62
     7
370
    15
100
AcDbSpline
210
0.0
220
0.0
230
1.0
 70
     8
 71
     3
 72
    11
 73
     7
 74
     0
 42
0.00000001
 43
0.00000001
 40
0.0
 40
0.0
 40
0.0
 40
0.0
 40
0.2863952458485647
 40
0.5536203473260183
 40
0.7983695651757108
 40
1.0
 40
1.0
 40
1.0
 40
1.0
 10
176.2508675406586
 20
412.4091334877473
 30
0.0
 10
176.102130073719
 20
412.3603483054188
 30
0.0
 10
175.8146110268733
 20
412.2660434243967
 30
0.0
 10
175.5017218749364
 20
412.0368072996884
 30
0.0
 10
175.309883650777
 20
411.812196484157
 30
0.0
 10
175.2766263028705
 20
411.6729830326162
 30
0.0
 10
175.2616039032622
 20
411.6101000839886
 30
0.0
  0
SPLINE
  5
6D
330
1F
100
AcDbEntity
  8
0
  6
Continuous
 62
     7
370
    15
100
AcDbSpline
210
0.0
220
0.0
230
1.0
 70
     8
 71
     3
 72
    10
 73
     6
 74
     0
 42
0.00000001
 43
0.00000001
 40
0.0
 40
0.0
 40
0.0
 40
0.0
 40
0.1784683877049558
 40
0.8994800210318352
 40
1.0
 40
1.0
 40
1.0
 40
1.0
 10
175.3500973863819
 20
413.6395176762928
 30
0.0
 10
175.3439868690709
 20
413.6139720527839
 30
0.0
 10
175.3131898841813
 20
413.4852222037683
 30
0.0
 10
175.3587129293183
 20
413.3230758020997
 30
0.0
 10
175.4252412042447
 20
413.2320784183531
 30
0.0
 10
175.4333813910571
 20
413.220944269693
 30
0.0
  0
SPLINE
  5
6E
330
1F
100
AcDbEntity
  8
0
  6
Continuous
 62
     7
370
    15
100
AcDbSpline
210
0.0
220
0.0
230
1.0
 70
     8
 71
     3
 72
    10
 73
     6
 74
     0
 42
0.00000001
 43
0.00000001
 40
0.0
 40
0.0
 40
0.0
 40
0.0
 40
0.1530451659238347
 40
0.8860881406506553
 40
1.0
 40
1.0
 40
1.0
 40
1.0
 10
240.9750055885924
 20
413.2248284509481
 30
0.0
 10
240.987338270648
 20
413.2408387304931
 30
0.0
 10
241.058741004906
 20
413.3335337120542
 30
0.0
 10
241.1005092947576
 20
413.4949322851257
 30
0.0
 10
241.0698230033724
 20
413.6116452512576
 30
0.0
 10
241.0656958263759
 20
413.6273426538195
 30
0.0
  0
SPLINE
  5
6F
330
1F
100
AcDbEntity
  8
0
  6
Continuous
 62
     7
370
    15
100
AcDbSpline
210
0.0
220
0.0
230
1.0
 70
     8
 71
     3
 72
    14
 73
    10
 74
     0
 42
0.00000001
 43
0.00000001
 40
0.0
 40
0.0
 40
0.0
 40
0.0
 40
0.1140693206182053
 40
0.2789216523822021
 40
0.4401117195845076
 40
0.5996394255415632
 40
0.7614925564324648
 40
0.9270340204413288
 40
1.0
 40
1.0
 40
1.0
 40
1.0
 10
241.0716876496366
 20
413.6394763979092
 30
0.0
 10
241.0445846238766
 20
414.0115065014189
 30
0.0
 10
240.9783124598226
 20
414.9211923893027
 30
0.0
 10
240.836380285565
 20
416.546716488145
 30
0.0
 10
240.6470423249376
 20
418.4780114437888
 30
0.0
 10
240.4171818609094
 20
420.5455965405607
 30
0.0
 10
240.1343722568436
 20
422.7626540388289
 30
0.0
 10
239.872807667302
 20
424.6650474639776
 30
0.0
 10
239.6726363741897
 20
425.8506016297069
 30
0.0
 10
239.6113984762735
 20
426.2132952200132
 30
0.0
  0
SPLINE
  5
70
330
1F
100
AcDbEntity
  8
0
  6
Continuous
 62
     7
370
    15
100
AcDbSpline
210
0.0
220
0.0
230
1.0
 70
     8
 71
     3
 72
    14
 73
    10
 74
     0
 42
0.00000001
 43
0.00000001
 40
0.0
 40
0.0
 40
0.0
 40
0.0
 40
0.0389313322494322
 40
0.2016096338981539
 40
0.373570604177182
 40
0.5376581509319964
 40
0.6995756987024845
 40
0.8580790117313284
 40
1.0
 40
1.0
 40
1.0
 40
1.0
 10
176.8005753215757
 20
426.2106255167166
 30
0.0
 10
176.7665932631747
 20
426.0160766421989
 30
0.0
 10
176.5906139180695
 20
425.0085866566137
 30
0.0
 10
176.3406623074052
 20
423.2240275892443
 30
0.0
 10
176.0389926496103
 20
420.9270534441901
 30
0.0
 10
175.7955567601135
 20
418.7745973654527
 30
0.0
 10
175.6007223673834
 20
416.8245532419196
 30
0.0
 10
175.4473389550713
 20
415.098913346674
 30
0.0
 10
175.3728603506699
 20
414.1052229549404
 30
0.0
 10
175.337676522012
 20
413.6358018001975
 30
0.0
  0
LINE
  5
71
330
1F
100
AcDbEntity
  8
0
  6
Continuous
 62
     7
370
    15
100
AcDbLine
 10
240.9337962608
 20
413.1349650834
 30
0.0
 11
240.9805728229
 21
413.215628898
 31
0.0
  0
LINE
  5
72
330
1F
100
AcDbEntity
  8
0
  6
Continuous
 62
     7
370
    15
100
AcDbLine
 10
175.4315338707
 20
413.2156483966
 30
0.0
 11
175.4765661843
 21
413.1349510321
 31
0.0
  0
SPLINE
  5
73
330
1F
100
AcDbEntity
  8
0
  6
Continuous
 62
     7
370
    15
100
AcDbSpline
210
0.0
220
0.0
230
1.0
 70
     8
 71
     3
 72
     9
 73
     5
 74
     0
 42
0.00000001
 43
0.00000001
 40
0.0
 40
0.0
 40
0.0
 40
0.0
 40
0.4016740796570219
 40
1.0
 40
1.0
 40
1.0
 40
1.0
 10
240.2841578023719
 20
412.3597375464665
 30
0.0
 10
240.3874930890596
 20
412.4436226275037
 30
0.0
 10
240.6447546150607
 20
412.6524612986691
 30
0.0
 10
240.8233573052757
 20
412.9599474520829
 30
0.0
 10
240.9302199242743
 20
413.1439243878168
 30
0.0
  0
SPLINE
  5
74
330
1F
100
AcDbEntity
  8
0
  6
Continuous
 62
     7
370
    15
100
AcDbSpline
210
0.0
220
0.0
230
1.0
 70
     8
 71
     3
 72
     9
 73
     5
 74
     0
 42
0.00000001
 43
0.00000001
 40
0.0
 40
0.0
 40
0.0
 40
0.0
 40
0.4919395869299196
 40
1.0
 40
1.0
 40
1.0
 40
1.0
 10
175.4873865075994
 20
413.1517298615663
 30
0.0
 10
175.5718858684515
 20
412.997478688939
 30
0.0
 10
175.7436536283495
 20
412.6839215434571
 30
0.0
 10
175.9925704046516
 20
412.4682293830354
 30
0.0
 10
176.1190351648397
 20
412.3586447349155
 30
0.0
  0
SPLINE
  5
75
330
1F
100
AcDbEntity
  8
0
  6
Continuous
 62
     7
370
    15
100
AcDbSpline
210
0.0
220
0.0
230
1.0
 70
     8
 71
     3
 72
    27
 73
    23
 74
     0
 42
0.00000001
 43
0.00000001
 40
0.0
 40
0.0
 40
0.0
 40
0.0
 40
0.0429156959041914
 40
0.1091541314389556
 40
0.1783365481335712
 40
0.2372158479474204
 40
0.2912518853600266
 40
0.3385030870152411
 40
0.3809098509325992
 40
0.419475287849381
 40
0.4565422885515955
 40
0.4961934415326877
 40
0.5347369153300926
 40
0.5715961188816847
 40
0.6095621620478576
 40
0.6498227184026101
 40
0.6932322355754095
 40
0.7408674311417667
 40
0.7948162074309747
 40
0.8580540357475399
 40
0.9289875922675549
 40
1.0
 40
1.0
 40
1.0
 40
1.0
 10
239.6105226664194
 20
426.2117161936454
 30
0.0
 10
239.5155138647503
 20
426.7916037174614
 30
0.0
 10
239.2738632749893
 20
428.2665214057528
 30
0.0
 10
238.7730867012696
 20
430.7631824759866
 30
0.0
 10
238.1387263445048
 20
433.5185207837097
 30
0.0
 10
237.3954688104212
 20
436.1165359922078
 30
0.0
 10
236.585015906668
 20
438.3781965630734
 30
0.0
 10
235.7101111680278
 20
440.3668563293306
 30
0.0
 10
234.7756826879597
 20
442.0827983383857
 30
0.0
 10
233.766570142824
 20
443.5880549147816
 30
0.0
 10
232.6233490505203
 20
444.9590312271566
 30
0.0
 10
231.3264491539514
 20
446.2053074511808
 30
0.0
 10
229.881934713502
 20
447.2969186696163
 30
0.0
 10
228.3362099691175
 20
448.2083142229826
 30
0.0
 10
226.6755277882344
 20
448.977206937732
 30
0.0
 10
224.8475610892173
 20
449.6305276984282
 30
0.0
 10
222.8190988683948
 20
450.1770061059468
 30
0.0
 10
220.5392195185055
 20
450.6240285370689
 30
0.0
 10
217.9208368342069
 20
450.9866413009566
 30
0.0
 10
214.9129826720318
 20
451.2430812962367
 30
0.0
 10
211.6228485203686
 20
451.3882410566837
 30
0.0
 10
209.3448712565754
 20
451.4003775558004
 30
0.0
 10
208.205249914654
 20
451.4064491762812
 30
0.0
  0
SPLINE
  5
76
330
1F
100
AcDbEntity
  8
0
  6
Continuous
 62
     7
370
    15
100
AcDbSpline
210
0.0
220
0.0
230
1.0
 70
     8
 71
     3
 72
    27
 73
    23
 74
     0
 42
0.00000001
 43
0.00000001
 40
0.0
 40
0.0
 40
0.0
 40
0.0
 40
0.0602252128453034
 40
0.1397415508494684
 40
0.2082167791752976
 40
0.2632083274131561
 40
0.3120622222675127
 40
0.3567449878576092
 40
0.3973199375750047
 40
0.4352136947305027
 40
0.471515140015309
 40
0.5103646325613436
 40
0.5473498416217436
 40
0.5848998040057202
 40
0.623864744036865
 40
0.6654393371631119
 40
0.7111164830526259
 40
0.7608713135365448
 40
0.8165113780531854
 40
0.8812310492655583
 40
0.9509077593460001
 40
1.0
 40
1.0
 40
1.0
 40
1.0
 10
208.2052573410267
 20
451.4010265603432
 30
0.0
 10
207.2386970151424
 20
451.4019152322078
 30
0.0
 10
204.9959712106594
 20
451.4039772321363
 30
0.0
 10
201.6567847212483
 20
451.2534997904963
 30
0.0
 10
198.4115013515638
 20
450.9771212528567
 30
0.0
 10
195.6729070997072
 20
450.6027891365606
 30
0.0
 10
193.3406198684104
 20
450.1278905886443
 30
0.0
 10
191.277311703342
 20
449.5418910764701
 30
0.0
 10
189.4373048186911
 20
448.8541271258755
 30
0.0
 10
187.7962123453881
 20
448.0582611623361
 30
0.0
 10
186.2741825840143
 20
447.1212949092143
 30
0.0
 10
184.8865307393582
 20
446.034204396945
 30
0.0
 10
183.6316253896245
 20
444.7894777166045
 30
0.0
 10
182.5261130934547
 20
443.4259337746124
 30
0.0
 10
181.533482373982
 20
441.9112365557888
 30
0.0
 10
180.6240462326758
 20
440.2168409272753
 30
0.0
 10
179.798160848895
 20
438.3163302298117
 30
0.0
 10
179.0480576659491
 20
436.1795218483974
 30
0.0
 10
178.3478821084863
 20
433.7562013346463
 30
0.0
 10
177.6958601029477
 20
431.0612849436615
 30
0.0
 10
177.17532536963
 20
428.4826874757002
 30
0.0
 10
176.9109461748766
 20
426.8764856221218
 30
0.0
 10
176.8016670495455
 20
426.2125743267271
 30
0.0
  0
LINE
  5
77
330
1F
100
AcDbEntity
  8
0
  6
Continuous
 62
     7
370
    15
100
AcDbLine
 10
182.8039084073
 20
326.5798101219
 30
0.0
 11
183.2503424548
 21
311.0673232022
 31
0.0
  0
LINE
  5
78
330
1F
100
AcDbEntity
  8
0
  6
Continuous
 62
     7
370
    15
100
AcDbLine
 10
233.1609125683
 20
311.0670438524
 30
0.0
 11
233.6073546552
 21
326.5798101219
 31
0.0
  0
ARC
  5
79
330
1F
100
AcDbEntity
  8
0
  6
Continuous
 62
     7
370
    15
100
AcDbCircle
 10
232.8601570591
 20
311.0763934616
 30
0.0
 40
0.3009000000000208
100
AcDbArc
 50
270.0
 51
358.9345490287
  0
ARC
  5
7A
330
1F
100
AcDbEntity
  8
0
  6
Continuous
 62
     7
370
    15
100
AcDbCircle
 10
183.5511060034
 20
311.0763934616
 30
0.0
 40
0.3008999999999932
100
AcDbArc
 50
182.2998265133
 51
270.0
  0
SPLINE
  5
7B
330
1F
100
AcDbEntity
  8
0
  6
Continuous
 62
     7
370
    15
100
AcDbSpline
210
0.0
220
0.0
230
1.0
 70
     8
 71
     3
 72
    26
 73
    22
 74
     0
 42
0.00000001
 43
0.00000001
 40
0.0
 40
0.0
 40
0.0
 40
0.0
 40
0.1250000000000011
 40
0.1250000000000011
 40
0.1875000000000017
 40
0.1875000000000017
 40
0.2500000000000022
 40
0.2500000000000022
 40
0.3750000000000034
 40
0.3750000000000034
 40
0.4375000000000031
 40
0.4375000000000031
 40
0.5000000000000028
 40
0.5000000000000028
 40
0.6250000000000021
 40
0.6250000000000021
 40
0.7500000000000014
 40
0.7500000000000014
 40
0.8750000000000008
 40
0.8750000000000008
 40
1.0
 40
1.0
 40
1.0
 40
1.0
 10
208.2056315312535
 20
389.0246985779591
 30
0.0
 10
207.6994087398668
 20
389.024244460663
 30
0.0
 10
207.1951160285695
 20
389.0096827615437
 30
0.0
 10
206.4416234541301
 20
388.9667763480762
 30
0.0
 10
206.1898187673046
 20
388.9488375482679
 30
0.0
 10
205.6950120082058
 20
388.9065068737071
 30
0.0
 10
205.4516051358529
 20
388.8821295600571
 30
0.0
 10
204.7330955737586
 20
388.7998595146133
 30
0.0
 10
204.2696256573819
 20
388.7328858314852
 30
0.0
 10
203.5980635284542
 20
388.6152048399788
 30
0.0
 10
203.3771713284956
 20
388.5728759423222
 30
0.0
 10
202.9493292634643
 20
388.4836519426707
 30
0.0
 10
202.7424810795566
 20
388.4368239344114
 30
0.0
 10
202.1426222175763
 20
388.2900854331152
 30
0.0
 10
201.7701605171781
 20
388.1839936820722
 30
0.0
 10
201.0806927940269
 20
387.9556384478192
 30
0.0
 10
200.7635263140593
 20
387.8328641485811
 30
0.0
 10
200.2085808624014
 20
387.5792859777273
 30
0.0
 10
199.9673232040658
 20
387.4474646868479
 30
0.0
 10
199.557693230825
 20
387.1719609941501
 30
0.0
 10
199.3893710759768
 20
387.0277181194328
 30
0.0
 10
199.2631688148229
 20
386.8796916892216
 30
0.0
  0
SPLINE
  5
7C
330
1F
100
AcDbEntity
  8
0
  6
Continuous
 62
     7
370
    15
100
AcDbSpline
210
0.0
220
0.0
230
1.0
 70
     8
 71
     3
 72
    24
 73
    20
 74
     0
 42
0.00000001
 43
0.00000001
 40
0.0
 40
0.0
 40
0.0
 40
0.0
 40
0.1249999999999983
 40
0.1249999999999983
 40
0.1874999999999979
 40
0.1874999999999979
 40
0.2499999999999975
 40
0.2499999999999975
 40
0.3749999999999967
 40
0.3749999999999967
 40
0.4374999999999959
 40
0.4374999999999959
 40
0.4999999999999952
 40
0.4999999999999952
 40
0.6249999999999961
 40
0.6249999999999961
 40
0.7499999999999971
 40
0.7499999999999971
 40
1.0
 40
1.0
 40
1.0
 40
1.0
 10
217.1480942476913
 20
386.8796916892256
 30
0.0
 10
217.0222598653268
 20
387.0272866233324
 30
0.0
 10
216.8571334910934
 20
387.169063542125
 30
0.0
 10
216.5520097607078
 20
387.3750217022102
 30
0.0
 10
216.4406795967492
 20
387.4425460989539
 30
0.0
 10
216.1984261097973
 20
387.5755463463225
 30
0.0
 10
216.0668171620461
 20
387.641321642773
 30
0.0
 10
215.6472874440668
 20
387.8331622685683
 30
0.0
 10
215.3356385519705
 20
387.9537188504273
 30
0.0
 10
214.8215904150834
 20
388.1243319498359
 30
0.0
 10
214.6424382826171
 20
388.1794805852899
 30
0.0
 10
214.2682760894139
 20
388.2862451064632
 30
0.0
 10
214.0724009749138
 20
388.3380678624998
 30
0.0
 10
213.4665882738247
 20
388.4863288298328
 30
0.0
 10
213.0417893514552
 20
388.5749892591414
 30
0.0
 10
212.1517241240838
 20
388.73127437917
 30
0.0
 10
211.684685222758
 20
388.7990931719378
 30
0.0
 10
210.2311636634102
 20
388.9655829119994
 30
0.0
 10
209.2317670479881
 20
389.0237780625374
 30
0.0
 10
208.2056315312643
 20
389.024698577959
 30
0.0
  0
SPLINE
  5
7D
330
1F
100
AcDbEntity
  8
0
  6
Continuous
 62
     7
370
    15
100
AcDbSpline
210
0.0
220
0.0
230
1.0
 70
     8
 71
     3
 72
     8
 73
     4
 74
     0
 42
0.00000001
 43
0.00000001
 40
0.0
 40
0.0
 40
0.0
 40
0.0
 40
0.000552702428714
 40
0.000552702428714
 40
0.000552702428714
 40
0.000552702428714
 10
241.2009417644885
 20
403.7324294744997
 30
0.0
 10
241.1983683821725
 20
403.7131477323728
 30
0.0
 10
241.1958427788972
 20
403.6941761839605
 30
0.0
 10
241.1933744585409
 20
403.6755478723927
 30
0.0
  0
LINE
  5
7E
330
1F
100
AcDbEntity
  8
0
  6
Continuous
 62
     7
370
    15
100
AcDbLine
 10
217.4088922161
 20
386.1864916738
 30
0.0
 11
217.1480942477
 21
386.8796916892
 31
0.0
  0
SPLINE
  5
7F
330
1F
100
AcDbEntity
  8
0
  6
Continuous
 62
     7
370
    15
100
AcDbSpline
210
0.0
220
0.0
230
1.0
 70
     8
 71
     3
 72
     8
 73
     4
 74
     0
 42
0.00000001
 43
0.00000001
 40
0.0
 40
0.0
 40
0.0
 40
0.0
 40
0.000552702428714
 40
0.000552702428714
 40
0.000552702428714
 40
0.000552702428714
 10
175.2103212980292
 20
403.7324294744997
 30
0.0
 10
175.2128946803452
 20
403.7131477323728
 30
0.0
 10
175.2154202836205
 20
403.6941761839605
 30
0.0
 10
175.2178886039768
 20
403.6755478723927
 30
0.0
  0
SPLINE
  5
80
330
1F
100
AcDbEntity
  8
0
  6
Continuous
 62
     7
370
    15
100
AcDbSpline
210
0.0
220
0.0
230
1.0
 70
     8
 71
     3
 72
    10
 73
     6
 74
     0
 42
0.00000001
 43
0.00000001
 40
0.0
 40
0.0
 40
0.0
 40
0.0
 40
0.2484942279259997
 40
0.9161710604932223
 40
1.0
 40
1.0
 40
1.0
 40
1.0
 10
199.2631688148229
 20
386.8796916892217
 30
0.0
 10
199.2208009565216
 20
386.8242228302053
 30
0.0
 10
199.064595293337
 20
386.6197152091893
 30
0.0
 10
198.9456813128645
 20
386.3892837733833
 30
0.0
 10
198.9878188872921
 20
386.2081499490427
 30
0.0
 10
198.9925192479665
 20
386.1879448395578
 30
0.0
  0
LWPOLYLINE
  5
81
330
1F
100
AcDbEntity
  8
0
  6
Continuous
 62
     7
370
    15
100
AcDbPolyline
 90
       40
 70
   128
 43
0.0
 10
217.4332315313
 20
385.840530211
 10
217.3137365348
 20
386.3467922356
 10
216.958346403
 20
386.8399423398
 10
216.3762655536
 20
387.3072081947
 10
215.5825695748
 20
387.7364878603
 10
214.5978147757
 20
388.1166632187
 10
213.4475057882
 20
388.4378879277
 10
212.1614350109
 20
388.6918424363
 10
210.7729110013
 20
388.8719494559
 10
209.317895802
 20
388.9735443094
 10
207.8340735423
 20
388.9939957435
 10
206.3598744394
 20
388.9327740767
 10
204.9334794756
 20
388.791464918
 10
203.5918315313
 20
388.5737281006
 10
202.3696785834
 20
388.2852028934
 10
201.2986737514
 20
387.9333619479
 10
200.4065554979
 20
387.5273177598
 10
199.716429217
 20
387.0775866601
 10
199.2461688168
 20
386.5958164482
 10
199.0079537947
 20
386.0944847195
 10
199.0079537947
 20
385.5865757025
 10
199.2461688168
 20
385.0852439738
 10
199.716429217
 20
384.6034737619
 10
200.4065554979
 20
384.1537426623
 10
201.2986737514
 20
383.7476984741
 10
202.3696785834
 20
383.3958575286
 10
203.5918315313
 20
383.1073323215
 10
204.9334794756
 20
382.889595504
 10
206.3598744394
 20
382.7482863454
 10
207.8340735423
 20
382.6870646786
 10
209.317895802
 20
382.7075161126
 10
210.7729110013
 20
382.8091109661
 10
212.1614350109
 20
382.9892179858
 10
213.4475057882
 20
383.2431724943
 10
214.5978147757
 20
383.5643972034
 10
215.5825695748
 20
383.9445725617
 10
216.3762655536
 20
384.3738522273
 10
216.958346403
 20
384.8411180823
 10
217.3137365348
 20
385.3342681864
 10
217.4332315313
 20
385.840530211
  0
LWPOLYLINE
  5
82
330
1F
100
AcDbEntity
  8
0
  6
Continuous
 62
     7
370
    15
100
AcDbPolyline
 90
       30
 70
   128
 43
0.0
 10
213.6569454548
 20
388.0149068179
 10
214.6420420536
 20
387.6730254213
 10
215.4463821358
 20
387.2796812646
 10
216.0473770691
 20
386.8459208029
 10
216.4281488514
 20
386.3839255198
 10
216.5780041029
 20
385.9066698299
 10
216.4927343736
 20
385.4275567123
 10
216.1747343303
 20
384.9600413091
 10
215.6329345065
 20
384.5172530588
 10
214.8825505024
 20
384.1116269763
 10
213.9446556784
 20
383.7545544355
 10
212.8455893428
 20
383.4560632597
 10
211.6162170536
 20
383.2245361066
 10
210.2910638076
 20
383.0664750539
 10
208.9073444598
 20
382.9863189988
 10
207.5039186027
 20
382.9863189988
 10
206.1201992549
 20
383.0664750539
 10
204.7950460089
 20
383.2245361066
 10
203.5656737197
 20
383.4560632597
 10
202.4666073841
 20
383.7545544355
 10
201.5287125601
 20
384.1116269763
 10
200.778328556
 20
384.5172530588
 10
200.2365287323
 20
384.9600413091
 10
199.9185286889
 20
385.4275567123
 10
199.8332589596
 20
385.9066698299
 10
199.9831142111
 20
386.3839255198
 10
200.3638859934
 20
386.8459208029
 10
200.9648809267
 20
387.2796812646
 10
201.7692210089
 20
387.6730254213
 10
202.7543176077
 20
388.0149068179
  0
SPLINE
  5
83
330
1F
100
AcDbEntity
  8
0
  6
Continuous
 62
     7
370
    15
100
AcDbSpline
210
0.0
220
0.0
230
1.0
 70
     8
 71
     3
 72
    20
 73
    16
 74
     0
 42
0.00000001
 43
0.00000001
 40
0.0
 40
0.0
 40
0.0
 40
0.0
 40
0.1249999999999994
 40
0.1249999999999994
 40
0.2499999999999987
 40
0.2499999999999987
 40
0.4999999999999974
 40
0.4999999999999974
 40
0.6249999999999979
 40
0.6249999999999979
 40
0.7499999999999986
 40
0.7499999999999986
 40
0.8749999999999993
 40
0.8749999999999993
 40
1.0
 40
1.0
 40
1.0
 40
1.0
 10
208.2056246589291
 20
388.8785679944465
 30
0.0
 10
208.4657722149968
 20
388.8795653275629
 30
0.0
 10
208.72606574578
 20
388.8764603319243
 30
0.0
 10
209.2469586402265
 20
388.8616555164521
 30
0.0
 10
209.5085037119884
 20
388.8498631738513
 30
0.0
 10
210.2785399928682
 20
388.801406792605
 30
0.0
 10
210.7768485849235
 20
388.7519620668185
 30
0.0
 10
211.4969871397433
 20
388.6466730309568
 30
0.0
 10
211.7337453978253
 20
388.6059819958396
 30
0.0
 10
212.1836547006652
 20
388.5149749704943
 30
0.0
 10
212.3981054592863
 20
388.4645398453231
 30
0.0
 10
212.8044112897337
 20
388.353060845106
 30
0.0
 10
212.9975600205671
 20
388.2915192929937
 30
0.0
 10
213.3526605929278
 20
388.1590629405285
 30
0.0
 10
213.5130611043731
 20
388.0888862133137
 30
0.0
 10
213.6569454548217
 20
388.0149068178578
 30
0.0
  0
SPLINE
  5
84
330
1F
100
AcDbEntity
  8
0
  6
Continuous
 62
     7
370
    15
100
AcDbSpline
210
0.0
220
0.0
230
1.0
 70
     8
 71
     3
 72
    18
 73
    14
 74
     0
 42
0.00000001
 43
0.00000001
 40
0.0
 40
0.0
 40
0.0
 40
0.0
 40
0.25
 40
0.25
 40
0.5
 40
0.5
 40
0.625
 40
0.625
 40
0.75
 40
0.75
 40
0.875
 40
0.875
 40
1.0
 40
1.0
 40
1.0
 40
1.0
 10
202.7543176077029
 20
388.0149068178616
 30
0.0
 10
203.0429237094486
 20
388.1632961657324
 30
0.0
 10
203.393177720232
 20
388.2941097451691
 30
0.0
 10
204.2153257210271
 20
388.5203295250328
 30
0.0
 10
204.6659036641558
 20
388.6101752728811
 30
0.0
 10
205.3903043425739
 20
388.7163620292219
 30
0.0
 10
205.6381268435294
 20
388.7466098835942
 30
0.0
 10
206.1373887796571
 20
388.7971365332652
 30
0.0
 10
206.3900431436846
 20
388.8175917262533
 30
0.0
 10
206.9008547413484
 20
388.8497508527398
 30
0.0
 10
207.1590147870852
 20
388.8614503141313
 30
0.0
 10
207.6806571849635
 20
388.8763851285956
 30
0.0
 10
207.9439890520287
 20
388.8795709389711
 30
0.0
 10
208.205624655463
 20
388.8785680471491
 30
0.0
  0
SPLINE
  5
85
330
1F
100
AcDbEntity
  8
0
  6
Continuous
 62
     7
370
    15
100
AcDbSpline
210
0.0
220
0.0
230
1.0
 70
     8
 71
     3
 72
    25
 73
    21
 74
     0
 42
0.00000001
 43
0.00000001
 40
0.0
 40
0.0
 40
0.0
 40
0.0
 40
0.0367737838252661
 40
0.0921846070468469
 40
0.1479851362061122
 40
0.2050145099604714
 40
0.2624677884810827
 40
0.3175787015858397
 40
0.3730676247787703
 40
0.4297399108287928
 40
0.4868173060057029
 40
0.5425058659924208
 40
0.5985727229182957
 40
0.6558243204497527
 40
0.7134820926049441
 40
0.7699788211138183
 40
0.8268625053098007
 40
0.8849635784578612
 40
0.9434843456376789
 40
1.0
 40
1.0
 40
1.0
 40
1.0
 10
199.7956719371653
 20
385.8185162703425
 30
0.0
 10
199.8095948886505
 20
385.7704731172582
 30
0.0
 10
199.8444969759011
 20
385.6500384290734
 30
0.0
 10
199.9676485383008
 20
385.4549136867646
 30
0.0
 10
200.1550036687192
 20
385.2335514386242
 30
0.0
 10
200.403870722421
 20
385.011220799115
 30
0.0
 10
200.7064837746038
 20
384.7935100842086
 30
0.0
 10
201.0582246492437
 20
384.5833455373173
 30
0.0
 10
201.4563422269843
 20
384.3815086313186
 30
0.0
 10
201.9055367895442
 20
384.1868331924073
 30
0.0
 10
202.399008064401
 20
384.0036481027068
 30
0.0
 10
202.9303132713357
 20
383.8346459549374
 30
0.0
 10
203.4977536103485
 20
383.6806436317094
 30
0.0
 10
204.1042846065816
 20
383.5420708623172
 30
0.0
 10
204.7409918802699
 20
383.4221648563943
 30
0.0
 10
205.4002034244984
 20
383.3226849931312
 30
0.0
 10
206.0803858284286
 20
383.243881906452
 30
0.0
 10
206.783585980535
 20
383.186960319016
 30
0.0
 10
207.4954340736506
 20
383.1516567499395
 30
0.0
 10
207.9716659914279
 20
383.1475390265046
 30
0.0
 10
208.205631531216
 20
383.1455160512478
 30
0.0
  0
SPLINE
  5
86
330
1F
100
AcDbEntity
  8
0
  6
Continuous
 62
     7
370
    15
100
AcDbSpline
210
0.0
220
0.0
230
1.0
 70
     8
 71
     3
 72
    24
 73
    20
 74
     0
 42
0.00000001
 43
0.00000001
 40
0.0
 40
0.0
 40
0.0
 40
0.0
 40
0.0143540573416049
 40
0.075472835494449
 40
0.1370129990907182
 40
0.1998818862972922
 40
0.263210107313778
 40
0.3245246467938316
 40
0.386267482067029
 40
0.4493675496870412
 40
0.5129397710456443
 40
0.5738855392904847
 40
0.6352626469617335
 40
0.6980112127776178
 40
0.7612386005295226
 40
0.8213345321192692
 40
0.8818564860804174
 40
0.9437282632664714
 40
1.0
 40
1.0
 40
1.0
 40
1.0
 10
208.2056315313017
 20
383.1455160512478
 30
0.0
 10
208.2608159393582
 20
383.1456193772499
 30
0.0
 10
208.5509724889657
 20
383.1461626596247
 30
0.0
 10
209.077432810689
 20
383.158555709653
 30
0.0
 10
209.7841419631453
 20
383.1973923888305
 30
0.0
 10
210.4881402918305
 20
383.2598908797262
 30
0.0
 10
211.1748709049654
 20
383.345017246278
 30
0.0
 10
211.8363933652069
 20
383.4511091069498
 30
0.0
 10
212.471734217141
 20
383.5771433272642
 30
0.0
 10
213.0841019160988
 20
383.7239374342177
 30
0.0
 10
213.6582760593254
 20
383.887866316978
 30
0.0
 10
214.1881585930513
 20
384.0657154560998
 30
0.0
 10
214.6737328228047
 20
384.2559713211192
 30
0.0
 10
215.1185249604252
 20
384.4600436603115
 30
0.0
 10
215.5095013309959
 20
384.6720660037614
 30
0.0
 10
215.844102741258
 20
384.8884053938504
 30
0.0
 10
216.1218304081438
 20
385.1078497691495
 30
0.0
 10
216.3443064912087
 20
385.3255324398523
 30
0.0
 10
216.4430215263966
 20
385.4700744195279
 30
0.0
 10
216.490039481826
 20
385.5389197412676
 30
0.0
  0
LWPOLYLINE
  5
87
330
1F
100
AcDbEntity
  8
0
  6
Continuous
 62
     7
370
    15
100
AcDbPolyline
 90
        8
 70
   128
 43
0.0
 10
241.2955146813
 20
408.1490402392
 10
241.3215104179
 20
407.3144873671
 10
241.3337677634
 20
406.0762994719
 10
241.3168264628
 20
405.1056367175
 10
241.2707174023
 20
404.3070647332
 10
241.2011836053
 20
403.7309618405
 10
241.2011826113
 20
403.7309558437
 10
241.2011826113
 20
403.7309558437
  0
ARC
  5
88
330
1F
100
AcDbEntity
  8
0
  6
Continuous
 62
     7
370
    15
100
AcDbCircle
 10
194.3470687625
 20
406.119135069
 30
0.0
 40
19.2854277016481
100
AcDbArc
 50
177.0959198741
 51
187.1133885341
  0
LINE
  5
89
330
1F
100
AcDbEntity
  8
0
  6
Continuous
 62
     7
370
    15
100
AcDbLine
 10
231.6696811433
 20
310.7754934616
 30
0.0
 11
184.7415819192
 21
310.7754934616
 31
0.0
  0
LINE
  5
8A
330
1F
100
AcDbEntity
  8
0
  6
Continuous
 62
     7
370
    15
100
AcDbLine
 10
232.8601570558
 20
310.7754934616
 30
0.0
 11
231.6696811433
 21
310.7754934616
 31
0.0
  0
LINE
  5
8B
330
1F
100
AcDbEntity
  8
0
  6
Continuous
 62
     7
370
    15
100
AcDbLine
 10
184.7415819192
 20
310.7754934616
 30
0.0
 11
183.5511060085
 21
310.7754934616
 31
0.0
  0
SPLINE
  5
8C
330
1F
100
AcDbEntity
  8
0
  6
Continuous
 62
     8
370
    15
100
AcDbSpline
210
0.0
220
0.0
230
1.0
 70
     8
 71
     3
 72
    38
 73
    34
 74
     0
 42
0.00000001
 43
0.00000001
 40
0.0
 40
0.0
 40
0.0
 40
0.0
 40
0.0624999999999999
 40
0.0624999999999999
 40
0.1249999999999999
 40
0.1249999999999999
 40
0.1874999999999998
 40
0.1874999999999998
 40
0.2499999999999997
 40
0.2499999999999997
 40
0.3124999999999997
 40
0.3124999999999997
 40
0.3749999999999996
 40
0.3749999999999996
 40
0.4062499999999996
 40
0.4062499999999996
 40
0.4374999999999996
 40
0.4374999999999996
 40
0.4999999999999997
 40
0.4999999999999997
 40
0.5312499999999997
 40
0.5312499999999997
 40
0.5624999999999996
 40
0.5624999999999996
 40
0.6249999999999997
 40
0.6249999999999997
 40
0.6874999999999997
 40
0.6874999999999997
 40
0.7499999999999997
 40
0.7499999999999997
 40
0.8749999999999998
 40
0.8749999999999998
 40
1.0
 40
1.0
 40
1.0
 40
1.0
 10
179.5648079791
 20
402.7842364768707
 30
0.0
 10
179.7205138378816
 20
402.7819431360467
 30
0.0
 10
179.8855399362014
 20
402.7695018057021
 30
0.0
 10
180.2344666912855
 20
402.7394897617978
 30
0.0
 10
180.4180467523873
 20
402.7224213994572
 30
0.0
 10
180.8078117192309
 20
402.6845904850555
 30
0.0
 10
181.0133976799287
 20
402.6623078601642
 30
0.0
 10
181.4643069393373
 20
402.6154003138286
 30
0.0
 10
181.7111729390919
 20
402.5910079716712
 30
0.0
 10
182.2830881461703
 20
402.5363632750407
 30
0.0
 10
182.6067066173171
 20
402.5061429535829
 30
0.0
 10
183.3535855945588
 20
402.4436560262232
 30
0.0
 10
183.7779541341902
 20
402.4110197105913
 30
0.0
 10
184.5199387708345
 20
402.3657092347299
 30
0.0
 10
184.7866171671139
 20
402.3511946658006
 30
0.0
 10
185.3503632117676
 20
402.3259188417177
 30
0.0
 10
185.6468484968935
 20
402.3154256800095
 30
0.0
 10
186.5805147594083
 20
402.2913989977395
 30
0.0
 10
187.2629057835721
 20
402.2848496573183
 30
0.0
 10
188.3628766599113
 20
402.2825881099675
 30
0.0
 10
188.7407191468808
 20
402.2830075764599
 30
0.0
 10
189.5055610517637
 20
402.2851641099738
 30
0.0
 10
189.8940677805221
 20
402.2869127117827
 30
0.0
 10
191.0750666700556
 20
402.2936996113053
 30
0.0
 10
191.8828413395784
 20
402.3005586124316
 30
0.0
 10
193.5320492266018
 20
402.3148159853104
 30
0.0
 10
194.3758729500901
 20
402.3215758053569
 30
0.0
 10
196.0739264397029
 20
402.3324607068138
 30
0.0
 10
196.9297278070917
 20
402.3361540549348
 30
0.0
 10
199.5127371484936
 20
402.3443860751439
 30
0.0
 10
201.24431905182
 20
402.3485120937218
 30
0.0
 10
204.7183957855086
 20
402.3539275803092
 30
0.0
 10
206.4622700655943
 20
402.3518901895657
 30
0.0
 10
208.2053649619293
 20
402.3516570293966
 30
0.0
  0
SPLINE
  5
8D
330
1F
100
AcDbEntity
  8
0
  6
Continuous
 62
     8
370
     0
100
AcDbSpline
210
0.0
220
0.0
230
1.0
 70
     8
 71
     3
 72
    38
 73
    34
 74
     0
 42
0.00000001
 43
0.00000001
 40
0.0
 40
0.0
 40
0.0
 40
0.0
 40
0.1249999999999996
 40
0.1249999999999996
 40
0.2499999999999992
 40
0.2499999999999992
 40
0.3124999999999988
 40
0.3124999999999988
 40
0.3749999999999986
 40
0.3749999999999986
 40
0.4374999999999985
 40
0.4374999999999985
 40
0.4999999999999984
 40
0.4999999999999984
 40
0.5624999999999983
 40
0.5624999999999983
 40
0.5937499999999983
 40
0.5937499999999983
 40
0.6249999999999983
 40
0.6249999999999983
 40
0.6874999999999984
 40
0.6874999999999984
 40
0.7499999999999986
 40
0.7499999999999986
 40
0.8124999999999988
 40
0.8124999999999988
 40
0.8749999999999989
 40
0.8749999999999989
 40
0.937499999999999
 40
0.937499999999999
 40
0.9687499999999996
 40
0.9687499999999996
 40
1.0
 40
1.0
 40
1.0
 40
1.0
 10
208.2043492767982
 20
404.7139241259218
 30
0.0
 10
206.5168227282219
 20
404.7135664975995
 30
0.0
 10
204.8284463119304
 20
404.7165014093214
 30
0.0
 10
201.4651293621195
 20
404.7120381714504
 30
0.0
 10
199.7893508350354
 20
404.707478724828
 30
0.0
 10
197.2886060862803
 20
404.6986230566304
 30
0.0
 10
196.4597076174857
 20
404.6951669223947
 30
0.0
 10
194.8157026489971
 20
404.6860849500639
 30
0.0
 10
193.9981055279118
 20
404.6805662224093
 30
0.0
 10
192.3997620344664
 20
404.6673084307346
 30
0.0
 10
191.6177253579581
 20
404.6592943746938
 30
0.0
 10
190.0954629618243
 20
404.6391384418093
 30
0.0
 10
189.3536136230304
 20
404.626815304515
 30
0.0
 10
187.9333503482499
 20
404.601764432736
 30
0.0
 10
187.2746091106998
 20
404.590155480789
 30
0.0
 10
186.37962403473
 20
404.5737797721511
 30
0.0
 10
186.0964774688938
 20
404.5684701387815
 30
0.0
 10
185.5597299955355
 20
404.5590783827181
 30
0.0
 10
185.3067108142286
 20
404.5549879827241
 30
0.0
 10
184.602862716891
 20
404.5449086554739
 30
0.0
 10
184.2005259860537
 20
404.5409540663315
 30
0.0
 10
183.4882800285993
 20
404.5381795662977
 30
0.0
 10
183.177304115889
 20
404.5391954683852
 30
0.0
 10
182.622352330998
 20
404.5433266069651
 30
0.0
 10
182.3790468222952
 20
404.5465967901256
 30
0.0
 10
181.9295230379782
 20
404.5541469038732
 30
0.0
 10
181.7217528073448
 20
404.5579477880691
 30
0.0
 10
181.3263473103946
 20
404.5661890467341
 30
0.0
 10
181.139061193633
 20
404.5709936961291
 30
0.0
 10
180.8761308550446
 20
404.5791593594883
 30
0.0
 10
180.7920161413547
 20
404.5823484018333
 30
0.0
 10
180.6333216013714
 20
404.5883585062487
 30
0.0
 10
180.5578769172568
 20
404.590057668243
 30
0.0
 10
180.4823157488255
 20
404.5892584005749
 30
0.0
  0
SPLINE
  5
8E
330
1F
100
AcDbEntity
  8
0
  6
Continuous
 62
     8
370
     0
100
AcDbSpline
210
0.0
220
0.0
230
1.0
 70
     8
 71
     3
 72
    38
 73
    34
 74
     0
 42
0.00000001
 43
0.00000001
 40
0.0
 40
0.0
 40
0.0
 40
0.0
 40
0.1250000000000001
 40
0.1250000000000001
 40
0.2500000000000002
 40
0.2500000000000002
 40
0.3125000000000002
 40
0.3125000000000002
 40
0.3750000000000002
 40
0.3750000000000002
 40
0.4375000000000003
 40
0.4375000000000003
 40
0.5000000000000003
 40
0.5000000000000003
 40
0.5625000000000003
 40
0.5625000000000003
 40
0.5937500000000004
 40
0.5937500000000004
 40
0.6250000000000004
 40
0.6250000000000004
 40
0.6875000000000003
 40
0.6875000000000003
 40
0.7500000000000002
 40
0.7500000000000002
 40
0.8125000000000002
 40
0.8125000000000002
 40
0.8750000000000001
 40
0.8750000000000001
 40
0.9375000000000001
 40
0.9375000000000001
 40
0.9687500000000001
 40
0.9687500000000001
 40
1.0
 40
1.0
 40
1.0
 40
1.0
 10
208.2069137857195
 20
404.7139241259218
 30
0.0
 10
209.8944403342958
 20
404.7135664975996
 30
0.0
 10
211.5828167505873
 20
404.7165014093215
 30
0.0
 10
214.9461337003982
 20
404.7120381714503
 30
0.0
 10
216.6219122274823
 20
404.707478724828
 30
0.0
 10
219.1226569762374
 20
404.6986230566303
 30
0.0
 10
219.951555445032
 20
404.6951669223947
 30
0.0
 10
221.5955604135206
 20
404.686084950064
 30
0.0
 10
222.4131575346059
 20
404.6805662224093
 30
0.0
 10
224.0115010280513
 20
404.6673084307345
 30
0.0
 10
224.7935377045595
 20
404.6592943746938
 30
0.0
 10
226.3158001006933
 20
404.6391384418092
 30
0.0
 10
227.0576494394872
 20
404.6268153045151
 30
0.0
 10
228.4779127142677
 20
404.601764432736
 30
0.0
 10
229.1366539518178
 20
404.590155480789
 30
0.0
 10
230.0316390277876
 20
404.5737797721509
 30
0.0
 10
230.3147855936238
 20
404.5684701387814
 30
0.0
 10
230.8515330669821
 20
404.5590783827182
 30
0.0
 10
231.1045522482889
 20
404.5549879827241
 30
0.0
 10
231.8084003456266
 20
404.5449086554739
 30
0.0
 10
232.2107370764639
 20
404.5409540663315
 30
0.0
 10
232.9229830339183
 20
404.5381795662977
 30
0.0
 10
233.2339589466286
 20
404.5391954683852
 30
0.0
 10
233.7889107315196
 20
404.5433266069651
 30
0.0
 10
234.0322162402225
 20
404.5465967901256
 30
0.0
 10
234.4817400245394
 20
404.5541469038731
 30
0.0
 10
234.6895102551728
 20
404.5579477880691
 30
0.0
 10
235.0849157521231
 20
404.566189046734
 30
0.0
 10
235.2722018688847
 20
404.5709936961291
 30
0.0
 10
235.535132207473
 20
404.5791593594883
 30
0.0
 10
235.6192469211629
 20
404.5823484018333
 30
0.0
 10
235.7779414611461
 20
404.5883585062487
 30
0.0
 10
235.8533861487036
 20
404.5900575818172
 30
0.0
 10
235.9289473136922
 20
404.5892584005749
 30
0.0
  0
SPLINE
  5
8F
330
1F
100
AcDbEntity
  8
0
  6
Continuous
 62
     8
370
    15
100
AcDbSpline
210
0.0
220
0.0
230
1.0
 70
     8
 71
     3
 72
    38
 73
    34
 74
     0
 42
0.00000001
 43
0.00000001
 40
0.0
 40
0.0
 40
0.0
 40
0.0
 40
0.0625000000000005
 40
0.0625000000000005
 40
0.1250000000000011
 40
0.1250000000000011
 40
0.1875000000000016
 40
0.1875000000000016
 40
0.2500000000000021
 40
0.2500000000000021
 40
0.3125000000000027
 40
0.3125000000000027
 40
0.3750000000000032
 40
0.3750000000000032
 40
0.4062500000000029
 40
0.4062500000000029
 40
0.4375000000000027
 40
0.4375000000000027
 40
0.5000000000000021
 40
0.5000000000000021
 40
0.5312500000000019
 40
0.5312500000000019
 40
0.5625000000000018
 40
0.5625000000000018
 40
0.6250000000000016
 40
0.6250000000000016
 40
0.6875000000000014
 40
0.6875000000000014
 40
0.7500000000000013
 40
0.7500000000000013
 40
0.8750000000000007
 40
0.8750000000000007
 40
1.0
 40
1.0
 40
1.0
 40
1.0
 10
236.8464550834177
 20
402.7842364768707
 30
0.0
 10
236.6907492246361
 20
402.7819431360467
 30
0.0
 10
236.5257231263163
 20
402.7695018057022
 30
0.0
 10
236.1767963712323
 20
402.7394897617979
 30
0.0
 10
235.9932163101305
 20
402.7224213994573
 30
0.0
 10
235.6034513432868
 20
402.6845904850555
 30
0.0
 10
235.3978653825891
 20
402.6623078601643
 30
0.0
 10
234.9469561231804
 20
402.6154003138287
 30
0.0
 10
234.7000901234258
 20
402.5910079716712
 30
0.0
 10
234.1281749163474
 20
402.5363632750406
 30
0.0
 10
233.8045564452006
 20
402.5061429535829
 30
0.0
 10
233.057677467959
 20
402.4436560262233
 30
0.0
 10
232.6333089283275
 20
402.4110197105915
 30
0.0
 10
231.8913242916833
 20
402.3657092347301
 30
0.0
 10
231.6246458954038
 20
402.3511946658006
 30
0.0
 10
231.0608998507502
 20
402.3259188417177
 30
0.0
 10
230.7644145656243
 20
402.3154256800096
 30
0.0
 10
229.8307483031096
 20
402.2913989977396
 30
0.0
 10
229.1483572789457
 20
402.2848496573185
 30
0.0
 10
228.0483864026065
 20
402.2825881099677
 30
0.0
 10
227.670543915637
 20
402.2830075764599
 30
0.0
 10
226.9057020107541
 20
402.2851641099737
 30
0.0
 10
226.5171952819956
 20
402.2869127117828
 30
0.0
 10
225.3361963924622
 20
402.2936996113053
 30
0.0
 10
224.5284217229394
 20
402.3005586124319
 30
0.0
 10
222.879213835916
 20
402.3148159853105
 30
0.0
 10
222.0353901124278
 20
402.3215758053569
 30
0.0
 10
220.337336622815
 20
402.3324607068139
 30
0.0
 10
219.4815352554262
 20
402.3361540549345
 30
0.0
 10
216.8985259140244
 20
402.3443860751438
 30
0.0
 10
215.166944010698
 20
402.3485120937215
 30
0.0
 10
211.6928672770094
 20
402.3539275803093
 30
0.0
 10
209.9489929969234
 20
402.3518901895656
 30
0.0
 10
208.2058981005885
 20
402.3516570293966
 30
0.0
  0
LINE
  5
90
330
1F
100
AcDbEntity
  8
0
  6
Continuous
 62
     8
370
     0
100
AcDbLine
 10
208.2056315313
 20
404.7139244255
 30
0.0
 11
208.2069137844
 21
404.7139247588
 31
0.0
  0
LINE
  5
91
330
1F
100
AcDbEntity
  8
0
  6
Continuous
 62
     8
370
     0
100
AcDbLine
 10
208.2056315313
 20
404.7139244255
 30
0.0
 11
208.2043492781
 21
404.7139247588
 31
0.0
  0
SPLINE
  5
92
330
1F
100
AcDbEntity
  8
0
  6
Continuous
 62
     8
370
     0
100
AcDbSpline
210
0.0
220
0.0
230
1.0
 70
     8
 71
     3
 72
     8
 73
     4
 74
     0
 42
0.00000001
 43
0.00000001
 40
0.0
 40
0.0
 40
0.0
 40
0.0
 40
0.0002359670260062
 40
0.0002359670260062
 40
0.0002359670260062
 40
0.0002359670260062
 10
179.5228464567959
 20
402.7846062827286
 30
0.0
 10
179.5367989495832
 20
402.7843715354163
 30
0.0
 10
179.5508063822209
 20
402.7841488301782
 30
0.0
 10
179.5648695032069
 20
402.7839402315948
 30
0.0
  0
SPLINE
  5
93
330
1F
100
AcDbEntity
  8
0
  6
Continuous
 62
     8
370
     0
100
AcDbSpline
210
0.0
220
0.0
230
1.0
 70
     8
 71
     3
 72
     8
 73
     4
 74
     0
 42
0.00000001
 43
0.00000001
 40
0.0
 40
0.0
 40
0.0
 40
0.0
 40
0.0002359670260062
 40
0.0002359670260062
 40
0.0002359670260062
 40
0.0002359670260062
 10
236.8884166057218
 20
402.7846062827286
 30
0.0
 10
236.8744641129345
 20
402.7843715354163
 30
0.0
 10
236.8604566802969
 20
402.7841488301782
 30
0.0
 10
236.8463935593109
 20
402.7839402315948
 30
0.0
  0
SPLINE
  5
94
330
1F
100
AcDbEntity
  8
0
  6
Continuous
 62
     8
370
    15
100
AcDbSpline
210
0.0
220
0.0
230
1.0
 70
     8
 71
     3
 72
    24
 73
    20
 74
     0
 42
0.00000001
 43
0.00000001
 40
0.0
 40
0.0
 40
0.0
 40
0.0
 40
0.0625000000000002
 40
0.0625000000000002
 40
0.1250000000000004
 40
0.1250000000000004
 40
0.2500000000000005
 40
0.2500000000000005
 40
0.3750000000000005
 40
0.3750000000000005
 40
0.5000000000000004
 40
0.5000000000000004
 40
0.7500000000000008
 40
0.7500000000000008
 40
0.8750000000000008
 40
0.8750000000000008
 40
0.9375000000000003
 40
0.9375000000000003
 40
1.0
 40
1.0
 40
1.0
 40
1.0
 10
241.1932894472696
 20
403.6749026573342
 30
0.0
 10
241.1782322655466
 20
403.5612843734714
 30
0.0
 10
241.1637585436287
 20
403.4519440213927
 30
0.0
 10
241.1265267678803
 20
403.2649960527001
 30
0.0
 10
241.1042676283214
 20
403.1868349031561
 30
0.0
 10
241.0248744010335
 20
402.9927830897509
 30
0.0
 10
240.9558502192891
 20
402.9146920075297
 30
0.0
 10
240.7786480126132
 20
402.8081556006035
 30
0.0
 10
240.6704448598494
 20
402.7835303337492
 30
0.0
 10
240.4174387450253
 20
402.7608930170299
 30
0.0
 10
240.2725724581149
 20
402.7610065431913
 30
0.0
 10
239.7755649289162
 20
402.765102414797
 30
0.0
 10
239.3629156420964
 20
402.7802175000265
 30
0.0
 10
238.5755616969311
 20
402.795461455947
 30
0.0
 10
238.2851153834571
 20
402.7989890206721
 30
0.0
 10
237.8018456893406
 20
402.7989621789674
 30
0.0
 10
237.6329818017986
 20
402.7982742332437
 30
0.0
 10
237.2759755830575
 20
402.7934457329414
 30
0.0
 10
237.087747909852
 20
402.7879599836508
 30
0.0
 10
236.8884166057218
 20
402.7846062827288
 30
0.0
  0
SPLINE
  5
95
330
1F
100
AcDbEntity
  8
0
  6
Continuous
 62
     8
370
    15
100
AcDbSpline
210
0.0
220
0.0
230
1.0
 70
     8
 71
     3
 72
    24
 73
    20
 74
     0
 42
0.00000001
 43
0.00000001
 40
0.0
 40
0.0
 40
0.0
 40
0.0
 40
0.0624999999999999
 40
0.0624999999999999
 40
0.1249999999999998
 40
0.1249999999999998
 40
0.2499999999999998
 40
0.2499999999999998
 40
0.3750000000000001
 40
0.3750000000000001
 40
0.5000000000000003
 40
0.5000000000000003
 40
0.7500000000000008
 40
0.7500000000000008
 40
0.8750000000000009
 40
0.8750000000000009
 40
0.9375000000000004
 40
0.9375000000000004
 40
1.0
 40
1.0
 40
1.0
 40
1.0
 10
175.2179736152481
 20
403.6749026573342
 30
0.0
 10
175.2330307969712
 20
403.5612843734714
 30
0.0
 10
175.2475045188891
 20
403.4519440213928
 30
0.0
 10
175.2847362946374
 20
403.2649960527001
 30
0.0
 10
175.3069954341963
 20
403.1868349031561
 30
0.0
 10
175.3863886614842
 20
402.9927830897509
 30
0.0
 10
175.4554128432286
 20
402.9146920075296
 30
0.0
 10
175.6326150499045
 20
402.8081556006035
 30
0.0
 10
175.7408182026683
 20
402.7835303337494
 30
0.0
 10
175.9938243174924
 20
402.76089301703
 30
0.0
 10
176.1386906044028
 20
402.7610065431913
 30
0.0
 10
176.6356981336016
 20
402.765102414797
 30
0.0
 10
177.0483474204213
 20
402.7802175000266
 30
0.0
 10
177.8357013655866
 20
402.7954614559471
 30
0.0
 10
178.1261476790606
 20
402.7989890206721
 30
0.0
 10
178.6094173731772
 20
402.7989621789674
 30
0.0
 10
178.7782812607191
 20
402.7982742332438
 30
0.0
 10
179.1352874794602
 20
402.7934457329415
 30
0.0
 10
179.3235151526657
 20
402.7879599836508
 30
0.0
 10
179.5228464567959
 20
402.7846062827288
 30
0.0
  0
SPLINE
  5
96
330
1F
100
AcDbEntity
  8
0
  6
Continuous
 62
     8
370
     0
100
AcDbSpline
210
0.0
220
0.0
230
1.0
 70
     8
 71
     3
 72
    11
 73
     7
 74
     0
 42
0.00000001
 43
0.00000001
 40
-0.00000006018
 40
-0.00000006018
 40
-0.00000006018
 40
-0.00000006018
 40
0.0
 40
0.0
 40
0.0
 40
0.0002337405267701
 40
0.0002337405267701
 40
0.0002337405267701
 40
0.0002337405267701
 10
180.4821773473664
 20
404.588902216018
 30
0.0
 10
180.4821737181543
 20
404.5889021623959
 30
0.0
 10
180.4821700889464
 20
404.5889021087741
 30
0.0
 10
180.4821664597426
 20
404.5889020551542
 30
0.0
 10
180.4680705471988
 20
404.5886937940297
 30
0.0
 10
180.4540370161722
 20
404.588505576027
 30
0.0
 10
180.4400646707207
 20
404.5883349827973
 30
0.0
  0
SPLINE
  5
97
330
1F
100
AcDbEntity
  8
0
  6
Continuous
 62
     8
370
     0
100
AcDbSpline
210
0.0
220
0.0
230
1.0
 70
     8
 71
     3
 72
    11
 73
     7
 74
     0
 42
0.00000001
 43
0.00000001
 40
-0.00000006018
 40
-0.00000006018
 40
-0.00000006018
 40
-0.00000006018
 40
0.0
 40
0.0
 40
0.0
 40
0.0002337405267701
 40
0.0002337405267701
 40
0.0002337405267701
 40
0.0002337405267701
 10
235.9290857151513
 20
404.588902216018
 30
0.0
 10
235.9290893443594
 20
404.5889021623972
 30
0.0
 10
235.9290929735713
 20
404.5889021087741
 30
0.0
 10
235.9290966027752
 20
404.5889020551542
 30
0.0
 10
235.9431925153189
 20
404.5886937940298
 30
0.0
 10
235.9572260463455
 20
404.588505576027
 30
0.0
 10
235.971198391797
 20
404.5883349827973
 30
0.0
  0
SPLINE
  5
98
330
1F
100
AcDbEntity
  8
0
  6
Continuous
 62
     8
370
     0
100
AcDbSpline
210
0.0
220
0.0
230
1.0
 70
     8
 71
     3
 72
    24
 73
    20
 74
     0
 42
0.00000001
 43
0.00000001
 40
0.0
 40
0.0
 40
0.0
 40
0.0
 40
0.0625000000000001
 40
0.0625000000000001
 40
0.1250000000000002
 40
0.1250000000000002
 40
0.2500000000000003
 40
0.2500000000000003
 40
0.5000000000000002
 40
0.5000000000000002
 40
0.6250000000000002
 40
0.6250000000000002
 40
0.7500000000000002
 40
0.7500000000000002
 40
0.8750000000000001
 40
0.8750000000000001
 40
0.9375000000000001
 40
0.9375000000000001
 40
1.0
 40
1.0
 40
1.0
 40
1.0
 10
235.9711983917971
 20
404.5883349827973
 30
0.0
 10
236.171537995952
 20
404.5858889668274
 30
0.0
 10
236.3592800809581
 20
404.5867381976582
 30
0.0
 10
236.7159821350979
 20
404.5828941590403
 30
0.0
 10
236.88493775756
 20
404.5795164033442
 30
0.0
 10
237.3681807531833
 20
404.5687332622488
 30
0.0
 10
237.6584444150074
 20
404.5595161257558
 30
0.0
 10
238.4458529077196
 20
404.5288203591722
 30
0.0
 10
238.859134095429
 20
404.5051478392614
 30
0.0
 10
239.3588807756248
 20
404.4845781631291
 30
0.0
 10
239.505118681682
 20
404.4784949770371
 30
0.0
 10
239.7607767427506
 20
404.4884425124092
 30
0.0
 10
239.8701336466611
 20
404.5060948294851
 30
0.0
 10
240.049129525536
 20
404.6004176705587
 30
0.0
 10
240.1189672293724
 20
404.6738117842226
 30
0.0
 10
240.1993484680625
 20
404.8602199683775
 30
0.0
 10
240.2218540134663
 20
404.9356829459793
 30
0.0
 10
240.2601083194579
 20
405.1152292840366
 30
0.0
 10
240.2752583442558
 20
405.2197773594805
 30
0.0
 10
240.2911472601966
 20
405.3263757858895
 30
0.0
  0
SPLINE
  5
99
330
1F
100
AcDbEntity
  8
0
  6
Continuous
 62
     8
370
     0
100
AcDbSpline
210
0.0
220
0.0
230
1.0
 70
     8
 71
     3
 72
    24
 73
    20
 74
     0
 42
0.00000001
 43
0.00000001
 40
0.0
 40
0.0
 40
0.0
 40
0.0
 40
0.0625
 40
0.0625
 40
0.1250000000000001
 40
0.1250000000000001
 40
0.2500000000000002
 40
0.2500000000000002
 40
0.5000000000000003
 40
0.5000000000000003
 40
0.6250000000000002
 40
0.6250000000000002
 40
0.75
 40
0.75
 40
0.8749999999999999
 40
0.8749999999999999
 40
0.9375
 40
0.9375
 40
1.0
 40
1.0
 40
1.0
 40
1.0
 10
180.4400646707207
 20
404.5883349827973
 30
0.0
 10
180.2397250665657
 20
404.5858889668274
 30
0.0
 10
180.0519829815598
 20
404.5867381976582
 30
0.0
 10
179.6952809274196
 20
404.5828941590402
 30
0.0
 10
179.5263253049578
 20
404.5795164033442
 30
0.0
 10
179.0430823093344
 20
404.5687332622488
 30
0.0
 10
178.7528186475104
 20
404.5595161257558
 30
0.0
 10
177.9654101547982
 20
404.5288203591722
 30
0.0
 10
177.5521289670888
 20
404.5051478392615
 30
0.0
 10
177.052382286893
 20
404.4845781631292
 30
0.0
 10
176.9061443808357
 20
404.4784949770371
 30
0.0
 10
176.6504863197671
 20
404.4884425124092
 30
0.0
 10
176.5411294158563
 20
404.5060948294849
 30
0.0
 10
176.3621335369818
 20
404.600417670559
 30
0.0
 10
176.2922958331453
 20
404.6738117842226
 30
0.0
 10
176.2119145944553
 20
404.8602199683775
 30
0.0
 10
176.1894090490514
 20
404.9356829459792
 30
0.0
 10
176.1511547430599
 20
405.1152292840367
 30
0.0
 10
176.1360047163404
 20
405.2197773697503
 30
0.0
 10
176.1201158023211
 20
405.3263757858899
 30
0.0
  0
SPLINE
  5
9A
330
1F
100
AcDbEntity
  8
0
  6
Continuous
 62
     8
370
     0
100
AcDbSpline
210
0.0
220
0.0
230
1.0
 70
     8
 71
     3
 72
     8
 73
     4
 74
     0
 42
0.00000001
 43
0.00000001
 40
0.0000000203463906
 40
0.0000000203463906
 40
0.0000000203463906
 40
0.0000000203463906
 40
0.0005524032332722
 40
0.0005524032332722
 40
0.0005524032332722
 40
0.0005524032332722
 10
176.118087445159
 20
405.3260884019639
 30
0.0
 10
176.1153392647442
 20
405.3435980397142
 30
0.0
 10
176.112516170565
 20
405.3614441681923
 30
0.0
 10
176.1096217562915
 20
405.3796374580363
 30
0.0
  0
SPLINE
  5
9B
330
1F
100
AcDbEntity
  8
0
  6
Continuous
 62
     8
370
     0
100
AcDbSpline
210
0.0
220
0.0
230
1.0
 70
     8
 71
     3
 72
    16
 73
    12
 74
     0
 42
0.00000001
 43
0.00000001
 40
0.0
 40
0.0
 40
0.0
 40
0.0
 40
0.2500000000000001
 40
0.2500000000000001
 40
0.5000000000000002
 40
0.5000000000000002
 40
0.625
 40
0.625
 40
0.7499999999999999
 40
0.7499999999999999
 40
1.0
 40
1.0
 40
1.0
 40
1.0
 10
176.1091924876646
 20
405.3794325697098
 30
0.0
 10
176.0675393136658
 20
405.594236167725
 30
0.0
 10
176.0297715882805
 20
405.8645901108582
 30
0.0
 10
175.9662378083582
 20
406.5619350157572
 30
0.0
 10
175.9404494786397
 20
406.9902410941584
 30
0.0
 10
175.9151871574722
 20
407.7897580480553
 30
0.0
 10
175.9090221844356
 20
408.0825620503687
 30
0.0
 10
175.9022302614713
 20
408.7275217601318
 30
0.0
 10
175.9016248984734
 20
409.0801070572213
 30
0.0
 10
175.9124797969941
 20
410.2300558909645
 30
0.0
 10
175.9362876303066
 20
411.1200732515551
 30
0.0
 10
175.9845588019297
 20
412.1701801768548
 30
0.0
  0
SPLINE
  5
9C
330
1F
100
AcDbEntity
  8
0
  6
Continuous
 62
     8
370
     0
100
AcDbSpline
210
0.0
220
0.0
230
1.0
 70
     8
 71
     3
 72
     8
 73
     4
 74
     0
 42
0.00000001
 43
0.00000001
 40
0.0
 40
0.0
 40
0.0
 40
0.0
 40
0.0000596972843948
 40
0.0000596972843948
 40
0.0000596972843948
 40
0.0000596972843948
 10
175.9843329479274
 20
412.1700610637093
 30
0.0
 10
175.9847659715036
 20
412.1795114182003
 30
0.0
 10
175.9852016034954
 20
412.1889745129591
 30
0.0
 10
175.9856398386485
 20
412.1984503502141
 30
0.0
  0
SPLINE
  5
9D
330
1F
100
AcDbEntity
  8
0
  6
Continuous
 62
     8
370
     0
100
AcDbSpline
210
0.0
220
0.0
230
1.0
 70
     8
 71
     3
 72
    16
 73
    12
 74
     0
 42
0.00000001
 43
0.00000001
 40
0.0
 40
0.0
 40
0.0
 40
0.0
 40
0.2499999999999999
 40
0.2499999999999999
 40
0.4999999999999999
 40
0.4999999999999999
 40
0.6249999999999999
 40
0.6249999999999999
 40
0.7499999999999999
 40
0.7499999999999999
 40
1.0
 40
1.0
 40
1.0
 40
1.0
 10
240.3020705748532
 20
405.3794325697098
 30
0.0
 10
240.3437237488519
 20
405.594236167725
 30
0.0
 10
240.3814914742373
 20
405.8645901108582
 30
0.0
 10
240.4450252541595
 20
406.5619350157572
 30
0.0
 10
240.4708135838781
 20
406.9902410941584
 30
0.0
 10
240.4960759050455
 20
407.7897580480554
 30
0.0
 10
240.5022408780821
 20
408.0825620503688
 30
0.0
 10
240.5090328010464
 20
408.7275217601318
 30
0.0
 10
240.5096381640443
 20
409.0801070572211
 30
0.0
 10
240.4987832655237
 20
410.2300558909645
 30
0.0
 10
240.4749754322111
 20
411.1200732515551
 30
0.0
 10
240.426704260588
 20
412.1701801768548
 30
0.0
  0
SPLINE
  5
9E
330
1F
100
AcDbEntity
  8
0
  6
Continuous
 62
     8
370
     0
100
AcDbSpline
210
0.0
220
0.0
230
1.0
 70
     8
 71
     3
 72
     8
 73
     4
 74
     0
 42
0.00000001
 43
0.00000001
 40
0.0000000203463906
 40
0.0000000203463906
 40
0.0000000203463906
 40
0.0000000203463906
 40
0.0005524032332722
 40
0.0005524032332722
 40
0.0005524032332722
 40
0.0005524032332722
 10
240.2931756173586
 20
405.3260884019639
 30
0.0
 10
240.2959237977734
 20
405.3435980397142
 30
0.0
 10
240.2987468919527
 20
405.3614441681923
 30
0.0
 10
240.3016413062262
 20
405.3796374580363
 30
0.0
  0
SPLINE
  5
9F
330
1F
100
AcDbEntity
  8
0
  6
Continuous
 62
     8
370
     0
100
AcDbSpline
210
0.0
220
0.0
230
1.0
 70
     8
 71
     3
 72
     8
 73
     4
 74
     0
 42
0.00000001
 43
0.00000001
 40
0.0
 40
0.0
 40
0.0
 40
0.0
 40
0.0000596972843923
 40
0.0000596972843923
 40
0.0000596972843923
 40
0.0000596972843923
 10
240.4269301145903
 20
412.1700610637093
 30
0.0
 10
240.4264970910141
 20
412.1795114181999
 30
0.0
 10
240.4260614590224
 20
412.1889745129583
 30
0.0
 10
240.4256232238693
 20
412.1984503502129
 30
0.0
  0
ARC
  5
A0
330
1F
100
AcDbEntity
  8
0
  6
Continuous
 62
     8
370
     0
100
AcDbCircle
 10
239.6744840169
 20
413.9516438266
 30
0.0
 40
0.7629795046850426
100
AcDbArc
 50
298.175980994
 51
26.9519951168
  0
SPLINE
  5
A1
330
1F
100
AcDbEntity
  8
0
  6
Continuous
 62
     8
370
     0
100
AcDbSpline
210
0.0
220
0.0
230
1.0
 70
     8
 71
     3
 72
    18
 73
    14
 74
     0
 42
0.00000001
 43
0.00000001
 40
0.0
 40
0.0
 40
0.0
 40
0.0
 40
0.2499999999999994
 40
0.2499999999999994
 40
0.3749999999999991
 40
0.3749999999999991
 40
0.437499999999999
 40
0.437499999999999
 40
0.499999999999999
 40
0.499999999999999
 40
0.7499999999999994
 40
0.7499999999999994
 40
1.0
 40
1.0
 40
1.0
 40
1.0
 10
240.0347486495137
 20
413.2790762694064
 30
0.0
 10
237.8540007414487
 20
413.7716248610711
 30
0.0
 10
235.5251597045982
 20
414.1995337262832
 30
0.0
 10
231.789415648457
 20
414.7355582005582
 30
0.0
 10
230.504119716793
 20
414.8967529021039
 30
0.0
 10
228.5167628662866
 20
415.1126123736079
 30
0.0
 10
227.8433709605177
 20
415.1803487764552
 30
0.0
 10
226.4816609363364
 20
415.3068999023005
 30
0.0
 10
225.7978695291379
 20
415.3653149335798
 30
0.0
 10
222.3653214889734
 20
415.6348932857601
 30
0.0
 10
219.5760951511327
 20
415.7790682505582
 30
0.0
 10
213.9343382191294
 20
415.9626324378709
 30
0.0
 10
211.0821007169274
 20
416.0025068072053
 30
0.0
 10
208.2049106903887
 20
416.0010779698301
 30
0.0
  0
SPLINE
  5
A2
330
1F
100
AcDbEntity
  8
0
  6
Continuous
 62
     8
370
     0
100
AcDbSpline
210
0.0
220
0.0
230
1.0
 70
     8
 71
     3
 72
     8
 73
     4
 74
     0
 42
0.00000001
 43
0.00000001
 40
0.0
 40
0.0
 40
0.0
 40
0.0
 40
0.0002926519410579
 40
0.0002926519410579
 40
0.0002926519410579
 40
0.0002926519410579
 10
175.954772960592
 20
412.9289576594404
 30
0.0
 10
175.9688035595934
 20
412.9039722079469
 30
0.0
 10
175.983009390329
 20
412.8789933044674
 30
0.0
 10
175.9973936592576
 20
412.8540213282033
 30
0.0
  0
SPLINE
  5
A3
330
1F
100
AcDbEntity
  8
0
  6
Continuous
 62
     8
370
     0
100
AcDbSpline
210
0.0
220
0.0
230
1.0
 70
     8
 71
     3
 72
    20
 73
    16
 74
     0
 42
0.00000001
 43
0.00000001
 40
0.0
 40
0.0
 40
0.0
 40
0.0
 40
0.125
 40
0.125
 40
0.25
 40
0.25
 40
0.5000000000000001
 40
0.5000000000000001
 40
0.5625000000000001
 40
0.5625000000000001
 40
0.6250000000000001
 40
0.6250000000000001
 40
0.7500000000000001
 40
0.7500000000000001
 40
1.0
 40
1.0
 40
1.0
 40
1.0
 10
208.2049106851073
 20
416.0010786822337
 30
0.0
 10
206.7679736975956
 20
416.0017851995873
 30
0.0
 10
205.3327982359241
 20
415.9919754323707
 30
0.0
 10
202.4663421622406
 20
415.9491037000769
 30
0.0
 10
201.0326329638482
 20
415.9159161688884
 30
0.0
 10
196.7719410341895
 20
415.7764456657758
 30
0.0
 10
193.977469256497
 20
415.6305321960662
 30
0.0
 10
190.5602018610877
 20
415.3608701637927
 30
0.0
 10
189.880557574872
 20
415.3025534418049
 30
0.0
 10
188.5294124887645
 20
415.1765469850048
 30
0.0
 10
187.8565466451641
 20
415.1086835923159
 30
0.0
 10
185.8727294833542
 20
414.8926111974466
 30
0.0
 10
184.5905279165342
 20
414.7314026328777
 30
0.0
 10
180.8658057352392
 20
414.1959332491657
 30
0.0
 10
178.5466043440707
 20
413.7692176265892
 30
0.0
 10
176.3765144130039
 20
413.2790762694064
 30
0.0
  0
SPLINE
  5
A4
330
1F
100
AcDbEntity
  8
0
  6
Continuous
 62
     8
370
     0
100
AcDbSpline
210
0.0
220
0.0
230
1.0
 70
     8
 71
     3
 72
    12
 73
     8
 74
     0
 42
0.00000001
 43
0.00000001
 40
0.0
 40
0.0
 40
0.0
 40
0.0
 40
0.2499999999999974
 40
0.2499999999999974
 40
0.4999999999999949
 40
0.4999999999999949
 40
1.0
 40
1.0
 40
1.0
 40
1.0
 10
240.4564901019271
 20
412.9289576594431
 30
0.0
 10
240.4742887926807
 20
412.9606532644864
 30
0.0
 10
240.4791319947318
 20
412.9923040945139
 30
0.0
 10
240.4639247805504
 20
413.0555197205971
 30
0.0
 10
240.4433843577184
 20
413.087386707166
 30
0.0
 10
240.3423705482004
 20
413.1787577358295
 30
0.0
 10
240.222295834599
 20
413.2367164434297
 30
0.0
 10
240.0347486495135
 20
413.2790762694064
 30
0.0
  0
SPLINE
  5
A5
330
1F
100
AcDbEntity
  8
0
  6
Continuous
 62
     8
370
     0
100
AcDbSpline
210
0.0
220
0.0
230
1.0
 70
     8
 71
     3
 72
     8
 73
     4
 74
     0
 42
0.00000001
 43
0.00000001
 40
0.0
 40
0.0
 40
0.0
 40
0.0
 40
0.0002926519410686
 40
0.0002926519410686
 40
0.0002926519410686
 40
0.0002926519410686
 10
240.4138694032599
 20
412.8540213282033
 30
0.0
 10
240.4282536721891
 20
412.8789933044683
 30
0.0
 10
240.4424595029251
 20
412.9039722079487
 30
0.0
 10
240.4564901019271
 20
412.9289576594431
 30
0.0
  0
SPLINE
  5
A6
330
1F
100
AcDbEntity
  8
0
  6
Continuous
 62
     8
370
     0
100
AcDbSpline
210
0.0
220
0.0
230
1.0
 70
     8
 71
     3
 72
     9
 73
     5
 74
     0
 42
0.00000001
 43
0.00000001
 40
0.0
 40
0.0
 40
0.0
 40
0.0
 40
0.9074079360896923
 40
1.0
 40
1.0
 40
1.0
 40
1.0
 10
208.2055869103743
 20
415.1776017684161
 30
0.0
 10
208.2054320396165
 20
415.2183849423848
 30
0.0
 10
208.2052613658196
 20
415.2633296385315
 30
0.0
 10
208.2050585728882
 20
415.2497566921557
 30
0.0
 10
208.2050397958722
 20
415.2484999450374
 30
0.0
  0
SPLINE
  5
A7
330
1F
100
AcDbEntity
  8
0
  6
Continuous
 62
     8
370
     0
100
AcDbSpline
210
0.0
220
0.0
230
1.0
 70
     8
 71
     3
 72
    10
 73
     6
 74
     0
 42
0.00000001
 43
0.00000001
 40
0.0
 40
0.0
 40
0.0
 40
0.0
 40
0.1050803457596699
 40
0.558157812555977
 40
1.0
 40
1.0
 40
1.0
 40
1.0
 10
240.1593050222448
 20
412.4047117392821
 30
0.0
 10
240.1704460347369
 20
412.4026656432886
 30
0.0
 10
240.2296240200899
 20
412.3917973457421
 30
0.0
 10
240.3240443670326
 20
412.3262048898844
 30
0.0
 10
240.3920481898556
 20
412.2406772776312
 30
0.0
 10
240.4256232238693
 20
412.1984503502129
 30
0.0
  0
SPLINE
  5
A8
330
1F
100
AcDbEntity
  8
0
  6
Continuous
 62
     8
370
     0
100
AcDbSpline
210
0.0
220
0.0
230
1.0
 70
     8
 71
     3
 72
    10
 73
     6
 74
     0
 42
0.00000001
 43
0.00000001
 40
0.0
 40
0.0
 40
0.0
 40
0.0
 40
0.441841291682976
 40
0.8949178399404999
 40
1.0
 40
1.0
 40
1.0
 40
1.0
 10
175.9856398386484
 20
412.1984503502141
 30
0.0
 10
176.0192148712756
 20
412.2406772831422
 30
0.0
 10
176.0872186912904
 20
412.3262049065552
 30
0.0
 10
176.181639245581
 20
412.3917974320851
 30
0.0
 10
176.2408174520754
 20
412.4026657444793
 30
0.0
 10
176.2519586806797
 20
412.404711875312
 30
0.0
  0
ARC
  5
A9
330
1F
100
AcDbEntity
  8
0
  6
Continuous
 62
     8
370
     0
100
AcDbCircle
 10
176.7367790456
 20
413.9516438266
 30
0.0
 40
0.7629795046849351
100
AcDbArc
 50
153.0480048832
 51
241.824019006
  0
SPLINE
  5
AA
330
1F
100
AcDbEntity
  8
0
  6
Continuous
 62
     8
370
     0
100
AcDbSpline
210
0.0
220
0.0
230
1.0
 70
     8
 71
     3
 72
    36
 73
    32
 74
     0
 42
0.00000001
 43
0.00000001
 40
0.0
 40
0.0
 40
0.0
 40
0.0
 40
0.0625
 40
0.0625
 40
0.125
 40
0.125
 40
0.2499999999999999
 40
0.2499999999999999
 40
0.3124999999999998
 40
0.3124999999999998
 40
0.3749999999999998
 40
0.3749999999999998
 40
0.4374999999999997
 40
0.4374999999999997
 40
0.4687500000000001
 40
0.4687500000000001
 40
0.5000000000000004
 40
0.5000000000000004
 40
0.5625000000000002
 40
0.5625000000000002
 40
0.625
 40
0.625
 40
0.6874999999999998
 40
0.6874999999999998
 40
0.7499999999999996
 40
0.7499999999999996
 40
0.8124999999999992
 40
0.8124999999999992
 40
0.874999999999999
 40
0.874999999999999
 40
1.0
 40
1.0
 40
1.0
 40
1.0
 10
208.2055635241291
 20
450.9821760885197
 30
0.0
 10
207.2307430321587
 20
450.9835234478085
 30
0.0
 10
206.255877665264
 20
450.9714918734134
 30
0.0
 10
204.3090440860051
 20
450.9208054693523
 30
0.0
 10
203.3367085274354
 20
450.8824257059987
 30
0.0
 10
200.4238137638704
 20
450.7173411261119
 30
0.0
 10
198.4873420336519
 20
450.5411910137075
 30
0.0
 10
195.5986697231582
 20
450.0835637365334
 30
0.0
 10
194.6439395303441
 20
449.8990661535141
 30
0.0
 10
192.7638529162189
 20
449.4439481863829
 30
0.0
 10
191.8375348081142
 20
449.1732647040746
 30
0.0
 10
190.0230592414471
 20
448.5122845689027
 30
0.0
 10
189.1310589200615
 20
448.1184962652954
 30
0.0
 10
187.871386615614
 20
447.4285244219244
 30
0.0
 10
187.4631311939968
 20
447.1816536348606
 30
0.0
 10
186.6715074435577
 20
446.6518461645401
 30
0.0
 10
186.286975973172
 20
446.3679446677308
 30
0.0
 10
185.180329235191
 20
445.4659696480664
 30
0.0
 10
184.5177439035103
 20
444.8083011623569
 30
0.0
 10
183.3225425233111
 20
443.3958478974654
 30
0.0
 10
182.788465924619
 20
442.6394783296007
 30
0.0
 10
181.8275189963565
 20
441.0575497134762
 30
0.0
 10
181.4076875664528
 20
440.2456151738771
 30
0.0
 10
180.6542414332924
 20
438.5938491408816
 30
0.0
 10
180.3211968128687
 20
437.7538576631156
 30
0.0
 10
179.7185245938456
 20
436.0582341113861
 30
0.0
 10
179.4488390250505
 20
435.2027536220909
 30
0.0
 10
178.9538208039977
 20
433.4872569174588
 30
0.0
 10
178.7292986598772
 20
432.6284888998761
 30
0.0
 10
178.1135169286256
 20
430.0735177519482
 30
0.0
 10
177.7774483197445
 20
428.393459751812
 30
0.0
 10
177.4941625626243
 20
426.7583959194805
 30
0.0
  0
SPLINE
  5
AB
330
1F
100
AcDbEntity
  8
0
  6
Continuous
 62
     8
370
     0
100
AcDbSpline
210
0.0
220
0.0
230
1.0
 70
     8
 71
     3
 72
    14
 73
    10
 74
     0
 42
0.00000001
 43
0.00000001
 40
0.0
 40
0.0
 40
0.0
 40
0.0
 40
0.2500000000000006
 40
0.2500000000000006
 40
0.3749999999999988
 40
0.3749999999999988
 40
0.4999999999999971
 40
0.4999999999999971
 40
1.0
 40
1.0
 40
1.0
 40
1.0
 10
177.4941625626242
 20
426.7583959194805
 30
0.0
 10
177.278018903881
 20
425.5108616890574
 30
0.0
 10
177.0950842353295
 20
424.2999049154397
 30
0.0
 10
176.8568959586035
 20
422.5536868606754
 30
0.0
 10
176.7835072161997
 20
421.9833051397951
 30
0.0
 10
176.647506228872
 20
420.8675718748682
 30
0.0
 10
176.5850142812075
 20
420.322603713158
 30
0.0
 10
176.2996420673289
 20
417.6910548073701
 30
0.0
 10
176.153691725519
 20
415.8627415070527
 30
0.0
 10
176.0566693510776
 20
414.2974595693742
 30
0.0
  0
SPLINE
  5
AC
330
1F
100
AcDbEntity
  8
0
  6
Continuous
 62
     8
370
     0
100
AcDbSpline
210
0.0
220
0.0
230
1.0
 70
     8
 71
     3
 72
    44
 73
    40
 74
     0
 42
0.00000001
 43
0.00000001
 40
0.0
 40
0.0
 40
0.0
 40
0.0
 40
0.1249999999999993
 40
0.1249999999999993
 40
0.1874999999999999
 40
0.1874999999999999
 40
0.2500000000000004
 40
0.2500000000000004
 40
0.3125000000000009
 40
0.3125000000000009
 40
0.3437500000000019
 40
0.3437500000000019
 40
0.375000000000003
 40
0.375000000000003
 40
0.4375000000000037
 40
0.4375000000000037
 40
0.4687500000000034
 40
0.4687500000000034
 40
0.5000000000000031
 40
0.5000000000000031
 40
0.5312500000000028
 40
0.5312500000000028
 40
0.5625000000000026
 40
0.5625000000000026
 40
0.6250000000000021
 40
0.6250000000000021
 40
0.6562500000000019
 40
0.6562500000000019
 40
0.6875000000000017
 40
0.6875000000000017
 40
0.7500000000000013
 40
0.7500000000000013
 40
0.812500000000001
 40
0.812500000000001
 40
0.8750000000000007
 40
0.8750000000000007
 40
0.9375000000000003
 40
0.9375000000000003
 40
1.0
 40
1.0
 40
1.0
 40
1.0
 10
238.9171010383003
 20
426.7583928119122
 30
0.0
 10
238.6337367894322
 20
428.3939100190167
 30
0.0
 10
238.2985899624686
 20
430.0678994266779
 30
0.0
 10
237.6882211300659
 20
432.6035700982165
 30
0.0
 10
237.4665899861202
 20
433.452850319632
 30
0.0
 10
236.9776194822475
 20
435.1526671050093
 30
0.0
 10
236.7107060703122
 20
436.0032545862321
 30
0.0
 10
236.1119045332009
 20
437.6965583988294
 30
0.0
 10
235.7799809291337
 20
438.5391318476248
 30
0.0
 10
235.2130030780301
 20
439.7884997183843
 30
0.0
 10
235.0121308421911
 20
440.2030262886674
 30
0.0
 10
234.5881912370043
 20
441.0162390853252
 30
0.0
 10
234.364665230608
 20
441.4160279351827
 30
0.0
 10
233.6542991163097
 20
442.591644312174
 30
0.0
 10
233.1278387203977
 20
443.3438058055914
 30
0.0
 10
232.2332710339941
 20
444.4094144430805
 30
0.0
 10
231.9175434473983
 20
444.754150851816
 30
0.0
 10
231.2467069360317
 20
445.4201032744418
 30
0.0
 10
230.8929853307258
 20
445.7396845053906
 30
0.0
 10
230.1559674742068
 20
446.3437134569947
 30
0.0
 10
229.7699981644772
 20
446.6302644379639
 30
0.0
 10
228.9759039971773
 20
447.1643136132876
 30
0.0
 10
228.5677198818051
 20
447.4121543372419
 30
0.0
 10
227.3125592606168
 20
448.1028987319746
 30
0.0
 10
226.4349636682155
 20
448.4930129233729
 30
0.0
 10
225.0697403594643
 20
448.9936166822978
 30
0.0
 10
224.6061180712691
 20
449.1464448312578
 30
0.0
 10
223.6752538561194
 20
449.4244457536656
 30
0.0
 10
223.2066384266305
 20
449.5501650927981
 30
0.0
 10
221.7927551033876
 20
449.8938321478877
 30
0.0
 10
220.8395216565156
 20
450.078615072374
 30
0.0
 10
218.917761681742
 20
450.3844078688584
 30
0.0
 10
217.9477069679132
 20
450.5053694742961
 30
0.0
 10
216.0048599755283
 20
450.6988495244847
 30
0.0
 10
215.0320642026873
 20
450.7713342985955
 30
0.0
 10
213.0845317903996
 20
450.8820103301942
 30
0.0
 10
212.1098200137586
 20
450.9205560602283
 30
0.0
 10
210.1589103845404
 20
450.9714513201687
 30
0.0
 10
209.1826927846859
 20
450.9835264509059
 30
0.0
 10
208.2056995383884
 20
450.9821760885197
 30
0.0
  0
SPLINE
  5
AD
330
1F
100
AcDbEntity
  8
0
  6
Continuous
 62
     8
370
     0
100
AcDbSpline
210
0.0
220
0.0
230
1.0
 70
     8
 71
     3
 72
    14
 73
    10
 74
     0
 42
0.00000001
 43
0.00000001
 40
0.0
 40
0.0
 40
0.0
 40
0.0
 40
0.2499999999999983
 40
0.2499999999999983
 40
0.4999999999999967
 40
0.4999999999999967
 40
0.7499999999999983
 40
0.7499999999999983
 40
1.0
 40
1.0
 40
1.0
 40
1.0
 10
240.3545937114399
 20
414.2974595693741
 30
0.0
 10
240.305768687785
 20
415.0851637260059
 30
0.0
 10
240.2438327410593
 20
415.9430092224225
 30
0.0
 10
240.0865310939729
 20
417.8061668324239
 30
0.0
 10
239.991791848573
 20
418.8000125507363
 30
0.0
 10
239.7636864819552
 20
420.895362649554
 30
0.0
 10
239.6302868505529
 20
421.9983422523321
 30
0.0
 10
239.3150722083992
 20
424.3067575033848
 30
0.0
 10
239.1330537219675
 20
425.5119605909492
 30
0.0
 10
238.9171010383002
 20
426.7583928119122
 30
0.0
  0
SPLINE
  5
AE
330
1F
100
AcDbEntity
  8
0
  6
Continuous
 62
     8
370
     0
100
AcDbSpline
210
0.0
220
0.0
230
1.0
 70
     8
 71
     3
 72
     9
 73
     5
 74
     0
 42
0.00000001
 43
0.00000001
 40
0.0
 40
0.0
 40
0.0
 40
0.0
 40
0.3163148737162325
 40
1.0
 40
1.0
 40
1.0
 40
1.0
 10
240.1117475231975
 20
412.423547378435
 30
0.0
 10
240.1460953949248
 20
412.4617773772839
 30
0.0
 10
240.2546829909609
 20
412.5826379564897
 30
0.0
 10
240.3492294176139
 20
412.7438221158536
 30
0.0
 10
240.4138694032599
 20
412.8540213282033
 30
0.0
  0
SPLINE
  5
AF
330
1F
100
AcDbEntity
  8
0
  6
Continuous
 62
     7
370
    15
100
AcDbSpline
210
0.0
220
0.0
230
1.0
 70
     8
 71
     3
 72
    24
 73
    20
 74
     0
 42
0.00000001
 43
0.00000001
 40
0.0
 40
0.0
 40
0.0
 40
0.0
 40
0.0504701205825148
 40
0.1119718519266441
 40
0.1673021063143697
 40
0.2390843740924343
 40
0.2974160266220309
 40
0.3287240006571005
 40
0.3539808754202458
 40
0.3750451643150419
 40
0.4075021797275005
 40
0.4441123381165829
 40
0.4926108096069674
 40
0.5506586222640173
 40
0.6177213136753411
 40
0.6948780044115757
 40
0.7876194757510179
 40
0.8922357605407005
 40
1.0
 40
1.0
 40
1.0
 40
1.0
 10
374.8391420507546
 20
417.0783243037429
 30
0.0
 10
374.1170755128575
 20
417.4452206189031
 30
0.0
 10
372.5151152534119
 20
418.2592083684743
 30
0.0
 10
370.2281708685903
 20
419.703595289993
 30
0.0
 10
367.7499352357572
 20
421.4762271255303
 30
0.0
 10
365.448853241536
 20
423.387048041032
 30
0.0
 10
363.5786752201387
 20
425.1477918464515
 30
0.0
 10
362.3214870587936
 20
426.4117262901209
 30
0.0
 10
361.5194526184674
 20
427.2370684514442
 30
0.0
 10
360.7564451397296
 20
428.0201391463123
 30
0.0
 10
359.7898109918954
 20
429.1145845741363
 30
0.0
 10
358.5975998669195
 20
430.5995420553259
 30
0.0
 10
357.2554823292151
 20
432.4138915258994
 30
0.0
 10
355.8257431611375
 20
434.47865960031
 30
0.0
 10
354.0313666263802
 20
437.0048114917225
 30
0.0
 10
351.7714666663438
 20
440.0713268420061
 30
0.0
 10
349.0300251375935
 20
443.55702001932
 30
0.0
 10
345.775056793909
 20
447.2593690138917
 30
0.0
 10
343.3173346533604
 20
449.6234593099088
 30
0.0
 10
342.0702591118763
 20
450.8230250123867
 30
0.0
  0
SPLINE
  5
B0
330
1F
100
AcDbEntity
  8
0
  6
Continuous
 62
     7
370
    15
100
AcDbSpline
210
0.0
220
0.0
230
1.0
 70
     8
 71
     3
 72
    11
 73
     7
 74
     0
 42
0.00000001
 43
0.00000001
 40
0.0
 40
0.0
 40
0.0
 40
0.0
 40
0.041267171794272
 40
0.3704977266587219
 40
0.7208709345265841
 40
1.0
 40
1.0
 40
1.0
 40
1.0
 10
420.2297805052291
 20
378.430986713275
 30
0.0
 10
420.4533349992378
 20
378.5049093444277
 30
0.0
 10
422.4604129794659
 20
379.1685886226506
 30
0.0
 10
426.3987475350359
 20
380.2918365156887
 30
0.0
 10
431.6378151334893
 20
381.7831685479927
 30
0.0
 10
435.0810810915123
 20
382.7851262873015
 30
0.0
 10
436.6078676493082
 20
383.2294066962231
 30
0.0
  0
SPLINE
  5
B1
330
1F
100
AcDbEntity
  8
0
  6
Continuous
 62
     7
370
    15
100
AcDbSpline
210
0.0
220
0.0
230
1.0
 70
     8
 71
     3
 72
    14
 73
    10
 74
     0
 42
0.00000001
 43
0.00000001
 40
0.0
 40
0.0
 40
0.0
 40
0.0
 40
0.1577368174058826
 40
0.3645873367363101
 40
0.5504864141247852
 40
0.716164539446995
 40
0.8620724106631396
 40
0.9849653140808357
 40
1.0
 40
1.0
 40
1.0
 40
1.0
 10
366.3303850387923
 20
316.192540256625
 30
0.0
 10
366.8984602020749
 20
317.3616624623021
 30
0.0
 10
368.211489171807
 20
320.0639304444834
 30
0.0
 10
370.230563335676
 20
324.1582819013349
 30
0.0
 10
372.32450233971
 20
328.2983169073511
 30
0.0
 10
374.2364988700206
 20
331.9657031351825
 30
0.0
 10
375.933574453886
 20
335.1138032368513
 30
0.0
 10
377.0568517404897
 20
337.1665969458538
 30
0.0
 10
377.6173488393879
 20
338.1590611547123
 30
0.0
 10
377.6784453747588
 20
338.2672439174064
 30
0.0
  0
SPLINE
  5
B2
330
1F
100
AcDbEntity
  8
0
  6
Continuous
 62
     7
370
    15
100
AcDbSpline
210
0.0
220
0.0
230
1.0
 70
     8
 71
     3
 72
    15
 73
    11
 74
     0
 42
0.00000001
 43
0.00000001
 40
0.0
 40
0.0
 40
0.0
 40
0.0
 40
0.0772501651718654
 40
0.1617940287867227
 40
0.2451102343239694
 40
0.369859698674108
 40
0.4955115851009566
 40
0.6648561843133747
 40
0.8360004588589236
 40
1.0
 40
1.0
 40
1.0
 40
1.0
 10
339.6133103452794
 20
450.3937418046
 30
0.0
 10
339.2002055714236
 20
449.5981870961768
 30
0.0
 10
338.3349920728575
 20
447.9319641035182
 30
0.0
 10
337.4084240430504
 20
445.1692580530531
 30
0.0
 10
336.5594861956428
 20
441.7945807263808
 30
0.0
 10
335.9255054870436
 20
437.8648252746717
 30
0.0
 10
335.4639923604678
 20
432.9022659465572
 30
0.0
 10
335.2443361563485
 20
427.3938677031449
 30
0.0
 10
335.2208136502622
 20
421.4531538996621
 30
0.0
 10
335.2939138452104
 20
417.5186338703684
 30
0.0
 10
335.3296847527065
 20
415.5933127120693
 30
0.0
  0
SPLINE
  5
B3
330
1F
100
AcDbEntity
  8
0
  6
Continuous
 62
     7
370
    15
100
AcDbSpline
210
0.0
220
0.0
230
1.0
 70
     8
 71
     3
 72
    18
 73
    14
 74
     0
 42
0.00000001
 43
0.00000001
 40
0.0
 40
0.0
 40
0.0
 40
0.0
 40
0.0161906192174113
 40
0.0636777647693639
 40
0.1242704145015452
 40
0.1982247574289553
 40
0.2854886349975152
 40
0.3859229373047153
 40
0.4937933165587268
 40
0.6138180916944798
 40
0.7465436881243243
 40
0.8926126100979802
 40
1.0
 40
1.0
 40
1.0
 40
1.0
 10
335.566849233215
 20
403.6389225878499
 30
0.0
 10
335.5743234415696
 20
403.3837183327039
 30
0.0
 10
335.6037195304436
 20
402.379999061124
 30
0.0
 10
335.6504555468061
 20
400.2696597874678
 30
0.0
 10
335.6788674795021
 20
397.2005045283108
 30
0.0
 10
335.6288953475754
 20
393.4349873823606
 30
0.0
 10
335.431322125479
 20
389.0034548804841
 30
0.0
 10
335.0014318948348
 20
384.0081360201239
 30
0.0
 10
334.2434098546626
 20
378.490261616727
 30
0.0
 10
333.068471773472
 20
372.4877376606397
 30
0.0
 10
331.3580322113923
 20
365.9548842820398
 30
0.0
 10
329.3740115516848
 20
359.7406985180887
 30
0.0
 10
327.8919384314524
 20
355.7371771458503
 30
0.0
 10
327.2639960344062
 20
354.0409175127799
 30
0.0
  0
SPLINE
  5
B4
330
1F
100
AcDbEntity
  8
0
  6
Continuous
 62
     7
370
    15
100
AcDbSpline
210
0.0
220
0.0
230
1.0
 70
     8
 71
     3
 72
     9
 73
     5
 74
     0
 42
0.00000001
 43
0.00000001
 40
0.0
 40
0.0
 40
0.0
 40
0.0
 40
0.1720390506488691
 40
1.0
 40
1.0
 40
1.0
 40
1.0
 10
323.7081457738735
 20
344.6089108775276
 30
0.0
 10
323.5554210368742
 20
344.2085387198904
 30
0.0
 10
322.6676880691367
 20
341.8813219855091
 30
0.0
 10
321.7586897299
 20
339.5603583237311
 30
0.0
 10
321.0060746019869
 20
337.6386910469158
 30
0.0
  0
SPLINE
  5
B5
330
1F
100
AcDbEntity
  8
0
  6
Continuous
 62
     7
370
    15
100
AcDbSpline
210
0.0
220
0.0
230
1.0
 70
     8
 71
     3
 72
    14
 73
    10
 74
     0
 42
0.00000001
 43
0.00000001
 40
0.0
 40
0.0
 40
0.0
 40
0.0
 40
0.1096988917998421
 40
0.2566513993879682
 40
0.4277161623343217
 40
0.6114609755789637
 40
0.7972501012884755
 40
0.9470697867274454
 40
1.0
 40
1.0
 40
1.0
 40
1.0
 10
342.0060253095697
 20
450.9742301412116
 30
0.0
 10
341.9282806613127
 20
451.0441319315792
 30
0.0
 10
341.7463893728711
 20
451.2076740788444
 30
0.0
 10
341.3448546521871
 20
451.3786552276358
 30
0.0
 10
340.8425511990489
 20
451.4429361836077
 30
0.0
 10
340.3005723672015
 20
451.328424775166
 30
0.0
 10
339.8572268205622
 20
451.0456480366562
 30
0.0
 10
339.5893997283292
 20
450.7512938848356
 30
0.0
 10
339.5090667824027
 20
450.5677673760873
 30
0.0
 10
339.4880949348815
 20
450.5198556517858
 30
0.0
  0
SPLINE
  5
B6
330
1F
100
AcDbEntity
  8
0
  6
Continuous
 62
     7
370
    15
100
AcDbSpline
210
0.0
220
0.0
230
1.0
 70
     8
 71
     3
 72
     9
 73
     5
 74
     0
 42
0.00000001
 43
0.00000001
 40
0.0
 40
0.0
 40
0.0
 40
0.0
 40
0.4253761109932628
 40
1.0
 40
1.0
 40
1.0
 40
1.0
 10
377.6134290667459
 20
415.1847562661438
 30
0.0
 10
377.5789216677425
 20
415.2012303166831
 30
0.0
 10
377.4977995781103
 20
415.2399585153609
 30
0.0
 10
377.3945110830513
 20
415.2483466995404
 30
0.0
 10
377.3351590463309
 20
415.2531667505554
 30
0.0
  0
LINE
  5
B7
330
1F
100
AcDbEntity
  8
0
  6
Continuous
 62
     7
370
    15
100
AcDbLine
 10
377.6511002248
 20
415.1693658416
 30
0.0
 11
377.6134290667
 21
415.1847562661
 31
0.0
  0
ARC
  5
B8
330
1F
100
AcDbEntity
  8
0
  6
Continuous
 62
     7
370
    15
100
AcDbCircle
 10
335.7770849789
 20
415.6469006503
 30
0.0
 40
0.6017999837480884
100
AcDbArc
 50
181.5485938336
 51
258.9944834338
  0
SPLINE
  5
B9
330
1F
100
AcDbEntity
  8
0
  6
Continuous
 62
     7
370
    15
100
AcDbSpline
210
0.0
220
0.0
230
1.0
 70
     8
 71
     3
 72
    18
 73
    14
 74
     0
 42
0.00000001
 43
0.00000001
 40
0.0
 40
0.0
 40
0.0
 40
0.0
 40
0.0733972088786383
 40
0.2019281884534407
 40
0.3326807956495332
 40
0.415700142543066
 40
0.496846655662868
 40
0.5747090229233313
 40
0.6513245649299537
 40
0.7306950456809456
 40
0.8150331453718634
 40
0.90494141759152
 40
1.0
 40
1.0
 40
1.0
 40
1.0
 10
453.2587057638301
 20
389.0199717611002
 30
0.0
 10
453.761914214598
 20
389.2527117423894
 30
0.0
 10
455.1463261347576
 20
389.8930189627923
 30
0.0
 10
457.3634445418256
 20
391.1028855503502
 30
0.0
 10
459.4711099395169
 20
392.413839111655
 30
0.0
 10
461.1493211754656
 20
393.6067827952158
 30
0.0
 10
462.5063912674042
 20
394.6681397899283
 30
0.0
 10
463.839425561912
 20
395.8139568459605
 30
0.0
 10
465.1400584490988
 20
397.038104099903
 30
0.0
 10
466.3628425432116
 20
398.3082544996185
 30
0.0
 10
467.5076029719892
 20
399.6380864607931
 30
0.0
 10
468.5828774676605
 20
401.039784543562
 30
0.0
 10
469.2094036956302
 20
402.0140907265023
 30
0.0
 10
469.5313894654172
 20
402.5148083538216
 30
0.0
  0
LINE
  5
BA
330
1F
100
AcDbEntity
  8
0
  6
Continuous
 62
     7
370
    15
100
AcDbLine
 10
363.7690678648
 20
310.9427962631
 30
0.0
 11
365.9908694808
 21
315.4981646517
 31
0.0
  0
ARC
  5
BB
330
1F
100
AcDbEntity
  8
0
  6
Continuous
 62
     7
370
    15
100
AcDbCircle
 10
363.4994456483
 20
311.0763934616
 30
0.0
 40
0.300899999999956
100
AcDbArc
 50
270.0
 51
333.525343209
  0
LINE
  5
BC
330
1F
100
AcDbEntity
  8
0
  6
Continuous
 62
     7
370
    15
100
AcDbLine
 10
320.3899841645
 20
337.9551608914
 30
0.0
 11
309.0326783371
 21
311.1990250884
 31
0.0
  0
ARC
  5
BD
330
1F
100
AcDbEntity
  8
0
  6
Continuous
 62
     7
370
    15
100
AcDbCircle
 10
309.3075101374
 20
311.0763934616
 30
0.0
 40
0.3008999999999875
100
AcDbArc
 50
156.3660668106
 51
270.0
  0
ARC
  5
BE
330
1F
100
AcDbEntity
  8
0
  6
Continuous
 62
     7
370
    15
100
AcDbCircle
 10
369.1205301672
 20
403.3513391048
 30
0.0
 40
30.08999999999997
100
AcDbArc
 50
159.2278460886
 51
173.5400612127
  0
ARC
  5
BF
330
1F
100
AcDbEntity
  8
0
  6
Continuous
 62
     7
370
    15
100
AcDbCircle
 10
339.719894522
 20
406.6802962845
 30
0.0
 40
0.5015000000000541
100
AcDbArc
 50
173.5400612127
 51
195.0
  0
LINE
  5
C0
330
1F
100
AcDbEntity
  8
0
  6
Continuous
 62
     7
370
    15
100
AcDbLine
 10
370.6027424554
 20
413.4957127893
 30
0.0
 11
370.268423374
 21
414.743408587
 31
0.0
  0
LINE
  5
C1
330
1F
100
AcDbEntity
  8
0
  6
Continuous
 62
     7
370
    15
100
AcDbLine
 10
339.2354827201
 20
406.5504985333
 30
0.0
 11
339.6003871348
 21
405.1886567177
 31
0.0
  0
SPLINE
  5
C2
330
1F
100
AcDbEntity
  8
0
  6
Continuous
 62
     7
370
    15
100
AcDbSpline
210
0.0
220
0.0
230
1.0
 70
     8
 71
     3
 72
    12
 73
     8
 74
     0
 42
0.00000001
 43
0.00000001
 40
0.0
 40
0.0
 40
0.0
 40
0.0
 40
0.1761983344170637
 40
0.47547225600208
 40
0.726232545874632
 40
0.9190070570076244
 40
1.0
 40
1.0
 40
1.0
 40
1.0
 10
321.0750801177487
 20
341.8638247157534
 30
0.0
 10
321.0877430248146
 20
341.8590216917916
 30
0.0
 10
321.1219139550344
 20
341.8460607029928
 30
0.0
 10
321.1783734234518
 20
341.8441910986305
 30
0.0
 10
321.2329799273584
 20
341.8511708303198
 30
0.0
 10
321.2683968693523
 20
341.8620161058471
 30
0.0
 10
321.2803768813191
 20
341.8670949406613
 30
0.0
 10
321.2839211171719
 20
341.8685974924525
 30
0.0
  0
LINE
  5
C3
330
1F
100
AcDbEntity
  8
0
  6
Continuous
 62
     7
370
    15
100
AcDbLine
 10
321.0586681287
 20
341.8692981563
 30
0.0
 11
321.0750801177
 21
341.8638247158
 31
0.0
  0
ARC
  5
C4
330
1F
100
AcDbEntity
  8
0
  6
Continuous
 62
     7
370
    15
100
AcDbCircle
 10
309.2496910209
 20
351.8255364252
 30
0.0
 40
1.203605141578281
100
AcDbArc
 50
113.6908430017
 51
208.0775582612
  0
SPLINE
  5
C5
330
1F
100
AcDbEntity
  8
0
  6
Continuous
 62
     7
370
    15
100
AcDbSpline
210
0.0
220
0.0
230
1.0
 70
     8
 71
     3
 72
    10
 73
     6
 74
     0
 42
0.00000001
 43
0.00000001
 40
0.0
 40
0.0
 40
0.0
 40
0.0
 40
0.4171557494138858
 40
0.9599001426990981
 40
1.0
 40
1.0
 40
1.0
 40
1.0
 10
328.0193733899865
 20
352.232687832547
 30
0.0
 10
328.0316992256362
 20
352.3187119518333
 30
0.0
 10
328.0600617051553
 20
352.5166585568951
 30
0.0
 10
328.0376402957449
 20
352.7026185916763
 30
0.0
 10
327.9703448829061
 20
352.7834652999692
 30
0.0
 10
327.9657149385442
 20
352.7890275774773
 30
0.0
  0
SPLINE
  5
C6
330
1F
100
AcDbEntity
  8
0
  6
Continuous
 62
     7
370
    15
100
AcDbSpline
210
0.0
220
0.0
230
1.0
 70
     8
 71
     3
 72
    10
 73
     6
 74
     0
 42
0.00000001
 43
0.00000001
 40
0.0
 40
0.0
 40
0.0
 40
0.0
 40
0.1665163487960776
 40
0.7693000320613838
 40
1.0
 40
1.0
 40
1.0
 40
1.0
 10
327.8318505152806
 20
351.6210045826604
 30
0.0
 10
327.8480138261941
 20
351.6538965875044
 30
0.0
 10
327.9226877888042
 20
351.8058565635909
 30
0.0
 10
328.0032618135559
 20
352.027453908217
 30
0.0
 10
328.0158806279301
 20
352.188196018436
 30
0.0
 10
328.0193733899865
 20
352.232687832547
 30
0.0
  0
SPLINE
  5
C7
330
1F
100
AcDbEntity
  8
0
  6
Continuous
 62
     7
370
    15
100
AcDbSpline
210
0.0
220
0.0
230
1.0
 70
     8
 71
     3
 72
    16
 73
    12
 74
     0
 42
0.00000001
 43
0.00000001
 40
0.0
 40
0.0
 40
0.0
 40
0.0
 40
0.0980178286344688
 40
0.1937071963439829
 40
0.3580723407674583
 40
0.4934170986092071
 40
0.601093140646915
 40
0.6942655698546145
 40
0.8010959195385163
 40
0.9258993336936057
 40
1.0
 40
1.0
 40
1.0
 40
1.0
 10
308.1946246106967
 20
351.270789847043
 30
0.0
 10
308.4487535872223
 20
350.8257296942134
 30
0.0
 10
308.9509745835281
 20
349.9461820077352
 30
0.0
 10
310.200415327549
 20
348.4584856837113
 30
0.0
 10
311.8103405407318
 20
346.9887431275538
 30
0.0
 10
313.6601495307494
 20
345.6902982389487
 30
0.0
 10
315.2567729384703
 20
344.7389835023864
 30
0.0
 10
316.7703607475808
 20
343.9344741853865
 30
0.0
 10
318.3564661990231
 20
343.1206096586043
 30
0.0
 10
319.8189469466857
 20
342.4030544531382
 30
0.0
 10
320.7378344732921
 20
342.0255284827634
 30
0.0
 10
321.0801611758121
 20
341.8848831732864
 30
0.0
  0
SPLINE
  5
C8
330
1F
100
AcDbEntity
  8
0
  6
Continuous
 62
     7
370
    15
100
AcDbSpline
210
0.0
220
0.0
230
1.0
 70
     8
 71
     3
 72
    17
 73
    13
 74
     0
 42
0.00000001
 43
0.00000001
 40
0.0
 40
0.0
 40
0.0
 40
0.0
 40
0.0697679126085029
 40
0.1865071191711458
 40
0.2819120381206288
 40
0.355985157014287
 40
0.4145064878116456
 40
0.5110264824238744
 40
0.6402497829499157
 40
0.7450434598336269
 40
0.8662196819977485
 40
1.0
 40
1.0
 40
1.0
 40
1.0
 10
326.4970416087353
 20
355.0041043185205
 30
0.0
 10
326.0780512976763
 20
355.0006624670822
 30
0.0
 10
324.9579851676384
 20
354.9914615354167
 30
0.0
 10
323.2650163352144
 20
354.9720997790722
 30
0.0
 10
321.5462533241237
 20
354.9474855702597
 30
0.0
 10
320.1772284214007
 20
354.920125497803
 30
0.0
 10
318.8017263722121
 20
354.882399421147
 30
0.0
 10
317.0959068960685
 20
354.8154843966761
 30
0.0
 10
315.1145293672719
 20
354.6691717560186
 30
0.0
 10
313.0043090164999
 20
354.3484702499753
 30
0.0
 10
310.899861805154
 20
353.8262487091311
 30
0.0
 10
309.4885449845086
 20
353.2267351522022
 30
0.0
 10
308.748001466995
 20
352.9121595220173
 30
0.0
  0
SPLINE
  5
C9
330
1F
100
AcDbEntity
  8
0
  6
Continuous
 62
     7
370
    15
100
AcDbSpline
210
0.0
220
0.0
230
1.0
 70
     8
 71
     3
 72
    14
 73
    10
 74
     0
 42
0.00000001
 43
0.00000001
 40
0.0
 40
0.0
 40
0.0
 40
0.0
 40
0.0156247615016965
 40
0.2184684914565382
 40
0.4303428549457791
 40
0.6429947780495289
 40
0.85571765811335
 40
0.959603645135875
 40
1.0
 40
1.0
 40
1.0
 40
1.0
 10
327.9696556624659
 20
352.7867052141847
 30
0.0
 10
327.9577515703551
 20
352.8076470737806
 30
0.0
 10
327.7913062108325
 20
353.1004602775998
 30
0.0
 10
327.5161142490164
 20
353.6164901766556
 30
0.0
 10
327.1725196255312
 20
354.2013896040607
 30
0.0
 10
326.9200535109441
 20
354.6122767541738
 30
0.0
 10
326.7960642120549
 20
354.8012264166326
 30
0.0
 10
326.7581203639164
 20
354.8595395378528
 30
0.0
 10
326.7568395851392
 20
354.8615176331742
 30
0.0
 10
326.7564809910568
 20
354.8620714628357
 30
0.0
  0
LINE
  5
CA
330
1F
100
AcDbEntity
  8
0
  6
Continuous
 62
     7
370
    15
100
AcDbLine
 10
453.3300766781
 20
388.9965552856
 30
0.0
 11
453.3198333573
 21
389.024698578
 31
0.0
  0
LINE
  5
CB
330
1F
100
AcDbEntity
  8
0
  6
Continuous
 62
     7
370
    15
100
AcDbLine
 10
435.8991850309
 20
382.9281415211
 30
0.0
 11
435.9878614229
 21
382.6845051365
 31
0.0
  0
LINE
  5
CC
330
1F
100
AcDbEntity
  8
0
  6
Continuous
 62
     7
370
    15
100
AcDbLine
 10
335.0564076225
 20
422.8245995407
 30
0.0
 11
334.8338897399
 21
422.8055230288
 31
0.0
  0
ARC
  5
CD
330
1F
100
AcDbEntity
  8
0
  6
Continuous
 62
     7
370
    15
100
AcDbCircle
 10
334.8510243747
 20
422.6056561624
 30
0.0
 40
0.2006000000000599
100
AcDbArc
 50
94.9
 51
183.5794392696
  0
ARC
  5
CE
330
1F
100
AcDbEntity
  8
0
  6
Continuous
 62
     7
370
    15
100
AcDbCircle
 10
335.2451209747
 20
418.0087182348
 30
0.0
 40
0.2006000000000516
100
AcDbArc
 50
186.2205607305
 51
232.5224543558
  0
ARC
  5
CF
330
1F
100
AcDbEntity
  8
0
  6
Continuous
 62
     7
370
    15
100
AcDbCircle
 10
434.7551501347
 20
428.8550990563
 30
0.0
 40
100.3000000000001
100
AcDbArc
 50
183.5794392694
 51
186.2205607306
  0
LINE
  5
D0
330
1F
100
AcDbEntity
  8
0
  6
Continuous
 62
     7
370
    15
100
AcDbLine
 10
321.5332691013
 20
342.2338403497
 30
0.0
 11
321.9201993157
 21
341.5636575593
 31
0.0
  0
LINE
  5
D1
330
1F
100
AcDbEntity
  8
0
  6
Continuous
 62
     7
370
    15
100
AcDbLine
 10
321.0580193792
 20
341.8695146388
 30
0.0
 11
321.0750788879
 21
341.8638251655
 31
0.0
  0
ARC
  5
D2
330
1F
100
AcDbEntity
  8
0
  6
Continuous
 62
     7
370
    15
100
AcDbCircle
 10
335.7770850787
 20
415.6469006303
 30
0.0
 40
0.6017999831565352
100
AcDbArc
 50
181.5224664526
 51
258.9947593947
  0
ARC
  5
D3
330
1F
100
AcDbEntity
  8
0
  6
Continuous
 62
     7
370
    15
100
AcDbCircle
 10
374.8064130175
 20
416.5823885216
 30
0.0
 40
0.6018000683521731
100
AcDbArc
 50
285.1710268549
 51
64.1295135375
  0
SPLINE
  5
D4
330
1F
100
AcDbEntity
  8
0
  6
Continuous
 62
     7
370
    15
100
AcDbSpline
210
0.0
220
0.0
230
1.0
 70
     8
 71
     3
 72
    17
 73
    13
 74
     0
 42
0.00000001
 43
0.00000001
 40
0.0
 40
0.0
 40
0.0
 40
0.0
 40
0.5517481615156011
 40
0.7180533556642648
 40
0.7908583831348426
 40
0.8356514356532303
 40
0.8470095338262307
 40
0.8573692611472344
 40
0.8710073741375414
 40
0.9197784770847927
 40
0.9612412425438593
 40
1.0
 40
1.0
 40
1.0
 40
1.0
 10
326.7975675128396
 20
354.7988639838594
 30
0.0
 10
326.7792150388701
 20
354.8268713825089
 30
0.0
 10
326.7553308532257
 20
354.8633206323414
 30
0.0
 10
326.7507631503567
 20
354.8702335081715
 30
0.0
 10
326.7469881068177
 20
354.8755294611923
 30
0.0
 10
326.7447651575196
 20
354.8789765053365
 30
0.0
 10
326.7365361392702
 20
354.8898539713176
 30
0.0
 10
326.7274489850541
 20
354.901068169029
 30
0.0
 10
326.6987247293065
 20
354.9324574019334
 30
0.0
 10
326.6458023771693
 20
354.9710061795577
 30
0.0
 10
326.5708837015234
 20
355.0015749255396
 30
0.0
 10
326.5209842472773
 20
355.00113655223
 30
0.0
 10
326.4968754947375
 20
355.0009247536482
 30
0.0
  0
SPLINE
  5
D5
330
1F
100
AcDbEntity
  8
0
  6
Continuous
 62
     7
370
    15
100
AcDbSpline
210
0.0
220
0.0
230
1.0
 70
     8
 71
     3
 72
    24
 73
    20
 74
     0
 42
0.00000001
 43
0.00000001
 40
0.0
 40
0.0
 40
0.0
 40
0.0
 40
0.0399800431375912
 40
0.0800311823767353
 40
0.1201149894341017
 40
0.1602325332913409
 40
0.2003974307096893
 40
0.2406172150123256
 40
0.2808836273522636
 40
0.3211681176950344
 40
0.3614273786918719
 40
0.4016297267388368
 40
0.4417453990303196
 40
0.5373727963250106
 40
0.6323690919799131
 40
0.7257332531492897
 40
0.8178985506320472
 40
0.9091426570771012
 40
0.9999999999999999
 40
0.9999999999999999
 40
0.9999999999999999
 40
0.9999999999999999
 10
358.8924788430505
 20
430.8001824241317
 30
0.0
 10
358.6765526551195
 20
431.0772267925404
 30
0.0
 10
358.2443162999273
 20
431.6318081945231
 30
0.0
 10
357.6029698302319
 20
432.469856506372
 30
0.0
 10
356.9638958499037
 20
433.3111445071541
 30
0.0
 10
356.3274056508186
 20
434.1556437017933
 30
0.0
 10
355.6926765115542
 20
435.0029582443439
 30
0.0
 10
355.0589122093954
 20
435.8526262982269
 30
0.0
 10
354.4251799558122
 20
436.7036280323458
 30
0.0
 10
353.7908663749378
 20
437.5546295955775
 30
0.0
 10
353.1554166157474
 20
438.404080738474
 30
0.0
 10
352.5178550307982
 20
439.2500973313346
 30
0.0
 10
351.5807816163518
 20
440.4794749229957
 30
0.0
 10
350.3314296333558
 20
442.0761527329076
 30
0.0
 10
348.7422545630777
 20
444.000002228861
 30
0.0
 10
347.1187135756246
 20
445.854804387182
 30
0.0
 10
345.4579541764882
 20
447.6315333884045
 30
0.0
 10
343.7561228531135
 20
449.3380785317683
 30
0.0
 10
342.5913224013768
 20
450.4349200827608
 30
0.0
 10
342.0101591297636
 20
450.9821760726308
 30
0.0
  0
SPLINE
  5
D6
330
1F
100
AcDbEntity
  8
0
  6
Continuous
 62
     7
370
    15
100
AcDbSpline
210
0.0
220
0.0
230
1.0
 70
     8
 71
     3
 72
    26
 73
    22
 74
     0
 42
0.00000001
 43
0.00000001
 40
0.0
 40
0.0
 40
0.0
 40
0.0
 40
0.0290992113130848
 40
0.0582053890888991
 40
0.0873155057903774
 40
0.1164335036086713
 40
0.1455660287882988
 40
0.174721522966314
 40
0.2039093112354707
 40
0.2331386825134511
 40
0.2624179576758112
 40
0.2917535409101372
 40
0.3211489499182587
 40
0.4036112448880976
 40
0.4866517083534344
 40
0.5423876683592097
 40
0.6553496433485396
 40
0.7694085474945428
 40
0.8456003211867046
 40
0.922478847192529
 40
1.0
 40
1.0
 40
1.0
 40
1.0
 10
375.0713185011753
 20
417.1227032012332
 30
0.0
 10
374.8855284809798
 20
417.2147820532679
 30
0.0
 10
374.5139039617458
 20
417.3989618013674
 30
0.0
 10
373.9616532299386
 20
417.6856226668058
 30
0.0
 10
373.4133171155923
 20
417.9799509350322
 30
0.0
 10
372.8693680190352
 20
418.2827112976439
 30
0.0
 10
372.329745591215
 20
418.5937610072326
 30
0.0
 10
371.7944804512508
 20
418.9132241377937
 30
0.0
 10
371.2635546352192
 20
419.2411630238959
 30
0.0
 10
370.7369597120019
 20
419.5776538544334
 30
0.0
 10
370.214701922504
 20
419.9227506082084
 30
0.0
 10
369.6968166459102
 20
420.2764814984392
 30
0.0
 10
368.8747817421189
 20
420.8566128607653
 30
0.0
 10
367.7634860737048
 20
421.6902919657966
 30
0.0
 10
366.5429378275253
 20
422.6888059049235
 30
0.0
 10
365.1937175674173
 20
423.8711628096954
 30
0.0
 10
363.7318592255002
 20
425.2591517548972
 30
0.0
 10
362.2400365684139
 20
426.8231625897283
 30
0.0
 10
360.9768505852037
 20
428.2473467899511
 30
0.0
 10
359.9186997947361
 20
429.5047389367163
 30
0.0
 10
359.2355003169733
 20
430.367171449858
 30
0.0
 10
358.8924788060434
 20
430.8001824713267
 30
0.0
  0
SPLINE
  5
D7
330
1F
100
AcDbEntity
  8
0
  6
Continuous
 62
     7
370
    15
100
AcDbSpline
210
0.0
220
0.0
230
1.0
 70
     8
 71
     3
 72
    14
 73
    10
 74
     0
 42
0.00000001
 43
0.00000001
 40
0.0
 40
0.0
 40
0.0
 40
0.0
 40
0.5000000000000001
 40
0.5000000000000001
 40
0.6249999999999999
 40
0.6249999999999999
 40
0.7499999999999997
 40
0.7499999999999997
 40
1.0
 40
1.0
 40
1.0
 40
1.0
 10
363.2171341290676
 20
412.8540213282033
 30
0.0
 10
360.9115451704502
 20
412.2362406286637
 30
0.0
 10
358.592371854657
 20
411.9012963516894
 30
0.0
 10
355.6983091795032
 20
411.808759944026
 30
0.0
 10
355.119760713466
 20
411.806706975512
 30
0.0
 10
353.9638912728512
 20
411.8353426348941
 30
0.0
 10
353.3854699339727
 20
411.8661983820071
 30
0.0
 10
351.671944663548
 20
412.0058624838619
 30
0.0
 10
350.553112200449
 20
412.1616682205466
 30
0.0
 10
349.46233792855
 20
412.3736932607254
 30
0.0
  0
SPLINE
  5
D8
330
1F
100
AcDbEntity
  8
0
  6
Continuous
 62
     7
370
    15
100
AcDbSpline
210
0.0
220
0.0
230
1.0
 70
     8
 71
     3
 72
     9
 73
     5
 74
     0
 42
0.00000001
 43
0.00000001
 40
0.0
 40
0.0
 40
0.0
 40
0.0
 40
0.5072204117406499
 40
1.0
 40
1.0
 40
1.0
 40
1.0
 10
435.8991850343583
 20
382.9281414734953
 30
0.0
 10
434.0485844760778
 20
382.4136940491042
 30
0.0
 10
430.4000709000379
 20
381.3994457805347
 30
0.0
 10
426.755693230134
 20
380.3704359989927
 30
0.0
 10
424.9598183024972
 20
379.8633609825296
 30
0.0
  0
SPLINE
  5
D9
330
1F
100
AcDbEntity
  8
0
  6
Continuous
 62
     7
370
    15
100
AcDbSpline
210
0.0
220
0.0
230
1.0
 70
     8
 71
     3
 72
    24
 73
    20
 74
     0
 42
0.00000001
 43
0.00000001
 40
0.0
 40
0.0
 40
0.0
 40
0.0
 40
0.0590374838279728
 40
0.1179416268941943
 40
0.1638048554844135
 40
0.2100675541922503
 40
0.2577091647481737
 40
0.3076090298786961
 40
0.3483107908936884
 40
0.3917292061296116
 40
0.4361406647480107
 40
0.481426148661157
 40
0.5294491717914618
 40
0.6076771130768329
 40
0.6880865070084228
 40
0.7708044871926937
 40
0.8492965251358439
 40
0.9254149256403761
 40
1.0
 40
1.0
 40
1.0
 40
1.0
 10
424.4117158717056
 20
379.6997499855843
 30
0.0
 10
422.7072719292612
 20
379.1945907114622
 30
0.0
 10
419.3022336639517
 20
378.1854131048377
 30
0.0
 10
414.6340070019017
 20
376.5867359161
 30
0.0
 10
410.4143529009436
 20
374.8839090765277
 30
0.0
 10
406.6441636038086
 20
373.000208052783
 30
0.0
 10
402.9856636201134
 20
370.6674460177663
 30
0.0
 10
399.7386754607351
 20
368.051331611344
 30
0.0
 10
396.7995795487294
 20
365.2829149428268
 30
0.0
 10
394.1454509106371
 20
362.4633232004572
 30
0.0
 10
391.551103269396
 20
359.4061961722875
 30
0.0
 10
389.008595527596
 20
356.1288675167103
 30
0.0
 10
386.0007100067507
 20
351.9287900802897
 30
0.0
 10
382.5973436901193
 20
346.7164255953202
 30
0.0
 10
378.879088320496
 20
340.4706761800086
 30
0.0
 10
375.3612458299278
 20
334.1013860869857
 30
0.0
 10
372.0576875885179
 20
327.7643502717473
 30
0.0
 10
368.9675384603016
 20
321.5935323069469
 30
0.0
 10
366.9765478106049
 20
317.5159346173949
 30
0.0
 10
365.9911811109266
 20
315.4978794454221
 30
0.0
  0
SPLINE
  5
DA
330
1F
100
AcDbEntity
  8
0
  6
Continuous
 62
     7
370
    15
100
AcDbSpline
210
0.0
220
0.0
230
1.0
 70
     8
 71
     3
 72
    32
 73
    28
 74
     0
 42
0.00000001
 43
0.00000001
 40
0.0
 40
0.0
 40
0.0
 40
0.0
 40
0.0625000000000003
 40
0.0625000000000003
 40
0.1250000000000006
 40
0.1875000000000009
 40
0.1875000000000009
 40
0.2500000000000012
 40
0.2500000000000012
 40
0.3750000000000009
 40
0.3750000000000009
 40
0.4375000000000009
 40
0.4375000000000009
 40
0.5000000000000009
 40
0.5625000000000009
 40
0.5625000000000009
 40
0.6250000000000008
 40
0.6250000000000008
 40
0.7500000000000012
 40
0.7500000000000012
 40
0.812500000000001
 40
0.812500000000001
 40
0.8750000000000008
 40
0.8750000000000008
 40
0.9375000000000004
 40
0.9375000000000004
 40
1.0
 40
1.0
 40
1.0
 40
1.0
 10
446.7029976360412
 20
386.8796916892216
 30
0.0
 10
446.3790362971901
 20
386.7784693226627
 30
0.0
 10
446.0467133382281
 20
386.6740541551846
 30
0.0
 10
445.384489283605
 20
386.4639508050491
 30
0.0
 10
444.7221556703918
 20
386.2517963026251
 30
0.0
 10
444.0600577168404
 20
386.0342355013942
 30
0.0
 10
443.3982441125958
 20
385.8134146722442
 30
0.0
 10
443.0658088764737
 20
385.7007810021385
 30
0.0
 10
442.0928556319312
 20
385.365595952541
 30
0.0
 10
441.4701157235116
 20
385.1435629204481
 30
0.0
 10
440.5745286237692
 20
384.8136325401188
 30
0.0
 10
440.2813110958029
 20
384.7037528403377
 30
0.0
 10
439.7221298257949
 20
384.4910051738953
 30
0.0
 10
439.1868241671074
 20
384.2840580480253
 30
0.0
 10
438.6979269772449
 20
384.0897978969154
 30
0.0
 10
438.2324434760649
 20
383.9027518370873
 30
0.0
 10
438.0108985525291
 20
383.8126162566717
 30
0.0
 10
437.3978759029173
 20
383.5609911416263
 30
0.0
 10
437.0514203193318
 20
383.415736850248
 30
0.0
 10
436.6243451216673
 20
383.2354961016858
 30
0.0
 10
436.4975748733291
 20
383.1817312465101
 30
0.0
 10
436.2817547457368
 20
383.0900723563495
 30
0.0
 10
436.1917024587218
 20
383.0517553290579
 30
0.0
 10
436.0467221263929
 20
382.990149916322
 30
0.0
 10
435.9917930990883
 20
382.9668607756471
 30
0.0
 10
435.9179087277088
 20
382.9357156742331
 30
0.0
 10
435.8992426308188
 20
382.9279832667299
 30
0.0
 10
435.899185030949
 20
382.9281415210691
 30
0.0
  0
SPLINE
  5
DB
330
1F
100
AcDbEntity
  8
0
  6
Continuous
 62
     7
370
    15
100
AcDbSpline
210
0.0
220
0.0
230
1.0
 70
     8
 71
     3
 72
     9
 73
     5
 74
     0
 42
0.00000001
 43
0.00000001
 40
0.0
 40
0.0
 40
0.0
 40
0.0
 40
0.4999626796489185
 40
1.0
 40
1.0
 40
1.0
 40
1.0
 10
335.1231171742801
 20
417.8494843290024
 30
0.0
 10
335.1312004477425
 20
417.4798051069908
 30
0.0
 10
335.1473682014399
 20
416.7403914726149
 30
0.0
 10
335.166152066524
 20
416.0010396710323
 30
0.0
 10
335.1755447000866
 20
415.6313361773723
 30
0.0
  0
SPLINE
  5
DC
330
1F
100
AcDbEntity
  8
0
  6
Continuous
 62
     7
370
    15
100
AcDbSpline
210
0.0
220
0.0
230
1.0
 70
     8
 71
     3
 72
    18
 73
    14
 74
     0
 42
0.00000001
 43
0.00000001
 40
0.0
 40
0.0
 40
0.0
 40
0.0
 40
0.2500000000000001
 40
0.2500000000000001
 40
0.5000000000000001
 40
0.5000000000000001
 40
0.6250000000000001
 40
0.6250000000000001
 40
0.7500000000000002
 40
0.7500000000000002
 40
0.8750000000000001
 40
0.8750000000000001
 40
1.0
 40
1.0
 40
1.0
 40
1.0
 10
335.1231170547729
 20
417.8494844333567
 30
0.0
 10
335.1226767588687
 20
417.8498217851861
 30
0.0
 10
335.1226280305489
 20
417.8861074435894
 30
0.0
 10
335.1230325210869
 20
418.0336676270541
 30
0.0
 10
335.1234690902464
 20
418.1417688563773
 30
0.0
 10
335.1238738055284
 20
418.3557790890021
 30
0.0
 10
335.1239627921038
 20
418.4363076861539
 30
0.0
 10
335.1239246391617
 20
418.6096481568805
 30
0.0
 10
335.1237994938004
 20
418.7030664776202
 30
0.0
 10
335.1232235900814
 20
418.9035779441926
 30
0.0
 10
335.1227665526825
 20
419.0115743037512
 30
0.0
 10
335.1214424613443
 20
419.2361499360076
 30
0.0
 10
335.1205776059974
 20
419.3529409804269
 30
0.0
 10
335.1194741251223
 20
419.4743253174842
 30
0.0
  0
SPLINE
  5
DD
330
1F
100
AcDbEntity
  8
0
  6
Continuous
 62
     7
370
    15
100
AcDbSpline
210
0.0
220
0.0
230
1.0
 70
     8
 71
     3
 72
    22
 73
    18
 74
     0
 42
0.00000001
 43
0.00000001
 40
0.0
 40
0.0
 40
0.0
 40
0.0
 40
0.1250000000000001
 40
0.1250000000000001
 40
0.2500000000000001
 40
0.2500000000000001
 40
0.3750000000000002
 40
0.3750000000000002
 40
0.5000000000000002
 40
0.5000000000000002
 40
0.6250000000000001
 40
0.6250000000000001
 40
0.7500000000000001
 40
0.7500000000000001
 40
0.875
 40
0.875
 40
1.0
 40
1.0
 40
1.0
 40
1.0
 10
335.0564076553429
 20
422.8245995434779
 30
0.0
 10
335.0559117279971
 20
422.8245563070926
 30
0.0
 10
335.0561231932455
 20
422.8001550588897
 30
0.0
 10
335.0579069990777
 20
422.7057472257696
 30
0.0
 10
335.0595025513436
 20
422.6345087779504
 30
0.0
 10
335.0638659306276
 20
422.4503163874882
 30
0.0
 10
335.0666059710717
 20
422.338412682383
 30
0.0
 10
335.0730285334841
 20
422.0744498988972
 30
0.0
 10
335.0766440778738
 20
421.9250642837022
 30
0.0
 10
335.0842186127451
 20
421.5999873345304
 30
0.0
 10
335.088251813616
 20
421.4208642992085
 30
0.0
 10
335.0960427072783
 20
421.0504702365477
 30
0.0
 10
335.0998486819622
 20
420.8571513738106
 30
0.0
 10
335.106918842182
 20
420.4585782032563
 30
0.0
 10
335.1100693579003
 20
420.2597192821818
 30
0.0
 10
335.1154872836046
 20
419.8628316819778
 30
0.0
 10
335.1177454232514
 20
419.6644847804132
 30
0.0
 10
335.1194741251223
 20
419.4743253174853
 30
0.0
  0
SPLINE
  5
DE
330
1F
100
AcDbEntity
  8
0
  6
Continuous
 62
     7
370
    15
100
AcDbSpline
210
0.0
220
0.0
230
1.0
 70
     8
 71
     3
 72
    75
 73
    71
 74
     0
 42
0.00000001
 43
0.00000001
 40
0.0
 40
0.0
 40
0.0
 40
0.0
 40
0.0149060607076257
 40
0.0297563205642629
 40
0.0445562571361517
 40
0.0593108343226802
 40
0.074024912820435
 40
0.0887030157904502
 40
0.1033493703207277
 40
0.1179679396835281
 40
0.1325624453528088
 40
0.147136380857002
 40
0.1616930188891589
 40
0.1762354125185376
 40
0.1907663908618275
 40
0.2052885412700802
 40
0.2198041946584171
 40
0.2343154219425821
 40
0.2488240101438965
 40
0.2633314354465285
 40
0.2778388348417292
 40
0.2923469762655693
 40
0.3068562271743299
 40
0.3213665215322518
 40
0.335877328924651
 40
0.3503878799114326
 40
0.364897597733735
 40
0.3794060209255967
 40
0.3939127861550856
 40
0.4084176271167585
 40
0.4229203724795791
 40
0.4374209429038461
 40
0.4519193471508496
 40
0.4664156773171908
 40
0.4809101032322963
 40
0.4954028664955737
 40
0.5098942832615057
 40
0.5243847423918796
 40
0.5388746935109838
 40
0.5533646406775535
 40
0.5678551360742206
 40
0.5823467734356849
 40
0.5968401812308671
 40
0.6113360156106356
 40
0.6258349531328113
 40
0.640337683275943
 40
0.6548449007529877
 40
0.6693572976353431
 40
0.683875555296925
 40
0.6984003361871747
 40
0.7129322754406662
 40
0.7274719723297896
 40
0.7420199815655739
 40
0.7565768044503803
 40
0.7711428798849751
 40
0.785718575230245
 40
0.8003041748136619
 40
0.8148998631481363
 40
0.8295057258881671
 40
0.8441217440334525
 40
0.8587477840424763
 40
0.8733835878280374
 40
0.8880287626572726
 40
0.9026827709757197
 40
0.9173449201727716
 40
0.9320143523034193
 40
0.946690033778575
 40
0.9613707450334856
 40
0.9806827093777548
 40
1.0
 40
1.0
 40
1.0
 40
1.0
 10
339.5168500674147
 20
450.5967591646141
 30
0.0
 10
339.448318542169
 20
450.4733420659193
 30
0.0
 10
339.3115120395011
 20
450.2269698805441
 30
0.0
 10
339.1162687453971
 20
449.8528542294258
 30
0.0
 10
338.9284024633409
 20
449.4766104087944
 30
0.0
 10
338.7483011535778
 20
449.098008305894
 30
0.0
 10
338.5754331552674
 20
448.7173219258246
 30
0.0
 10
338.4095342145388
 20
448.3346647562416
 30
0.0
 10
338.2502907499905
 20
447.9501713177059
 30
0.0
 10
338.0974231367794
 20
447.5639514960649
 30
0.0
 10
337.9506622141763
 20
447.1761047499198
 30
0.0
 10
337.8097544733465
 20
446.7867182966572
 30
0.0
 10
337.6744595484022
 20
446.3958696019448
 30
0.0
 10
337.5445499498799
 20
446.003627660596
 30
0.0
 10
337.4198092332719
 20
445.6100549877023
 30
0.0
 10
337.3000340366049
 20
445.2152083300526
 30
0.0
 10
337.1850361947018
 20
444.8191394687899
 30
0.0
 10
337.074635363493
 20
444.4218987266607
 30
0.0
 10
336.9686603757497
 20
444.0235357257307
 30
0.0
 10
336.8669489052658
 20
443.6241008921352
 30
0.0
 10
336.7693474776328
 20
443.2236468524975
 30
0.0
 10
336.6757112742225
 20
442.8222298862039
 30
0.0
 10
336.5859038872701
 20
442.4199113831621
 30
0.0
 10
336.499796986263
 20
442.0167592842625
 30
0.0
 10
336.4172694263441
 20
441.6128471072292
 30
0.0
 10
336.3382055813431
 20
441.2082485940277
 30
0.0
 10
336.2624940482073
 20
440.8030326951587
 30
0.0
 10
336.1900269582051
 20
440.3972607468268
 30
0.0
 10
336.1207000281364
 20
439.9909876535256
 30
0.0
 10
336.0544123995124
 20
439.5842623580839
 30
0.0
 10
335.9910664008469
 20
439.1771281629987
 30
0.0
 10
335.9305672606835
 20
438.7696230610135
 30
0.0
 10
335.8728228096408
 20
438.3617800699029
 30
0.0
 10
335.8177430530271
 20
437.953627585472
 30
0.0
 10
335.7652400773874
 20
437.5451896921218
 30
0.0
 10
335.7152265689979
 20
437.1364865489679
 30
0.0
 10
335.6676202977679
 20
436.7275339959962
 30
0.0
 10
335.6223448853905
 20
436.3183437734401
 30
0.0
 10
335.5793256658719
 20
435.9089243338514
 30
0.0
 10
335.538490612751
 20
435.4992810641992
 30
0.0
 10
335.4997700589428
 20
435.0894165988512
 30
0.0
 10
335.463096726272
 20
434.6793310921534
 30
0.0
 10
335.4284056631071
 20
434.2690225029461
 30
0.0
 10
335.3956341985362
 20
433.8584868775293
 30
0.0
 10
335.3647218847563
 20
433.4477186345339
 30
0.0
 10
335.3356104359915
 20
433.0367108506345
 30
0.0
 10
335.3082436623123
 20
432.6254555472681
 30
0.0
 10
335.2825673992753
 20
432.21394397822
 30
0.0
 10
335.2585294334961
 20
431.8021669180445
 30
0.0
 10
335.236079424333
 20
431.3901149512877
 30
0.0
 10
335.2151688217528
 20
430.9777787625094
 30
0.0
 10
335.1957507800133
 20
430.5651494271364
 30
0.0
 10
335.1777800678119
 20
430.1522187031885
 30
0.0
 10
335.161212971063
 20
429.738979323987
 30
0.0
 10
335.1460072006479
 20
429.325425291853
 30
0.0
 10
335.1321217573929
 20
428.9115521941923
 30
0.0
 10
335.119516932376
 20
428.4973575895197
 30
0.0
 10
335.1081515613196
 20
428.0828413663226
 30
0.0
 10
335.0979862244703
 20
427.6680058617127
 30
0.0
 10
335.088983199247
 20
427.2528560375623
 30
0.0
 10
335.0811062089563
 20
426.8373997577301
 30
0.0
 10
335.0743202481783
 20
426.4216481014418
 30
0.0
 10
335.0685913379675
 20
426.0056156754541
 30
0.0
 10
335.063886518236
 20
425.5893209261237
 30
0.0
 10
335.0601729984112
 20
425.172786445711
 30
0.0
 10
335.0574204819407
 20
424.7560392936375
 30
0.0
 10
335.0555916735929
 20
424.3391112549295
 30
0.0
 10
335.0545808367324
 20
423.8782149177937
 30
0.0
 10
335.0545973304658
 20
423.3733600013226
 30
0.0
 10
335.055804143336
 20
423.0075365073943
 30
0.0
 10
335.0564076329699
 20
422.8245995401973
 30
0.0
  0
SPLINE
  5
DF
330
1F
100
AcDbEntity
  8
0
  6
Continuous
 62
     7
370
    15
100
AcDbSpline
210
0.0
220
0.0
230
1.0
 70
     8
 71
     3
 72
    20
 73
    16
 74
     0
 42
0.00000001
 43
0.00000001
 40
0.0
 40
0.0
 40
0.0
 40
0.0
 40
0.0575442976742892
 40
0.1148996203066671
 40
0.172039448999978
 40
0.2289635902050077
 40
0.2856898006085086
 40
0.3422456535526088
 40
0.398660599502472
 40
0.4549582250111192
 40
0.5111487045115914
 40
0.5672214273246988
 40
0.7812158283442459
 40
0.9934645884677041
 40
1.0
 40
1.0
 40
1.0
 40
1.0
 10
394.7595403199292
 20
411.0692222028574
 30
0.0
 10
394.4239520929102
 20
411.1095200410708
 30
0.0
 10
393.7538777080921
 20
411.1899833796995
 30
0.0
 10
392.7522015730888
 20
411.3234651404909
 30
0.0
 10
391.755564463682
 20
411.4667032156781
 30
0.0
 10
390.7643235004571
 20
411.6210789093745
 30
0.0
 10
389.7784111944284
 20
411.786904405783
 30
0.0
 10
388.7976478448693
 20
411.9648355503983
 30
0.0
 10
387.8218375642085
 20
412.1554788365124
 30
0.0
 10
386.8509206667543
 20
412.3594637724382
 30
0.0
 10
385.8850857618878
 20
412.5773887568128
 30
0.0
 10
384.022488175942
 20
413.0281333934632
 30
0.0
 10
381.2951488180568
 20
413.8024783718921
 30
0.0
 10
378.9034007565308
 20
414.672280908888
 30
0.0
 10
377.7156993804852
 20
415.1629448995716
 30
0.0
 10
377.6802209580235
 20
415.1776017693028
 30
0.0
  0
SPLINE
  5
E0
330
1F
100
AcDbEntity
  8
0
  6
Continuous
 62
     7
370
    15
100
AcDbSpline
210
0.0
220
0.0
230
1.0
 70
     8
 71
     3
 72
    13
 73
     9
 74
     0
 42
0.00000001
 43
0.00000001
 40
0.0
 40
0.0
 40
0.0
 40
0.0
 40
0.1939440548780429
 40
0.3574728190014605
 40
0.5200025563769257
 40
0.6822871404720566
 40
0.8449294528564698
 40
1.0
 40
1.0
 40
1.0
 40
1.0
 10
335.5592356134222
 20
403.6306041004067
 30
0.0
 10
335.6100345217343
 20
400.3674776393681
 30
0.0
 10
335.7036657958041
 20
394.3529647659561
 30
0.0
 10
335.1794355789071
 20
385.6125153513177
 30
0.0
 10
334.0781107592227
 20
377.4627006956965
 30
0.0
 10
332.2854204888654
 20
369.4517053273577
 30
0.0
 10
329.9363323877753
 20
361.7183679171075
 30
0.0
 10
328.0456064390346
 20
356.7183653465219
 30
0.0
 10
327.1227734513949
 20
354.2779443465921
 30
0.0
  0
SPLINE
  5
E1
330
1F
100
AcDbEntity
  8
0
  6
Continuous
 62
     7
370
    15
100
AcDbSpline
210
0.0
220
0.0
230
1.0
 70
     8
 71
     3
 72
     9
 73
     5
 74
     0
 42
0.00000001
 43
0.00000001
 40
0.0
 40
0.0
 40
0.0
 40
0.0
 40
0.4999715962574712
 40
1.0
 40
1.0
 40
1.0
 40
1.0
 10
321.9201988447988
 20
341.5636583952661
 30
0.0
 10
321.6649481154379
 20
340.9608348654232
 30
0.0
 10
321.1544176547646
 20
339.755119312069
 30
0.0
 10
320.6424672755148
 20
338.5500059977461
 30
0.0
 10
320.386477544583
 20
337.9474151108563
 30
0.0
  0
SPLINE
  5
E2
330
1F
100
AcDbEntity
  8
0
  6
Continuous
 62
     7
370
    15
100
AcDbSpline
210
0.0
220
0.0
230
1.0
 70
     8
 71
     3
 72
    26
 73
    22
 74
     0
 42
0.00000001
 43
0.00000001
 40
0.0
 40
0.0
 40
0.0
 40
0.0
 40
0.0647389463760954
 40
0.1304317179788495
 40
0.1751907725320214
 40
0.2202400011837604
 40
0.2661631926917735
 40
0.3123701564619063
 40
0.3600112684232656
 40
0.4079303517868714
 40
0.456662580136764
 40
0.5056501328685965
 40
0.5598672054788578
 40
0.6143818243958209
 40
0.6697554148385698
 40
0.725395093855986
 40
0.7893765549510212
 40
0.853705190230604
 40
0.9190441651073789
 40
0.9847005451226308
 40
1.0
 40
1.0
 40
1.0
 40
1.0
 10
321.9201988698545
 20
341.5636583323592
 30
0.0
 10
321.9212814325861
 20
341.5656593714646
 30
0.0
 10
321.9234625078865
 20
341.5696909317981
 30
0.0
 10
321.9386198628408
 20
341.599998822223
 30
0.0
 10
321.9583292152391
 20
341.6397421878142
 30
0.0
 10
321.9803005030086
 20
341.6842881148752
 30
0.0
 10
322.0069476332002
 20
341.7385961948302
 30
0.0
 10
322.0383817170544
 20
341.8030125108276
 30
0.0
 10
322.0742999029803
 20
341.8770575335445
 30
0.0
 10
322.1146228537997
 20
341.9607276873218
 30
0.0
 10
322.158735077362
 20
342.0529107529227
 30
0.0
 10
322.207902891065
 20
342.1564448646467
 30
0.0
 10
322.2619237189414
 20
342.2711668950769
 30
0.0
 10
322.3208560806247
 20
342.3975047919456
 30
0.0
 10
322.3825716789722
 20
342.5311312648329
 30
0.0
 10
322.4497421919446
 20
342.6780836953628
 30
0.0
 10
322.5220266853439
 20
342.8380669012919
 30
0.0
 10
322.5994251384432
 20
343.0114856291032
 30
0.0
 10
322.6782691973266
 20
343.1906905523445
 30
0.0
 10
322.737636354342
 20
343.3267582865498
 30
0.0
 10
322.7703877950793
 20
343.4032907458312
 30
0.0
 10
322.77657733275
 20
343.4177542481715
 30
0.0
  0
SPLINE
  5
E3
330
1F
100
AcDbEntity
  8
0
  6
Continuous
 62
     7
370
    15
100
AcDbSpline
210
0.0
220
0.0
230
1.0
 70
     8
 71
     3
 72
    10
 73
     6
 74
     0
 42
0.00000001
 43
0.00000001
 40
0.0
 40
0.0
 40
0.0
 40
0.0
 40
0.5
 40
0.5
 40
1.0
 40
1.0
 40
1.0
 40
1.0
 10
336.0051288362798
 20
404.2253101600695
 30
0.0
 10
335.8854665982375
 20
404.1932467600216
 30
0.0
 10
335.76258902758
 20
404.1159870835311
 30
0.0
 10
335.5961973127235
 20
403.8940636352486
 30
0.0
 10
335.5564747077186
 20
403.7544567946443
 30
0.0
 10
335.5592356134845
 20
403.6306040976081
 30
0.0
  0
SPLINE
  5
E4
330
1F
100
AcDbEntity
  8
0
  6
Continuous
 62
     7
370
    15
100
AcDbSpline
210
0.0
220
0.0
230
1.0
 70
    24
 71
     3
 72
    39
 73
    35
 74
     0
 42
0.00000001
 43
0.00000001
 40
0.0
 40
0.0
 40
0.0
 40
0.0
 40
0.0154095902943683
 40
0.0306328386482258
 40
0.0456725319976125
 40
0.0605315605607914
 40
0.0752129212551061
 40
0.0897197211099735
 40
0.1040551806568183
 40
0.1182226372742455
 40
0.1322255484641216
 40
0.146067495031489
 40
0.159752184138428
 40
0.173283452199135
 40
0.1866652675806617
 40
0.1999017330710123
 40
0.2129970880737083
 40
0.2259557104855797
 40
0.238782118212519
 40
0.2514809702763609
 40
0.3151785619822791
 40
0.3764137568746401
 40
0.4387422852474799
 40
0.5004411972701583
 40
0.5619419455723027
 40
0.624941524318302
 40
0.6857892433177808
 40
0.7498220407913785
 40
0.8101789622809963
 40
0.8745961111583861
 40
0.9037978184174088
 40
0.9344219067745124
 40
0.9664845915299654
 40
1.0
 40
1.0
 40
1.0
 40
1.0
 10
336.0051288362798
 20
404.2253101600694
 30
0.0
 10
336.0060937467454
 20
404.2255687070494
 30
0.0
 10
336.0080118994049
 20
404.2260826745056
 30
0.0
 10
336.0231950590409
 20
404.2301509898685
 30
0.0
 10
336.0474243808422
 20
404.2366432170783
 30
0.0
 10
336.0815530698488
 20
404.2457879717364
 30
0.0
 10
336.125356847302
 20
404.2575251585304
 30
0.0
 10
336.1788949622223
 20
404.2718706531875
 30
0.0
 10
336.2421520731723
 20
404.2888203449822
 30
0.0
 10
336.3151324866071
 20
404.3083753878253
 30
0.0
 10
336.3978353564641
 20
404.3305355550153
 30
0.0
 10
336.4902612099323
 20
404.3553009878118
 30
0.0
 10
336.5924102358938
 20
404.3826717368258
 30
0.0
 10
336.7042827110423
 20
404.4126478761971
 30
0.0
 10
336.8258789748604
 20
404.4452294968899
 30
0.0
 10
336.9571991119871
 20
404.4804166215828
 30
0.0
 10
337.0982442205625
 20
404.518209544522
 30
0.0
 10
337.2490117191917
 20
404.5586075740246
 30
0.0
 10
337.4095125894866
 20
404.6016136526046
 30
0.0
 10
337.8080631945682
 20
404.7084049653791
 30
0.0
 10
338.5494544887376
 20
404.9070601639273
 30
0.0
 10
339.8673562661656
 20
405.2601908808926
 30
0.0
 10
341.4887694544714
 20
405.6946472352964
 30
0.0
 10
343.4230448990155
 20
406.2129347786013
 30
0.0
 10
345.6423850682738
 20
406.807605184684
 30
0.0
 10
348.0823344452944
 20
407.4613876498295
 30
0.0
 10
350.7329945747035
 20
408.1716298909141
 30
0.0
 10
353.4729096916615
 20
408.9057879338328
 30
0.0
 10
356.3523953724031
 20
409.6773437966045
 30
0.0
 10
358.7477396350716
 20
410.319174357381
 30
0.0
 10
360.6981603491416
 20
410.8417880126171
 30
0.0
 10
362.1474972725579
 20
411.230136670807
 30
0.0
 10
363.6702017011489
 20
411.6381440927592
 30
0.0
 10
364.7118832288868
 20
411.917261816887
 30
0.0
 10
365.2442619575239
 20
412.0599122672929
 30
0.0
  0
SPLINE
  5
E5
330
1F
100
AcDbEntity
  8
0
  6
Continuous
 62
     7
370
    15
100
AcDbSpline
210
0.0
220
0.0
230
1.0
 70
    24
 71
     3
 72
    19
 73
    15
 74
     0
 42
0.00000001
 43
0.00000001
 40
0.0
 40
0.0
 40
0.0
 40
0.0
 40
0.0546606797758744
 40
0.1116051014007833
 40
0.1714383176585043
 40
0.2346825249363207
 40
0.3017803275349755
 40
0.3731026231082901
 40
0.4489583674592444
 40
0.5296044301600199
 40
0.6457455474174688
 40
0.7711430905442257
 40
0.8980885850169877
 40
1.0
 40
1.0
 40
1.0
 40
1.0
 10
365.2442619575247
 20
412.059912267293
 30
0.0
 10
365.2712172171943
 20
412.0671349073534
 30
0.0
 10
365.3262539364787
 20
412.0818819518396
 30
0.0
 10
365.4112175247919
 20
412.1046478767142
 30
0.0
 10
365.4995223469855
 20
412.1283090825087
 30
0.0
 10
365.5912885542644
 20
412.1528977636416
 30
0.0
 10
365.6864934929524
 20
412.1784078500785
 30
0.0
 10
365.785159441594
 20
412.2048453113375
 30
0.0
 10
365.8873014605966
 20
412.2322141828425
 30
0.0
 10
366.0062106925311
 20
412.2640758155119
 30
0.0
 10
366.142315931391
 20
412.3005451043502
 30
0.0
 10
366.2921149994268
 20
412.3406836436572
 30
0.0
 10
366.4325943315411
 20
412.3783249672506
 30
0.0
 10
366.512700736699
 20
412.3997894138212
 30
0.0
 10
366.5483726205773
 20
412.4093476662989
 30
0.0
  0
SPLINE
  5
E6
330
1F
100
AcDbEntity
  8
0
  6
Continuous
 62
     7
370
    15
100
AcDbSpline
210
0.0
220
0.0
230
1.0
 70
    24
 71
     3
 72
    14
 73
    10
 74
     0
 42
0.00000001
 43
0.00000001
 40
0.0
 40
0.0
 40
0.0
 40
0.0
 40
0.25
 40
0.25
 40
0.5
 40
0.5
 40
0.75
 40
0.75
 40
1.0
 40
1.0
 40
1.0
 40
1.0
 10
364.8034607656458
 20
413.2790762694064
 30
0.0
 10
364.7243640822646
 20
413.2578823769704
 30
0.0
 10
364.6310008067129
 20
413.2328657626836
 30
0.0
 10
364.4239824214934
 20
413.1773953535456
 30
0.0
 10
364.3150606661366
 20
413.1482098571596
 30
0.0
 10
364.0888628117116
 20
413.0876003247368
 30
0.0
 10
363.9701239856563
 20
413.055784352185
 30
0.0
 10
363.7334362611422
 20
412.9923640675431
 30
0.0
 10
363.615109483918
 20
412.960658503143
 30
0.0
 10
363.4968003245774
 20
412.9289576594404
 30
0.0
  0
SPLINE
  5
E7
330
1F
100
AcDbEntity
  8
0
  6
Continuous
 62
     7
370
    15
100
AcDbSpline
210
0.0
220
0.0
230
1.0
 70
    24
 71
     3
 72
     8
 73
     4
 74
     0
 42
0.00000001
 43
0.00000001
 40
0.0
 40
0.0
 40
0.0
 40
0.0
 40
0.0002926519410579
 40
0.0002926519410579
 40
0.0002926519410579
 40
0.0002926519410579
 10
363.4968003245774
 20
412.9289576594404
 30
0.0
 10
363.4035533501535
 20
412.9039722079469
 30
0.0
 10
363.3103308132507
 20
412.8789933044674
 30
0.0
 10
363.2171341290676
 20
412.8540213282033
 30
0.0
  0
SPLINE
  5
E8
330
1F
100
AcDbEntity
  8
0
  6
Continuous
 62
     7
370
    15
100
AcDbSpline
210
0.0
220
0.0
230
1.0
 70
     8
 71
     3
 72
    17
 73
    13
 74
     0
 42
0.00000001
 43
0.00000001
 40
0.0
 40
0.0
 40
0.0
 40
0.0
 40
0.0620732113322737
 40
0.1121655219123308
 40
0.2240646838361422
 40
0.2799652367303818
 40
0.3917051059890375
 40
0.4475501378148974
 40
0.7848355265350493
 40
0.8945839876150579
 40
0.9487306676707368
 40
1.0
 40
1.0
 40
1.0
 40
1.0
 10
394.7595403219356
 20
411.0692222026221
 30
0.0
 10
395.3720876045512
 20
410.9952314231269
 30
0.0
 10
396.5724880448447
 20
410.870561879443
 30
0.0
 10
399.2800466624243
 20
410.6495502383214
 30
0.0
 10
402.316078684249
 20
410.4688190360624
 30
0.0
 10
406.6524401785537
 20
410.2670260585921
 30
0.0
 10
410.4341570065483
 20
410.1235848698344
 30
0.0
 10
419.5186446818248
 20
409.8122585053332
 30
0.0
 10
429.6337976632008
 20
409.4995549347003
 30
0.0
 10
439.565975075606
 20
408.9637236815748
 30
0.0
 10
443.7370650809856
 20
408.6870663011859
 30
0.0
 10
445.7405186697009
 20
408.5350714511285
 30
0.0
 10
446.702997636054
 20
408.4568624404708
 30
0.0
  0
SPLINE
  5
E9
330
1F
100
AcDbEntity
  8
0
  6
Continuous
 62
     7
370
    15
100
AcDbSpline
210
0.0
220
0.0
230
1.0
 70
    24
 71
     3
 72
    20
 73
    16
 74
     0
 42
0.00000001
 43
0.00000001
 40
0.0
 40
0.0
 40
0.0
 40
0.0
 40
0.125
 40
0.125
 40
0.25
 40
0.25
 40
0.5000000000000001
 40
0.5000000000000001
 40
0.5625000000000001
 40
0.5625000000000001
 40
0.6250000000000001
 40
0.6250000000000001
 40
0.7500000000000001
 40
0.7500000000000001
 40
1.0
 40
1.0
 40
1.0
 40
1.0
 10
374.9621120686424
 20
416.0010786822337
 30
0.0
 10
374.9647488273028
 20
416.0017851995873
 30
0.0
 10
374.9281382776399
 20
415.9919754323707
 30
0.0
 10
374.7681387945107
 20
415.9491037000769
 30
0.0
 10
374.6442812419373
 20
415.9159161688884
 30
0.0
 10
374.1237702381637
 20
415.7764456657758
 30
0.0
 10
373.5792137556991
 20
415.6305321960662
 30
0.0
 10
372.5728213503822
 20
415.3608701637927
 30
0.0
 10
372.3551803809921
 20
415.3025534418049
 30
0.0
 10
371.8849178821324
 20
415.1765469850048
 30
0.0
 10
371.6316482526441
 20
415.1086835923159
 30
0.0
 10
370.8252550968788
 20
414.8926111974466
 30
0.0
 10
370.2236165432925
 20
414.7314026328777
 30
0.0
 10
368.2252175973821
 20
414.1959332491657
 30
0.0
 10
366.6326932135431
 20
413.7692176265892
 30
0.0
 10
364.8034607656458
 20
413.2790762694064
 30
0.0
  0
LINE
  5
EA
330
1F
100
AcDbEntity
  8
0
  6
Continuous
 62
     7
370
    15
100
AcDbLine
 10
377.6802209602
 20
415.1776017684
 30
0.0
 11
377.5656253136
 21
415.2043128379
 31
0.0
  0
SPLINE
  5
EB
330
1F
100
AcDbEntity
  8
0
  6
Continuous
 62
     7
370
    15
100
AcDbSpline
210
0.0
220
0.0
230
1.0
 70
    24
 71
     3
 72
    30
 73
    26
 74
     0
 42
0.00000001
 43
0.00000001
 40
0.0
 40
0.0
 40
0.0
 40
0.0
 40
0.0196111229243043
 40
0.0391257285703508
 40
0.0585485752750214
 40
0.0778844891176459
 40
0.0971383615481341
 40
0.1163151467957573
 40
0.1354198590605701
 40
0.1544575694910015
 40
0.1734334029527619
 40
0.1923525345958326
 40
0.211220186227953
 40
0.2300416225046596
 40
0.2488221469475245
 40
0.373265617576865
 40
0.5001028736021198
 40
0.6219262319475204
 40
0.7492307855643268
 40
0.7896311615580694
 40
0.8305605513772906
 40
0.8720411941379923
 40
0.9140944544044378
 40
0.9567408361567399
 40
1.0
 40
1.0
 40
1.0
 40
1.0
 10
366.5483726205802
 20
412.4093476662996
 30
0.0
 10
366.6927745304681
 20
412.4480400414396
 30
0.0
 10
366.9808676678741
 20
412.5252343649525
 30
0.0
 10
367.4024307800363
 20
412.6381918604152
 30
0.0
 10
367.8148273732991
 20
412.7486931945411
 30
0.0
 10
368.217389448845
 20
412.8565593775871
 30
0.0
 10
368.6102945814303
 20
412.9618379905654
 30
0.0
 10
368.9934953324069
 20
413.0645163223286
 30
0.0
 10
369.3670041470843
 20
413.1645977075873
 30
0.0
 10
369.7308175764728
 20
413.2620812221875
 30
0.0
 10
370.0849362115875
 20
413.3569670244913
 30
0.0
 10
370.429360293894
 20
413.4492551791992
 30
0.0
 10
370.7640874669666
 20
413.5389450549087
 30
0.0
 10
371.0891260872216
 20
413.6260388907151
 30
0.0
 10
371.9959352090678
 20
413.8690176626029
 30
0.0
 10
373.3421501549783
 20
414.2297348701983
 30
0.0
 10
374.7920293716513
 20
414.6182288354285
 30
0.0
 10
375.8593394721295
 20
414.9042137149253
 30
0.0
 10
376.4062599186545
 20
415.0507606068956
 30
0.0
 10
376.6831900792145
 20
415.1249638197776
 30
0.0
 10
376.8144187161696
 20
415.1601264270735
 30
0.0
 10
376.9160008135546
 20
415.1873452680333
 30
0.0
 10
376.9872990440452
 20
415.206449571315
 30
0.0
 10
377.030894174505
 20
415.2181308513157
 30
0.0
 10
377.0348795579677
 20
415.219198731596
 30
0.0
 10
377.0368864639828
 20
415.219736480442
 30
0.0
  0
SPLINE
  5
EC
330
1F
100
AcDbEntity
  8
0
  6
Continuous
 62
     7
370
    15
100
AcDbSpline
210
0.0
220
0.0
230
1.0
 70
     8
 71
     3
 72
    24
 73
    20
 74
     0
 42
0.00000001
 43
0.00000001
 40
0.0
 40
0.0
 40
0.0
 40
0.0
 40
0.0456516848636719
 40
0.0929504206881559
 40
0.1418961060895381
 40
0.1924886360349571
 40
0.24472790185376
 40
0.2986137912471232
 40
0.35414618829575
 40
0.4113249734665241
 40
0.4701500236183991
 40
0.5306212120069774
 40
0.59273840828904
 40
0.6565014785263344
 40
0.7219102851890982
 40
0.7889646871597928
 40
0.857664539736474
 40
0.928009694636436
 40
1.0
 40
1.0
 40
1.0
 40
1.0
 10
469.4307993056461
 20
402.3516569061099
 30
0.0
 10
469.4530273727336
 20
402.3892727224138
 30
0.0
 10
469.4982854654643
 20
402.4658614827281
 30
0.0
 10
469.5548155873183
 20
402.5895273420716
 30
0.0
 10
469.6028392528438
 20
402.7216713834341
 30
0.0
 10
469.6399328691646
 20
402.8622569410789
 30
0.0
 10
469.6648008127268
 20
403.0103049801134
 30
0.0
 10
469.6758476082146
 20
403.1647864562107
 30
0.0
 10
469.6716257008524
 20
403.3243516602064
 30
0.0
 10
469.6507616707627
 20
403.4873926506632
 30
0.0
 10
469.6120350764318
 20
403.6520188352125
 30
0.0
 10
469.554420331723
 20
403.8160667999432
 30
0.0
 10
469.4771417671398
 20
403.9771062453729
 30
0.0
 10
469.379734381578
 20
404.132476819169
 30
0.0
 10
469.2620797416571
 20
404.279260223388
 30
0.0
 10
469.1245429751829
 20
404.4145545060739
 30
0.0
 10
468.967709496567
 20
404.5346359996041
 30
0.0
 10
468.793652687636
 20
404.6384872535083
 30
0.0
 10
468.6668500281206
 20
404.6885859059282
 30
0.0
 10
468.6027158892172
 20
404.7139247587995
 30
0.0
  0
SPLINE
  5
ED
330
1F
100
AcDbEntity
  8
0
  6
Continuous
 62
     7
370
    15
100
AcDbSpline
210
0.0
220
0.0
230
1.0
 70
    24
 71
     3
 72
    30
 73
    26
 74
     0
 42
0.00000001
 43
0.00000001
 40
0.0
 40
0.0
 40
0.0
 40
0.0
 40
0.1250000000000004
 40
0.1250000000000004
 40
0.1875000000000004
 40
0.1875000000000004
 40
0.2500000000000006
 40
0.2500000000000006
 40
0.3125000000000006
 40
0.3125000000000006
 40
0.3437500000000005
 40
0.3437500000000005
 40
0.3750000000000003
 40
0.3750000000000003
 40
0.5000000000000001
 40
0.5000000000000001
 40
0.5625000000000001
 40
0.5625000000000001
 40
0.625
 40
0.625
 40
0.7499999999999999
 40
0.7499999999999999
 40
0.875
 40
0.875
 40
1.0
 40
1.0
 40
1.0
 40
1.0
 10
349.46233792855
 20
412.3736932607254
 30
0.0
 10
348.1712699922643
 20
412.6246514453074
 30
0.0
 10
346.9323317177841
 20
412.865476650112
 30
0.0
 10
345.1754997391757
 20
413.2069701932292
 30
0.0
 10
344.610109555015
 20
413.3168709120139
 30
0.0
 10
343.5373741796356
 20
413.5253895459106
 30
0.0
 10
343.0276963940692
 20
413.6244608714331
 30
0.0
 10
342.0628275061308
 20
413.8120123841547
 30
0.0
 10
341.6076380524383
 20
413.900492250883
 30
0.0
 10
340.9659718075285
 20
414.0252195339363
 30
0.0
 10
340.7589298456921
 20
414.0654644144839
 30
0.0
 10
340.3585056189799
 20
414.1432989994613
 30
0.0
 10
340.164700177571
 20
414.1809709610761
 30
0.0
 10
339.2402010188114
 20
414.3606753933598
 30
0.0
 10
338.6344265370283
 20
414.4784260244009
 30
0.0
 10
337.8794844491213
 20
414.6251719008346
 30
0.0
 10
337.6535612216947
 20
414.6690869276247
 30
0.0
 10
337.2464870370178
 20
414.748214133487
 30
0.0
 10
337.0657804708464
 20
414.7833399316839
 30
0.0
 10
336.5865474985255
 20
414.876493384996
 30
0.0
 10
336.3472473167158
 20
414.9230086283146
 30
0.0
 10
335.9825822642487
 20
414.9938923339474
 30
0.0
 10
335.857597654176
 20
415.0181868810917
 30
0.0
 10
335.6964577911002
 20
415.0495092974919
 30
0.0
 10
335.6605557322802
 20
415.0564879507842
 30
0.0
 10
335.6623143764218
 20
415.0561461049923
 30
0.0
  0
LINE
  5
EE
330
1F
100
AcDbEntity
  8
0
  6
Continuous
 62
     7
370
    15
100
AcDbLine
 10
469.4307997337
 20
402.3516569195
 30
0.0
 11
469.2400331417
 21
402.0760806218
 31
0.0
  0
LINE
  5
EF
330
1F
100
AcDbEntity
  8
0
  6
Continuous
 62
     7
370
    15
100
AcDbLine
 10
453.8831936269
 20
389.3149436286
 30
0.0
 11
453.3198333595
 21
389.0246985727
 31
0.0
  0
SPLINE
  5
F0
330
1F
100
AcDbEntity
  8
0
  6
Continuous
 62
     7
370
    15
100
AcDbSpline
210
0.0
220
0.0
230
1.0
 70
     8
 71
     3
 72
    26
 73
    22
 74
     0
 42
0.00000001
 43
0.00000001
 40
0.0
 40
0.0
 40
0.0
 40
0.0
 40
0.1250000000000011
 40
0.1250000000000011
 40
0.1875000000000017
 40
0.1875000000000017
 40
0.2500000000000022
 40
0.2500000000000022
 40
0.3750000000000034
 40
0.3750000000000034
 40
0.4375000000000031
 40
0.4375000000000031
 40
0.5000000000000028
 40
0.5000000000000028
 40
0.6250000000000021
 40
0.6250000000000021
 40
0.7500000000000014
 40
0.7500000000000014
 40
0.8750000000000008
 40
0.8750000000000008
 40
1.0
 40
1.0
 40
1.0
 40
1.0
 10
453.3198333573329
 20
389.0246985779591
 30
0.0
 10
453.3199986425112
 20
389.024244460663
 30
0.0
 10
453.2812702824556
 20
389.0096827615437
 30
0.0
 10
453.1636222604329
 20
388.9667763480762
 30
0.0
 10
453.1141150943919
 20
388.9488375482679
 30
0.0
 10
452.9963053833447
 20
388.9065068737071
 30
0.0
 10
452.9280452478541
 20
388.8821295600571
 30
0.0
 10
452.6957552379288
 20
388.7998595146133
 30
0.0
 10
452.504401016993
 20
388.7328858314852
 30
0.0
 10
452.1614037398748
 20
388.6152048399788
 30
0.0
 10
452.0370481354992
 20
388.5728759423222
 30
0.0
 10
451.7724504407929
 20
388.4836519426707
 30
0.0
 10
451.6324168340579
 20
388.4368239344114
 30
0.0
 10
451.1896203839605
 20
388.2900854331152
 30
0.0
 10
450.8643014840941
 20
388.1839936820722
 30
0.0
 10
450.1526248757989
 20
387.9556384478192
 30
0.0
 10
449.7645212487926
 20
387.8328641485811
 30
0.0
 10
448.9550259896479
 20
387.5792859777273
 30
0.0
 10
448.5305141612095
 20
387.4474646868479
 30
0.0
 10
447.6422547409739
 20
387.1719609941501
 30
0.0
 10
447.1767549897451
 20
387.0277181194328
 30
0.0
 10
446.7029976360412
 20
386.8796916892216
 30
0.0
  0
LINE
  5
F1
330
1F
100
AcDbEntity
  8
0
  6
Continuous
 62
     7
370
    15
100
AcDbLine
 10
468.6027167028
 20
404.7139244255
 30
0.0
 11
468.6027158892
 21
404.7139247588
 31
0.0
  0
SPLINE
  5
F2
330
1F
100
AcDbEntity
  8
0
  6
Continuous
 62
     7
370
    15
100
AcDbSpline
210
0.0
220
0.0
230
1.0
 70
     8
 71
     3
 72
    16
 73
    12
 74
     0
 42
0.00000001
 43
0.00000001
 40
0.0
 40
0.0
 40
0.0
 40
0.0
 40
0.1249999999999993
 40
0.1249999999999993
 40
0.2499999999999987
 40
0.2499999999999987
 40
0.4999999999999991
 40
0.4999999999999991
 40
0.7499999999999996
 40
0.7499999999999996
 40
1.0
 40
1.0
 40
1.0
 40
1.0
 10
468.6027167028407
 20
404.713924425523
 30
0.0
 10
467.7263618690841
 20
405.0230475146533
 30
0.0
 10
466.8429011026531
 20
405.309816888702
 30
0.0
 10
465.0568784527256
 20
405.8232676866044
 30
0.0
 10
464.1554353477097
 20
406.0510432100599
 30
0.0
 10
461.4400868471565
 20
406.6629955546993
 30
0.0
 10
459.6119004723748
 20
406.9803677068844
 30
0.0
 10
455.9371385568166
 20
407.5223202936916
 30
0.0
 10
454.0939336503302
 20
407.7453575879479
 30
0.0
 10
450.4022789455897
 20
408.1370914369716
 30
0.0
 10
448.5534508882851
 20
408.3051834722258
 30
0.0
 10
446.7027101136974
 20
408.4555711640433
 30
0.0
  0
LINE
  5
F3
330
1F
100
AcDbEntity
  8
0
  6
Continuous
 62
     7
370
    15
100
AcDbLine
 10
344.7215887511
 20
310.7754934616
 30
0.0
 11
322.4432916431
 21
310.7754934616
 31
0.0
  0
LINE
  5
F4
330
1F
100
AcDbEntity
  8
0
  6
Continuous
 62
     7
370
    15
100
AcDbLine
 10
363.4994455546
 20
310.7754934616
 30
0.0
 11
344.7215887511
 21
310.7754934616
 31
0.0
  0
LINE
  5
F5
330
1F
100
AcDbEntity
  8
0
  6
Continuous
 62
     7
370
    15
100
AcDbLine
 10
322.4432916431
 20
310.7754934616
 30
0.0
 11
309.3075101374
 21
310.7754934616
 31
0.0
  0
SPLINE
  5
F6
330
1F
100
AcDbEntity
  8
0
  6
Continuous
 62
     7
370
    15
100
AcDbSpline
210
0.0
220
0.0
230
1.0
 70
     8
 71
     3
 72
    28
 73
    24
 74
     0
 42
0.00000001
 43
0.00000001
 40
0.0
 40
0.0
 40
0.0
 40
0.0
 40
0.1249999999999997
 40
0.1249999999999997
 40
0.2499999999999993
 40
0.2499999999999993
 40
0.3124999999999994
 40
0.3124999999999994
 40
0.3749999999999996
 40
0.3749999999999996
 40
0.5
 40
0.5
 40
0.5624999999999999
 40
0.5624999999999999
 40
0.6249999999999999
 40
0.6249999999999999
 40
0.7499999999999998
 40
0.7499999999999998
 40
0.8749999999999998
 40
0.8749999999999998
 40
0.9374999999999998
 40
0.9374999999999998
 40
1.0
 40
1.0
 40
1.0
 40
1.0
 10
327.816725206701
 20
351.639873747987
 30
0.0
 10
327.5123931939761
 20
350.9925096580827
 30
0.0
 10
327.198543247441
 20
350.3603486546917
 30
0.0
 10
326.5529564061758
 20
349.1274296681585
 30
0.0
 10
326.2212229313702
 20
348.5266163370331
 30
0.0
 10
325.7115851381868
 20
347.6510508747494
 30
0.0
 10
325.5397041744021
 20
347.363490530813
 30
0.0
 10
325.1922490035229
 20
346.7976711833022
 30
0.0
 10
325.0158416580701
 20
346.5181486731757
 30
0.0
 10
324.4889524040869
 20
345.7062253011278
 30
0.0
 10
324.1410137389968
 20
345.2005568239553
 30
0.0
 10
323.6336751807627
 20
344.503645798273
 30
0.0
 10
323.4660857103599
 20
344.280440653765
 30
0.0
 10
323.1430227135157
 20
343.8629530940498
 30
0.0
 10
322.9885380891808
 20
343.6698564639983
 30
0.0
 10
322.549820733009
 20
343.1380321128835
 30
0.0
 10
322.2894610869531
 20
342.8461344670154
 30
0.0
 10
321.8614215817312
 20
342.3964623766141
 30
0.0
 10
321.7035376179614
 20
342.2484331527907
 30
0.0
 10
321.5473950041347
 20
342.1101488307016
 30
0.0
 10
321.5087356602652
 20
342.0779733338907
 30
0.0
 10
321.4580498502808
 20
342.0369013383402
 30
0.0
 10
321.4458143582347
 20
342.027809886339
 30
0.0
 10
321.4456640399312
 20
342.027455758608
 30
0.0
  0
SPLINE
  5
F7
330
1F
100
AcDbEntity
  8
0
  6
Continuous
 62
     7
370
    15
100
AcDbSpline
210
0.0
220
0.0
230
1.0
 70
     8
 71
     3
 72
    10
 73
     6
 74
     0
 42
0.00000001
 43
0.00000001
 40
0.0
 40
0.0
 40
0.0
 40
0.0
 40
0.5
 40
0.5
 40
1.0
 40
1.0
 40
1.0
 40
1.0
 10
321.0561155669586
 20
341.8659763615004
 30
0.0
 10
321.128333971113
 20
341.8368435515528
 30
0.0
 10
321.2119712553798
 20
341.8372423223476
 30
0.0
 10
321.3558458591227
 20
341.8968825704601
 30
0.0
 10
321.4152365555439
 20
341.9557730976604
 30
0.0
 10
321.4456639807079
 20
342.0274556180435
 30
0.0
  0
LINE
  5
F8
330
1F
100
AcDbEntity
  8
0
  6
Continuous
 62
     7
370
    15
100
AcDbLine
 10
308.7698482135
 20
352.9200198356
 30
0.0
 11
308.747964382
 21
352.9200389387
 31
0.0
  0
SPLINE
  5
F9
330
1F
100
AcDbEntity
  8
0
  6
Continuous
 62
     7
370
    15
100
AcDbSpline
210
0.0
220
0.0
230
1.0
 70
     8
 71
     3
 72
     9
 73
     5
 74
     0
 42
0.00000001
 43
0.00000001
 40
0.0
 40
0.0
 40
0.0
 40
0.0
 40
0.9644874384296247
 40
1.0
 40
1.0
 40
1.0
 40
1.0
 10
308.1860777312158
 20
351.2617508046425
 30
0.0
 10
308.4039784000941
 20
350.8298301360585
 30
0.0
 10
308.629902201894
 20
350.3820060884098
 30
0.0
 10
308.9618548495621
 20
350.0132540514623
 30
0.0
 10
308.9736433384009
 20
350.0001587220459
 30
0.0
  0
LINE
  5
FA
330
1F
100
AcDbEntity
  8
0
  6
Continuous
 62
     7
370
    15
100
AcDbLine
 10
320.3373523335
 20
342.1976547291
 30
0.0
 11
321.0561155094
 21
341.8659762186
 31
0.0
  0
LINE
  5
FB
330
1F
100
AcDbEntity
  8
0
  6
Continuous
 62
     7
370
    15
100
AcDbLine
 10
308.7479635746
 20
352.9200385681
 30
0.0
 11
308.7488623377
 21
352.9195688924
 31
0.0
  0
LINE
  5
FC
330
1F
100
AcDbEntity
  8
0
  6
Continuous
 62
     7
370
    15
100
AcDbLine
 10
453.3300766781
 20
388.9965552856
 30
0.0
 11
435.9878614229
 21
382.6845051365
 31
0.0
  0
SPLINE
  5
FD
330
1F
100
AcDbEntity
  8
0
  6
Continuous
 62
     7
370
    15
100
AcDbSpline
210
0.0
220
0.0
230
1.0
 70
     8
 71
     3
 72
    13
 73
     9
 74
     0
 42
0.00000001
 43
0.00000001
 40
0.0
 40
0.0
 40
0.0
 40
0.0
 40
0.1107804000184623
 40
0.2233874002097655
 40
0.3378355301357828
 40
0.4541377466616582
 40
0.7208652291572074
 40
0.9999999999999999
 40
0.9999999999999999
 40
0.9999999999999999
 40
0.9999999999999999
 10
453.0059094777735
 20
388.8785680738004
 30
0.0
 10
452.7774329844351
 20
388.773946573318
 30
0.0
 10
452.3167127681569
 20
388.562978523059
 30
0.0
 10
451.6152928797138
 20
388.2542618001073
 30
0.0
 10
450.8992361810767
 20
387.9478362939114
 30
0.0
 10
449.8568465625578
 20
387.5155756567904
 30
0.0
 10
448.4603911815294
 20
386.961907684821
 30
0.0
 10
447.2976054105704
 20
386.5362548646338
 30
0.0
 10
446.7029976359334
 20
386.3185909728829
 30
0.0
  0
SPLINE
  5
FE
330
1F
100
AcDbEntity
  8
0
  6
Continuous
 62
     7
370
    15
100
AcDbSpline
210
0.0
220
0.0
230
1.0
 70
     8
 71
     3
 72
     9
 73
     5
 74
     0
 42
0.00000001
 43
0.00000001
 40
0.0
 40
0.0
 40
0.0
 40
0.0
 40
0.7352740304370562
 40
0.9999999999999999
 40
0.9999999999999999
 40
0.9999999999999999
 40
0.9999999999999999
 10
446.7029976359334
 20
386.3185909728829
 30
0.0
 10
445.0534378677492
 20
385.7444108725041
 30
0.0
 10
442.8099752947493
 20
384.9635046027186
 30
0.0
 10
440.5308802015884
 20
384.2953186886707
 30
0.0
 10
439.9275445433252
 20
384.1184325247261
 30
0.0
  0
SPLINE
  5
FF
330
1F
100
AcDbEntity
  8
0
  6
Continuous
 62
     7
370
    15
100
AcDbSpline
210
0.0
220
0.0
230
1.0
 70
     8
 71
     3
 72
     9
 73
     5
 74
     0
 42
0.00000001
 43
0.00000001
 40
0.0
 40
0.0
 40
0.0
 40
0.0
 40
0.25785418673677
 40
1.0
 40
1.0
 40
1.0
 40
1.0
 10
321.9250713282005
 20
341.5730375645339
 30
0.0
 10
321.9241882489216
 20
341.571286366137
 30
0.0
 10
321.9207635254755
 20
341.564494937155
 30
0.0
 10
321.9204394447418
 20
341.5640146626332
 30
0.0
 10
321.920198929582
 20
341.5636582289076
 30
0.0
  0
LINE
  5
100
330
1F
100
AcDbEntity
  8
0
  6
Continuous
 62
     7
370
    15
100
AcDbLine
 10
468.6027167028
 20
404.7139244255
 30
0.0
 11
468.6027158892
 21
404.7139247588
 31
0.0
  0
SPLINE
  5
101
330
1F
100
AcDbEntity
  8
0
  6
Continuous
 62
     8
370
     0
100
AcDbSpline
210
0.0
220
0.0
230
1.0
 70
     8
 71
     3
 72
    36
 73
    32
 74
     0
 42
0.00000001
 43
0.00000001
 40
0.0
 40
0.0
 40
0.0
 40
0.0
 40
0.0625
 40
0.0625
 40
0.125
 40
0.125
 40
0.2499999999999999
 40
0.2499999999999999
 40
0.3124999999999998
 40
0.3124999999999998
 40
0.3749999999999998
 40
0.3749999999999998
 40
0.4374999999999997
 40
0.4374999999999997
 40
0.4687500000000001
 40
0.4687500000000001
 40
0.5000000000000004
 40
0.5000000000000004
 40
0.5625000000000002
 40
0.5625000000000002
 40
0.625
 40
0.625
 40
0.6874999999999998
 40
0.6874999999999998
 40
0.7499999999999996
 40
0.7499999999999996
 40
0.8124999999999992
 40
0.8124999999999992
 40
0.874999999999999
 40
0.874999999999999
 40
1.0
 40
1.0
 40
1.0
 40
1.0
 10
342.0101591127432
 20
450.9821760885197
 30
0.0
 10
342.0101807545017
 20
450.9835234478085
 30
0.0
 10
342.0159470264383
 20
450.9714918734134
 30
0.0
 10
342.0379221891125
 20
450.9208054693523
 30
0.0
 10
342.0538165411591
 20
450.8824257059987
 30
0.0
 10
342.1192201545257
 20
450.7173411261119
 30
0.0
 10
342.1868644312606
 20
450.5411910137075
 30
0.0
 10
342.3609416448805
 20
450.0835637365334
 30
0.0
 10
342.4311758307215
 20
449.8990661535141
 30
0.0
 10
342.6049254505531
 20
449.4439481863829
 30
0.0
 10
342.7082029983612
 20
449.1732647040746
 30
0.0
 10
342.9611152329873
 20
448.5122845689027
 30
0.0
 10
343.1122925517246
 20
448.1184962652954
 30
0.0
 10
343.379416715129
 20
447.4285244219244
 30
0.0
 10
343.4753036532878
 20
447.1816536348606
 30
0.0
 10
343.6818212283181
 20
446.6518461645401
 30
0.0
 10
343.7928278655187
 20
446.3679446677308
 30
0.0
 10
344.146641186042
 20
445.4659696480664
 30
0.0
 10
344.4060847840129
 20
444.8083011623569
 30
0.0
 10
344.9664840737414
 20
443.3958478974654
 30
0.0
 10
345.2679245333177
 20
442.6394783296007
 30
0.0
 10
345.9003237290347
 20
441.0575497134762
 30
0.0
 10
346.2256281659759
 20
440.2456151738771
 30
0.0
 10
346.8937745623846
 20
438.5938491408816
 30
0.0
 10
347.2367911220262
 20
437.7538576631156
 30
0.0
 10
347.9474131369203
 20
436.0582341113861
 30
0.0
 10
348.3153250211306
 20
435.2027536220909
 30
0.0
 10
349.0836860380399
 20
433.4872569174588
 30
0.0
 10
349.4837746200746
 20
432.6284888998761
 30
0.0
 10
350.7384694344092
 20
430.0735177519482
 30
0.0
 10
351.6499589926916
 20
428.393459751812
 30
0.0
 10
352.6685499357339
 20
426.7583959194805
 30
0.0
  0
SPLINE
  5
102
330
1F
100
AcDbEntity
  8
0
  6
Continuous
 62
     8
370
     0
100
AcDbSpline
210
0.0
220
0.0
230
1.0
 70
     8
 71
     3
 72
    14
 73
    10
 74
     0
 42
0.00000001
 43
0.00000001
 40
0.0
 40
0.0
 40
0.0
 40
0.0
 40
0.2500000000000006
 40
0.2500000000000006
 40
0.3749999999999988
 40
0.3749999999999988
 40
0.4999999999999971
 40
0.4999999999999971
 40
1.0
 40
1.0
 40
1.0
 40
1.0
 10
352.6685499357339
 20
426.7583959194805
 30
0.0
 10
353.4457226938349
 20
425.5108616890574
 30
0.0
 10
354.2783120528967
 20
424.2999049154397
 30
0.0
 10
355.6282724612379
 20
422.5536868606754
 30
0.0
 10
356.0950839485165
 20
421.9833051397951
 30
0.0
 10
357.0643265449925
 20
420.8675718748682
 30
0.0
 10
357.5665074898293
 20
420.322603713158
 30
0.0
 10
360.139590962187
 20
417.6910548073701
 30
0.0
 10
362.4202540873355
 20
415.8627415070527
 30
0.0
 10
364.9100304778948
 20
414.2974595693742
 30
0.0
  0
SPLINE
  5
103
330
1F
100
AcDbEntity
  8
0
  6
Continuous
 62
     8
370
     0
100
AcDbSpline
210
0.0
220
0.0
230
1.0
 70
     8
 71
     3
 72
    25
 73
    21
 74
     0
 42
0.00000001
 43
0.00000001
 40
0.0
 40
0.0
 40
0.0
 40
0.0
 40
0.0312499999999998
 40
0.0312499999999998
 40
0.0624999999999995
 40
0.1249999999999996
 40
0.1249999999999996
 40
0.2499999999999997
 40
0.2499999999999997
 40
0.3749999999999999
 40
0.3749999999999999
 40
0.5
 40
0.5
 40
0.7500000000000002
 40
0.7500000000000002
 40
0.8750000000000004
 40
0.8750000000000004
 40
0.9375000000000002
 40
0.9375000000000002
 40
1.0
 40
1.0
 40
1.0
 40
1.0
 10
366.4758710924318
 20
410.7758055464226
 30
0.0
 10
366.7240381748141
 20
410.6414390200061
 30
0.0
 10
366.9753772222202
 20
410.5084629791035
 30
0.0
 10
367.4780845897861
 20
410.2485329059984
 30
0.0
 10
368.2353154388653
 20
409.8659784725023
 30
0.0
 10
369.0017700780894
 20
409.5047875419842
 30
0.0
 10
370.5462384175891
 20
408.8091834576917
 30
0.0
 10
371.5912744210452
 20
408.381101088686
 30
0.0
 10
373.7085629702604
 20
407.5880070412582
 30
0.0
 10
374.7823001329422
 20
407.2226152786106
 30
0.0
 10
376.9443454780389
 20
406.5533311833451
 30
0.0
 10
378.033290148053
 20
406.2490107261075
 30
0.0
 10
381.3212365818625
 20
405.4168579579757
 30
0.0
 10
383.5444140059896
 20
404.9696108577317
 30
0.0
 10
386.8938882683483
 20
404.4227118478832
 30
0.0
 10
388.0133064308827
 20
404.2608509844478
 30
0.0
 10
389.6961149032074
 20
404.0437658498635
 30
0.0
 10
390.2576645707869
 20
403.9756880284759
 30
0.0
 10
391.3819031996665
 20
403.8474884342421
 30
0.0
 10
391.9460657061434
 20
403.7872203721233
 30
0.0
 10
392.507812260915
 20
403.7309558436683
 30
0.0
  0
SPLINE
  5
104
330
1F
100
AcDbEntity
  8
0
  6
Continuous
 62
     8
370
     0
100
AcDbSpline
210
0.0
220
0.0
230
1.0
 70
     8
 71
     3
 72
    16
 73
    12
 74
     0
 42
0.00000001
 43
0.00000001
 40
0.0
 40
0.0
 40
0.0
 40
0.0
 40
0.2500000000000001
 40
0.2500000000000001
 40
0.5000000000000002
 40
0.5000000000000002
 40
0.625
 40
0.625
 40
0.7499999999999999
 40
0.7499999999999999
 40
1.0
 40
1.0
 40
1.0
 40
1.0
 10
392.6562084509091
 20
405.3794325697098
 30
0.0
 10
390.4595179258179
 20
405.594236167725
 30
0.0
 10
388.2696225182374
 20
405.8645901108582
 30
0.0
 10
383.9136550140753
 20
406.5619350157572
 30
0.0
 10
381.7451331226437
 20
406.9902410941584
 30
0.0
 10
378.5371380463803
 20
407.7897580480553
 30
0.0
 10
377.4745942031739
 20
408.0825620503687
 30
0.0
 10
375.3648226055092
 20
408.7275217601318
 30
0.0
 10
374.3167994011638
 20
409.0801070572213
 30
0.0
 10
371.2168853223187
 20
410.2300558909645
 30
0.0
 10
369.2031339628474
 20
411.1200732515551
 30
0.0
 10
367.2579959482492
 20
412.1701801768548
 30
0.0
  0
SPLINE
  5
105
330
1F
100
AcDbEntity
  8
0
  6
Continuous
 62
     8
370
     0
100
AcDbSpline
210
0.0
220
0.0
230
1.0
 70
     8
 71
     3
 72
    14
 73
    10
 74
     0
 42
0.00000001
 43
0.00000001
 40
0.0
 40
0.0
 40
0.0
 40
0.0
 40
0.5000000000000037
 40
0.5000000000000037
 40
0.6250000000000036
 40
0.6250000000000036
 40
0.7500000000000034
 40
0.7500000000000034
 40
1.0
 40
1.0
 40
1.0
 40
1.0
 10
363.2689588710959
 20
413.4457276417413
 30
0.0
 10
360.830842153077
 20
415.0469562048943
 30
0.0
 10
358.5892740582275
 20
416.8972425465802
 30
0.0
 10
356.0408973274867
 20
419.5281730006317
 30
0.0
 10
355.5428387452625
 20
420.071284328828
 30
0.0
 10
354.5802684285614
 20
421.178935689563
 30
0.0
 10
354.11495829261
 20
421.7442982565539
 30
0.0
 10
352.7640448467353
 20
423.4725384998766
 30
0.0
 10
351.9234105725757
 20
424.6675525533137
 30
0.0
 10
351.1313787284988
 20
425.8957182410545
 30
0.0
  0
SPLINE
  5
106
330
1F
100
AcDbEntity
  8
0
  6
Continuous
 62
     8
370
     0
100
AcDbSpline
210
0.0
220
0.0
230
1.0
 70
     8
 71
     3
 72
    24
 73
    20
 74
     0
 42
0.00000001
 43
0.00000001
 40
0.0
 40
0.0
 40
0.0
 40
0.0
 40
0.0624999999999999
 40
0.0624999999999999
 40
0.1249999999999998
 40
0.1249999999999998
 40
0.2499999999999998
 40
0.2499999999999998
 40
0.3750000000000001
 40
0.3750000000000001
 40
0.5000000000000003
 40
0.5000000000000003
 40
0.7500000000000008
 40
0.7500000000000008
 40
0.8750000000000009
 40
0.8750000000000009
 40
0.9375000000000004
 40
0.9375000000000004
 40
1.0
 40
1.0
 40
1.0
 40
1.0
 10
393.057961149695
 20
403.6749026573342
 30
0.0
 10
394.175862134376
 20
403.5612843734714
 30
0.0
 10
395.2941202478113
 20
403.4519440213928
 30
0.0
 10
397.5330647990417
 20
403.2649960527001
 30
0.0
 10
398.6537150819504
 20
403.1868349031561
 30
0.0
 10
402.0187238634009
 20
402.9927830897509
 30
0.0
 10
404.2628770031581
 20
402.9146920075296
 30
0.0
 10
408.7494527831577
 20
402.8081556006035
 30
0.0
 10
410.9922827938985
 20
402.7835303337494
 30
0.0
 10
415.4766258222554
 20
402.76089301703
 30
0.0
 10
417.7181073929907
 20
402.7610065431913
 30
0.0
 10
424.4395673617269
 20
402.765102414797
 30
0.0
 10
428.9112801552936
 20
402.7802175000266
 30
0.0
 10
435.5997186559699
 20
402.7954614559471
 30
0.0
 10
437.8260179167285
 20
402.7989890206721
 30
0.0
 10
441.1600631433438
 20
402.7989621789674
 30
0.0
 10
442.2705287702348
 20
402.7982742332438
 30
0.0
 10
444.4892733117206
 20
402.7934457329415
 30
0.0
 10
445.5971146599543
 20
402.7879599836508
 30
0.0
 10
446.702997636054
 20
402.7846062827288
 30
0.0
  0
SPLINE
  5
107
330
1F
100
AcDbEntity
  8
0
  6
Continuous
 62
     8
370
     0
100
AcDbSpline
210
0.0
220
0.0
230
1.0
 70
     8
 71
     3
 72
    24
 73
    20
 74
     0
 42
0.00000001
 43
0.00000001
 40
0.0
 40
0.0
 40
0.0
 40
0.0
 40
0.0625
 40
0.0625
 40
0.1250000000000001
 40
0.1250000000000001
 40
0.2500000000000002
 40
0.2500000000000002
 40
0.5000000000000003
 40
0.5000000000000003
 40
0.6250000000000002
 40
0.6250000000000002
 40
0.75
 40
0.75
 40
0.8749999999999999
 40
0.8749999999999999
 40
0.9375
 40
0.9375
 40
1.0
 40
1.0
 40
1.0
 40
1.0
 10
446.5366819545213
 20
404.5883349827973
 30
0.0
 10
445.4376482348675
 20
404.5858889668274
 30
0.0
 10
444.3363775439886
 20
404.5867381976582
 30
0.0
 10
442.1308839659364
 20
404.5828941590402
 30
0.0
 10
441.0270687225589
 20
404.5795164033442
 30
0.0
 10
437.7129244625597
 20
404.5687332622488
 30
0.0
 10
435.4998558306314
 20
404.5595161257558
 30
0.0
 10
428.8511282329997
 20
404.5288203591722
 30
0.0
 10
424.4058891611145
 20
404.5051478392615
 30
0.0
 10
417.7242303474445
 20
404.4845781631292
 30
0.0
 10
415.4959634738079
 20
404.4784949770371
 30
0.0
 10
411.0380075678388
 20
404.4884425124092
 30
0.0
 10
408.8083098566025
 20
404.5060948294849
 30
0.0
 10
404.3478362837124
 20
404.600417670559
 30
0.0
 10
402.1167236539522
 20
404.6738117842226
 30
0.0
 10
398.7709103616949
 20
404.8602199683775
 30
0.0
 10
397.6566026685266
 20
404.9356829459792
 30
0.0
 10
395.4301004487172
 20
405.1152292840367
 30
0.0
 10
394.3178164504877
 20
405.2197773697503
 30
0.0
 10
393.2059358229038
 20
405.3263757858899
 30
0.0
  0
SPLINE
  5
108
330
1F
100
AcDbEntity
  8
0
  6
Continuous
 62
     8
370
     0
100
AcDbSpline
210
0.0
220
0.0
230
1.0
 70
     8
 71
     3
 72
     8
 73
     4
 74
     0
 42
0.00000001
 43
0.00000001
 40
0.0
 40
0.0
 40
0.0
 40
0.0
 40
0.000552702428714
 40
0.000552702428714
 40
0.000552702428714
 40
0.000552702428714
 10
392.5083123184363
 20
403.7324294744997
 30
0.0
 10
392.6915166075122
 20
403.7131477323728
 30
0.0
 10
392.874754547569
 20
403.6941761839605
 30
0.0
 10
393.0580278757283
 20
403.6755478723927
 30
0.0
  0
SPLINE
  5
109
330
1F
100
AcDbEntity
  8
0
  6
Continuous
 62
     8
370
     0
100
AcDbSpline
210
0.0
220
0.0
230
1.0
 70
     8
 71
     3
 72
    40
 73
    36
 74
     0
 42
0.00000001
 43
0.00000001
 40
0.0
 40
0.0
 40
0.0
 40
0.0
 40
0.1249999999999997
 40
0.1249999999999997
 40
0.1874999999999996
 40
0.1874999999999996
 40
0.2499999999999995
 40
0.2499999999999995
 40
0.3124999999999994
 40
0.3124999999999994
 40
0.3749999999999993
 40
0.3749999999999993
 40
0.4062499999999992
 40
0.4062499999999992
 40
0.4374999999999992
 40
0.4374999999999992
 40
0.4999999999999977
 40
0.4999999999999977
 40
0.5312499999999974
 40
0.5312499999999974
 40
0.5624999999999973
 40
0.5624999999999973
 40
0.5937499999999971
 40
0.5937499999999971
 40
0.6249999999999969
 40
0.6249999999999969
 40
0.6874999999999974
 40
0.6874999999999974
 40
0.749999999999998
 40
0.749999999999998
 40
0.874999999999999
 40
0.874999999999999
 40
0.9374999999999994
 40
0.9374999999999994
 40
1.0
 40
1.0
 40
1.0
 40
1.0
 10
351.1313787284988
 20
425.8957182410544
 30
0.0
 10
350.0577581697003
 20
427.5605300056698
 30
0.0
 10
349.0845796821186
 20
429.2711251839889
 30
0.0
 10
347.7304975158378
 20
431.8725443490871
 30
0.0
 10
347.2960385937989
 20
432.7467030750432
 30
0.0
 10
346.4554466003349
 20
434.4929323514842
 30
0.0
 10
346.0497399644939
 20
435.3635154919164
 30
0.0
 10
345.2619392763416
 20
437.0887307782569
 30
0.0
 10
344.8792708918203
 20
437.9429275829878
 30
0.0
 10
344.1287920082214
 20
439.6204931228655
 30
0.0
 10
343.7607562941548
 20
440.4439557181421
 30
0.0
 10
343.2218252661171
 20
441.6461475944719
 30
0.0
 10
343.0453140297747
 20
442.0395281950534
 30
0.0
 10
342.7038444221984
 20
442.8014783730389
 30
0.0
 10
342.5383621106512
 20
443.1712576289048
 30
0.0
 10
342.0603293604595
 20
444.2442018462631
 30
0.0
 10
341.7664448949839
 20
444.9107777564057
 30
0.0
 10
341.3695195062754
 20
445.8278925725351
 30
0.0
 10
341.2449694940356
 20
446.1189065605201
 30
0.0
 10
341.0154475501752
 20
446.6621102236522
 30
0.0
 10
340.9097903725984
 20
446.9158692658621
 30
0.0
 10
340.715271833816
 20
447.389804457076
 30
0.0
 10
340.6264014523246
 20
447.6099746388863
 30
0.0
 10
340.4636803988635
 20
448.0191163773644
 30
0.0
 10
340.3899874088874
 20
448.2076862169847
 30
0.0
 10
340.1909453577738
 20
448.7247195043532
 30
0.0
 10
340.0862368043935
 20
449.0081959458428
 30
0.0
 10
339.9137864519599
 20
449.4843961598654
 30
0.0
 10
339.8461171446556
 20
449.677101738415
 30
0.0
 10
339.6803910881433
 20
450.1543518975955
 30
0.0
 10
339.6208056400697
 20
450.3362165666955
 30
0.0
 10
339.5630392624204
 20
450.5048607100963
 30
0.0
 10
339.5489187131241
 20
450.5434646149447
 30
0.0
 10
339.5272020101855
 20
450.5916266676542
 30
0.0
 10
339.5191310367162
 20
450.599736439969
 30
0.0
 10
339.516850085568
 20
450.5967591968384
 30
0.0
  0
SPLINE
  5
10A
330
1F
100
AcDbEntity
  8
0
  6
Continuous
 62
     8
370
     0
100
AcDbSpline
210
0.0
220
0.0
230
1.0
 70
     8
 71
     3
 72
     8
 73
     4
 74
     0
 42
0.00000001
 43
0.00000001
 40
0.0000000203463906
 40
0.0000000203463906
 40
0.0000000203463906
 40
0.0000000203463906
 40
0.0005524032332722
 40
0.0005524032332722
 40
0.0005524032332722
 40
0.0005524032332722
 10
393.2059380190796
 20
405.3260884019639
 30
0.0
 10
393.0226654247375
 20
405.3435980397142
 30
0.0
 10
392.8394257555619
 20
405.3614441681923
 30
0.0
 10
392.6562220156511
 20
405.3796374580363
 30
0.0
  0
SPLINE
  5
10B
330
1F
100
AcDbEntity
  8
0
  6
Continuous
 62
     8
370
     0
100
AcDbSpline
210
0.0
220
0.0
230
1.0
 70
     8
 71
     3
 72
     8
 73
     4
 74
     0
 42
0.00000001
 43
0.00000001
 40
0.0
 40
0.0
 40
0.0
 40
0.0
 40
0.0000596972843948
 40
0.0000596972843948
 40
0.0000596972843948
 40
0.0000596972843948
 10
367.2579260386719
 20
412.1700610637093
 30
0.0
 10
367.2404190343412
 20
412.1795114182003
 30
0.0
 10
367.2229189655581
 20
412.1889745129591
 30
0.0
 10
367.2054258706825
 20
412.1984503502141
 30
0.0
  0
SPLINE
  5
10C
330
1F
100
AcDbEntity
  8
0
  6
Continuous
 62
     8
370
     0
100
AcDbSpline
210
0.0
220
0.0
230
1.0
 70
     8
 71
     3
 72
     8
 73
     4
 74
     0
 42
0.00000001
 43
0.00000001
 40
0.0
 40
0.0
 40
0.0
 40
0.0
 40
1.0
 40
1.0
 40
1.0
 40
1.0
 10
365.3388525675381
 20
411.4122541116238
 30
0.0
 10
365.7145255855231
 20
411.1945420111715
 30
0.0
 10
366.0934870580429
 20
410.9824923510219
 30
0.0
 10
366.4756450407792
 20
410.7759416018205
 30
0.0
  0
SPLINE
  5
10D
330
1F
100
AcDbEntity
  8
0
  6
Continuous
 62
     8
370
     0
100
AcDbSpline
210
0.0
220
0.0
230
1.0
 70
     8
 71
     3
 72
    14
 73
    10
 74
     0
 42
0.00000001
 43
0.00000001
 40
0.0
 40
0.0
 40
0.0
 40
0.0
 40
0.25
 40
0.25
 40
0.5
 40
0.5
 40
0.75
 40
0.75
 40
1.0
 40
1.0
 40
1.0
 40
1.0
 10
365.3388525675263
 20
411.4122541116207
 30
0.0
 10
365.3191098290386
 20
411.4830308397828
 30
0.0
 10
365.2990653930118
 20
411.561530750655
 30
0.0
 10
365.2641563734972
 20
411.7172580158785
 30
0.0
 10
365.2494766468315
 20
411.793950963442
 30
0.0
 10
365.2306880329888
 20
411.9225958573558
 30
0.0
 10
365.2266578062935
 20
411.9740092185072
 30
0.0
 10
365.2289900465875
 20
412.0413338687676
 30
0.0
 10
365.2352103990995
 20
412.0574869095229
 30
0.0
 10
365.2442619575239
 20
412.0599122672929
 30
0.0
  0
SPLINE
  5
10E
330
1F
100
AcDbEntity
  8
0
  6
Continuous
 62
     8
370
     0
100
AcDbSpline
210
0.0
220
0.0
230
1.0
 70
     8
 71
     3
 72
    10
 73
     6
 74
     0
 42
0.00000001
 43
0.00000001
 40
0.0
 40
0.0
 40
0.0
 40
0.0
 40
0.5
 40
0.5
 40
1.0
 40
1.0
 40
1.0
 40
1.0
 10
367.2054258706825
 20
412.1984503502141
 30
0.0
 10
367.1113907360506
 20
412.2896029792597
 30
0.0
 10
366.9995340521197
 20
412.3607011935245
 30
0.0
 10
366.7692362040565
 20
412.4346209223271
 30
0.0
 10
366.6519000490469
 20
412.4370877571517
 30
0.0
 10
366.5483726205772
 20
412.4093476662989
 30
0.0
  0
ARC
  5
10F
330
1F
100
AcDbEntity
  8
0
  6
Continuous
 62
     8
370
     0
100
AcDbCircle
 10
364.2794221732
 20
413.5826240533
 30
0.0
 40
1.01969442106609
100
AcDbArc
 50
187.7153913698
 51
219.8695219735
  0
LWPOLYLINE
  5
110
330
1F
100
AcDbEntity
  8
0
  6
Continuous
 62
     8
370
     0
100
AcDbPolyline
 90
        9
 70
   128
 43
0.0
 10
364.8034607656
 20
413.2790762694
 10
364.9165526579
 20
413.3327954571
 10
365.0094353688
 20
413.4261720386
 10
365.0751269783
 20
413.5521869701
 10
365.1086895001
 20
413.7013678089
 10
365.1076000659
 20
413.8625007492
 10
365.0719405677
 20
414.0234735551
 10
365.0043915017
 20
414.1721860282
 10
364.9100304779
 20
414.2974595694
  0
SPLINE
  5
111
330
1F
100
AcDbEntity
  8
0
  6
Continuous
 62
     8
370
     0
100
AcDbSpline
210
0.0
220
0.0
230
1.0
 70
     8
 71
     3
 72
    11
 73
     7
 74
     0
 42
0.00000001
 43
0.00000001
 40
-0.00000006018
 40
-0.00000006018
 40
-0.00000006018
 40
-0.00000006018
 40
0.0
 40
0.0
 40
0.0
 40
0.0002337405267701
 40
0.0002337405267701
 40
0.0002337405267701
 40
0.0002337405267701
 10
446.766657977594
 20
404.588902216018
 30
0.0
 10
446.7666382486928
 20
404.5889021623959
 30
0.0
 10
446.7666185197908
 20
404.5889021087741
 30
0.0
 10
446.766598790888
 20
404.5889020551542
 30
0.0
 10
446.6899712713561
 20
404.5886937940297
 30
0.0
 10
446.6133321947902
 20
404.588505576027
 30
0.0
 10
446.5366819545213
 20
404.5883349827973
 30
0.0
  0
SPLINE
  5
112
330
1F
100
AcDbEntity
  8
0
  6
Continuous
 62
     8
370
     0
100
AcDbSpline
210
0.0
220
0.0
230
1.0
 70
     8
 71
     3
 72
    14
 73
    10
 74
     0
 42
0.00000001
 43
0.00000001
 40
0.0
 40
0.0
 40
0.0
 40
0.0
 40
0.25
 40
0.25
 40
0.5
 40
0.5
 40
0.75
 40
0.75
 40
1.0
 40
1.0
 40
1.0
 40
1.0
 10
374.9621120686423
 20
416.0010786822337
 30
0.0
 10
375.0795272472931
 20
416.0325399845323
 30
0.0
 10
375.1868697491326
 20
416.1005559012333
 30
0.0
 10
375.3440505316269
 20
416.2860250946035
 30
0.0
 10
375.3935417181692
 20
416.40306880934
 30
0.0
 10
375.4171010536508
 20
416.645039252959
 30
0.0
 10
375.39111717774
 20
416.769431651149
 30
0.0
 10
375.272665617487
 20
416.9817379847689
 30
0.0
 10
375.1804595035384
 20
417.069183095211
 30
0.0
 10
375.0713184988143
 20
417.122703202391
 30
0.0
  0
LINE
  5
113
330
1F
100
AcDbEntity
  8
0
  6
Continuous
 62
     8
370
     0
100
AcDbLine
 10
377.3355758481
 20
415.2491622022
 30
0.0
 11
377.036886464
 21
415.2197364804
 31
0.0
  0
SPLINE
  5
114
330
1F
100
AcDbEntity
  8
0
  6
Continuous
 62
     8
370
     0
100
AcDbSpline
210
0.0
220
0.0
230
1.0
 70
     8
 71
     3
 72
    38
 73
    34
 74
     0
 42
0.00000001
 43
0.00000001
 40
0.0
 40
0.0
 40
0.0
 40
0.0
 40
0.0624999999999999
 40
0.0624999999999999
 40
0.1249999999999999
 40
0.1249999999999999
 40
0.1874999999999998
 40
0.1874999999999998
 40
0.2499999999999997
 40
0.2499999999999997
 40
0.3124999999999997
 40
0.3124999999999997
 40
0.3749999999999996
 40
0.3749999999999996
 40
0.4062499999999996
 40
0.4062499999999996
 40
0.4374999999999996
 40
0.4374999999999996
 40
0.4999999999999997
 40
0.4999999999999997
 40
0.5312499999999997
 40
0.5312499999999997
 40
0.5624999999999996
 40
0.5624999999999996
 40
0.6249999999999997
 40
0.6249999999999997
 40
0.6874999999999997
 40
0.6874999999999997
 40
0.7499999999999997
 40
0.7499999999999997
 40
0.8749999999999998
 40
0.8749999999999998
 40
1.0
 40
1.0
 40
1.0
 40
1.0
 10
446.9352036227893
 20
402.7842364768707
 30
0.0
 10
447.7920609277946
 20
402.7819431360467
 30
0.0
 10
448.6471529935569
 20
402.7695018057021
 30
0.0
 10
450.3533164686634
 20
402.7394897617978
 30
0.0
 10
451.2044417895495
 20
402.7224213994572
 30
0.0
 10
452.9015788615945
 20
402.6845904850555
 30
0.0
 10
453.7470516338661
 20
402.6623078601642
 30
0.0
 10
455.4267899408346
 20
402.6154003138286
 30
0.0
 10
456.2606294905465
 20
402.5910079716712
 30
0.0
 10
457.9062231181243
 20
402.5363632750407
 30
0.0
 10
458.7145703396926
 20
402.5061429535829
 30
0.0
 10
460.272710922727
 20
402.4436560262232
 30
0.0
 10
461.0244168409788
 20
402.4110197105913
 30
0.0
 10
462.0955880318438
 20
402.3657092347299
 30
0.0
 10
462.4451937544083
 20
402.3511946658006
 30
0.0
 10
463.1116244692348
 20
402.3259188417177
 30
0.0
 10
463.4283293484467
 20
402.3154256800095
 30
0.0
 10
464.3285119867696
 20
402.2913989977395
 30
0.0
 10
464.8609144630178
 20
402.2848496573183
 30
0.0
 10
465.5731293343587
 20
402.2825881099675
 30
0.0
 10
465.7953233765471
 20
402.2830075764599
 30
0.0
 10
466.2086919422395
 20
402.2851641099738
 30
0.0
 10
466.4008703709908
 20
402.2869127117827
 30
0.0
 10
466.9405135296972
 20
402.2936996113053
 30
0.0
 10
467.2515493720718
 20
402.3005586124316
 30
0.0
 10
467.7934399663014
 20
402.3148159853104
 30
0.0
 10
468.0230568179367
 20
402.3215758053569
 30
0.0
 10
468.4149395542771
 20
402.3324607068138
 30
0.0
 10
468.5788828632005
 20
402.3361540549348
 30
0.0
 10
468.996975802986
 20
402.3443860751439
 30
0.0
 10
469.1749033123974
 20
402.3485120937218
 30
0.0
 10
469.3928408170039
 20
402.3539275803092
 30
0.0
 10
469.4323130861403
 20
402.3518901895657
 30
0.0
 10
469.4307998022731
 20
402.3516570293966
 30
0.0
  0
SPLINE
  5
115
330
1F
100
AcDbEntity
  8
0
  6
Continuous
 62
     8
370
     0
100
AcDbSpline
210
0.0
220
0.0
230
1.0
 70
     8
 71
     3
 72
    38
 73
    34
 74
     0
 42
0.00000001
 43
0.00000001
 40
0.0
 40
0.0
 40
0.0
 40
0.0
 40
0.1249999999999996
 40
0.1249999999999996
 40
0.2499999999999992
 40
0.2499999999999992
 40
0.3124999999999988
 40
0.3124999999999988
 40
0.3749999999999986
 40
0.3749999999999986
 40
0.4374999999999985
 40
0.4374999999999985
 40
0.4999999999999984
 40
0.4999999999999984
 40
0.5624999999999983
 40
0.5624999999999983
 40
0.5937499999999983
 40
0.5937499999999983
 40
0.6249999999999983
 40
0.6249999999999983
 40
0.6874999999999984
 40
0.6874999999999984
 40
0.7499999999999986
 40
0.7499999999999986
 40
0.8124999999999988
 40
0.8124999999999988
 40
0.8749999999999989
 40
0.8749999999999989
 40
0.937499999999999
 40
0.937499999999999
 40
0.9687499999999996
 40
0.9687499999999996
 40
1.0
 40
1.0
 40
1.0
 40
1.0
 10
468.6027176834068
 20
404.7139241259218
 30
0.0
 10
468.6038995029344
 20
404.7135664975995
 30
0.0
 10
468.5669958377892
 20
404.7165014093214
 30
0.0
 10
468.3580387924284
 20
404.7120381714504
 30
0.0
 10
468.1866160129857
 20
404.707478724828
 30
0.0
 10
467.782284576866
 20
404.6986230566304
 30
0.0
 10
467.6234420467406
 20
404.6951669223947
 30
0.0
 10
467.2450139098844
 20
404.6860849500639
 30
0.0
 10
467.0236212526574
 20
404.6805662224093
 30
0.0
 10
466.5000699120846
 20
404.6673084307346
 30
0.0
 10
466.1988245717895
 20
404.6592943746938
 30
0.0
 10
465.5000454375573
 20
404.6391384418093
 30
0.0
 10
465.1027173498788
 20
404.626815304515
 30
0.0
 10
464.1763207778192
 20
404.601764432736
 30
0.0
 10
463.6567165837336
 20
404.590155480789
 30
0.0
 10
462.7751069113734
 20
404.5737797721511
 30
0.0
 10
462.4645759313185
 20
404.5684701387815
 30
0.0
 10
461.811071028469
 20
404.5590783827181
 30
0.0
 10
461.468511452321
 20
404.5549879827241
 30
0.0
 10
460.4197301758145
 20
404.5449086554739
 30
0.0
 10
459.6850439281747
 20
404.5409540663315
 30
0.0
 10
458.1666182497838
 20
404.5381795662977
 30
0.0
 10
457.3808397653779
 20
404.5391954683852
 30
0.0
 10
455.7871251929308
 20
404.5433266069651
 30
0.0
 10
454.9803151386783
 20
404.5465967901256
 30
0.0
 10
453.3558914684478
 20
404.5541469038732
 30
0.0
 10
452.5386910256435
 20
404.5579477880691
 30
0.0
 10
450.8985767943456
 20
404.5661890467341
 30
0.0
 10
450.0761655265434
 20
404.5709936961291
 30
0.0
 10
448.8384795914911
 20
404.5791593594883
 30
0.0
 10
448.4251722892926
 20
404.5823484018333
 30
0.0
 10
447.5967055598802
 20
404.5883585062487
 30
0.0
 10
447.1817965015122
 20
404.590057668243
 30
0.0
 10
446.766737430986
 20
404.5892584005749
 30
0.0
  0
SPLINE
  5
116
330
1F
100
AcDbEntity
  8
0
  6
Continuous
 62
     8
370
     0
100
AcDbSpline
210
0.0
220
0.0
230
1.0
 70
     8
 71
     3
 72
     8
 73
     4
 74
     0
 42
0.00000001
 43
0.00000001
 40
0.0
 40
0.0
 40
0.0
 40
0.0
 40
0.0002359670260062
 40
0.0002359670260062
 40
0.0002359670260062
 40
0.0002359670260062
 10
446.7029976360541
 20
402.7846062827286
 30
0.0
 10
446.7804055691178
 20
402.7843715354163
 30
0.0
 10
446.8578036579617
 20
402.7841488301782
 30
0.0
 10
446.9351916439622
 20
402.7839402315948
 30
0.0
  0
LINE
  5
117
330
1F
100
AcDbEntity
  8
0
  6
Continuous
 62
     8
370
     0
100
AcDbLine
 10
358.9996828189
 20
412.0362463237
 30
0.0
 11
339.2215786636
 21
406.7367192875
 31
0.0
  0
SPLINE
  5
118
330
1F
100
AcDbEntity
  8
0
  6
Continuous
 62
     8
370
     0
100
AcDbSpline
210
0.0
220
0.0
230
1.0
 70
     8
 71
     3
 72
    17
 73
    13
 74
     0
 42
0.00000001
 43
0.00000001
 40
0.0
 40
0.0
 40
0.0
 40
0.0
 40
0.2336241644169662
 40
0.4673461997334955
 40
0.5376877021075483
 40
0.607602010696265
 40
0.6776192375851073
 40
0.7125988463464954
 40
0.747617303458977
 40
0.8174211072234137
 40
0.8874915279410043
 40
1.0
 40
1.0
 40
1.0
 40
1.0
 10
327.7012471340935
 20
352.9199095348815
 30
0.0
 10
325.783509349951
 20
352.9198394605109
 30
0.0
 10
321.9472303942143
 20
352.9196992824139
 30
0.0
 10
317.536092392519
 20
352.9193040354441
 30
0.0
 10
314.4990701596511
 20
352.9198994571929
 30
0.0
 10
312.8167159645737
 20
352.919445078628
 30
0.0
 10
311.4620264075118
 20
352.9200883915536
 30
0.0
 10
310.4936925814793
 20
352.9194693502501
 30
0.0
 10
309.6786872545761
 20
352.9199685407891
 30
0.0
 10
309.0841755110102
 20
352.9193391270347
 30
0.0
 10
308.7737529752078
 20
352.9201924328944
 30
0.0
 10
308.7713369887617
 20
352.9200856420688
 30
0.0
 10
308.7698482134742
 20
352.9200198355977
 30
0.0
  0
SPLINE
  5
119
330
1F
100
AcDbEntity
  8
0
  6
Continuous
 62
     8
370
     0
100
AcDbSpline
210
0.0
220
0.0
230
1.0
 70
     8
 71
     3
 72
    32
 73
    28
 74
     0
 42
0.00000001
 43
0.00000001
 40
0.0
 40
0.0
 40
0.0
 40
0.0
 40
0.2499999999999964
 40
0.2499999999999964
 40
0.3749999999999951
 40
0.3749999999999951
 40
0.4999999999999937
 40
0.4999999999999937
 40
0.5624999999999929
 40
0.5624999999999929
 40
0.6249999999999921
 40
0.6249999999999921
 40
0.6562499999999921
 40
0.6562499999999921
 40
0.6874999999999928
 40
0.6874999999999928
 40
0.7187499999999936
 40
0.7187499999999936
 40
0.7499999999999942
 40
0.7499999999999942
 40
0.8124999999999957
 40
0.8124999999999957
 40
0.8749999999999971
 40
0.8749999999999971
 40
0.9374999999999986
 40
0.9374999999999986
 40
1.0
 40
1.0
 40
1.0
 40
1.0
 10
327.5512232641487
 20
351.7211150345724
 30
0.0
 10
325.3796096623054
 20
351.7151592803788
 30
0.0
 10
323.2079600895502
 20
351.7065610030944
 30
0.0
 10
319.9557522541385
 20
351.6825126343472
 30
0.0
 10
318.8735529979958
 20
351.6728631678616
 30
0.0
 10
316.716939185682
 20
351.6469240375731
 30
0.0
 10
315.642189270529
 20
351.6310318019677
 30
0.0
 10
314.0443608027518
 20
351.5927116910433
 30
0.0
 10
313.514194907437
 20
351.5774309472084
 30
0.0
 10
312.4626524718025
 20
351.5375031360707
 30
0.0
 10
311.9439173161541
 20
351.5125776696173
 30
0.0
 10
311.2051705639724
 20
351.4656819936385
 30
0.0
 10
310.9649400870809
 20
351.4484396409249
 30
0.0
 10
310.5013017162455
 20
351.4106522393467
 30
0.0
 10
310.2797312867035
 20
351.3899442982103
 30
0.0
 10
309.8737956793848
 20
351.3514405170675
 30
0.0
 10
309.6875956777286
 20
351.3334926939323
 30
0.0
 10
309.3506571672177
 20
351.3039524328018
 30
0.0
 10
309.2011666471491
 20
351.2925527153106
 30
0.0
 10
308.8183558321356
 20
351.268526375535
 30
0.0
 10
308.642381640853
 20
351.2645944298483
 30
0.0
 10
308.3979654968667
 20
351.2609827882441
 30
0.0
 10
308.3265025283811
 20
351.2613264244991
 30
0.0
 10
308.232916240653
 20
351.2613471591212
 30
0.0
 10
308.210865677901
 20
351.2613390704027
 30
0.0
 10
308.1863685098458
 20
351.2615032246824
 30
0.0
 10
308.1839983925624
 20
351.2619118373759
 30
0.0
 10
308.186077725641
 20
351.2617508151573
 30
0.0
  0
SPLINE
  5
11A
330
1F
100
AcDbEntity
  8
0
  6
Continuous
 62
     8
370
     0
100
AcDbSpline
210
0.0
220
0.0
230
1.0
 70
     8
 71
     3
 72
    12
 73
     8
 74
     0
 42
0.00000001
 43
0.00000001
 40
0.0
 40
0.0
 40
0.0
 40
0.0
 40
0.0769029782100215
 40
0.3076770664001557
 40
0.5384512661023584
 40
0.7692255773069411
 40
1.0
 40
1.0
 40
1.0
 40
1.0
 10
327.9674714921908
 20
352.790085282477
 30
0.0
 10
327.9643010989878
 20
352.7971687074069
 30
0.0
 10
327.9516168401626
 20
352.825508408329
 30
0.0
 10
327.9112954381966
 20
352.8645354992832
 30
0.0
 10
327.8501851832388
 20
352.9019624319752
 30
0.0
 10
327.7780000205198
 20
352.9227104857912
 30
0.0
 10
327.7268708012953
 20
352.9208142888106
 30
0.0
 10
327.7013061855078
 20
352.9198661900912
 30
0.0
  0
LINE
  5
11B
330
1F
100
AcDbEntity
  8
0
  6
Continuous
 62
     8
370
     0
100
AcDbLine
 10
326.4970879446
 20
355.0049583084
 30
0.0
 11
326.4998559764
 21
355.0007621108
 31
0.0
  0
ARC
  5
11C
330
1F
100
AcDbEntity
  8
0
  6
Continuous
 62
     8
370
     0
100
AcDbCircle
 10
326.4996814845
 20
354.7040694861
 30
0.0
 40
0.3009000000000844
100
AcDbArc
 50
31.210944461
 51
90.4938542083
  0
LINE
  5
11D
330
1F
100
AcDbEntity
  8
0
  6
Continuous
 62
     8
370
     0
100
AcDbLine
 10
321.0682118005
 20
341.8753830505
 30
0.0
 11
321.0561155092
 21
341.8659762187
 31
0.0
  0
LINE
  5
11E
330
1F
100
AcDbEntity
  8
0
  6
Continuous
 62
     8
370
     0
100
AcDbLine
 10
339.5168500856
 20
450.5967591968
 30
0.0
 11
339.5218241509
 21
450.5912248743
 31
0.0
  0
SPLINE
  5
11F
330
1F
100
AcDbEntity
  8
0
  6
Continuous
 62
     8
370
     0
100
AcDbSpline
210
0.0
220
0.0
230
1.0
 70
     8
 71
     3
 72
     9
 73
     5
 74
     0
 42
0.00000001
 43
0.00000001
 40
0.0
 40
0.0
 40
0.0
 40
0.0
 40
0.0776486290806417
 40
1.0
 40
1.0
 40
1.0
 40
1.0
 10
469.4308146333287
 20
402.3516880842803
 30
0.0
 10
469.430823261161
 20
402.3516862233088
 30
0.0
 10
469.4309343749354
 20
402.351662256735
 30
0.0
 10
469.4308643707394
 20
402.3516595374931
 30
0.0
 10
469.4307998022731
 20
402.3516570293966
 30
0.0
  0
LINE
  5
120
330
1F
100
AcDbEntity
  8
0
  6
Continuous
 62
     8
370
     0
100
AcDbLine
 10
334.8338897399
 20
422.8055230288
 30
0.0
 11
335.1194741251
 21
419.4743253175
 31
0.0
  0
LINE
  5
121
330
1F
100
AcDbEntity
  8
0
  6
Continuous
 62
     8
370
     0
100
AcDbLine
 10
335.0457020786
 20
417.9869820007
 30
0.0
 11
334.6508157058
 21
422.5931322287
 31
0.0
  0
SPLINE
  5
122
330
1F
100
AcDbEntity
  8
0
  6
Continuous
 62
     7
370
    15
100
AcDbSpline
210
0.0
220
0.0
230
1.0
 70
     8
 71
     3
 72
    22
 73
    18
 74
     0
 42
0.00000001
 43
0.00000001
 40
0.0
 40
0.0
 40
0.0
 40
0.0
 40
0.0504748135555348
 40
0.1671358887229658
 40
0.2771583757925046
 40
0.3748688149674325
 40
0.4566683019124156
 40
0.5236415584424134
 40
0.5788014529311234
 40
0.6339284746563465
 40
0.6917445387069616
 40
0.7535918257968022
 40
0.7981450625594102
 40
0.8487206276138302
 40
0.9075180344520749
 40
0.9759934777476398
 40
1.0
 40
1.0
 40
1.0
 40
1.0
 10
208.2055829075802
 20
237.0040377923044
 30
0.0
 10
207.5943743635518
 20
237.0113793606584
 30
0.0
 10
205.5704959971886
 20
237.0356892979326
 30
0.0
 10
202.2547289542594
 20
236.8870899709798
 30
0.0
 10
198.5007268171201
 20
236.5871307580947
 30
0.0
 10
195.2266854801839
 20
236.1527359731609
 30
0.0
 10
192.4732458152768
 20
235.6242412753112
 30
0.0
 10
190.2448870837425
 20
235.040018144701
 30
0.0
 10
188.3821969729848
 20
234.4145793559851
 30
0.0
 10
186.5586431238758
 20
233.6353422765631
 30
0.0
 10
184.7089485169927
 20
232.608977460328
 30
0.0
 10
183.0920152568525
 20
231.4222981830277
 30
0.0
 10
181.7073763129116
 20
230.1219180352902
 30
0.0
 10
180.5029384440985
 20
228.727237120037
 30
0.0
 10
179.3323182786286
 20
226.9897787860706
 30
0.0
 10
178.4754813470269
 20
225.4418316799879
 30
0.0
 10
178.0906419609414
 20
224.4497834971025
 30
0.0
 10
177.9907451299116
 20
224.1922670544452
 30
0.0
  0
LINE
  5
123
330
1F
100
AcDbEntity
  8
0
  6
Continuous
 62
     7
370
    15
100
AcDbLine
 10
239.0935028954
 20
222.5166798993
 30
0.0
 11
239.032717368
 21
222.6680233365
 31
0.0
  0
SPLINE
  5
124
330
1F
100
AcDbEntity
  8
0
  6
Continuous
 62
     7
370
    15
100
AcDbSpline
210
0.0
220
0.0
230
1.0
 70
     8
 71
     3
 72
    22
 73
    18
 74
     0
 42
0.00000001
 43
0.00000001
 40
0.0
 40
0.0
 40
0.0
 40
0.0
 40
0.0250023001479669
 40
0.0934057038955491
 40
0.152141777337326
 40
0.2026644480070532
 40
0.247173182656243
 40
0.3089817242125156
 40
0.3667973556466232
 40
0.4219672143313324
 40
0.4771991652270351
 40
0.544174438269483
 40
0.6258812626437681
 40
0.7233933151151201
 40
0.8331625046395013
 40
0.9496130273543139
 40
1.0
 40
1.0
 40
1.0
 40
1.0
 10
238.4337553492835
 20
224.1593153376483
 30
0.0
 10
238.3297039984837
 20
224.427828599409
 30
0.0
 10
237.9409801768664
 20
225.4309631138983
 30
0.0
 10
237.0792772610319
 20
226.9896381401341
 30
0.0
 10
235.9084666774208
 20
228.7269767050411
 30
0.0
 10
234.7041561785867
 20
230.1216621845636
 30
0.0
 10
233.3193289656912
 20
231.422281690299
 30
0.0
 10
231.7014711601127
 20
232.6096277402162
 30
0.0
 10
229.8496570569456
 20
233.6369193878107
 30
0.0
 10
228.0228303010345
 20
234.4170792295082
 30
0.0
 10
226.1566459501767
 20
235.0430084387359
 30
0.0
 10
223.9260559895271
 20
235.6269414796773
 30
0.0
 10
221.1729611074499
 20
236.1545348666089
 30
0.0
 10
217.9018127458968
 20
236.5879645682901
 30
0.0
 10
214.1516095924941
 20
236.887327539156
 30
0.0
 10
210.8388743243877
 20
237.0356992787887
 30
0.0
 10
208.8164584117804
 20
237.0113951311652
 30
0.0
 10
208.2056639674826
 20
237.0040549800869
 30
0.0
  0
SPLINE
  5
125
330
1F
100
AcDbEntity
  8
0
  6
Continuous
 62
     7
370
    15
100
AcDbSpline
210
0.0
220
0.0
230
1.0
 70
     8
 71
     3
 72
     9
 73
     5
 74
     0
 42
0.00000001
 43
0.00000001
 40
0.0
 40
0.0
 40
0.0
 40
0.0
 40
0.4189386301864954
 40
1.0
 40
1.0
 40
1.0
 40
1.0
 10
205.7432181727412
 20
237.1593898563438
 30
0.0
 10
205.7323393873038
 20
237.1471617884104
 30
0.0
 10
205.7063718955197
 20
237.117973580276
 30
0.0
 10
205.7046093243452
 20
237.0674481651392
 30
0.0
 10
205.7035851623242
 20
237.0380897982096
 30
0.0
  0
SPLINE
  5
126
330
1F
100
AcDbEntity
  8
0
  6
Continuous
 62
     7
370
    15
100
AcDbSpline
210
0.0
220
0.0
230
1.0
 70
     8
 71
     3
 72
    11
 73
     7
 74
     0
 42
0.00000001
 43
0.00000001
 40
0.0
 40
0.0
 40
0.0
 40
0.0
 40
0.0879789765862551
 40
0.4994400134329983
 40
0.8770763680625421
 40
1.0
 40
1.0
 40
1.0
 40
1.0
 10
210.7084853466659
 20
237.0349546483972
 30
0.0
 10
210.7099657542344
 20
237.0425204419383
 30
0.0
 10
210.7183697480592
 20
237.0854700211942
 30
0.0
 10
210.6795207754721
 20
237.1589273447786
 30
0.0
 10
210.6374143476465
 20
237.2058185406211
 30
0.0
 10
210.6164825991789
 20
237.2178879857262
 30
0.0
 10
210.6113423430388
 20
237.2208519062704
 30
0.0
  0
SPLINE
  5
127
330
1F
100
AcDbEntity
  8
0
  6
Continuous
 62
     7
370
    15
100
AcDbSpline
210
0.0
220
0.0
230
1.0
 70
     8
 71
     3
 72
    19
 73
    15
 74
     0
 42
0.00000001
 43
0.00000001
 40
0.0
 40
0.0
 40
0.0
 40
0.0
 40
0.070926314567551
 40
0.1719661690697173
 40
0.2676975332904902
 40
0.3691811111122545
 40
0.4558497239034017
 40
0.5392675269265312
 40
0.6277595527875425
 40
0.7133179008665181
 40
0.7956410989477447
 40
0.8786040691100521
 40
0.9627811981510829
 40
1.0
 40
1.0
 40
1.0
 40
1.0
 10
208.205961317196
 20
196.6992366515336
 30
0.0
 10
209.0270386393207
 20
196.6936451102445
 30
0.0
 10
211.0178021867673
 20
196.680087999029
 30
0.0
 10
214.1131681033822
 20
196.8615697312995
 30
0.0
 10
217.5469584450081
 20
197.2160432392292
 30
0.0
 10
220.7886631748513
 20
197.7501321739267
 30
0.0
 10
223.8506470813348
 20
198.4448418532482
 30
0.0
 10
226.7166713708292
 20
199.2854561091678
 30
0.0
 10
229.5059068223994
 20
200.3072232484141
 30
0.0
 10
232.1982697984064
 20
201.5196567682303
 30
0.0
 10
234.7347898261083
 20
202.891837755843
 30
0.0
 10
237.1415478407848
 20
204.4363810907907
 30
0.0
 10
239.0390475074646
 20
205.8083432097251
 30
0.0
 10
240.0847891957772
 20
206.7160717390574
 30
0.0
 10
240.405403341549
 20
206.9943724038174
 30
0.0
  0
SPLINE
  5
128
330
1F
100
AcDbEntity
  8
0
  6
Continuous
 62
     7
370
    15
100
AcDbSpline
210
0.0
220
0.0
230
1.0
 70
     8
 71
     3
 72
    20
 73
    16
 74
     0
 42
0.00000001
 43
0.00000001
 40
0.0
 40
0.0
 40
0.0
 40
0.0
 40
0.0127815435970745
 40
0.093132849538742
 40
0.1773663298820611
 40
0.2613769420762838
 40
0.3447871730324887
 40
0.4279009910413225
 40
0.512730819303931
 40
0.599679032333194
 40
0.6893886453019277
 40
0.7844212962549122
 40
0.8840609885790445
 40
0.9890193575890541
 40
1.0
 40
1.0
 40
1.0
 40
1.0
 10
175.9975706751308
 20
206.9853422778322
 30
0.0
 10
176.1065567807348
 20
206.8886137118392
 30
0.0
 10
176.9006851657724
 20
206.1838000158794
 30
0.0
 10
178.5262431586021
 20
204.9654022939925
 30
0.0
 10
180.8836987404239
 20
203.3687297989505
 30
0.0
 10
183.3958916248695
 20
201.9367681235848
 30
0.0
 10
185.9969556449354
 20
200.6917342944978
 30
0.0
 10
188.6935739713348
 20
199.6296113375082
 30
0.0
 10
191.4964572515781
 20
198.7324225958885
 30
0.0
 10
194.4288971006837
 20
197.999541749421
 30
0.0
 10
197.5177366097534
 20
197.4202666562115
 30
0.0
 10
200.7820342233352
 20
196.9936153677695
 30
0.0
 10
204.241183992934
 20
196.7457567064366
 30
0.0
 10
206.7372824788562
 20
196.6478574958491
 30
0.0
 10
208.0789130440773
 20
196.6792130656331
 30
0.0
 10
208.2059795534751
 20
196.6821827675063
 30
0.0
  0
SPLINE
  5
129
330
1F
100
AcDbEntity
  8
0
  6
Continuous
 62
     7
370
    15
100
AcDbSpline
210
0.0
220
0.0
230
1.0
 70
     8
 71
     3
 72
    12
 73
     8
 74
     0
 42
0.00000001
 43
0.00000001
 40
0.0
 40
0.0
 40
0.0
 40
0.0
 40
0.0126009396421088
 40
0.2945312847114397
 40
0.5969725149876338
 40
0.9350595818600098
 40
1.0
 40
1.0
 40
1.0
 40
1.0
 10
240.4209701131615
 20
206.9772527536637
 30
0.0
 10
240.4272915145997
 20
206.981541199015
 30
0.0
 10
240.5750464074624
 20
207.0817782729646
 30
0.0
 10
240.79507433337
 20
207.3847849045565
 30
0.0
 10
241.0135323920565
 20
207.887858835604
 30
0.0
 10
241.1056584997608
 20
208.3157745237332
 30
0.0
 10
241.0666261761834
 20
208.5537514144855
 30
0.0
 10
241.060336839827
 20
208.5920969848692
 30
0.0
  0
SPLINE
  5
12A
330
1F
100
AcDbEntity
  8
0
  6
Continuous
 62
     7
370
    15
100
AcDbSpline
210
0.0
220
0.0
230
1.0
 70
     8
 71
     3
 72
    11
 73
     7
 74
     0
 42
0.00000001
 43
0.00000001
 40
0.0
 40
0.0
 40
0.0
 40
0.0
 40
0.1239181660222427
 40
0.568985828883427
 40
0.9709879002184565
 40
1.0
 40
1.0
 40
1.0
 40
1.0
 10
175.3815249230488
 20
208.1433577364043
 30
0.0
 10
175.3842854742872
 20
208.0878283079268
 30
0.0
 10
175.3969608921455
 20
207.832857960125
 30
0.0
 10
175.5972287173512
 20
207.4368778013184
 30
0.0
 10
175.815200082705
 20
207.0887578851141
 30
0.0
 10
175.9819504335671
 20
206.9862477860145
 30
0.0
 10
175.9931746070212
 20
206.9793477037829
 30
0.0
  0
LINE
  5
12B
330
1F
100
AcDbEntity
  8
0
  6
Continuous
 62
     7
370
    15
100
AcDbLine
 10
241.2003749693
 20
205.4806083769
 30
0.0
 11
241.1999739111
 21
205.4965169504
 31
0.0
  0
LINE
  5
12C
330
1F
100
AcDbEntity
  8
0
  6
Continuous
 62
     7
370
    15
100
AcDbLine
 10
241.162202532
 20
206.3900609108
 30
0.0
 11
241.1328347703
 21
206.7810393306
 31
0.0
  0
LINE
  5
12D
330
1F
100
AcDbEntity
  8
0
  6
Continuous
 62
     7
370
    15
100
AcDbLine
 10
175.3100474693
 20
206.8078807827
 30
0.0
 11
175.2490605305
 21
206.3900609109
 31
0.0
  0
SPLINE
  5
12E
330
1F
100
AcDbEntity
  8
0
  6
Continuous
 62
     7
370
    15
100
AcDbSpline
210
0.0
220
0.0
230
1.0
 70
     8
 71
     3
 72
     9
 73
     5
 74
     0
 42
0.00000001
 43
0.00000001
 40
0.0
 40
0.0
 40
0.0
 40
0.0
 40
0.6484339844888126
 40
1.0
 40
1.0
 40
1.0
 40
1.0
 10
175.2528211812017
 20
206.4724774159412
 30
0.0
 10
175.2438349592715
 20
206.2681625816551
 30
0.0
 10
175.2299766141739
 20
205.9530729361807
 30
0.0
 10
175.2210382988343
 20
205.6230985876331
 30
0.0
 10
175.217895890925
 20
205.5070908206933
 30
0.0
  0
SPLINE
  5
12F
330
1F
100
AcDbEntity
  8
0
  6
Continuous
 62
     7
370
    15
100
AcDbSpline
210
0.0
220
0.0
230
1.0
 70
     8
 71
     3
 72
     9
 73
     5
 74
     0
 42
0.00000001
 43
0.00000001
 40
0.0
 40
0.0
 40
0.0
 40
0.0
 40
0.3634746676498807
 40
1.0
 40
1.0
 40
1.0
 40
1.0
 10
241.1933370007964
 20
205.5069553700096
 30
0.0
 10
241.1901022133754
 20
205.6268441765426
 30
0.0
 10
241.181202590626
 20
205.956685062864
 30
0.0
 10
241.1672108529417
 20
206.2710585148892
 30
0.0
 10
241.158304757462
 20
206.4711651809216
 30
0.0
  0
LINE
  5
130
330
1F
100
AcDbEntity
  8
0
  6
Continuous
 62
     7
370
    15
100
AcDbLine
 10
241.1012163617
 20
206.8078803522
 30
0.0
 11
240.9397228762
 21
207.7637803591
 31
0.0
  0
LINE
  5
131
330
1F
100
AcDbEntity
  8
0
  6
Continuous
 62
     7
370
    15
100
AcDbLine
 10
175.4667712563
 20
207.7969232453
 30
0.0
 11
175.3100467008
 21
206.8078803522
 31
0.0
  0
SPLINE
  5
132
330
1F
100
AcDbEntity
  8
0
  6
Continuous
 62
     7
370
    15
100
AcDbSpline
210
0.0
220
0.0
230
1.0
 70
     8
 71
     3
 72
    14
 73
    10
 74
     0
 42
0.00000001
 43
0.00000001
 40
0.0
 40
0.0
 40
0.0
 40
0.0
 40
0.043564201594561
 40
0.1766355700398046
 40
0.346805709838766
 40
0.5488774199651413
 40
0.7198383863595011
 40
0.8728911622688602
 40
1.0
 40
1.0
 40
1.0
 40
1.0
 10
175.4667576843144
 20
167.4104617787781
 30
0.0
 10
175.4855671999666
 20
166.7974751413263
 30
0.0
 10
175.561832330459
 20
164.3120572943346
 30
0.0
 10
175.8007115640381
 20
159.4309773055392
 30
0.0
 10
176.2379843042922
 20
152.3260084597393
 30
0.0
 10
176.8730323399117
 20
144.6988053733006
 30
0.0
 10
177.6850602392378
 20
137.3318089677526
 30
0.0
 10
178.5242823532124
 20
131.0308870667854
 30
0.0
 10
179.1912677592977
 20
127.1405793440182
 30
0.0
 10
179.4938778801115
 20
125.375553484009
 30
0.0
  0
SPLINE
  5
133
330
1F
100
AcDbEntity
  8
0
  6
Continuous
 62
     7
370
    15
100
AcDbSpline
210
0.0
220
0.0
230
1.0
 70
     8
 71
     3
 72
    10
 73
     6
 74
     0
 42
0.00000001
 43
0.00000001
 40
0.0
 40
0.0
 40
0.0
 40
0.0
 40
0.2214424360283553
 40
0.6962619633375488
 40
0.9999999999999999
 40
0.9999999999999999
 40
0.9999999999999999
 40
0.9999999999999999
 10
175.2139658741138
 20
179.0027922565805
 30
0.0
 10
175.2223239392867
 20
178.1489986600489
 30
0.0
 10
175.2486034680496
 20
175.4644905934469
 30
0.0
 10
175.3240239682807
 20
171.5987908100633
 30
0.0
 10
175.4267005514496
 20
168.5858844970388
 30
0.0
 10
175.4667576843144
 20
167.4104617787781
 30
0.0
  0
SPLINE
  5
134
330
1F
100
AcDbEntity
  8
0
  6
Continuous
 62
     7
370
    15
100
AcDbSpline
210
0.0
220
0.0
230
1.0
 70
     8
 71
     3
 72
    14
 73
    10
 74
     0
 42
0.00000001
 43
0.00000001
 40
0.0
 40
0.0
 40
0.0
 40
0.0
 40
0.003388271234303
 40
0.1378383187617182
 40
0.3009604718451328
 40
0.479088517362894
 40
0.67704297370804
 40
0.8875952124876861
 40
1.0
 40
1.0
 40
1.0
 40
1.0
 10
236.9207148173299
 20
125.3747436363607
 30
0.0
 10
236.9290392094459
 20
125.4177204672424
 30
0.0
 10
237.267683944368
 20
127.1660616432566
 30
0.0
 10
237.8583882905288
 20
131.0109660510284
 30
0.0
 10
238.7032429288758
 20
137.098416943641
 30
0.0
 10
239.4664658529146
 20
144.0241122099123
 30
0.0
 10
240.1151200502549
 20
151.5758434221502
 30
0.0
 10
240.5600931699845
 20
158.2923407248429
 30
0.0
 10
240.743385224868
 20
162.4605898425256
 30
0.0
 10
240.807179794438
 20
163.9113437144911
 30
0.0
  0
SPLINE
  5
135
330
1F
100
AcDbEntity
  8
0
  6
Continuous
 62
     7
370
    15
100
AcDbSpline
210
0.0
220
0.0
230
1.0
 70
     8
 71
     3
 72
    26
 73
    22
 74
     0
 42
0.00000001
 43
0.00000001
 40
0.0
 40
0.0
 40
0.0
 40
0.0
 40
0.0697231630347407
 40
0.1512807893471504
 40
0.2239567076222108
 40
0.2898651751275156
 40
0.3468153836502121
 40
0.3973472233853796
 40
0.4439006115735533
 40
0.4865144300919012
 40
0.5253769677586124
 40
0.561855486698266
 40
0.6008265171232108
 40
0.6386551103480133
 40
0.6788335793398822
 40
0.7221412004238984
 40
0.7709855591270472
 40
0.8264554847726205
 40
0.8950561116744986
 40
0.994618954922909
 40
0.9999999999999999
 40
0.9999999999999999
 40
0.9999999999999999
 40
0.9999999999999999
 10
208.2058329505817
 20
102.4332952916884
 30
0.0
 10
209.1814005846965
 20
102.4299699944463
 30
0.0
 10
211.2981238560847
 20
102.4227549805297
 30
0.0
 10
214.4282170754553
 20
102.6006289341069
 30
0.0
 10
217.4925539646147
 20
102.9214927429688
 30
0.0
 10
220.1916939168659
 20
103.3777341499817
 30
0.0
 10
222.5543016378533
 20
103.9354901659743
 30
0.0
 10
224.6091527848918
 20
104.5926362550262
 30
0.0
 10
226.4126338735036
 20
105.3522460527893
 30
0.0
 10
227.9935159121489
 20
106.1999662774524
 30
0.0
 10
229.3608015953531
 20
107.1293614552257
 30
0.0
 10
230.5741455101933
 20
108.1770598757424
 30
0.0
 10
231.6289674975212
 20
109.3659098889921
 30
0.0
 10
232.5643245109667
 20
110.7126384610002
 30
0.0
 10
233.3800606328764
 20
112.2041269091714
 30
0.0
 10
234.1183533510078
 20
113.90417556317
 30
0.0
 10
234.7875023827141
 20
115.8598981821648
 30
0.0
 10
235.4229772475766
 20
118.1949746209552
 30
0.0
 10
236.1288079732742
 20
121.2427130941635
 30
0.0
 10
236.6215053082941
 20
123.621220049718
 30
0.0
 10
236.8657663814023
 20
125.068902122279
 30
0.0
 10
236.8782909777932
 20
125.1431326717092
 30
0.0
  0
SPLINE
  5
136
330
1F
100
AcDbEntity
  8
0
  6
Continuous
 62
     7
370
    15
100
AcDbSpline
210
0.0
220
0.0
230
1.0
 70
     8
 71
     3
 72
    26
 73
    22
 74
     0
 42
0.00000001
 43
0.00000001
 40
0.0
 40
0.0
 40
0.0
 40
0.0
 40
0.0840257477888338
 40
0.1680244312352573
 40
0.2260389024235221
 40
0.2772518415518658
 40
0.3231228635775776
 40
0.3640946531692718
 40
0.4025497560682881
 40
0.438814009360629
 40
0.4768755911546494
 40
0.5151895286987214
 40
0.5558988057128292
 40
0.6012748014224986
 40
0.6502672779134567
 40
0.7037127492547671
 40
0.7642036023640411
 40
0.833348015488188
 40
0.9092962240611084
 40
0.9949352050895951
 40
1.0
 40
1.0
 40
1.0
 40
1.0
 10
179.5425353716088
 20
125.1444818390539
 30
0.0
 10
179.7548760333163
 20
123.9881953789926
 30
0.0
 10
180.1794889626909
 20
121.6759948939095
 30
0.0
 10
180.8879353340927
 20
118.5934239761985
 30
0.0
 10
181.5849361006586
 20
115.9808181100822
 30
0.0
 10
182.2824476987389
 20
113.9239669430225
 30
0.0
 10
183.0545006476959
 20
112.150808566528
 30
0.0
 10
183.9060663970055
 20
110.6151680847109
 30
0.0
 10
184.8430607665011
 20
109.2912645310973
 30
0.0
 10
185.9012527555742
 20
108.1157221204624
 30
0.0
 10
187.1022846053226
 20
107.0890638015044
 30
0.0
 10
188.464469759298
 20
106.174294074157
 30
0.0
 10
190.0014926893541
 20
105.3530248276193
 30
0.0
 10
191.7440434151202
 20
104.615794992613
 30
0.0
 10
193.7134240589888
 20
103.9779151001467
 30
0.0
 10
195.93017725116
 20
103.4403919273685
 30
0.0
 10
198.4531651159817
 20
102.9913310203261
 30
0.0
 10
201.3113358757715
 20
102.654283085768
 30
0.0
 10
204.5338107781539
 20
102.4593561848395
 30
0.0
 10
206.8659329223257
 20
102.3870315518243
 30
0.0
 10
208.1346231166354
 20
102.4122026252141
 30
0.0
 10
208.2054653232856
 20
102.4136081491085
 30
0.0
  0
LINE
  5
137
330
1F
100
AcDbEntity
  8
0
  6
Continuous
 62
     7
370
    15
100
AcDbLine
 10
175.1967209804
 20
179.5535955192
 30
0.0
 11
175.2040314063
 21
179.0032853849
 31
0.0
  0
LINE
  5
138
330
1F
100
AcDbEntity
  8
0
  6
Continuous
 62
     7
370
    15
100
AcDbLine
 10
241.206717115
 20
179.0029843238
 30
0.0
 11
241.2142295041
 21
179.5534792331
 31
0.0
  0
LINE
  5
139
330
1F
100
AcDbEntity
  8
0
  6
Continuous
 62
     7
370
    15
100
AcDbLine
 10
179.5047881481
 20
125.377425367
 30
0.0
 11
179.5463506374
 21
125.1452938052
 31
0.0
  0
LINE
  5
13A
330
1F
100
AcDbEntity
  8
0
  6
Continuous
 62
     7
370
    15
100
AcDbLine
 10
236.8755987172
 20
125.1433263344
 30
0.0
 11
236.918421155
 21
125.3752447455
 31
0.0
  0
SPLINE
  5
13B
330
1F
100
AcDbEntity
  8
0
  6
Continuous
 62
     7
370
    15
100
AcDbSpline
210
0.0
220
0.0
230
1.0
 70
     8
 71
     3
 72
    18
 73
    14
 74
     0
 42
0.00000001
 43
0.00000001
 40
0.0
 40
0.0
 40
0.0
 40
0.0
 40
0.0944156267843447
 40
0.1905629272132736
 40
0.2734070281094835
 40
0.3507269002579547
 40
0.4223863669639055
 40
0.5004160380541429
 40
0.5694298510198208
 40
0.6494432530427215
 40
0.7403724456489862
 40
0.8648840037861678
 40
0.9999999999999999
 40
0.9999999999999999
 40
0.9999999999999999
 40
0.9999999999999999
 10
217.704480820596
 20
257.9627415635635
 30
0.0
 10
217.6206137778728
 20
258.3572012956384
 30
0.0
 10
217.451341489986
 20
259.1533555316702
 30
0.0
 10
217.0806597139199
 20
260.2629303350868
 30
0.0
 10
216.6174198280238
 20
261.2581300122762
 30
0.0
 10
216.0484382663581
 20
262.0743196580152
 30
0.0
 10
215.3547251192495
 20
262.7602881817612
 30
0.0
 10
214.5514294776742
 20
263.2522397766034
 30
0.0
 10
213.6427008106804
 20
263.5990404445039
 30
0.0
 10
212.6403803196733
 20
263.824042552605
 30
0.0
 10
211.3866057045921
 20
263.9700811097261
 30
0.0
 10
209.8914028525207
 20
264.0548317616272
 30
0.0
 10
208.7829196722377
 20
264.0439862777141
 30
0.0
 10
208.2060401897629
 20
264.0383420448939
 30
0.0
  0
SPLINE
  5
13C
330
1F
100
AcDbEntity
  8
0
  6
Continuous
 62
     7
370
    15
100
AcDbSpline
210
0.0
220
0.0
230
1.0
 70
     8
 71
     3
 72
    19
 73
    15
 74
     0
 42
0.00000001
 43
0.00000001
 40
0.0
 40
0.0
 40
0.0
 40
0.0
 40
0.1264266868168382
 40
0.2512925471206722
 40
0.3474006516850539
 40
0.4303659167706081
 40
0.5055249317358748
 40
0.5764561779875116
 40
0.6490160148501198
 40
0.7223087791445113
 40
0.8009502997250059
 40
0.886557226061408
 40
0.9965168379925593
 40
1.0
 40
1.0
 40
1.0
 40
1.0
 10
208.206034110219
 20
264.0371852844864
 30
0.0
 10
207.6648241928372
 20
264.0433208797095
 30
0.0
 10
206.5890859757718
 20
264.0555163219101
 30
0.0
 10
205.1031469238554
 20
263.9768254736365
 30
0.0
 10
203.8091389225389
 20
263.8319119769218
 30
0.0
 10
202.7438865232565
 20
263.5948519995591
 30
0.0
 10
201.8263746176114
 20
263.2362845913478
 30
0.0
 10
201.0283983573521
 20
262.7342893085385
 30
0.0
 10
200.3653513833476
 20
262.0757158850932
 30
0.0
 10
199.8127152163044
 20
261.2843955746301
 30
0.0
 10
199.371564946788
 20
260.3640493446879
 30
0.0
 10
198.9963164877452
 20
259.2511251340608
 30
0.0
 10
198.777348924789
 20
258.4252812363885
 30
0.0
 10
198.6942510953092
 20
257.9468784554833
 30
0.0
 10
198.6916996485093
 20
257.9321895129191
 30
0.0
  0
SPLINE
  5
13D
330
1F
100
AcDbEntity
  8
0
  6
Continuous
 62
     7
370
    15
100
AcDbSpline
210
0.0
220
0.0
230
1.0
 70
     8
 71
     3
 72
    14
 73
    10
 74
     0
 42
0.00000001
 43
0.00000001
 40
0.0
 40
0.0
 40
0.0
 40
0.0
 40
0.0663186153054153
 40
0.3410416650902193
 40
0.5177666985531426
 40
0.6681718245571305
 40
0.8102061706140232
 40
0.9452134813765043
 40
1.0
 40
1.0
 40
1.0
 40
1.0
 10
217.9124484481603
 20
244.0948750265655
 30
0.0
 10
217.9455431528174
 20
244.0856295886923
 30
0.0
 10
218.1157317662248
 20
244.0380851773351
 30
0.0
 10
218.3461731665518
 20
244.0211293362271
 30
0.0
 10
218.5931303938892
 20
244.0784382681887
 30
0.0
 10
218.759911875167
 20
244.2113311723562
 30
0.0
 10
218.8365178970561
 20
244.3900151456596
 30
0.0
 10
218.8402530117885
 20
244.5359840773447
 30
0.0
 10
218.8131768682049
 20
244.6055476631645
 30
0.0
 10
218.8053609784602
 20
244.6256281194278
 30
0.0
  0
SPLINE
  5
13E
330
1F
100
AcDbEntity
  8
0
  6
Continuous
 62
     7
370
    15
100
AcDbSpline
210
0.0
220
0.0
230
1.0
 70
     8
 71
     3
 72
    14
 73
    10
 74
     0
 42
0.00000001
 43
0.00000001
 40
0.0
 40
0.0
 40
0.0
 40
0.0
 40
0.0822947416783089
 40
0.2348167843134345
 40
0.3939863908305298
 40
0.5338264818912133
 40
0.6990338148255258
 40
0.9557002037235081
 40
0.9999999999999999
 40
0.9999999999999999
 40
0.9999999999999999
 40
0.9999999999999999
 10
197.6004006153665
 20
244.5763483198389
 30
0.0
 10
197.5904406921282
 20
244.5455558090885
 30
0.0
 10
197.5620214140658
 20
244.4576935932544
 30
0.0
 10
197.6082395000583
 20
244.2806741853918
 30
0.0
 10
197.7393075469725
 20
244.1275661641128
 30
0.0
 10
197.9217719571711
 20
244.046751451869
 30
0.0
 10
198.1511531334646
 20
244.0266039985363
 30
0.0
 10
198.3646318026701
 20
244.0490231427058
 30
0.0
 10
198.5145083138447
 20
244.0984954784521
 30
0.0
 10
198.5365689280888
 20
244.1057774074622
 30
0.0
  0
LINE
  5
13F
330
1F
100
AcDbEntity
  8
0
  6
Continuous
 62
     7
370
    15
100
AcDbLine
 10
233.5037800355
 20
231.2114261587
 30
0.0
 11
233.1011048612
 21
237.5778540806
 31
0.0
  0
LINE
  5
140
330
1F
100
AcDbEntity
  8
0
  6
Continuous
 62
     7
370
    15
100
AcDbLine
 10
183.3101569077
 20
237.5778336277
 30
0.0
 11
182.9074799286
 21
231.2113771717
 31
0.0
  0
SPLINE
  5
141
330
1F
100
AcDbEntity
  8
0
  6
Continuous
 62
     7
370
    15
100
AcDbSpline
210
0.0
220
0.0
230
1.0
 70
     8
 71
     3
 72
    11
 73
     7
 74
     0
 42
0.00000001
 43
0.00000001
 40
0.0
 40
0.0
 40
0.0
 40
0.0
 40
0.2468973900971252
 40
0.4345830049202491
 40
0.6224905762051883
 40
1.0
 40
1.0
 40
1.0
 40
1.0
 10
237.4924496317809
 20
225.8010398812515
 30
0.0
 10
237.7248421317794
 20
225.4511188007457
 30
0.0
 10
238.1338939687816
 20
224.8351959082786
 30
0.0
 10
238.5800979743129
 20
223.8711126218113
 30
0.0
 10
239.0789564762931
 20
222.658832726147
 30
0.0
 10
239.371955465168
 20
221.6353179028975
 30
0.0
 10
239.5675807831636
 20
220.9519523611244
 30
0.0
  0
SPLINE
  5
142
330
1F
100
AcDbEntity
  8
0
  6
Continuous
 62
     7
370
    15
100
AcDbSpline
210
0.0
220
0.0
230
1.0
 70
     8
 71
     3
 72
    12
 73
     8
 74
     0
 42
0.00000001
 43
0.00000001
 40
0.0
 40
0.0
 40
0.0
 40
0.0
 40
0.199170530343814
 40
0.3989461493557072
 40
0.5990094923014896
 40
0.7996358742461658
 40
1.0
 40
1.0
 40
1.0
 40
1.0
 10
176.8436828185198
 20
220.9519544254745
 30
0.0
 10
176.9450497480278
 20
221.3196122346986
 30
0.0
 10
177.148091564151
 20
222.0560448134408
 30
0.0
 10
177.5026994025278
 20
223.0786963081123
 30
0.0
 10
177.90820970071
 20
224.0475818781109
 30
0.0
 10
178.3521671368913
 20
224.9723988112777
 30
0.0
 10
178.7396773945653
 20
225.5409423699762
 30
0.0
 10
178.9333058034897
 20
225.8250282296276
 30
0.0
  0
SPLINE
  5
143
330
1F
100
AcDbEntity
  8
0
  6
Continuous
 62
     7
370
    15
100
AcDbSpline
210
0.0
220
0.0
230
1.0
 70
     8
 71
     3
 72
    14
 73
    10
 74
     0
 42
0.00000001
 43
0.00000001
 40
0.0
 40
0.0
 40
0.0
 40
0.0
 40
0.5000000000000037
 40
0.5000000000000037
 40
0.6250000000000036
 40
0.6250000000000036
 40
0.7500000000000034
 40
0.7500000000000034
 40
1.0
 40
1.0
 40
1.0
 40
1.0
 10
175.3608001117083
 20
208.8143742828773
 30
0.0
 10
175.4827444339527
 20
211.2524910008962
 30
0.0
 10
175.6476494237052
 20
213.4940590957457
 30
0.0
 10
175.9450863540854
 20
216.0424358264865
 30
0.0
 10
176.0094167757921
 20
216.5404944087107
 30
0.0
 10
176.1473961494315
 20
217.5030647254118
 30
0.0
 10
176.2210960159172
 20
217.9683748613633
 30
0.0
 10
176.4579852136697
 20
219.319288307238
 30
0.0
 10
176.6368203234789
 20
220.1599225813975
 30
0.0
 10
176.8436828185198
 20
220.9519544254745
 30
0.0
  0
SPLINE
  5
144
330
1F
100
AcDbEntity
  8
0
  6
Continuous
 62
     7
370
    15
100
AcDbSpline
210
0.0
220
0.0
230
1.0
 70
     8
 71
     3
 72
    16
 73
    12
 74
     0
 42
0.00000001
 43
0.00000001
 40
0.0
 40
0.0
 40
0.0
 40
0.0
 40
0.2500000000000009
 40
0.2500000000000009
 40
0.5000000000000018
 40
0.5000000000000018
 40
0.7500000000000009
 40
0.7500000000000009
 40
0.8750000000000004
 40
0.8750000000000004
 40
1.0
 40
1.0
 40
1.0
 40
1.0
 10
239.5675807831636
 20
220.9519523611245
 30
0.0
 10
239.7742864807781
 20
220.1605205888071
 30
0.0
 10
239.9523619449377
 20
219.3230246730874
 30
0.0
 10
240.2661342526218
 20
217.5366232891642
 30
0.0
 10
240.4018405163387
 20
216.5873512369566
 30
0.0
 10
240.6389574926764
 20
214.5681157362041
 30
0.0
 10
240.7402693554511
 20
213.4983801497287
 30
0.0
 10
240.8718718350174
 20
211.797392935674
 30
0.0
 10
240.9122062255564
 20
211.2157016601528
 30
0.0
 10
240.9860762863894
 20
210.0320418710432
 30
0.0
 10
241.019731994483
 20
209.4287994320003
 30
0.0
 10
241.0504629508092
 20
208.8143742828774
 30
0.0
  0
ARC
  5
145
330
1F
100
AcDbEntity
  8
0
  6
Continuous
 62
     7
370
    15
100
AcDbCircle
 10
208.2371308123
 20
227.0411853076
 30
0.0
 40
10.46556164050066
100
AcDbArc
 50
77.5139847795
 51
102.9303854815
  0
LWPOLYLINE
  5
146
330
1F
100
AcDbEntity
  8
0
  6
Continuous
 62
     7
370
    15
100
AcDbPolyline
 90
        5
 70
   128
 43
0.0
 10
240.3545937114
 20
207.1733026761
 10
240.4058388241
 20
207.0789416523
 10
240.4291893817
 20
207.0113925863
 10
240.4228901412
 20
206.9757330881
 10
240.4213478272
 20
206.9745229675
  0
LWPOLYLINE
  5
147
330
1F
100
AcDbEntity
  8
0
  6
Continuous
 62
     7
370
    15
100
AcDbPolyline
 90
       14
 70
   128
 43
0.0
 10
241.1808365228
 20
205.4880862841
 10
241.2728725995
 20
201.6626197913
 10
241.3023498897
 20
199.6225702177
 10
241.3215104179
 20
197.5436791543
 10
241.3315505602
 20
195.4638992743
 10
241.3337660621
 20
193.3600046407
 10
241.3286489778
 20
191.2349415587
 10
241.3168264628
 20
189.0911602222
 10
241.2970377624
 20
186.7293120935
 10
241.2707174023
 20
184.3552119731
 10
241.2385325425
 20
181.9689066751
 10
241.2011836053
 20
179.5755807653
 10
241.2011826113
 20
179.5755208931
 10
241.2011826113
 20
179.5755208931
  0
SPLINE
  5
148
330
1F
100
AcDbEntity
  8
0
  6
Continuous
 62
     7
370
    15
100
AcDbSpline
210
0.0
220
0.0
230
1.0
 70
     8
 71
     3
 72
    25
 73
    21
 74
     0
 42
0.00000001
 43
0.00000001
 40
0.0
 40
0.0
 40
0.0
 40
0.0
 40
0.0312499999999998
 40
0.0312499999999998
 40
0.0624999999999995
 40
0.1249999999999996
 40
0.1249999999999996
 40
0.2499999999999997
 40
0.2499999999999997
 40
0.3749999999999999
 40
0.3749999999999999
 40
0.5
 40
0.5
 40
0.7500000000000002
 40
0.7500000000000002
 40
0.8750000000000004
 40
0.8750000000000004
 40
0.9375000000000002
 40
0.9375000000000002
 40
1.0
 40
1.0
 40
1.0
 40
1.0
 10
175.233298977652
 20
205.6074620615415
 30
0.0
 10
175.2254436889724
 20
205.3592949791591
 30
0.0
 10
175.2178953944552
 20
205.1079559317531
 30
0.0
 10
175.2035710554709
 20
204.605248564187
 30
0.0
 10
175.1831447569777
 20
203.8480177151079
 30
0.0
 10
175.1657341334482
 20
203.0815630758838
 30
0.0
 10
175.1345598976333
 20
201.5370947363842
 30
0.0
 10
175.1186302601129
 20
200.492058732928
 30
0.0
 10
175.0948585547889
 20
198.3747701837128
 30
0.0
 10
175.0870157124346
 20
197.3010330210311
 30
0.0
 10
175.0778039665191
 20
195.1389876759343
 30
0.0
 10
175.0764071515948
 20
194.0500430059202
 30
0.0
 10
175.0809646399208
 20
190.7620965721108
 30
0.0
 10
175.0955597019359
 20
188.5389191479836
 30
0.0
 10
175.1299211635931
 20
185.1894448856249
 30
0.0
 10
175.1435114773274
 20
184.0700267230906
 30
0.0
 10
175.1665654275308
 20
182.3872182507658
 30
0.0
 10
175.1746915375298
 20
181.8256685831864
 30
0.0
 10
175.1917733818281
 20
180.7014299543067
 30
0.0
 10
175.2007536040518
 20
180.1372674478298
 30
0.0
 10
175.2100804512432
 20
179.5755208930583
 30
0.0
  0
LINE
  5
149
330
1F
100
AcDbEntity
  8
0
  6
Continuous
 62
     7
370
    15
100
AcDbLine
 10
241.1490823946
 20
206.4708017146
 30
0.0
 11
241.1574432767
 21
206.2544487936
 31
0.0
  0
SPLINE
  5
14A
330
1F
100
AcDbEntity
  8
0
  6
Continuous
 62
     7
370
    15
100
AcDbSpline
210
0.0
220
0.0
230
1.0
 70
     8
 71
     3
 72
     9
 73
     5
 74
     0
 42
0.00000001
 43
0.00000001
 40
0.0
 40
0.0
 40
0.0
 40
0.0
 40
0.4668523005388224
 40
1.0
 40
1.0
 40
1.0
 40
1.0
 10
241.1932894472696
 20
179.0253720042782
 30
0.0
 10
241.1624271547863
 20
176.6787786491331
 30
0.0
 10
241.0963199674647
 20
171.6523637585203
 30
0.0
 10
240.8893123069588
 20
166.6086330302628
 30
0.0
 10
240.7789466489893
 20
163.9195795957907
 30
0.0
  0
SPLINE
  5
14B
330
1F
100
AcDbEntity
  8
0
  6
Continuous
 62
     7
370
    15
100
AcDbSpline
210
0.0
220
0.0
230
1.0
 70
     8
 71
     3
 72
    14
 73
    10
 74
     0
 42
0.00000001
 43
0.00000001
 40
0.0
 40
0.0
 40
0.0
 40
0.0
 40
0.2499999999999996
 40
0.2499999999999996
 40
0.3749999999999996
 40
0.3749999999999996
 40
0.4999999999999996
 40
0.4999999999999996
 40
1.0
 40
1.0
 40
1.0
 40
1.0
 10
217.896489695948
 20
244.1206895888461
 30
0.0
 10
217.1457958193609
 20
244.3069935968498
 30
0.0
 10
216.3760115434869
 20
244.4731872951825
 30
0.0
 10
215.190161674397
 20
244.6928047860464
 30
0.0
 10
214.7898885986141
 20
244.7609338292317
 30
0.0
 10
213.9868947651123
 20
244.8855393418205
 30
0.0
 10
213.5831965443774
 20
244.9422011561074
 30
0.0
 10
211.5539323450992
 20
245.1963926574647
 30
0.0
 10
209.8965248519237
 20
245.3066430476532
 30
0.0
 10
208.2056315312589
 20
245.3066717590749
 30
0.0
  0
SPLINE
  5
14C
330
1F
100
AcDbEntity
  8
0
  6
Continuous
 62
     7
370
    15
100
AcDbSpline
210
0.0
220
0.0
230
1.0
 70
     8
 71
     3
 72
    16
 73
    12
 74
     0
 42
0.00000001
 43
0.00000001
 40
0.0
 40
0.0
 40
0.0
 40
0.0
 40
0.2499999999999999
 40
0.2499999999999999
 40
0.3749999999999998
 40
0.3749999999999998
 40
0.4999999999999998
 40
0.4999999999999998
 40
0.7499999999999999
 40
0.7499999999999999
 40
1.0
 40
1.0
 40
1.0
 40
1.0
 10
208.2056315312589
 20
245.3066717590749
 30
0.0
 10
207.3598449590879
 20
245.3066861205575
 30
0.0
 10
206.517479354604
 20
245.2791304601813
 30
0.0
 10
205.2591400014172
 20
245.1981245386345
 30
0.0
 10
204.8406202785481
 20
245.1644890647938
 30
0.0
 10
204.0134986304863
 20
245.0853298180639
 30
0.0
 10
203.6038666335348
 20
245.0397527465835
 30
0.0
 10
202.386683346308
 20
244.8862376325598
 30
0.0
 10
201.5908613825351
 20
244.761651774299
 30
0.0
 10
200.0300572192208
 20
244.4719616918251
 30
0.0
 10
199.2650933728648
 20
244.3069321025002
 30
0.0
 10
198.5148418512512
 20
244.120711439582
 30
0.0
  0
SPLINE
  5
14D
330
1F
100
AcDbEntity
  8
0
  6
Continuous
 62
     7
370
    15
100
AcDbSpline
210
0.0
220
0.0
230
1.0
 70
     8
 71
     3
 72
    14
 73
    10
 74
     0
 42
0.00000001
 43
0.00000001
 40
0.0
 40
0.0
 40
0.0
 40
0.0
 40
0.0514589301684318
 40
0.1329765167337063
 40
0.2145809556711549
 40
0.3795156755846564
 40
0.5445982062247138
 40
0.7722748786531202
 40
1.0
 40
1.0
 40
1.0
 40
1.0
 10
217.6872197655517
 20
257.9530853566271
 30
0.0
 10
217.7359170546764
 20
257.7270202502072
 30
0.0
 10
217.8617571345416
 20
257.1428388397434
 30
0.0
 10
218.0099365006989
 20
256.1894321183304
 30
0.0
 10
218.2037804540179
 20
254.7278641852158
 30
0.0
 10
218.3825704139451
 20
252.8859005327792
 30
0.0
 10
218.5623762508653
 20
250.385631582506
 30
0.0
 10
218.7089206661071
 20
247.600345818837
 30
0.0
 10
218.7881318291888
 20
245.5549263013959
 30
0.0
 10
218.8277416242563
 20
244.5321077394551
 30
0.0
  0
SPLINE
  5
14E
330
1F
100
AcDbEntity
  8
0
  6
Continuous
 62
     7
370
    15
100
AcDbSpline
210
0.0
220
0.0
230
1.0
 70
     8
 71
     3
 72
    14
 73
    10
 74
     0
 42
0.00000001
 43
0.00000001
 40
0.0
 40
0.0
 40
0.0
 40
0.0
 40
0.2282405247492988
 40
0.4565135153433618
 40
0.6197915002165286
 40
0.7831706672422746
 40
0.8652634046263175
 40
0.9474254797906847
 40
1.0
 40
1.0
 40
1.0
 40
1.0
 10
197.583521920901
 20
244.5321098898244
 30
0.0
 10
197.6231243381928
 20
245.5547441303021
 30
0.0
 10
197.7023348059826
 20
247.6001580748406
 30
0.0
 10
197.8483536348225
 20
250.3755508514457
 30
0.0
 10
198.0265635089189
 20
252.8573824162645
 30
0.0
 10
198.2026419334843
 20
254.6821144700371
 30
0.0
 10
198.3939415949106
 20
256.1384819607875
 30
0.0
 10
198.5418036245366
 20
257.0997607898464
 30
0.0
 10
198.6680623851868
 20
257.6904370676381
 30
0.0
 10
198.7173288353669
 20
257.920920269457
 30
0.0
  0
SPLINE
  5
14F
330
1F
100
AcDbEntity
  8
0
  6
Continuous
 62
     7
370
    15
100
AcDbSpline
210
0.0
220
0.0
230
1.0
 70
     8
 71
     3
 72
    17
 73
    13
 74
     0
 42
0.00000001
 43
0.00000001
 40
0.0
 40
0.0
 40
0.0
 40
0.0
 40
0.0334250139506306
 40
0.1672442433556712
 40
0.2441061495138666
 40
0.3225580895046412
 40
0.4012332558711028
 40
0.4824169905259993
 40
0.5638637399963428
 40
0.6654546314628303
 40
0.8513099752916198
 40
1.0
 40
1.0
 40
1.0
 40
1.0
 10
229.5954754776772
 20
249.7819143886048
 30
0.0
 10
229.4978885715139
 20
249.9571885292827
 30
0.0
 10
229.0096061041731
 20
250.8341841553964
 30
0.0
 10
228.2198290811862
 20
252.0711468676045
 30
0.0
 10
227.1898074607396
 20
253.4683386417852
 30
0.0
 10
226.2978156795498
 20
254.5539600085908
 30
0.0
 10
225.3318138509767
 20
255.6096911199195
 30
0.0
 10
224.2960253604992
 20
256.6229279361503
 30
0.0
 10
223.1008524241273
 20
257.6669797354699
 30
0.0
 10
221.3383345269887
 20
259.0074737321879
 30
0.0
 10
219.1085588426497
 20
260.4064418518521
 30
0.0
 10
217.2449287549459
 20
261.1608425085777
 30
0.0
 10
216.4166309219805
 20
261.4961388923807
 30
0.0
  0
SPLINE
  5
150
330
1F
100
AcDbEntity
  8
0
  6
Continuous
 62
     7
370
    15
100
AcDbSpline
210
0.0
220
0.0
230
1.0
 70
     8
 71
     3
 72
    17
 73
    13
 74
     0
 42
0.00000001
 43
0.00000001
 40
0.0
 40
0.0
 40
0.0
 40
0.0
 40
0.0000691057277617
 40
0.1085532682030441
 40
0.215223346572253
 40
0.3225750846659924
 40
0.4319955764307348
 40
0.5420966096137867
 40
0.6548584850371468
 40
0.7683044007143687
 40
0.8838142400216904
 40
1.0
 40
1.0
 40
1.0
 40
1.0
 10
200.0222805677027
 20
261.5394245314335
 30
0.0
 10
200.0218862188261
 20
261.5392927573986
 30
0.0
 10
199.4024316416611
 20
261.3322983069197
 30
0.0
 10
198.2240786816177
 20
260.7839281580018
 30
0.0
 10
196.5021795670234
 20
259.8898500224251
 30
0.0
 10
194.8597294895287
 20
258.8405747000403
 30
0.0
 10
193.2866490273598
 20
257.6573728847794
 30
0.0
 10
191.7874987861886
 20
256.33158329054
 30
0.0
 10
190.3784532544308
 20
254.8763441405748
 30
0.0
 10
189.0681145014734
 20
253.2899663521031
 30
0.0
 10
187.8615130598753
 20
251.5961686052832
 30
0.0
 10
187.1650400118825
 20
250.3878408038765
 30
0.0
 10
186.8157875848405
 20
249.7819143886048
 30
0.0
  0
SPLINE
  5
151
330
1F
100
AcDbEntity
  8
0
  6
Continuous
 62
     7
370
    15
100
AcDbSpline
210
0.0
220
0.0
230
1.0
 70
     8
 71
     3
 72
    16
 73
    12
 74
     0
 42
0.00000001
 43
0.00000001
 40
0.0
 40
0.0
 40
0.0
 40
0.0
 40
0.0910751301431744
 40
0.187394814458182
 40
0.3867658833709827
 40
0.4867530460572029
 40
0.5881967528170127
 40
0.6898418904896273
 40
0.7927144919026121
 40
0.8962440580971871
 40
0.9999999999999999
 40
0.9999999999999999
 40
0.9999999999999999
 40
0.9999999999999999
 10
233.0760086708404
 20
237.576319892261
 30
0.0
 10
233.0575859130762
 20
237.9645621934401
 30
0.0
 10
233.0196795244981
 20
238.7634036980298
 30
0.0
 10
232.8029884480567
 20
240.4001877992094
 30
0.0
 10
232.4967640793792
 20
242.0618437743969
 30
0.0
 10
232.0710461773547
 20
243.7183712989797
 30
0.0
 10
231.6954227520416
 20
244.9558779023087
 30
0.0
 10
231.2609193343909
 20
246.187121896463
 30
0.0
 10
230.7668274948322
 20
247.4051453102081
 30
0.0
 10
230.2172343483856
 20
248.6094827257166
 30
0.0
 10
229.8028792731094
 20
249.3908194027129
 30
0.0
 10
229.5954754776772
 20
249.7819143886048
 30
0.0
  0
SPLINE
  5
152
330
1F
100
AcDbEntity
  8
0
  6
Continuous
 62
     7
370
    15
100
AcDbSpline
210
0.0
220
0.0
230
1.0
 70
     8
 71
     3
 72
    14
 73
    10
 74
     0
 42
0.00000001
 43
0.00000001
 40
0.0
 40
0.0
 40
0.0
 40
0.0
 40
0.047031167891585
 40
0.1411094364101973
 40
0.235357264182795
 40
0.4258421214286534
 40
0.6170738603643312
 40
0.809074211379295
 40
1.0
 40
1.0
 40
1.0
 40
1.0
 10
186.8157875848405
 20
249.7819143886048
 30
0.0
 10
186.7205284235163
 20
249.6053578743574
 30
0.0
 10
186.4347186686247
 20
249.075628519615
 30
0.0
 10
185.9916736211561
 20
248.1743003881808
 30
0.0
 10
185.337874726419
 20
246.696355112349
 30
0.0
 10
184.63519927054
 20
244.788541129623
 30
0.0
 10
183.9871504499497
 20
242.4265703281416
 30
0.0
 10
183.5219906934199
 20
240.01775442254
 30
0.0
 10
183.3812627868046
 20
238.3895524914436
 30
0.0
 10
183.3110962879153
 20
237.5777360455251
 30
0.0
  0
SPLINE
  5
153
330
1F
100
AcDbEntity
  8
0
  6
Continuous
 62
     8
370
     0
100
AcDbSpline
210
0.0
220
0.0
230
1.0
 70
     8
 71
     3
 72
    44
 73
    40
 74
     0
 42
0.00000001
 43
0.00000001
 40
0.0
 40
0.0
 40
0.0
 40
0.0
 40
0.1249999999999993
 40
0.1249999999999993
 40
0.1874999999999999
 40
0.1874999999999999
 40
0.2500000000000004
 40
0.2500000000000004
 40
0.3125000000000009
 40
0.3125000000000009
 40
0.3437500000000019
 40
0.3437500000000019
 40
0.375000000000003
 40
0.375000000000003
 40
0.4375000000000037
 40
0.4375000000000037
 40
0.4687500000000034
 40
0.4687500000000034
 40
0.5000000000000031
 40
0.5000000000000031
 40
0.5312500000000028
 40
0.5312500000000028
 40
0.5625000000000026
 40
0.5625000000000026
 40
0.6250000000000021
 40
0.6250000000000021
 40
0.6562500000000019
 40
0.6562500000000019
 40
0.6875000000000017
 40
0.6875000000000017
 40
0.7500000000000013
 40
0.7500000000000013
 40
0.812500000000001
 40
0.812500000000001
 40
0.8750000000000007
 40
0.8750000000000007
 40
0.9375000000000003
 40
0.9375000000000003
 40
1.0
 40
1.0
 40
1.0
 40
1.0
 10
238.9171010383003
 20
219.4147812823264
 30
0.0
 10
238.6337367894322
 20
220.433654833305
 30
0.0
 10
238.2985899624686
 20
221.3414829664916
 30
0.0
 10
237.6882211300659
 20
222.5876271969727
 30
0.0
 10
237.4665899861202
 20
222.9837235887753
 30
0.0
 10
236.9776194822475
 20
223.7460628299716
 30
0.0
 10
236.7107060703122
 20
224.1124533449967
 30
0.0
 10
236.1119045332009
 20
224.8229263565034
 30
0.0
 10
235.7799809291337
 20
225.1672855368367
 30
0.0
 10
235.2130030780301
 20
225.6728638679192
 30
0.0
 10
235.0121308421911
 20
225.8397251689993
 30
0.0
 10
234.5881912370043
 20
226.1662188955392
 30
0.0
 10
234.364665230608
 20
226.3262975962586
 30
0.0
 10
233.6542991163097
 20
226.796321024206
 30
0.0
 10
233.1278387203977
 20
227.0961363392933
 30
0.0
 10
232.2332710339941
 20
227.519016868366
 30
0.0
 10
231.9175434473983
 20
227.6554691755431
 30
0.0
 10
231.2467069360317
 20
227.9182981736957
 30
0.0
 10
230.8929853307258
 20
228.0440396065789
 30
0.0
 10
230.1559674742068
 20
228.2810196570327
 30
0.0
 10
229.7699981644772
 20
228.3930820517905
 30
0.0
 10
228.9759039971773
 20
228.6012865555996
 30
0.0
 10
228.5677198818051
 20
228.6975638534096
 30
0.0
 10
227.3125592606168
 20
228.9650302130902
 30
0.0
 10
226.4349636682155
 20
229.1148282374472
 30
0.0
 10
225.0697403594643
 20
229.3063983663008
 30
0.0
 10
224.6061180712691
 20
229.3647664009343
 30
0.0
 10
223.6752538561194
 20
229.4709309404644
 30
0.0
 10
223.2066384266305
 20
229.5189566511601
 30
0.0
 10
221.7927551033876
 20
229.6501616362519
 30
0.0
 10
220.8395216565156
 20
229.7205090486854
 30
0.0
 10
218.917761681742
 20
229.8368298876882
 30
0.0
 10
217.9477069679132
 20
229.8828691612854
 30
0.0
 10
216.0048599755283
 20
229.9572547395236
 30
0.0
 10
215.0320642026873
 20
229.9855092072848
 30
0.0
 10
213.0845317903996
 20
230.029347053763
 30
0.0
 10
212.1098200137586
 20
230.0453054354064
 30
0.0
 10
210.1589103845404
 20
230.0673659581833
 30
0.0
 10
209.1826927846859
 20
230.0731523512348
 30
0.0
 10
208.2056995383884
 20
230.0731740412299
 30
0.0
  0
SPLINE
  5
154
330
1F
100
AcDbEntity
  8
0
  6
Continuous
 62
     8
370
     0
100
AcDbSpline
210
0.0
220
0.0
230
1.0
 70
     8
 71
     3
 72
    24
 73
    20
 74
     0
 42
0.00000001
 43
0.00000001
 40
0.0
 40
0.0
 40
0.0
 40
0.0
 40
0.0648464373268329
 40
0.1297291225030219
 40
0.1947575085841304
 40
0.2598638332524271
 40
0.3092997597746457
 40
0.408161719509673
 40
0.4577364266987005
 40
0.4954598388761846
 40
0.571430988249828
 40
0.6098371709805763
 40
0.6399454587270513
 40
0.6702095908816116
 40
0.7458687613975711
 40
0.8237552084618073
 40
0.8633689865390658
 40
0.9655040073396105
 40
1.0
 40
1.0
 40
1.0
 40
1.0
 10
208.2058600205556
 20
232.5664830684052
 30
0.0
 10
209.0166797947271
 20
232.5623908858221
 30
0.0
 10
210.6387725749551
 20
232.5542042332086
 30
0.0
 10
213.0728614787173
 20
232.5233382252198
 30
0.0
 10
215.5072453138429
 20
232.4772699341038
 30
0.0
 10
217.7431164434766
 20
232.4093280797805
 30
0.0
 10
220.3866510722712
 20
232.291556825929
 30
0.0
 10
222.816193626687
 20
232.1276512463212
 30
0.0
 10
225.0421651812309
 20
231.8894444018449
 30
0.0
 10
226.9463108384348
 20
231.6252589567065
 30
0.0
 10
228.6453511451662
 20
231.3001229209226
 30
0.0
 10
230.1327864288118
 20
230.9020330622349
 30
0.0
 10
231.0892853638214
 20
230.5932246368141
 30
0.0
 10
232.325544689279
 20
230.1258184206363
 30
0.0
 10
233.7900705122446
 20
229.3991214418363
 30
0.0
 10
235.0162949561679
 20
228.5429812854369
 30
0.0
 10
236.1778613203344
 20
227.5251557508817
 30
0.0
 10
236.9593866917018
 20
226.6941673446221
 30
0.0
 10
237.3849941477794
 20
225.9810776153272
 30
0.0
 10
237.4924496317809
 20
225.8010398812515
 30
0.0
  0
SPLINE
  5
155
330
1F
100
AcDbEntity
  8
0
  6
Continuous
 62
     8
370
     0
100
AcDbSpline
210
0.0
220
0.0
230
1.0
 70
     8
 71
     3
 72
    36
 73
    32
 74
     0
 42
0.00000001
 43
0.00000001
 40
0.0
 40
0.0
 40
0.0
 40
0.0
 40
0.0625
 40
0.0625
 40
0.125
 40
0.125
 40
0.2499999999999999
 40
0.2499999999999999
 40
0.3124999999999998
 40
0.3124999999999998
 40
0.3749999999999998
 40
0.3749999999999998
 40
0.4374999999999997
 40
0.4374999999999997
 40
0.4687500000000001
 40
0.4687500000000001
 40
0.5000000000000004
 40
0.5000000000000004
 40
0.5625000000000002
 40
0.5625000000000002
 40
0.625
 40
0.625
 40
0.6874999999999998
 40
0.6874999999999998
 40
0.7499999999999996
 40
0.7499999999999996
 40
0.8124999999999992
 40
0.8124999999999992
 40
0.874999999999999
 40
0.874999999999999
 40
1.0
 40
1.0
 40
1.0
 40
1.0
 10
208.2055635241291
 20
230.0731740412299
 30
0.0
 10
207.2307430321587
 20
230.0731523994715
 30
0.0
 10
206.255877665264
 20
230.0673861275349
 30
0.0
 10
204.3090440860051
 20
230.0454109648608
 30
0.0
 10
203.3367085274354
 20
230.0295166128142
 30
0.0
 10
200.4238137638704
 20
229.9641129994475
 30
0.0
 10
198.4873420336519
 20
229.8964687227127
 30
0.0
 10
195.5986697231582
 20
229.7223915090927
 30
0.0
 10
194.6439395303441
 20
229.6521573232517
 30
0.0
 10
192.7638529162189
 20
229.4784077034201
 30
0.0
 10
191.8375348081142
 20
229.3751301556119
 30
0.0
 10
190.0230592414471
 20
229.1222179209859
 30
0.0
 10
189.1310589200615
 20
228.9710406022486
 30
0.0
 10
187.871386615614
 20
228.7039164388443
 30
0.0
 10
187.4631311939968
 20
228.6080295006855
 30
0.0
 10
186.6715074435577
 20
228.4015119256551
 30
0.0
 10
186.286975973172
 20
228.2905052884546
 30
0.0
 10
185.180329235191
 20
227.9366919679313
 30
0.0
 10
184.5177439035103
 20
227.6772483699604
 30
0.0
 10
183.3225425233111
 20
227.1168490802319
 30
0.0
 10
182.788465924619
 20
226.8154086206556
 30
0.0
 10
181.8275189963565
 20
226.1830094249385
 30
0.0
 10
181.4076875664528
 20
225.8577049879974
 30
0.0
 10
180.6542414332924
 20
225.1895585915886
 30
0.0
 10
180.3211968128687
 20
224.8465420319471
 30
0.0
 10
179.7185245938456
 20
224.135920017053
 30
0.0
 10
179.4488390250505
 20
223.7680081328426
 30
0.0
 10
178.9538208039977
 20
222.9996471159333
 30
0.0
 10
178.7292986598772
 20
222.5995585338987
 30
0.0
 10
178.1135169286256
 20
221.344863719564
 30
0.0
 10
177.7774483197445
 20
220.4333741612816
 30
0.0
 10
177.4941625626243
 20
219.4147832182393
 30
0.0
  0
SPLINE
  5
156
330
1F
100
AcDbEntity
  8
0
  6
Continuous
 62
     8
370
     0
100
AcDbSpline
210
0.0
220
0.0
230
1.0
 70
     8
 71
     3
 72
    23
 73
    19
 74
     0
 42
0.00000001
 43
0.00000001
 40
0.0
 40
0.0
 40
0.0
 40
0.0
 40
0.0401101893207763
 40
0.1268350122122396
 40
0.2056198259417168
 40
0.2865632986339605
 40
0.3687795868663438
 40
0.4292007591277287
 40
0.490212301542458
 40
0.5373700822497007
 40
0.5848293198436942
 40
0.6326199642559269
 40
0.680559401848401
 40
0.7301976725683467
 40
0.7799109116467724
 40
0.8396576966760222
 40
0.9197883827990204
 40
1.0
 40
1.0
 40
1.0
 40
1.0
 10
178.9333058034897
 20
225.8250282296276
 30
0.0
 10
179.061000363178
 20
226.0324579470573
 30
0.0
 10
179.4647915521942
 20
226.6883848122477
 30
0.0
 10
180.3648938411204
 20
227.6622807509266
 30
0.0
 10
181.7018231493949
 20
228.7993257958277
 30
0.0
 10
183.3918491911437
 20
229.8311561666829
 30
0.0
 10
185.3527248334555
 20
230.6408072817361
 30
0.0
 10
187.4195320359475
 20
231.2220647813441
 30
0.0
 10
189.2823888450264
 20
231.5927431732603
 30
0.0
 10
191.0851659628892
 20
231.8555220120518
 30
0.0
 10
192.7809565619368
 20
232.0428671493951
 30
0.0
 10
194.5171031936737
 20
232.1881390037602
 30
0.0
 10
196.3001849073676
 20
232.3009233894884
 30
0.0
 10
198.1203393775594
 20
232.3868417200657
 30
0.0
 10
200.0955033591789
 20
232.4549022781645
 30
0.0
 10
202.4563782825489
 20
232.5096104755613
 30
0.0
 10
205.2021870961029
 20
232.549836606273
 30
0.0
 10
207.2039942630261
 20
232.5609323808696
 30
0.0
 10
208.205403041962
 20
232.5664830684052
 30
0.0
  0
SPLINE
  5
157
330
1F
100
AcDbEntity
  8
0
  6
Continuous
 62
     8
370
     0
100
AcDbSpline
210
0.0
220
0.0
230
1.0
 70
     8
 71
     3
 72
    14
 73
    10
 74
     0
 42
0.00000001
 43
0.00000001
 40
0.0
 40
0.0
 40
0.0
 40
0.0
 40
0.2500000000000006
 40
0.2500000000000006
 40
0.3749999999999988
 40
0.3749999999999988
 40
0.4999999999999971
 40
0.4999999999999971
 40
1.0
 40
1.0
 40
1.0
 40
1.0
 10
177.4941625626242
 20
219.4147832182393
 30
0.0
 10
177.278018903881
 20
218.6376104601384
 30
0.0
 10
177.0950842353295
 20
217.8050211010766
 30
0.0
 10
176.8568959586035
 20
216.4550606927353
 30
0.0
 10
176.7835072161997
 20
215.9882492054567
 30
0.0
 10
176.647506228872
 20
215.0190066089807
 30
0.0
 10
176.5850142812075
 20
214.5168256641439
 30
0.0
 10
176.2996420673289
 20
211.9437421917862
 30
0.0
 10
176.153691725519
 20
209.6630790666377
 30
0.0
 10
176.0566693510776
 20
207.1733026760784
 30
0.0
  0
SPLINE
  5
158
330
1F
100
AcDbEntity
  8
0
  6
Continuous
 62
     8
370
     0
100
AcDbSpline
210
0.0
220
0.0
230
1.0
 70
     8
 71
     3
 72
    14
 73
    10
 74
     0
 42
0.00000001
 43
0.00000001
 40
0.0
 40
0.0
 40
0.0
 40
0.0
 40
0.2499999999999983
 40
0.2499999999999983
 40
0.4999999999999967
 40
0.4999999999999967
 40
0.7499999999999983
 40
0.7499999999999983
 40
1.0
 40
1.0
 40
1.0
 40
1.0
 10
240.3545937114399
 20
207.1733026760783
 30
0.0
 10
240.305768687785
 20
208.4262445038209
 30
0.0
 10
240.2438327410593
 20
209.6318077266835
 30
0.0
 10
240.0865310939729
 20
211.9430597290726
 30
0.0
 10
239.991791848573
 20
213.031905803821
 30
0.0
 10
239.7636864819552
 20
215.0728223317589
 30
0.0
 10
239.6302868505529
 20
216.0267119865625
 30
0.0
 10
239.3150722083992
 20
217.8093291366757
 30
0.0
 10
239.1330537219675
 20
218.6382949099969
 30
0.0
 10
238.9171010383002
 20
219.4147812823263
 30
0.0
  0
ARC
  5
159
330
1F
100
AcDbEntity
  8
0
  6
Continuous
 62
     8
370
     0
100
AcDbCircle
 10
208.2056315313
 20
226.5700824765
 30
0.0
 40
10.76138963522019
100
AcDbArc
 50
76.5257143447
 51
103.4742856553
  0
SPLINE
  5
15A
330
1F
100
AcDbEntity
  8
0
  6
Continuous
 62
     8
370
     0
100
AcDbSpline
210
0.0
220
0.0
230
1.0
 70
     8
 71
     3
 72
    11
 73
     7
 74
     0
 42
0.00000001
 43
0.00000001
 40
0.0
 40
0.0
 40
0.0
 40
0.0
 40
0.1909824787679723
 40
0.4606549858452926
 40
0.7303274929226615
 40
1.0
 40
1.0
 40
1.0
 40
1.0
 10
208.2060018360081
 20
196.6808954279956
 30
0.0
 10
208.206023011106
 20
196.6809240186288
 30
0.0
 10
208.206074086024
 20
196.6809929800219
 30
0.0
 10
208.2060331900329
 20
196.7448653367913
 30
0.0
 10
208.2059039748409
 20
196.8550782161143
 30
0.0
 10
208.2057430322376
 20
196.9597025088108
 30
0.0
 10
208.205662560936
 20
197.012014655159
 30
0.0
  0
SPLINE
  5
15B
330
1F
100
AcDbEntity
  8
0
  6
Continuous
 62
     8
370
     0
100
AcDbSpline
210
0.0
220
0.0
230
1.0
 70
     8
 71
     3
 72
     8
 73
     4
 74
     0
 42
0.00000001
 43
0.00000001
 40
0.0000000203463906
 40
0.0000000203463906
 40
0.0000000203463906
 40
0.0000000203463906
 40
0.0005524032332722
 40
0.0005524032332722
 40
0.0005524032332722
 40
0.0005524032332722
 10
176.118087445159
 20
178.8773951348937
 30
0.0
 10
176.1153392647442
 20
179.0606677292358
 30
0.0
 10
176.112516170565
 20
179.2439073984114
 30
0.0
 10
176.1096217562915
 20
179.4271111383221
 30
0.0
  0
SPLINE
  5
15C
330
1F
100
AcDbEntity
  8
0
  6
Continuous
 62
     8
370
     0
100
AcDbSpline
210
0.0
220
0.0
230
1.0
 70
     8
 71
     3
 72
    16
 73
    12
 74
     0
 42
0.00000001
 43
0.00000001
 40
0.0
 40
0.0
 40
0.0
 40
0.0
 40
0.2500000000000001
 40
0.2500000000000001
 40
0.5000000000000002
 40
0.5000000000000002
 40
0.625
 40
0.625
 40
0.7499999999999999
 40
0.7499999999999999
 40
1.0
 40
1.0
 40
1.0
 40
1.0
 10
176.1091924876646
 20
179.4271247030642
 30
0.0
 10
176.0675393136658
 20
181.6238152281553
 30
0.0
 10
176.0297715882805
 20
183.8137106357358
 30
0.0
 10
175.9662378083582
 20
188.1696781398979
 30
0.0
 10
175.9404494786397
 20
190.3382000313295
 30
0.0
 10
175.9151871574722
 20
193.5461951075929
 30
0.0
 10
175.9090221844356
 20
194.6087389507994
 30
0.0
 10
175.9022302614713
 20
196.718510548464
 30
0.0
 10
175.9016248984734
 20
197.7665337528094
 30
0.0
 10
175.9124797969941
 20
200.8664478316546
 30
0.0
 10
175.9362876303066
 20
202.8801991911258
 30
0.0
 10
175.9845588019297
 20
204.8253372057241
 30
0.0
  0
SPLINE
  5
15D
330
1F
100
AcDbEntity
  8
0
  6
Continuous
 62
     8
370
     0
100
AcDbSpline
210
0.0
220
0.0
230
1.0
 70
     8
 71
     3
 72
     8
 73
     4
 74
     0
 42
0.00000001
 43
0.00000001
 40
0.0
 40
0.0
 40
0.0
 40
0.0
 40
0.0000596972843948
 40
0.0000596972843948
 40
0.0000596972843948
 40
0.0000596972843948
 10
175.9843329479274
 20
204.8254071153013
 30
0.0
 10
175.9847659715036
 20
204.842914119632
 30
0.0
 10
175.9852016034954
 20
204.8604141884151
 30
0.0
 10
175.9856398386485
 20
204.8779072832907
 30
0.0
  0
SPLINE
  5
15E
330
1F
100
AcDbEntity
  8
0
  6
Continuous
 62
     8
370
     0
100
AcDbSpline
210
0.0
220
0.0
230
1.0
 70
     8
 71
     3
 72
    29
 73
    25
 74
     0
 42
0.00000001
 43
0.00000001
 40
0.0
 40
0.0
 40
0.0
 40
0.0
 40
0.0235438772897532
 40
0.0469061304262291
 40
0.0700905831298061
 40
0.0931008727092955
 40
0.1159404190294143
 40
0.1386124091816805
 40
0.1611198679469497
 40
0.1834658728554975
 40
0.2056535524921702
 40
0.2276860858423992
 40
0.2495667145042701
 40
0.3765862807412432
 40
0.4983357070330443
 40
0.6254633336723741
 40
0.7502096923836321
 40
0.7853279539755929
 40
0.8205804537951019
 40
0.8560001186740913
 40
0.891619795876201
 40
0.9274719763961391
 40
0.9635884853729169
 40
1.0
 40
1.0
 40
1.0
 40
1.0
 10
208.2055869103743
 20
194.4031121938085
 30
0.0
 10
207.9323529479663
 20
194.4035025526339
 30
0.0
 10
207.3879928275047
 20
194.404280258946
 30
0.0
 10
206.5746524850196
 20
194.4165933839532
 30
0.0
 10
205.767696679071
 20
194.4370615071151
 30
0.0
 10
204.9671032729353
 20
194.4664502840479
 30
0.0
 10
204.1728614364784
 20
194.504541688857
 30
0.0
 10
203.384969690922
 20
194.5513904205934
 30
0.0
 10
202.6034345521148
 20
194.606991331219
 30
0.0
 10
201.8282650701597
 20
194.6713571676981
 30
0.0
 10
201.0594755354228
 20
194.7444943306776
 30
0.0
 10
200.2970679604453
 20
194.8264243423261
 30
0.0
 10
198.3286037797438
 20
195.0625957234275
 30
0.0
 10
195.2283935421884
 20
195.571632138776
 30
0.0
 10
191.0020890097615
 20
196.633924117743
 30
0.0
 10
186.9261930698248
 20
198.0786655797646
 30
0.0
 10
183.9349820439928
 20
199.5034777081967
 30
0.0
 10
181.9813528499399
 20
200.604912043914
 30
0.0
 10
180.9416361494084
 20
201.2332006830437
 30
0.0
 10
179.9176587809837
 20
201.8949218993987
 30
0.0
 10
178.9092859673961
 20
202.5899624128766
 30
0.0
 10
177.9171202098724
 20
203.318948200697
 30
0.0
 10
176.9390042651657
 20
204.0795302105353
 30
0.0
 10
176.3042885434687
 20
204.6110609303987
 30
0.0
 10
175.9856398386475
 20
204.8779072832893
 30
0.0
  0
SPLINE
  5
15F
330
1F
100
AcDbEntity
  8
0
  6
Continuous
 62
     8
370
     0
100
AcDbSpline
210
0.0
220
0.0
230
1.0
 70
     8
 71
     3
 72
    16
 73
    12
 74
     0
 42
0.00000001
 43
0.00000001
 40
0.0
 40
0.0
 40
0.0
 40
0.0
 40
0.2499999999999999
 40
0.2499999999999999
 40
0.4999999999999999
 40
0.4999999999999999
 40
0.6249999999999999
 40
0.6249999999999999
 40
0.7499999999999999
 40
0.7499999999999999
 40
1.0
 40
1.0
 40
1.0
 40
1.0
 10
240.3020705748532
 20
179.4271247030642
 30
0.0
 10
240.3437237488519
 20
181.6238152281553
 30
0.0
 10
240.3814914742373
 20
183.8137106357358
 30
0.0
 10
240.4450252541595
 20
188.1696781398979
 30
0.0
 10
240.4708135838781
 20
190.3382000313296
 30
0.0
 10
240.4960759050455
 20
193.5461951075929
 30
0.0
 10
240.5022408780821
 20
194.6087389507994
 30
0.0
 10
240.5090328010464
 20
196.718510548464
 30
0.0
 10
240.5096381640443
 20
197.7665337528094
 30
0.0
 10
240.4987832655237
 20
200.8664478316546
 30
0.0
 10
240.4749754322111
 20
202.8801991911258
 30
0.0
 10
240.426704260588
 20
204.8253372057241
 30
0.0
  0
SPLINE
  5
160
330
1F
100
AcDbEntity
  8
0
  6
Continuous
 62
     8
370
     0
100
AcDbSpline
210
0.0
220
0.0
230
1.0
 70
     8
 71
     3
 72
     8
 73
     4
 74
     0
 42
0.00000001
 43
0.00000001
 40
0.0000000203463906
 40
0.0000000203463906
 40
0.0000000203463906
 40
0.0000000203463906
 40
0.0005524032332722
 40
0.0005524032332722
 40
0.0005524032332722
 40
0.0005524032332722
 10
240.2931756173586
 20
178.8773951348937
 30
0.0
 10
240.2959237977734
 20
179.0606677292358
 30
0.0
 10
240.2987468919527
 20
179.2439073984114
 30
0.0
 10
240.3016413062262
 20
179.4271111383221
 30
0.0
  0
SPLINE
  5
161
330
1F
100
AcDbEntity
  8
0
  6
Continuous
 62
     8
370
     0
100
AcDbSpline
210
0.0
220
0.0
230
1.0
 70
     8
 71
     3
 72
    30
 73
    26
 74
     0
 42
0.00000001
 43
0.00000001
 40
0.0
 40
0.0
 40
0.0
 40
0.0
 40
0.0196448628601555
 40
0.0392002466851268
 40
0.0586707856355413
 40
0.078061238130449
 40
0.0973764762717858
 40
0.1166214639026285
 40
0.1358012309736505
 40
0.1549208523157662
 40
0.1739854376460727
 40
0.1930001215102122
 40
0.2119700478486987
 40
0.2309003578351849
 40
0.2497961793883729
 40
0.3745407524557663
 40
0.5016693846010654
 40
0.6234170448516785
 40
0.7504376067678284
 40
0.7906668040243763
 40
0.8314158084240053
 40
0.8727041473589118
 40
0.9145507791028257
 40
0.9569753829010967
 40
0.9999999999999999
 40
0.9999999999999999
 40
0.9999999999999999
 40
0.9999999999999999
 10
240.4256232238693
 20
204.8779072832885
 30
0.0
 10
240.2542730342959
 20
204.7333262965426
 30
0.0
 10
239.9123531263467
 20
204.4448228650469
 30
0.0
 10
239.3919325713319
 20
204.0226815608982
 30
0.0
 10
238.8674862201693
 20
203.6096608270634
 30
0.0
 10
238.338370841863
 20
203.2064562322707
 30
0.0
 10
237.8047358210817
 20
202.8129023972058
 30
0.0
 10
237.2665293746473
 20
202.4290546901079
 30
0.0
 10
236.7237627289
 20
202.0549013965068
 30
0.0
 10
236.1764374995188
 20
201.6904419938122
 30
0.0
 10
235.6245600607339
 20
201.3356713426173
 30
0.0
 10
235.0681366940553
 20
200.9905833590113
 30
0.0
 10
234.5071816434475
 20
200.6551700272766
 30
0.0
 10
233.9416968308957
 20
200.3294147681989
 30
0.0
 10
232.3073043505193
 20
199.4229923496936
 30
0.0
 10
229.4850451594565
 20
198.0786508594514
 30
0.0
 10
225.409221888825
 20
196.6339440438426
 30
0.0
 10
221.1828566239756
 20
195.5716135940916
 30
0.0
 10
217.8725691981134
 20
195.0281433994644
 30
0.0
 10
215.4755234789935
 20
194.7534367425398
 30
0.0
 10
214.0628786777685
 20
194.6235093854318
 30
0.0
 10
212.6288527090331
 20
194.5229377815229
 30
0.0
 10
211.1734612514078
 20
194.4523096118765
 30
0.0
 10
209.6966859434375
 20
194.4090371732536
 30
0.0
 10
208.7050005777367
 20
194.405096410797
 30
0.0
 10
208.2056761521435
 20
194.4031121938084
 30
0.0
  0
SPLINE
  5
162
330
1F
100
AcDbEntity
  8
0
  6
Continuous
 62
     8
370
     0
100
AcDbSpline
210
0.0
220
0.0
230
1.0
 70
     8
 71
     3
 72
     8
 73
     4
 74
     0
 42
0.00000001
 43
0.00000001
 40
0.0
 40
0.0
 40
0.0
 40
0.0
 40
0.0000596972843923
 40
0.0000596972843923
 40
0.0000596972843923
 40
0.0000596972843923
 10
240.4269301145903
 20
204.8254071153013
 30
0.0
 10
240.4264970910141
 20
204.8429141196313
 30
0.0
 10
240.4260614590224
 20
204.8604141884136
 30
0.0
 10
240.4256232238693
 20
204.8779072832885
 30
0.0
  0
LWPOLYLINE
  5
163
330
1F
100
AcDbEntity
  8
0
  6
Continuous
 62
     8
370
     0
100
AcDbPolyline
 90
        5
 70
   128
 43
0.0
 10
175.9889536209
 20
206.975244262
 10
175.9883729213
 20
206.9757330881
 10
175.9820736808
 20
207.0113925863
 10
176.0054242384
 20
207.0789416523
 10
176.0566693511
 20
207.1733026761
  0
SPLINE
  5
164
330
1F
100
AcDbEntity
  8
0
  6
Continuous
 62
     8
370
     0
100
AcDbSpline
210
0.0
220
0.0
230
1.0
 70
     8
 71
     3
 72
    10
 73
     6
 74
     0
 42
0.00000001
 43
0.00000001
 40
0.0
 40
0.0
 40
0.0
 40
0.0
 40
0.5
 40
0.5
 40
1.0
 40
1.0
 40
1.0
 40
1.0
 10
208.2055869103743
 20
194.4031121938085
 30
0.0
 10
208.2054416233614
 20
194.5023890974365
 30
0.0
 10
208.2052739780391
 20
194.6111575749194
 30
0.0
 10
208.2049177250682
 20
194.831445995617
 30
0.0
 10
208.2047296187965
 20
194.9426559132022
 30
0.0
 10
208.204546502418
 20
195.0464466899904
 30
0.0
  0
SPLINE
  5
165
330
1F
100
AcDbEntity
  8
0
  6
Continuous
 62
     8
370
     0
100
AcDbSpline
210
0.0
220
0.0
230
1.0
 70
     8
 71
     3
 72
    29
 73
    25
 74
     0
 42
0.00000001
 43
0.00000001
 40
0.0
 40
0.0
 40
0.0
 40
0.0
 40
0.0236730951908459
 40
0.0471613644705546
 40
0.0704679054052583
 40
0.0935958885786699
 40
0.1165485585702395
 40
0.1393292348674407
 40
0.1619413127046833
 40
0.1843882638210567
 40
0.2066736371288538
 40
0.2288010592845998
 40
0.2507742351541226
 40
0.3780639351151253
 40
0.4999025138726662
 40
0.6267247665180191
 40
0.7511838589999784
 40
0.7860894943794402
 40
0.8211531898559191
 40
0.8564086065248858
 40
0.8918888598124494
 40
0.9276264401307747
 40
0.9636531416933629
 40
1.0
 40
1.0
 40
1.0
 40
1.0
 10
208.2045465087202
 20
195.04645026211
 30
0.0
 10
208.4753814669574
 20
195.0468476055635
 30
0.0
 10
209.0149368598546
 20
195.0476391902413
 30
0.0
 10
209.8210504725679
 20
195.0600253996514
 30
0.0
 10
210.620732739066
 20
195.080639141399
 30
0.0
 10
211.4139851276541
 20
195.1102661396213
 30
0.0
 10
212.2008072475674
 20
195.1486983686283
 30
0.0
 10
212.9811992608473
 20
195.1959911009186
 30
0.0
 10
213.7551609387469
 20
195.2521295335674
 30
0.0
 10
214.5226930347461
 20
195.3171186615033
 30
0.0
 10
215.2837927732694
 20
195.3909536961555
 30
0.0
 10
216.0384703559627
 20
195.4736492091535
 30
0.0
 10
217.9837193298586
 20
195.711544061853
 30
0.0
 10
221.0437610738176
 20
196.2237189920047
 30
0.0
 10
225.206585863785
 20
197.2908644067797
 30
0.0
 10
229.2109541616402
 20
198.7408178460614
 30
0.0
 10
232.1413923474855
 20
200.167368149846
 30
0.0
 10
234.0514251175364
 20
201.2689004230895
 30
0.0
 10
235.0654864970369
 20
201.8959317722041
 30
0.0
 10
236.0644238588088
 20
202.5564601985592
 30
0.0
 10
237.0484087552003
 20
203.2503519319804
 30
0.0
 10
238.016870785922
 20
203.9781990135643
 30
0.0
 10
238.9719375220259
 20
204.7377237188466
 30
0.0
 10
239.5914460520609
 20
205.26843236857
 30
0.0
 10
239.9025705677213
 20
205.5349605333923
 30
0.0
  0
SPLINE
  5
166
330
1F
100
AcDbEntity
  8
0
  6
Continuous
 62
     8
370
     0
100
AcDbSpline
210
0.0
220
0.0
230
1.0
 70
     8
 71
     3
 72
    30
 73
    26
 74
     0
 42
0.00000001
 43
0.00000001
 40
0.0
 40
0.0
 40
0.0
 40
0.0
 40
0.0196111229243043
 40
0.0391257285703508
 40
0.0585485752750214
 40
0.0778844891176459
 40
0.0971383615481341
 40
0.1163151467957573
 40
0.1354198590605701
 40
0.1544575694910015
 40
0.1734334029527619
 40
0.1923525345958326
 40
0.211220186227953
 40
0.2300416225046596
 40
0.2488221469475245
 40
0.373265617576865
 40
0.5001028736021198
 40
0.6219262319475204
 40
0.7492307855643268
 40
0.7896311615580694
 40
0.8305605513772906
 40
0.8720411941379923
 40
0.9140944544044378
 40
0.9567408361567399
 40
1.0
 40
1.0
 40
1.0
 40
1.0
 10
176.5086924947956
 20
205.5349605333931
 30
0.0
 10
176.675979506239
 20
205.3905586235051
 30
0.0
 10
177.009730216402
 20
205.102465486099
 30
0.0
 10
177.5178568198023
 20
204.6809023739369
 30
0.0
 10
178.0298649953152
 20
204.2685057806742
 30
0.0
 10
178.5463782498423
 20
203.8659437051283
 30
0.0
 10
179.0672306599324
 20
203.4730385725429
 30
0.0
 10
179.5924663695482
 20
203.0898378215663
 30
0.0
 10
180.1220735751285
 20
202.7163290068889
 30
0.0
 10
180.6560554150162
 20
202.3525155775004
 30
0.0
 10
181.1944108277413
 20
201.9983969423857
 30
0.0
 10
181.7371406263799
 20
201.6539728600791
 30
0.0
 10
182.2842422575681
 20
201.3192456870066
 30
0.0
 10
182.8357246631101
 20
200.9942070667515
 30
0.0
 10
184.4342088052248
 20
200.0873979449054
 30
0.0
 10
187.1994509870588
 20
198.7411829989949
 30
0.0
 10
191.2033118001193
 20
197.2913037823219
 30
0.0
 10
195.3660512608536
 20
196.2239936818437
 30
0.0
 10
198.6337777966004
 20
195.6770732353187
 30
0.0
 10
201.0033338668688
 20
195.4001430747587
 30
0.0
 10
202.4018245646578
 20
195.2689144378036
 30
0.0
 10
203.8218996669091
 20
195.1673323404186
 30
0.0
 10
205.2635869093542
 20
195.096034109928
 30
0.0
 10
206.726883689573
 20
195.0524389794683
 30
0.0
 10
207.709655459782
 20
195.0484535960056
 30
0.0
 10
208.204546502418
 20
195.0464466899904
 30
0.0
  0
SPLINE
  5
167
330
1F
100
AcDbEntity
  8
0
  6
Continuous
 62
     8
370
     0
100
AcDbSpline
210
0.0
220
0.0
230
1.0
 70
     8
 71
     3
 72
    18
 73
    14
 74
     0
 42
0.00000001
 43
0.00000001
 40
0.0
 40
0.0
 40
0.0
 40
0.0
 40
0.0478837620689863
 40
0.101900130535678
 40
0.1622190797760886
 40
0.2289624494489785
 40
0.354074884587872
 40
0.4705330500297895
 40
0.5971951237126193
 40
0.7120039706061988
 40
0.8162103895482185
 40
0.911483681612115
 40
1.0
 40
1.0
 40
1.0
 40
1.0
 10
239.9025705677213
 20
205.5349605333923
 30
0.0
 10
239.9203607882928
 20
205.5512746814964
 30
0.0
 10
239.9582196723938
 20
205.5859923759622
 30
0.0
 10
240.0134871418641
 20
205.646004486868
 30
0.0
 10
240.072133677113
 20
205.7154037125978
 30
0.0
 10
240.149463523258
 20
205.8153425611504
 30
0.0
 10
240.2391062180573
 20
205.9409664461037
 30
0.0
 10
240.3376301255819
 20
206.0963974185629
 30
0.0
 10
240.4222317923206
 20
206.2536724002102
 30
0.0
 10
240.4891267542994
 20
206.4123864087401
 30
0.0
 10
240.5319676540403
 20
206.5624717312471
 30
0.0
 10
240.5533466091262
 20
206.7043780515645
 30
0.0
 10
240.5467090665489
 20
206.795287569164
 30
0.0
 10
240.5435123089594
 20
206.8390711964569
 30
0.0
  0
SPLINE
  5
168
330
1F
100
AcDbEntity
  8
0
  6
Continuous
 62
     8
370
     0
100
AcDbSpline
210
0.0
220
0.0
230
1.0
 70
     8
 71
     3
 72
    19
 73
    15
 74
     0
 42
0.00000001
 43
0.00000001
 40
0.0
 40
0.0
 40
0.0
 40
0.0
 40
0.0546606797758744
 40
0.1116051014007833
 40
0.1714383176585043
 40
0.2346825249363207
 40
0.3017803275349755
 40
0.3731026231082901
 40
0.4489583674592444
 40
0.5296044301600199
 40
0.6457455474174688
 40
0.7711430905442257
 40
0.8980885850169877
 40
1.0
 40
1.0
 40
1.0
 40
1.0
 10
175.8677507535581
 20
206.8390711964486
 30
0.0
 10
175.8651807382536
 20
206.8121159367789
 30
0.0
 10
175.8599333315285
 20
206.7570792174945
 30
0.0
 10
175.8641231501898
 20
206.6721156291813
 30
0.0
 10
175.8767754767833
 20
206.5838108069877
 30
0.0
 10
175.8988401969929
 20
206.4920445997089
 30
0.0
 10
175.9300105593962
 20
206.3968396610208
 30
0.0
 10
175.9703557620377
 20
206.2981737123793
 30
0.0
 10
176.019840874185
 20
206.1960316933766
 30
0.0
 10
176.0858660771107
 20
206.0771224614422
 30
0.0
 10
176.1720085445232
 20
205.9410172225822
 30
0.0
 10
176.2794766346927
 20
205.7912181545465
 30
0.0
 10
176.3887214290649
 20
205.6507388224321
 30
0.0
 10
176.4717287949396
 20
205.5706324172742
 30
0.0
 10
176.5086924947922
 20
205.534960533396
 30
0.0
  0
SPLINE
  5
169
330
1F
100
AcDbEntity
  8
0
  6
Continuous
 62
     8
370
     0
100
AcDbSpline
210
0.0
220
0.0
230
1.0
 70
     8
 71
     3
 72
    16
 73
    12
 74
     0
 42
0.00000001
 43
0.00000001
 40
0.0
 40
0.0
 40
0.0
 40
0.0
 40
0.0410760404175605
 40
0.1407709311047478
 40
0.2826862307459074
 40
0.4296069312964075
 40
0.5100254035353108
 40
0.5900651802030902
 40
0.7186397509175436
 40
0.8548613089870992
 40
1.0
 40
1.0
 40
1.0
 40
1.0
 10
241.1574432767355
 20
206.254448793578
 30
0.0
 10
241.1560377574754
 20
206.2312498719959
 30
0.0
 10
241.151220928664
 20
206.1517452810342
 30
0.0
 10
241.1344437499797
 20
205.9922375996772
 30
0.0
 10
241.0970047955917
 20
205.7751351100677
 30
0.0
 10
241.0391501876806
 20
205.5771566846397
 30
0.0
 10
240.9726940476377
 20
205.4234888061575
 30
0.0
 10
240.8972352068094
 20
205.2880465452003
 30
0.0
 10
240.7861489872552
 20
205.142923892737
 30
0.0
 10
240.6264677675497
 20
204.9944778929266
 30
0.0
 10
240.4939711408896
 20
204.9175765628644
 30
0.0
 10
240.4256232238693
 20
204.8779072832885
 30
0.0
  0
SPLINE
  5
16A
330
1F
100
AcDbEntity
  8
0
  6
Continuous
 62
     8
370
     0
100
AcDbSpline
210
0.0
220
0.0
230
1.0
 70
     8
 71
     3
 72
    12
 73
     8
 74
     0
 42
0.00000001
 43
0.00000001
 40
0.0
 40
0.0
 40
0.0
 40
0.0
 40
0.2017339630060102
 40
0.3739698684736482
 40
0.6535450283178016
 40
0.9115859982126435
 40
1.0
 40
1.0
 40
1.0
 40
1.0
 10
175.9856398386484
 20
204.8779072832908
 30
0.0
 10
175.8834069296044
 20
204.9409639743332
 30
0.0
 10
175.6938898697143
 20
205.0578570453072
 30
0.0
 10
175.4529747475104
 20
205.3528364447637
 30
0.0
 10
175.3068655823278
 20
205.7582964496679
 30
0.0
 10
175.2449616167116
 20
206.154256319151
 30
0.0
 10
175.2569080408961
 20
206.3605960185059
 30
0.0
 10
175.2599567232806
 20
206.413253131374
 30
0.0
  0
SPLINE
  5
16B
330
1F
100
AcDbEntity
  8
0
  6
Continuous
 62
     8
370
     0
100
AcDbSpline
210
0.0
220
0.0
230
1.0
 70
     8
 71
     3
 72
    24
 73
    20
 74
     0
 42
0.00000001
 43
0.00000001
 40
0.0
 40
0.0
 40
0.0
 40
0.0
 40
0.0625
 40
0.0625
 40
0.1250000000000001
 40
0.1250000000000001
 40
0.2500000000000002
 40
0.2500000000000002
 40
0.5000000000000003
 40
0.5000000000000003
 40
0.6250000000000002
 40
0.6250000000000002
 40
0.75
 40
0.75
 40
0.8749999999999999
 40
0.8749999999999999
 40
0.9375
 40
0.9375
 40
1.0
 40
1.0
 40
1.0
 40
1.0
 10
180.4400646707207
 20
125.5466511994519
 30
0.0
 10
180.2397250665657
 20
126.6456849191057
 30
0.0
 10
180.0519829815598
 20
127.7469556099846
 30
0.0
 10
179.6952809274196
 20
129.9524491880368
 30
0.0
 10
179.5263253049578
 20
131.0562644314143
 30
0.0
 10
179.0430823093344
 20
134.3704086914136
 30
0.0
 10
178.7528186475104
 20
136.5834773233418
 30
0.0
 10
177.9654101547982
 20
143.2322049209735
 30
0.0
 10
177.5521289670888
 20
147.6774439928587
 30
0.0
 10
177.052382286893
 20
154.3591028065287
 30
0.0
 10
176.9061443808357
 20
156.5873696801654
 30
0.0
 10
176.6504863197671
 20
161.0453255861344
 30
0.0
 10
176.5411294158563
 20
163.2750232973707
 30
0.0
 10
176.3621335369818
 20
167.7354968702609
 30
0.0
 10
176.2922958331453
 20
169.966609500021
 30
0.0
 10
176.2119145944553
 20
173.3124227922784
 30
0.0
 10
176.1894090490514
 20
174.4267304854466
 30
0.0
 10
176.1511547430599
 20
176.653232705256
 30
0.0
 10
176.1360047163404
 20
177.7655167034855
 30
0.0
 10
176.1201158023211
 20
178.8773973310695
 30
0.0
  0
SPLINE
  5
16C
330
1F
100
AcDbEntity
  8
0
  6
Continuous
 62
     8
370
     0
100
AcDbSpline
210
0.0
220
0.0
230
1.0
 70
     8
 71
     3
 72
    11
 73
     7
 74
     0
 42
0.00000001
 43
0.00000001
 40
-0.00000006018
 40
-0.00000006018
 40
-0.00000006018
 40
-0.00000006018
 40
0.0
 40
0.0
 40
0.0
 40
0.0002337405267701
 40
0.0002337405267701
 40
0.0002337405267701
 40
0.0002337405267701
 10
180.4821773473664
 20
125.3166751763792
 30
0.0
 10
180.4821737181543
 20
125.3166949052805
 30
0.0
 10
180.4821700889464
 20
125.3167146341825
 30
0.0
 10
180.4821664597426
 20
125.3167343630852
 30
0.0
 10
180.4680705471988
 20
125.3933618826172
 30
0.0
 10
180.4540370161722
 20
125.470000959183
 30
0.0
 10
180.4400646707207
 20
125.546651199452
 30
0.0
  0
SPLINE
  5
16D
330
1F
100
AcDbEntity
  8
0
  6
Continuous
 62
     8
370
     0
100
AcDbSpline
210
0.0
220
0.0
230
1.0
 70
     8
 71
     3
 72
    24
 73
    20
 74
     0
 42
0.00000001
 43
0.00000001
 40
0.0
 40
0.0
 40
0.0
 40
0.0
 40
0.0625000000000001
 40
0.0625000000000001
 40
0.1250000000000002
 40
0.1250000000000002
 40
0.2500000000000003
 40
0.2500000000000003
 40
0.5000000000000002
 40
0.5000000000000002
 40
0.6250000000000002
 40
0.6250000000000002
 40
0.7500000000000002
 40
0.7500000000000002
 40
0.8750000000000001
 40
0.8750000000000001
 40
0.9375000000000001
 40
0.9375000000000001
 40
1.0
 40
1.0
 40
1.0
 40
1.0
 10
235.9711983917971
 20
125.5466511994519
 30
0.0
 10
236.171537995952
 20
126.6456849191057
 30
0.0
 10
236.3592800809581
 20
127.7469556099847
 30
0.0
 10
236.7159821350979
 20
129.9524491880369
 30
0.0
 10
236.88493775756
 20
131.0562644314143
 30
0.0
 10
237.3681807531833
 20
134.3704086914136
 30
0.0
 10
237.6584444150074
 20
136.5834773233418
 30
0.0
 10
238.4458529077196
 20
143.2322049209737
 30
0.0
 10
238.859134095429
 20
147.6774439928589
 30
0.0
 10
239.3588807756248
 20
154.359102806529
 30
0.0
 10
239.505118681682
 20
156.5873696801656
 30
0.0
 10
239.7607767427506
 20
161.0453255861346
 30
0.0
 10
239.8701336466611
 20
163.275023297371
 30
0.0
 10
240.049129525536
 20
167.7354968702612
 30
0.0
 10
240.1189672293724
 20
169.9666095000213
 30
0.0
 10
240.1993484680625
 20
173.3124227922788
 30
0.0
 10
240.2218540134663
 20
174.426730485447
 30
0.0
 10
240.2601083194579
 20
176.6532327052564
 30
0.0
 10
240.2752583442558
 20
177.7655167044979
 30
0.0
 10
240.2911472601966
 20
178.8773973310699
 30
0.0
  0
SPLINE
  5
16E
330
1F
100
AcDbEntity
  8
0
  6
Continuous
 62
     8
370
     0
100
AcDbSpline
210
0.0
220
0.0
230
1.0
 70
     8
 71
     3
 72
    11
 73
     7
 74
     0
 42
0.00000001
 43
0.00000001
 40
-0.00000006018
 40
-0.00000006018
 40
-0.00000006018
 40
-0.00000006018
 40
0.0
 40
0.0
 40
0.0
 40
0.0002337405267701
 40
0.0002337405267701
 40
0.0002337405267701
 40
0.0002337405267701
 10
235.9290857151513
 20
125.3166751763792
 30
0.0
 10
235.9290893443594
 20
125.3166949052812
 30
0.0
 10
235.9290929735713
 20
125.3167146341825
 30
0.0
 10
235.9290966027752
 20
125.3167343630852
 30
0.0
 10
235.9431925153189
 20
125.3933618826172
 30
0.0
 10
235.9572260463455
 20
125.470000959183
 30
0.0
 10
235.971198391797
 20
125.546651199452
 30
0.0
  0
LINE
  5
16F
330
1F
100
AcDbEntity
  8
0
  6
Continuous
 62
     8
370
     0
100
AcDbLine
 10
208.2056315313
 20
103.4806164511
 30
0.0
 11
208.2043492781
 21
103.4806172648
 31
0.0
  0
SPLINE
  5
170
330
1F
100
AcDbEntity
  8
0
  6
Continuous
 62
     8
370
     0
100
AcDbSpline
210
0.0
220
0.0
230
1.0
 70
     8
 71
     3
 72
    38
 73
    34
 74
     0
 42
0.00000001
 43
0.00000001
 40
0.0
 40
0.0
 40
0.0
 40
0.0
 40
0.1249999999999996
 40
0.1249999999999996
 40
0.2499999999999992
 40
0.2499999999999992
 40
0.3124999999999988
 40
0.3124999999999988
 40
0.3749999999999986
 40
0.3749999999999986
 40
0.4374999999999985
 40
0.4374999999999985
 40
0.4999999999999984
 40
0.4999999999999984
 40
0.5624999999999983
 40
0.5624999999999983
 40
0.5937499999999983
 40
0.5937499999999983
 40
0.6249999999999983
 40
0.6249999999999983
 40
0.6874999999999984
 40
0.6874999999999984
 40
0.7499999999999986
 40
0.7499999999999986
 40
0.8124999999999988
 40
0.8124999999999988
 40
0.8749999999999989
 40
0.8749999999999989
 40
0.937499999999999
 40
0.937499999999999
 40
0.9687499999999996
 40
0.9687499999999996
 40
1.0
 40
1.0
 40
1.0
 40
1.0
 10
208.2043492767982
 20
103.4806154705664
 30
0.0
 10
206.5168227282219
 20
103.4794336510387
 30
0.0
 10
204.8284463119304
 20
103.516337316184
 30
0.0
 10
201.4651293621195
 20
103.7252943615448
 30
0.0
 10
199.7893508350354
 20
103.8967171409875
 30
0.0
 10
197.2886060862803
 20
104.3010485771072
 30
0.0
 10
196.4597076174857
 20
104.4598911072326
 30
0.0
 10
194.8157026489971
 20
104.8383192440888
 30
0.0
 10
193.9981055279118
 20
105.0597119013158
 30
0.0
 10
192.3997620344664
 20
105.5832632418886
 30
0.0
 10
191.6177253579581
 20
105.8845085821837
 30
0.0
 10
190.0954629618243
 20
106.5832877164159
 30
0.0
 10
189.3536136230304
 20
106.9806158040944
 30
0.0
 10
187.9333503482499
 20
107.907012376154
 30
0.0
 10
187.2746091106998
 20
108.4266165702396
 30
0.0
 10
186.37962403473
 20
109.3082262425999
 30
0.0
 10
186.0964774688938
 20
109.6187572226547
 30
0.0
 10
185.5597299955355
 20
110.2722621255043
 30
0.0
 10
185.3067108142286
 20
110.6148217016522
 30
0.0
 10
184.602862716891
 20
111.6636029781587
 30
0.0
 10
184.2005259860537
 20
112.3982892257986
 30
0.0
 10
183.4882800285993
 20
113.9167149041895
 30
0.0
 10
183.177304115889
 20
114.7024933885953
 30
0.0
 10
182.622352330998
 20
116.2962079610424
 30
0.0
 10
182.3790468222952
 20
117.1030180152949
 30
0.0
 10
181.9295230379782
 20
118.7274416855254
 30
0.0
 10
181.7217528073448
 20
119.5446421283297
 30
0.0
 10
181.3263473103946
 20
121.1847563596276
 30
0.0
 10
181.139061193633
 20
122.0071676274298
 30
0.0
 10
180.8761308550446
 20
123.2448535624821
 30
0.0
 10
180.7920161413547
 20
123.6581608646806
 30
0.0
 10
180.6333216013714
 20
124.486627594093
 30
0.0
 10
180.5578769172568
 20
124.901536652461
 30
0.0
 10
180.4823157488255
 20
125.3165957229871
 30
0.0
  0
SPLINE
  5
171
330
1F
100
AcDbEntity
  8
0
  6
Continuous
 62
     8
370
     0
100
AcDbSpline
210
0.0
220
0.0
230
1.0
 70
     8
 71
     3
 72
    38
 73
    34
 74
     0
 42
0.00000001
 43
0.00000001
 40
0.0
 40
0.0
 40
0.0
 40
0.0
 40
0.1250000000000001
 40
0.1250000000000001
 40
0.2500000000000002
 40
0.2500000000000002
 40
0.3125000000000002
 40
0.3125000000000002
 40
0.3750000000000002
 40
0.3750000000000002
 40
0.4375000000000003
 40
0.4375000000000003
 40
0.5000000000000003
 40
0.5000000000000003
 40
0.5625000000000003
 40
0.5625000000000003
 40
0.5937500000000004
 40
0.5937500000000004
 40
0.6250000000000004
 40
0.6250000000000004
 40
0.6875000000000003
 40
0.6875000000000003
 40
0.7500000000000002
 40
0.7500000000000002
 40
0.8125000000000002
 40
0.8125000000000002
 40
0.8750000000000001
 40
0.8750000000000001
 40
0.9375000000000001
 40
0.9375000000000001
 40
0.9687500000000001
 40
0.9687500000000001
 40
1.0
 40
1.0
 40
1.0
 40
1.0
 10
208.2069137857195
 20
103.4806154705664
 30
0.0
 10
209.8944403342958
 20
103.4794336510387
 30
0.0
 10
211.5828167505873
 20
103.516337316184
 30
0.0
 10
214.9461337003982
 20
103.7252943615447
 30
0.0
 10
216.6219122274823
 20
103.8967171409876
 30
0.0
 10
219.1226569762374
 20
104.3010485771072
 30
0.0
 10
219.951555445032
 20
104.4598911072327
 30
0.0
 10
221.5955604135206
 20
104.8383192440888
 30
0.0
 10
222.4131575346059
 20
105.0597119013158
 30
0.0
 10
224.0115010280513
 20
105.5832632418886
 30
0.0
 10
224.7935377045595
 20
105.8845085821836
 30
0.0
 10
226.3158001006933
 20
106.5832877164157
 30
0.0
 10
227.0576494394872
 20
106.9806158040943
 30
0.0
 10
228.4779127142677
 20
107.9070123761538
 30
0.0
 10
229.1366539518178
 20
108.4266165702394
 30
0.0
 10
230.0316390277876
 20
109.3082262425997
 30
0.0
 10
230.3147855936238
 20
109.6187572226545
 30
0.0
 10
230.8515330669821
 20
110.272262125504
 30
0.0
 10
231.1045522482889
 20
110.6148217016521
 30
0.0
 10
231.8084003456266
 20
111.6636029781585
 30
0.0
 10
232.2107370764639
 20
112.3982892257983
 30
0.0
 10
232.9229830339183
 20
113.9167149041892
 30
0.0
 10
233.2339589466286
 20
114.7024933885951
 30
0.0
 10
233.7889107315196
 20
116.296207961042
 30
0.0
 10
234.0322162402225
 20
117.1030180152946
 30
0.0
 10
234.4817400245394
 20
118.7274416855251
 30
0.0
 10
234.6895102551728
 20
119.5446421283293
 30
0.0
 10
235.0849157521231
 20
121.1847563596272
 30
0.0
 10
235.2722018688847
 20
122.0071676274293
 30
0.0
 10
235.535132207473
 20
123.2448535624817
 30
0.0
 10
235.6192469211629
 20
123.6581608646801
 30
0.0
 10
235.7779414611461
 20
124.4866275940926
 30
0.0
 10
235.8533861487036
 20
124.9015366516678
 30
0.0
 10
235.9289473136922
 20
125.3165957229871
 30
0.0
  0
LINE
  5
172
330
1F
100
AcDbEntity
  8
0
  6
Continuous
 62
     8
370
     0
100
AcDbLine
 10
208.2056315313
 20
103.4806164511
 30
0.0
 11
208.2069137844
 21
103.4806172648
 31
0.0
  0
SPLINE
  5
173
330
1F
100
AcDbEntity
  8
0
  6
Continuous
 62
     8
370
     0
100
AcDbSpline
210
0.0
220
0.0
230
1.0
 70
     8
 71
     3
 72
    14
 73
    10
 74
     0
 42
0.00000001
 43
0.00000001
 40
0.0
 40
0.0
 40
0.0
 40
0.0
 40
0.5000000000000006
 40
0.5000000000000006
 40
0.6250000000000002
 40
0.6250000000000002
 40
0.7499999999999999
 40
0.7499999999999999
 40
1.0
 40
1.0
 40
1.0
 40
1.0
 10
208.2056196772651
 20
245.5862452093964
 30
0.0
 10
209.9369764253514
 20
245.5862081425229
 30
0.0
 10
211.6345108436931
 20
245.4741777256922
 30
0.0
 10
213.7135434470833
 20
245.2162216406155
 30
0.0
 10
214.1271756577604
 20
245.1587285620004
 30
0.0
 10
214.9499964791605
 20
245.0322987831665
 30
0.0
 10
215.3601738419557
 20
244.9631771690763
 30
0.0
 10
216.5755755121139
 20
244.7402965548335
 30
0.0
 10
217.3648329240345
 20
244.5715586217854
 30
0.0
 10
218.1346924089518
 20
244.3820504572062
 30
0.0
  0
SPLINE
  5
174
330
1F
100
AcDbEntity
  8
0
  6
Continuous
 62
     8
370
     0
100
AcDbSpline
210
0.0
220
0.0
230
1.0
 70
     8
 71
     3
 72
    16
 73
    12
 74
     0
 42
0.00000001
 43
0.00000001
 40
0.0
 40
0.0
 40
0.0
 40
0.0
 40
0.25
 40
0.25
 40
0.5
 40
0.5
 40
0.625
 40
0.625
 40
0.75
 40
0.75
 40
1.0
 40
1.0
 40
1.0
 40
1.0
 10
198.276575037721
 20
244.3820505393732
 30
0.0
 10
199.0460271540309
 20
244.5714776911476
 30
0.0
 10
199.8304212128766
 20
244.7390525086892
 30
0.0
 10
201.430420941054
 20
245.0331041577418
 30
0.0
 10
202.2460075824899
 20
245.1595046037888
 30
0.0
 10
203.4930518533558
 20
245.3152851145999
 30
0.0
 10
203.9126737036413
 20
245.3615384857702
 30
0.0
 10
204.7598464495578
 20
245.4418819214893
 30
0.0
 10
205.1884367395636
 20
245.4760250931821
 30
0.0
 10
206.4770303270903
 20
245.5582702513114
 30
0.0
 10
207.3395976371299
 20
245.5862637501908
 30
0.0
 10
208.2056196772651
 20
245.5862452093964
 30
0.0
  0
SPLINE
  5
175
330
1F
100
AcDbEntity
  8
0
  6
Continuous
 62
     8
370
     0
100
AcDbSpline
210
0.0
220
0.0
230
1.0
 70
     8
 71
     3
 72
    25
 73
    21
 74
     0
 42
0.00000001
 43
0.00000001
 40
0.0
 40
0.0
 40
0.0
 40
0.0
 40
0.0448279240628593
 40
0.1075550135478103
 40
0.181680604948872
 40
0.3334868650379142
 40
0.4557500315701154
 40
0.5292687455237047
 40
0.5918478291900072
 40
0.6261457977498072
 40
0.6601444729441663
 40
0.6938655991334857
 40
0.7281075056369993
 40
0.754853156132652
 40
0.8008082928475039
 40
0.8639888539584796
 40
0.8863227901902656
 40
0.9320831351693317
 40
0.9784242725280741
 40
1.0
 40
1.0
 40
1.0
 40
1.0
 10
218.1348077022053
 20
244.382088635286
 30
0.0
 10
218.1208428061074
 20
244.7606203269979
 30
0.0
 10
218.0873370254941
 20
245.6688261402597
 30
0.0
 10
218.0242497912185
 20
247.2027107722734
 30
0.0
 10
217.9086383502838
 20
249.6391117723486
 30
0.0
 10
217.7258186488742
 20
252.5758617596832
 30
0.0
 10
217.4325806130568
 20
255.4998416211138
 30
0.0
 10
217.0832342291801
 20
257.6559507010279
 30
0.0
 10
216.7443960121505
 20
259.057931423266
 30
0.0
 10
216.3801504608265
 20
260.103484003645
 30
0.0
 10
216.0148842387193
 20
260.8863779708446
 30
0.0
 10
215.5391907806531
 20
261.610481892804
 30
0.0
 10
214.9580616219999
 20
262.1720922323914
 30
0.0
 10
214.1883614972816
 20
262.6539157544857
 30
0.0
 10
213.0962989217427
 20
263.0413148433232
 30
0.0
 10
211.9924830766973
 20
263.2018337470242
 30
0.0
 10
210.8869112942297
 20
263.2899359404028
 30
0.0
 10
209.920204610904
 20
263.3266697096591
 30
0.0
 10
208.9597012842625
 20
263.3367911923414
 30
0.0
 10
208.3858107443444
 20
263.3356073497345
 30
0.0
 10
208.2034980607588
 20
263.3352312683957
 30
0.0
  0
SPLINE
  5
176
330
1F
100
AcDbEntity
  8
0
  6
Continuous
 62
     8
370
     0
100
AcDbSpline
210
0.0
220
0.0
230
1.0
 70
     8
 71
     3
 72
    25
 73
    21
 74
     0
 42
0.00000001
 43
0.00000001
 40
0.0
 40
0.0
 40
0.0
 40
0.0
 40
0.0245489425063785
 40
0.0680676581265252
 40
0.1140711539117319
 40
0.1364152206773148
 40
0.1824908005015466
 40
0.2209879504278165
 40
0.2512996733571864
 40
0.2728501386255499
 40
0.3069039672362057
 40
0.3409198569723471
 40
0.3745810411063353
 40
0.4090960952394309
 40
0.4692632474529244
 40
0.5454904707356606
 40
0.6639533586632392
 40
0.8193889840193013
 40
0.9559142217995338
 40
1.0
 40
1.0
 40
1.0
 40
1.0
 10
208.2034970310659
 20
263.3352331671518
 30
0.0
 10
207.9960782182384
 20
263.3356348156428
 30
0.0
 10
207.4209612722892
 20
263.3367484795886
 30
0.0
 10
206.4572022513638
 20
263.3256000549596
 30
0.0
 10
205.5123649384563
 20
263.2891983803212
 30
0.0
 10
204.5486475557315
 20
263.2118929420669
 30
0.0
 10
203.6519483134174
 20
263.0904281717813
 30
0.0
 10
202.7100164868787
 20
262.841995326046
 30
0.0
 10
202.0098107232805
 20
262.5278994492287
 30
0.0
 10
201.4028035222112
 20
262.1257070986448
 30
0.0
 10
200.8573385713011
 20
261.5900033769772
 30
0.0
 10
200.3849292861614
 20
260.8662768410404
 30
0.0
 10
200.0224260631243
 20
260.0805670259335
 30
0.0
 10
199.6670704974115
 20
259.0547505083782
 30
0.0
 10
199.3263348758428
 20
257.6490711552888
 30
0.0
 10
198.982148860989
 20
255.5221394667944
 30
0.0
 10
198.6849320145447
 20
252.57741763071
 30
0.0
 10
198.4701294442947
 20
249.1159762680884
 30
0.0
 10
198.3464928409356
 20
246.2792925887288
 30
0.0
 10
198.2902017201781
 20
244.7543235342193
 30
0.0
 10
198.2764614848392
 20
244.3820901622147
 30
0.0
  0
ENDSEC
  0
SECTION
  2
OBJECTS
  0
DICTIONARY
  5
C
330
0
100
AcDbDictionary
281
     1
  3
ACAD_GROUP
350
D
  3
ACAD_LAYOUT
350
1A
  3
ACAD_MATERIAL
350
3B
  3
ACAD_MLEADERSTYLE
350
178
  3
ACAD_MLINESTYLE
350
17
  3
ACAD_PLOTSETTINGS
350
19
  3
ACAD_PLOTSTYLENAME
350
E
  3
ACAD_TABLESTYLE
350
177
  3
ACAD_VISUALSTYLE
350
2A
  0
DICTIONARY
  5
D
102
{ACAD_REACTORS
330
C
102
}
330
C
100
AcDbDictionary
281
     1
  0
DICTIONARY
  5
1A
102
{ACAD_REACTORS
330
C
102
}
330
C
100
AcDbDictionary
281
     1
  3
Layout1
350
1E
  3
Layout2
350
26
  3
Model
350
22
  0
DICTIONARY
  5
3B
102
{ACAD_REACTORS
330
C
102
}
330
C
100
AcDbDictionary
281
     1
  3
ByBlock
350
3D
  3
ByLayer
350
3C
  3
Global
350
3E
  0
DICTIONARY
  5
178
102
{ACAD_REACTORS
330
C
102
}
330
C
100
AcDbDictionary
281
     1
  0
DICTIONARY
  5
17
102
{ACAD_REACTORS
330
C
102
}
330
C
100
AcDbDictionary
281
     1
  3
Standard
350
18
  0
DICTIONARY
  5
19
102
{ACAD_REACTORS
330
C
102
}
330
C
100
AcDbDictionary
281
     1
  0
ACDBDICTIONARYWDFLT
  5
E
102
{ACAD_REACTORS
330
C
102
}
330
C
100
AcDbDictionary
281
     1
  3
Normal
350
F
100
AcDbDictionaryWithDefault
340
F
  0
DICTIONARY
  5
177
102
{ACAD_REACTORS
330
C
102
}
330
C
100
AcDbDictionary
281
     1
  0
DICTIONARY
  5
2A
102
{ACAD_REACTORS
330
C
102
}
330
C
100
AcDbDictionary
281
     1
  3
2dWireframe
350
2F
  3
3D Hidden
350
31
  3
3dWireframe
350
30
  3
Basic
350
32
  3
Brighten
350
36
  3
ColorChange
350
3A
  3
Conceptual
350
34
  3
Dim
350
35
  3
Facepattern
350
39
  3
Flat
350
2B
  3
FlatWithEdges
350
2C
  3
Gouraud
350
2D
  3
GouraudWithEdges
350
2E
  3
Linepattern
350
38
  3
Realistic
350
33
  3
Thicken
350
37
  0
LAYOUT
  5
1E
102
{ACAD_REACTORS
330
1A
102
}
330
1A
100
AcDbPlotSettings
  1

  2
none_device
  4

  6

 40
0.0
 41
0.0
 42
0.0
 43
0.0
 44
0.0
 45
0.0
 46
0.0
 47
0.0
 48
0.0
 49
0.0
140
0.0
141
0.0
142
1.0
143
1.0
 70
   688
 72
     0
 73
     0
 74
     5
  7

 75
    16
 76
     0
 77
     2
 78
   300
147
1.0
148
0.0
149
0.0
100
AcDbLayout
  1
Layout1
 70
     1
 71
     1
 10
0.0
 20
0.0
 11
420.0
 21
297.0
 12
0.0
 22
0.0
 32
0.0
 14
1.0000000000E+20
 24
1.0000000000E+20
 34
1.0000000000E+20
 15
-1.0000000000E+20
 25
-1.0000000000E+20
 35
-1.0000000000E+20
146
0.0
 13
0.0
 23
0.0
 33
0.0
 16
1.0
 26
0.0
 36
0.0
 17
0.0
 27
1.0
 37
0.0
 76
     0
330
1B
  0
LAYOUT
  5
26
102
{ACAD_REACTORS
330
1A
102
}
330
1A
100
AcDbPlotSettings
  1

  2
none_device
  4

  6

 40
0.0
 41
0.0
 42
0.0
 43
0.0
 44
0.0
 45
0.0
 46
0.0
 47
0.0
 48
0.0
 49
0.0
140
0.0
141
0.0
142
1.0
143
1.0
 70
   688
 72
     0
 73
     0
 74
     5
  7

 75
    16
 76
     0
 77
     2
 78
   300
147
1.0
148
0.0
149
0.0
100
AcDbLayout
  1
Layout2
 70
     1
 71
     2
 10
0.0
 20
0.0
 11
0.0
 21
0.0
 12
0.0
 22
0.0
 32
0.0
 14
0.0
 24
0.0
 34
0.0
 15
0.0
 25
0.0
 35
0.0
146
0.0
 13
0.0
 23
0.0
 33
0.0
 16
1.0
 26
0.0
 36
0.0
 17
0.0
 27
1.0
 37
0.0
 76
     0
330
23
  0
LAYOUT
  5
22
102
{ACAD_REACTORS
330
1A
102
}
330
1A
100
AcDbPlotSettings
  1

  2
none_device
  4

  6

 40
0.0
 41
0.0
 42
0.0
 43
0.0
 44
0.0
 45
0.0
 46
0.0
 47
0.0
 48
0.0
 49
0.0
140
0.0
141
0.0
142
1.0
143
1.0
 70
  1712
 72
     0
 73
     0
 74
     0
  7

 75
     0
 76
     0
 77
     2
 78
   300
147
1.0
148
0.0
149
0.0
100
AcDbLayout
  1
Model
 70
     1
 71
     0
 10
0.0
 20
0.0
 11
594.0
 21
841.0
 12
0.0
 22
0.0
 32
0.0
 14
0.0
 24
0.0
 34
0.0
 15
594.0
 25
841.0
 35
0.0
146
0.0
 13
0.0
 23
0.0
 33
0.0
 16
1.0
 26
0.0
 36
0.0
 17
0.0
 27
1.0
 37
0.0
 76
     0
330
1F
331
29
  0
MATERIAL
  5
3D
102
{ACAD_REACTORS
330
3B
102
}
330
3B
100
AcDbMaterial
  1
ByBlock
 72
     1
 94
      127
  0
MATERIAL
  5
3C
102
{ACAD_REACTORS
330
3B
102
}
330
3B
100
AcDbMaterial
  1
ByLayer
 72
     1
 94
      127
  0
MATERIAL
  5
3E
102
{ACAD_REACTORS
330
3B
102
}
330
3B
100
AcDbMaterial
  1
Global
 72
     1
 94
      127
  0
MLINESTYLE
  5
18
102
{ACAD_REACTORS
330
17
102
}
330
17
100
AcDbMlineStyle
  2
Standard
 70
     0
  3

 62
   256
 51
90.0
 52
90.0
 71
     2
 49
0.5
 62
   256
  6
BYLAYER
 49
-0.5
 62
   256
  6
BYLAYER
  0
ACDBPLACEHOLDER
  5
F
102
{ACAD_REACTORS
330
E
102
}
330
E
  0
VISUALSTYLE
  5
2F
102
{ACAD_REACTORS
330
2A
102
}
330
2A
100
AcDbVisualStyle
  2
2dWireframe
 70
     4
177
     2
291
     0
 71
     0
176
     1
 72
     2
176
     1
 73
     0
176
     1
 90
        0
176
     1
 40
-0.6
176
     1
 41
-30.0
176
     1
 62
     5
 63
     7
421
 16777215
176
     1
 74
     1
176
     1
 91
        4
176
     1
 64
     7
176
     1
 65
   257
176
     1
 75
     1
176
     1
175
     1
176
     1
 42
1.0
176
     1
 92
        0
176
     1
 66
   257
176
     1
 43
1.0
176
     1
 76
     1
176
     1
 77
     6
176
     1
 78
     2
176
     1
 67
     7
176
     1
 79
     5
176
     1
170
     0
176
     1
171
     0
176
     1
290
     0
176
     1
 93
        1
176
     1
 44
0.0
176
     1
173
     0
176
     1
  0
VISUALSTYLE
  5
31
102
{ACAD_REACTORS
330
2A
102
}
330
2A
100
AcDbVisualStyle
  2
3D Hidden
 70
     6
177
     2
291
     0
 71
     1
176
     1
 72
     2
176
     1
 73
     2
176
     1
 90
        0
176
     1
 40
-0.6
176
     1
 41
-30.0
176
     1
 62
     5
 63
     7
421
 16777215
176
     1
 74
     2
176
     1
 91
        2
176
     1
 64
     7
176
     1
 65
   257
176
     1
 75
     2
176
     1
175
     1
176
     1
 42
40.0
176
     1
 92
        0
176
     1
 66
   257
176
     1
 43
1.0
176
     1
 76
     1
176
     1
 77
     6
176
     1
 78
     2
176
     1
 67
     7
176
     1
 79
     3
176
     1
170
     0
176
     1
171
     0
176
     1
290
     0
176
     1
 93
        1
176
     1
 44
0.0
176
     1
173
     0
176
     1
  0
VISUALSTYLE
  5
30
102
{ACAD_REACTORS
330
2A
102
}
330
2A
100
AcDbVisualStyle
  2
3dWireframe
 70
     5
177
     2
291
     0
 71
     0
176
     1
 72
     2
176
     1
 73
     0
176
     1
 90
        0
176
     1
 40
-0.6
176
     1
 41
-30.0
176
     1
 62
     5
 63
     7
421
 16777215
176
     1
 74
     1
176
     1
 91
        4
176
     1
 64
     7
176
     1
 65
   257
176
     1
 75
     1
176
     1
175
     1
176
     1
 42
1.0
176
     1
 92
        0
176
     1
 66
   257
176
     1
 43
1.0
176
     1
 76
     1
176
     1
 77
     6
176
     1
 78
     2
176
     1
 67
     7
176
     1
 79
     5
176
     1
170
     0
176
     1
171
     0
176
     1
290
     0
176
     1
 93
        1
176
     1
 44
0.0
176
     1
173
     0
176
     1
  0
VISUALSTYLE
  5
32
102
{ACAD_REACTORS
330
2A
102
}
330
2A
100
AcDbVisualStyle
  2
Basic
 70
     7
177
     2
291
     1
 71
     1
176
     1
 72
     0
176
     1
 73
     1
176
     1
 90
        0
176
     1
 40
-0.6
176
     1
 41
-30.0
176
     1
 62
     5
 63
     7
421
 16777215
176
     1
 74
     0
176
     1
 91
        4
176
     1
 64
     7
176
     1
 65
   257
176
     1
 75
     1
176
     1
175
     1
176
     1
 42
1.0
176
     1
 92
        8
176
     1
 66
     7
176
     1
 43
1.0
176
     1
 76
     1
176
     1
 77
     6
176
     1
 78
     2
176
     1
 67
     7
176
     1
 79
     5
176
     1
170
     0
176
     1
171
     0
176
     1
290
     0
176
     1
 93
        1
176
     1
 44
0.0
176
     1
173
     0
176
     1
  0
VISUALSTYLE
  5
36
102
{ACAD_REACTORS
330
2A
102
}
330
2A
100
AcDbVisualStyle
  2
Brighten
 70
    12
177
     2
291
     1
 71
     2
176
     1
 72
     2
176
     1
 73
     0
176
     1
 90
        0
176
     1
 40
-0.6
176
     1
 41
-30.0
176
     1
 62
     5
 63
     7
421
 16777215
176
     1
 74
     1
176
     1
 91
        4
176
     1
 64
     7
176
     1
 65
   257
176
     1
 75
     1
176
     1
175
     1
176
     1
 42
1.0
176
     1
 92
        8
176
     1
 66
     7
176
     1
 43
1.0
176
     1
 76
     1
176
     1
 77
     6
176
     1
 78
     2
176
     1
 67
     7
176
     1
 79
     5
176
     1
170
     0
176
     1
171
     0
176
     1
290
     0
176
     1
 93
        1
176
     1
 44
50.0
176
     1
173
     0
176
     1
  0
VISUALSTYLE
  5
3A
102
{ACAD_REACTORS
330
2A
102
}
330
2A
100
AcDbVisualStyle
  2
ColorChange
 70
    16
177
     2
291
     1
 71
     2
176
     1
 72
     2
176
     1
 73
     3
176
     1
 90
        0
176
     1
 40
-0.6
176
     1
 41
-30.0
176
     1
 62
     5
 63
     8
421
  8421504
176
     1
 74
     1
176
     1
 91
        4
176
     1
 64
     7
176
     1
 65
   257
176
     1
 75
     1
176
     1
175
     1
176
     1
 42
1.0
176
     1
 92
        8
176
     1
 66
     8
424
  8421504
176
     1
 43
1.0
176
     1
 76
     1
176
     1
 77
     6
176
     1
 78
     2
176
     1
 67
     7
176
     1
 79
     5
176
     1
170
     0
176
     1
171
     0
176
     1
290
     0
176
     1
 93
        1
176
     1
 44
0.0
176
     1
173
     0
176
     1
  0
VISUALSTYLE
  5
34
102
{ACAD_REACTORS
330
2A
102
}
330
2A
100
AcDbVisualStyle
  2
Conceptual
 70
     9
177
     2
291
     0
 71
     3
176
     1
 72
     2
176
     1
 73
     0
176
     1
 90
        0
176
     1
 40
-0.6
176
     1
 41
-30.0
176
     1
 62
     5
 63
     7
421
 16777215
176
     1
 74
     2
176
     1
 91
        2
176
     1
 64
     7
176
     1
 65
   257
176
     1
 75
     1
176
     1
175
     1
176
     1
 42
40.0
176
     1
 92
        8
176
     1
 66
     7
176
     1
 43
1.0
176
     1
 76
     1
176
     1
 77
     6
176
     1
 78
     2
176
     1
 67
     7
176
     1
 79
     3
176
     1
170
     0
176
     1
171
     0
176
     1
290
     0
176
     1
 93
        1
176
     1
 44
0.0
176
     1
173
     0
176
     1
  0
VISUALSTYLE
  5
35
102
{ACAD_REACTORS
330
2A
102
}
330
2A
100
AcDbVisualStyle
  2
Dim
 70
    11
177
     2
291
     1
 71
     2
176
     1
 72
     2
176
     1
 73
     0
176
     1
 90
        0
176
     1
 40
-0.6
176
     1
 41
-30.0
176
     1
 62
     5
 63
     7
421
 16777215
176
     1
 74
     1
176
     1
 91
        4
176
     1
 64
     7
176
     1
 65
   257
176
     1
 75
     1
176
     1
175
     1
176
     1
 42
1.0
176
     1
 92
        8
176
     1
 66
     7
176
     1
 43
1.0
176
     1
 76
     1
176
     1
 77
     6
176
     1
 78
     2
176
     1
 67
     7
176
     1
 79
     5
176
     1
170
     0
176
     1
171
     0
176
     1
290
     0
176
     1
 93
        1
176
     1
 44
-50.0
176
     1
173
     0
176
     1
  0
VISUALSTYLE
  5
39
102
{ACAD_REACTORS
330
2A
102
}
330
2A
100
AcDbVisualStyle
  2
Facepattern
 70
    15
177
     2
291
     1
 71
     2
176
     1
 72
     2
176
     1
 73
     0
176
     1
 90
        0
176
     1
 40
-0.6
176
     1
 41
-30.0
176
     1
 62
     5
 63
     7
421
 16777215
176
     1
 74
     1
176
     1
 91
        4
176
     1
 64
     7
176
     1
 65
   257
176
     1
 75
     1
176
     1
175
     1
176
     1
 42
1.0
176
     1
 92
        8
176
     1
 66
     7
176
     1
 43
1.0
176
     1
 76
     1
176
     1
 77
     6
176
     1
 78
     2
176
     1
 67
     7
176
     1
 79
     5
176
     1
170
     0
176
     1
171
     0
176
     1
290
     0
176
     1
 93
        1
176
     1
 44
0.0
176
     1
173
     0
176
     1
  0
VISUALSTYLE
  5
2B
102
{ACAD_REACTORS
330
2A
102
}
330
2A
100
AcDbVisualStyle
  2
Flat
 70
     0
177
     2
291
     1
 71
     2
176
     1
 72
     1
176
     1
 73
     1
176
     1
 90
        2
176
     1
 40
-0.6
176
     1
 41
30.0
176
     1
 62
     5
 63
     7
421
 16777215
176
     1
 74
     0
176
     1
 91
        4
176
     1
 64
     7
176
     1
 65
   257
176
     1
 75
     1
176
     1
175
     1
176
     1
 42
1.0
176
     1
 92
        8
176
     1
 66
     7
176
     1
 43
1.0
176
     1
 76
     1
176
     1
 77
     6
176
     1
 78
     2
176
     1
 67
     7
176
     1
 79
     5
176
     1
170
     0
176
     1
171
     0
176
     1
290
     0
176
     1
 93
       13
176
     1
 44
0.0
176
     1
173
     0
176
     1
  0
VISUALSTYLE
  5
2C
102
{ACAD_REACTORS
330
2A
102
}
330
2A
100
AcDbVisualStyle
  2
FlatWithEdges
 70
     1
177
     2
291
     1
 71
     2
176
     1
 72
     1
176
     1
 73
     1
176
     1
 90
        2
176
     1
 40
-0.6
176
     1
 41
30.0
176
     1
 62
     5
 63
     7
421
 16777215
176
     1
 74
     1
176
     1
 91
        4
176
     1
 64
     7
176
     1
 65
   257
176
     1
 75
     1
176
     1
175
     1
176
     1
 42
1.0
176
     1
 92
        0
176
     1
 66
   257
176
     1
 43
1.0
176
     1
 76
     1
176
     1
 77
     6
176
     1
 78
     2
176
     1
 67
     7
176
     1
 79
     5
176
     1
170
     0
176
     1
171
     0
176
     1
290
     0
176
     1
 93
       13
176
     1
 44
0.0
176
     1
173
     0
176
     1
  0
VISUALSTYLE
  5
2D
102
{ACAD_REACTORS
330
2A
102
}
330
2A
100
AcDbVisualStyle
  2
Gouraud
 70
     2
177
     2
291
     1
 71
     2
176
     1
 72
     2
176
     1
 73
     1
176
     1
 90
        2
176
     1
 40
-0.6
176
     1
 41
30.0
176
     1
 62
     5
 63
     7
421
 16777215
176
     1
 74
     0
176
     1
 91
        4
176
     1
 64
     7
176
     1
 65
   257
176
     1
 75
     1
176
     1
175
     1
176
     1
 42
1.0
176
     1
 92
        0
176
     1
 66
     7
176
     1
 43
1.0
176
     1
 76
     1
176
     1
 77
     6
176
     1
 78
     2
176
     1
 67
     7
176
     1
 79
     5
176
     1
170
     0
176
     1
171
     0
176
     1
290
     0
176
     1
 93
       13
176
     1
 44
0.0
176
     1
173
     0
176
     1
  0
VISUALSTYLE
  5
2E
102
{ACAD_REACTORS
330
2A
102
}
330
2A
100
AcDbVisualStyle
  2
GouraudWithEdges
 70
     3
177
     2
291
     1
 71
     2
176
     1
 72
     2
176
     1
 73
     1
176
     1
 90
        2
176
     1
 40
-0.6
176
     1
 41
30.0
176
     1
 62
     5
 63
     7
421
 16777215
176
     1
 74
     1
176
     1
 91
        4
176
     1
 64
     7
176
     1
 65
   257
176
     1
 75
     1
176
     1
175
     1
176
     1
 42
1.0
176
     1
 92
        0
176
     1
 66
   257
176
     1
 43
1.0
176
     1
 76
     1
176
     1
 77
     6
176
     1
 78
     2
176
     1
 67
     7
176
     1
 79
     5
176
     1
170
     0
176
     1
171
     0
176
     1
290
     0
176
     1
 93
       13
176
     1
 44
0.0
176
     1
173
     0
176
     1
  0
VISUALSTYLE
  5
38
102
{ACAD_REACTORS
330
2A
102
}
330
2A
100
AcDbVisualStyle
  2
Linepattern
 70
    14
177
     2
291
     1
 71
     2
176
     1
 72
     2
176
     1
 73
     0
176
     1
 90
        0
176
     1
 40
-0.6
176
     1
 41
-30.0
176
     1
 62
     5
 63
     7
421
 16777215
176
     1
 74
     1
176
     1
 91
        4
176
     1
 64
     7
176
     1
 65
   257
176
     1
 75
     7
176
     1
175
     7
176
     1
 42
1.0
176
     1
 92
        8
176
     1
 66
     7
176
     1
 43
1.0
176
     1
 76
     1
176
     1
 77
     6
176
     1
 78
     2
176
     1
 67
     7
176
     1
 79
     5
176
     1
170
     0
176
     1
171
     0
176
     1
290
     0
176
     1
 93
        1
176
     1
 44
0.0
176
     1
173
     0
176
     1
  0
VISUALSTYLE
  5
33
102
{ACAD_REACTORS
330
2A
102
}
330
2A
100
AcDbVisualStyle
  2
Realistic
 70
     8
177
     2
291
     0
 71
     2
176
     1
 72
     2
176
     1
 73
     0
176
     1
 90
        0
176
     1
 40
-0.6
176
     1
 41
-30.0
176
     1
 62
     5
 63
     7
421
 16777215
176
     1
 74
     1
176
     1
 91
        0
176
     1
 64
     7
176
     1
 65
   257
176
     1
 75
     1
176
     1
175
     1
176
     1
 42
1.0
176
     1
 92
        8
176
     1
 66
     8
424
  7895160
176
     1
 43
1.0
176
     1
 76
     1
176
     1
 77
     6
176
     1
 78
     2
176
     1
 67
     7
176
     1
 79
     5
176
     1
170
     0
176
     1
171
     0
176
     1
290
     0
176
     1
 93
       13
176
     1
 44
0.0
176
     1
173
     0
176
     1
  0
VISUALSTYLE
  5
37
102
{ACAD_REACTORS
330
2A
102
}
330
2A
100
AcDbVisualStyle
  2
Thicken
 70
    13
177
     2
291
     1
 71
     2
176
     1
 72
     2
176
     1
 73
     0
176
     1
 90
        0
176
     1
 40
-0.6
176
     1
 41
-30.0
176
     1
 62
     5
 63
     7
421
 16777215
176
     1
 74
     1
176
     1
 91
        4
176
     1
 64
     7
176
     1
 65
   257
176
     1
 75
     1
176
     1
175
     1
176
     1
 42
1.0
176
     1
 92
       12
176
     1
 66
     7
176
     1
 43
1.0
176
     1
 76
     1
176
     1
 77
     6
176
     1
 78
     2
176
     1
 67
     7
176
     1
 79
     5
176
     1
170
     0
176
     1
171
     0
176
     1
290
     0
176
     1
 93
        1
176
     1
 44
0.0
176
     1
173
     0
176
     1
  0
ENDSEC
  0
EOF
