  0
SECTION
  2
HEADER
  9
$ACADVER
  1
AC1032
  9
$ACADMAINTVER
 90
        4
  9
$DWGCODEPAGE
  3
ANSI_1252
  9
$LASTSAVEDBY
  1
MKramer
  9
$REQUIREDVERSIONS
160
                 0
  9
$INSBASE
 10
0.0
 20
0.0
 30
0.0
  9
$EXTMIN
 10
35.33953329457825
 20
37.46023423127906
 30
0.0
  9
$EXTMAX
 10
517.6919298245609
 20
484.366569037657
 30
0.0
  9
$LIMMIN
 10
0.0
 20
0.0
  9
$LIMMAX
 10
594.0
 20
841.0
  9
$ORTHOMODE
 70
     0
  9
$REGENMODE
 70
     1
  9
$FILLMODE
 70
     1
  9
$QTEXTMODE
 70
     0
  9
$MIRRTEXT
 70
     1
  9
$LTSCALE
 40
1.0
  9
$ATTMODE
 70
     1
  9
$TEXTSIZE
 40
10.0
  9
$TRACEWID
 40
1.0
  9
$TEXTSTYLE
  7
Standard
  9
$CLAYER
  8
0
  9
$CELTYPE
  6
ByLayer
  9
$CECOLOR
 62
   256
  9
$CELTSCALE
 40
1.0
  9
$DISPSILH
 70
     0
  9
$DIMSCALE
 40
1.0
  9
$DIMASZ
 40
2.5
  9
$DIMEXO
 40
0.0
  9
$DIMDLI
 40
3.75
  9
$DIMRND
 40
0.0
  9
$DIMDLE
 40
0.0
  9
$DIMEXE
 40
1.0
  9
$DIMTP
 40
0.0
  9
$DIMTM
 40
0.0
  9
$DIMTXT
 40
3.5
  9
$DIMCEN
 40
2.5
  9
$DIMTSZ
 40
0.0
  9
$DIMTOL
 70
     0
  9
$DIMLIM
 70
     0
  9
$DIMTIH
 70
     1
  9
$DIMTOH
 70
     1
  9
$DIMSE1
 70
     0
  9
$DIMSE2
 70
     0
  9
$DIMTAD
 70
     1
  9
$DIMZIN
 70
     0
  9
$DIMBLK
  1

  9
$DIMASO
 70
     1
  9
$DIMSHO
 70
     1
  9
$DIMPOST
  1

  9
$DIMAPOST
  1

  9
$DIMALT
 70
     0
  9
$DIMALTD
 70
     3
  9
$DIMALTF
 40
0.0393700787401575
  9
$DIMLFAC
 40
1.0
  9
$DIMTOFL
 70
     1
  9
$DIMTVP
 40
0.0
  9
$DIMTIX
 70
     0
  9
$DIMSOXD
 70
     0
  9
$DIMSAH
 70
     0
  9
$DIMBLK1
  1

  9
$DIMBLK2
  1

  9
$DIMSTYLE
  2
ISO-25
  9
$DIMCLRD
 70
     0
  9
$DIMCLRE
 70
     0
  9
$DIMCLRT
 70
     0
  9
$DIMTFAC
 40
1.0
  9
$DIMGAP
 40
1.5
  9
$DIMJUST
 70
     0
  9
$DIMSD1
 70
     0
  9
$DIMSD2
 70
     0
  9
$DIMTOLJ
 70
     0
  9
$DIMTZIN
 70
     0
  9
$DIMALTZ
 70
     0
  9
$DIMALTTZ
 70
     0
  9
$DIMUPT
 70
     0
  9
$DIMDEC
 70
     2
  9
$DIMTDEC
 70
     2
  9
$DIMALTU
 70
     2
  9
$DIMALTTD
 70
     3
  9
$DIMTXSTY
  7
Standard
  9
$DIMAUNIT
 70
     0
  9
$DIMADEC
 70
     2
  9
$DIMALTRND
 40
0.0
  9
$DIMAZIN
 70
     0
  9
$DIMDSEP
 70
    44
  9
$DIMATFIT
 70
     3
  9
$DIMFRAC
 70
     0
  9
$DIMLDRBLK
  1

  9
$DIMLUNIT
 70
     2
  9
$DIMLWD
 70
    -2
  9
$DIMLWE
 70
    -2
  9
$DIMTMOVE
 70
     0
  9
$DIMFXL
 40
1.0
  9
$DIMFXLON
 70
     0
  9
$DIMJOGANG
 40
0.7853981633974483
  9
$DIMTFILL
 70
     0
  9
$DIMTFILLCLR
 70
     0
  9
$DIMARCSYM
 70
     0
  9
$DIMLTYPE
  6

  9
$DIMLTEX1
  6

  9
$DIMLTEX2
  6

  9
$DIMTXTDIRECTION
 70
     0
  9
$LUNITS
 70
     2
  9
$LUPREC
 70
     2
  9
$SKETCHINC
 40
1.0
  9
$FILLETRAD
 40
10.0
  9
$AUNITS
 70
     0
  9
$AUPREC
 70
     2
  9
$MENU
  1
.
  9
$ELEVATION
 40
0.0
  9
$PELEVATION
 40
0.0
  9
$THICKNESS
 40
0.0
  9
$LIMCHECK
 70
     0
  9
$CHAMFERA
 40
0.0
  9
$CHAMFERB
 40
0.0
  9
$CHAMFERC
 40
0.0
  9
$CHAMFERD
 40
0.0
  9
$SKPOLY
 70
     0
  9
$TDCREATE
 40
2459534.311605706
  9
$TDUCREATE
 40
2459534.269939039
  9
$TDUPDATE
 40
2459955.639142477
  9
$TDUUPDATE
 40
2459955.59747581
  9
$TDINDWG
 40
0.0005465856
  9
$TDUSRTIMER
 40
0.0005473032
  9
$USRTIMER
 70
     1
  9
$ANGBASE
 50
0.0
  9
$ANGDIR
 70
     0
  9
$PDMODE
 70
     0
  9
$PDSIZE
 40
-1.0
  9
$PLINEWID
 40
0.0
  9
$SPLFRAME
 70
     0
  9
$SPLINETYPE
 70
     6
  9
$SPLINESEGS
 70
     8
  9
$HANDSEED
  5
18D
  9
$SURFTAB1
 70
     6
  9
$SURFTAB2
 70
     6
  9
$SURFTYPE
 70
     6
  9
$SURFU
 70
     6
  9
$SURFV
 70
     6
  9
$UCSBASE
  2

  9
$UCSNAME
  2

  9
$UCSORG
 10
0.0
 20
0.0
 30
0.0
  9
$UCSXDIR
 10
1.0
 20
0.0
 30
0.0
  9
$UCSYDIR
 10
0.0
 20
1.0
 30
0.0
  9
$UCSORTHOREF
  2

  9
$UCSORTHOVIEW
 70
     0
  9
$UCSORGTOP
 10
0.0
 20
0.0
 30
0.0
  9
$UCSORGBOTTOM
 10
0.0
 20
0.0
 30
0.0
  9
$UCSORGLEFT
 10
0.0
 20
0.0
 30
0.0
  9
$UCSORGRIGHT
 10
0.0
 20
0.0
 30
0.0
  9
$UCSORGFRONT
 10
0.0
 20
0.0
 30
0.0
  9
$UCSORGBACK
 10
0.0
 20
0.0
 30
0.0
  9
$PUCSBASE
  2

  9
$PUCSNAME
  2

  9
$PUCSORG
 10
0.0
 20
0.0
 30
0.0
  9
$PUCSXDIR
 10
1.0
 20
0.0
 30
0.0
  9
$PUCSYDIR
 10
0.0
 20
1.0
 30
0.0
  9
$PUCSORTHOREF
  2

  9
$PUCSORTHOVIEW
 70
     0
  9
$PUCSORGTOP
 10
0.0
 20
0.0
 30
0.0
  9
$PUCSORGBOTTOM
 10
0.0
 20
0.0
 30
0.0
  9
$PUCSORGLEFT
 10
0.0
 20
0.0
 30
0.0
  9
$PUCSORGRIGHT
 10
0.0
 20
0.0
 30
0.0
  9
$PUCSORGFRONT
 10
0.0
 20
0.0
 30
0.0
  9
$PUCSORGBACK
 10
0.0
 20
0.0
 30
0.0
  9
$USERI1
 70
     0
  9
$USERI2
 70
     0
  9
$USERI3
 70
     0
  9
$USERI4
 70
     0
  9
$USERI5
 70
     0
  9
$USERR1
 40
0.0
  9
$USERR2
 40
0.0
  9
$USERR3
 40
0.0
  9
$USERR4
 40
0.0
  9
$USERR5
 40
0.0
  9
$WORLDVIEW
 70
     1
  9
$SHADEDGE
 70
     3
  9
$SHADEDIF
 70
    70
  9
$TILEMODE
 70
     1
  9
$MAXACTVP
 70
    64
  9
$PINSBASE
 10
0.0
 20
0.0
 30
0.0
  9
$PLIMCHECK
 70
     0
  9
$PEXTMIN
 10
1.000000000000000E+20
 20
1.000000000000000E+20
 30
1.000000000000000E+20
  9
$PEXTMAX
 10
-1.000000000000000E+20
 20
-1.000000000000000E+20
 30
-1.000000000000000E+20
  9
$PLIMMIN
 10
0.0
 20
0.0
  9
$PLIMMAX
 10
0.0
 20
0.0
  9
$UNITMODE
 70
     0
  9
$VISRETAIN
 70
     1
  9
$PLINEGEN
 70
     0
  9
$PSLTSCALE
 70
     1
  9
$TREEDEPTH
 70
  3020
  9
$CMLSTYLE
  2
Standard
  9
$CMLJUST
 70
     0
  9
$CMLSCALE
 40
20.0
  9
$PROXYGRAPHICS
 70
     1
  9
$MEASUREMENT
 70
     1
  9
$CELWEIGHT
370
    -1
  9
$ENDCAPS
280
     0
  9
$JOINSTYLE
280
     0
  9
$LWDISPLAY
290
     1
  9
$INSUNITS
 70
     4
  9
$HYPERLINKBASE
  1

  9
$STYLESHEET
  1

  9
$XEDIT
290
     1
  9
$CEPSNTYPE
380
     0
  9
$PSTYLEMODE
290
     1
  9
$FINGERPRINTGUID
  2
{ffa5af2a-c631-4f54-995b-99a823a6fc4d}
  9
$VERSIONGUID
  2
{FAEB1C32-E019-11D5-929B-00C0DF256EC4}
  9
$EXTNAMES
290
     1
  9
$PSVPSCALE
 40
0.0
  9
$OLESTARTUP
290
     0
  9
$SORTENTS
280
   127
  9
$INDEXCTL
280
     0
  9
$HIDETEXT
280
     1
  9
$XCLIPFRAME
280
     2
  9
$HALOGAP
280
     0
  9
$OBSCOLOR
 70
   257
  9
$OBSLTYPE
280
     0
  9
$INTERSECTIONDISPLAY
280
     0
  9
$INTERSECTIONCOLOR
 70
   257
  9
$DIMASSOC
280
     2
  9
$PROJECTNAME
  1

  9
$CAMERADISPLAY
290
     0
  9
$LENSLENGTH
 40
50.0
  9
$CAMERAHEIGHT
 40
0.0
  9
$STEPSPERSEC
 40
2.0
  9
$STEPSIZE
 40
6.0
  9
$3DDWFPREC
 40
2.0
  9
$PSOLWIDTH
 40
0.25
  9
$PSOLHEIGHT
 40
4.0
  9
$LOFTANG1
 40
1.570796326794897
  9
$LOFTANG2
 40
1.570796326794897
  9
$LOFTMAG1
 40
0.0
  9
$LOFTMAG2
 40
0.0
  9
$LOFTPARAM
 70
     7
  9
$LOFTNORMALS
280
     1
  9
$LATITUDE
 40
37.795
  9
$LONGITUDE
 40
-122.394
  9
$NORTHDIRECTION
 40
0.0
  9
$TIMEZONE
 70
 -8000
  9
$LIGHTGLYPHDISPLAY
280
     1
  9
$TILEMODELIGHTSYNCH
280
     1
  9
$SOLIDHIST
280
     0
  9
$SHOWHIST
280
     1
  9
$DWFFRAME
280
     2
  9
$DGNFRAME
280
     2
  9
$REALWORLDSCALE
290
     1
  9
$INTERFERECOLOR
 62
   256
  9
$CSHADOW
280
     0
  9
$SHADOWPLANELOCATION
 40
0.0
  0
ENDSEC
  0
SECTION
  2
CLASSES
  0
CLASS
  1
ACDBDICTIONARYWDFLT
  2
AcDbDictionaryWithDefault
  3
ObjectDBX Classes
 90
        0
 91
        3
280
     0
281
     0
  0
CLASS
  1
VISUALSTYLE
  2
AcDbVisualStyle
  3
ObjectDBX Classes
 90
     4095
 91
        3
280
     0
281
     0
  0
CLASS
  1
MATERIAL
  2
AcDbMaterial
  3
ObjectDBX Classes
 90
     1153
 91
        3
280
     0
281
     0
  0
CLASS
  1
SCALE
  2
AcDbScale
  3
ObjectDBX Classes
 90
     1153
 91
        3
280
     0
281
     0
  0
CLASS
  1
TABLESTYLE
  2
AcDbTableStyle
  3
ObjectDBX Classes
 90
     4095
 91
        3
280
     0
281
     0
  0
CLASS
  1
MLEADERSTYLE
  2
AcDbMLeaderStyle
  3
ACDB_MLEADERSTYLE_CLASS
 90
     4095
 91
        3
280
     0
281
     0
  0
CLASS
  1
SUN
  2
AcDbSun
  3
SCENEOE
 90
     1153
 91
        3
280
     0
281
     0
  0
CLASS
  1
ACDBPLACEHOLDER
  2
AcDbPlaceHolder
  3
ObjectDBX Classes
 90
        0
 91
        1
280
     0
281
     0
  0
CLASS
  1
LAYOUT
  2
AcDbLayout
  3
ObjectDBX Classes
 90
        0
 91
        1
280
     0
281
     0
  0
CLASS
  1
DICTIONARYVAR
  2
AcDbDictionaryVar
  3
ObjectDBX Classes
 90
        0
 91
        3
280
     0
281
     0
  0
CLASS
  1
CELLSTYLEMAP
  2
AcDbCellStyleMap
  3
ObjectDBX Classes
 90
     1152
 91
        3
280
     0
281
     0
  0
ENDSEC
  0
SECTION
  2
TABLES
  0
TABLE
  2
VPORT
  5
8
330
0
100
AcDbSymbolTable
 70
     1
  0
VPORT
  5
29
330
8
100
AcDbSymbolTableRecord
100
AcDbViewportTableRecord
  2
*Active
 70
     0
 10
0.0
 20
0.0
 11
1.0
 21
1.0
 12
297.0
 22
420.5
 13
0.0
 23
0.0
 14
10.0
 24
10.0
 15
10.0
 25
10.0
 16
0.0
 26
0.0
 36
1.0
 17
0.0
 27
0.0
 37
0.0
 40
841.0
 41
0.7063020214030915
 42
50.0
 43
0.0
 44
0.0
 50
0.0
 51
0.0
 71
     0
 72
  2000
 73
     1
 74
     3
 75
     0
 76
     0
 77
     0
 78
     0
281
     0
 65
     1
110
0.0
120
0.0
130
0.0
111
1.0
121
0.0
131
0.0
112
0.0
122
1.0
132
0.0
 79
     0
146
0.0
348
164
 60
     3
 61
     5
292
     1
282
     1
141
0.0
142
0.0
 63
   256
  0
ENDTAB
  0
TABLE
  2
LTYPE
  5
5
330
0
100
AcDbSymbolTable
 70
     6
  0
LTYPE
  5
14
330
5
100
AcDbSymbolTableRecord
100
AcDbLinetypeTableRecord
  2
ByBlock
 70
     0
  3

 72
    65
 73
     0
 40
0.0
  0
LTYPE
  5
15
330
5
100
AcDbSymbolTableRecord
100
AcDbLinetypeTableRecord
  2
ByLayer
 70
     0
  3

 72
    65
 73
     0
 40
0.0
  0
LTYPE
  5
16
330
5
100
AcDbSymbolTableRecord
100
AcDbLinetypeTableRecord
  2
Continuous
 70
     0
  3
Solid line
 72
    65
 73
     0
 40
0.0
  0
LTYPE
  5
6E
330
5
100
AcDbSymbolTableRecord
100
AcDbLinetypeTableRecord
  2
HIDDEN
 70
     0
  3
Hidden __ __ __ __ __ __ __ __ __ __ __ __ __ __
 72
    65
 73
     2
 40
1.905
 49
1.27
 74
     0
 49
-0.635
 74
     0
  0
LTYPE
  5
6F
330
5
100
AcDbSymbolTableRecord
100
AcDbLinetypeTableRecord
  2
PHANTOM
 70
     0
  3
Phantom ______  __  __  ______  __  __  ______
 72
    65
 73
     6
 40
12.7
 49
6.35
 74
     0
 49
-1.27
 74
     0
 49
1.27
 74
     0
 49
-1.27
 74
     0
 49
1.27
 74
     0
 49
-1.27
 74
     0
  0
LTYPE
  5
70
330
5
100
AcDbSymbolTableRecord
100
AcDbLinetypeTableRecord
  2
CENTER
 70
     0
  3
Center ____ _ ____ _ ____ _ ____ _ ____ _ ____
 72
    65
 73
     4
 40
10.16
 49
6.35
 74
     0
 49
-1.27
 74
     0
 49
1.27
 74
     0
 49
-1.27
 74
     0
  0
LTYPE
  5
71
330
5
100
AcDbSymbolTableRecord
100
AcDbLinetypeTableRecord
  2
CENTERX2
 70
     0
  3
Center (2x) ________  __  ________  __  _____
 72
    65
 73
     4
 40
20.32
 49
12.7
 74
     0
 49
-2.54
 74
     0
 49
2.54
 74
     0
 49
-2.54
 74
     0
  0
LTYPE
  5
72
330
5
100
AcDbSymbolTableRecord
100
AcDbLinetypeTableRecord
  2
DOT2
 70
     0
  3
Dot (.5x) ........................................
 72
    65
 73
     2
 40
0.635
 49
0.0
 74
     0
 49
-0.635
 74
     0
  0
ENDTAB
  0
TABLE
  2
LAYER
  5
2
330
0
100
AcDbSymbolTable
 70
     1
  0
LAYER
  5
10
330
2
100
AcDbSymbolTableRecord
100
AcDbLayerTableRecord
  2
0
 70
     0
 62
     7
  6
Continuous
370
    -3
390
F
347
17B
348
0
  0
ENDTAB
  0
TABLE
  2
STYLE
  5
3
330
0
100
AcDbSymbolTable
 70
     3
  0
STYLE
  5
11
330
3
100
AcDbSymbolTableRecord
100
AcDbTextStyleTableRecord
  2
Standard
 70
     0
 40
0.0
 41
1.0
 50
0.0
 71
     0
 42
10.0
  3
txt
  4

  0
STYLE
  5
76
330
3
100
AcDbSymbolTableRecord
100
AcDbTextStyleTableRecord
  2
SLDTEXTSTYLE0
 70
     0
 40
0.0
 41
0.96
 50
0.0
 71
     0
 42
10.0
  3
ISOCP3
  4

  0
STYLE
  5
8D
330
3
100
AcDbSymbolTableRecord
100
AcDbTextStyleTableRecord
  2
SLDTEXTSTYLE1
 70
     0
 40
0.0
 41
0.605
 50
0.0
 71
     0
 42
10.0
  3
TXT
  4

  0
ENDTAB
  0
TABLE
  2
VIEW
  5
6
330
0
100
AcDbSymbolTable
 70
     0
  0
ENDTAB
  0
TABLE
  2
UCS
  5
7
330
0
100
AcDbSymbolTable
 70
     0
  0
ENDTAB
  0
TABLE
  2
APPID
  5
9
330
0
100
AcDbSymbolTable
 70
     1
  0
APPID
  5
12
330
9
100
AcDbSymbolTableRecord
100
AcDbRegAppTableRecord
  2
ACAD
 70
     0
  0
ENDTAB
  0
TABLE
  2
DIMSTYLE
  5
A
330
0
100
AcDbSymbolTable
 70
     2
100
AcDbDimStyleTable
  0
DIMSTYLE
105
27
330
A
100
AcDbSymbolTableRecord
100
AcDbDimStyleTableRecord
  2
ISO-25
 70
     0
 41
2.5
 42
0.625
 43
3.75
 44
1.25
 73
     0
 74
     0
 77
     1
 78
     8
140
2.5
141
2.5
143
0.03937007874016
147
0.625
171
     3
172
     1
178
     0
271
     2
272
     2
274
     3
278
    44
283
     0
284
     8
340
11
  0
DIMSTYLE
105
77
102
{ACAD_REACTORS
330
75
330
82
102
}
330
A
100
AcDbSymbolTableRecord
100
AcDbDimStyleTableRecord
  2
SLDDIMSTYLE0
 70
     0
 41
2.5
 44
0.0
 45
0.000000001
 73
     0
 74
     0
 77
     1
 78
    12
 79
     3
140
6.0
147
1.5
173
     1
178
     0
271
     2
272
     2
276
     2
284
    12
340
76
  0
ENDTAB
  0
TABLE
  2
BLOCK_RECORD
  5
1
330
0
100
AcDbSymbolTable
 70
     3
  0
BLOCK_RECORD
  5
1F
102
{ACAD_XDICTIONARY
360
181
102
}
330
1
100
AcDbSymbolTableRecord
100
AcDbBlockTableRecord
  2
*Model_Space
340
22
 70
     0
280
     1
281
     0
  0
BLOCK_RECORD
  5
1B
330
1
100
AcDbSymbolTableRecord
100
AcDbBlockTableRecord
  2
*Paper_Space
340
1E
 70
     0
280
     1
281
     0
  0
BLOCK_RECORD
  5
23
330
1
100
AcDbSymbolTableRecord
100
AcDbBlockTableRecord
  2
*Paper_Space0
340
26
 70
     0
280
     1
281
     0
  0
BLOCK_RECORD
  5
78
330
1
100
AcDbSymbolTableRecord
100
AcDbBlockTableRecord
  2
_D
340
0
 70
     0
280
     1
281
     0
  0
BLOCK_RECORD
  5
83
330
1
100
AcDbSymbolTableRecord
100
AcDbBlockTableRecord
  2
_D_1
340
0
 70
     0
280
     1
281
     0
  0
ENDTAB
  0
ENDSEC
  0
SECTION
  2
BLOCKS
  0
BLOCK
  5
20
330
1F
100
AcDbEntity
  8
0
100
AcDbBlockBegin
  2
*Model_Space
 70
     0
 10
0.0
 20
0.0
 30
0.0
  3
*Model_Space
  1

  0
ENDBLK
  5
21
330
1F
100
AcDbEntity
  8
0
100
AcDbBlockEnd
  0
BLOCK
  5
1C
330
1B
100
AcDbEntity
 67
     1
  8
0
100
AcDbBlockBegin
  2
*Paper_Space
 70
     0
 10
0.0
 20
0.0
 30
0.0
  3
*Paper_Space
  1

  0
ENDBLK
  5
1D
330
1B
100
AcDbEntity
 67
     1
  8
0
100
AcDbBlockEnd
  0
BLOCK
  5
24
330
23
100
AcDbEntity
  8
0
100
AcDbBlockBegin
  2
*Paper_Space0
 70
     0
 10
0.0
 20
0.0
 30
0.0
  3
*Paper_Space0
  1

  0
ENDBLK
  5
25
330
23
100
AcDbEntity
  8
0
100
AcDbBlockEnd
  0
BLOCK
  5
79
330
78
100
AcDbEntity
  8
0
100
AcDbBlockBegin
  2
_D
 70
     0
 10
0.0
 20
0.0
 30
0.0
  3
_D
  1

  0
SOLID
  5
7B
330
78
100
AcDbEntity
  8
0
  6
Continuous
 62
     7
370
    18
100
AcDbTrace
 10
42.76143950037941
 20
152.0299240878882
 30
0.0
 11
42.46143950037941
 21
149.5299240878882
 31
0.0
 12
43.06143950037941
 22
149.5299240878882
 32
0.0
 13
43.06143950037941
 23
149.5299240878882
 33
0.0
  0
SOLID
  5
7C
330
78
100
AcDbEntity
  8
0
  6
Continuous
 62
     7
370
    18
100
AcDbTrace
 10
42.76143950037942
 20
52.0299240878882
 30
0.0
 11
43.06143950037942
 21
54.5299240878882
 31
0.0
 12
42.46143950037943
 22
54.5299240878882
 32
0.0
 13
42.46143950037943
 23
54.5299240878882
 33
0.0
  0
LINE
  5
7D
330
78
100
AcDbEntity
  8
0
  6
Continuous
 62
     7
370
     0
100
AcDbLine
 10
56.68500799020809
 20
152.0299240878882
 30
0.0
 11
41.76143950037941
 21
152.0299240878882
 31
0.0
  0
LINE
  5
7E
330
78
100
AcDbEntity
  8
0
  6
Continuous
 62
     7
370
     0
100
AcDbLine
 10
56.68500799020809
 20
52.0299240878882
 30
0.0
 11
41.76143950037942
 21
52.0299240878882
 31
0.0
  0
LINE
  5
7F
330
78
100
AcDbEntity
  8
0
  6
Continuous
 62
     7
370
     0
100
AcDbLine
 10
42.76143950037941
 20
152.0299240878882
 30
0.0
 11
42.76143950037942
 21
52.0299240878882
 31
0.0
  0
MTEXT
  5
80
330
78
100
AcDbEntity
  8
0
  6
Continuous
 62
     7
370
    18
100
AcDbMText
 10
35.02703329457832
 20
94.36805414627585
 30
0.0
 40
6.0
 41
0.0
 46
0.0
 71
     1
 72
     1
  1
100
  7
SLDTEXTSTYLE0
 11
-7.044195017643634E-15
 21
1.0
 31
0.0
 73
     1
 44
1.0
  0
MTEXT
  5
81
330
78
100
AcDbEntity
  8
0
  6
Continuous
 62
     7
370
    18
100
AcDbMText
 10
35.02703329457825
 20
105.7430548466304
 30
0.0
 40
6.0
 41
0.0
 46
0.0
 71
     1
 72
     1
  1
mm
  7
SLDTEXTSTYLE0
 11
-7.044195017643634E-15
 21
1.0
 31
0.0
 73
     1
 44
1.0
  0
ENDBLK
  5
7A
330
78
100
AcDbEntity
  8
0
100
AcDbBlockEnd
  0
BLOCK
  5
84
330
83
100
AcDbEntity
  8
0
100
AcDbBlockBegin
  2
_D_1
 70
     0
 10
0.0
 20
0.0
 30
0.0
  3
_D_1
  1

  0
SOLID
  5
86
330
83
100
AcDbEntity
  8
0
  6
Continuous
 62
     7
370
    18
100
AcDbTrace
 10
56.68500799020809
 20
38.46023423127903
 30
0.0
 11
59.18500799020809
 21
38.16023423127903
 31
0.0
 12
59.18500799020809
 22
38.76023423127903
 32
0.0
 13
59.18500799020809
 23
38.76023423127903
 33
0.0
  0
SOLID
  5
87
330
83
100
AcDbEntity
  8
0
  6
Continuous
 62
     7
370
    18
100
AcDbTrace
 10
156.6850079902081
 20
38.46023423127903
 30
0.0
 11
154.1850079902081
 21
38.76023423127903
 31
0.0
 12
154.1850079902081
 22
38.16023423127903
 32
0.0
 13
154.1850079902081
 23
38.16023423127903
 33
0.0
  0
LINE
  5
88
330
83
100
AcDbEntity
  8
0
  6
Continuous
 62
     7
370
     0
100
AcDbLine
 10
56.68500799020809
 20
52.0299240878882
 30
0.0
 11
56.68500799020809
 21
37.46023423127903
 31
0.0
  0
LINE
  5
89
330
83
100
AcDbEntity
  8
0
  6
Continuous
 62
     7
370
     0
100
AcDbLine
 10
156.6850079902081
 20
52.0299240878882
 30
0.0
 11
156.6850079902081
 21
37.46023423127903
 31
0.0
  0
LINE
  5
8A
330
83
100
AcDbEntity
  8
0
  6
Continuous
 62
     7
370
     0
100
AcDbLine
 10
56.68500799020809
 20
38.46023423127903
 30
0.0
 11
156.6850079902081
 21
38.46023423127903
 31
0.0
  0
MTEXT
  5
8B
330
83
100
AcDbEntity
  8
0
  6
Continuous
 62
     7
370
    18
100
AcDbMText
 10
93.96264848609465
 20
46.19464043708018
 30
0.0
 40
6.0
 41
0.0
 46
0.0
 71
     1
 72
     1
  1
100
  7
SLDTEXTSTYLE0
 73
     1
 44
1.0
  0
MTEXT
  5
8C
330
83
100
AcDbEntity
  8
0
  6
Continuous
 62
     7
370
    18
100
AcDbMText
 10
105.3376491864492
 20
46.19464043708018
 30
0.0
 40
6.0
 41
0.0
 46
0.0
 71
     1
 72
     1
  1
mm
  7
SLDTEXTSTYLE0
 73
     1
 44
1.0
  0
ENDBLK
  5
85
330
83
100
AcDbEntity
  8
0
100
AcDbBlockEnd
  0
ENDSEC
  0
SECTION
  2
ENTITIES
  0
LINE
  5
73
330
1F
100
AcDbEntity
  8
0
  6
Continuous
 62
     7
370
    18
100
AcDbLine
 10
56.68500799020809
 20
152.0299240878882
 30
0.0
 11
56.68500799020809
 21
52.0299240878882
 31
0.0
  0
LINE
  5
74
330
1F
100
AcDbEntity
  8
0
  6
Continuous
 62
     7
370
    18
100
AcDbLine
 10
56.68500799020809
 20
52.0299240878882
 30
0.0
 11
156.6850079902081
 21
52.0299240878882
 31
0.0
  0
DIMENSION
  5
75
330
1F
100
AcDbEntity
  8
0
  6
Continuous
 62
     7
370
    18
100
AcDbDimension
280
     0
  2
_D
 10
42.76143950037947
 20
52.0299240878882
 30
0.0
 11
42.76143950037947
 21
105.4472211621264
 31
0.0
 70
   160
  1
<>mm
 71
     2
 42
-1.0
 73
     0
 74
     0
 75
     0
  3
SLDDIMSTYLE0
100
AcDbAlignedDimension
 13
56.68500799020809
 23
152.0299240878882
 33
0.0
 14
56.68500799020809
 24
52.0299240878882
 34
0.0
 50
90.0000000000002
100
AcDbRotatedDimension
  0
DIMENSION
  5
82
330
1F
100
AcDbEntity
  8
0
  6
Continuous
 62
     7
370
    18
100
AcDbDimension
280
     0
  2
_D_1
 10
156.6850079902081
 20
38.46023423127903
 30
0.0
 11
105.0418155019452
 21
38.46023423127903
 31
0.0
 70
   160
  1
<>mm
 71
     2
 42
-1.0
 73
     0
 74
     0
 75
     0
  3
SLDDIMSTYLE0
100
AcDbAlignedDimension
 13
56.68500799020809
 23
52.0299240878882
 33
0.0
 14
156.6850079902081
 24
52.0299240878882
 34
0.0
100
AcDbRotatedDimension
  0
MTEXT
  5
8E
330
1F
100
AcDbEntity
  8
0
  6
Continuous
 62
     7
370
     0
100
AcDbMText
 10
412.8252631578944
 20
48.43424494991444
 30
0.0
 40
10.0
 41
0.0
 46
0.0
 71
     1
 72
     1
  1
KLUDI GmbH & Co KG
  7
SLDTEXTSTYLE1
 73
     1
 44
1.0
  0
MTEXT
  5
8F
330
1F
100
AcDbEntity
  8
0
  6
Continuous
 62
     7
370
     0
100
AcDbMText
 10
210.0873490388933
 20
48.43424494991442
 30
0.0
 40
10.0
 41
0.0
 46
10.0
 71
     1
 72
     1
  1
{20 216 .. 15}
  7
SLDTEXTSTYLE1
 73
     1
 44
1.0
  0
ARC
  5
90
330
1F
100
AcDbEntity
  8
0
  6
Continuous
 62
     7
370
    25
100
AcDbCircle
 10
261.6022478846347
 20
318.5665690376569
 30
0.0
 40
0.8000000000000114
100
AcDbArc
 50
90.0
 51
180.0
  0
ARC
  5
91
330
1F
100
AcDbEntity
  8
0
  6
Continuous
 62
     7
370
    25
100
AcDbCircle
 10
310.0022478846347
 20
318.5665690376569
 30
0.0
 40
0.7999999999999545
100
AcDbArc
 50
0.0
 51
90.0
  0
LINE
  5
92
330
1F
100
AcDbEntity
  8
0
  6
Continuous
 62
     7
370
    25
100
AcDbLine
 10
310.8022478846347
 20
312.3665690376569
 30
0.0
 11
310.8022478846347
 21
318.5665690376569
 31
0.0
  0
LINE
  5
93
330
1F
100
AcDbEntity
  8
0
  6
Continuous
 62
     7
370
    25
100
AcDbLine
 10
260.8022478846347
 20
318.5665690376569
 30
0.0
 11
260.8022478846347
 21
312.3665690376569
 31
0.0
  0
LINE
  5
94
330
1F
100
AcDbEntity
  8
0
  6
Continuous
 62
     7
370
    25
100
AcDbLine
 10
303.8022478846347
 20
429.6248992870177
 30
0.0
 11
303.8022478846347
 21
458.5665690376569
 31
0.0
  0
LINE
  5
95
330
1F
100
AcDbEntity
  8
0
  6
Continuous
 62
     7
370
    25
100
AcDbLine
 10
303.8022478846347
 20
319.3665690376569
 30
0.0
 11
303.8022478846347
 21
407.6248992868547
 31
0.0
  0
LINE
  5
96
330
1F
100
AcDbEntity
  8
0
  6
Continuous
 62
     7
370
    25
100
AcDbLine
 10
267.8022478846347
 20
360.8416259887105
 30
0.0
 11
267.8022478846347
 21
319.3665690376569
 31
0.0
  0
LINE
  5
97
330
1F
100
AcDbEntity
  8
0
  6
Continuous
 62
     7
370
    25
100
AcDbLine
 10
267.8022478846347
 20
458.5665690376569
 30
0.0
 11
267.8022478846347
 21
372.5148462702485
 31
0.0
  0
ARC
  5
98
330
1F
100
AcDbEntity
  8
0
  6
Continuous
 62
     7
370
    25
100
AcDbCircle
 10
268.6022478846347
 20
483.5665690376569
 30
0.0
 40
0.8000000000000114
100
AcDbArc
 50
90.0
 51
180.0
  0
LINE
  5
99
330
1F
100
AcDbEntity
  8
0
  6
Continuous
 62
     7
370
    25
100
AcDbLine
 10
303.8022478846347
 20
462.8665690376569
 30
0.0
 11
303.8022478846347
 21
473.2452486940973
 31
0.0
  0
LINE
  5
9A
330
1F
100
AcDbEntity
  8
0
  6
Continuous
 62
     7
370
    25
100
AcDbLine
 10
267.8022478846347
 20
483.5665690376569
 30
0.0
 11
267.8022478846347
 21
468.0717796558661
 31
0.0
  0
ARC
  5
9B
330
1F
100
AcDbEntity
  8
0
  6
Continuous
 62
     7
370
    25
100
AcDbCircle
 10
303.0022478846347
 20
458.5665690376569
 30
0.0
 40
0.7999999999999545
100
AcDbArc
 50
0.0
 51
90.0
  0
ARC
  5
9C
330
1F
100
AcDbEntity
  8
0
  6
Continuous
 62
     7
370
    25
100
AcDbCircle
 10
268.6022478846347
 20
458.5665690376569
 30
0.0
 40
0.8000000000000114
100
AcDbArc
 50
90.0
 51
180.0
  0
ARC
  5
9D
330
1F
100
AcDbEntity
  8
0
  6
Continuous
 62
     7
370
    25
100
AcDbCircle
 10
268.3022478846347
 20
468.0717796558661
 30
0.0
 40
0.500000000000029
100
AcDbArc
 50
181.254045313855
 51
253.500000000003
  0
ARC
  5
9E
330
1F
100
AcDbEntity
  8
0
  6
Continuous
 62
     7
370
    25
100
AcDbCircle
 10
303.3022478846347
 20
462.8665690376569
 30
0.0
 40
0.5
100
AcDbArc
 50
270.0000000000008
 51
0.0
  0
ARC
  5
9F
330
1F
100
AcDbEntity
  8
0
  6
Continuous
 62
     7
370
    25
100
AcDbCircle
 10
302.6551587137125
 20
453.2648011511295
 30
0.0
 40
34.00000000000005
100
AcDbArc
 50
156.8411685589435
 51
168.6348556495144
  0
ARC
  5
A0
330
1F
100
AcDbEntity
  8
0
  6
Continuous
 62
     7
370
    25
100
AcDbCircle
 10
268.9493370555569
 20
453.2648011511295
 30
0.0
 40
33.99999999999999
100
AcDbArc
 50
11.36514435048565
 51
15.52739300802048
  0
LINE
  5
A1
330
1F
100
AcDbEntity
  8
0
  6
Continuous
 62
     7
370
    25
100
AcDbLine
 10
302.3022478846347
 20
459.3665690376569
 30
0.0
 11
302.3022478846347
 21
459.7678128292475
 31
0.0
  0
LINE
  5
A2
330
1F
100
AcDbEntity
  8
0
  6
Continuous
 62
     7
370
    25
100
AcDbLine
 10
269.3022478846347
 20
459.7678128292475
 30
0.0
 11
269.3022478846347
 21
459.3665690376569
 31
0.0
  0
ARC
  5
A3
330
1F
100
AcDbEntity
  8
0
  6
Continuous
 62
     7
370
    25
100
AcDbCircle
 10
270.3022478846347
 20
459.7678128292475
 30
0.0
 40
1.0
100
AcDbArc
 50
168.6348556495108
 51
180.0
  0
ARC
  5
A4
330
1F
100
AcDbEntity
  8
0
  6
Continuous
 62
     7
370
    25
100
AcDbCircle
 10
301.3022478846347
 20
459.7678128292475
 30
0.0
 40
1.000000000000046
100
AcDbArc
 50
0.0
 51
11.36514435048854
  0
LINE
  5
A5
330
1F
100
AcDbEntity
  8
0
  6
Continuous
 62
     7
370
    25
100
AcDbLine
 10
303.8062792313785
 20
429.1131617038719
 30
0.0
 11
303.8020668416993
 21
429.7731590434287
 31
0.0
  0
LINE
  5
A6
330
1F
100
AcDbEntity
  8
0
  6
Continuous
 62
     7
370
    25
100
AcDbLine
 10
303.802069522308
 20
407.4771028664863
 30
0.0
 11
303.8071611233322
 21
408.1364399864057
 31
0.0
  0
ARC
  5
A7
330
1F
100
AcDbEntity
  8
0
  6
Continuous
 62
     7
370
    25
100
AcDbCircle
 10
353.4483442932022
 20
375.894184577428
 30
0.0
 40
32.23071470942637
100
AcDbArc
 50
60.00000000000013
 51
90.0
  0
ARC
  5
A8
330
1F
100
AcDbEntity
  8
0
  6
Continuous
 62
     7
370
    25
100
AcDbCircle
 10
353.4483442932022
 20
375.894184577428
 30
0.0
 40
53.23071470942631
100
AcDbArc
 50
60.00000000000018
 51
90.0
  0
LINE
  5
A9
330
1F
100
AcDbEntity
  8
0
  6
Continuous
 62
     7
370
    25
100
AcDbLine
 10
389.9060803619255
 20
416.3108357773935
 30
0.0
 11
380.0637016479154
 21
421.9933357773934
 31
0.0
  0
LINE
  5
AA
330
1F
100
AcDbEntity
  8
0
  6
Continuous
 62
     7
370
    25
100
AcDbLine
 10
369.5637016479154
 20
403.8068022979202
 30
0.0
 11
379.4060803619255
 21
398.1243022979202
 31
0.0
  0
LINE
  5
AB
330
1F
100
AcDbEntity
  8
0
  6
Continuous
 62
     7
370
    25
100
AcDbLine
 10
353.4483442932021
 20
429.1248992868546
 30
0.0
 11
303.7964225576368
 21
429.1248992868546
 31
0.0
  0
LINE
  5
AC
330
1F
100
AcDbEntity
  8
0
  6
Continuous
 62
     7
370
    25
100
AcDbLine
 10
303.7964847683749
 20
408.1248992868546
 30
0.0
 11
353.4483442932021
 21
408.1248992868546
 31
0.0
  0
ARC
  5
AD
330
1F
100
AcDbEntity
  8
0
  6
Continuous
 62
     7
370
    25
100
AcDbCircle
 10
385.5179655569075
 20
396.9050048120998
 30
0.0
 40
1.500000000000053
100
AcDbArc
 50
149.9999999999987
 51
239.9999999999995
  0
ARC
  5
AE
330
1F
100
AcDbEntity
  8
0
  6
Continuous
 62
     7
370
    25
100
AcDbCircle
 10
394.0179655569075
 20
411.6274366764353
 30
0.0
 40
1.500000000000053
100
AcDbArc
 50
59.99999999999866
 51
149.9999999999987
  0
LINE
  5
AF
330
1F
100
AcDbEntity
  8
0
  6
Continuous
 62
     7
370
    25
100
AcDbLine
 10
414.2535371420574
 20
401.6764747821121
 30
0.0
 11
394.7679655569075
 21
412.926474782112
 31
0.0
  0
LINE
  5
B0
330
1F
100
AcDbEntity
  8
0
  6
Continuous
 62
     7
370
    25
100
AcDbLine
 10
384.7679655569075
 20
395.6059667064231
 30
0.0
 11
404.2535371420574
 21
384.3559667064233
 31
0.0
  0
SPLINE
  5
B1
330
1F
100
AcDbEntity
  8
0
  6
Continuous
 62
     7
370
    25
100
AcDbSpline
210
0.0
220
0.0
230
1.0
 70
     8
 71
     3
 72
     9
 73
     5
 74
     0
 42
0.000000001
 43
0.00000001
 40
0.0
 40
0.0
 40
0.0
 40
0.0
 40
0.1321635038458301
 40
1.0
 40
1.0
 40
1.0
 40
1.0
 10
385.4237850035306
 20
401.3531117889865
 30
0.0
 10
385.4280880072523
 20
401.3028734600795
 30
0.0
 10
385.4606461915958
 20
400.9227509039645
 30
0.0
 10
385.5837596303986
 20
400.5587849870588
 30
0.0
 10
385.6906019657587
 20
400.2429220810119
 30
0.0
  0
SPLINE
  5
B2
330
1F
100
AcDbEntity
  8
0
  6
Continuous
 62
     7
370
    25
100
AcDbSpline
210
0.0
220
0.0
230
1.0
 70
     8
 71
     3
 72
     9
 73
     5
 74
     0
 42
0.000000001
 43
0.00000001
 40
0.0
 40
0.0
 40
0.0
 40
0.0
 40
0.2568031312592445
 40
1.0
 40
1.0
 40
1.0
 40
1.0
 10
391.2162305383851
 20
409.8074829517354
 30
0.0
 10
391.1185061176679
 20
409.7915857119368
 30
0.0
 10
390.7379639481156
 20
409.7296813273574
 30
0.0
 10
390.3790829533751
 20
409.5846072262125
 30
0.0
 10
390.1123637218333
 20
409.4767886085062
 30
0.0
  0
ARC
  5
B3
330
1F
100
AcDbEntity
  8
0
  6
Continuous
 62
     7
370
    25
100
AcDbCircle
 10
389.6765286291159
 20
412.1132405132018
 30
0.0
 40
2.00000000000003
100
AcDbArc
 50
168.1948723387663
 51
240.0000000000011
  0
ARC
  5
B4
330
1F
100
AcDbEntity
  8
0
  6
Continuous
 62
     7
370
    25
100
AcDbCircle
 10
382.926528629116
 20
400.4218975621119
 30
0.0
 40
2.000000000000065
100
AcDbArc
 50
60.00000000000028
 51
131.8051276612348
  0
LINE
  5
B5
330
1F
100
AcDbEntity
  8
0
  6
Continuous
 62
     7
370
    25
100
AcDbLine
 10
390.1732350122808
 20
409.5170658724149
 30
0.0
 11
388.6765286291159
 21
410.3811897056329
 31
0.0
  0
LINE
  5
B6
330
1F
100
AcDbEntity
  8
0
  6
Continuous
 62
     7
370
    25
100
AcDbLine
 10
383.926528629116
 20
402.1539483696808
 30
0.0
 11
385.4232350122808
 21
401.2898245364627
 31
0.0
  0
SPLINE
  5
B7
330
1F
100
AcDbEntity
  8
0
  6
Continuous
 62
     7
370
    25
100
AcDbSpline
210
0.0
220
0.0
230
1.0
 70
     8
 71
     3
 72
    17
 73
    13
 74
     0
 42
0.000000001
 43
0.00000001
 40
0.0
 40
0.0
 40
0.0
 40
0.0
 40
0.1554072486056526
 40
0.2333647770957976
 40
0.2704484374720549
 40
0.288380516278416
 40
0.3065716982536714
 40
0.3261115814607759
 40
0.3483748746818608
 40
0.4040182091342958
 40
0.5609834355079837
 40
1.0
 40
1.0
 40
1.0
 40
1.0
 10
303.8013725672143
 20
473.2452486940973
 30
0.0
 10
303.8062408982712
 20
473.5615827243434
 30
0.0
 10
303.8135513487304
 20
474.0366005958941
 30
0.0
 10
303.9991192298576
 20
474.5406677351361
 30
0.0
 10
304.1425414613616
 20
474.7615267112623
 30
0.0
 10
304.2388336054687
 20
474.8737543723568
 30
0.0
 10
304.3177686828119
 20
474.9505092960324
 30
0.0
 10
304.4030328434376
 20
475.0197726157596
 30
0.0
 10
304.5303381143801
 20
475.1065739782902
 30
0.0
 10
304.7847727723789
 20
475.2364746863079
 30
0.0
 10
305.2827650746188
 20
475.3728097943665
 30
0.0
 10
305.4471055530183
 20
475.369216187342
 30
0.0
 10
305.5681632654179
 20
475.3665690376569
 30
0.0
  0
LINE
  5
B8
330
1F
100
AcDbEntity
  8
0
  6
Continuous
 62
     7
370
    25
100
AcDbLine
 10
264.0554300242005
 20
371.1227687040906
 30
0.0
 11
267.7980852389567
 21
360.839908012744
 31
0.0
  0
ARC
  5
B9
330
1F
100
AcDbEntity
  8
0
  6
Continuous
 62
     7
370
    25
100
AcDbCircle
 10
262.1760447826287
 20
370.4387284174393
 30
0.0
 40
2.000000000000014
100
AcDbArc
 50
20.00000000000162
 51
90.0
  0
ARC
  5
BA
330
1F
100
AcDbEntity
  8
0
  6
Continuous
 62
     7
370
    25
100
AcDbCircle
 10
262.1760447826287
 20
370.4387284174393
 30
0.0
 40
6.0
100
AcDbArc
 50
20.27306289691708
 51
90.00000000000054
  0
LINE
  5
BB
330
1F
100
AcDbEntity
  8
0
  6
Continuous
 62
     7
370
    25
100
AcDbLine
 10
249.1760447826287
 20
372.4387284174393
 30
0.0
 11
262.1760447826287
 21
372.4387284174393
 31
0.0
  0
LINE
  5
BC
330
1F
100
AcDbEntity
  8
0
  6
Continuous
 62
     7
370
    25
100
AcDbLine
 10
262.1760447826287
 20
376.4387284174393
 30
0.0
 11
249.1760447826287
 21
376.4387284174393
 31
0.0
  0
LINE
  5
BD
330
1F
100
AcDbEntity
  8
0
  6
Continuous
 62
     7
370
    25
100
AcDbLine
 10
261.6022478846347
 20
319.3665690376569
 30
0.0
 11
310.0022478846347
 21
319.3665690376569
 31
0.0
  0
LINE
  5
BE
330
1F
100
AcDbEntity
  8
0
  6
Continuous
 62
     7
370
    25
100
AcDbLine
 10
310.0848304357434
 20
312.3665690376569
 30
0.0
 11
260.8022478846347
 21
312.3665690376569
 31
0.0
  0
LINE
  5
BF
330
1F
100
AcDbEntity
  8
0
  6
Continuous
 62
     7
370
    25
100
AcDbLine
 10
310.8022478846347
 20
312.3665690376569
 30
0.0
 11
310.0848304357434
 21
312.3665690376569
 31
0.0
  0
SPLINE
  5
C0
330
1F
100
AcDbEntity
  8
0
  6
Continuous
 62
     7
370
    25
100
AcDbSpline
210
0.0
220
0.0
230
1.0
 70
     8
 71
     3
 72
    12
 73
     8
 74
     0
 42
0.000000001
 43
0.00000001
 40
0.0
 40
0.0
 40
0.0
 40
0.0
 40
0.4999999999999993
 40
0.4999999999999993
 40
0.7499999999999997
 40
0.7499999999999997
 40
1.0
 40
1.0
 40
1.0
 40
1.0
 10
290.2680353489769
 20
462.3665690376569
 30
0.0
 10
288.812268170128
 20
462.3665690376569
 30
0.0
 10
287.3451772456559
 20
462.4692931560886
 30
0.0
 10
285.1302347555181
 20
462.7889544740976
 30
0.0
 10
284.3879631372847
 20
462.9239386027763
 30
0.0
 10
282.9366788456268
 20
463.2426128042932
 30
0.0
 10
282.2228344500515
 20
463.426839601029
 30
0.0
 10
281.5203627320963
 20
463.6349212037165
 30
0.0
  0
SPLINE
  5
C1
330
1F
100
AcDbEntity
  8
0
  6
Continuous
 62
     7
370
    25
100
AcDbSpline
210
0.0
220
0.0
230
1.0
 70
     8
 71
     3
 72
     9
 73
     5
 74
     0
 42
0.000000001
 43
0.00000001
 40
0.0
 40
0.0
 40
0.0
 40
0.0
 40
0.2499071750132484
 40
1.0
 40
1.0
 40
1.0
 40
1.0
 10
267.8025446341611
 20
372.5148462702485
 30
0.0
 10
267.8024472143891
 20
372.5176606054043
 30
0.0
 10
267.80205739056
 20
372.5289221274296
 30
0.0
 10
267.8028865911584
 20
372.5049437436006
 30
0.0
 10
267.8035085685777
 20
372.4869577299357
 30
0.0
  0
SPLINE
  5
C2
330
1F
100
AcDbEntity
  8
0
  6
Continuous
 62
     7
370
    25
100
AcDbSpline
210
0.0
220
0.0
230
1.0
 70
     8
 71
     3
 72
    18
 73
    14
 74
     0
 42
0.000000001
 43
0.00000001
 40
0.0
 40
0.0
 40
0.0
 40
0.0
 40
0.0277486379872599
 40
0.0722233461234451
 40
0.205776433658492
 40
0.3969532537982725
 40
0.593485220580028
 40
0.789112680642615
 40
0.8869831753490419
 40
0.9267469130749777
 40
0.9668644462185229
 40
0.9888060548523547
 40
1.0
 40
1.0
 40
1.0
 40
1.0
 10
267.8035085685777
 20
372.4869577299357
 30
0.0
 10
267.8054048774025
 20
372.4313586797995
 30
0.0
 10
267.8103405347373
 20
372.2866470927309
 30
0.0
 10
267.8343360278339
 20
371.5507040589246
 30
0.0
 10
267.8758386860009
 20
370.0518223053734
 30
0.0
 10
267.9130773395754
 20
367.8362791640351
 30
0.0
 10
267.9175090867507
 20
365.3342173385012
 30
0.0
 10
267.8844183547492
 20
363.2416053718655
 30
0.0
 10
267.8433224593638
 20
361.8921516051776
 30
0.0
 10
267.8197638001187
 20
361.2549233089913
 30
0.0
 10
267.8079340791166
 20
360.9629061118319
 30
0.0
 10
267.8024050988589
 20
360.8321620027825
 30
0.0
 10
267.8027042439043
 20
360.8392361728561
 30
0.0
 10
267.8028053019174
 20
360.8416259887105
 30
0.0
  0
LINE
  5
C3
330
1F
100
AcDbEntity
  8
0
  6
Continuous
 62
     7
370
    25
100
AcDbLine
 10
268.6022478846347
 20
484.3665690376569
 30
0.0
 11
301.9439771819606
 21
484.3665690376569
 31
0.0
  0
LINE
  5
C4
330
1F
100
AcDbEntity
  8
0
  6
Continuous
 62
     7
370
    25
100
AcDbLine
 10
303.0022478846347
 20
459.3665690376569
 30
0.0
 11
268.6022478846347
 21
459.3665690376569
 31
0.0
  0
LINE
  5
C5
330
1F
100
AcDbEntity
  8
0
  6
Continuous
 62
     7
370
    25
100
AcDbLine
 10
281.5203627320963
 20
463.6349212037165
 30
0.0
 11
268.160240346041
 21
467.5923697488109
 31
0.0
  0
LINE
  5
C6
330
1F
100
AcDbEntity
  8
0
  6
Continuous
 62
     7
370
    25
100
AcDbLine
 10
303.3022478846347
 20
462.3665690376569
 30
0.0
 11
290.2680353489769
 21
462.3665690376569
 31
0.0
  0
SPLINE
  5
C7
330
1F
100
AcDbEntity
  8
0
  6
Continuous
 62
     7
370
    25
100
AcDbSpline
210
0.0
220
0.0
230
1.0
 70
     8
 71
     3
 72
    11
 73
     7
 74
     0
 42
0.000000001
 43
0.00000001
 40
0.0
 40
0.0
 40
0.0
 40
0.0
 40
0.2522085354959843
 40
0.511002596360258
 40
0.7634365359612717
 40
1.0
 40
1.0
 40
1.0
 40
1.0
 10
302.7484759940462
 20
427.1940488899575
 30
0.0
 10
302.8981603570424
 20
427.4827868050692
 30
0.0
 10
303.2014375557113
 20
428.0678019949777
 30
0.0
 10
303.5402217381488
 20
428.6698284502371
 30
0.0
 10
303.7644738816816
 20
429.0593193934229
 30
0.0
 10
303.7858528464168
 20
429.0955562475198
 30
0.0
 10
303.796195400217
 20
429.1130866386164
 30
0.0
  0
SPLINE
  5
C8
330
1F
100
AcDbEntity
  8
0
  6
Continuous
 62
     7
370
    25
100
AcDbSpline
210
0.0
220
0.0
230
1.0
 70
     8
 71
     3
 72
    13
 73
     9
 74
     0
 42
0.000000001
 43
0.00000001
 40
0.0
 40
0.0
 40
0.0
 40
0.0
 40
0.0199601944996476
 40
0.2152533910327996
 40
0.4162619237887829
 40
0.611901108082143
 40
0.8121848866585891
 40
1.0
 40
1.0
 40
1.0
 40
1.0
 10
303.7962881617496
 20
408.1365432667509
 30
0.0
 10
303.7985312703221
 20
408.1326881852622
 30
0.0
 10
303.8227212513721
 20
408.0911144739853
 30
0.0
 10
303.7345656086642
 20
408.242362495713
 30
0.0
 10
303.5379674817185
 20
408.5837488787295
 30
0.0
 10
303.2125255550383
 20
409.1686360986677
 30
0.0
 10
302.8166268046261
 20
409.9085419768465
 30
0.0
 10
302.5137389342445
 20
410.5341925675432
 30
0.0
 10
302.3671605211387
 20
410.836967553638
 30
0.0
  0
LINE
  5
C9
330
1F
100
AcDbEntity
  8
0
  6
Continuous
 62
     7
370
    25
100
AcDbLine
 10
389.9060803619255
 20
416.3108357773935
 30
0.0
 11
379.4060803619256
 21
398.1243022979202
 31
0.0
  0
SPLINE
  5
CA
330
1F
100
AcDbEntity
  8
0
  6
Continuous
 62
     7
370
    25
100
AcDbSpline
210
0.0
220
0.0
230
1.0
 70
     8
 71
     3
 72
    30
 73
    26
 74
     0
 42
0.000000001
 43
0.00000001
 40
0.0
 40
0.0
 40
0.0
 40
0.0
 40
0.125
 40
0.125
 40
0.2500000000000001
 40
0.2500000000000001
 40
0.3750000000000001
 40
0.3750000000000001
 40
0.4375000000000001
 40
0.4375000000000001
 40
0.5000000000000001
 40
0.5000000000000001
 40
0.5625000000000001
 40
0.5625000000000001
 40
0.6250000000000001
 40
0.6250000000000001
 40
0.6875000000000001
 40
0.6875000000000001
 40
0.75
 40
0.75
 40
0.8125
 40
0.8125
 40
0.875
 40
0.875
 40
1.0
 40
1.0
 40
1.0
 40
1.0
 10
302.7484759940462
 20
427.1940488899575
 30
0.0
 10
302.5207424435855
 20
426.7436818146275
 30
0.0
 10
302.275147895509
 20
426.2323940392197
 30
0.0
 10
301.7822239010702
 20
425.096144141821
 30
0.0
 10
301.532160442242
 20
424.4631227752448
 30
0.0
 10
301.0853604769549
 20
423.122463654562
 30
0.0
 10
300.8859657531368
 20
422.4105274013329
 30
0.0
 10
300.654392141981
 20
421.2669648885114
 30
0.0
 10
300.5893536937427
 20
420.8755817850316
 30
0.0
 10
300.4902470074584
 20
420.0892621260001
 30
0.0
 10
300.4556544457901
 20
419.691851453608
 30
0.0
 10
300.4191301162147
 20
418.8881425473544
 30
0.0
 10
300.4174327607507
 20
418.4785174279811
 30
0.0
 10
300.4478152072416
 20
417.6707236918686
 30
0.0
 10
300.4795224960505
 20
417.2720845771572
 30
0.0
 10
300.5729134592484
 20
416.4847333056383
 30
0.0
 10
300.6345941455363
 20
416.0960212332453
 30
0.0
 10
300.7846182519227
 20
415.3282038665549
 30
0.0
 10
300.8719728594088
 20
414.9543260757617
 30
0.0
 10
301.0641937589603
 20
414.2313183832821
 30
0.0
 10
301.1692969100271
 20
413.8810187923114
 30
0.0
 10
301.3925524618277
 20
413.2012586269207
 30
0.0
 10
301.5112900240089
 20
412.870437234352
 30
0.0
 10
301.8734535641118
 20
411.9258472770892
 30
0.0
 10
302.1239410528702
 20
411.354300027292
 30
0.0
 10
302.3671605211398
 20
410.836967553641
 30
0.0
  0
SPLINE
  5
CB
330
1F
100
AcDbEntity
  8
0
  6
Continuous
 62
     7
370
    25
100
AcDbSpline
210
0.0
220
0.0
230
1.0
 70
    24
 71
     3
 72
    11
 73
     7
 74
     0
 42
0.000000001
 43
0.00000001
 40
0.0
 40
0.0
 40
0.0
 40
0.0
 40
0.0881592628642698
 40
0.4063269728944661
 40
0.7117951650356404
 40
1.0
 40
1.0
 40
1.0
 40
1.0
 10
392.7010602637952
 20
412.3464898000086
 30
0.0
 10
392.706361195092
 20
412.3556712823419
 30
0.0
 10
392.7307932433797
 20
412.3979888313092
 30
0.0
 10
392.5982379062934
 20
412.1683962526615
 30
0.0
 10
392.3287189604311
 20
411.7015757448254
 30
0.0
 10
392.0335535926418
 20
411.1903343311796
 30
0.0
 10
391.8902624505031
 20
410.9421467927207
 30
0.0
  0
SPLINE
  5
CC
330
1F
100
AcDbEntity
  8
0
  6
Continuous
 62
     7
370
    25
100
AcDbSpline
210
0.0
220
0.0
230
1.0
 70
    24
 71
     3
 72
    20
 73
    16
 74
     0
 42
0.000000001
 43
0.00000001
 40
0.0
 40
0.0
 40
0.0
 40
0.0
 40
0.0730179353575489
 40
0.150409616556477
 40
0.2310187752706848
 40
0.3133385759876116
 40
0.3956583767045388
 40
0.4762675354187457
 40
0.5536592166176745
 40
0.6266771519752233
 40
0.6996950873327715
 40
0.7770867685316999
 40
0.8576959272459079
 40
0.9400157279628347
 40
1.0
 40
1.0
 40
1.0
 40
1.0
 10
391.8902624505031
 20
410.9421467927207
 30
0.0
 10
391.7253844358259
 20
410.6565696942488
 30
0.0
 10
391.3857522777164
 20
410.0683095405189
 30
0.0
 10
390.7254933698321
 20
408.9247075659134
 30
0.0
 10
389.957994098031
 20
407.5953598323815
 30
0.0
 10
389.1097615442671
 20
406.1261779526287
 30
0.0
 10
388.2352219854458
 20
404.6114310035214
 30
0.0
 10
387.3879305719269
 20
403.1438792264898
 30
0.0
 10
386.6152185836924
 20
401.80550280325
 30
0.0
 10
385.9334561489158
 20
400.6246556275252
 30
0.0
 10
385.3384033008261
 20
399.5939938614452
 30
0.0
 10
384.8346339464194
 20
398.7214397443166
 30
0.0
 10
384.4603495517006
 20
398.0731601561834
 30
0.0
 10
384.2440063392659
 20
397.6984427203739
 30
0.0
 10
384.2389331138764
 20
397.689655636241
 30
0.0
 10
384.2367946386664
 20
397.6859516885266
 30
0.0
  0
LINE
  5
CD
330
1F
100
AcDbEntity
  8
0
  6
Continuous
 62
     7
370
    25
100
AcDbLine
 10
413.6827078597816
 20
400.6877694627623
 30
0.0
 11
414.2535371420574
 21
401.6764747821121
 31
0.0
  0
LINE
  5
CE
330
1F
100
AcDbEntity
  8
0
  6
Continuous
 62
     7
370
    25
100
AcDbLine
 10
404.2535371420574
 20
384.3559667064233
 30
0.0
 11
413.6827078597816
 21
400.6877694627623
 31
0.0
  0
LINE
  5
CF
330
1F
100
AcDbEntity
  8
0
  6
Continuous
 62
     7
370
    25
100
AcDbLine
 10
386.6962302261284
 20
403.4947169246387
 30
0.0
 11
385.423235354472
 21
401.2898251291552
 31
0.0
  0
LINE
  5
D0
330
1F
100
AcDbEntity
  8
0
  6
Continuous
 62
     7
370
    25
100
AcDbLine
 10
390.1732349800574
 20
409.5170658166024
 30
0.0
 11
386.6962302261284
 21
403.4947169246387
 31
0.0
  0
SPLINE
  5
D1
330
1F
100
AcDbEntity
  8
0
  6
Continuous
 62
     7
370
    25
100
AcDbSpline
210
0.0
220
0.0
230
1.0
 70
    24
 71
     3
 72
    22
 73
    18
 74
     0
 42
0.000000001
 43
0.00000001
 40
0.0
 40
0.0
 40
0.0
 40
0.0
 40
0.1250000000000001
 40
0.1250000000000001
 40
0.2500000000000002
 40
0.2500000000000002
 40
0.3750000000000002
 40
0.3750000000000002
 40
0.5000000000000002
 40
0.5000000000000002
 40
0.6250000000000002
 40
0.6250000000000002
 40
0.7500000000000001
 40
0.7500000000000001
 40
0.8750000000000001
 40
0.8750000000000001
 40
1.0
 40
1.0
 40
1.0
 40
1.0
 10
305.1552615874654
 20
484.366569037657
 30
0.0
 10
304.9783142153191
 20
484.366569037657
 30
0.0
 10
304.8014124090253
 20
484.3665690376568
 30
0.0
 10
304.4484827489831
 20
484.3665690376568
 30
0.0
 10
304.272426158627
 20
484.3665690376569
 30
0.0
 10
303.9215259146483
 20
484.3665690376569
 30
0.0
 10
303.7490470834325
 20
484.3665690376569
 30
0.0
 10
303.4201453044716
 20
484.3665690376569
 30
0.0
 10
303.2607517159185
 20
484.3665690376569
 30
0.0
 10
302.9671159715249
 20
484.3665690376569
 30
0.0
 10
302.8337633058621
 20
484.3665690376569
 30
0.0
 10
302.5911859968471
 20
484.3665690376569
 30
0.0
 10
302.4821933056467
 20
484.3665690376569
 30
0.0
 10
302.2928927039446
 20
484.3665690376569
 30
0.0
 10
302.2111528972592
 20
484.366569037657
 30
0.0
 10
302.0668014113207
 20
484.366569037657
 30
0.0
 10
302.0054759276932
 20
484.3665690376569
 30
0.0
 10
301.9439771819606
 20
484.3665690376569
 30
0.0
  0
LINE
  5
D2
330
1F
100
AcDbEntity
  8
0
  6
Continuous
 62
     7
370
    25
100
AcDbLine
 10
375.0022478846347
 20
475.3665690376569
 30
0.0
 11
305.5804564073481
 21
475.3665690376569
 31
0.0
  0
LINE
  5
D3
330
1F
100
AcDbEntity
  8
0
  6
Continuous
 62
     7
370
    25
100
AcDbLine
 10
375.8022478846347
 20
483.5665690376569
 30
0.0
 11
375.8022478846347
 21
476.1665690376569
 31
0.0
  0
ARC
  5
D4
330
1F
100
AcDbEntity
  8
0
  6
Continuous
 62
     7
370
    25
100
AcDbCircle
 10
375.0022478846347
 20
476.1665690376569
 30
0.0
 40
0.7999999999999545
100
AcDbArc
 50
270.0000000000008
 51
0.0000000000000318
  0
LINE
  5
D5
330
1F
100
AcDbEntity
  8
0
  6
Continuous
 62
     7
370
    25
100
AcDbLine
 10
305.1552615874654
 20
484.3665690376569
 30
0.0
 11
375.0022478846347
 21
484.3665690376569
 31
0.0
  0
ARC
  5
D6
330
1F
100
AcDbEntity
  8
0
  6
Continuous
 62
     7
370
    25
100
AcDbCircle
 10
375.0022478846347
 20
483.5665690376569
 30
0.0
 40
0.8000000000000114
100
AcDbArc
 50
0.0000000000000318
 51
90.0
  0
LINE
  5
D7
330
1F
100
AcDbEntity
  8
0
  6
Continuous
 62
     7
370
    25
100
AcDbLine
 10
249.1760447826287
 20
372.4387284174393
 30
0.0
 11
249.1760447826287
 21
376.4387284174393
 31
0.0
  0
SPLINE
  5
D8
330
1F
100
AcDbEntity
  8
0
  6
Continuous
 62
     8
370
    18
100
AcDbSpline
210
0.0
220
0.0
230
1.0
 70
     8
 71
     3
 72
    89
 73
    85
 74
     0
 42
0.000000001
 43
0.00000001
 40
0.0
 40
0.0
 40
0.0
 40
0.0
 40
0.0067588991193856
 40
0.0135190056876774
 40
0.0202811084987658
 40
0.0308804104858675
 40
0.0347159257175203
 40
0.0500772180289224
 40
0.0654819280907949
 40
0.0732048277868001
 40
0.1042390859129631
 40
0.1198692108284563
 40
0.1277137623540389
 40
0.1434606839735636
 40
0.1553239294613656
 40
0.1592886269816779
 40
0.1831693350034963
 40
0.199176410196644
 40
0.2152424975442513
 40
0.2313577956311909
 40
0.2555868058887542
 40
0.26367216219482
 40
0.2798428946446413
 40
0.2879281618703767
 40
0.2960082996406759
 40
0.3081139513410153
 40
0.3161721026650906
 40
0.320196710794271
 40
0.3362585183063609
 40
0.3442659077797011
 40
0.3522549828935769
 40
0.3681718225869746
 40
0.3760987335786543
 40
0.3840028735513611
 40
0.3997401487820077
 40
0.4075745410051285
 40
0.4153856641130767
 40
0.4309397713569856
 40
0.4386864604266834
 40
0.4464152784898356
 40
0.4618213468472561
 40
0.4695045403912848
 40
0.4771666214092151
 40
0.4924671335295076
 40
0.5077567310808782
 40
0.5154053158008356
 40
0.5307200040319316
 40
0.5384048954709042
 40
0.5461029408638156
 40
0.5615453114632849
 40
0.569292150296902
 40
0.5770594217022562
 40
0.5926581205953659
 40
0.6004930485014642
 40
0.6083513049287506
 40
0.6241362775107633
 40
0.6320642217674908
 40
0.6400139277202642
 40
0.6559732461423007
 40
0.6639815427369469
 40
0.6720064321378463
 40
0.6840707888988159
 40
0.6961606051503102
 40
0.7042319941526112
 40
0.7163514348501111
 40
0.7284798980180305
 40
0.736567353296096
 40
0.7527356059727507
 40
0.7769430098381571
 40
0.7809704852190484
 40
0.8010611153698614
 40
0.8170695113539197
 40
0.8330073850327008
 40
0.8488711264844184
 40
0.8725170545421558
 40
0.8803613997596162
 40
0.8959901275021211
 40
0.9115451703634939
 40
0.9270342418734442
 40
0.9578333576507202
 40
0.9693452048017737
 40
0.9731790952539702
 40
0.9866075966982687
 40
1.0
 40
1.0
 40
1.0
 40
1.0
 10
303.8021207273947
 20
407.6248992868546
 30
0.0
 10
303.8018067891509
 20
407.6254036658674
 30
0.0
 10
303.8011788565796
 20
407.6264125139983
 30
0.0
 10
303.7961820589076
 20
407.6345736072255
 30
0.0
 10
303.7867176758172
 20
407.650068737104
 30
0.0
 10
303.7740760521927
 20
407.670809500642
 30
0.0
 10
303.7514248374638
 20
407.7080263542332
 30
0.0
 10
303.7175627884635
 20
407.7637913021255
 30
0.0
 10
303.6668209419121
 20
407.8477983139321
 30
0.0
 10
303.5821633881178
 20
407.9886792224453
 30
0.0
 10
303.4751752788217
 20
408.1681530168889
 30
0.0
 10
303.3447670923575
 20
408.3907501110683
 30
0.0
 10
303.2431892907725
 20
408.5658662586214
 30
0.0
 10
303.1446244703814
 20
408.7375156830962
 30
0.0
 10
303.0505413447858
 20
408.9037602964761
 30
0.0
 10
302.928072273877
 20
409.1221225409953
 30
0.0
 10
302.7849343567519
 20
409.3814007700807
 30
0.0
 10
302.5910194168159
 20
409.7429514432235
 30
0.0
 10
302.417566841733
 20
410.074952401047
 30
0.0
 10
302.2086661274113
 20
410.4867476566637
 30
0.0
 10
302.0248277149565
 20
410.8645388781493
 30
0.0
 10
301.8396065829311
 20
411.2608951149834
 30
0.0
 10
301.7158237910491
 20
411.5343906657105
 30
0.0
 10
301.5926694666852
 20
411.8165121793592
 30
0.0
 10
301.4855867765006
 20
412.0681850880486
 30
0.0
 10
301.3796593583535
 20
412.3258054695522
 30
0.0
 10
301.2902401269952
 20
412.5515529687702
 30
0.0
 10
301.1873015145252
 20
412.8177398268425
 30
0.0
 10
301.0865198154557
 20
413.089314146236
 30
0.0
 10
300.9751797947456
 20
413.4068217648869
 30
0.0
 10
300.867042726826
 20
413.7278431665833
 30
0.0
 10
300.7636865316684
 20
414.0553810921172
 30
0.0
 10
300.6660755548137
 20
414.3888520923807
 30
0.0
 10
300.5729130801466
 20
414.7248134588455
 30
0.0
 10
300.4863226578053
 20
415.0662058209535
 30
0.0
 10
300.4072157418861
 20
415.4123176687289
 30
0.0
 10
300.333606805368
 20
415.7600246669927
 30
0.0
 10
300.2681797012587
 20
416.1119515581879
 30
0.0
 10
300.2116945924042
 20
416.4672392707768
 30
0.0
 10
300.1614967130841
 20
416.8234499705902
 30
0.0
 10
300.120751318846
 20
417.1825330843563
 30
0.0
 10
300.0899908005131
 20
417.5433261813972
 30
0.0
 10
300.0660121433758
 20
417.904265743258
 30
0.0
 10
300.0488210784927
 20
418.3568309082014
 30
0.0
 10
300.0489423938068
 20
418.8101195046669
 30
0.0
 10
300.0620299952683
 20
419.2627957116997
 30
0.0
 10
300.0828572330137
 20
419.6245236287041
 30
0.0
 10
300.1137460775513
 20
419.9846412441828
 30
0.0
 10
300.1513572920909
 20
420.3445294740482
 30
0.0
 10
300.1987388605974
 20
420.7021430354854
 30
0.0
 10
300.2552577658231
 20
421.0565102978061
 30
0.0
 10
300.3178992071073
 20
421.4097460327025
 30
0.0
 10
300.3891623041354
 20
421.7592604744088
 30
0.0
 10
300.4681869485614
 20
422.1042563778139
 30
0.0
 10
300.5524915734533
 20
422.4474341986418
 30
0.0
 10
300.6438707437901
 20
422.7855574930201
 30
0.0
 10
300.7413446209737
 20
423.1179966887763
 30
0.0
 10
300.8429929922095
 20
423.447678942723
 30
0.0
 10
300.9499255777343
 20
423.7711271172688
 30
0.0
 10
301.0611364719849
 20
424.0878271501018
 30
0.0
 10
301.1609283445385
 20
424.3614982846872
 30
0.0
 10
301.277876205399
 20
424.6683813191115
 30
0.0
 10
301.3974827766556
 20
424.9676494551588
 30
0.0
 10
301.5188279621949
 20
425.2604903184733
 30
0.0
 10
301.6415161794405
 20
425.546630648089
 30
0.0
 10
301.7650337236569
 20
425.8242682851844
 30
0.0
 10
301.9041714643856
 20
426.1283110488793
 30
0.0
 10
302.089154233516
 20
426.5197676650238
 30
0.0
 10
302.2563362818739
 20
426.8572215976637
 30
0.0
 10
302.4344330006763
 20
427.207174943855
 30
0.0
 10
302.5794474008885
 20
427.4855836190422
 30
0.0
 10
302.7596331928854
 20
427.8215125510116
 30
0.0
 10
302.917433645833
 20
428.1090289447055
 30
0.0
 10
303.0899127823742
 20
428.4169769941835
 30
0.0
 10
303.224501476809
 20
428.6519406024312
 30
0.0
 10
303.3464193774934
 20
428.8619593915419
 30
0.0
 10
303.4397096413993
 20
429.0210526805932
 30
0.0
 10
303.5379464214092
 20
429.186760982486
 30
0.0
 10
303.6492918048769
 20
429.3728966746326
 30
0.0
 10
303.7255709848747
 20
429.4989427022231
 30
0.0
 10
303.7644533576992
 20
429.5629389670139
 30
0.0
 10
303.7835773608605
 20
429.5944014686505
 30
0.0
 10
303.7985412299734
 20
429.6189841928292
 30
0.0
 10
303.8009283445539
 20
429.6229293587735
 30
0.0
 10
303.8021202954404
 20
429.6248992868547
 30
0.0
  0
ARC
  5
D9
330
1F
100
AcDbEntity
  8
0
  6
Continuous
 62
     8
370
    18
100
AcDbCircle
 10
301.9185594741271
 20
483.5904228608667
 30
0.0
 40
0.7765622625505366
100
AcDbArc
 50
358.2397568356046
 51
88.12431325581574
  0
SPLINE
  5
DA
330
1F
100
AcDbEntity
  8
0
  6
Continuous
 62
     8
370
    18
100
AcDbSpline
210
0.0
220
0.0
230
1.0
 70
     8
 71
     3
 72
    21
 73
    17
 74
     0
 42
0.000000001
 43
0.00000001
 40
0.0
 40
0.0
 40
0.0
 40
0.0
 40
0.0276447721780826
 40
0.0552428195415967
 40
0.0828588255560673
 40
0.1105573478725323
 40
0.1674199268070619
 40
0.2244273239294111
 40
0.3414926866829841
 40
0.463358902926193
 40
0.5906748595160446
 40
0.7227374015014346
 40
0.7913815171671943
 40
0.8602228214983668
 40
0.9300718087027425
 40
1.0
 40
1.0
 40
1.0
 40
1.0
 10
303.4953091415606
 20
473.2452486941192
 30
0.0
 10
303.4872551536006
 20
473.2426350302924
 30
0.0
 10
303.4711607904207
 20
473.2374121202176
 30
0.0
 10
303.4457979122761
 20
473.2375439372019
 30
0.0
 10
303.4195962761002
 20
473.2435389290673
 30
0.0
 10
303.3830084610537
 20
473.2602817383648
 30
0.0
 10
303.3348454493949
 20
473.2975181809223
 30
0.0
 10
303.2530508366625
 20
473.3932845709361
 30
0.0
 10
303.1438287712206
 20
473.5823519302974
 30
0.0
 10
303.0108372989457
 20
473.917615751677
 30
0.0
 10
302.8855809647696
 20
474.3596644431573
 30
0.0
 10
302.7991926967861
 20
474.8055991472561
 30
0.0
 10
302.7466970906278
 20
475.199323670439
 30
0.0
 10
302.7172786375136
 20
475.5135632721908
 30
0.0
 10
302.6982822830931
 20
475.8372735014138
 30
0.0
 10
302.6959313976125
 20
476.0567624014519
 30
0.0
 10
302.694755288813
 20
476.1665690376569
 30
0.0
  0
SPLINE
  5
DB
330
1F
100
AcDbEntity
  8
0
  6
Continuous
 62
     8
370
    18
100
AcDbSpline
210
0.0
220
0.0
230
1.0
 70
    24
 71
     3
 72
     8
 73
     4
 74
     0
 42
0.000000001
 43
0.00000001
 40
0.0
 40
0.0
 40
0.0
 40
0.0
 40
1.0
 40
1.0
 40
1.0
 40
1.0
 10
303.8022478846347
 20
473.2452486940973
 30
0.0
 10
303.8022478846339
 20
473.2452486940973
 30
0.0
 10
303.6993514254125
 20
473.2452486940973
 30
0.0
 10
303.4953091415586
 20
473.2452486940973
 30
0.0
  0
LINE
  5
DC
330
1F
100
AcDbEntity
  8
0
  6
Continuous
 62
     8
370
    18
100
AcDbLine
 10
302.694755288813
 20
476.1665690376569
 30
0.0
 11
302.694755288813
 21
483.5665690376569
 31
0.0
  0
LINE
  5
DD
330
1F
100
AcDbEntity
  8
0
  6
Continuous
 62
     8
370
    18
100
AcDbLine
 10
302.278252862093
 20
459.9648737891906
 30
0.0
 11
302.2826391218795
 21
459.9648737891906
 31
0.0
  0
LINE
  5
DE
330
1F
100
AcDbEntity
  8
0
  6
Continuous
 62
     8
370
    18
100
AcDbLine
 10
269.3218566473899
 20
459.9648737891906
 30
0.0
 11
302.278252862093
 21
459.9648737891906
 31
0.0
  0
LINE
  5
DF
330
1F
100
AcDbEntity
  8
0
  6
Continuous
 62
     8
370
    18
100
AcDbLine
 10
302.3022478846347
 20
459.7678128292475
 30
0.0
 11
269.3022478846347
 21
459.7678128292475
 31
0.0
  0
LINE
  5
E0
330
1F
100
AcDbEntity
  8
0
  6
Continuous
 62
     8
370
    18
100
AcDbLine
 10
305.1552615874654
 20
483.5665690376561
 30
0.0
 11
305.1552615874654
 21
484.3665690376569
 31
0.0
  0
LINE
  5
E1
330
1F
100
AcDbEntity
  8
0
  6
Continuous
 62
     8
370
    18
100
AcDbLine
 10
305.1552615874654
 20
483.5665690376561
 30
0.0
 11
305.1552615874654
 21
476.1665690376569
 31
0.0
  0
SPLINE
  5
E2
330
1F
100
AcDbEntity
  8
0
  6
Continuous
 62
     8
370
    18
100
AcDbSpline
210
0.0
220
0.0
230
1.0
 70
     8
 71
     3
 72
    17
 73
    13
 74
     0
 42
0.000000001
 43
0.00000001
 40
0.0
 40
0.0
 40
0.0
 40
0.0
 40
0.0571821084760977
 40
0.1151571412022654
 40
0.174120176473636
 40
0.2342566777818137
 40
0.3505549998483434
 40
0.4811250368318577
 40
0.5911658860424963
 40
0.740312744377009
 40
0.89602906615715
 40
0.9999999999999999
 40
0.9999999999999999
 40
0.9999999999999999
 40
0.9999999999999999
 10
305.1552615874654
 20
476.1665690376569
 30
0.0
 10
305.1557087267637
 20
476.1410885270587
 30
0.0
 10
305.156609205684
 20
476.0897741765552
 30
0.0
 10
305.1637965347855
 20
476.0131733243202
 30
0.0
 10
305.1752433720831
 20
475.937247504307
 30
0.0
 10
305.196242828708
 20
475.8401946954925
 30
0.0
 10
305.233994100402
 20
475.7229411229639
 30
0.0
 10
305.2893597676036
 20
475.6062153112216
 30
0.0
 10
305.3586380046095
 20
475.5025277871121
 30
0.0
 10
305.436529276939
 20
475.4208882755205
 30
0.0
 10
305.5143473792989
 20
475.3735780691512
 30
0.0
 10
305.561555643976
 20
475.3685729401425
 30
0.0
 10
305.580456407326
 20
475.3665690376569
 30
0.0
  0
LINE
  5
E3
330
1F
100
AcDbEntity
  8
0
  6
Continuous
 62
     8
370
    18
100
AcDbLine
 10
264.0554300242005
 20
371.1227687040907
 30
0.0
 11
267.8035085685777
 21
372.4869577299357
 31
0.0
  0
LINE
  5
E4
330
1F
100
AcDbEntity
  8
0
  6
Continuous
 62
     8
370
    18
100
AcDbLine
 10
262.1760447826287
 20
372.4387284174393
 30
0.0
 11
262.1760447826287
 21
376.4387284174393
 31
0.0
  0
LINE
  5
E5
330
1F
100
AcDbEntity
  8
0
  6
Continuous
 62
     7
370
    25
100
AcDbLine
 10
158.6653348953976
 20
393.0162207442676
 30
0.0
 11
158.6653348953976
 21
404.2662207442676
 31
0.0
  0
LINE
  5
E6
330
1F
100
AcDbEntity
  8
0
  6
Continuous
 62
     7
370
    25
100
AcDbLine
 10
138.6653348953976
 20
404.2662207442677
 30
0.0
 11
138.6653348953976
 21
393.0162207442677
 31
0.0
  0
SPLINE
  5
E7
330
1F
100
AcDbEntity
  8
0
  6
Continuous
 62
     7
370
    25
100
AcDbSpline
210
0.0
220
0.0
230
1.0
 70
     8
 71
     3
 72
    20
 73
    16
 74
     0
 42
0.000000001
 43
0.00000001
 40
0.0
 40
0.0
 40
0.0
 40
0.0
 40
0.1000929454342247
 40
0.1412973720894675
 40
0.2095352612826068
 40
0.2804537471520511
 40
0.3565566843537853
 40
0.4360290327479244
 40
0.5181896362704593
 40
0.6025485717186974
 40
0.6888353233124349
 40
0.7769489655187469
 40
0.8669417693773428
 40
0.9590139835645702
 40
1.0
 40
1.0
 40
1.0
 40
1.0
 10
148.6653348953509
 20
413.1274366764353
 30
0.0
 10
148.1642480950354
 20
413.109247158044
 30
0.0
 10
147.4568830777893
 20
413.0835697125745
 30
0.0
 10
146.425503064745
 20
412.912313624075
 30
0.0
 10
145.5524178371227
 20
412.7055468947816
 30
0.0
 10
144.5446800347496
 20
412.361706355741
 30
0.0
 10
143.534368403075
 20
411.8984403079508
 30
0.0
 10
142.543684344668
 20
411.3044404119479
 30
0.0
 10
141.6086451431539
 20
410.5821538861551
 30
0.0
 10
140.758156907834
 20
409.736218066601
 30
0.0
 10
140.0196246381488
 20
408.7747064424597
 30
0.0
 10
139.4133965645275
 20
407.7086440122333
 30
0.0
 10
138.9762670094599
 20
406.5507060314304
 30
0.0
 10
138.7320994473238
 20
405.5577875119458
 30
0.0
 10
138.7130476936926
 20
404.9546868743178
 30
0.0
 10
138.7071791691842
 20
404.7689133785305
 30
0.0
  0
SPLINE
  5
E8
330
1F
100
AcDbEntity
  8
0
  6
Continuous
 62
     7
370
    25
100
AcDbSpline
210
0.0
220
0.0
230
1.0
 70
     8
 71
     3
 72
    20
 73
    16
 74
     0
 42
0.000000001
 43
0.00000001
 40
0.0
 40
0.0
 40
0.0
 40
0.0
 40
0.029277259348673
 40
0.1219253624643722
 40
0.2178673182325002
 40
0.3051629600803949
 40
0.3924613859703667
 40
0.4795632244575383
 40
0.5661077067784147
 40
0.6513949367822149
 40
0.7337763542906701
 40
0.8115337353554961
 40
0.86665935199081
 40
0.9236851779040428
 40
1.0
 40
1.0
 40
1.0
 40
1.0
 10
158.6399166021012
 20
404.0720467161537
 30
0.0
 10
158.649757638867
 20
404.2112947240387
 30
0.0
 10
158.6907407090518
 20
404.7911940797677
 30
0.0
 10
158.5383668657217
 20
405.8285207826622
 30
0.0
 10
158.1810583433426
 20
407.1030792836913
 30
0.0
 10
157.6146806006113
 20
408.2880242232331
 30
0.0
 10
156.8979489649403
 20
409.3518494953051
 30
0.0
 10
156.0258843506949
 20
410.3107633261869
 30
0.0
 10
155.0240482990821
 20
411.144692459914
 30
0.0
 10
153.926571855802
 20
411.8353708556694
 30
0.0
 10
152.7790503284052
 20
412.3706374134726
 30
0.0
 10
151.71515841654
 20
412.723892576806
 30
0.0
 10
150.7469827046015
 20
412.9446976581456
 30
0.0
 10
149.7682036349974
 20
413.0942031380714
 30
0.0
 10
149.066780331614
 20
413.1153396318574
 30
0.0
 10
148.6653348953509
 20
413.1274366764353
 30
0.0
  0
LINE
  5
E9
330
1F
100
AcDbEntity
  8
0
  6
Continuous
 62
     7
370
    25
100
AcDbLine
 10
159.1653348953976
 20
407.2175690376568
 30
0.0
 11
159.1653348953976
 21
412.9000690376567
 31
0.0
  0
LINE
  5
EA
330
1F
100
AcDbEntity
  8
0
  6
Continuous
 62
     7
370
    25
100
AcDbLine
 10
138.1653348953975
 20
412.9000690376569
 30
0.0
 11
138.1653348953975
 21
407.2175690376569
 31
0.0
  0
LINE
  5
EB
330
1F
100
AcDbEntity
  8
0
  6
Continuous
 62
     7
370
    25
100
AcDbLine
 10
138.1653348953975
 20
418.6248992868543
 30
0.0
 11
138.1653348953975
 21
412.9000690376566
 31
0.0
  0
LINE
  5
EC
330
1F
100
AcDbEntity
  8
0
  6
Continuous
 62
     7
370
    25
100
AcDbLine
 10
159.1653348953976
 20
412.9000690376566
 30
0.0
 11
159.1653348953976
 21
418.6248992868543
 31
0.0
  0
LINE
  5
ED
330
1F
100
AcDbEntity
  8
0
  6
Continuous
 62
     7
370
    25
100
AcDbLine
 10
173.6653348953975
 20
312.3665690376569
 30
0.0
 11
173.6653348953975
 21
318.5665690376569
 31
0.0
  0
LINE
  5
EE
330
1F
100
AcDbEntity
  8
0
  6
Continuous
 62
     7
370
    25
100
AcDbLine
 10
123.6653348953975
 20
318.5665690376569
 30
0.0
 11
123.6653348953975
 21
312.3665690376569
 31
0.0
  0
ARC
  5
EF
330
1F
100
AcDbEntity
  8
0
  6
Continuous
 62
     7
370
    25
100
AcDbCircle
 10
124.4653348953975
 20
318.5665690376569
 30
0.0
 40
0.7999999999999972
100
AcDbArc
 50
90.00000000000102
 51
179.9999999999995
  0
ARC
  5
F0
330
1F
100
AcDbEntity
  8
0
  6
Continuous
 62
     7
370
    25
100
AcDbCircle
 10
172.8653348953976
 20
318.5665690376569
 30
0.0
 40
0.799999999999983
100
AcDbArc
 50
0.0000000000005089
 51
90.0
  0
LINE
  5
F1
330
1F
100
AcDbEntity
  8
0
  6
Continuous
 62
     7
370
    25
100
AcDbLine
 10
166.6653348953975
 20
319.3665690376569
 30
0.0
 11
166.6653348953975
 21
458.5665690376569
 31
0.0
  0
LINE
  5
F2
330
1F
100
AcDbEntity
  8
0
  6
Continuous
 62
     7
370
    25
100
AcDbLine
 10
130.6653348953975
 20
458.5665690376569
 30
0.0
 11
130.6653348953975
 21
319.3665690376569
 31
0.0
  0
LINE
  5
F3
330
1F
100
AcDbEntity
  8
0
  6
Continuous
 62
     7
370
    25
100
AcDbLine
 10
166.6653348953975
 20
463.2237939329481
 30
0.0
 11
166.6653348953975
 21
483.5665690376569
 31
0.0
  0
LINE
  5
F4
330
1F
100
AcDbEntity
  8
0
  6
Continuous
 62
     7
370
    25
100
AcDbLine
 10
130.6653348953975
 20
483.5665690376569
 30
0.0
 11
130.6653348953975
 21
463.2202424961855
 31
0.0
  0
ARC
  5
F5
330
1F
100
AcDbEntity
  8
0
  6
Continuous
 62
     7
370
    25
100
AcDbCircle
 10
165.8653348953975
 20
458.5665690376569
 30
0.0
 40
0.8000000000000114
100
AcDbArc
 50
0.0
 51
90.0
  0
ARC
  5
F6
330
1F
100
AcDbEntity
  8
0
  6
Continuous
 62
     7
370
    25
100
AcDbCircle
 10
131.4653348953975
 20
458.5665690376569
 30
0.0
 40
0.799999999999983
100
AcDbArc
 50
90.0
 51
180.0
  0
ARC
  5
F7
330
1F
100
AcDbEntity
  8
0
  6
Continuous
 62
     7
370
    25
100
AcDbCircle
 10
131.4653348953975
 20
483.5665690376569
 30
0.0
 40
0.8000000000000114
100
AcDbArc
 50
90.0
 51
179.9999999999995
  0
ARC
  5
F8
330
1F
100
AcDbEntity
  8
0
  6
Continuous
 62
     7
370
    25
100
AcDbCircle
 10
165.8653348953975
 20
483.5665690376569
 30
0.0
 40
0.8000000000000114
100
AcDbArc
 50
0.0
 51
90.0
  0
ARC
  5
F9
330
1F
100
AcDbEntity
  8
0
  6
Continuous
 62
     7
370
    25
100
AcDbCircle
 10
133.1653348953975
 20
459.7678128292475
 30
0.0
 40
1.000000000000018
100
AcDbArc
 50
168.6348556495111
 51
180.0
  0
ARC
  5
FA
330
1F
100
AcDbEntity
  8
0
  6
Continuous
 62
     7
370
    25
100
AcDbCircle
 10
164.1653348953975
 20
459.7678128292475
 30
0.0
 40
1.0
100
AcDbArc
 50
0.0
 51
11.36514435048919
  0
LINE
  5
FB
330
1F
100
AcDbEntity
  8
0
  6
Continuous
 62
     7
370
    25
100
AcDbLine
 10
165.1653348953975
 20
459.3665690376569
 30
0.0
 11
165.1653348953975
 21
459.7678128292475
 31
0.0
  0
LINE
  5
FC
330
1F
100
AcDbEntity
  8
0
  6
Continuous
 62
     7
370
    25
100
AcDbLine
 10
132.1653348953975
 20
459.7678128292475
 30
0.0
 11
132.1653348953975
 21
459.3665690376569
 31
0.0
  0
ARC
  5
FD
330
1F
100
AcDbEntity
  8
0
  6
Continuous
 62
     7
370
    25
100
AcDbCircle
 10
165.5182457244753
 20
453.2648011511295
 30
0.0
 40
34.00000000000001
100
AcDbArc
 50
164.4726069919795
 51
168.6348556495143
  0
ARC
  5
FE
330
1F
100
AcDbEntity
  8
0
  6
Continuous
 62
     7
370
    25
100
AcDbCircle
 10
131.8124240663197
 20
453.2648011511295
 30
0.0
 40
34.00000000000001
100
AcDbArc
 50
11.36514435048564
 51
15.52739300802046
  0
SPLINE
  5
FF
330
1F
100
AcDbEntity
  8
0
  6
Continuous
 62
     7
370
    25
100
AcDbSpline
210
0.0
220
0.0
230
1.0
 70
     8
 71
     3
 72
    12
 73
     8
 74
     0
 42
0.000000001
 43
0.00000001
 40
0.0
 40
0.0
 40
0.0
 40
0.0
 40
0.2577050020374267
 40
0.498695838680245
 40
0.7237422334794618
 40
0.9579180711788051
 40
1.0
 40
1.0
 40
1.0
 40
1.0
 10
165.6064291785167
 20
462.3883056414842
 30
0.0
 10
165.7352213744673
 20
462.3863657637516
 30
0.0
 10
165.984452594922
 20
462.3826118243821
 30
0.0
 10
166.3168020837128
 20
462.511663794052
 30
0.0
 10
166.60809158758
 20
462.808372821965
 30
0.0
 10
166.6855159222183
 20
463.1153494435179
 30
0.0
 10
166.6579636326073
 20
463.2454761506938
 30
0.0
 10
166.6537666338953
 20
463.2652981556934
 30
0.0
  0
SPLINE
  5
100
330
1F
100
AcDbEntity
  8
0
  6
Continuous
 62
     7
370
    25
100
AcDbSpline
210
0.0
220
0.0
230
1.0
 70
     8
 71
     3
 72
    13
 73
     9
 74
     0
 42
0.000000001
 43
0.00000001
 40
0.0
 40
0.0
 40
0.0
 40
0.0
 40
0.0073790747145809
 40
0.2343228152264221
 40
0.4783702347980486
 40
0.7098029742221522
 40
0.9849676262069723
 40
1.0
 40
1.0
 40
1.0
 40
1.0
 10
130.6697548116655
 20
463.2626045486689
 30
0.0
 10
130.6688954131091
 20
463.2590687414976
 30
0.0
 10
130.641605177283
 20
463.1467890421383
 30
0.0
 10
130.7044864373485
 20
462.8537289966627
 30
0.0
 10
130.978522494749
 20
462.5286393761232
 30
0.0
 10
131.3432712980812
 20
462.3960334831413
 30
0.0
 10
131.576069449032
 20
462.3555407590727
 30
0.0
 10
131.7366000453601
 20
462.3678769718059
 30
0.0
 10
131.744915623105
 20
462.3685159947611
 30
0.0
  0
LWPOLYLINE
  5
101
330
1F
100
AcDbEntity
  8
0
  6
Continuous
 62
     7
370
    25
100
AcDbPolyline
 90
       41
 70
   128
 43
0.0
 10
144.0253147431766
 20
400.6877694627623
 10
145.4681909945205
 20
401.2219323622697
 10
146.9897915394164
 20
401.5540434085464
 10
148.552649522546
 20
401.6759249254195
 10
150.1182821935366
 20
401.5845757854423
 10
151.6481384799913
 20
401.2822453076114
 10
153.1045482428358
 20
400.7763778716682
 10
154.451649840162
 20
400.0794296127634
 10
155.6562731598697
 20
399.20856171007
 10
156.6887563779123
 20
398.1852178215972
 10
157.5236763308461
 20
397.0345960701626
 10
158.1404745184894
 20
395.7850285819816
 10
158.5239633224267
 20
394.4672838556896
 10
158.6646999755787
 20
393.113809139792
 10
158.5592190744665
 20
391.7579314737193
 10
158.2101179089466
 20
390.4330370655101
 10
157.6259925083144
 20
389.1717492125671
 10
156.8212259785347
 20
388.0051250078041
 10
155.8156343424374
 20
386.961890610946
 10
154.6339786034707
 20
386.0677339151401
 10
153.3053550476184
 20
385.3446720257729
 10
151.8624787962745
 20
384.8105091262656
 10
150.3408782513787
 20
384.4783980799889
 10
148.778020268249
 20
384.3565165631157
 10
147.2123875972585
 20
384.447865703093
 10
145.6825313108037
 20
384.750196180924
 10
144.2261215479592
 20
385.2560636168672
 10
142.8790199506331
 20
385.9530118757719
 10
141.6743966309253
 20
386.8238797784653
 10
140.6419134128828
 20
387.8472236669382
 10
139.806993459949
 20
388.9978454183727
 10
139.1901952723057
 20
390.2474129065538
 10
138.8067064683684
 20
391.5651576328458
 10
138.6659698152164
 20
392.9186323487434
 10
138.7714507163286
 20
394.2745100148161
 10
139.1205518818485
 20
395.5994044230252
 10
139.7046772824807
 20
396.8606922759682
 10
140.5094438122605
 20
398.0273164807313
 10
141.5150354483578
 20
399.0705508775893
 10
142.6966911873245
 20
399.9647075733952
 10
144.0253147431766
 20
400.6877694627623
  0
ARC
  5
102
330
1F
100
AcDbEntity
  8
0
  6
Continuous
 62
     7
370
    25
100
AcDbCircle
 10
147.1949409048362
 20
404.0149684174692
 30
0.0
 40
8.533305713964234
100
AcDbArc
 50
111.804562360817
 51
178.3127548419482
  0
LWPOLYLINE
  5
103
330
1F
100
AcDbEntity
  8
0
  6
Continuous
 62
     7
370
    25
100
AcDbPolyline
 90
       15
 70
   128
 43
0.0
 10
158.6653348953976
 20
404.2662207442676
 10
158.6646999755787
 20
404.363809139792
 10
158.5239633224267
 20
405.7172838556896
 10
158.1404745184894
 20
407.0350285819816
 10
157.523676330846
 20
408.2845960701628
 10
156.6887563779122
 20
409.4352178215972
 10
155.6562731598696
 20
410.45856171007
 10
154.4516498401619
 20
411.3294296127634
 10
153.1045482428357
 20
412.0263778716681
 10
151.6481384799912
 20
412.5322453076113
 10
150.1182821935364
 20
412.8345757854423
 10
148.5526495225459
 20
412.9259249254195
 10
146.9897915394162
 20
412.8040434085462
 10
145.4681909945204
 20
412.4719323622696
 10
144.0253147431766
 20
411.9377694627623
  0
LWPOLYLINE
  5
104
330
1F
100
AcDbEntity
  8
0
  6
Continuous
 62
     7
370
    25
100
AcDbPolyline
 90
       24
 70
   128
 43
0.0
 10
159.1653348953976
 20
407.2175690376569
 10
159.0422793450912
 20
408.605649696689
 10
158.6759970119743
 20
409.9611949215559
 10
158.0750732434886
 20
411.2524318810939
 10
157.2535931834481
 20
412.4490950753727
 10
156.2308116282058
 20
413.5231357333633
 10
155.0307017105472
 20
414.4493792523572
 10
153.6813929897763
 20
415.2061152693165
 10
152.2145121186868
 20
415.7756065333836
 10
150.6644415416265
 20
416.144504652007
 10
149.0675135991429
 20
416.3041629659498
 10
147.4611589287143
 20
416.2508392196534
 10
145.8830291223325
 20
415.9857832765357
 10
144.3701142050984
 20
415.5152078232525
 10
142.9578756203847
 20
414.8501427495873
 10
141.679415043659
 20
414.0061766171842
 10
140.5646985072671
 20
413.0030912768738
 10
139.6398540220319
 20
411.8643981988574
 10
138.9265591588255
 20
410.6167873837722
 10
138.4415329446808
 20
409.289501771698
 10
138.1961439829683
 20
407.9136518124266
 10
138.1961439829683
 20
406.521486262887
 10
138.4415329446809
 20
405.1456363036156
 10
138.6673373646215
 20
404.4395240360512
  0
LWPOLYLINE
  5
105
330
1F
100
AcDbEntity
  8
0
  6
Continuous
 62
     7
370
    25
100
AcDbPolyline
 90
        3
 70
   128
 43
0.0
 10
158.7416309212681
 20
404.6604820623527
 10
159.0422793450913
 20
405.8294883786249
 10
159.1653348953976
 20
407.2175690376569
  0
ARC
  5
106
330
1F
100
AcDbEntity
  8
0
  6
Continuous
 62
     7
370
    25
100
AcDbCircle
 10
148.6653348953975
 20
418.6248992868545
 30
0.0
 40
10.50000000000003
100
AcDbArc
 50
0.0
 51
180.000000000002
  0
LINE
  5
107
330
1F
100
AcDbEntity
  8
0
  6
Continuous
 62
     7
370
    25
100
AcDbLine
 10
153.1653348953975
 20
483.5665690376569
 30
0.0
 11
153.1653348953975
 21
476.1665690376569
 31
0.0
  0
ARC
  5
108
330
1F
100
AcDbEntity
  8
0
  6
Continuous
 62
     7
370
    25
100
AcDbCircle
 10
152.3653348953975
 20
483.5665690376569
 30
0.0
 40
0.8000000000000114
100
AcDbArc
 50
0.0
 51
90.0
  0
LINE
  5
109
330
1F
100
AcDbEntity
  8
0
  6
Continuous
 62
     7
370
    25
100
AcDbLine
 10
144.9653348953975
 20
484.3665690376569
 30
0.0
 11
152.3653348953975
 21
484.3665690376569
 31
0.0
  0
ARC
  5
10A
330
1F
100
AcDbEntity
  8
0
  6
Continuous
 62
     7
370
    25
100
AcDbCircle
 10
152.3653348953975
 20
476.1665690376569
 30
0.0
 40
0.8000000000000114
100
AcDbArc
 50
270.0000000000008
 51
0.0
  0
LINE
  5
10B
330
1F
100
AcDbEntity
  8
0
  6
Continuous
 62
     7
370
    25
100
AcDbLine
 10
152.3653348953975
 20
475.3665690376569
 30
0.0
 11
144.9653348953975
 21
475.3665690376569
 31
0.0
  0
ARC
  5
10C
330
1F
100
AcDbEntity
  8
0
  6
Continuous
 62
     7
370
    25
100
AcDbCircle
 10
144.9653348953975
 20
483.5665690376569
 30
0.0
 40
0.8000000000000114
100
AcDbArc
 50
90.0
 51
180.0
  0
ARC
  5
10D
330
1F
100
AcDbEntity
  8
0
  6
Continuous
 62
     7
370
    25
100
AcDbCircle
 10
144.9653348953975
 20
476.1665690376569
 30
0.0
 40
0.8000000000000114
100
AcDbArc
 50
180.0
 51
270.0000000000008
  0
LINE
  5
10E
330
1F
100
AcDbEntity
  8
0
  6
Continuous
 62
     7
370
    25
100
AcDbLine
 10
144.1653348953975
 20
476.1665690376569
 30
0.0
 11
144.1653348953975
 21
483.5665690376569
 31
0.0
  0
LINE
  5
10F
330
1F
100
AcDbEntity
  8
0
  6
Continuous
 62
     7
370
    25
100
AcDbLine
 10
142.7192282155112
 20
312.3665690376569
 30
0.0
 11
123.6653348953975
 21
312.3665690376569
 31
0.0
  0
LINE
  5
110
330
1F
100
AcDbEntity
  8
0
  6
Continuous
 62
     7
370
    25
100
AcDbLine
 10
173.6653348953975
 20
312.3665690376569
 30
0.0
 11
142.7192282155112
 21
312.3665690376569
 31
0.0
  0
LINE
  5
111
330
1F
100
AcDbEntity
  8
0
  6
Continuous
 62
     7
370
    25
100
AcDbLine
 10
124.4653348953975
 20
319.3665690376569
 30
0.0
 11
172.8653348953976
 21
319.3665690376569
 31
0.0
  0
SPLINE
  5
112
330
1F
100
AcDbEntity
  8
0
  6
Continuous
 62
     7
370
    25
100
AcDbSpline
210
0.0
220
0.0
230
1.0
 70
     8
 71
     3
 72
    22
 73
    18
 74
     0
 42
0.000000001
 43
0.00000001
 40
0.0
 40
0.0
 40
0.0
 40
0.0
 40
0.125
 40
0.125
 40
0.25
 40
0.25
 40
0.375
 40
0.375
 40
0.5
 40
0.5
 40
0.625
 40
0.625
 40
0.75
 40
0.75
 40
0.875
 40
0.875
 40
1.0
 40
1.0
 40
1.0
 40
1.0
 10
144.965328982492
 20
475.3665690376569
 30
0.0
 10
144.9926666790356
 20
475.3665690376569
 30
0.0
 10
145.0201543863865
 20
475.3661404058775
 30
0.0
 10
145.0756249906912
 20
475.3459425487977
 30
0.0
 10
145.1035437752946
 20
475.3262638751226
 30
0.0
 10
145.1574972403269
 20
475.2579209409881
 30
0.0
 10
145.1834678084053
 20
475.2093472321541
 30
0.0
 10
145.2306226800598
 20
475.0795099191266
 30
0.0
 10
145.2517428712853
 20
474.9983368665585
 30
0.0
 10
145.2876953328706
 20
474.8028206934158
 30
0.0
 10
145.302621827223
 20
474.6879651652438
 30
0.0
 10
145.3264969416645
 20
474.4315282025327
 30
0.0
 10
145.3354289106819
 20
474.2902954228803
 30
0.0
 10
145.3479961406691
 20
473.9968864448639
 30
0.0
 10
145.3516147505671
 20
473.8450589013865
 30
0.0
 10
145.355328830426
 20
473.5433994378237
 30
0.0
 10
145.3554076493152
 20
473.3939161726248
 30
0.0
 10
145.3554076493152
 20
473.2452486940973
 30
0.0
  0
SPLINE
  5
113
330
1F
100
AcDbEntity
  8
0
  6
Continuous
 62
     7
370
    25
100
AcDbSpline
210
0.0
220
0.0
230
1.0
 70
     8
 71
     3
 72
    17
 73
    13
 74
     0
 42
0.000000001
 43
0.00000001
 40
0.0
 40
0.0
 40
0.0
 40
0.0
 40
0.0372403668551916
 40
0.0713681663991417
 40
0.1250332837577758
 40
0.2493626081714157
 40
0.3707809976592343
 40
0.4990085153708879
 40
0.6235809484835855
 40
0.7488673956196653
 40
0.8745653380454761
 40
1.0
 40
1.0
 40
1.0
 40
1.0
 10
152.3653348954006
 20
475.366569037657
 30
0.0
 10
152.3620429319209
 20
475.3665732895893
 30
0.0
 10
152.3557341488115
 20
475.3665814380755
 30
0.0
 10
152.3349766461829
 20
475.3647295790136
 30
0.0
 10
152.287322427973
 20
475.3549866943387
 30
0.0
 10
152.2129279234441
 20
475.3113616755848
 30
0.0
 10
152.1288419409331
 20
475.1766503088334
 30
0.0
 10
152.0572443498819
 20
474.9265404878512
 30
0.0
 10
152.0133025724662
 20
474.5523968496068
 30
0.0
 10
152.0004966973121
 20
474.1290385587516
 30
0.0
 10
151.99830938766
 20
473.6878826919474
 30
0.0
 10
151.9829356580567
 20
473.3926902028357
 30
0.0
 10
151.9752568519513
 20
473.2452486940973
 30
0.0
  0
SPLINE
  5
114
330
1F
100
AcDbEntity
  8
0
  6
Continuous
 62
     7
370
    25
100
AcDbSpline
210
0.0
220
0.0
230
1.0
 70
    24
 71
     3
 72
    22
 73
    18
 74
     0
 42
0.000000001
 43
0.00000001
 40
0.0
 40
0.0
 40
0.0
 40
0.0
 40
0.1250000000000001
 40
0.1250000000000001
 40
0.2500000000000001
 40
0.2500000000000001
 40
0.3750000000000002
 40
0.3750000000000002
 40
0.5000000000000002
 40
0.5000000000000002
 40
0.6250000000000002
 40
0.6250000000000002
 40
0.7500000000000002
 40
0.7500000000000002
 40
0.8750000000000001
 40
0.8750000000000001
 40
1.0
 40
1.0
 40
1.0
 40
1.0
 10
154.6054169901037
 20
484.3665690376569
 30
0.0
 10
154.4394405259451
 20
484.3665690376569
 30
0.0
 10
154.2733675820853
 20
484.3665690376569
 30
0.0
 10
153.9504586133326
 20
484.3665690376569
 30
0.0
 10
153.7930857585006
 20
484.3665690376569
 30
0.0
 10
153.4898010031591
 20
484.3665690376569
 30
0.0
 10
153.345958074385
 20
484.3665690376569
 30
0.0
 10
153.0844630139969
 20
484.3665690376569
 30
0.0
 10
152.964601072206
 20
484.366569037657
 30
0.0
 10
152.7597935254237
 20
484.366569037657
 30
0.0
 10
152.6751988152392
 20
484.366569037657
 30
0.0
 10
152.5382276392446
 20
484.366569037657
 30
0.0
 10
152.4862336865963
 20
484.3665690376568
 30
0.0
 10
152.4128478739151
 20
484.3665690376568
 30
0.0
 10
152.39064497054
 20
484.3665690376569
 30
0.0
 10
152.3665258805771
 20
484.3665690376569
 30
0.0
 10
152.3653348953975
 20
484.366569037657
 30
0.0
 10
152.3653348953975
 20
484.3665690376569
 30
0.0
  0
SPLINE
  5
115
330
1F
100
AcDbEntity
  8
0
  6
Continuous
 62
     7
370
    25
100
AcDbSpline
210
0.0
220
0.0
230
1.0
 70
    24
 71
     3
 72
    22
 73
    18
 74
     0
 42
0.000000001
 43
0.00000001
 40
0.0
 40
0.0
 40
0.0
 40
0.0
 40
0.1250000000000001
 40
0.1250000000000001
 40
0.2500000000000002
 40
0.2500000000000002
 40
0.3750000000000002
 40
0.3750000000000002
 40
0.5000000000000002
 40
0.5000000000000002
 40
0.6250000000000002
 40
0.6250000000000002
 40
0.7500000000000001
 40
0.7500000000000001
 40
0.8750000000000001
 40
0.8750000000000001
 40
1.0
 40
1.0
 40
1.0
 40
1.0
 10
144.9653348953975
 20
484.366569037657
 30
0.0
 10
144.9653348953975
 20
484.366569037657
 30
0.0
 10
144.9642061751504
 20
484.3665690376568
 30
0.0
 10
144.9402998928692
 20
484.3665690376568
 30
0.0
 10
144.9182341707149
 20
484.3665690376569
 30
0.0
 10
144.8440568439613
 20
484.3665690376569
 30
0.0
 10
144.7922306932535
 20
484.3665690376569
 30
0.0
 10
144.6557069447905
 20
484.3665690376569
 30
0.0
 10
144.5694445298487
 20
484.3665690376569
 30
0.0
 10
144.3643025416456
 20
484.3665690376569
 30
0.0
 10
144.2466581334872
 20
484.3665690376569
 30
0.0
 10
143.9843595813939
 20
484.3665690376569
 30
0.0
 10
143.8394061766109
 20
484.3665690376569
 30
0.0
 10
143.5394364362344
 20
484.3665690376569
 30
0.0
 10
143.382779168372
 20
484.366569037657
 30
0.0
 10
143.0595788396357
 20
484.366569037657
 30
0.0
 10
142.8923710475292
 20
484.3665690376569
 30
0.0
 10
142.7252528006914
 20
484.3665690376569
 30
0.0
  0
LINE
  5
116
330
1F
100
AcDbEntity
  8
0
  6
Continuous
 62
     7
370
    25
100
AcDbLine
 10
165.5859360172053
 20
462.3665690376569
 30
0.0
 11
131.7447337735897
 21
462.3665690376569
 31
0.0
  0
LINE
  5
117
330
1F
100
AcDbEntity
  8
0
  6
Continuous
 62
     7
370
    25
100
AcDbLine
 10
148.6653348953975
 20
459.3665690376569
 30
0.0
 11
165.8653348953975
 21
459.3665690376569
 31
0.0
  0
LINE
  5
118
330
1F
100
AcDbEntity
  8
0
  6
Continuous
 62
     7
370
    25
100
AcDbLine
 10
131.4653348953975
 20
459.3665690376569
 30
0.0
 11
148.6653348953975
 21
459.3665690376569
 31
0.0
  0
LINE
  5
119
330
1F
100
AcDbEntity
  8
0
  6
Continuous
 62
     7
370
    25
100
AcDbLine
 10
154.6054169901037
 20
484.3665690376569
 30
0.0
 11
165.8653348953975
 21
484.3665690376569
 31
0.0
  0
LINE
  5
11A
330
1F
100
AcDbEntity
  8
0
  6
Continuous
 62
     7
370
    25
100
AcDbLine
 10
131.4653348953975
 20
484.3665690376569
 30
0.0
 11
142.7252528006914
 21
484.3665690376569
 31
0.0
  0
SPLINE
  5
11B
330
1F
100
AcDbEntity
  8
0
  6
Continuous
 62
     8
370
    18
100
AcDbSpline
210
0.0
220
0.0
230
1.0
 70
    24
 71
     3
 72
     8
 73
     4
 74
     0
 42
0.000000001
 43
0.00000001
 40
0.0
 40
0.0
 40
0.0
 40
0.0
 40
1.0
 40
1.0
 40
1.0
 40
1.0
 10
151.975256851964
 20
473.2452486940973
 30
0.0
 10
149.7938563992799
 20
473.2452486940973
 30
0.0
 10
147.5368133914874
 20
473.2452486940973
 30
0.0
 10
145.355412938804
 20
473.2452486940973
 30
0.0
  0
SPLINE
  5
11C
330
1F
100
AcDbEntity
  8
0
  6
Continuous
 62
     8
370
    18
100
AcDbSpline
210
0.0
220
0.0
230
1.0
 70
     8
 71
     3
 72
    21
 73
    17
 74
     0
 42
0.000000001
 43
0.00000001
 40
0.0
 40
0.0
 40
0.0
 40
0.0
 40
0.0351002472297384
 40
0.0700652891713298
 40
0.1049983694210894
 40
0.1400030143326199
 40
0.2085180087362818
 40
0.2768584892933157
 40
0.4095185876183533
 40
0.5360900747248863
 40
0.6582820748322912
 40
0.775221317241801
 40
0.8322233449811113
 40
0.8890975713829641
 40
0.9445807527626592
 40
1.0
 40
1.0
 40
1.0
 40
1.0
 10
154.8816998782296
 20
476.1665690376569
 30
0.0
 10
154.8808919407445
 20
476.1114727700798
 30
0.0
 10
154.8792791779297
 20
476.0014924643921
 30
0.0
 10
154.8662624659427
 20
475.8371613569485
 30
0.0
 10
154.8454598250471
 20
475.6739458893306
 30
0.0
 10
154.8068272316355
 20
475.4604797092515
 30
0.0
 10
154.7390273913547
 20
475.1999565538345
 30
0.0
 10
154.5916488627023
 20
474.8062267090596
 30
0.0
 10
154.3410092398514
 20
474.3607782635756
 30
0.0
 10
153.9510258186876
 20
473.9184281718614
 30
0.0
 10
153.4992659476308
 20
473.5832762276499
 30
0.0
 10
153.0853155040324
 20
473.3939141453215
 30
0.0
 10
152.7451642535885
 20
473.2978340531354
 30
0.0
 10
152.4891035503567
 20
473.2534865833932
 30
0.0
 10
152.2315777953004
 20
473.2331678158843
 30
0.0
 10
152.0606643230979
 20
473.2412232826582
 30
0.0
 10
151.9752568519514
 20
473.2452486940972
 30
0.0
  0
SPLINE
  5
11D
330
1F
100
AcDbEntity
  8
0
  6
Continuous
 62
     8
370
    18
100
AcDbSpline
210
0.0
220
0.0
230
1.0
 70
     8
 71
     3
 72
    21
 73
    17
 74
     0
 42
0.000000001
 43
0.00000001
 40
0.0
 40
0.0
 40
0.0
 40
0.0
 40
0.0276447721780826
 40
0.0552428195415967
 40
0.0828588255560673
 40
0.1105573478725323
 40
0.1674199268070619
 40
0.2244273239294111
 40
0.3414926866829841
 40
0.463358902926193
 40
0.5906748595160446
 40
0.7227374015014346
 40
0.7913815171671943
 40
0.8602228214983668
 40
0.9300718087027425
 40
1.0
 40
1.0
 40
1.0
 40
1.0
 10
145.3554129388149
 20
473.2452486941192
 30
0.0
 10
145.312850940133
 20
473.2426350302924
 30
0.0
 10
145.2277988804753
 20
473.2374121202176
 30
0.0
 10
145.1001729798538
 20
473.2375439372019
 30
0.0
 10
144.9728066794475
 20
473.2435389290673
 30
0.0
 10
144.801348122569
 20
473.2602817383648
 30
0.0
 10
144.5872309123517
 20
473.2975181809223
 30
0.0
 10
144.2468584948409
 20
473.3932845709361
 30
0.0
 10
143.8330563179849
 20
473.5823519302974
 30
0.0
 10
143.3804200275563
 20
473.917615751677
 30
0.0
 10
142.9904078696939
 20
474.3596644431573
 30
0.0
 10
142.7394221009332
 20
474.8055991472561
 30
0.0
 10
142.5916926689922
 20
475.199323670439
 30
0.0
 10
142.5103873585213
 20
475.5135632721908
 30
0.0
 10
142.4585389869714
 20
475.8372735014138
 30
0.0
 10
142.4521608087559
 20
476.0567624014519
 30
0.0
 10
142.4489699125655
 20
476.1665690376569
 30
0.0
  0
LINE
  5
11E
330
1F
100
AcDbEntity
  8
0
  6
Continuous
 62
     8
370
    18
100
AcDbLine
 10
154.8816998782296
 20
483.5665690376561
 30
0.0
 11
154.8816998782296
 21
476.1665690376569
 31
0.0
  0
LINE
  5
11F
330
1F
100
AcDbEntity
  8
0
  6
Continuous
 62
     8
370
    18
100
AcDbLine
 10
142.4489699125655
 20
476.1665690376569
 30
0.0
 11
142.4489699125655
 21
483.5665690376569
 31
0.0
  0
LWPOLYLINE
  5
120
330
1F
100
AcDbEntity
  8
0
  6
Continuous
 62
     8
370
    18
100
AcDbPolyline
 90
        9
 70
   128
 43
0.0
 10
154.8816998782296
 20
483.5665690376561
 10
154.8763911800049
 20
483.7226412952692
 10
154.8606690956264
 20
483.8727157835484
 10
154.8351378159796
 20
484.0110252240722
 10
154.8007784938234
 20
484.1322544626058
 10
154.7589115386392
 20
484.2317447274987
 10
154.7111458740355
 20
484.3056726636659
 10
154.6593171077157
 20
484.3511972619795
 10
154.6054169901037
 20
484.3665690376569
  0
LWPOLYLINE
  5
121
330
1F
100
AcDbEntity
  8
0
  6
Continuous
 62
     8
370
    18
100
AcDbPolyline
 90
        9
 70
   128
 43
0.0
 10
142.4489699125655
 20
483.5665690376569
 10
142.4542786107903
 20
483.7226412952698
 10
142.4700006951688
 20
483.872715783549
 10
142.4955319748155
 20
484.0110252240726
 10
142.5298912969718
 20
484.1322544626061
 10
142.5717582521559
 20
484.2317447274989
 10
142.6195239167596
 20
484.3056726636659
 10
142.6713526830793
 20
484.3511972619795
 10
142.7252528006914
 20
484.3665690376569
  0
SPLINE
  5
122
330
1F
100
AcDbEntity
  8
0
  6
Continuous
 62
     8
370
    18
100
AcDbSpline
210
0.0
220
0.0
230
1.0
 70
     8
 71
     3
 72
    17
 73
    13
 74
     0
 42
0.000000001
 43
0.00000001
 40
0.0
 40
0.0
 40
0.0
 40
0.0
 40
0.1035083395295659
 40
0.2080724418561908
 40
0.3147552425950008
 40
0.4226603412131276
 40
0.532266959727337
 40
0.6394988779569665
 40
0.7457077227004477
 40
0.8492588875092284
 40
0.9528353755096484
 40
1.0
 40
1.0
 40
1.0
 40
1.0
 10
148.6653348937382
 20
429.6248992868545
 30
0.0
 10
147.9421958151321
 20
429.5833452862636
 30
0.0
 10
146.488541794876
 20
429.4998134432145
 30
0.0
 10
144.4050401838807
 20
428.8379430864159
 30
0.0
 10
142.4994495973704
 20
427.8205653053212
 30
0.0
 10
140.8319248164087
 20
426.4470181907929
 30
0.0
 10
139.4659701059906
 20
424.7836072052656
 30
0.0
 10
138.4436830945926
 20
422.8749409760865
 30
0.0
 10
137.8030398979045
 20
420.7888030863078
 30
0.0
 10
137.6066907425411
 20
418.6061595991503
 30
0.0
 10
137.7347537979848
 20
416.8068423442683
 30
0.0
 10
138.0627193973229
 20
415.8332566584173
 30
0.0
 10
138.1653348953973
 20
415.5286363559424
 30
0.0
  0
SPLINE
  5
123
330
1F
100
AcDbEntity
  8
0
  6
Continuous
 62
     8
370
    18
100
AcDbSpline
210
0.0
220
0.0
230
1.0
 70
     8
 71
     3
 72
    17
 73
    13
 74
     0
 42
0.000000001
 43
0.00000001
 40
0.0
 40
0.0
 40
0.0
 40
0.0
 40
0.0832413117275177
 40
0.1823555998904371
 40
0.2823874086065506
 40
0.3850811694749989
 40
0.4881715862141058
 40
0.5933032686898853
 40
0.6976602409175198
 40
0.800230483376036
 40
0.9003713048909939
 40
1.0
 40
1.0
 40
1.0
 40
1.0
 10
159.1653348953973
 20
415.4484763137933
 30
0.0
 10
159.318579101314
 20
416.0015017099369
 30
0.0
 10
159.6542890813675
 20
417.2130068601506
 30
0.0
 10
159.71036038976
 20
419.217408685789
 30
0.0
 10
159.4038837980867
 20
421.3079915140649
 30
0.0
 10
158.7015384140186
 20
423.2846831207162
 30
0.0
 10
157.649863221774
 20
425.0840077046118
 30
0.0
 10
156.2841041650727
 20
426.6500870525291
 30
0.0
 10
154.6402447918425
 20
427.9406095430267
 30
0.0
 10
152.7803252870349
 20
428.8923609874424
 30
0.0
 10
150.7644146185864
 20
429.5085053745599
 30
0.0
 10
149.3638312976994
 20
429.5861676807656
 30
0.0
 10
148.6653348953975
 20
429.6248992868544
 30
0.0
  0
LINE
  5
124
330
1F
100
AcDbEntity
  8
0
  6
Continuous
 62
     8
370
    18
100
AcDbLine
 10
165.1653348953975
 20
459.7678128292475
 30
0.0
 11
132.1653348953975
 21
459.7678128292475
 31
0.0
  0
LINE
  5
125
330
1F
100
AcDbEntity
  8
0
  6
Continuous
 62
     8
370
    18
100
AcDbLine
 10
148.285130587922
 20
459.9648737891906
 30
0.0
 11
165.1457261326423
 21
459.9648737891906
 31
0.0
  0
LINE
  5
126
330
1F
100
AcDbEntity
  8
0
  6
Continuous
 62
     8
370
    18
100
AcDbLine
 10
132.1849436581527
 20
459.9648737891906
 30
0.0
 11
148.285130587922
 21
459.9648737891906
 31
0.0
  0
LINE
  5
127
330
1F
100
AcDbEntity
  8
0
  6
Continuous
 62
     7
370
    25
100
AcDbLine
 10
159.1653348953976
 20
154.102304409727
 30
0.0
 11
159.1653348953976
 21
207.1282093010809
 31
0.0
  0
LINE
  5
128
330
1F
100
AcDbEntity
  8
0
  6
Continuous
 62
     7
370
    25
100
AcDbLine
 10
138.1653348953976
 20
207.1229178034727
 30
0.0
 11
138.1653348953976
 21
154.102304409727
 31
0.0
  0
LINE
  5
129
330
1F
100
AcDbEntity
  8
0
  6
Continuous
 62
     7
370
    25
100
AcDbLine
 10
138.1653348953975
 20
154.102304409727
 30
0.0
 11
138.1653348953975
 21
132.7369470550139
 31
0.0
  0
LINE
  5
12A
330
1F
100
AcDbEntity
  8
0
  6
Continuous
 62
     7
370
    25
100
AcDbLine
 10
159.1653348953976
 20
132.7369470550139
 30
0.0
 11
159.1653348953976
 21
154.102304409727
 31
0.0
  0
LINE
  5
12B
330
1F
100
AcDbEntity
  8
0
  6
Continuous
 62
     7
370
    25
100
AcDbLine
 10
159.1653348953976
 20
122.8945683410036
 30
0.0
 11
159.1653348953976
 21
132.7369470550138
 31
0.0
  0
LINE
  5
12C
330
1F
100
AcDbEntity
  8
0
  6
Continuous
 62
     7
370
    25
100
AcDbLine
 10
138.1653348953975
 20
132.7369470550138
 30
0.0
 11
138.1653348953975
 21
122.8945683410036
 31
0.0
  0
SPLINE
  5
12D
330
1F
100
AcDbEntity
  8
0
  6
Continuous
 62
     7
370
    25
100
AcDbSpline
210
0.0
220
0.0
230
1.0
 70
     8
 71
     3
 72
    11
 73
     7
 74
     0
 42
0.000000001
 43
0.00000001
 40
0.0
 40
0.0
 40
0.0
 40
0.0
 40
0.2604820950897059
 40
0.560114076185846
 40
0.8622760568041542
 40
1.0
 40
1.0
 40
1.0
 40
1.0
 10
139.6379618837606
 20
120.3289061726345
 30
0.0
 10
139.4860820920227
 20
120.1319533015004
 30
0.0
 10
139.159495309882
 20
119.7084459758647
 30
0.0
 10
138.8402403287513
 20
118.9693501151718
 30
0.0
 10
138.6626809015249
 20
118.2961558383138
 30
0.0
 10
138.6844022288438
 20
117.8887194681331
 30
0.0
 10
138.6912029621428
 20
117.7611551600594
 30
0.0
  0
SPLINE
  5
12E
330
1F
100
AcDbEntity
  8
0
  6
Continuous
 62
     7
370
    25
100
AcDbSpline
210
0.0
220
0.0
230
1.0
 70
     8
 71
     3
 72
    11
 73
     7
 74
     0
 42
0.000000001
 43
0.00000001
 40
0.0
 40
0.0
 40
0.0
 40
0.0
 40
0.1851547250229992
 40
0.5301477799300465
 40
0.8549433628423638
 40
0.9999999999999999
 40
0.9999999999999999
 40
0.9999999999999999
 40
0.9999999999999999
 10
158.6398310291478
 20
117.7866440934157
 30
0.0
 10
158.6428110463489
 20
117.9560512797298
 30
0.0
 10
158.6513436371491
 20
118.441109620625
 30
0.0
 10
158.4081585410424
 20
119.1966121688907
 30
0.0
 10
158.0748050554137
 20
119.8718528855645
 30
0.0
 10
157.7806659801481
 20
120.2078450030286
 30
0.0
 10
157.6898569485161
 20
120.3115752496657
 30
0.0
  0
LINE
  5
12F
330
1F
100
AcDbEntity
  8
0
  6
Continuous
 62
     7
370
    25
100
AcDbLine
 10
158.6653348953976
 20
98.29711156087176
 30
0.0
 11
158.6653348953976
 21
117.7826831460216
 31
0.0
  0
LINE
  5
130
330
1F
100
AcDbEntity
  8
0
  6
Continuous
 62
     7
370
    25
100
AcDbLine
 10
138.6653348953976
 20
117.7826831460217
 30
0.0
 11
138.6653348953976
 21
98.29711156087178
 31
0.0
  0
LINE
  5
131
330
1F
100
AcDbEntity
  8
0
  6
Continuous
 62
     7
370
    25
100
AcDbLine
 10
146.6653348953975
 20
258.3746039203006
 30
0.0
 11
146.6653348953975
 21
245.3746039203005
 31
0.0
  0
LINE
  5
132
330
1F
100
AcDbEntity
  8
0
  6
Continuous
 62
     7
370
    25
100
AcDbLine
 10
150.6653348953975
 20
245.3746039203005
 30
0.0
 11
150.6653348953975
 21
258.3746039203006
 31
0.0
  0
LINE
  5
133
330
1F
100
AcDbEntity
  8
0
  6
Continuous
 62
     7
370
    25
100
AcDbLine
 10
150.6653348953975
 20
241.6158334371569
 30
0.0
 11
150.6653348953975
 21
245.3746039203005
 31
0.0
  0
LINE
  5
134
330
1F
100
AcDbEntity
  8
0
  6
Continuous
 62
     7
370
    25
100
AcDbLine
 10
146.6653348953975
 20
245.3746039203005
 30
0.0
 11
146.6653348953975
 21
241.6158334371569
 31
0.0
  0
LINE
  5
135
330
1F
100
AcDbEntity
  8
0
  6
Continuous
 62
     7
370
    25
100
AcDbLine
 10
146.6653348953975
 20
241.6158334371569
 30
0.0
 11
146.6653348953975
 21
239.6411065440971
 31
0.0
  0
LINE
  5
136
330
1F
100
AcDbEntity
  8
0
  6
Continuous
 62
     7
370
    25
100
AcDbLine
 10
150.6653348953975
 20
239.6372275117938
 30
0.0
 11
150.6653348953975
 21
241.6158334371569
 31
0.0
  0
ARC
  5
137
330
1F
100
AcDbEntity
  8
0
  6
Continuous
 62
     7
370
    25
100
AcDbCircle
 10
148.6653348953975
 20
221.7484008182945
 30
0.0
 40
18.0
100
AcDbArc
 50
290.2033829340738
 51
249.7966170659278
  0
SPLINE
  5
138
330
1F
100
AcDbEntity
  8
0
  6
Continuous
 62
     7
370
    25
100
AcDbSpline
210
0.0
220
0.0
230
1.0
 70
     8
 71
     3
 72
    20
 73
    16
 74
     0
 42
0.000000001
 43
0.00000001
 40
0.0
 40
0.0
 40
0.0
 40
0.0
 40
0.1250000000000001
 40
0.1250000000000001
 40
0.2500000000000002
 40
0.2500000000000002
 40
0.3750000000000003
 40
0.3750000000000003
 40
0.5000000000000004
 40
0.5000000000000004
 40
0.7500000000000002
 40
0.7500000000000002
 40
0.8750000000000001
 40
0.8750000000000001
 40
1.0
 40
1.0
 40
1.0
 40
1.0
 10
154.8816998782296
 20
204.8558934141161
 30
0.0
 10
154.7630394363865
 20
204.8122269176114
 30
0.0
 10
154.6412198066278
 20
204.7684922599546
 30
0.0
 10
154.3923524816278
 20
204.664082326948
 30
0.0
 10
154.2656435051919
 20
204.6035762255949
 30
0.0
 10
154.0206822836854
 20
204.4605460472314
 30
0.0
 10
153.9027687574202
 20
204.3781911442176
 30
0.0
 10
153.690838717829
 20
204.1926993741019
 30
0.0
 10
153.5971609233085
 20
204.0897316809966
 30
0.0
 10
153.3625243623641
 20
203.7533668973566
 30
0.0
 10
153.2672852572043
 20
203.4885627003796
 30
0.0
 10
153.1930362783378
 20
203.077393170189
 30
0.0
 10
153.1793953136379
 20
202.9386927490381
 30
0.0
 10
153.1655320001363
 20
202.6647818064163
 30
0.0
 10
153.1653348953975
 20
202.529799306198
 30
0.0
 10
153.1653348953975
 20
202.3953871154638
 30
0.0
  0
LINE
  5
139
330
1F
100
AcDbEntity
  8
0
  6
Continuous
 62
     7
370
    25
100
AcDbLine
 10
153.1653348953975
 20
202.3953871154638
 30
0.0
 11
153.1653348953975
 21
132.5484008182945
 31
0.0
  0
SPLINE
  5
13A
330
1F
100
AcDbEntity
  8
0
  6
Continuous
 62
     7
370
    25
100
AcDbSpline
210
0.0
220
0.0
230
1.0
 70
     8
 71
     3
 72
    20
 73
    16
 74
     0
 42
0.000000001
 43
0.00000001
 40
0.0
 40
0.0
 40
0.0
 40
0.0
 40
0.1249999999999999
 40
0.1249999999999999
 40
0.2499999999999999
 40
0.2499999999999999
 40
0.4999999999999997
 40
0.4999999999999997
 40
0.6249999999999998
 40
0.6249999999999998
 40
0.7499999999999998
 40
0.7499999999999998
 40
0.8749999999999998
 40
0.8749999999999998
 40
1.0
 40
1.0
 40
1.0
 40
1.0
 10
144.1653348953975
 20
202.3953871154638
 30
0.0
 10
144.1653348953975
 20
202.529799306198
 30
0.0
 10
144.1651377906587
 20
202.6647818064163
 30
0.0
 10
144.1512744771572
 20
202.9386927490381
 30
0.0
 10
144.1376335124573
 20
203.077393170189
 30
0.0
 10
144.0633845335907
 20
203.4885627003796
 30
0.0
 10
143.9681454284309
 20
203.7533668973566
 30
0.0
 10
143.7335088674866
 20
204.0897316809966
 30
0.0
 10
143.6398310729661
 20
204.1926993741019
 30
0.0
 10
143.4279010333749
 20
204.3781911442176
 30
0.0
 10
143.3099875071096
 20
204.4605460472314
 30
0.0
 10
143.0650262856031
 20
204.6035762255949
 30
0.0
 10
142.9383173091673
 20
204.664082326948
 30
0.0
 10
142.6894499841673
 20
204.7684922599546
 30
0.0
 10
142.5676303544085
 20
204.8122269176114
 30
0.0
 10
142.4489699125655
 20
204.8558934141161
 30
0.0
  0
LINE
  5
13B
330
1F
100
AcDbEntity
  8
0
  6
Continuous
 62
     7
370
    25
100
AcDbLine
 10
144.1653348953975
 20
132.5484008182945
 30
0.0
 11
144.1653348953975
 21
202.3953871154638
 31
0.0
  0
LINE
  5
13C
330
1F
100
AcDbEntity
  8
0
  6
Continuous
 62
     7
370
    25
100
AcDbLine
 10
152.3653348953975
 20
131.7484008182945
 30
0.0
 11
144.9653348953975
 21
131.7484008182945
 31
0.0
  0
ARC
  5
13D
330
1F
100
AcDbEntity
  8
0
  6
Continuous
 62
     7
370
    25
100
AcDbCircle
 10
144.9653348953975
 20
132.5484008182945
 30
0.0
 40
0.8000000000000114
100
AcDbArc
 50
180.0
 51
270.0000000000008
  0
ARC
  5
13E
330
1F
100
AcDbEntity
  8
0
  6
Continuous
 62
     7
370
    25
100
AcDbCircle
 10
152.3653348953975
 20
132.5484008182945
 30
0.0
 40
0.8000000000000114
100
AcDbArc
 50
270.0000000000008
 51
0.0
  0
LWPOLYLINE
  5
13F
330
1F
100
AcDbEntity
  8
0
  6
Continuous
 62
     7
370
    25
100
AcDbPolyline
 90
       22
 70
   128
 43
0.0
 10
159.1653348953976
 20
122.8945683410036
 10
159.0422793450912
 20
122.0931595988546
 10
158.6759970119743
 20
121.3105351983789
 10
158.0750732434886
 20
120.5650391922021
 10
157.2535931834481
 20
119.8741453748559
 10
156.2308116282058
 20
119.2540477118444
 10
155.0307017105472
 20
118.7192807668182
 10
153.6813929897763
 20
118.2823790237212
 10
152.2145121186868
 20
117.953583089111
 10
150.6644415416265
 20
117.7405996610202
 10
149.0675135991429
 20
117.6484208904869
 10
147.4611589287143
 20
117.6792073697654
 10
145.8830291223325
 20
117.8322374898747
 10
144.3701142050984
 20
118.1039243545018
 10
142.9578756203847
 20
118.4878998538109
 10
141.679415043659
 20
118.9751639275409
 10
140.5646985072671
 20
119.5542955187892
 10
139.6398540220319
 20
120.2117202739064
 10
138.9265591588255
 20
120.9320287138397
 10
138.4415329446808
 20
121.6983374192622
 10
138.1961439829683
 20
122.4926847636121
 10
138.1653348953975
 20
122.8945683410036
  0
SPLINE
  5
140
330
1F
100
AcDbEntity
  8
0
  6
Continuous
 62
     7
370
    25
100
AcDbSpline
210
0.0
220
0.0
230
1.0
 70
     8
 71
     3
 72
    14
 73
    10
 74
     0
 42
0.000000001
 43
0.00000001
 40
0.0
 40
0.0
 40
0.0
 40
0.0
 40
0.1498045513290167
 40
0.299609102658033
 40
0.449413653987049
 40
0.5992182053160605
 40
0.7490227566450821
 40
0.8988273079740989
 40
1.0
 40
1.0
 40
1.0
 40
1.0
 10
153.1404485031135
 20
117.4327866112227
 30
0.0
 10
152.720153683026
 20
117.1994120688733
 30
0.0
 10
151.8795640428512
 20
116.7326629841744
 30
0.0
 10
150.120701986212
 20
116.3471328632552
 30
0.0
 10
148.2356137874963
 20
116.2567916880683
 30
0.0
 10
146.3831491969136
 20
116.487645490627
 30
0.0
 10
144.8134250224626
 20
117.0132544136161
 30
0.0
 10
143.7242024636602
 20
117.6793633438758
 30
0.0
 10
143.4585991328841
 20
118.1873447362068
 30
0.0
 10
143.3515304455942
 20
118.3921196563319
 30
0.0
  0
SPLINE
  5
141
330
1F
100
AcDbEntity
  8
0
  6
Continuous
 62
     7
370
    25
100
AcDbSpline
210
0.0
220
0.0
230
1.0
 70
     8
 71
     3
 72
     9
 73
     5
 74
     0
 42
0.000000001
 43
0.00000001
 40
0.0
 40
0.0
 40
0.0
 40
0.0
 40
0.7392917842116672
 40
1.0
 40
1.0
 40
1.0
 40
1.0
 10
154.0482780894943
 20
118.4528858559772
 30
0.0
 10
153.8931295164031
 20
118.1840096497819
 30
0.0
 10
153.683268435292
 20
117.8203153521618
 30
0.0
 10
153.2527009769534
 20
117.5129256357422
 30
0.0
 10
153.1404485031135
 20
117.4327866112227
 30
0.0
  0
LWPOLYLINE
  5
142
330
1F
100
AcDbEntity
  8
0
  6
Continuous
 62
     7
370
    25
100
AcDbPolyline
 90
       15
 70
   128
 43
0.0
 10
144.0253147431766
 20
93.86794084314754
 10
145.4681909945205
 20
93.55954174932587
 10
146.9897915394164
 20
93.36779734735723
 10
148.552649522546
 20
93.29742902078122
 10
150.1182821935366
 20
93.35016947133731
 10
151.6481384799913
 20
93.52472005409726
 10
153.1045482428358
 20
93.81678275441332
 10
154.451649840162
 20
94.21916601930322
 10
155.6562731598697
 20
94.72196183735181
 10
156.6887563779123
 20
95.31278970683518
 10
157.5236763308461
 20
95.97710148476132
 10
158.1404745184894
 20
96.69853961043329
 10
158.5239633224267
 20
97.4593398828812
 10
158.6646999755787
 20
98.24076887444599
 10
158.6653348953976
 20
98.29711156087176
  0
LWPOLYLINE
  5
143
330
1F
100
AcDbEntity
  8
0
  6
Continuous
 62
     7
370
    25
100
AcDbPolyline
 90
        8
 70
   128
 43
0.0
 10
138.6653348953976
 20
98.29711156087178
 10
138.7714507163286
 20
97.57063791180224
 10
139.1205518818485
 20
96.80570976857483
 10
139.7046772824807
 20
96.07750488715259
 10
140.5094438122605
 20
95.40395408848953
 10
141.5150354483578
 20
94.80164242863565
 10
142.6966911873245
 20
94.2854008196144
 10
144.0253147431766
 20
93.86794084314754
  0
ARC
  5
144
330
1F
100
AcDbEntity
  8
0
  6
Continuous
 62
     7
370
    25
100
AcDbCircle
 10
148.6653348953976
 20
125.9354073981646
 30
0.0
 40
8.571643836777499
100
AcDbArc
 50
250.9102492991664
 51
289.0897507008356
  0
LINE
  5
145
330
1F
100
AcDbEntity
  8
0
  6
Continuous
 62
     7
370
    25
100
AcDbLine
 10
146.6653348953975
 20
258.3746039203006
 30
0.0
 11
150.6653348953975
 21
258.3746039203006
 31
0.0
  0
ARC
  5
146
330
1F
100
AcDbEntity
  8
0
  6
Continuous
 62
     7
370
    25
100
AcDbCircle
 10
148.6653348953975
 20
221.7484008182945
 30
0.0
 40
25.0
100
AcDbArc
 50
294.8345874897025
 51
76.24065788156484
  0
ARC
  5
147
330
1F
100
AcDbEntity
  8
0
  6
Continuous
 62
     7
370
    25
100
AcDbCircle
 10
148.6653348953975
 20
221.7484008182945
 30
0.0
 40
25.00000000000001
100
AcDbArc
 50
94.58856573578583
 51
245.1654125102993
  0
LWPOLYLINE
  5
148
330
1F
100
AcDbEntity
  8
0
  6
Continuous
 62
     7
370
    25
100
AcDbPolyline
 90
        3
 70
   128
 43
0.0
 10
150.6653348953975
 20
246.6682724070487
 10
152.1641295810916
 20
246.5023587997439
 10
154.6114415752839
 20
246.0309833694032
  0
SPLINE
  5
149
330
1F
100
AcDbEntity
  8
0
  6
Continuous
 62
     8
370
    18
100
AcDbSpline
210
0.0
220
0.0
230
1.0
 70
     8
 71
     3
 72
    22
 73
    18
 74
     0
 42
0.000000001
 43
0.00000001
 40
0.0
 40
0.0
 40
0.0
 40
0.0
 40
0.1250000000000001
 40
0.1250000000000001
 40
0.2500000000000002
 40
0.2500000000000002
 40
0.3750000000000002
 40
0.3750000000000002
 40
0.5000000000000002
 40
0.5000000000000002
 40
0.6250000000000002
 40
0.6250000000000002
 40
0.7500000000000001
 40
0.7500000000000001
 40
0.8750000000000001
 40
0.8750000000000001
 40
1.0
 40
1.0
 40
1.0
 40
1.0
 10
144.9653348953975
 20
202.3953871154638
 30
0.0
 10
144.9653348953975
 20
202.5723344876101
 30
0.0
 10
144.9642061751504
 20
202.7492362939039
 30
0.0
 10
144.9402998928692
 20
203.1021659539461
 30
0.0
 10
144.9182341707149
 20
203.2782225443021
 30
0.0
 10
144.8440568439613
 20
203.6291227882809
 30
0.0
 10
144.7922306932535
 20
203.8016016194967
 30
0.0
 10
144.6557069447905
 20
204.1305033984576
 30
0.0
 10
144.5694445298487
 20
204.2898969870107
 30
0.0
 10
144.3643025416456
 20
204.5835327314042
 30
0.0
 10
144.2466581334872
 20
204.716885397067
 30
0.0
 10
143.9843595813939
 20
204.9594627060821
 30
0.0
 10
143.8394061766109
 20
205.0684553972825
 30
0.0
 10
143.5394364362344
 20
205.2577559989846
 30
0.0
 10
143.382779168372
 20
205.33949580567
 30
0.0
 10
143.0595788396357
 20
205.4838472916084
 30
0.0
 10
142.8923710475292
 20
205.5451727752359
 30
0.0
 10
142.7252528006914
 20
205.6066715209685
 30
0.0
  0
ARC
  5
14A
330
1F
100
AcDbEntity
  8
0
  6
Continuous
 62
     8
370
    18
100
AcDbCircle
 10
148.6653348953975
 20
221.7484008182945
 30
0.0
 40
17.19999999999999
100
AcDbArc
 50
290.2033829340738
 51
249.7966170659279
  0
SPLINE
  5
14B
330
1F
100
AcDbEntity
  8
0
  6
Continuous
 62
     8
370
    18
100
AcDbSpline
210
0.0
220
0.0
230
1.0
 70
     8
 71
     3
 72
    22
 73
    18
 74
     0
 42
0.000000001
 43
0.00000001
 40
0.0
 40
0.0
 40
0.0
 40
0.0
 40
0.1250000000000001
 40
0.1250000000000001
 40
0.2500000000000001
 40
0.2500000000000001
 40
0.3750000000000002
 40
0.3750000000000002
 40
0.5000000000000002
 40
0.5000000000000002
 40
0.6250000000000002
 40
0.6250000000000002
 40
0.7500000000000002
 40
0.7500000000000002
 40
0.8750000000000001
 40
0.8750000000000001
 40
1.0
 40
1.0
 40
1.0
 40
1.0
 10
154.6054169901037
 20
205.6066715209685
 30
0.0
 10
154.4394405259451
 20
205.5455929460073
 30
0.0
 10
154.2733675820853
 20
205.4847472747883
 30
0.0
 10
153.9504586133326
 20
205.3407578430582
 30
0.0
 10
153.7930857585006
 20
205.2589099997205
 30
0.0
 10
153.4898010031591
 20
205.0675473622178
 30
0.0
 10
153.345958074385
 20
204.9591308769722
 30
0.0
 10
153.0844630139969
 20
204.7173089854042
 30
0.0
 10
152.964601072206
 20
204.5813652248088
 30
0.0
 10
152.7597935254237
 20
204.2874814023805
 30
0.0
 10
152.6751988152392
 20
204.1310662227813
 30
0.0
 10
152.5382276392446
 20
203.8010978438951
 30
0.0
 10
152.4862336865963
 20
203.627307639347
 30
0.0
 10
152.4128478739151
 20
203.2801937619499
 30
0.0
 10
152.39064497054
 20
203.104822587639
 30
0.0
 10
152.3665258805771
 20
202.7515402199334
 30
0.0
 10
152.3653348953975
 20
202.5735382269561
 30
0.0
 10
152.3653348953975
 20
202.3953871154638
 30
0.0
  0
LINE
  5
14C
330
1F
100
AcDbEntity
  8
0
  6
Continuous
 62
     8
370
    18
100
AcDbLine
 10
152.3653348953975
 20
132.5484008182945
 30
0.0
 11
152.3653348953975
 21
202.3953871154638
 31
0.0
  0
LINE
  5
14D
330
1F
100
AcDbEntity
  8
0
  6
Continuous
 62
     8
370
    18
100
AcDbLine
 10
144.9653348953975
 20
132.5484008182945
 30
0.0
 11
152.3653348953975
 21
132.5484008182945
 31
0.0
  0
LINE
  5
14E
330
1F
100
AcDbEntity
  8
0
  6
Continuous
 62
     8
370
    18
100
AcDbLine
 10
144.9653348953975
 20
202.3953871154638
 30
0.0
 11
144.9653348953975
 21
132.5484008182945
 31
0.0
  0
LINE
  5
14F
330
1F
100
AcDbEntity
  8
0
  6
Continuous
 62
     8
370
    18
100
AcDbLine
 10
154.8816998782296
 20
204.8558934141161
 30
0.0
 11
154.6054169901037
 21
205.6066715209685
 31
0.0
  0
LINE
  5
150
330
1F
100
AcDbEntity
  8
0
  6
Continuous
 62
     8
370
    18
100
AcDbLine
 10
142.4489699125655
 20
204.8558934141161
 30
0.0
 11
142.7252528006914
 21
205.6066715209685
 31
0.0
  0
LINE
  5
151
330
1F
100
AcDbEntity
  8
0
  6
Continuous
 62
     8
370
    18
100
AcDbLine
 10
153.1653348953975
 20
202.3953871154638
 30
0.0
 11
152.3653348953975
 21
202.3953871154638
 31
0.0
  0
LINE
  5
152
330
1F
100
AcDbEntity
  8
0
  6
Continuous
 62
     8
370
    18
100
AcDbLine
 10
152.3653348953975
 20
132.5484008182945
 30
0.0
 11
153.1653348953975
 21
132.5484008182945
 31
0.0
  0
LINE
  5
153
330
1F
100
AcDbEntity
  8
0
  6
Continuous
 62
     8
370
    18
100
AcDbLine
 10
144.1653348953975
 20
202.3953871154638
 30
0.0
 11
144.9653348953975
 21
202.3953871154638
 31
0.0
  0
LINE
  5
154
330
1F
100
AcDbEntity
  8
0
  6
Continuous
 62
     8
370
    18
100
AcDbLine
 10
144.1653348953975
 20
132.5484008182945
 30
0.0
 11
144.9653348953975
 21
132.5484008182945
 31
0.0
  0
LINE
  5
155
330
1F
100
AcDbEntity
  8
0
  6
Continuous
 62
     8
370
    18
100
AcDbLine
 10
144.9653348953975
 20
131.7484008182945
 30
0.0
 11
144.9653348953975
 21
132.5484008182945
 31
0.0
  0
LINE
  5
156
330
1F
100
AcDbEntity
  8
0
  6
Continuous
 62
     8
370
    18
100
AcDbLine
 10
152.3653348953975
 20
131.7484008182945
 30
0.0
 11
152.3653348953975
 21
132.5484008182945
 31
0.0
  0
LWPOLYLINE
  5
157
330
1F
100
AcDbEntity
  8
0
  6
Continuous
 62
     8
370
    25
100
AcDbPolyline
 90
        8
 70
   128
 43
0.0
 10
144.0253147431766
 20
113.3535124282974
 10
142.6966911873244
 20
113.7709724047643
 10
141.5150354483577
 20
114.2872140137856
 10
140.5094438122604
 20
114.8895256736395
 10
139.7046772824806
 20
115.5630764723026
 10
139.1205518818485
 20
116.2912813537248
 10
138.7714507163286
 20
117.0562094969522
 10
138.6653805748597
 20
117.7675703438668
  0
LWPOLYLINE
  5
158
330
1F
100
AcDbEntity
  8
0
  6
Continuous
 62
     8
370
    25
100
AcDbPolyline
 90
       15
 70
   128
 43
0.0
 10
158.6653333240813
 20
117.7854861052958
 10
158.6646999755787
 20
117.7263404595958
 10
158.5239633224267
 20
116.944911468031
 10
158.1404745184894
 20
116.1841111955831
 10
157.523676330846
 20
115.4626730699111
 10
156.6887563779122
 20
114.798361291985
 10
155.6562731598696
 20
114.2075334225017
 10
154.4516498401619
 20
113.7047376044531
 10
153.1045482428357
 20
113.3023543395632
 10
151.6481384799912
 20
113.0102916392471
 10
150.1182821935364
 20
112.8357410564872
 10
148.5526495225459
 20
112.7830006059311
 10
146.9897915394162
 20
112.8533689325071
 10
145.4681909945204
 20
113.0451133344758
 10
144.0253147431766
 20
113.3535124282974
  0
ARC
  5
159
330
1F
100
AcDbEntity
  8
0
  6
Continuous
 62
     8
370
    18
100
AcDbCircle
 10
148.7557351261569
 20
241.6531637571372
 30
0.0
 40
1.909964615241259
100
AcDbArc
 50
273.6813107237164
 51
358.880080831473
  0
ARC
  5
15A
330
1F
100
AcDbEntity
  8
0
  6
Continuous
 62
     8
370
    18
100
AcDbCircle
 10
148.5848693992481
 20
241.6626640017692
 30
0.0
 40
1.920105677626851
100
AcDbArc
 50
181.3975583864703
 51
266.0410500583443
  0
LWPOLYLINE
  5
15B
330
1F
100
AcDbEntity
  8
0
  6
Continuous
 62
     8
370
    18
100
AcDbPolyline
 90
        3
 70
   128
 43
0.0
 10
154.4211661615275
 20
245.2539407277677
 10
152.0136188226402
 20
245.7156491948305
 10
150.6653348953975
 20
245.8656145877165
  0
ARC
  5
15C
330
1F
100
AcDbEntity
  8
0
  6
Continuous
 62
     8
370
    18
100
AcDbCircle
 10
148.6653348953975
 20
221.7484008182945
 30
0.0
 40
24.20000000000001
100
AcDbArc
 50
94.74059535365707
 51
244.2856787748923
  0
ARC
  5
15D
330
1F
100
AcDbEntity
  8
0
  6
Continuous
 62
     8
370
    18
100
AcDbCircle
 10
148.6653348953975
 20
221.7484008182945
 30
0.0
 40
24.20000000000001
100
AcDbArc
 50
295.7143212251094
 51
76.2406578815649
  0
ENDSEC
  0
SECTION
  2
OBJECTS
  0
DICTIONARY
  5
C
330
0
100
AcDbDictionary
281
     1
  3
ACAD_DETAILVIEWSTYLE
350
188
  3
ACAD_GROUP
350
D
  3
ACAD_LAYOUT
350
1A
  3
ACAD_MATERIAL
350
178
  3
ACAD_MLEADERSTYLE
350
17E
  3
ACAD_MLINESTYLE
350
17
  3
ACAD_PLOTSETTINGS
350
19
  3
ACAD_PLOTSTYLENAME
350
E
  3
ACAD_SCALELIST
350
47
  3
ACAD_SECTIONVIEWSTYLE
350
189
  3
ACAD_TABLESTYLE
350
17C
  3
ACAD_VISUALSTYLE
350
15F
  3
ACDB_RECOMPOSE_DATA
350
18C
  3
AcDbVariableDictionary
350
183
  3
APPDATA
350
180
  0
DICTIONARY
  5
181
330
1F
100
AcDbDictionary
280
     1
281
     1
  3
DIM_BOUNDING_BOXES_V1
360
182
  0
DICTIONARY
  5
188
102
{ACAD_REACTORS
330
C
102
}
330
C
100
AcDbDictionary
281
     1
  0
DICTIONARY
  5
D
102
{ACAD_REACTORS
330
C
102
}
330
C
100
AcDbDictionary
281
     1
  0
DICTIONARY
  5
1A
102
{ACAD_REACTORS
330
C
102
}
330
C
100
AcDbDictionary
281
     1
  3
Layout1
350
1E
  3
Layout2
350
26
  3
Model
350
22
  0
DICTIONARY
  5
178
102
{ACAD_REACTORS
330
C
102
}
330
C
100
AcDbDictionary
281
     1
  3
ByBlock
350
17A
  3
ByLayer
350
179
  3
Global
350
17B
  0
DICTIONARY
  5
17E
102
{ACAD_REACTORS
330
C
102
}
330
C
100
AcDbDictionary
281
     1
  3
Standard
350
17F
  0
DICTIONARY
  5
17
102
{ACAD_REACTORS
330
C
102
}
330
C
100
AcDbDictionary
281
     1
  3
Standard
350
18
  0
DICTIONARY
  5
19
102
{ACAD_REACTORS
330
C
102
}
330
C
100
AcDbDictionary
281
     1
  0
ACDBDICTIONARYWDFLT
  5
E
102
{ACAD_REACTORS
330
C
102
}
330
C
100
AcDbDictionary
281
     1
  3
Normal
350
F
100
AcDbDictionaryWithDefault
340
F
  0
DICTIONARY
  5
47
102
{ACAD_REACTORS
330
C
102
}
330
C
100
AcDbDictionary
281
     1
  3
A0
350
48
  3
A1
350
49
  3
A2
350
4A
  3
A3
350
4B
  3
A4
350
4C
  3
A5
350
4D
  3
A6
350
4E
  3
A7
350
4F
  3
A8
350
50
  3
A9
350
51
  3
B0
350
52
  3
B1
350
53
  3
B2
350
54
  3
B3
350
55
  3
B4
350
56
  3
B5
350
57
  3
B6
350
58
  3
B7
350
59
  3
B8
350
5A
  3
B9
350
5B
  3
C0
350
5C
  3
C1
350
5D
  3
C2
350
5E
  3
C3
350
5F
  3
C4
350
60
  3
C5
350
61
  3
C6
350
62
  3
C7
350
63
  3
C8
350
64
  3
C9
350
65
  3
D0
350
66
  3
D1
350
67
  3
D2
350
68
  0
DICTIONARY
  5
189
102
{ACAD_REACTORS
330
C
102
}
330
C
100
AcDbDictionary
281
     1
  0
DICTIONARY
  5
17C
102
{ACAD_REACTORS
330
C
102
}
330
C
100
AcDbDictionary
281
     1
  3
Standard
350
17D
  0
DICTIONARY
  5
15F
102
{ACAD_REACTORS
330
C
102
}
330
C
100
AcDbDictionary
281
     1
  3
2dWireframe
350
164
  3
Basic
350
167
  3
Brighten
350
16B
  3
ColorChange
350
16F
  3
Conceptual
350
169
  3
Dim
350
16A
  3
EdgeColorOff
350
172
  3
Facepattern
350
16E
  3
Flat
350
160
  3
FlatWithEdges
350
161
  3
Gouraud
350
162
  3
GouraudWithEdges
350
163
  3
Hidden
350
166
  3
JitterOff
350
170
  3
Linepattern
350
16D
  3
OverhangOff
350
171
  3
Realistic
350
168
  3
Shaded
350
177
  3
Shaded with edges
350
176
  3
Shades of Gray
350
173
  3
Sketchy
350
174
  3
Thicken
350
16C
  3
Wireframe
350
165
  3
X-Ray
350
175
  0
XRECORD
  5
18C
102
{ACAD_REACTORS
330
C
102
}
330
C
100
AcDbXrecord
280
     1
 90
        1
330
17D
  0
DICTIONARY
  5
183
102
{ACAD_REACTORS
330
C
102
}
330
C
100
AcDbDictionary
281
     1
  3
CANNOSCALE
350
184
  3
CMLEADERSTYLE
350
186
  3
CTABLESTYLE
350
185
  3
MSLTSCALE
350
187
  0
DICTIONARY
  5
180
102
{ACAD_REACTORS
330
C
102
}
330
C
100
AcDbDictionary
281
     1
  0
DICTIONARY
  5
182
102
{ACAD_REACTORS
330
181
102
}
330
181
100
AcDbDictionary
281
     1
  0
LAYOUT
  5
1E
102
{ACAD_REACTORS
330
1A
102
}
330
1A
100
AcDbPlotSettings
  1

  2
none_device
  4

  6

 40
0.0
 41
0.0
 42
0.0
 43
0.0
 44
0.0
 45
0.0
 46
0.0
 47
0.0
 48
0.0
 49
0.0
140
0.0
141
0.0
142
1.0
143
1.0
 70
   688
 72
     1
 73
     0
 74
     5
  7

 75
    16
 76
     0
 77
     2
 78
   300
147
1.0
148
0.0
149
0.0
100
AcDbLayout
  1
Layout1
 70
     1
 71
     1
 10
0.0
 20
0.0
 11
420.0
 21
297.0
 12
0.0
 22
0.0
 32
0.0
 14
1.000000000000000E+20
 24
1.000000000000000E+20
 34
1.000000000000000E+20
 15
-1.000000000000000E+20
 25
-1.000000000000000E+20
 35
-1.000000000000000E+20
146
0.0
 13
0.0
 23
0.0
 33
0.0
 16
1.0
 26
0.0
 36
0.0
 17
0.0
 27
1.0
 37
0.0
 76
     0
330
1B
  0
LAYOUT
  5
26
102
{ACAD_REACTORS
330
1A
102
}
330
1A
100
AcDbPlotSettings
  1

  2
none_device
  4

  6

 40
0.0
 41
0.0
 42
0.0
 43
0.0
 44
0.0
 45
0.0
 46
0.0
 47
0.0
 48
0.0
 49
0.0
140
0.0
141
0.0
142
1.0
143
1.0
 70
   688
 72
     1
 73
     0
 74
     5
  7

 75
    16
 76
     0
 77
     2
 78
   300
147
1.0
148
0.0
149
0.0
100
AcDbLayout
  1
Layout2
 70
     1
 71
     2
 10
0.0
 20
0.0
 11
0.0
 21
0.0
 12
0.0
 22
0.0
 32
0.0
 14
0.0
 24
0.0
 34
0.0
 15
0.0
 25
0.0
 35
0.0
146
0.0
 13
0.0
 23
0.0
 33
0.0
 16
1.0
 26
0.0
 36
0.0
 17
0.0
 27
1.0
 37
0.0
 76
     0
330
23
  0
LAYOUT
  5
22
102
{ACAD_REACTORS
330
1A
102
}
330
1A
100
AcDbPlotSettings
  1

  2
none_device
  4
Letter_(8.50_x_11.00_Inches)
  6

 40
6.35
 41
6.35
 42
6.35000508
 43
6.35000508
 44
215.9
 45
279.4
 46
0.0
 47
0.0
 48
0.0
 49
0.0
140
0.0
141
0.0
142
1.0
143
1.0
 70
  1712
 72
     1
 73
     0
 74
     0
  7

 75
     0
 76
     0
 77
     2
 78
   300
147
1.0
148
0.0
149
0.0
100
AcDbLayout
  1
Model
 70
     1
 71
     0
 10
0.0
 20
0.0
 11
594.0
 21
841.0
 12
0.0
 22
0.0
 32
0.0
 14
35.33953329457825
 24
37.46023423127906
 34
0.0
 15
517.6919298245609
 25
484.366569037657
 35
0.0
146
0.0
 13
0.0
 23
0.0
 33
0.0
 16
1.0
 26
0.0
 36
0.0
 17
0.0
 27
1.0
 37
0.0
 76
     0
330
1F
331
29
  0
MATERIAL
  5
17A
102
{ACAD_REACTORS
330
178
102
}
330
178
100
AcDbMaterial
  1
ByBlock
 72
     1
 94
      127
  0
MATERIAL
  5
179
102
{ACAD_REACTORS
330
178
102
}
330
178
100
AcDbMaterial
  1
ByLayer
 72
     1
 94
      127
  0
MATERIAL
  5
17B
102
{ACAD_REACTORS
330
178
102
}
330
178
100
AcDbMaterial
  1
Global
 72
     1
 94
      127
  0
MLEADERSTYLE
  5
17F
102
{ACAD_REACTORS
330
17E
102
}
330
17E
100
AcDbMLeaderStyle
179
     2
170
     2
171
     1
172
     0
 90
        2
 40
0.0
 41
0.0
173
     1
 91
-1056964608
340
14
 92
       -2
290
     1
 42
2.0
291
     1
 43
8.0
  3
Standard
341
0
 44
4.0
300

342
11
174
     1
178
     1
175
     1
176
     0
 93
-1056964608
 45
4.0
292
     0
297
     0
 46
4.0
343
0
 94
-1056964608
 47
1.0
 49
1.0
140
1.0
293
     1
141
0.0
294
     1
177
     0
142
1.0
295
     0
296
     0
143
3.75
271
     0
272
     9
273
     9
298
     0
  0
MLINESTYLE
  5
18
102
{ACAD_REACTORS
330
17
102
}
330
17
100
AcDbMlineStyle
  2
Standard
 70
     0
  3

 62
   256
 51
90.0
 52
90.0
 71
     2
 49
0.5
 62
   256
  6
BYLAYER
 49
-0.5
 62
   256
  6
BYLAYER
  0
ACDBPLACEHOLDER
  5
F
102
{ACAD_REACTORS
330
E
102
}
330
E
  0
SCALE
  5
48
102
{ACAD_REACTORS
330
47
102
}
330
47
100
AcDbScale
 70
     0
300
1:1
140
1.0
141
1.0
290
     1
  0
SCALE
  5
49
102
{ACAD_REACTORS
330
47
102
}
330
47
100
AcDbScale
 70
     0
300
1:2
140
1.0
141
2.0
290
     0
  0
SCALE
  5
4A
102
{ACAD_REACTORS
330
47
102
}
330
47
100
AcDbScale
 70
     0
300
1:4
140
1.0
141
4.0
290
     0
  0
SCALE
  5
4B
102
{ACAD_REACTORS
330
47
102
}
330
47
100
AcDbScale
 70
     0
300
1:5
140
1.0
141
5.0
290
     0
  0
SCALE
  5
4C
102
{ACAD_REACTORS
330
47
102
}
330
47
100
AcDbScale
 70
     0
300
1:8
140
1.0
141
8.0
290
     0
  0
SCALE
  5
4D
102
{ACAD_REACTORS
330
47
102
}
330
47
100
AcDbScale
 70
     0
300
1:10
140
1.0
141
10.0
290
     0
  0
SCALE
  5
4E
102
{ACAD_REACTORS
330
47
102
}
330
47
100
AcDbScale
 70
     0
300
1:16
140
1.0
141
16.0
290
     0
  0
SCALE
  5
4F
102
{ACAD_REACTORS
330
47
102
}
330
47
100
AcDbScale
 70
     0
300
1:20
140
1.0
141
20.0
290
     0
  0
SCALE
  5
50
102
{ACAD_REACTORS
330
47
102
}
330
47
100
AcDbScale
 70
     0
300
1:30
140
1.0
141
30.0
290
     0
  0
SCALE
  5
51
102
{ACAD_REACTORS
330
47
102
}
330
47
100
AcDbScale
 70
     0
300
1:40
140
1.0
141
40.0
290
     0
  0
SCALE
  5
52
102
{ACAD_REACTORS
330
47
102
}
330
47
100
AcDbScale
 70
     0
300
1:50
140
1.0
141
50.0
290
     0
  0
SCALE
  5
53
102
{ACAD_REACTORS
330
47
102
}
330
47
100
AcDbScale
 70
     0
300
1:100
140
1.0
141
100.0
290
     0
  0
SCALE
  5
54
102
{ACAD_REACTORS
330
47
102
}
330
47
100
AcDbScale
 70
     0
300
2:1
140
2.0
141
1.0
290
     0
  0
SCALE
  5
55
102
{ACAD_REACTORS
330
47
102
}
330
47
100
AcDbScale
 70
     0
300
4:1
140
4.0
141
1.0
290
     0
  0
SCALE
  5
56
102
{ACAD_REACTORS
330
47
102
}
330
47
100
AcDbScale
 70
     0
300
8:1
140
8.0
141
1.0
290
     0
  0
SCALE
  5
57
102
{ACAD_REACTORS
330
47
102
}
330
47
100
AcDbScale
 70
     0
300
10:1
140
10.0
141
1.0
290
     0
  0
SCALE
  5
58
102
{ACAD_REACTORS
330
47
102
}
330
47
100
AcDbScale
 70
     0
300
100:1
140
100.0
141
1.0
290
     0
  0
SCALE
  5
59
102
{ACAD_REACTORS
330
47
102
}
330
47
100
AcDbScale
 70
     0
300
1/128" = 1'-0"
140
0.0078125
141
12.0
290
     0
  0
SCALE
  5
5A
102
{ACAD_REACTORS
330
47
102
}
330
47
100
AcDbScale
 70
     0
300
1/64" = 1'-0"
140
0.015625
141
12.0
290
     0
  0
SCALE
  5
5B
102
{ACAD_REACTORS
330
47
102
}
330
47
100
AcDbScale
 70
     0
300
1/32" = 1'-0"
140
0.03125
141
12.0
290
     0
  0
SCALE
  5
5C
102
{ACAD_REACTORS
330
47
102
}
330
47
100
AcDbScale
 70
     0
300
1/16" = 1'-0"
140
0.0625
141
12.0
290
     0
  0
SCALE
  5
5D
102
{ACAD_REACTORS
330
47
102
}
330
47
100
AcDbScale
 70
     0
300
3/32" = 1'-0"
140
0.09375
141
12.0
290
     0
  0
SCALE
  5
5E
102
{ACAD_REACTORS
330
47
102
}
330
47
100
AcDbScale
 70
     0
300
1/8" = 1'-0"
140
0.125
141
12.0
290
     0
  0
SCALE
  5
5F
102
{ACAD_REACTORS
330
47
102
}
330
47
100
AcDbScale
 70
     0
300
3/16" = 1'-0"
140
0.1875
141
12.0
290
     0
  0
SCALE
  5
60
102
{ACAD_REACTORS
330
47
102
}
330
47
100
AcDbScale
 70
     0
300
1/4" = 1'-0"
140
0.25
141
12.0
290
     0
  0
SCALE
  5
61
102
{ACAD_REACTORS
330
47
102
}
330
47
100
AcDbScale
 70
     0
300
3/8" = 1'-0"
140
0.375
141
12.0
290
     0
  0
SCALE
  5
62
102
{ACAD_REACTORS
330
47
102
}
330
47
100
AcDbScale
 70
     0
300
1/2" = 1'-0"
140
0.5
141
12.0
290
     0
  0
SCALE
  5
63
102
{ACAD_REACTORS
330
47
102
}
330
47
100
AcDbScale
 70
     0
300
3/4" = 1'-0"
140
0.75
141
12.0
290
     0
  0
SCALE
  5
64
102
{ACAD_REACTORS
330
47
102
}
330
47
100
AcDbScale
 70
     0
300
1" = 1'-0"
140
1.0
141
12.0
290
     0
  0
SCALE
  5
65
102
{ACAD_REACTORS
330
47
102
}
330
47
100
AcDbScale
 70
     0
300
1-1/2" = 1'-0"
140
1.5
141
12.0
290
     0
  0
SCALE
  5
66
102
{ACAD_REACTORS
330
47
102
}
330
47
100
AcDbScale
 70
     0
300
3" = 1'-0"
140
3.0
141
12.0
290
     0
  0
SCALE
  5
67
102
{ACAD_REACTORS
330
47
102
}
330
47
100
AcDbScale
 70
     0
300
6" = 1'-0"
140
6.0
141
12.0
290
     0
  0
SCALE
  5
68
102
{ACAD_REACTORS
330
47
102
}
330
47
100
AcDbScale
 70
     0
300
1'-0" = 1'-0"
140
12.0
141
12.0
290
     0
  0
TABLESTYLE
  5
17D
102
{ACAD_REACTORS
330
17C
102
}
102
{ACAD_XDICTIONARY
360
18A
102
}
330
17C
100
AcDbTableStyle
  3
Standard
 70
     0
 71
     0
 40
0.06
 41
0.06
280
     0
281
     0
  7
Standard
140
4.5
170
     2
 62
     0
 63
   257
283
     0
 90
        4
 91
        0
  1

274
    -2
284
     1
 64
     0
275
    -2
285
     1
 65
     0
276
    -2
286
     1
 66
     0
277
    -2
287
     1
 67
     0
278
    -2
288
     1
 68
     0
279
    -2
289
     1
 69
     0
  7
Standard
140
6.0
170
     5
 62
     0
 63
   257
283
     0
 90
        4
 91
        0
  1

274
    -2
284
     1
 64
     0
275
    -2
285
     1
 65
     0
276
    -2
286
     1
 66
     0
277
    -2
287
     1
 67
     0
278
    -2
288
     1
 68
     0
279
    -2
289
     1
 69
     0
  7
Standard
140
4.5
170
     5
 62
     0
 63
   257
283
     0
 90
        4
 91
        0
  1

274
    -2
284
     1
 64
     0
275
    -2
285
     1
 65
     0
276
    -2
286
     1
 66
     0
277
    -2
287
     1
 67
     0
278
    -2
288
     1
 68
     0
279
    -2
289
     1
 69
     0
  0
VISUALSTYLE
  5
164
102
{ACAD_REACTORS
330
15F
102
}
330
15F
100
AcDbVisualStyle
  2
2dWireframe
 70
     4
177
     3
291
     0
 70
    58
 90
        0
176
     1
 90
        2
176
     1
 90
        0
176
     1
 90
        0
176
     1
 40
0.6
176
     1
 40
30.0
176
     1
 62
     7
420
 16777215
176
     1
 90
        1
176
     1
 90
        4
176
     1
 62
     7
176
     1
 62
   257
176
     1
 90
        1
176
     1
 90
        1
176
     1
 40
1.0
176
     1
 90
        0
176
     1
 62
   257
176
     1
 40
1.0
176
     1
 90
        1
176
     1
 90
        6
176
     1
 90
        2
176
     1
 62
     7
176
     1
 90
        5
176
     1
 90
        0
176
     1
 90
        0
176
     1
290
     0
176
     1
 90
        1
176
     1
 40
0.0
176
     1
 90
        0
176
     1
290
     1
176
     1
290
     1
176
     1
290
     0
176
     1
290
     0
176
     1
290
     0
176
     1
290
     0
176
     1
290
     0
176
     1
290
     0
176
     1
290
     0
176
     1
 90
       50
176
     1
 40
0.0
176
     1
 40
1.0
176
     1
 90
        0
176
     1
 62
    18
420
        0
176
     1
 90
       50
176
     1
 90
        3
176
     1
 62
     5
420
      255
176
     1
290
     0
176
     1
 90
       50
176
     1
 90
       50
176
     1
 90
       50
176
     1
290
     0
176
     1
 90
       50
176
     1
 62
   256
176
     0
 40
1.0
176
     0
 90
        2
176
     1
  1
strokes_ogs.tif
176
     1
290
     0
176
     1
 40
1.0
176
     1
 40
1.0
176
     1
  0
VISUALSTYLE
  5
167
102
{ACAD_REACTORS
330
15F
102
}
330
15F
100
AcDbVisualStyle
  2
Basic
 70
     7
177
     3
291
     1
 70
    58
 90
        1
176
     1
 90
        0
176
     1
 90
        1
176
     1
 90
        0
176
     1
 40
0.6
176
     1
 40
30.0
176
     1
 62
     7
420
 16777215
176
     1
 90
        0
176
     1
 90
        4
176
     1
 62
     7
176
     1
 62
   257
176
     1
 90
        1
176
     1
 90
        1
176
     1
 40
1.0
176
     1
 90
        8
176
     1
 62
     7
176
     1
 40
1.0
176
     1
 90
        1
176
     1
 90
        6
176
     1
 90
        2
176
     1
 62
     7
176
     1
 90
        5
176
     1
 90
        0
176
     1
 90
        0
176
     1
290
     0
176
     1
 90
        1
176
     1
 40
0.0
176
     1
 90
        0
176
     1
290
     0
176
     1
290
     1
176
     1
290
     1
176
     1
290
     0
176
     1
290
     0
176
     1
290
     0
176
     1
290
     0
176
     1
290
     0
176
     1
290
     0
176
     1
 90
       50
176
     1
 40
0.0
176
     1
 40
1.0
176
     1
 90
        0
176
     1
 62
    18
420
        0
176
     1
 90
       50
176
     1
 90
        3
176
     1
 62
     5
420
      255
176
     1
290
     0
176
     1
 90
       50
176
     1
 90
       50
176
     1
 90
       50
176
     1
290
     0
176
     1
 90
       50
176
     1
 62
   256
176
     0
 40
1.0
176
     0
 90
        2
176
     1
  1
strokes_ogs.tif
176
     1
290
     0
176
     1
 40
1.0
176
     1
 40
1.0
176
     1
  0
VISUALSTYLE
  5
16B
102
{ACAD_REACTORS
330
15F
102
}
330
15F
100
AcDbVisualStyle
  2
Brighten
 70
    12
177
     3
291
     1
 70
    58
 90
        2
176
     1
 90
        2
176
     1
 90
        0
176
     1
 90
        0
176
     1
 40
0.6
176
     1
 40
30.0
176
     1
 62
     7
420
 16777215
176
     1
 90
        1
176
     1
 90
        4
176
     1
 62
     7
176
     1
 62
   257
176
     1
 90
        1
176
     1
 90
        1
176
     1
 40
1.0
176
     1
 90
        8
176
     1
 62
     7
176
     1
 40
1.0
176
     1
 90
        1
176
     1
 90
        6
176
     1
 90
        2
176
     1
 62
     7
176
     1
 90
        5
176
     1
 90
        0
176
     1
 90
        0
176
     1
290
     0
176
     1
 90
        1
176
     1
 40
50.0
176
     1
 90
        0
176
     1
290
     0
176
     1
290
     1
176
     1
290
     1
176
     1
290
     0
176
     1
290
     0
176
     1
290
     0
176
     1
290
     0
176
     1
290
     0
176
     1
290
     0
176
     1
 90
       50
176
     1
 40
0.0
176
     1
 40
1.0
176
     1
 90
        0
176
     1
 62
    18
420
        0
176
     1
 90
       50
176
     1
 90
        3
176
     1
 62
     5
420
      255
176
     1
290
     0
176
     1
 90
       50
176
     1
 90
       50
176
     1
 90
       50
176
     1
290
     0
176
     1
 90
       50
176
     1
 62
   256
176
     0
 40
1.0
176
     0
 90
        2
176
     1
  1
strokes_ogs.tif
176
     1
290
     0
176
     1
 40
1.0
176
     1
 40
1.0
176
     1
  0
VISUALSTYLE
  5
16F
102
{ACAD_REACTORS
330
15F
102
}
330
15F
100
AcDbVisualStyle
  2
ColorChange
 70
    16
177
     3
291
     1
 70
    58
 90
        2
176
     1
 90
        2
176
     1
 90
        3
176
     1
 90
        0
176
     1
 40
0.6
176
     1
 40
30.0
176
     1
 62
     8
420
  8421504
176
     1
 90
        1
176
     1
 90
        4
176
     1
 62
     7
176
     1
 62
   257
176
     1
 90
        1
176
     1
 90
        1
176
     1
 40
1.0
176
     1
 90
        8
176
     1
 62
     8
420
  8421504
176
     1
 40
1.0
176
     1
 90
        1
176
     1
 90
        6
176
     1
 90
        2
176
     1
 62
     7
176
     1
 90
        5
176
     1
 90
        0
176
     1
 90
        0
176
     1
290
     0
176
     1
 90
        1
176
     1
 40
0.0
176
     1
 90
        0
176
     1
290
     0
176
     1
290
     1
176
     1
290
     1
176
     1
290
     0
176
     1
290
     0
176
     1
290
     0
176
     1
290
     0
176
     1
290
     0
176
     1
290
     0
176
     1
 90
       50
176
     1
 40
0.0
176
     1
 40
1.0
176
     1
 90
        0
176
     1
 62
    18
420
        0
176
     1
 90
       50
176
     1
 90
        3
176
     1
 62
     5
420
      255
176
     1
290
     0
176
     1
 90
       50
176
     1
 90
       50
176
     1
 90
       50
176
     1
290
     0
176
     1
 90
       50
176
     1
 62
   256
176
     0
 40
1.0
176
     0
 90
        2
176
     1
  1
strokes_ogs.tif
176
     1
290
     0
176
     1
 40
1.0
176
     1
 40
1.0
176
     1
  0
VISUALSTYLE
  5
169
102
{ACAD_REACTORS
330
15F
102
}
330
15F
100
AcDbVisualStyle
  2
Conceptual
 70
     9
177
     3
291
     0
 70
    58
 90
        3
176
     1
 90
        2
176
     1
 90
        0
176
     1
 90
        0
176
     1
 40
0.6
176
     1
 40
30.0
176
     1
 62
     7
420
 16777215
176
     1
 90
        2
176
     1
 90
        2
176
     1
 62
     7
176
     1
 62
   257
176
     1
 90
        1
176
     1
 90
        1
176
     1
 40
179.0
176
     1
 90
        8
176
     1
 62
     7
176
     1
 40
1.0
176
     1
 90
        1
176
     1
 90
        6
176
     1
 90
        2
176
     1
 62
     7
176
     1
 90
        3
176
     1
 90
        0
176
     1
 90
        0
176
     1
290
     0
176
     1
 90
        1
176
     1
 40
0.0
176
     1
 90
        0
176
     1
290
     0
176
     1
290
     1
176
     1
290
     1
176
     1
290
     0
176
     1
290
     0
176
     1
290
     0
176
     1
290
     0
176
     1
290
     0
176
     1
290
     0
176
     1
 90
       50
176
     1
 40
0.0
176
     1
 40
1.0
176
     1
 90
        0
176
     1
 62
    18
420
        0
176
     1
 90
       50
176
     1
 90
        3
176
     1
 62
     5
420
      255
176
     1
290
     0
176
     1
 90
       50
176
     1
 90
       50
176
     1
 90
       50
176
     1
290
     0
176
     1
 90
       50
176
     1
 62
   256
176
     0
 40
1.0
176
     0
 90
        2
176
     1
  1
strokes_ogs.tif
176
     1
290
     0
176
     1
 40
1.0
176
     1
 40
1.0
176
     1
  0
VISUALSTYLE
  5
16A
102
{ACAD_REACTORS
330
15F
102
}
330
15F
100
AcDbVisualStyle
  2
Dim
 70
    11
177
     3
291
     1
 70
    58
 90
        2
176
     1
 90
        2
176
     1
 90
        0
176
     1
 90
        0
176
     1
 40
0.6
176
     1
 40
30.0
176
     1
 62
     7
420
 16777215
176
     1
 90
        1
176
     1
 90
        4
176
     1
 62
     7
176
     1
 62
   257
176
     1
 90
        1
176
     1
 90
        1
176
     1
 40
1.0
176
     1
 90
        8
176
     1
 62
     7
176
     1
 40
1.0
176
     1
 90
        1
176
     1
 90
        6
176
     1
 90
        2
176
     1
 62
     7
176
     1
 90
        5
176
     1
 90
        0
176
     1
 90
        0
176
     1
290
     0
176
     1
 90
        1
176
     1
 40
-50.0
176
     1
 90
        0
176
     1
290
     0
176
     1
290
     1
176
     1
290
     1
176
     1
290
     0
176
     1
290
     0
176
     1
290
     0
176
     1
290
     0
176
     1
290
     0
176
     1
290
     0
176
     1
 90
       50
176
     1
 40
0.0
176
     1
 40
1.0
176
     1
 90
        0
176
     1
 62
    18
420
        0
176
     1
 90
       50
176
     1
 90
        3
176
     1
 62
     5
420
      255
176
     1
290
     0
176
     1
 90
       50
176
     1
 90
       50
176
     1
 90
       50
176
     1
290
     0
176
     1
 90
       50
176
     1
 62
   256
176
     0
 40
1.0
176
     0
 90
        2
176
     1
  1
strokes_ogs.tif
176
     1
290
     0
176
     1
 40
1.0
176
     1
 40
1.0
176
     1
  0
VISUALSTYLE
  5
172
102
{ACAD_REACTORS
330
15F
102
}
330
15F
100
AcDbVisualStyle
  2
EdgeColorOff
 70
    22
177
     3
291
     1
 70
    58
 90
        2
176
     0
 90
        2
176
     0
 90
        0
176
     0
 90
        0
176
     0
 40
0.6
176
     0
 40
30.0
176
     0
 62
     7
420
 16777215
176
     0
 90
        1
176
     0
 90
        4
176
     0
 62
     7
176
     0
 62
   257
176
     0
 90
        1
176
     0
 90
        1
176
     0
 40
1.0
176
     0
 90
        8
176
     2
 62
     7
176
     0
 40
1.0
176
     0
 90
        1
176
     0
 90
        6
176
     0
 90
        2
176
     0
 62
     7
176
     0
 90
        5
176
     0
 90
        0
176
     0
 90
        0
176
     0
290
     0
176
     0
 90
        1
176
     0
 40
0.0
176
     0
 90
        0
176
     0
290
     0
176
     0
290
     1
176
     0
290
     1
176
     0
290
     0
176
     0
290
     0
176
     0
290
     0
176
     0
290
     0
176
     0
290
     0
176
     0
290
     0
176
     0
 90
       50
176
     0
 40
0.0
176
     0
 40
1.0
176
     0
 90
        0
176
     0
 62
    18
420
        0
176
     0
 90
       50
176
     0
 90
        3
176
     0
 62
     5
420
      255
176
     0
290
     0
176
     0
 90
       50
176
     0
 90
       50
176
     0
 90
       50
176
     0
290
     0
176
     0
 90
       50
176
     0
 62
   256
176
     0
 40
1.0
176
     0
 90
        2
176
     0
  1
strokes_ogs.tif
176
     0
290
     0
176
     0
 40
1.0
176
     0
 40
1.0
176
     0
  0
VISUALSTYLE
  5
16E
102
{ACAD_REACTORS
330
15F
102
}
330
15F
100
AcDbVisualStyle
  2
Facepattern
 70
    15
177
     3
291
     1
 70
    58
 90
        2
176
     1
 90
        2
176
     1
 90
        0
176
     1
 90
        0
176
     1
 40
0.6
176
     1
 40
30.0
176
     1
 62
     7
420
 16777215
176
     1
 90
        1
176
     1
 90
        4
176
     1
 62
     7
176
     1
 62
   257
176
     1
 90
        1
176
     1
 90
        1
176
     1
 40
1.0
176
     1
 90
        8
176
     1
 62
     7
176
     1
 40
1.0
176
     1
 90
        1
176
     1
 90
        6
176
     1
 90
        2
176
     1
 62
     7
176
     1
 90
        5
176
     1
 90
        0
176
     1
 90
        0
176
     1
290
     0
176
     1
 90
        1
176
     1
 40
0.0
176
     1
 90
        0
176
     1
290
     0
176
     1
290
     1
176
     1
290
     1
176
     1
290
     0
176
     1
290
     0
176
     1
290
     0
176
     1
290
     0
176
     1
290
     0
176
     1
290
     0
176
     1
 90
       50
176
     1
 40
0.0
176
     1
 40
1.0
176
     1
 90
        0
176
     1
 62
    18
420
        0
176
     1
 90
       50
176
     1
 90
        3
176
     1
 62
     5
420
      255
176
     1
290
     0
176
     1
 90
       50
176
     1
 90
       50
176
     1
 90
       50
176
     1
290
     0
176
     1
 90
       50
176
     1
 62
   256
176
     0
 40
1.0
176
     0
 90
        2
176
     1
  1
strokes_ogs.tif
176
     1
290
     0
176
     1
 40
1.0
176
     1
 40
1.0
176
     1
  0
VISUALSTYLE
  5
160
102
{ACAD_REACTORS
330
15F
102
}
330
15F
100
AcDbVisualStyle
  2
Flat
 70
     0
177
     3
291
     1
 70
    58
 90
        2
176
     1
 90
        1
176
     1
 90
        1
176
     1
 90
        2
176
     1
 40
0.6
176
     1
 40
30.0
176
     1
 62
     7
420
 16777215
176
     1
 90
        0
176
     1
 90
        0
176
     1
 62
     7
176
     1
 62
   257
176
     1
 90
        1
176
     1
 90
        1
176
     1
 40
1.0
176
     1
 90
        8
176
     1
 62
     7
176
     1
 40
1.0
176
     1
 90
        1
176
     1
 90
        6
176
     1
 90
        2
176
     1
 62
     7
176
     1
 90
        5
176
     1
 90
        0
176
     1
 90
        0
176
     1
290
     0
176
     1
 90
       13
176
     1
 40
0.0
176
     1
 90
        0
176
     1
290
     0
176
     1
290
     1
176
     1
290
     1
176
     1
290
     0
176
     1
290
     0
176
     1
290
     0
176
     1
290
     0
176
     1
290
     0
176
     1
290
     0
176
     1
 90
       50
176
     1
 40
0.0
176
     1
 40
1.0
176
     1
 90
        0
176
     1
 62
    18
420
        0
176
     1
 90
       50
176
     1
 90
        3
176
     1
 62
     5
420
      255
176
     1
290
     0
176
     1
 90
       50
176
     1
 90
       50
176
     1
 90
       50
176
     1
290
     0
176
     1
 90
       50
176
     1
 62
   256
176
     0
 40
1.0
176
     0
 90
        2
176
     1
  1
strokes_ogs.tif
176
     1
290
     0
176
     1
 40
1.0
176
     1
 40
1.0
176
     1
  0
VISUALSTYLE
  5
161
102
{ACAD_REACTORS
330
15F
102
}
330
15F
100
AcDbVisualStyle
  2
FlatWithEdges
 70
     1
177
     3
291
     1
 70
    58
 90
        2
176
     1
 90
        1
176
     1
 90
        1
176
     1
 90
        2
176
     1
 40
0.6
176
     1
 40
30.0
176
     1
 62
     7
420
 16777215
176
     1
 90
        1
176
     1
 90
        0
176
     1
 62
     7
176
     1
 62
   257
176
     1
 90
        1
176
     1
 90
        1
176
     1
 40
1.0
176
     1
 90
        0
176
     1
 62
   257
176
     1
 40
1.0
176
     1
 90
        1
176
     1
 90
        6
176
     1
 90
        2
176
     1
 62
     7
176
     1
 90
        5
176
     1
 90
        0
176
     1
 90
        0
176
     1
290
     0
176
     1
 90
       13
176
     1
 40
0.0
176
     1
 90
        0
176
     1
290
     0
176
     1
290
     1
176
     1
290
     1
176
     1
290
     0
176
     1
290
     0
176
     1
290
     0
176
     1
290
     0
176
     1
290
     0
176
     1
290
     0
176
     1
 90
       50
176
     1
 40
0.0
176
     1
 40
1.0
176
     1
 90
        0
176
     1
 62
    18
420
        0
176
     1
 90
       50
176
     1
 90
        3
176
     1
 62
     5
420
      255
176
     1
290
     0
176
     1
 90
       50
176
     1
 90
       50
176
     1
 90
       50
176
     1
290
     0
176
     1
 90
       50
176
     1
 62
   256
176
     0
 40
1.0
176
     0
 90
        2
176
     1
  1
strokes_ogs.tif
176
     1
290
     0
176
     1
 40
1.0
176
     1
 40
1.0
176
     1
  0
VISUALSTYLE
  5
162
102
{ACAD_REACTORS
330
15F
102
}
330
15F
100
AcDbVisualStyle
  2
Gouraud
 70
     2
177
     3
291
     1
 70
    58
 90
        2
176
     1
 90
        2
176
     1
 90
        1
176
     1
 90
        2
176
     1
 40
0.6
176
     1
 40
30.0
176
     1
 62
     7
420
 16777215
176
     1
 90
        0
176
     1
 90
        0
176
     1
 62
     7
176
     1
 62
   257
176
     1
 90
        1
176
     1
 90
        1
176
     1
 40
1.0
176
     1
 90
        0
176
     1
 62
     7
176
     1
 40
1.0
176
     1
 90
        1
176
     1
 90
        6
176
     1
 90
        2
176
     1
 62
     7
176
     1
 90
        5
176
     1
 90
        0
176
     1
 90
        0
176
     1
290
     0
176
     1
 90
       13
176
     1
 40
0.0
176
     1
 90
        0
176
     1
290
     0
176
     1
290
     1
176
     1
290
     1
176
     1
290
     0
176
     1
290
     0
176
     1
290
     0
176
     1
290
     0
176
     1
290
     0
176
     1
290
     0
176
     1
 90
       50
176
     1
 40
0.0
176
     1
 40
1.0
176
     1
 90
        0
176
     1
 62
    18
420
        0
176
     1
 90
       50
176
     1
 90
        3
176
     1
 62
     5
420
      255
176
     1
290
     0
176
     1
 90
       50
176
     1
 90
       50
176
     1
 90
       50
176
     1
290
     0
176
     1
 90
       50
176
     1
 62
   256
176
     0
 40
1.0
176
     0
 90
        2
176
     1
  1
strokes_ogs.tif
176
     1
290
     0
176
     1
 40
1.0
176
     1
 40
1.0
176
     1
  0
VISUALSTYLE
  5
163
102
{ACAD_REACTORS
330
15F
102
}
330
15F
100
AcDbVisualStyle
  2
GouraudWithEdges
 70
     3
177
     3
291
     1
 70
    58
 90
        2
176
     1
 90
        2
176
     1
 90
        1
176
     1
 90
        2
176
     1
 40
0.6
176
     1
 40
30.0
176
     1
 62
     7
420
 16777215
176
     1
 90
        1
176
     1
 90
        0
176
     1
 62
     7
176
     1
 62
   257
176
     1
 90
        1
176
     1
 90
        1
176
     1
 40
1.0
176
     1
 90
        0
176
     1
 62
   257
176
     1
 40
1.0
176
     1
 90
        1
176
     1
 90
        6
176
     1
 90
        2
176
     1
 62
     7
176
     1
 90
        5
176
     1
 90
        0
176
     1
 90
        0
176
     1
290
     0
176
     1
 90
       13
176
     1
 40
0.0
176
     1
 90
        0
176
     1
290
     0
176
     1
290
     1
176
     1
290
     1
176
     1
290
     0
176
     1
290
     0
176
     1
290
     0
176
     1
290
     0
176
     1
290
     0
176
     1
290
     0
176
     1
 90
       50
176
     1
 40
0.0
176
     1
 40
1.0
176
     1
 90
        0
176
     1
 62
    18
420
        0
176
     1
 90
       50
176
     1
 90
        3
176
     1
 62
     5
420
      255
176
     1
290
     0
176
     1
 90
       50
176
     1
 90
       50
176
     1
 90
       50
176
     1
290
     0
176
     1
 90
       50
176
     1
 62
   256
176
     0
 40
1.0
176
     0
 90
        2
176
     1
  1
strokes_ogs.tif
176
     1
290
     0
176
     1
 40
1.0
176
     1
 40
1.0
176
     1
  0
VISUALSTYLE
  5
166
102
{ACAD_REACTORS
330
15F
102
}
330
15F
100
AcDbVisualStyle
  2
Hidden
 70
     6
177
     3
291
     0
 70
    58
 90
        1
176
     1
 90
        2
176
     1
 90
        2
176
     1
 90
        0
176
     1
 40
0.6
176
     1
 40
30.0
176
     1
 62
     7
420
 16777215
176
     1
 90
        2
176
     1
 90
        2
176
     1
 62
     7
176
     1
 62
   257
176
     1
 90
        2
176
     1
 90
        1
176
     1
 40
40.0
176
     1
 90
        0
176
     1
 62
   257
176
     1
 40
1.0
176
     1
 90
        1
176
     1
 90
        6
176
     1
 90
        2
176
     1
 62
     7
176
     1
 90
        3
176
     1
 90
        0
176
     1
 90
        0
176
     1
290
     0
176
     1
 90
        1
176
     1
 40
0.0
176
     1
 90
        0
176
     1
290
     0
176
     1
290
     1
176
     1
290
     1
176
     1
290
     0
176
     1
290
     0
176
     1
290
     0
176
     1
290
     0
176
     1
290
     0
176
     1
290
     0
176
     1
 90
       50
176
     1
 40
0.0
176
     1
 40
1.0
176
     1
 90
        0
176
     1
 62
    18
420
        0
176
     1
 90
       50
176
     1
 90
        3
176
     1
 62
     5
420
      255
176
     1
290
     0
176
     1
 90
       50
176
     1
 90
       50
176
     1
 90
       50
176
     1
290
     0
176
     1
 90
       50
176
     1
 62
   256
176
     0
 40
1.0
176
     0
 90
        2
176
     1
  1
strokes_ogs.tif
176
     1
290
     0
176
     1
 40
1.0
176
     1
 40
1.0
176
     1
  0
VISUALSTYLE
  5
170
102
{ACAD_REACTORS
330
15F
102
}
330
15F
100
AcDbVisualStyle
  2
JitterOff
 70
    20
177
     3
291
     1
 70
    58
 90
        2
176
     0
 90
        2
176
     0
 90
        0
176
     0
 90
        0
176
     0
 40
0.6
176
     0
 40
30.0
176
     0
 62
     7
420
 16777215
176
     0
 90
        1
176
     0
 90
        4
176
     0
 62
     7
176
     0
 62
   257
176
     0
 90
        1
176
     0
 90
        1
176
     0
 40
1.0
176
     0
 90
       10
176
     2
 62
     7
176
     0
 40
1.0
176
     0
 90
        1
176
     0
 90
        6
176
     0
 90
        2
176
     0
 62
     7
176
     0
 90
        5
176
     0
 90
        0
176
     0
 90
        0
176
     0
290
     0
176
     0
 90
        1
176
     0
 40
0.0
176
     0
 90
        0
176
     0
290
     0
176
     0
290
     1
176
     0
290
     1
176
     0
290
     0
176
     0
290
     0
176
     0
290
     0
176
     0
290
     0
176
     0
290
     0
176
     0
290
     0
176
     0
 90
       50
176
     0
 40
0.0
176
     0
 40
1.0
176
     0
 90
        0
176
     0
 62
    18
420
        0
176
     0
 90
       50
176
     0
 90
        3
176
     0
 62
     5
420
      255
176
     0
290
     0
176
     0
 90
       50
176
     0
 90
       50
176
     0
 90
       50
176
     0
290
     0
176
     0
 90
       50
176
     0
 62
   256
176
     0
 40
1.0
176
     0
 90
        2
176
     0
  1
strokes_ogs.tif
176
     0
290
     0
176
     0
 40
1.0
176
     0
 40
1.0
176
     0
  0
VISUALSTYLE
  5
16D
102
{ACAD_REACTORS
330
15F
102
}
330
15F
100
AcDbVisualStyle
  2
Linepattern
 70
    14
177
     3
291
     1
 70
    58
 90
        2
176
     1
 90
        2
176
     1
 90
        0
176
     1
 90
        0
176
     1
 40
0.6
176
     1
 40
30.0
176
     1
 62
     7
420
 16777215
176
     1
 90
        1
176
     1
 90
        4
176
     1
 62
     7
176
     1
 62
   257
176
     1
 90
        7
176
     1
 90
        7
176
     1
 40
1.0
176
     1
 90
        8
176
     1
 62
     7
176
     1
 40
1.0
176
     1
 90
        1
176
     1
 90
        6
176
     1
 90
        2
176
     1
 62
     7
176
     1
 90
        5
176
     1
 90
        0
176
     1
 90
        0
176
     1
290
     0
176
     1
 90
        1
176
     1
 40
0.0
176
     1
 90
        0
176
     1
290
     0
176
     1
290
     1
176
     1
290
     1
176
     1
290
     0
176
     1
290
     0
176
     1
290
     0
176
     1
290
     0
176
     1
290
     0
176
     1
290
     0
176
     1
 90
       50
176
     1
 40
0.0
176
     1
 40
1.0
176
     1
 90
        0
176
     1
 62
    18
420
        0
176
     1
 90
       50
176
     1
 90
        3
176
     1
 62
     5
420
      255
176
     1
290
     0
176
     1
 90
       50
176
     1
 90
       50
176
     1
 90
       50
176
     1
290
     0
176
     1
 90
       50
176
     1
 62
   256
176
     0
 40
1.0
176
     0
 90
        2
176
     1
  1
strokes_ogs.tif
176
     1
290
     0
176
     1
 40
1.0
176
     1
 40
1.0
176
     1
  0
VISUALSTYLE
  5
171
102
{ACAD_REACTORS
330
15F
102
}
330
15F
100
AcDbVisualStyle
  2
OverhangOff
 70
    21
177
     3
291
     1
 70
    58
 90
        2
176
     0
 90
        2
176
     0
 90
        0
176
     0
 90
        0
176
     0
 40
0.6
176
     0
 40
30.0
176
     0
 62
     7
420
 16777215
176
     0
 90
        1
176
     0
 90
        4
176
     0
 62
     7
176
     0
 62
   257
176
     0
 90
        1
176
     0
 90
        1
176
     0
 40
1.0
176
     0
 90
        9
176
     2
 62
     7
176
     0
 40
1.0
176
     0
 90
        1
176
     0
 90
        6
176
     0
 90
        2
176
     0
 62
     7
176
     0
 90
        5
176
     0
 90
        0
176
     0
 90
        0
176
     0
290
     0
176
     0
 90
        1
176
     0
 40
0.0
176
     0
 90
        0
176
     0
290
     0
176
     0
290
     1
176
     0
290
     1
176
     0
290
     0
176
     0
290
     0
176
     0
290
     0
176
     0
290
     0
176
     0
290
     0
176
     0
290
     0
176
     0
 90
       50
176
     0
 40
0.0
176
     0
 40
1.0
176
     0
 90
        0
176
     0
 62
    18
420
        0
176
     0
 90
       50
176
     0
 90
        3
176
     0
 62
     5
420
      255
176
     0
290
     0
176
     0
 90
       50
176
     0
 90
       50
176
     0
 90
       50
176
     0
290
     0
176
     0
 90
       50
176
     0
 62
   256
176
     0
 40
1.0
176
     0
 90
        2
176
     0
  1
strokes_ogs.tif
176
     0
290
     0
176
     0
 40
1.0
176
     0
 40
1.0
176
     0
  0
VISUALSTYLE
  5
168
102
{ACAD_REACTORS
330
15F
102
}
330
15F
100
AcDbVisualStyle
  2
Realistic
 70
     8
177
     3
291
     0
 70
    58
 90
        2
176
     1
 90
        3
176
     1
 90
        0
176
     1
 90
        2
176
     1
 40
0.6
176
     1
 40
30.0
176
     1
 62
     7
420
 16777215
176
     1
 90
        0
176
     1
 90
        0
176
     1
 62
     7
176
     1
 62
   257
176
     1
 90
        1
176
     1
 90
        1
176
     1
 40
1.0
176
     1
 90
        8
176
     1
 62
   257
176
     1
 40
1.0
176
     1
 90
        1
176
     1
 90
        6
176
     1
 90
        2
176
     1
 62
     7
176
     1
 90
        3
176
     1
 90
        0
176
     1
 90
        0
176
     1
290
     0
176
     1
 90
       13
176
     1
 40
0.0
176
     1
 90
        0
176
     1
290
     0
176
     1
290
     1
176
     1
290
     1
176
     1
290
     0
176
     1
290
     0
176
     1
290
     0
176
     1
290
     0
176
     1
290
     0
176
     1
290
     0
176
     1
 90
       50
176
     1
 40
0.0
176
     1
 40
1.0
176
     1
 90
        0
176
     1
 62
    18
420
        0
176
     1
 90
       50
176
     1
 90
        3
176
     1
 62
     5
420
      255
176
     1
290
     0
176
     1
 90
       50
176
     1
 90
       50
176
     1
 90
       50
176
     1
290
     0
176
     1
 90
       50
176
     1
 62
   256
176
     0
 40
1.0
176
     0
 90
        2
176
     1
  1
strokes_ogs.tif
176
     1
290
     0
176
     1
 40
1.0
176
     1
 40
1.0
176
     1
  0
VISUALSTYLE
  5
177
102
{ACAD_REACTORS
330
15F
102
}
330
15F
100
AcDbVisualStyle
  2
Shaded
 70
    27
177
     3
291
     0
 70
    58
 90
        2
176
     1
 90
        2
176
     1
 90
        1
176
     1
 90
        2
176
     1
 40
0.6
176
     1
 40
30.0
176
     1
 62
     7
420
 16777215
176
     1
 90
        0
176
     1
 90
        4
176
     1
 62
     7
176
     1
 62
   257
176
     1
 90
        1
176
     1
 90
        1
176
     1
 40
1.0
176
     1
 90
        8
176
     1
 62
   257
176
     1
 40
1.0
176
     1
 90
        1
176
     1
 90
        6
176
     1
 90
        2
176
     1
 62
     8
420
  7895160
176
     1
 90
        3
176
     1
 90
        0
176
     1
 90
        0
176
     1
290
     0
176
     1
 90
        5
176
     1
 40
0.0
176
     1
 90
        0
176
     1
290
     0
176
     1
290
     1
176
     1
290
     1
176
     1
290
     0
176
     1
290
     0
176
     1
290
     0
176
     1
290
     0
176
     1
290
     0
176
     1
290
     0
176
     1
 90
       50
176
     1
 40
0.0
176
     1
 40
1.0
176
     1
 90
        0
176
     1
 62
    18
420
        0
176
     1
 90
       50
176
     1
 90
        3
176
     1
 62
     5
420
      255
176
     1
290
     0
176
     1
 90
       50
176
     1
 90
       50
176
     1
 90
       50
176
     1
290
     0
176
     1
 90
       50
176
     1
 62
   256
176
     0
 40
1.0
176
     0
 90
        2
176
     1
  1
strokes_ogs.tif
176
     1
290
     0
176
     1
 40
1.0
176
     1
 40
1.0
176
     1
  0
VISUALSTYLE
  5
176
102
{ACAD_REACTORS
330
15F
102
}
330
15F
100
AcDbVisualStyle
  2
Shaded with edges
 70
    26
177
     3
291
     0
 70
    58
 90
        2
176
     1
 90
        2
176
     1
 90
        1
176
     1
 90
        2
176
     1
 40
0.6
176
     1
 40
30.0
176
     1
 62
     7
420
 16777215
176
     1
 90
        1
176
     1
 90
       10
176
     1
 62
     7
176
     1
 62
   257
176
     1
 90
        2
176
     1
 90
        1
176
     1
 40
1.0
176
     1
 90
        8
176
     1
 62
   257
176
     1
 40
1.0
176
     1
 90
        1
176
     1
 90
        6
176
     1
 90
        2
176
     1
 62
     7
176
     1
 90
        3
176
     1
 90
        0
176
     1
 90
        0
176
     1
290
     0
176
     1
 90
        5
176
     1
 40
0.0
176
     1
 90
        0
176
     1
290
     0
176
     1
290
     1
176
     1
290
     1
176
     1
290
     0
176
     1
290
     0
176
     1
290
     0
176
     1
290
     0
176
     1
290
     0
176
     1
290
     0
176
     1
 90
       50
176
     1
 40
0.0
176
     1
 40
1.0
176
     1
 90
        0
176
     1
 62
    18
420
        0
176
     1
 90
       50
176
     1
 90
        3
176
     1
 62
     5
420
      255
176
     1
290
     0
176
     1
 90
       50
176
     1
 90
       50
176
     1
 90
       50
176
     1
290
     0
176
     1
 90
       50
176
     1
 62
   256
176
     0
 40
1.0
176
     0
 90
        2
176
     1
  1
strokes_ogs.tif
176
     1
290
     0
176
     1
 40
1.0
176
     1
 40
1.0
176
     1
  0
VISUALSTYLE
  5
173
102
{ACAD_REACTORS
330
15F
102
}
330
15F
100
AcDbVisualStyle
  2
Shades of Gray
 70
    23
177
     3
291
     0
 70
    58
 90
        2
176
     1
 90
        2
176
     1
 90
        3
176
     1
 90
        0
176
     1
 40
0.6
176
     1
 40
30.0
176
     1
 62
     7
420
 16777215
176
     1
 90
        2
176
     1
 90
        2
176
     1
 62
     7
176
     1
 62
     7
176
     1
 90
        1
176
     1
 90
        1
176
     1
 40
40.0
176
     1
 90
        8
176
     1
 62
     7
176
     1
 40
1.0
176
     1
 90
        1
176
     1
 90
        6
176
     1
 90
        2
176
     1
 62
     7
176
     1
 90
        3
176
     1
 90
        0
176
     1
 90
        0
176
     1
290
     0
176
     1
 90
        1
176
     1
 40
0.0
176
     1
 90
        0
176
     1
290
     0
176
     1
290
     1
176
     1
290
     1
176
     1
290
     0
176
     1
290
     0
176
     1
290
     0
176
     1
290
     0
176
     1
290
     0
176
     1
290
     0
176
     1
 90
       50
176
     1
 40
0.0
176
     1
 40
1.0
176
     1
 90
        0
176
     1
 62
    18
420
        0
176
     1
 90
       50
176
     1
 90
        3
176
     1
 62
     5
420
      255
176
     1
290
     0
176
     1
 90
       50
176
     1
 90
       50
176
     1
 90
       50
176
     1
290
     0
176
     1
 90
       50
176
     1
 62
   256
176
     0
 40
1.0
176
     0
 90
        2
176
     1
  1
strokes_ogs.tif
176
     1
290
     0
176
     1
 40
1.0
176
     1
 40
1.0
176
     1
  0
VISUALSTYLE
  5
174
102
{ACAD_REACTORS
330
15F
102
}
330
15F
100
AcDbVisualStyle
  2
Sketchy
 70
    24
177
     3
291
     0
 70
    58
 90
        1
176
     1
 90
        2
176
     1
 90
        2
176
     1
 90
        0
176
     1
 40
0.6
176
     1
 40
30.0
176
     1
 62
     7
420
 16777215
176
     1
 90
        2
176
     1
 90
        2
176
     1
 62
     7
176
     1
 62
     7
176
     1
 90
        1
176
     1
 90
        1
176
     1
 40
40.0
176
     1
 90
       11
176
     1
 62
     7
176
     1
 40
1.0
176
     1
 90
        1
176
     1
 90
        6
176
     1
 90
        2
176
     1
 62
     7
176
     1
 90
        6
176
     1
 90
        0
176
     1
 90
        0
176
     1
290
     0
176
     1
 90
        1
176
     1
 40
0.0
176
     1
 90
        0
176
     1
290
     0
176
     1
290
     1
176
     1
290
     1
176
     1
290
     0
176
     1
290
     0
176
     1
290
     0
176
     1
290
     0
176
     1
290
     0
176
     1
290
     0
176
     1
 90
       50
176
     1
 40
0.0
176
     1
 40
1.0
176
     1
 90
        0
176
     1
 62
    18
420
        0
176
     1
 90
       50
176
     1
 90
        3
176
     1
 62
     5
420
      255
176
     1
290
     0
176
     1
 90
       50
176
     1
 90
       50
176
     1
 90
       50
176
     1
290
     0
176
     1
 90
       50
176
     1
 62
   256
176
     0
 40
1.0
176
     0
 90
        2
176
     1
  1
strokes_ogs.tif
176
     1
290
     0
176
     1
 40
1.0
176
     1
 40
1.0
176
     1
  0
VISUALSTYLE
  5
16C
102
{ACAD_REACTORS
330
15F
102
}
330
15F
100
AcDbVisualStyle
  2
Thicken
 70
    13
177
     3
291
     1
 70
    58
 90
        2
176
     1
 90
        2
176
     1
 90
        0
176
     1
 90
        0
176
     1
 40
0.6
176
     1
 40
30.0
176
     1
 62
     7
420
 16777215
176
     1
 90
        1
176
     1
 90
        4
176
     1
 62
     7
176
     1
 62
   257
176
     1
 90
        1
176
     1
 90
        1
176
     1
 40
1.0
176
     1
 90
       12
176
     1
 62
     7
176
     1
 40
1.0
176
     1
 90
        1
176
     1
 90
        6
176
     1
 90
        2
176
     1
 62
     7
176
     1
 90
        5
176
     1
 90
        0
176
     1
 90
        0
176
     1
290
     0
176
     1
 90
        1
176
     1
 40
0.0
176
     1
 90
        0
176
     1
290
     0
176
     1
290
     1
176
     1
290
     1
176
     1
290
     0
176
     1
290
     0
176
     1
290
     0
176
     1
290
     0
176
     1
290
     0
176
     1
290
     0
176
     1
 90
       50
176
     1
 40
0.0
176
     1
 40
1.0
176
     1
 90
        0
176
     1
 62
    18
420
        0
176
     1
 90
       50
176
     1
 90
        3
176
     1
 62
     5
420
      255
176
     1
290
     0
176
     1
 90
       50
176
     1
 90
       50
176
     1
 90
       50
176
     1
290
     0
176
     1
 90
       50
176
     1
 62
   256
176
     0
 40
1.0
176
     0
 90
        2
176
     1
  1
strokes_ogs.tif
176
     1
290
     0
176
     1
 40
1.0
176
     1
 40
1.0
176
     1
  0
VISUALSTYLE
  5
165
102
{ACAD_REACTORS
330
15F
102
}
330
15F
100
AcDbVisualStyle
  2
Wireframe
 70
     5
177
     3
291
     0
 70
    58
 90
        0
176
     1
 90
        2
176
     1
 90
        0
176
     1
 90
        0
176
     1
 40
0.6
176
     1
 40
30.0
176
     1
 62
     7
420
 16777215
176
     1
 90
        1
176
     1
 90
        4
176
     1
 62
     7
176
     1
 62
   257
176
     1
 90
        1
176
     1
 90
        1
176
     1
 40
1.0
176
     1
 90
        0
176
     1
 62
   257
176
     1
 40
1.0
176
     1
 90
        1
176
     1
 90
        6
176
     1
 90
        2
176
     1
 62
     7
176
     1
 90
        3
176
     1
 90
        0
176
     1
 90
        0
176
     1
290
     0
176
     1
 90
        1
176
     1
 40
0.0
176
     1
 90
        0
176
     1
290
     0
176
     1
290
     1
176
     1
290
     1
176
     1
290
     0
176
     1
290
     0
176
     1
290
     0
176
     1
290
     0
176
     1
290
     0
176
     1
290
     0
176
     1
 90
       50
176
     1
 40
0.0
176
     1
 40
1.0
176
     1
 90
        0
176
     1
 62
    18
420
        0
176
     1
 90
       50
176
     1
 90
        3
176
     1
 62
     5
420
      255
176
     1
290
     0
176
     1
 90
       50
176
     1
 90
       50
176
     1
 90
       50
176
     1
290
     0
176
     1
 90
       50
176
     1
 62
   256
176
     0
 40
1.0
176
     0
 90
        2
176
     1
  1
strokes_ogs.tif
176
     1
290
     0
176
     1
 40
1.0
176
     1
 40
1.0
176
     1
  0
VISUALSTYLE
  5
175
102
{ACAD_REACTORS
330
15F
102
}
330
15F
100
AcDbVisualStyle
  2
X-Ray
 70
    25
177
     3
291
     0
 70
    58
 90
        2
176
     1
 90
        2
176
     1
 90
        1
176
     1
 90
        1
176
     1
 40
0.5
176
     1
 40
30.0
176
     1
 62
     7
420
 16777215
176
     1
 90
        1
176
     1
 90
        0
176
     1
 62
     7
176
     1
 62
   257
176
     1
 90
        1
176
     1
 90
        1
176
     1
 40
1.0
176
     1
 90
        8
176
     1
 62
     7
176
     1
 40
1.0
176
     1
 90
        1
176
     1
 90
        6
176
     1
 90
        2
176
     1
 62
     7
176
     1
 90
        3
176
     1
 90
        0
176
     1
 90
        0
176
     1
290
     0
176
     1
 90
       13
176
     1
 40
0.0
176
     1
 90
        0
176
     1
290
     0
176
     1
290
     1
176
     1
290
     1
176
     1
290
     0
176
     1
290
     0
176
     1
290
     0
176
     1
290
     0
176
     1
290
     0
176
     1
290
     0
176
     1
 90
       50
176
     1
 40
0.0
176
     1
 40
1.0
176
     1
 90
        0
176
     1
 62
    18
420
        0
176
     1
 90
       50
176
     1
 90
        3
176
     1
 62
     5
420
      255
176
     1
290
     0
176
     1
 90
       50
176
     1
 90
       50
176
     1
 90
       50
176
     1
290
     0
176
     1
 90
       50
176
     1
 62
   256
176
     0
 40
1.0
176
     0
 90
        2
176
     1
  1
strokes_ogs.tif
176
     1
290
     0
176
     1
 40
1.0
176
     1
 40
1.0
176
     1
  0
DICTIONARYVAR
  5
184
102
{ACAD_REACTORS
330
183
102
}
330
183
100
DictionaryVariables
280
     0
  1
1:1
  0
DICTIONARYVAR
  5
186
102
{ACAD_REACTORS
330
183
102
}
330
183
100
DictionaryVariables
280
     0
  1
Standard
  0
DICTIONARYVAR
  5
185
102
{ACAD_REACTORS
330
183
102
}
330
183
100
DictionaryVariables
280
     0
  1
Standard
  0
DICTIONARYVAR
  5
187
102
{ACAD_REACTORS
330
183
102
}
330
183
100
DictionaryVariables
280
     0
  1
0
  0
DICTIONARY
  5
18A
330
17D
100
AcDbDictionary
280
     1
281
     1
  3
ACAD_ROUNDTRIP_2008_TABLESTYLE_CELLSTYLEMAP
360
18B
  0
CELLSTYLEMAP
  5
18B
102
{ACAD_REACTORS
330
18A
102
}
330
18A
100
AcDbCellStyleMap
 90
        3
300
CELLSTYLE
  1
TABLEFORMAT_BEGIN
 90
        5
170
     1
 91
        0
 92
    32768
 62
   257
 93
        1
300
CONTENTFORMAT
  1
CONTENTFORMAT_BEGIN
 90
        0
 91
        0
 92
        4
 93
        0
300

 40
0.0
140
1.0
 94
        5
 62
     0
340
11
144
6.0
309
CONTENTFORMAT_END
171
     1
301
MARGIN
  1
CELLMARGIN_BEGIN
 40
1.5
 40
1.5
 40
1.5
 40
1.5
 40
1.5
 40
1.5
309
CELLMARGIN_END
 94
        6
 95
        1
302
GRIDFORMAT
  1
GRIDFORMAT_BEGIN
 90
        0
 91
        1
 62
     0
 92
       -2
340
14
 93
        0
 40
0.045
309
GRIDFORMAT_END
 95
        2
302
GRIDFORMAT
  1
GRIDFORMAT_BEGIN
 90
        0
 91
        1
 62
     0
 92
       -2
340
14
 93
        0
 40
0.045
309
GRIDFORMAT_END
 95
        4
302
GRIDFORMAT
  1
GRIDFORMAT_BEGIN
 90
        0
 91
        1
 62
     0
 92
       -2
340
14
 93
        0
 40
0.045
309
GRIDFORMAT_END
 95
        8
302
GRIDFORMAT
  1
GRIDFORMAT_BEGIN
 90
        0
 91
        1
 62
     0
 92
       -2
340
14
 93
        0
 40
0.045
309
GRIDFORMAT_END
 95
       16
302
GRIDFORMAT
  1
GRIDFORMAT_BEGIN
 90
        0
 91
        1
 62
     0
 92
       -2
340
14
 93
        0
 40
0.045
309
GRIDFORMAT_END
 95
       32
302
GRIDFORMAT
  1
GRIDFORMAT_BEGIN
 90
        0
 91
        1
 62
     0
 92
       -2
340
14
 93
        0
 40
0.045
309
GRIDFORMAT_END
309
TABLEFORMAT_END
  1
CELLSTYLE_BEGIN
 90
        1
 91
        1
300
_TITLE
309
CELLSTYLE_END
300
CELLSTYLE
  1
TABLEFORMAT_BEGIN
 90
        5
170
     1
 91
        0
 92
        0
 62
   257
 93
        1
300
CONTENTFORMAT
  1
CONTENTFORMAT_BEGIN
 90
        0
 91
        0
 92
        4
 93
        0
300

 40
0.0
140
1.0
 94
        5
 62
     0
340
11
144
4.5
309
CONTENTFORMAT_END
171
     1
301
MARGIN
  1
CELLMARGIN_BEGIN
 40
1.5
 40
1.5
 40
1.5
 40
1.5
 40
1.5
 40
1.5
309
CELLMARGIN_END
 94
        6
 95
        1
302
GRIDFORMAT
  1
GRIDFORMAT_BEGIN
 90
        0
 91
        1
 62
     0
 92
       -2
340
14
 93
        0
 40
0.045
309
GRIDFORMAT_END
 95
        2
302
GRIDFORMAT
  1
GRIDFORMAT_BEGIN
 90
        0
 91
        1
 62
     0
 92
       -2
340
14
 93
        0
 40
0.045
309
GRIDFORMAT_END
 95
        4
302
GRIDFORMAT
  1
GRIDFORMAT_BEGIN
 90
        0
 91
        1
 62
     0
 92
       -2
340
14
 93
        0
 40
0.045
309
GRIDFORMAT_END
 95
        8
302
GRIDFORMAT
  1
GRIDFORMAT_BEGIN
 90
        0
 91
        1
 62
     0
 92
       -2
340
14
 93
        0
 40
0.045
309
GRIDFORMAT_END
 95
       16
302
GRIDFORMAT
  1
GRIDFORMAT_BEGIN
 90
        0
 91
        1
 62
     0
 92
       -2
340
14
 93
        0
 40
0.045
309
GRIDFORMAT_END
 95
       32
302
GRIDFORMAT
  1
GRIDFORMAT_BEGIN
 90
        0
 91
        1
 62
     0
 92
       -2
340
14
 93
        0
 40
0.045
309
GRIDFORMAT_END
309
TABLEFORMAT_END
  1
CELLSTYLE_BEGIN
 90
        2
 91
        1
300
_HEADER
309
CELLSTYLE_END
300
CELLSTYLE
  1
TABLEFORMAT_BEGIN
 90
        5
170
     1
 91
        0
 92
        0
 62
   257
 93
        1
300
CONTENTFORMAT
  1
CONTENTFORMAT_BEGIN
 90
        0
 91
        0
 92
        4
 93
        0
300

 40
0.0
140
1.0
 94
        2
 62
     0
340
11
144
4.5
309
CONTENTFORMAT_END
171
     1
301
MARGIN
  1
CELLMARGIN_BEGIN
 40
1.5
 40
1.5
 40
1.5
 40
1.5
 40
1.5
 40
1.5
309
CELLMARGIN_END
 94
        6
 95
        1
302
GRIDFORMAT
  1
GRIDFORMAT_BEGIN
 90
        0
 91
        1
 62
     0
 92
       -2
340
14
 93
        0
 40
0.045
309
GRIDFORMAT_END
 95
        2
302
GRIDFORMAT
  1
GRIDFORMAT_BEGIN
 90
        0
 91
        1
 62
     0
 92
       -2
340
14
 93
        0
 40
0.045
309
GRIDFORMAT_END
 95
        4
302
GRIDFORMAT
  1
GRIDFORMAT_BEGIN
 90
        0
 91
        1
 62
     0
 92
       -2
340
14
 93
        0
 40
0.045
309
GRIDFORMAT_END
 95
        8
302
GRIDFORMAT
  1
GRIDFORMAT_BEGIN
 90
        0
 91
        1
 62
     0
 92
       -2
340
14
 93
        0
 40
0.045
309
GRIDFORMAT_END
 95
       16
302
GRIDFORMAT
  1
GRIDFORMAT_BEGIN
 90
        0
 91
        1
 62
     0
 92
       -2
340
14
 93
        0
 40
0.045
309
GRIDFORMAT_END
 95
       32
302
GRIDFORMAT
  1
GRIDFORMAT_BEGIN
 90
        0
 91
        1
 62
     0
 92
       -2
340
14
 93
        0
 40
0.045
309
GRIDFORMAT_END
309
TABLEFORMAT_END
  1
CELLSTYLE_BEGIN
 90
        3
 91
        2
300
_DATA
309
CELLSTYLE_END
  0
ENDSEC
  0
EOF
