  0
SECTION
  2
HEADER
  9
$ACADVER
  1
AC1024
  9
$ACADMAINTVER
 70
     6
  9
$DWGCODEPAGE
  3
ANSI_1252
  9
$INSBASE
 10
0.0
 20
0.0
 30
0.0
  9
$EXTMIN
 10
0.0
 20
0.0
 30
0.0
  9
$EXTMAX
 10
594.0
 20
841.0
 30
0.0
  9
$LIMMIN
 10
0.0
 20
0.0
  9
$LIMMAX
 10
594.0
 20
841.0
  9
$ORTHOMODE
 70
     0
  9
$REGENMODE
 70
     1
  9
$FILLMODE
 70
     1
  9
$QTEXTMODE
 70
     0
  9
$MIRRTEXT
 70
     1
  9
$LTSCALE
 40
1.0
  9
$ATTMODE
 70
     1
  9
$TEXTSIZE
 40
5.0
  9
$TRACEWID
 40
1.0
  9
$TEXTSTYLE
  7
Standard
  9
$CLAYER
  8
0
  9
$CELTYPE
  6
ByLayer
  9
$CECOLOR
 62
   256
  9
$CELTSCALE
 40
1.0
  9
$DISPSILH
 70
     0
  9
$DIMSCALE
 40
1.0
  9
$DIMASZ
 40
2.5
  9
$DIMEXO
 40
0.0
  9
$DIMDLI
 40
3.75
  9
$DIMRND
 40
0.0
  9
$DIMDLE
 40
0.0
  9
$DIMEXE
 40
1.0
  9
$DIMTP
 40
0.0
  9
$DIMTM
 40
0.0
  9
$DIMTXT
 40
3.5
  9
$DIMCEN
 40
2.5
  9
$DIMTSZ
 40
0.0
  9
$DIMTOL
 70
     0
  9
$DIMLIM
 70
     0
  9
$DIMTIH
 70
     1
  9
$DIMTOH
 70
     1
  9
$DIMSE1
 70
     0
  9
$DIMSE2
 70
     0
  9
$DIMTAD
 70
     1
  9
$DIMZIN
 70
     0
  9
$DIMBLK
  1

  9
$DIMASO
 70
     1
  9
$DIMSHO
 70
     1
  9
$DIMPOST
  1

  9
$DIMAPOST
  1

  9
$DIMALT
 70
     0
  9
$DIMALTD
 70
     3
  9
$DIMALTF
 40
0.0393700787
  9
$DIMLFAC
 40
1.0
  9
$DIMTOFL
 70
     1
  9
$DIMTVP
 40
0.0
  9
$DIMTIX
 70
     0
  9
$DIMSOXD
 70
     0
  9
$DIMSAH
 70
     0
  9
$DIMBLK1
  1

  9
$DIMBLK2
  1

  9
$DIMSTYLE
  2
ISO-25
  9
$DIMCLRD
 70
     0
  9
$DIMCLRE
 70
     0
  9
$DIMCLRT
 70
     0
  9
$DIMTFAC
 40
1.0
  9
$DIMGAP
 40
1.5
  9
$DIMJUST
 70
     0
  9
$DIMSD1
 70
     0
  9
$DIMSD2
 70
     0
  9
$DIMTOLJ
 70
     0
  9
$DIMTZIN
 70
     0
  9
$DIMALTZ
 70
     0
  9
$DIMALTTZ
 70
     0
  9
$DIMUPT
 70
     0
  9
$DIMDEC
 70
     2
  9
$DIMTDEC
 70
     2
  9
$DIMALTU
 70
     2
  9
$DIMALTTD
 70
     3
  9
$DIMTXSTY
  7
Standard
  9
$DIMAUNIT
 70
     0
  9
$DIMADEC
 70
     2
  9
$DIMALTRND
 40
0.0
  9
$DIMAZIN
 70
     0
  9
$DIMDSEP
 70
    44
  9
$DIMATFIT
 70
     3
  9
$DIMFRAC
 70
     0
  9
$DIMLDRBLK
  1

  9
$DIMLUNIT
 70
     2
  9
$DIMLWD
 70
    -2
  9
$DIMLWE
 70
    -2
  9
$DIMTMOVE
 70
     0
  9
$DIMFXL
 40
1.0
  9
$DIMFXLON
 70
     0
  9
$DIMJOGANG
 40
0.7853981634
  9
$DIMTFILL
 70
     0
  9
$DIMTFILLCLR
 70
     0
  9
$DIMARCSYM
 70
     0
  9
$DIMLTYPE
  6

  9
$DIMLTEX1
  6

  9
$DIMLTEX2
  6

  9
$DIMTXTDIRECTION
 70
     0
  9
$LUNITS
 70
     2
  9
$LUPREC
 70
     2
  9
$SKETCHINC
 40
1.0
  9
$FILLETRAD
 40
10.0
  9
$AUNITS
 70
     0
  9
$AUPREC
 70
     2
  9
$MENU
  1
.
  9
$ELEVATION
 40
0.0
  9
$PELEVATION
 40
0.0
  9
$THICKNESS
 40
0.0
  9
$LIMCHECK
 70
     0
  9
$CHAMFERA
 40
10.0
  9
$CHAMFERB
 40
10.0
  9
$CHAMFERC
 40
20.0
  9
$CHAMFERD
 40
0.0
  9
$SKPOLY
 70
     0
  9
$TDCREATE
 40
2456150.518015625
  9
$TDUCREATE
 40
2456150.434682291
  9
$TDUPDATE
 40
2456150.518015637
  9
$TDUUPDATE
 40
2456150.434682303
  9
$TDINDWG
 40
0.0000000116
  9
$TDUSRTIMER
 40
0.0000000116
  9
$USRTIMER
 70
     1
  9
$ANGBASE
 50
0.0
  9
$ANGDIR
 70
     0
  9
$PDMODE
 70
     0
  9
$PDSIZE
 40
-1.0
  9
$PLINEWID
 40
0.0
  9
$SPLFRAME
 70
     0
  9
$SPLINETYPE
 70
     6
  9
$SPLINESEGS
 70
     8
  9
$HANDSEED
  5
111
  9
$SURFTAB1
 70
     6
  9
$SURFTAB2
 70
     6
  9
$SURFTYPE
 70
     6
  9
$SURFU
 70
     6
  9
$SURFV
 70
     6
  9
$UCSBASE
  2

  9
$UCSNAME
  2

  9
$UCSORG
 10
0.0
 20
0.0
 30
0.0
  9
$UCSXDIR
 10
1.0
 20
0.0
 30
0.0
  9
$UCSYDIR
 10
0.0
 20
1.0
 30
0.0
  9
$UCSORTHOREF
  2

  9
$UCSORTHOVIEW
 70
     0
  9
$UCSORGTOP
 10
0.0
 20
0.0
 30
0.0
  9
$UCSORGBOTTOM
 10
0.0
 20
0.0
 30
0.0
  9
$UCSORGLEFT
 10
0.0
 20
0.0
 30
0.0
  9
$UCSORGRIGHT
 10
0.0
 20
0.0
 30
0.0
  9
$UCSORGFRONT
 10
0.0
 20
0.0
 30
0.0
  9
$UCSORGBACK
 10
0.0
 20
0.0
 30
0.0
  9
$PUCSBASE
  2

  9
$PUCSNAME
  2

  9
$PUCSORG
 10
0.0
 20
0.0
 30
0.0
  9
$PUCSXDIR
 10
1.0
 20
0.0
 30
0.0
  9
$PUCSYDIR
 10
0.0
 20
1.0
 30
0.0
  9
$PUCSORTHOREF
  2

  9
$PUCSORTHOVIEW
 70
     0
  9
$PUCSORGTOP
 10
0.0
 20
0.0
 30
0.0
  9
$PUCSORGBOTTOM
 10
0.0
 20
0.0
 30
0.0
  9
$PUCSORGLEFT
 10
0.0
 20
0.0
 30
0.0
  9
$PUCSORGRIGHT
 10
0.0
 20
0.0
 30
0.0
  9
$PUCSORGFRONT
 10
0.0
 20
0.0
 30
0.0
  9
$PUCSORGBACK
 10
0.0
 20
0.0
 30
0.0
  9
$USERI1
 70
     0
  9
$USERI2
 70
     0
  9
$USERI3
 70
     0
  9
$USERI4
 70
     0
  9
$USERI5
 70
     0
  9
$USERR1
 40
0.0
  9
$USERR2
 40
0.0
  9
$USERR3
 40
0.0
  9
$USERR4
 40
0.0
  9
$USERR5
 40
0.0
  9
$WORLDVIEW
 70
     1
  9
$SHADEDGE
 70
     3
  9
$SHADEDIF
 70
    70
  9
$TILEMODE
 70
     1
  9
$MAXACTVP
 70
    64
  9
$PINSBASE
 10
0.0
 20
0.0
 30
0.0
  9
$PLIMCHECK
 70
     0
  9
$PEXTMIN
 10
1.0000000000E+20
 20
1.0000000000E+20
 30
1.0000000000E+20
  9
$PEXTMAX
 10
-1.0000000000E+20
 20
-1.0000000000E+20
 30
-1.0000000000E+20
  9
$PLIMMIN
 10
0.0
 20
0.0
  9
$PLIMMAX
 10
420.0
 20
297.0
  9
$UNITMODE
 70
     0
  9
$VISRETAIN
 70
     1
  9
$PLINEGEN
 70
     0
  9
$PSLTSCALE
 70
     1
  9
$TREEDEPTH
 70
  3020
  9
$CMLSTYLE
  2
Standard
  9
$CMLJUST
 70
     0
  9
$CMLSCALE
 40
20.0
  9
$PROXYGRAPHICS
 70
     1
  9
$MEASUREMENT
 70
     1
  9
$CELWEIGHT
370
    -1
  9
$ENDCAPS
280
     0
  9
$JOINSTYLE
280
     0
  9
$LWDISPLAY
290
     1
  9
$INSUNITS
 70
     4
  9
$HYPERLINKBASE
  1

  9
$STYLESHEET
  1

  9
$XEDIT
290
     1
  9
$CEPSNTYPE
380
     0
  9
$PSTYLEMODE
290
     1
  9
$FINGERPRINTGUID
  2
{970F7242-547C-4D58-8561-0936367E9B2C}
  9
$VERSIONGUID
  2
{FAEB1C32-E019-11D5-929B-00C0DF256EC4}
  9
$EXTNAMES
290
     1
  9
$PSVPSCALE
 40
0.0
  9
$OLESTARTUP
290
     0
  9
$SORTENTS
280
   127
  9
$INDEXCTL
280
     0
  9
$HIDETEXT
280
     1
  9
$XCLIPFRAME
280
     2
  9
$HALOGAP
280
     0
  9
$OBSCOLOR
 70
   257
  9
$OBSLTYPE
280
     0
  9
$INTERSECTIONDISPLAY
280
     0
  9
$INTERSECTIONCOLOR
 70
   257
  9
$DIMASSOC
280
     2
  9
$PROJECTNAME
  1

  9
$CAMERADISPLAY
290
     0
  9
$LENSLENGTH
 40
50.0
  9
$CAMERAHEIGHT
 40
0.0
  9
$STEPSPERSEC
 40
2.0
  9
$STEPSIZE
 40
6.0
  9
$3DDWFPREC
 40
2.0
  9
$PSOLWIDTH
 40
5.0
  9
$PSOLHEIGHT
 40
80.0
  9
$LOFTANG1
 40
1.5707963268
  9
$LOFTANG2
 40
1.5707963268
  9
$LOFTMAG1
 40
0.0
  9
$LOFTMAG2
 40
0.0
  9
$LOFTPARAM
 70
     7
  9
$LOFTNORMALS
280
     1
  9
$LATITUDE
 40
37.795
  9
$LONGITUDE
 40
-122.394
  9
$NORTHDIRECTION
 40
0.0
  9
$TIMEZONE
 70
 -8000
  9
$LIGHTGLYPHDISPLAY
280
     1
  9
$TILEMODELIGHTSYNCH
280
     1
  9
$SOLIDHIST
280
     1
  9
$SHOWHIST
280
     1
  9
$DWFFRAME
280
     2
  9
$DGNFRAME
280
     2
  9
$REALWORLDSCALE
290
     1
  9
$INTERFERECOLOR
 62
   256
  9
$CSHADOW
280
     0
  9
$SHADOWPLANELOCATION
 40
0.0
  0
ENDSEC
  0
SECTION
  2
CLASSES
  0
CLASS
  1
ACDBDICTIONARYWDFLT
  2
AcDbDictionaryWithDefault
  3
ObjectDBX Classes
 90
        0
 91
        4
280
     0
281
     0
  0
CLASS
  1
VISUALSTYLE
  2
AcDbVisualStyle
  3
ObjectDBX Classes
 90
     4095
 91
        4
280
     0
281
     0
  0
CLASS
  1
MATERIAL
  2
AcDbMaterial
  3
ObjectDBX Classes
 90
     1153
 91
        4
280
     0
281
     0
  0
ENDSEC
  0
SECTION
  2
TABLES
  0
TABLE
  2
VPORT
  5
8
330
0
100
AcDbSymbolTable
 70
     1
  0
VPORT
  5
29
330
8
100
AcDbSymbolTableRecord
100
AcDbViewportTableRecord
  2
*Active
 70
     0
 10
0.0
 20
0.0
 11
1.0
 21
1.0
 12
297.0
 22
420.5
 13
0.0
 23
0.0
 14
10.0
 24
10.0
 15
10.0
 25
10.0
 16
0.0
 26
0.0
 36
1.0
 17
0.0
 27
0.0
 37
0.0
 40
841.0
 41
0.7063020214
 42
50.0
 43
0.0
 44
0.0
 50
0.0
 51
0.0
 71
     0
 72
  2000
 73
     1
 74
     3
 75
     0
 76
     0
 77
     0
 78
     0
281
     0
 65
     1
110
0.0
120
0.0
130
0.0
111
1.0
121
0.0
131
0.0
112
0.0
122
1.0
132
0.0
 79
     0
146
0.0
 60
     3
 61
     5
292
     1
282
     1
141
0.0
142
0.0
 63
   250
  0
ENDTAB
  0
TABLE
  2
LTYPE
  5
5
330
0
100
AcDbSymbolTable
 70
     6
  0
LTYPE
  5
14
330
5
100
AcDbSymbolTableRecord
100
AcDbLinetypeTableRecord
  2
ByBlock
 70
     0
  3

 72
    65
 73
     0
 40
0.0
  0
LTYPE
  5
15
330
5
100
AcDbSymbolTableRecord
100
AcDbLinetypeTableRecord
  2
ByLayer
 70
     0
  3

 72
    65
 73
     0
 40
0.0
  0
LTYPE
  5
16
330
5
100
AcDbSymbolTableRecord
100
AcDbLinetypeTableRecord
  2
Continuous
 70
     0
  3
Solid line
 72
    65
 73
     0
 40
0.0
  0
LTYPE
  5
3F
330
5
100
AcDbSymbolTableRecord
100
AcDbLinetypeTableRecord
  2
HIDDEN
 70
     0
  3
Hidden __ __ __ __ __ __ __ __ __ __ __ __ __ __
 72
    65
 73
     2
 40
1.905
 49
1.27
 74
     0
 49
-0.635
 74
     0
  0
LTYPE
  5
40
330
5
100
AcDbSymbolTableRecord
100
AcDbLinetypeTableRecord
  2
PHANTOM
 70
     0
  3
Phantom ______  __  __  ______  __  __  ______
 72
    65
 73
     6
 40
12.7
 49
6.35
 74
     0
 49
-1.27
 74
     0
 49
1.27
 74
     0
 49
-1.27
 74
     0
 49
1.27
 74
     0
 49
-1.27
 74
     0
  0
LTYPE
  5
41
330
5
100
AcDbSymbolTableRecord
100
AcDbLinetypeTableRecord
  2
CENTER
 70
     0
  3
Center ____ _ ____ _ ____ _ ____ _ ____ _ ____
 72
    65
 73
     4
 40
10.16
 49
6.35
 74
     0
 49
-1.27
 74
     0
 49
1.27
 74
     0
 49
-1.27
 74
     0
  0
LTYPE
  5
42
330
5
100
AcDbSymbolTableRecord
100
AcDbLinetypeTableRecord
  2
CENTERX2
 70
     0
  3
Center (2x) ________  __  ________  __  _____
 72
    65
 73
     4
 40
20.32
 49
12.7
 74
     0
 49
-2.54
 74
     0
 49
2.54
 74
     0
 49
-2.54
 74
     0
  0
LTYPE
  5
43
330
5
100
AcDbSymbolTableRecord
100
AcDbLinetypeTableRecord
  2
DOT2
 70
     0
  3
Dot (.5x) ........................................
 72
    65
 73
     2
 40
0.635
 49
0.0
 74
     0
 49
-0.635
 74
     0
  0
ENDTAB
  0
TABLE
  2
LAYER
  5
2
330
0
100
AcDbSymbolTable
 70
     1
  0
LAYER
  5
10
330
2
100
AcDbSymbolTableRecord
100
AcDbLayerTableRecord
  2
0
 70
     0
 62
     7
  6
Continuous
370
    -3
390
F
347
3E
  0
ENDTAB
  0
TABLE
  2
STYLE
  5
3
330
0
100
AcDbSymbolTable
 70
     2
  0
STYLE
  5
11
330
3
100
AcDbSymbolTableRecord
100
AcDbTextStyleTableRecord
  2
Standard
 70
     0
 40
0.0
 41
1.0
 50
0.0
 71
     0
 42
2.5
  3
txt
  4

  0
STYLE
  5
47
330
3
100
AcDbSymbolTableRecord
100
AcDbTextStyleTableRecord
  2
SLDTEXTSTYLE0
 70
     0
 40
0.0
 41
0.96
 50
0.0
 71
     0
 42
0.2
  3
ISOCP3
  4

  0
ENDTAB
  0
TABLE
  2
VIEW
  5
6
330
0
100
AcDbSymbolTable
 70
     0
  0
ENDTAB
  0
TABLE
  2
UCS
  5
7
330
0
100
AcDbSymbolTable
 70
     0
  0
ENDTAB
  0
TABLE
  2
APPID
  5
9
330
0
100
AcDbSymbolTable
 70
     1
  0
APPID
  5
12
330
9
100
AcDbSymbolTableRecord
100
AcDbRegAppTableRecord
  2
ACAD
 70
     0
  0
ENDTAB
  0
TABLE
  2
DIMSTYLE
  5
A
330
0
100
AcDbSymbolTable
 70
     2
100
AcDbDimStyleTable
  0
DIMSTYLE
105
27
330
A
100
AcDbSymbolTableRecord
100
AcDbDimStyleTableRecord
  2
ISO-25
 70
     0
 41
2.5
 42
0.625
 43
3.75
 44
1.25
 73
     0
 74
     0
 77
     1
 78
     8
140
2.5
141
2.5
143
0.0393700787
147
0.625
171
     3
172
     1
178
     0
271
     2
272
     2
274
     3
278
    44
283
     0
284
     8
340
11
  0
DIMSTYLE
105
48
102
{ACAD_REACTORS
330
46
330
53
102
}
330
A
100
AcDbSymbolTableRecord
100
AcDbDimStyleTableRecord
  2
SLDDIMSTYLE0
 70
     0
 41
2.5
 44
0.0
 45
0.000000001
 73
     0
 74
     0
 77
     1
 78
    12
 79
     3
140
6.0
147
1.5
173
     1
178
     0
271
     2
272
     2
276
     2
284
    12
340
47
  0
ENDTAB
  0
TABLE
  2
BLOCK_RECORD
  5
1
330
0
100
AcDbSymbolTable
 70
     3
  0
BLOCK_RECORD
  5
1F
330
1
100
AcDbSymbolTableRecord
100
AcDbBlockTableRecord
  2
*Model_Space
340
22
 70
     0
280
     1
281
     0
  0
BLOCK_RECORD
  5
1B
330
1
100
AcDbSymbolTableRecord
100
AcDbBlockTableRecord
  2
*Paper_Space
340
1E
 70
     0
280
     1
281
     0
  0
BLOCK_RECORD
  5
23
330
1
100
AcDbSymbolTableRecord
100
AcDbBlockTableRecord
  2
*Paper_Space0
340
26
 70
     0
280
     1
281
     0
  0
BLOCK_RECORD
  5
49
330
1
100
AcDbSymbolTableRecord
100
AcDbBlockTableRecord
  2
*D1
340
0
 70
     0
280
     1
281
     0
  0
BLOCK_RECORD
  5
54
330
1
100
AcDbSymbolTableRecord
100
AcDbBlockTableRecord
  2
*D2
340
0
 70
     0
280
     1
281
     0
  0
ENDTAB
  0
ENDSEC
  0
SECTION
  2
BLOCKS
  0
BLOCK
  5
20
330
1F
100
AcDbEntity
  8
0
100
AcDbBlockBegin
  2
*Model_Space
 70
     0
 10
0.0
 20
0.0
 30
0.0
  3
*Model_Space
  1

  0
ENDBLK
  5
21
330
1F
100
AcDbEntity
  8
0
100
AcDbBlockEnd
  0
BLOCK
  5
1C
330
1B
100
AcDbEntity
 67
     1
  8
0
100
AcDbBlockBegin
  2
*Paper_Space
 70
     0
 10
0.0
 20
0.0
 30
0.0
  3
*Paper_Space
  1

  0
ENDBLK
  5
1D
330
1B
100
AcDbEntity
 67
     1
  8
0
100
AcDbBlockEnd
  0
BLOCK
  5
24
330
23
100
AcDbEntity
  8
0
100
AcDbBlockBegin
  2
*Paper_Space0
 70
     0
 10
0.0
 20
0.0
 30
0.0
  3
*Paper_Space0
  1

  0
ENDBLK
  5
25
330
23
100
AcDbEntity
  8
0
100
AcDbBlockEnd
  0
BLOCK
  5
4A
330
49
100
AcDbEntity
  8
0
100
AcDbBlockBegin
  2
*D1
 70
     1
 10
0.0
 20
0.0
 30
0.0
  3
*D1
  1

  0
SOLID
  5
4C
330
49
100
AcDbEntity
  8
0
  6
Continuous
 62
     7
370
     0
100
AcDbTrace
 10
42.7614395004
 20
152.0299240879
 30
0.0
 11
42.4614395004
 21
149.5299240879
 31
0.0
 12
43.0614395004
 22
149.5299240879
 32
0.0
 13
43.0614395004
 23
149.5299240879
 33
0.0
  0
SOLID
  5
4D
330
49
100
AcDbEntity
  8
0
  6
Continuous
 62
     7
370
     0
100
AcDbTrace
 10
42.7614395004
 20
52.0299240879
 30
0.0
 11
43.0614395004
 21
54.5299240879
 31
0.0
 12
42.4614395004
 22
54.5299240879
 32
0.0
 13
42.4614395004
 23
54.5299240879
 33
0.0
  0
LINE
  5
4E
330
49
100
AcDbEntity
  8
0
  6
Continuous
 62
     7
370
     0
100
AcDbLine
 10
56.6850079902
 20
152.0299240879
 30
0.0
 11
41.7614395004
 21
152.0299240879
 31
0.0
  0
LINE
  5
4F
330
49
100
AcDbEntity
  8
0
  6
Continuous
 62
     7
370
     0
100
AcDbLine
 10
56.6850079902
 20
52.0299240879
 30
0.0
 11
41.7614395004
 21
52.0299240879
 31
0.0
  0
LINE
  5
50
330
49
100
AcDbEntity
  8
0
  6
Continuous
 62
     7
370
     0
100
AcDbLine
 10
42.7614395004
 20
152.0299240879
 30
0.0
 11
42.7614395004
 21
52.0299240879
 31
0.0
  0
MTEXT
  5
51
330
49
100
AcDbEntity
  8
0
  6
Continuous
 62
     7
370
     0
100
AcDbMText
 10
35.0270332946
 20
91.6722208134
 30
0.1
 40
6.0
 41
0.0
 46
0.0
 71
     1
 72
     1
  1
100
  7
SLDTEXTSTYLE0
 11
-7.044195017643634E-15
 21
1.0
 31
0.0
 73
     1
 44
1.0
  0
MTEXT
  5
52
330
49
100
AcDbEntity
  8
0
  6
Continuous
 62
     7
370
     0
100
AcDbMText
 10
35.0270332946
 20
108.4388881795
 30
0.1
 40
6.0
 41
0.0
 46
0.0
 71
     1
 72
     1
  1
mm
  7
SLDTEXTSTYLE0
 11
-7.044195017643634E-15
 21
1.0
 31
0.0
 73
     1
 44
1.0
  0
ENDBLK
  5
4B
330
49
100
AcDbEntity
  8
0
100
AcDbBlockEnd
  0
BLOCK
  5
55
330
54
100
AcDbEntity
  8
0
100
AcDbBlockBegin
  2
*D2
 70
     1
 10
0.0
 20
0.0
 30
0.0
  3
*D2
  1

  0
SOLID
  5
57
330
54
100
AcDbEntity
  8
0
  6
Continuous
 62
     7
370
     0
100
AcDbTrace
 10
56.6850079902
 20
38.4602342313
 30
0.0
 11
59.1850079902
 21
38.1602342313
 31
0.0
 12
59.1850079902
 22
38.7602342313
 32
0.0
 13
59.1850079902
 23
38.7602342313
 33
0.0
  0
SOLID
  5
58
330
54
100
AcDbEntity
  8
0
  6
Continuous
 62
     7
370
     0
100
AcDbTrace
 10
156.6850079902
 20
38.4602342313
 30
0.0
 11
154.1850079902
 21
38.7602342313
 31
0.0
 12
154.1850079902
 22
38.1602342313
 32
0.0
 13
154.1850079902
 23
38.1602342313
 33
0.0
  0
LINE
  5
59
330
54
100
AcDbEntity
  8
0
  6
Continuous
 62
     7
370
     0
100
AcDbLine
 10
56.6850079902
 20
52.0299240879
 30
0.0
 11
56.6850079902
 21
37.4602342313
 31
0.0
  0
LINE
  5
5A
330
54
100
AcDbEntity
  8
0
  6
Continuous
 62
     7
370
     0
100
AcDbLine
 10
156.6850079902
 20
52.0299240879
 30
0.0
 11
156.6850079902
 21
37.4602342313
 31
0.0
  0
LINE
  5
5B
330
54
100
AcDbEntity
  8
0
  6
Continuous
 62
     7
370
     0
100
AcDbLine
 10
56.6850079902
 20
38.4602342313
 30
0.0
 11
156.6850079902
 21
38.4602342313
 31
0.0
  0
MTEXT
  5
5C
330
54
100
AcDbEntity
  8
0
  6
Continuous
 62
     7
370
     0
100
AcDbMText
 10
91.2668151533
 20
46.1946404371
 30
0.1
 40
6.0
 41
0.0
 46
0.0
 71
     1
 72
     1
  1
100
  7
SLDTEXTSTYLE0
 73
     1
 44
1.0
  0
MTEXT
  5
5D
330
54
100
AcDbEntity
  8
0
  6
Continuous
 62
     7
370
     0
100
AcDbMText
 10
108.0334825193
 20
46.1946404371
 30
0.1
 40
6.0
 41
0.0
 46
0.0
 71
     1
 72
     1
  1
mm
  7
SLDTEXTSTYLE0
 73
     1
 44
1.0
  0
ENDBLK
  5
56
330
54
100
AcDbEntity
  8
0
100
AcDbBlockEnd
  0
ENDSEC
  0
SECTION
  2
ENTITIES
  0
LINE
  5
44
330
1F
100
AcDbEntity
  8
0
  6
Continuous
 62
     7
370
     0
100
AcDbLine
 10
56.6850079902
 20
152.0299240879
 30
0.0
 11
56.6850079902
 21
52.0299240879
 31
0.0
  0
LINE
  5
45
330
1F
100
AcDbEntity
  8
0
  6
Continuous
 62
     7
370
     0
100
AcDbLine
 10
56.6850079902
 20
52.0299240879
 30
0.0
 11
156.6850079902
 21
52.0299240879
 31
0.0
  0
DIMENSION
  5
46
330
1F
100
AcDbEntity
  8
0
  6
Continuous
 62
     7
370
     0
100
AcDbDimension
280
     0
  2
*D1
 10
42.7614395004
 20
52.0299240879
 30
0.0
 11
42.7614395004
 21
105.4472211621
 31
0.0
 70
   160
  1
<>mm
 71
     2
 42
-1.0
 73
     0
 74
     0
 75
     0
  3
SLDDIMSTYLE0
100
AcDbAlignedDimension
 13
56.6850079902
 23
152.0299240879
 33
0.0
 14
56.6850079902
 24
52.0299240879
 34
0.0
 50
90.0
100
AcDbRotatedDimension
  0
DIMENSION
  5
53
330
1F
100
AcDbEntity
  8
0
  6
Continuous
 62
     7
370
     0
100
AcDbDimension
280
     0
  2
*D2
 10
156.6850079902
 20
38.4602342313
 30
0.0
 11
105.0418155019
 21
38.4602342313
 31
0.0
 70
   160
  1
<>mm
 71
     2
 42
-1.0
 73
     0
 74
     0
 75
     0
  3
SLDDIMSTYLE0
100
AcDbAlignedDimension
 13
56.6850079902
 23
52.0299240879
 33
0.0
 14
156.6850079902
 24
52.0299240879
 34
0.0
100
AcDbRotatedDimension
  0
MTEXT
  5
5E
330
1F
100
AcDbEntity
  8
0
  6
Continuous
 62
     7
370
     0
100
AcDbMText
 10
412.8252631579
 20
48.3509116029
 30
0.0
 40
10.0
 41
0.0
 46
0.0
 71
     1
 72
     1
  1
KLUDI GmbH & Co KG
  7
SLDTEXTSTYLE0
 73
     1
 44
1.0
  0
MTEXT
  5
5F
330
1F
100
AcDbEntity
  8
0
  6
Continuous
 62
     7
370
     0
100
AcDbMText
 10
234.9845314506
 20
50.2529515142
 30
0.0
 40
10.0
 41
0.0
 46
0.0
 71
     1
 72
     1
  1
52 655 05 75
  7
SLDTEXTSTYLE0
 73
     1
 44
1.0
  0
LINE
  5
60
330
1F
100
AcDbEntity
  8
0
  6
Continuous
 62
     7
370
    15
100
AcDbLine
 10
366.1925591044
 20
487.7697496698
 30
0.0
 11
375.4711277364
 21
488.0127131031
 31
0.0
  0
LINE
  5
61
330
1F
100
AcDbEntity
  8
0
  6
Continuous
 62
     7
370
    15
100
AcDbLine
 10
375.4711277364
 20
658.5382788465
 30
0.0
 11
366.1925591044
 21
658.7812497304
 31
0.0
  0
ARC
  5
62
330
1F
100
AcDbEntity
  8
0
  6
Continuous
 62
     7
370
    15
100
AcDbCircle
 10
375.4343698815
 20
657.1345595018
 30
0.0
 40
1.404200000000045
100
AcDbArc
 50
9.653305255
 51
88.5
  0
ARC
  5
63
330
1F
100
AcDbEntity
  8
0
  6
Continuous
 62
     7
370
    15
100
AcDbCircle
 10
375.4343698815
 20
489.4164328646
 30
0.0
 40
1.404200000000045
100
AcDbArc
 50
271.5
 51
350.346694745
  0
ARC
  5
64
330
1F
100
AcDbEntity
  8
0
  6
Continuous
 62
     7
370
    15
100
AcDbCircle
 10
-117.5803019864
 20
573.2754961832
 30
0.0
 40
501.4999999999999
100
AcDbArc
 50
350.346694745
 51
358.8917516949
  0
ARC
  5
65
330
1F
100
AcDbEntity
  8
0
  6
Continuous
 62
     7
370
    15
100
AcDbCircle
 10
-117.5803019864
 20
573.2754961832
 30
0.0
 40
501.4999999999999
100
AcDbArc
 50
4.5073877799
 51
9.653305255
  0
LINE
  5
66
330
1F
100
AcDbEntity
  8
0
  6
Continuous
 62
     7
370
    15
100
AcDbLine
 10
410.3245591326
 20
612.6933961199
 30
0.0
 11
382.3683695449
 21
612.6933961199
 31
0.0
  0
LINE
  5
67
330
1F
100
AcDbEntity
  8
0
  6
Continuous
 62
     7
370
    15
100
AcDbLine
 10
383.8244476868
 20
563.5463961656
 30
0.0
 11
410.3245591326
 21
563.5463961656
 31
0.0
  0
ARC
  5
68
330
1F
100
AcDbEntity
  8
0
  6
Continuous
 62
     7
370
    15
100
AcDbCircle
 10
410.3245591027
 20
588.1198961832
 30
0.0
 40
24.57349999999997
100
AcDbArc
 50
270.0
 51
282.6273556217
  0
ARC
  5
69
330
1F
100
AcDbEntity
  8
0
  6
Continuous
 62
     7
370
    15
100
AcDbCircle
 10
410.3245591027
 20
588.1198961832
 30
0.0
 40
24.57350000000008
100
AcDbArc
 50
51.1043298693
 51
90.0
  0
ARC
  5
6A
330
1F
100
AcDbEntity
  8
0
  6
Continuous
 62
     7
370
    15
100
AcDbCircle
 10
426.3812484729
 20
609.0490407352
 30
0.0
 40
0.2006000000000191
100
AcDbArc
 50
52.504838849
 51
166.8658427455
  0
ARC
  5
6B
330
1F
100
AcDbEntity
  8
0
  6
Continuous
 62
     7
370
    15
100
AcDbCircle
 10
415.4603718279
 20
562.2457818435
 30
0.0
 40
0.2006000000000006
100
AcDbArc
 50
166.8658427455
 51
281.226846642
  0
ARC
  5
6C
330
1F
100
AcDbEntity
  8
0
  6
Continuous
 62
     7
370
    15
100
AcDbCircle
 10
410.3245591027
 20
588.1198961832
 30
0.0
 40
26.57950000000003
100
AcDbArc
 50
281.226846642
 51
329.8050791419
  0
ARC
  5
6D
330
1F
100
AcDbEntity
  8
0
  6
Continuous
 62
     7
370
    15
100
AcDbCircle
 10
410.3245591027
 20
588.1198961832
 30
0.0
 40
26.57950000000002
100
AcDbArc
 50
16.9464567666
 51
52.504838849
  0
SPLINE
  5
6E
330
1F
100
AcDbEntity
  8
0
  6
Continuous
 62
     7
370
    15
100
AcDbSpline
210
0.0
220
0.0
230
1.0
 70
     8
 71
     3
 72
    27
 73
    23
 74
     0
 42
0.00000001
 43
0.00000001
 40
0.0
 40
0.0
 40
0.0
 40
0.0
 40
0.0048061375390774
 40
0.0159012882819183
 40
0.063744402028653
 40
0.110651276930945
 40
0.1549204355989499
 40
0.1967338267512297
 40
0.2361169156361086
 40
0.306375081685874
 40
0.3672077691010743
 40
0.4135560887189128
 40
0.4530692073693349
 40
0.4918817921389332
 40
0.5314542761725239
 40
0.5856963662259816
 40
0.6413032450343319
 40
0.6983152576195103
 40
0.7609737670867438
 40
0.8321389433680911
 40
0.9118132537548607
 40
1.0
 40
1.0
 40
1.0
 40
1.0
 10
464.6138889296164
 20
497.177582888383
 30
0.0
 10
464.6252135054911
 20
497.313010439973
 30
0.0
 10
464.6626812941656
 20
497.7610776294029
 30
0.0
 10
464.7864385381164
 20
499.7010156074581
 30
0.0
 10
464.7871073670794
 20
502.9714605239809
 30
0.0
 10
464.6058619127375
 20
507.2534328072179
 30
0.0
 10
464.4291079299858
 20
511.3512534924852
 30
0.0
 10
464.2053597081546
 20
515.2140356548568
 30
0.0
 10
463.883831679034
 20
519.8737176240035
 30
0.0
 10
463.4405127439224
 20
525.1125719185526
 30
0.0
 10
462.879922384725
 20
530.5560432099257
 30
0.0
 10
462.3496729854656
 20
535.0488528944317
 30
0.0
 10
461.8538355666334
 20
538.8616179138621
 30
0.0
 10
461.3461240179427
 20
542.4619032247103
 30
0.0
 10
460.7314731821737
 20
546.5055930200447
 30
0.0
 10
459.9805131241762
 20
551.0521424352447
 30
0.0
 10
459.0660877572651
 20
556.1162403142636
 30
0.0
 10
458.0209120735891
 20
561.419805615011
 30
0.0
 10
456.7777038983187
 20
567.1726186882249
 30
0.0
 10
455.2339072424846
 20
573.5736104474757
 30
0.0
 10
453.3231343750468
 20
580.6946297963325
 30
0.0
 10
451.7870969592577
 20
585.638576144503
 30
0.0
 10
450.9801310999503
 20
588.2359060481969
 30
0.0
  0
ARC
  5
6F
330
1F
100
AcDbEntity
  8
0
  6
Continuous
 62
     7
370
    15
100
AcDbCircle
 10
433.7376125381
 20
575.1624718
 30
0.0
 40
0.5015000000001503
100
AcDbArc
 50
218.7572754591
 51
264.1131578613
  0
ARC
  5
70
330
1F
100
AcDbEntity
  8
0
  6
Continuous
 62
     7
370
    15
100
AcDbCircle
 10
437.7496125381
 20
575.1624718
 30
0.0
 40
0.5015000000000526
100
AcDbArc
 50
275.8868421387
 51
0.0
  0
ARC
  5
71
330
1F
100
AcDbEntity
  8
0
  6
Continuous
 62
     7
370
    15
100
AcDbCircle
 10
435.7436125381
 20
594.6178280355
 30
0.0
 40
20.06000000000014
100
AcDbArc
 50
264.1131578613
 51
275.8868421387
  0
LWPOLYLINE
  5
72
330
1F
100
AcDbEntity
  8
0
  6
Continuous
 62
     7
370
    15
100
AcDbPolyline
 90
        3
 70
   128
 43
0.0
 10
436.5643826826
 20
575.6611281098
 10
436.6884870036
 20
575.7734931097
 10
436.7074636324
 20
575.7930518151
  0
LWPOLYLINE
  5
73
330
1F
100
AcDbEntity
  8
0
  6
Continuous
 62
     7
370
    15
100
AcDbPolyline
 90
        3
 70
   128
 43
0.0
 10
434.7892669542
 20
575.7831621007
 10
434.7987366421
 20
575.7734931097
 10
434.9228484137
 20
575.6611281098
  0
LINE
  5
74
330
1F
100
AcDbEntity
  8
0
  6
Continuous
 62
     7
370
    15
100
AcDbLine
 10
366.1925591044
 20
658.7812497304
 30
0.0
 11
366.1925591044
 21
487.7697496698
 31
0.0
  0
SPLINE
  5
75
330
1F
100
AcDbEntity
  8
0
  6
Continuous
 62
     7
370
    15
100
AcDbSpline
210
0.0
220
0.0
230
1.0
 70
     8
 71
     3
 72
    38
 73
    34
 74
     0
 42
0.00000001
 43
0.00000001
 40
0.0
 40
0.0
 40
0.0
 40
0.0
 40
0.0021553134651012
 40
0.0285197359690284
 40
0.082144367843856
 40
0.1094686887291416
 40
0.1358332118554572
 40
0.1894576305485549
 40
0.216781554357214
 40
0.2431532455595291
 40
0.296791962694062
 40
0.3241230084132126
 40
0.3505057802759133
 40
0.4041670343404358
 40
0.4315095886706963
 40
0.457902457051418
 40
0.5115845623322339
 40
0.5389379880859679
 40
0.5653355725051326
 40
0.591916449982174
 40
0.6190755097949783
 40
0.6464343750013994
 40
0.6728292258052236
 40
0.7265162411101893
 40
0.7538727422637818
 40
0.7802586449301325
 40
0.8339275719590067
 40
0.8612749580773597
 40
0.8876495776722749
 40
0.9412954607025734
 40
0.9686309889025234
 40
0.9949969663301229
 40
1.0
 40
1.0
 40
1.0
 40
1.0
 10
382.3683695448746
 20
612.6868209824744
 30
0.0
 10
382.3683053129839
 20
612.688980841996
 30
0.0
 10
382.3674553778837
 20
612.7175607327105
 30
0.0
 10
382.3720081175599
 20
612.5643831347247
 30
0.0
 10
382.385401612903
 20
612.1131865243943
 30
0.0
 10
382.4098784514637
 20
611.2887497298016
 30
0.0
 10
382.4406731321249
 20
610.2515907280717
 30
0.0
 10
382.4809904100357
 20
608.8935024799601
 30
0.0
 10
382.5298540851371
 20
607.2472233435144
 30
0.0
 10
382.5840858558511
 20
605.4202125135258
 30
0.0
 10
382.6458803692152
 20
603.3378597959829
 30
0.0
 10
382.7137795928053
 20
601.0497345993184
 30
0.0
 10
382.7852941124976
 20
598.6392912318838
 30
0.0
 10
382.8616302797633
 20
596.0660713213807
 30
0.0
 10
382.9409025294866
 20
593.3933368965751
 30
0.0
 10
383.0216477452032
 20
590.6705847390147
 30
0.0
 10
383.1039162452336
 20
587.8960684964411
 30
0.0
 10
383.1856185174
 20
585.1400241310572
 30
0.0
 10
383.2460928140164
 20
583.0998021860628
 30
0.0
 10
383.305376592007
 20
581.0996235503935
 30
0.0
 10
383.3638756226001
 20
579.1255106624794
 30
0.0
 10
383.4203147196126
 20
577.2208358817007
 30
0.0
 10
383.4921568168489
 20
574.7960628220717
 30
0.0
 10
383.5587954643206
 20
572.5464380295195
 30
0.0
 10
383.618468906046
 20
570.5317407439361
 30
0.0
 10
383.6731981268195
 20
568.683844869978
 30
0.0
 10
383.720051040954
 20
567.101669120915
 30
0.0
 10
383.7577783608797
 20
565.8275449951808
 30
0.0
 10
383.7891673793073
 20
564.7673556840755
 30
0.0
 10
383.8114049099628
 20
564.0162875461318
 30
0.0
 10
383.8219624344658
 20
563.6597017254762
 30
0.0
 10
383.8266127505493
 20
563.502664589069
 30
0.0
 10
383.824742281957
 20
563.5658162594151
 30
0.0
 10
383.824443961512
 20
563.5758882993679
 30
0.0
  0
LWPOLYLINE
  5
76
330
1F
100
AcDbEntity
  8
0
  6
Continuous
 62
     7
370
    15
100
AcDbPolyline
 90
       33
 70
   128
 43
0.0
 10
415.2650205
 20
562.2913646069
 10
415.2650205
 20
562.2913646069
 10
415.2949308558
 20
562.4195611593
 10
415.3843415482
 20
562.8027462656
 10
415.532272826
 20
563.4367218148
 10
415.7371004624
 20
564.3145417265
 10
415.9965781076
 20
565.4265883635
 10
416.3078708155
 20
566.7606780329
 10
416.667562495
 20
568.3021943108
 10
417.0717117889
 20
570.034247546
 10
417.5158930524
 20
571.9378615753
 10
417.9952373309
 20
573.9921794296
 10
418.5044956906
 20
576.1746938363
 10
419.0380876465
 20
578.4614930884
 10
419.5901682181
 20
580.8275218145
 10
420.1546875341
 20
583.2468575821
 10
420.7254578872
 20
585.6929930881
 10
421.2962282403
 20
588.1391304568
 10
421.8607475562
 20
590.5584662245
 10
422.4128244026
 20
592.9244949506
 10
422.9464163585
 20
595.2112942026
 10
423.4556784434
 20
597.393807678
 10
423.935022722
 20
599.4481264637
 10
424.3792039855
 20
601.3517423556
 10
424.7833532794
 20
603.0837937281
 10
425.1430449588
 20
604.6253114031
 10
425.4543376668
 20
605.9594011889
 10
425.7138153119
 20
607.0714450464
 10
425.9186429484
 20
607.9492650018
 10
426.0665705009
 20
608.5832423554
 10
426.1559849186
 20
608.9664257155
 10
426.1858952744
 20
609.0946241305
 10
426.1858952744
 20
609.0946241305
  0
SPLINE
  5
77
330
1F
100
AcDbEntity
  8
0
  6
Continuous
 62
     7
370
    15
100
AcDbSpline
210
0.0
220
0.0
230
1.0
 70
    27
 71
     3
 72
     8
 73
     4
 74
     0
 42
0.00000001
 43
0.00000001
 40
0.0
 40
0.0
 40
0.0
 40
0.0
 40
1.0
 40
1.0
 40
1.0
 40
1.0
 10
433.3028695195776
 20
574.7626120690026
 30
0.0
 10
433.2901815568512
 20
574.7383171842118
 30
0.0
 10
433.2902004629678
 20
574.738353385605
 30
0.0
 10
433.3028695195779
 20
574.7626120690034
 30
0.0
  0
ARC
  5
78
330
1F
100
AcDbEntity
  8
0
  6
Continuous
 62
     7
370
    15
100
AcDbCircle
 10
444.0584373641
 20
602.566314522
 30
0.0
 40
1.404199999999943
100
AcDbArc
 50
23.8197983656
 51
111.671664185
  0
SPLINE
  5
79
330
1F
100
AcDbEntity
  8
0
  6
Continuous
 62
     7
370
    15
100
AcDbSpline
210
0.0
220
0.0
230
1.0
 70
     8
 71
     3
 72
    12
 73
     8
 74
     0
 42
0.00000001
 43
0.00000001
 40
0.0
 40
0.0
 40
0.0
 40
0.0
 40
0.2499999999999963
 40
0.2499999999999963
 40
0.4999999999999927
 40
0.4999999999999927
 40
1.0
 40
1.0
 40
1.0
 40
1.0
 10
464.6179200819352
 20
497.1178912835223
 30
0.0
 10
464.602568849996
 20
496.9441483780739
 30
0.0
 10
464.5556495021403
 20
496.7770195277785
 30
0.0
 10
464.4023369912223
 20
496.4655821481613
 30
0.0
 10
464.2975087000552
 20
496.3255893179874
 30
0.0
 10
463.9159373564618
 20
495.9742529954513
 30
0.0
 10
463.5753564436839
 20
495.839125093639
 30
0.0
 10
463.226521677786
 20
495.8372985823843
 30
0.0
  0
SPLINE
  5
7A
330
1F
100
AcDbEntity
  8
0
  6
Continuous
 62
     7
370
    15
100
AcDbSpline
210
0.0
220
0.0
230
1.0
 70
     8
 71
     3
 72
    36
 73
    32
 74
     0
 42
0.00000001
 43
0.00000001
 40
0.3263892953135015
 40
0.3263892953135015
 40
0.3263892953135015
 40
0.3263892953135015
 40
0.3353815153695952
 40
0.3747975400540342
 40
0.375
 40
0.4057753387287721
 40
0.4326064588307766
 40
0.4536904534700419
 40
0.4769531611006309
 40
0.4952294454498462
 40
0.5
 40
0.5144770561241051
 40
0.5295967943906683
 40
0.5468823295956309
 40
0.560460177969264
 40
0.6073137098251856
 40
0.625
 40
0.6440958449223523
 40
0.6576721111010727
 40
0.6683364848865533
 40
0.720820618206547
 40
0.75
 40
0.7620717853213841
 40
0.7962145516912557
 40
0.8231075603695729
 40
0.875
 40
0.8904516609980097
 40
0.9441411254934167
 40
0.975179944385961
 40
0.987531234388046
 40
1.0
 40
1.0
 40
1.0
 40
1.0
 10
447.1810388203876
 20
558.2850122878382
 30
0.0
 10
447.2171069863489
 20
558.0339372681644
 30
0.0
 10
447.4059796194846
 20
556.6802821526222
 30
0.0
 10
447.569265098093
 20
555.3122031269629
 30
0.0
 10
447.7861280157904
 20
553.3322023105615
 30
0.0
 10
447.9516780148776
 20
551.706948675649
 30
0.0
 10
448.1492430406059
 20
549.4961225040855
 30
0.0
 10
448.3096432404834
 20
547.4972009549044
 30
0.0
 10
448.4375250123854
 20
545.7390239192507
 30
0.0
 10
448.5241939829437
 20
544.4390573030367
 30
0.0
 10
448.5913184211332
 20
543.38575516739
 30
0.0
 10
448.6505132091492
 20
542.4210786523738
 30
0.0
 10
448.7275121713836
 20
541.1051212259559
 30
0.0
 10
448.8001686369929
 20
539.8143750561726
 30
0.0
 10
448.9204947560518
 20
537.6327434355599
 30
0.0
 10
449.0398861504617
 20
535.4395196942343
 30
0.0
 10
449.1789921238296
 20
533.090546752934
 30
0.0
 10
449.2683129074971
 20
531.675851802848
 30
0.0
 10
449.3518779527276
 20
530.4587059655264
 30
0.0
 10
449.5109097114879
 20
528.3047035262033
 30
0.0
 10
449.7426583365353
 20
525.7166812569432
 30
0.0
 10
450.0673063451356
 20
523.1026038722615
 30
0.0
 10
450.3729517122014
 20
521.0073018812978
 30
0.0
 10
450.718978167041
 20
518.9827360442599
 30
0.0
 10
451.3621776184667
 20
515.8660148058103
 30
0.0
 10
452.0222886145322
 20
513.2731043840375
 30
0.0
 10
453.0188564126858
 20
509.9442924101423
 30
0.0
 10
453.9841711559471
 20
507.2021795721107
 30
0.0
 10
455.1443429345895
 20
504.6099498218019
 30
0.0
 10
455.8879881335487
 20
503.1459734137646
 30
0.0
 10
456.2387540267669
 20
502.5033367932785
 30
0.0
 10
456.4203542364569
 20
502.1826979779378
 30
0.0
  0
SPLINE
  5
7B
330
1F
100
AcDbEntity
  8
0
  6
Continuous
 62
     7
370
    15
100
AcDbSpline
210
0.0
220
0.0
230
1.0
 70
     8
 71
     3
 72
    15
 73
    11
 74
     0
 42
0.00000001
 43
0.00000001
 40
0.0622547474671161
 40
0.0622547474671161
 40
0.0622547474671161
 40
0.0622547474671161
 40
0.0687156575595282
 40
0.0687156575595282
 40
0.1167394928920224
 40
0.1407514105582696
 40
0.1647633282245166
 40
0.1887752458907637
 40
0.2127871635570108
 40
0.2608110056307704
 40
0.2608110056307704
 40
0.2608110056307704
 40
0.2608110056307704
 10
443.5398842687144
 20
603.8712590906299
 30
0.0
 10
443.4919052329386
 20
603.8521933938075
 30
0.0
 10
443.4430167662752
 20
603.832766311365
 30
0.0
 10
443.0214949309389
 20
603.6652638306122
 30
0.0
 10
442.450473831064
 20
603.3533818074875
 30
0.0
 10
441.7947753310843
 20
602.7256619036151
 30
0.0
 10
441.3876897317635
 20
602.1848773905051
 30
0.0
 10
441.0665744606811
 20
601.6103476077298
 30
0.0
 10
440.7386275076672
 20
600.8478271539124
 30
0.0
 10
440.5741587524836
 20
600.3139425778613
 30
0.0
 10
440.4811469678027
 20
599.9831709941741
 30
0.0
  0
SPLINE
  5
7C
330
1F
100
AcDbEntity
  8
0
  6
Continuous
 62
     7
370
    15
100
AcDbSpline
210
0.0
220
0.0
230
1.0
 70
     8
 71
     3
 72
    18
 73
    14
 74
     0
 42
0.00000001
 43
0.00000001
 40
0.0
 40
0.0
 40
0.0
 40
0.0
 40
0.013671875
 40
0.0341796875
 40
0.068359375
 40
0.247802734375
 40
0.546875
 40
0.669921875
 40
0.875
 40
0.93359375
 40
0.96875
 40
0.984375
 40
1.0
 40
1.0
 40
1.0
 40
1.0
 10
462.9820797260545
 20
495.8360186756215
 30
0.0
 10
462.9452176932317
 20
495.8358256647051
 30
0.0
 10
462.8532055105034
 20
495.837105034013
 30
0.0
 10
462.7804834300804
 20
495.843152191262
 30
0.0
 10
462.3623347606382
 20
495.8926836604538
 30
0.0
 10
461.3693077918171
 20
496.2381083372196
 30
0.0
 10
460.0459409116705
 20
497.2574084759114
 30
0.0
 10
458.5881845050187
 20
498.8760654215908
 30
0.0
 10
457.6653687360416
 20
500.1387134150395
 30
0.0
 10
456.9511949744261
 20
501.2765833519386
 30
0.0
 10
456.6901795872343
 20
501.7142922981026
 30
0.0
 10
456.5319166550043
 20
501.9866585683721
 30
0.0
 10
456.4434032091505
 20
502.1420020151612
 30
0.0
 10
456.4203542364569
 20
502.1826979779378
 30
0.0
  0
LINE
  5
7D
330
1F
100
AcDbEntity
  8
0
  6
Continuous
 62
     7
370
    15
100
AcDbLine
 10
463.2265237672
 20
495.8372979448
 30
0.0
 11
462.9820776684
 21
495.8360164449
 31
0.0
  0
SPLINE
  5
7E
330
1F
100
AcDbEntity
  8
0
  6
Continuous
 62
     7
370
    15
100
AcDbSpline
210
0.0
220
0.0
230
1.0
 70
     8
 71
     3
 72
     9
 73
     5
 74
     0
 42
0.00000001
 43
0.00000001
 40
0.0781920662502744
 40
0.0781920662502744
 40
0.0781920662502744
 40
0.0781920662502744
 40
0.5
 40
1.0
 40
1.0
 40
1.0
 40
1.0
 10
445.3430278461255
 20
603.1334167469264
 30
0.0
 10
446.3252515012044
 20
600.9085001392771
 30
0.0
 10
448.3529049507206
 20
595.9987653056619
 30
0.0
 10
450.1195406546475
 20
590.9885249011609
 30
0.0
 10
451.0005597450325
 20
588.2424596659757
 30
0.0
  0
SPLINE
  5
7F
330
1F
100
AcDbEntity
  8
0
  6
Continuous
 62
     7
370
    15
100
AcDbSpline
210
0.0
220
0.0
230
1.0
 70
     8
 71
     3
 72
    43
 73
    39
 74
     0
 42
0.00000001
 43
0.00000001
 40
0.0
 40
0.0
 40
0.0
 40
0.0
 40
0.012028202579497
 40
0.0238728000143527
 40
0.0355477003679017
 40
0.0470684244967546
 40
0.0584502905955065
 40
0.0697091304770324
 40
0.0808593688941037
 40
0.0919117663163034
 40
0.1028759670083547
 40
0.1137608396312573
 40
0.1245745254724219
 40
0.1353244752227214
 40
0.1460174941693391
 40
0.1566598023858897
 40
0.1672571063316395
 40
0.1778146720072598
 40
0.1883373849656047
 40
0.1988297717152173
 40
0.2092959979029374
 40
0.2197399037919716
 40
0.2301650648804355
 40
0.2405747702800987
 40
0.2509719957786294
 40
0.261359394639621
 40
0.2717392961915274
 40
0.2821137034148232
 40
0.292484283851452
 40
0.3028523515714776
 40
0.313218840843258
 40
0.4330251599254274
 40
0.5536649475288244
 40
0.6758558033971338
 40
0.7995641734091137
 40
0.8786093405792572
 40
0.9581912556317129
 40
1.0
 40
1.0
 40
1.0
 40
1.0
 10
438.5088591198557
 20
575.1803450951604
 30
0.0
 10
438.5846176710612
 20
575.1556188683003
 30
0.0
 10
438.7349783529963
 20
575.1065438493986
 30
0.0
 10
438.9552280739823
 20
575.0229755779899
 30
0.0
 10
439.1694221963588
 20
574.9334141619345
 30
0.0
 10
439.3775325474143
 20
574.8375907992928
 30
0.0
 10
439.5798526728688
 20
574.7361062778647
 30
0.0
 10
439.7766042361378
 20
574.629261524413
 30
0.0
 10
439.9680136021994
 20
574.5173894604477
 30
0.0
 10
440.1542781917432
 20
574.4007890674771
 30
0.0
 10
440.3355782359479
 20
574.2797527145731
 30
0.0
 10
440.5120908869811
 20
574.154553553706
 30
0.0
 10
440.6839909378566
 20
574.0254462964134
 30
0.0
 10
440.8514488273804
 20
573.8926666048181
 30
0.0
 10
441.0146289721422
 20
573.7564312277262
 30
0.0
 10
441.1736888185995
 20
573.6169385870066
 30
0.0
 10
441.3287789384465
 20
573.4743701172557
 30
0.0
 10
441.4800439761262
 20
573.32889215944
 30
0.0
 10
441.6276241365458
 20
573.1806583882106
 30
0.0
 10
441.7716547875485
 20
573.0298105757146
 30
0.0
 10
441.9122634964364
 20
572.876477128674
 30
0.0
 10
442.0495698312848
 20
572.7207741531251
 30
0.0
 10
442.1836926630928
 20
572.562812747927
 30
0.0
 10
442.3147472978932
 20
572.4026971576885
 30
0.0
 10
442.4428425096118
 20
572.2405239272025
 30
0.0
 10
442.5680791393014
 20
572.0763822918518
 30
0.0
 10
442.690549843259
 20
571.9103553301255
 30
0.0
 10
442.8103402326163
 20
571.7425216836784
 30
0.0
 10
442.9275286352275
 20
571.572957346891
 30
0.0
 10
443.0421924527994
 20
571.4017379120802
 30
0.0
 10
443.5492099991006
 20
570.620857580085
 30
0.0
 10
444.3353829697296
 20
569.1503883161978
 30
0.0
 10
445.2297813999406
 20
566.9175983877849
 30
0.0
 10
445.945804429438
 20
564.5950975473298
 30
0.0
 10
446.4477083045935
 20
562.500591774705
 30
0.0
 10
446.8069503316157
 20
560.6648141412514
 30
0.0
 10
447.0245299361943
 20
559.3547597561453
 30
0.0
 10
447.1409434056307
 20
558.5590618906838
 30
0.0
 10
447.181037931914
 20
558.2850117388006
 30
0.0
  0
SPLINE
  5
80
330
1F
100
AcDbEntity
  8
0
  6
Continuous
 62
     7
370
    15
100
AcDbSpline
210
0.0
220
0.0
230
1.0
 70
     8
 71
     3
 72
    16
 73
    12
 74
     0
 42
0.00000001
 43
0.00000001
 40
0.0
 40
0.0
 40
0.0
 40
0.0
 40
0.1249999999999962
 40
0.1249999999999962
 40
0.2499999999999923
 40
0.2499999999999923
 40
0.4999999999999949
 40
0.4999999999999949
 40
0.7499999999999974
 40
0.7499999999999974
 40
1.0
 40
1.0
 40
1.0
 40
1.0
 10
436.7034374381628
 20
575.7969230726136
 30
0.0
 10
436.8360866644961
 20
575.7831769563148
 30
0.0
 10
436.9650238817226
 20
575.7615352140728
 30
0.0
 10
437.2084788835664
 20
575.7069782977204
 30
0.0
 10
437.3246776925312
 20
575.67377753782
 30
0.0
 10
437.6538900316199
 20
575.5637154027227
 30
0.0
 10
437.8434683060017
 20
575.4775731389337
 30
0.0
 10
438.1635867109547
 20
575.3315254911117
 30
0.0
 10
438.2888694827009
 20
575.2736367771939
 30
0.0
 10
438.4641045546996
 20
575.1968838098412
 30
0.0
 10
438.5088591027375
 20
575.180601733935
 30
0.0
 10
438.5088591027406
 20
575.1803450688648
 30
0.0
  0
SPLINE
  5
81
330
1F
100
AcDbEntity
  8
0
  6
Continuous
 62
     7
370
    15
100
AcDbSpline
210
0.0
220
0.0
230
1.0
 70
     8
 71
     3
 72
     9
 73
     5
 74
     0
 42
0.00000001
 43
0.00000001
 40
0.0
 40
0.0
 40
0.0
 40
0.0
 40
0.05
 40
0.884336997608332
 40
0.884336997608332
 40
0.884336997608332
 40
0.884336997608332
 10
440.4811469286324
 20
599.9831708548759
 30
0.0
 10
440.4337822622997
 20
599.8147310625693
 30
0.0
 10
439.6546740554198
 20
596.8880856934765
 30
0.0
 10
439.2405611339534
 20
595.2098390194458
 30
0.0
 10
437.5065169117552
 20
594.8354392175276
 30
0.0
  0
SPLINE
  5
82
330
1F
100
AcDbEntity
  8
0
  6
Continuous
 62
     7
370
    15
100
AcDbSpline
210
0.0
220
0.0
230
1.0
 70
     8
 71
     3
 72
    14
 73
    10
 74
     0
 42
0.00000001
 43
0.00000001
 40
0.0
 40
0.0
 40
0.0
 40
0.0
 40
0.25
 40
0.25
 40
0.5
 40
0.5
 40
0.75
 40
0.75
 40
1.0
 40
1.0
 40
1.0
 40
1.0
 10
435.7498286779854
 20
595.8675078975433
 30
0.0
 10
435.8041958366725
 20
595.6890916685645
 30
0.0
 10
435.8921008725567
 20
595.5209569005492
 30
0.0
 10
436.1230746703326
 20
595.2280342613237
 30
0.0
 10
436.2660702629155
 20
595.1033391839602
 30
0.0
 10
436.5877014751089
 20
594.9143789677421
 30
0.0
 10
436.7662352063938
 20
594.8501736888743
 30
0.0
 10
437.1345457789404
 20
594.7910132593577
 30
0.0
 10
437.3242059444996
 20
594.7960768499158
 30
0.0
 10
437.5065205465167
 20
594.8354411617235
 30
0.0
  0
SPLINE
  5
83
330
1F
100
AcDbEntity
  8
0
  6
Continuous
 62
     7
370
    15
100
AcDbSpline
210
0.0
220
0.0
230
1.0
 70
     8
 71
     3
 72
     8
 73
     4
 74
     0
 42
0.00000001
 43
0.00000001
 40
0.0
 40
0.0
 40
0.0
 40
0.0
 40
1.0
 40
1.0
 40
1.0
 40
1.0
 10
434.1930035330083
 20
575.6456216090411
 30
0.0
 10
434.333426345892
 20
575.7134149133337
 30
0.0
 10
434.4931386969944
 20
575.7666356414818
 30
0.0
 10
434.6690531037347
 20
575.7867167414083
 30
0.0
  0
SPLINE
  5
84
330
1F
100
AcDbEntity
  8
0
  6
Continuous
 62
     7
370
    15
100
AcDbSpline
210
0.0
220
0.0
230
1.0
 70
     8
 71
     3
 72
    10
 73
     6
 74
     0
 42
0.00000001
 43
0.00000001
 40
0.0
 40
0.0
 40
0.0
 40
0.0
 40
0.5
 40
0.5
 40
1.0
 40
1.0
 40
1.0
 40
1.0
 10
433.5672142345223
 20
575.1624718000382
 30
0.0
 10
433.6450243565822
 20
575.252977505284
 30
0.0
 10
433.7346554779886
 20
575.3416115193639
 30
0.0
 10
433.9412170978795
 20
575.5062532920978
 30
0.0
 10
434.0591677891493
 20
575.5831322989359
 30
0.0
 10
434.1930035330067
 20
575.6456216090473
 30
0.0
  0
SPLINE
  5
85
330
1F
100
AcDbEntity
  8
0
  6
Continuous
 62
     7
370
    15
100
AcDbSpline
210
0.0
220
0.0
230
1.0
 70
     8
 71
     3
 72
     8
 73
     4
 74
     0
 42
0.00000001
 43
0.00000001
 40
0.0
 40
0.0
 40
0.0
 40
0.0
 40
1.0
 40
1.0
 40
1.0
 40
1.0
 10
433.410258412002
 20
574.9449286884833
 30
0.0
 10
433.4408515680237
 20
574.9958393512892
 30
0.0
 10
433.4880581259424
 20
575.0704004956647
 30
0.0
 10
433.5672142345228
 20
575.1624718000388
 30
0.0
  0
SPLINE
  5
86
330
1F
100
AcDbEntity
  8
0
  6
Continuous
 62
     7
370
    15
100
AcDbSpline
210
0.0
220
0.0
230
1.0
 70
     8
 71
     3
 72
     8
 73
     4
 74
     0
 42
0.00000001
 43
0.00000001
 40
0.0
 40
0.0
 40
0.0
 40
0.0
 40
1.0
 40
1.0
 40
1.0
 40
1.0
 10
433.3028695195779
 20
574.7626120690034
 30
0.0
 10
433.3198837090094
 20
574.7951908037428
 30
0.0
 10
433.3570698733023
 20
574.8642315712517
 30
0.0
 10
433.410258412002
 20
574.9449286884832
 30
0.0
  0
SPLINE
  5
87
330
1F
100
AcDbEntity
  8
0
  6
Continuous
 62
     7
370
    15
100
AcDbSpline
210
0.0
220
0.0
230
1.0
 70
     8
 71
     3
 72
    14
 73
    10
 74
     0
 42
0.00000001
 43
0.00000001
 40
0.0
 40
0.0
 40
0.0
 40
0.0
 40
0.25
 40
0.25
 40
0.5
 40
0.5
 40
0.75
 40
0.75
 40
1.0
 40
1.0
 40
1.0
 40
1.0
 10
436.7034399799588
 20
575.7969500948072
 30
0.0
 10
436.5360716701734
 20
575.8143919124775
 30
0.0
 10
436.3657500125369
 20
575.8276761847095
 30
0.0
 10
436.0192809971713
 20
575.8448432879604
 30
0.0
 10
435.8410668681491
 20
575.8486595664142
 30
0.0
 10
435.4924344727312
 20
575.8461614046677
 30
0.0
 10
435.3212895785778
 20
575.8400118740873
 30
0.0
 10
434.9853428090771
 20
575.8190194323489
 30
0.0
 10
434.8220691324152
 20
575.8041839302488
 30
0.0
 10
434.6690531037347
 20
575.7867167414083
 30
0.0
  0
LINE
  5
88
330
1F
100
AcDbEntity
  8
0
  6
Continuous
 62
     7
370
    15
100
AcDbLine
 10
434.1930044396
 20
575.6611281098
 30
0.0
 11
437.390719126
 21
575.6611281098
 31
0.0
  0
LINE
  5
89
330
1F
100
AcDbEntity
  8
0
  6
Continuous
 62
     8
370
     0
100
AcDbLine
 10
375.4711277364
 20
658.5382788465
 30
0.0
 11
375.4711277364
 21
488.0127131031
 31
0.0
  0
LINE
  5
8A
330
1F
100
AcDbEntity
  8
0
  6
Continuous
 62
     8
370
     0
100
AcDbLine
 10
376.8186872406
 20
657.3700278089
 30
0.0
 11
376.8186872406
 21
489.1809715913
 31
0.0
  0
SPLINE
  5
8B
330
1F
100
AcDbEntity
  8
0
  6
Continuous
 62
     8
370
     0
100
AcDbSpline
210
0.0
220
0.0
230
1.0
 70
     8
 71
     3
 72
    24
 73
    20
 74
     0
 42
0.00000001
 43
0.00000001
 40
0.0
 40
0.0
 40
0.0
 40
0.0
 40
0.2499999999999997
 40
0.2499999999999997
 40
0.3125000000000003
 40
0.3125000000000003
 40
0.3750000000000008
 40
0.3750000000000008
 40
0.5000000000000012
 40
0.5000000000000012
 40
0.5625000000000012
 40
0.5625000000000012
 40
0.6250000000000013
 40
0.6250000000000013
 40
0.7500000000000009
 40
0.7500000000000009
 40
0.8750000000000004
 40
0.8750000000000004
 40
1.0
 40
1.0
 40
1.0
 40
1.0
 10
435.2654531939791
 20
587.5387331825792
 30
0.0
 10
435.3612101144984
 20
588.6694452510504
 30
0.0
 10
435.4277637617242
 20
589.7569450035174
 30
0.0
 10
435.4763074895184
 20
591.0624172589194
 30
0.0
 10
435.4842762701469
 20
591.32131385845
 30
0.0
 10
435.4965902812194
 20
591.8310206939212
 30
0.0
 10
435.5001055839542
 20
592.0818163189759
 30
0.0
 10
435.5108356616994
 20
592.8080899072067
 30
0.0
 10
435.5245294676506
 20
593.2467789359494
 30
0.0
 10
435.5547701968089
 20
593.8347292520868
 30
0.0
 10
435.5664784543344
 20
594.017513883401
 30
0.0
 10
435.5921929568007
 20
594.3454193380146
 30
0.0
 10
435.607028246249
 20
594.4904379212002
 30
0.0
 10
435.6493620005712
 20
594.892188445924
 30
0.0
 10
435.673024545967
 20
595.1204042251871
 30
0.0
 10
435.7112026688438
 20
595.4935004271558
 30
0.0
 10
435.725345165226
 20
595.6341097734534
 30
0.0
 10
435.7444709230061
 20
595.8212358068915
 30
0.0
 10
435.749678557902
 20
595.867899026328
 30
0.0
 10
435.7498283328998
 20
595.8675089097028
 30
0.0
  0
SPLINE
  5
8C
330
1F
100
AcDbEntity
  8
0
  6
Continuous
 62
     8
370
     0
100
AcDbSpline
210
0.0
220
0.0
230
1.0
 70
     8
 71
     3
 72
    18
 73
    14
 74
     0
 42
0.00000001
 43
0.00000001
 40
0.0
 40
0.0
 40
0.0
 40
0.0
 40
0.1249999999999996
 40
0.1249999999999996
 40
0.2499999999999997
 40
0.2499999999999997
 40
0.4999999999999992
 40
0.4999999999999992
 40
0.6249999999999993
 40
0.6249999999999993
 40
0.7499999999999993
 40
0.7499999999999993
 40
1.0
 40
1.0
 40
1.0
 40
1.0
 10
433.8969139662302
 20
578.3538870049097
 30
0.0
 10
433.9743119001915
 20
578.6958174807271
 30
0.0
 10
434.0497559613144
 20
579.0470077042233
 30
0.0
 10
434.195259436499
 20
579.7598678016284
 30
0.0
 10
434.2655276593403
 20
580.1224243852147
 30
0.0
 10
434.4691427901381
 20
581.2282340117762
 30
0.0
 10
434.5953540044206
 20
581.989483218528
 30
0.0
 10
434.7704375140959
 20
583.1689727644002
 30
0.0
 10
434.8260682380717
 20
583.5663199379915
 30
0.0
 10
434.9305841673584
 20
584.3586624052009
 30
0.0
 10
434.979706435717
 20
584.7552364312735
 30
0.0
 10
435.1179039491838
 20
585.9461385240586
 30
0.0
 10
435.1978878301302
 20
586.7416366049366
 30
0.0
 10
435.2654412230161
 20
587.5387397079936
 30
0.0
  0
SPLINE
  5
8D
330
1F
100
AcDbEntity
  8
0
  6
Continuous
 62
     8
370
     0
100
AcDbSpline
210
0.0
220
0.0
230
1.0
 70
     8
 71
     3
 72
    12
 73
     8
 74
     0
 42
0.00000001
 43
0.00000001
 40
0.0
 40
0.0
 40
0.0
 40
0.0
 40
0.2500000000000001
 40
0.2500000000000001
 40
0.5000000000000002
 40
0.5000000000000002
 40
1.0
 40
1.0
 40
1.0
 40
1.0
 10
433.4625000899354
 20
576.0653969678256
 30
0.0
 10
433.4790877420088
 20
576.201237976749
 30
0.0
 10
433.5010178891185
 20
576.3524811994627
 30
0.0
 10
433.5552265067482
 20
576.685061541878
 30
0.0
 10
433.5877279376596
 20
576.867457297496
 30
0.0
 10
433.6981719089533
 20
577.4467743648638
 30
0.0
 10
433.7891724020241
 20
577.8779037011096
 30
0.0
 10
433.8969139662302
 20
578.3538870049097
 30
0.0
  0
SPLINE
  5
8E
330
1F
100
AcDbEntity
  8
0
  6
Continuous
 62
     8
370
     0
100
AcDbSpline
210
0.0
220
0.0
230
1.0
 70
     8
 71
     3
 72
    12
 73
     8
 74
     0
 42
0.00000001
 43
0.00000001
 40
0.0
 40
0.0
 40
0.0
 40
0.0
 40
0.25
 40
0.25
 40
0.5
 40
0.5
 40
1.0
 40
1.0
 40
1.0
 40
1.0
 10
433.302869519578
 20
574.7626120690034
 30
0.0
 10
433.3039692377093
 20
574.7715563118085
 30
0.0
 10
433.3081651610934
 20
574.805678015304
 30
0.0
 10
433.3229242100035
 20
574.9257822276564
 30
0.0
 10
433.3334886094573
 20
575.0117765799774
 30
0.0
 10
433.3738266021795
 20
575.3404784579886
 30
0.0
 10
433.4122846749708
 20
575.6541686274849
 30
0.0
 10
433.4625000899354
 20
576.0653969678256
 30
0.0
  0
SPLINE
  5
8F
330
1F
100
AcDbEntity
  8
0
  6
Continuous
 62
     8
370
     0
100
AcDbSpline
210
0.0
220
0.0
230
1.0
 70
     8
 71
     3
 72
    38
 73
    34
 74
     0
 42
0.00000001
 43
0.00000001
 40
0.0
 40
0.0
 40
0.0
 40
0.0
 40
0.0312499999999999
 40
0.0312499999999999
 40
0.0624999999999998
 40
0.0624999999999998
 40
0.1249999999999996
 40
0.1249999999999996
 40
0.1874999999999993
 40
0.1874999999999993
 40
0.2499999999999991
 40
0.2499999999999991
 40
0.3124999999999988
 40
0.3124999999999988
 40
0.3749999999999986
 40
0.3749999999999986
 40
0.4999999999999984
 40
0.4999999999999984
 40
0.5624999999999987
 40
0.5624999999999987
 40
0.6249999999999988
 40
0.6249999999999988
 40
0.7499999999999992
 40
0.7499999999999992
 40
0.8124999999999993
 40
0.8124999999999993
 40
0.8749999999999994
 40
0.8749999999999994
 40
0.9374999999999994
 40
0.9374999999999994
 40
0.9687499999999998
 40
0.9687499999999998
 40
1.0
 40
1.0
 40
1.0
 40
1.0
 10
445.3430278461255
 20
603.1334167469264
 30
0.0
 10
445.3430280545677
 20
603.1334162747665
 30
0.0
 10
445.3455353726898
 20
603.1271062043702
 30
0.0
 10
445.3554157367019
 20
603.1021653206014
 30
0.0
 10
445.3627887007618
 20
603.0835346880584
 30
0.0
 10
445.3920553259737
 20
603.0094278073885
 30
0.0
 10
445.4210741456722
 20
602.9357944581684
 30
0.0
 10
445.4978786199374
 20
602.7400758833347
 30
0.0
 10
445.5455949959129
 20
602.6181613778389
 30
0.0
 10
445.6575806794723
 20
602.3309473474953
 30
0.0
 10
445.7220018528341
 20
602.1652626213312
 30
0.0
 10
445.8673740354158
 20
601.790044789224
 30
0.0
 10
445.9483187875989
 20
601.5805276978327
 30
0.0
 10
446.1262082720468
 20
601.1176835050902
 30
0.0
 10
446.2237443255563
 20
600.862801541331
 30
0.0
 10
446.5355880849054
 20
600.0427700313166
 30
0.0
 10
446.7679373898391
 20
599.425494053037
 30
0.0
 10
447.1500475813595
 20
598.3938535525389
 30
0.0
 10
447.2830729550899
 20
598.0321938028605
 30
0.0
 10
447.5601415657815
 20
597.2727171239522
 30
0.0
 10
447.7034642248432
 20
596.8768354162058
 30
0.0
 10
448.13955308998
 20
595.6618952846134
 30
0.0
 10
448.4411073387975
 20
594.8083794243487
 30
0.0
 10
448.9077057534491
 20
593.4609050153886
 30
0.0
 10
449.0656583391548
 20
593.0004334261802
 30
0.0
 10
449.3865321515742
 20
592.0560041229506
 30
0.0
 10
449.5490088103069
 20
591.5732966432988
 30
0.0
 10
449.8718228810897
 20
590.6051590935625
 30
0.0
 10
450.0330093064866
 20
590.1172392459209
 30
0.0
 10
450.2743849029766
 20
589.3795439299013
 30
0.0
 10
450.3547758407805
 20
589.1326742754302
 30
0.0
 10
450.5154070865917
 20
588.6369622506849
 30
0.0
 10
450.5961766052063
 20
588.3864704274137
 30
0.0
 10
450.6758033480282
 20
588.1382681916367
 30
0.0
  0
SPLINE
  5
90
330
1F
100
AcDbEntity
  8
0
  6
Continuous
 62
     8
370
     0
100
AcDbSpline
210
0.0
220
0.0
230
1.0
 70
     8
 71
     3
 72
    28
 73
    24
 74
     0
 42
0.00000001
 43
0.00000001
 40
0.0
 40
0.0
 40
0.0
 40
0.0
 40
0.062500000000001
 40
0.062500000000001
 40
0.1250000000000021
 40
0.1250000000000021
 40
0.1875000000000031
 40
0.1875000000000031
 40
0.2187500000000036
 40
0.2187500000000036
 40
0.2500000000000041
 40
0.2500000000000041
 40
0.3125000000000051
 40
0.3125000000000051
 40
0.3437500000000058
 40
0.3437500000000058
 40
0.3593750000000057
 40
0.3593750000000057
 40
0.3750000000000057
 40
0.3750000000000057
 40
0.5000000000000047
 40
0.5000000000000047
 40
1.0
 40
1.0
 40
1.0
 40
1.0
 10
464.4486511472736
 20
502.385996505869
 30
0.0
 10
464.4577056126836
 20
501.9953498120546
 30
0.0
 10
464.4668533820802
 20
501.6082821950914
 30
0.0
 10
464.4827731993291
 20
500.8543597408801
 30
0.0
 10
464.4897244857326
 20
500.4931874565075
 30
0.0
 10
464.5017410529447
 20
499.815273462881
 30
0.0
 10
464.506848881204
 20
499.4934813776946
 30
0.0
 10
464.51354780832
 20
499.0699113323811
 30
0.0
 10
464.5156393942928
 20
498.937520026081
 30
0.0
 10
464.5196543231402
 20
498.6897468362377
 30
0.0
 10
464.521588791568
 20
498.573705983209
 30
0.0
 10
464.5272657030963
 20
498.2570226953328
 30
0.0
 10
464.5308307545623
 20
498.0881114260263
 30
0.0
 10
464.5372041990386
 20
497.898602156446
 30
0.0
 10
464.5395161166817
 20
497.8463221719168
 30
0.0
 10
464.5433756721227
 20
497.7869887232288
 30
0.0
 10
464.544731089274
 20
497.7702748203843
 30
0.0
 10
464.5476167997164
 20
497.7430266438192
 30
0.0
 10
464.5491911137998
 20
497.7334407905165
 30
0.0
 10
464.5628865258496
 20
497.6443249261869
 30
0.0
 10
464.572792870548
 20
497.5726402220945
 30
0.0
 10
464.6133212234308
 20
497.2524978526033
 30
0.0
 10
464.6181615832215
 20
497.117939690078
 30
0.0
 10
464.6179200819349
 20
497.1178912835222
 30
0.0
  0
SPLINE
  5
91
330
1F
100
AcDbEntity
  8
0
  6
Continuous
 62
     8
370
     0
100
AcDbSpline
210
0.0
220
0.0
230
1.0
 70
     8
 71
     3
 72
    24
 73
    20
 74
     0
 42
0.00000001
 43
0.00000001
 40
0.0
 40
0.0
 40
0.0
 40
0.0
 40
0.1249999999999999
 40
0.1249999999999999
 40
0.2499999999999999
 40
0.2499999999999999
 40
0.3749999999999998
 40
0.3749999999999998
 40
0.4999999999999999
 40
0.4999999999999999
 40
0.7499999999999997
 40
0.7499999999999997
 40
0.8749999999999998
 40
0.8749999999999998
 40
0.9374999999999999
 40
0.9374999999999999
 40
0.96875
 40
0.96875
 40
1.0
 40
1.0
 40
1.0
 40
1.0
 10
450.676863591698
 20
588.13496329393
 30
0.0
 10
451.7860486822449
 20
584.6774727449015
 30
0.0
 10
452.8220273546336
 20
581.1990953561641
 30
0.0
 10
454.7430415324193
 20
574.1992752579218
 30
0.0
 10
455.6270583130431
 20
570.6764646614562
 30
0.0
 10
457.2423929070612
 20
563.5970423471164
 30
0.0
 10
457.9774485197503
 20
560.0407577194419
 30
0.0
 10
459.3389262905815
 20
552.9075164006578
 30
0.0
 10
459.9620112621733
 20
549.3311932350684
 30
0.0
 10
461.6523328028734
 20
538.5730237332617
 30
0.0
 10
462.5431533897936
 20
531.3605529055649
 30
0.0
 10
463.5236750800147
 20
520.5149412734477
 30
0.0
 10
463.7913766778264
 20
516.8937541129077
 30
0.0
 10
464.1042567773683
 20
511.4565661443523
 30
0.0
 10
464.1936834498534
 20
509.6433831479072
 30
0.0
 10
464.3059012160837
 20
506.9224440479362
 30
0.0
 10
464.3396955243427
 20
506.0153283622777
 30
0.0
 10
464.399787093455
 20
504.2008443021728
 30
0.0
 10
464.4276162294774
 20
503.2935028354398
 30
0.0
 10
464.4486511472809
 20
502.3859965058701
 30
0.0
  0
LWPOLYLINE
  5
92
330
1F
100
AcDbEntity
  8
0
  6
Continuous
 62
     8
370
     0
100
AcDbPolyline
 90
        3
 70
   128
 43
0.0
 10
447.1810353501
 20
558.2850120985
 10
447.1809161408
 20
558.2879024581
 10
447.1813110216
 20
558.2908980572
  0
LWPOLYLINE
  5
93
330
1F
100
AcDbEntity
  8
0
  6
Continuous
 62
     8
370
     0
100
AcDbPolyline
 90
        3
 70
   128
 43
0.0
 10
449.3399602873
 20
587.7096920297
 10
449.3399453862
 20
587.7097479091
 10
449.3388277991
 20
587.7132403687
  0
LWPOLYLINE
  5
94
330
1F
100
AcDbEntity
  8
0
  6
Continuous
 62
     8
370
     0
100
AcDbPolyline
 90
        3
 70
   128
 43
0.0
 10
450.6758046849
 20
588.1382680521
 10
450.675819586
 20
588.1382103101
 10
450.6768626673
 20
588.1349637196
  0
SPLINE
  5
95
330
1F
100
AcDbEntity
  8
0
  6
Continuous
 62
     8
370
     0
100
AcDbSpline
210
0.0
220
0.0
230
1.0
 70
     8
 71
     3
 72
    34
 73
    30
 74
     0
 42
0.00000001
 43
0.00000001
 40
0.0
 40
0.0
 40
0.0
 40
0.0
 40
0.03125
 40
0.03125
 40
0.0625
 40
0.0625
 40
0.1250000000000001
 40
0.1250000000000001
 40
0.2500000000000002
 40
0.2500000000000002
 40
0.3750000000000004
 40
0.3750000000000004
 40
0.4375000000000003
 40
0.4375000000000003
 40
0.5000000000000003
 40
0.5000000000000003
 40
0.5625000000000003
 40
0.5625000000000003
 40
0.6250000000000002
 40
0.6250000000000002
 40
0.7500000000000001
 40
0.7500000000000001
 40
0.8749999999999999
 40
0.8749999999999999
 40
0.9374999999999999
 40
0.9374999999999999
 40
0.9687499999999999
 40
0.9687499999999999
 40
1.0
 40
1.0
 40
1.0
 40
1.0
 10
437.5065169117553
 20
594.8354392175277
 30
0.0
 10
437.5068860359018
 20
594.8356448638073
 30
0.0
 10
437.5075343913957
 20
594.8334249761705
 30
0.0
 10
437.5079716592869
 20
594.8236803931546
 30
0.0
 10
437.5077644525303
 20
594.816157907435
 30
0.0
 10
437.5038626638965
 20
594.7849893861961
 30
0.0
 10
437.4963192754986
 20
594.7525378020954
 30
0.0
 10
437.4633187236083
 20
594.6233572644634
 30
0.0
 10
437.4303184765888
 20
594.4943294289894
 30
0.0
 10
437.3481057070745
 20
594.1537093075493
 30
0.0
 10
437.2997557095983
 20
593.9463578616716
 30
0.0
 10
437.2192138303008
 20
593.5837158975294
 30
0.0
 10
437.188535765924
 20
593.4541810386064
 30
0.0
 10
437.1363409107067
 20
593.1571282733574
 30
0.0
 10
437.1129588761178
 20
592.9898964522899
 30
0.0
 10
437.0739916667749
 20
592.6306736020881
 30
0.0
 10
437.0582784472093
 20
592.4394522357549
 30
0.0
 10
437.0335206773202
 20
592.0345443033391
 30
0.0
 10
437.0240320809733
 20
591.81955068306
 30
0.0
 10
437.0092188920107
 20
591.1487350692203
 30
0.0
 10
436.9872673765459
 20
590.6816280094804
 30
0.0
 10
436.9278035328261
 20
589.7340389086245
 30
0.0
 10
436.8898552402027
 20
589.2511510750558
 30
0.0
 10
436.8249819991473
 20
588.5132833698184
 30
0.0
 10
436.802036241284
 20
588.2650627264844
 30
0.0
 10
436.7661139628156
 20
587.8892689429032
 30
0.0
 10
436.7538858575288
 20
587.763426812206
 30
0.0
 10
436.7289878160475
 20
587.5105701106818
 30
0.0
 10
436.7161583616017
 20
587.3819686418071
 30
0.0
 10
436.7034591027407
 20
587.2559443793729
 30
0.0
  0
SPLINE
  5
96
330
1F
100
AcDbEntity
  8
0
  6
Continuous
 62
     8
370
     0
100
AcDbSpline
210
0.0
220
0.0
230
1.0
 70
     8
 71
     3
 72
    16
 73
    12
 74
     0
 42
0.00000001
 43
0.00000001
 40
0.0
 40
0.0
 40
0.0
 40
0.0
 40
0.2500000000000001
 40
0.2500000000000001
 40
0.3750000000000007
 40
0.3750000000000007
 40
0.5000000000000012
 40
0.5000000000000012
 40
0.7500000000000007
 40
0.7500000000000007
 40
1.0
 40
1.0
 40
1.0
 40
1.0
 10
436.7034591027407
 20
587.255843050823
 30
0.0
 10
436.631856784823
 20
586.4991672349987
 30
0.0
 10
436.5470687966715
 20
585.7443671492371
 30
0.0
 10
436.4006032136323
 20
584.6149020715893
 30
0.0
 10
436.3485465828656
 20
584.2388725024412
 30
0.0
 10
436.2378023831095
 20
583.4877522693986
 30
0.0
 10
436.1788426174454
 20
583.1110423217887
 30
0.0
 10
435.9934861194074
 20
581.9940907709667
 30
0.0
 10
435.8601066216052
 20
581.2747125886967
 30
0.0
 10
435.5738339183213
 20
579.8838800834244
 30
0.0
 10
435.4209433336626
 20
579.2124326007096
 30
0.0
 10
435.257455349271
 20
578.5658906256416
 30
0.0
  0
SPLINE
  5
97
330
1F
100
AcDbEntity
  8
0
  6
Continuous
 62
     8
370
     0
100
AcDbSpline
210
0.0
220
0.0
230
1.0
 70
     8
 71
     3
 72
    12
 73
     8
 74
     0
 42
0.00000001
 43
0.00000001
 40
0.0
 40
0.0
 40
0.0
 40
0.0
 40
0.500000000000002
 40
0.500000000000002
 40
0.750000000000001
 40
0.750000000000001
 40
1.0
 40
1.0
 40
1.0
 40
1.0
 10
435.257455349271
 20
578.5658906256416
 30
0.0
 10
435.1443311954791
 20
578.1801878244795
 30
0.0
 10
435.0483038267117
 20
577.8294343136868
 30
0.0
 10
434.9314090448406
 20
577.3567255786623
 30
0.0
 10
434.8969271086565
 20
577.2075888634081
 30
0.0
 10
434.839378887593
 20
576.9354373867847
 30
0.0
 10
434.816072755305
 20
576.8115489122513
 30
0.0
 10
434.7984520082803
 20
576.7002165116553
 30
0.0
  0
SPLINE
  5
98
330
1F
100
AcDbEntity
  8
0
  6
Continuous
 62
     8
370
     0
100
AcDbSpline
210
0.0
220
0.0
230
1.0
 70
     8
 71
     3
 72
     8
 73
     4
 74
     0
 42
0.00000001
 43
0.00000001
 40
0.0
 40
0.0
 40
0.0
 40
0.0
 40
1.0
 40
1.0
 40
1.0
 40
1.0
 10
434.7984520082803
 20
576.7002165116553
 30
0.0
 10
434.740685023858
 20
576.2913195572096
 30
0.0
 10
434.6975926289159
 20
575.9876561855529
 30
0.0
 10
434.6690531037351
 20
575.7867167414082
 30
0.0
  0
LINE
  5
99
330
1F
100
AcDbEntity
  8
0
  6
Continuous
 62
     8
370
     0
100
AcDbLine
 10
435.7436118229
 20
574.6636164398
 30
0.0
 11
437.8010449512
 21
574.6636164398
 31
0.0
  0
LINE
  5
9A
330
1F
100
AcDbEntity
  8
0
  6
Continuous
 62
     8
370
     0
100
AcDbLine
 10
433.6861786945
 20
574.6636164398
 30
0.0
 11
435.7436118229
 21
574.6636164398
 31
0.0
  0
LWPOLYLINE
  5
9B
330
1F
100
AcDbEntity
  8
0
  6
Continuous
 62
     7
370
    15
100
AcDbPolyline
 90
        3
 70
   128
 43
0.0
 10
227.3289935178
 20
555.9057767526
 10
227.3289916552
 20
555.9215775714
 10
227.3289916552
 20
555.9373783902
  0
LWPOLYLINE
  5
9C
330
1F
100
AcDbEntity
  8
0
  6
Continuous
 62
     7
370
    15
100
AcDbPolyline
 90
        3
 70
   128
 43
0.0
 10
192.7392540015
 20
555.9373783902
 10
192.7392521388
 20
555.9215775714
 10
192.7392521388
 20
555.9057767526
  0
SPLINE
  5
9D
330
1F
100
AcDbEntity
  8
0
  6
Continuous
 62
     7
370
    15
100
AcDbSpline
210
0.0
220
0.0
230
1.0
 70
     8
 71
     3
 72
    20
 73
    16
 74
     0
 42
0.00000001
 43
0.00000001
 40
0.0
 40
0.0
 40
0.0
 40
0.0
 40
0.0581708195310039
 40
0.1322940772249971
 40
0.2103456741953703
 40
0.2894350560120658
 40
0.3694564448231764
 40
0.4498328257328447
 40
0.529627409495658
 40
0.6095012722783181
 40
0.6899550160921181
 40
0.7705649295830352
 40
0.8510863331190601
 40
0.9300258823155069
 40
1.0
 40
1.0
 40
1.0
 40
1.0
 10
227.1851693726309
 20
589.3009628192368
 30
0.0
 10
227.1278079935369
 20
589.7668227104776
 30
0.0
 10
226.997354773576
 20
590.8262972876751
 30
0.0
 10
226.5483906256135
 20
592.4710990614511
 30
0.0
 10
225.8631019816631
 20
594.213156281622
 30
0.0
 10
224.9447320773921
 20
595.9064472765771
 30
0.0
 10
223.8195504251756
 20
597.5010192976987
 30
0.0
 10
222.5035122674899
 20
598.962827966997
 30
0.0
 10
221.0168742860671
 20
600.2644832016014
 30
0.0
 10
219.3813270170723
 20
601.3937051221934
 30
0.0
 10
217.6126430004134
 20
602.3385698935355
 30
0.0
 10
215.7342129999271
 20
603.0841554460258
 30
0.0
 10
213.7879812435386
 20
603.6113831369134
 30
0.0
 10
211.8775506509143
 20
603.9103783533227
 30
0.0
 10
210.6249355819564
 20
603.9698309949605
 30
0.0
 10
210.0363352467117
 20
603.9977676258269
 30
0.0
  0
SPLINE
  5
9E
330
1F
100
AcDbEntity
  8
0
  6
Continuous
 62
     7
370
    15
100
AcDbSpline
210
0.0
220
0.0
230
1.0
 70
     8
 71
     3
 72
    20
 73
    16
 74
     0
 42
0.00000001
 43
0.00000001
 40
0.0
 40
0.0
 40
0.0
 40
0.0
 40
0.0502710158268526
 40
0.1272655257563711
 40
0.2029563165945465
 40
0.2822889858457269
 40
0.3626763946659688
 40
0.4436185325900398
 40
0.5249004564501584
 40
0.6061430219208405
 40
0.6869032220543503
 40
0.7680970529594795
 40
0.8492989509132894
 40
0.9298273422795157
 40
1.0
 40
1.0
 40
1.0
 40
1.0
 10
210.032996817488
 20
603.9873666153136
 30
0.0
 10
209.6139984909261
 20
603.9741998650933
 30
0.0
 10
208.5532671441675
 20
603.9408670715992
 30
0.0
 10
206.873179523504
 20
603.7207616985569
 30
0.0
 10
204.9914916091539
 20
603.2862531086507
 30
0.0
 10
203.147909485727
 20
602.6402663589935
 30
0.0
 10
201.3557931853779
 20
601.781141316459
 30
0.0
 10
199.6670511753799
 20
600.7226465483857
 30
0.0
 10
198.1137328838365
 20
599.4804374093151
 30
0.0
 10
196.7260720410155
 20
598.0724463890488
 30
0.0
 10
195.5220003338413
 20
596.5183730733402
 30
0.0
 10
194.5130217669577
 20
594.8399692347159
 30
0.0
 10
193.7224264552784
 20
593.0585096337954
 30
0.0
 10
193.1656018989815
 20
591.2814526841936
 30
0.0
 10
192.9874447475264
 20
590.0895633057482
 30
0.0
 10
192.9044873899944
 20
589.5345701859179
 30
0.0
  0
SPLINE
  5
9F
330
1F
100
AcDbEntity
  8
0
  6
Continuous
 62
     7
370
    15
100
AcDbSpline
210
0.0
220
0.0
230
1.0
 70
     8
 71
     3
 72
    24
 73
    20
 74
     0
 42
0.00000001
 43
0.00000001
 40
0.0
 40
0.0
 40
0.0
 40
0.0
 40
0.03125
 40
0.03125
 40
0.0624999999999999
 40
0.0624999999999999
 40
0.1249999999999998
 40
0.1249999999999998
 40
0.2499999999999998
 40
0.2499999999999998
 40
0.4999999999999999
 40
0.4999999999999999
 40
0.6249999999999999
 40
0.6249999999999999
 40
0.7499999999999999
 40
0.7499999999999999
 40
0.875
 40
0.875
 40
1.0
 40
1.0
 40
1.0
 40
1.0
 10
227.2101825733405
 20
502.3475148721142
 30
0.0
 10
227.2142380367352
 20
503.250925880948
 30
0.0
 10
227.2181860101609
 20
504.1541675845711
 30
0.0
 10
227.2258414884988
 20
505.9604523741673
 30
0.0
 10
227.2295560467859
 20
506.863469759306
 30
0.0
 10
227.2403763112788
 20
509.572118494993
 30
0.0
 10
227.2471622954581
 20
511.3771136953537
 30
0.0
 10
227.2663631181806
 20
516.7897465701901
 30
0.0
 10
227.2776035411427
 20
520.3945824314914
 30
0.0
 10
227.3062610644013
 20
531.1912250700981
 30
0.0
 10
227.3186834469569
 20
538.371151605731
 30
0.0
 10
227.3277345166767
 20
549.0808196060094
 30
0.0
 10
227.3291489954231
 20
552.6410154401098
 30
0.0
 10
227.3288165062622
 20
559.7421209671577
 30
0.0
 10
227.3270637474142
 20
563.282388287866
 30
0.0
 10
227.320443804638
 20
570.3299463348205
 30
0.0
 10
227.3155785664509
 20
573.8368998869267
 30
0.0
 10
227.3028805293943
 20
580.805161391247
 30
0.0
 10
227.2950296233234
 20
584.2678272291212
 30
0.0
 10
227.2857776200305
 20
587.7096912007182
 30
0.0
  0
SPLINE
  5
A0
330
1F
100
AcDbEntity
  8
0
  6
Continuous
 62
     7
370
    15
100
AcDbSpline
210
0.0
220
0.0
230
1.0
 70
     8
 71
     3
 72
    24
 73
    20
 74
     0
 42
0.00000001
 43
0.00000001
 40
0.0
 40
0.0
 40
0.0
 40
0.0
 40
0.03125
 40
0.03125
 40
0.0625000000000001
 40
0.0625000000000001
 40
0.1250000000000002
 40
0.1250000000000002
 40
0.2500000000000003
 40
0.2500000000000003
 40
0.5000000000000003
 40
0.5000000000000003
 40
0.6250000000000003
 40
0.6250000000000003
 40
0.7500000000000002
 40
0.7500000000000002
 40
0.8750000000000002
 40
0.8750000000000002
 40
1.0
 40
1.0
 40
1.0
 40
1.0
 10
192.8580625998395
 20
502.3475148721143
 30
0.0
 10
192.8540071364449
 20
503.2509258809481
 30
0.0
 10
192.8500591630192
 20
504.1541675845711
 30
0.0
 10
192.8424036846813
 20
505.9604523741673
 30
0.0
 10
192.8386891263943
 20
506.863469759306
 30
0.0
 10
192.8278688619014
 20
509.572118494993
 30
0.0
 10
192.8210828777221
 20
511.3771136953536
 30
0.0
 10
192.8018820549996
 20
516.7897465701899
 30
0.0
 10
192.7906416320375
 20
520.3945824314911
 30
0.0
 10
192.7619841087789
 20
531.1912250700973
 30
0.0
 10
192.7495617262238
 20
538.3711516057266
 30
0.0
 10
192.7405106565035
 20
549.0808196060113
 30
0.0
 10
192.7390961777574
 20
552.6410154401094
 30
0.0
 10
192.7394286669183
 20
559.7421209671583
 30
0.0
 10
192.7411814257663
 20
563.2823882878657
 30
0.0
 10
192.7478013685425
 20
570.3299463348209
 30
0.0
 10
192.7526666067293
 20
573.8368998869448
 30
0.0
 10
192.7653646437868
 20
580.805161391229
 30
0.0
 10
192.7732155498572
 20
584.2678272291207
 30
0.0
 10
192.7824675531502
 20
587.7096912007183
 30
0.0
  0
SPLINE
  5
A1
330
1F
100
AcDbEntity
  8
0
  6
Continuous
 62
     7
370
    15
100
AcDbSpline
210
0.0
220
0.0
230
1.0
 70
     8
 71
     3
 72
    11
 73
     7
 74
     0
 42
0.00000001
 43
0.00000001
 40
0.0
 40
0.0
 40
0.0
 40
0.0
 40
0.5690114841821641
 40
0.5690114841821641
 40
0.784505742091082
 40
1.0
 40
1.0
 40
1.0
 40
1.0
 10
210.03412258659
 20
495.8360186756215
 30
0.0
 10
213.9566401102942
 20
495.8360186756215
 30
0.0
 10
217.8719764551675
 20
496.020044208267
 30
0.0
 10
223.2577229413534
 20
496.5376359108614
 30
0.0
 10
226.0532990366942
 20
497.9521152621577
 30
0.0
 10
227.2035362868404
 20
500.8593812597041
 30
0.0
 10
227.2101825733405
 20
502.3438550623271
 30
0.0
  0
SPLINE
  5
A2
330
1F
100
AcDbEntity
  8
0
  6
Continuous
 62
     7
370
    15
100
AcDbSpline
210
0.0
220
0.0
230
1.0
 70
     8
 71
     3
 72
    11
 73
     7
 74
     0
 42
0.00000001
 43
0.00000001
 40
0.0
 40
0.0
 40
0.0
 40
0.0
 40
0.5690114841821641
 40
0.5690114841821641
 40
0.784505742091082
 40
1.0
 40
1.0
 40
1.0
 40
1.0
 10
210.03412258659
 20
495.8360186756215
 30
0.0
 10
206.1116050628859
 20
495.8360186756216
 30
0.0
 10
202.1962687180125
 20
496.0200442082671
 30
0.0
 10
196.8105222318266
 20
496.5376359108615
 30
0.0
 10
194.0149461364859
 20
497.9521152621578
 30
0.0
 10
192.8647088863397
 20
500.8593812597042
 30
0.0
 10
192.8580625998395
 20
502.3438550623271
 30
0.0
  0
LINE
  5
A3
330
1F
100
AcDbEntity
  8
0
  6
Continuous
 62
     7
370
    15
100
AcDbLine
 10
227.2857671119
 20
587.7132403687
 30
0.0
 11
227.1676418818
 21
589.2829454527
 31
0.0
  0
LINE
  5
A4
330
1F
100
AcDbEntity
  8
0
  6
Continuous
 62
     7
370
    15
100
AcDbLine
 10
192.7824766821
 20
587.7132403687
 30
0.0
 11
192.9180865622
 21
589.5152564184
 31
0.0
  0
LWPOLYLINE
  5
A5
330
1F
100
AcDbEntity
  8
0
  6
Continuous
 62
     7
370
    15
100
AcDbPolyline
 90
       47
 70
   128
 43
0.0
 10
227.3691130317
 20
569.1661878512
 10
228.0278766043
 20
569.850784915
 10
229.6228372938
 20
571.7688744911
 10
231.0031821466
 20
573.838814816
 10
232.1537846214
 20
576.0379263223
 10
233.0620383359
 20
578.3421152294
 10
233.7179949022
 20
580.7261361764
 10
234.1144645102
 20
583.1638711528
 10
234.2471071965
 20
585.6286088959
 10
234.1144645102
 20
588.0933466391
 10
233.7179949022
 20
590.5310816155
 10
233.0620383359
 20
592.9151034937
 10
232.1537846214
 20
595.2192924009
 10
231.0031821466
 20
597.4184020446
 10
229.6228372938
 20
599.4883446977
 10
228.0278766043
 20
601.4064333425
 10
226.2357716895
 20
603.1516573415
 10
224.2661576233
 20
604.704898505
 10
222.1406150124
 20
606.0491322563
 10
219.8824306465
 20
607.1696362481
 10
217.516346041
 20
608.0541319237
 10
215.0682850256
 20
608.6929260776
 10
212.5650685261
 20
609.07902634
 10
210.0341225866
 20
609.2081970558
 10
207.5031766649
 20
609.07902634
 10
204.9999601654
 20
608.6929260776
 10
202.5518991499
 20
608.0541319237
 10
200.1858150101
 20
607.1696362481
 10
197.9276306442
 20
606.0491322563
 10
195.8020880333
 20
604.704898505
 10
193.8324739671
 20
603.1516573415
 10
192.0403690524
 20
601.4064333425
 10
190.4454065002
 20
599.4883446977
 10
189.06506351
 20
597.4184020446
 10
187.9144610352
 20
595.2192924009
 10
187.0062073208
 20
592.9151034937
 10
186.3502507544
 20
590.5310816155
 10
185.9537792838
 20
588.0933466391
 10
185.8211384601
 20
585.6286088959
 10
185.9537792838
 20
583.1638711528
 10
186.3502507544
 20
580.7261361764
 10
187.0062073208
 20
578.3421152294
 10
187.9144610352
 20
576.0379263223
 10
189.06506351
 20
573.838814816
 10
190.4454065002
 20
571.7688744911
 10
192.0403690524
 20
569.850784915
 10
192.6615816987
 20
569.203770908
  0
ARC
  5
A6
330
1F
100
AcDbEntity
  8
0
  6
Continuous
 62
     7
370
    15
100
AcDbCircle
 10
210.0341225866
 20
588.1198961832
 30
0.0
 40
24.57350000000002
100
AcDbArc
 50
180.0
 51
196.2474540023
  0
ARC
  5
A7
330
1F
100
AcDbEntity
  8
0
  6
Continuous
 62
     7
370
    15
100
AcDbCircle
 10
210.0341225866
 20
588.1198961832
 30
0.0
 40
24.57350000000002
100
AcDbArc
 50
348.6510558579
 51
180.0
  0
CIRCLE
  5
A8
330
1F
100
AcDbEntity
  8
0
  6
Continuous
 62
     7
370
    15
100
AcDbCircle
 10
210.0341225866
 20
573.2754961832
 30
0.0
 40
85.50575000000009
  0
SPLINE
  5
A9
330
1F
100
AcDbEntity
  8
0
  6
Continuous
 62
     8
370
     0
100
AcDbSpline
210
0.0
220
0.0
230
1.0
 70
     8
 71
     3
 72
    28
 73
    24
 74
     0
 42
0.00000001
 43
0.00000001
 40
0.0
 40
0.0
 40
0.0
 40
0.0
 40
0.062500000000001
 40
0.062500000000001
 40
0.1250000000000021
 40
0.1250000000000021
 40
0.1875000000000031
 40
0.1875000000000031
 40
0.2187500000000036
 40
0.2187500000000036
 40
0.2500000000000041
 40
0.2500000000000041
 40
0.3125000000000051
 40
0.3125000000000051
 40
0.3437500000000058
 40
0.3437500000000058
 40
0.3593750000000057
 40
0.3593750000000057
 40
0.3750000000000057
 40
0.3750000000000057
 40
0.5000000000000047
 40
0.5000000000000047
 40
1.0
 40
1.0
 40
1.0
 40
1.0
 10
194.2015666399883
 20
502.385996505869
 30
0.0
 10
194.2035249913926
 20
501.9953498120546
 30
0.0
 10
194.2558657909601
 20
501.6082821950914
 30
0.0
 10
194.4527830921021
 20
500.8543597408801
 30
0.0
 10
194.5960348462029
 20
500.4931874565075
 30
0.0
 10
194.9636515554648
 20
499.815273462881
 30
0.0
 10
195.1925602177861
 20
499.4934813776946
 30
0.0
 10
195.5856433280461
 20
499.0699113323811
 30
0.0
 10
195.725318386782
 20
498.937520026081
 30
0.0
 10
196.0213836687269
 20
498.6897468362377
 30
0.0
 10
196.1788466294814
 20
498.573705983209
 30
0.0
 10
196.6686735423753
 20
498.2570226953328
 30
0.0
 10
197.0153216363315
 20
498.0881114260263
 30
0.0
 10
197.5656813237786
 20
497.898602156446
 30
0.0
 10
197.7548034260423
 20
497.8463221719168
 30
0.0
 10
198.0385209874116
 20
497.7869887232288
 30
0.0
 10
198.133414588004
 20
497.7702748203843
 30
0.0
 10
198.3238489486179
 20
497.7430266438192
 30
0.0
 10
198.4194888261833
 20
497.7334407905165
 30
0.0
 10
199.2799546713957
 20
497.6443249261869
 30
0.0
 10
200.0456313725865
 20
497.5726402220945
 30
0.0
 10
203.8781444655143
 20
497.2524978526033
 30
0.0
 10
206.9559979099955
 20
497.117939690078
 30
0.0
 10
210.03412258659
 20
497.1178912835222
 30
0.0
  0
SPLINE
  5
AA
330
1F
100
AcDbEntity
  8
0
  6
Continuous
 62
     8
370
     0
100
AcDbSpline
210
0.0
220
0.0
230
1.0
 70
     8
 71
     3
 72
    34
 73
    30
 74
     0
 42
0.00000001
 43
0.00000001
 40
0.0
 40
0.0
 40
0.0
 40
0.0
 40
0.4999999999999989
 40
0.4999999999999989
 40
0.5624999999999988
 40
0.5624999999999988
 40
0.5937499999999986
 40
0.5937499999999986
 40
0.6249999999999984
 40
0.6249999999999984
 40
0.6874999999999984
 40
0.6874999999999984
 40
0.7499999999999986
 40
0.7499999999999986
 40
0.8124999999999987
 40
0.8124999999999987
 40
0.8437499999999987
 40
0.8437499999999987
 40
0.8749999999999987
 40
0.8749999999999987
 40
0.9062499999999988
 40
0.9062499999999988
 40
0.9374999999999988
 40
0.9374999999999988
 40
0.9687499999999989
 40
0.9687499999999989
 40
0.9843749999999993
 40
0.9843749999999993
 40
1.0
 40
1.0
 40
1.0
 40
1.0
 10
210.03412258659
 20
495.8372985823843
 30
0.0
 10
206.6106133624151
 20
495.8372999489395
 30
0.0
 10
203.1865433757319
 20
495.9788970685951
 30
0.0
 10
199.3510615382771
 20
496.3001049281088
 30
0.0
 10
198.9251294758122
 20
496.3380342828082
 30
0.0
 10
198.2865815664203
 20
496.3982878435048
 30
0.0
 10
198.073798157759
 20
496.419079110289
 30
0.0
 10
197.6513338882146
 20
496.4913730042157
 30
0.0
 10
197.441040872839
 20
496.5391865855978
 30
0.0
 10
196.81518568929
 20
496.7176969434616
 30
0.0
 10
196.4177179368124
 20
496.8790820882738
 30
0.0
 10
195.6603760963527
 20
497.2824157113699
 30
0.0
 10
195.2976498154547
 20
497.5277105115633
 30
0.0
 10
194.6433549182909
 20
498.0814780082021
 30
0.0
 10
194.3483951285465
 20
498.3914363177955
 30
0.0
 10
193.9562949506439
 20
498.908092456021
 30
0.0
 10
193.8346250709335
 20
499.08821724482
 30
0.0
 10
193.6134748652888
 20
499.4564950432584
 30
0.0
 10
193.5132120024587
 20
499.6456482269845
 30
0.0
 10
193.3328577936624
 20
500.0337620431463
 30
0.0
 10
193.2527664581437
 20
500.232722716386
 30
0.0
 10
193.1131968156527
 20
500.6406657932312
 30
0.0
 10
193.0536978200651
 20
500.8502304911169
 30
0.0
 10
192.9581959279408
 20
501.2714926803027
 30
0.0
 10
192.9218125025917
 20
501.4841082907129
 30
0.0
 10
192.8846098981201
 20
501.8060660840716
 30
0.0
 10
192.8751106872408
 20
501.9139120858597
 30
0.0
 10
192.8620687196325
 20
502.1305647374451
 30
0.0
 10
192.8585415877937
 20
502.240567936515
 30
0.0
 10
192.8580625998395
 20
502.3475148711829
 30
0.0
  0
SPLINE
  5
AB
330
1F
100
AcDbEntity
  8
0
  6
Continuous
 62
     8
370
     0
100
AcDbSpline
210
0.0
220
0.0
230
1.0
 70
     8
 71
     3
 72
    34
 73
    30
 74
     0
 42
0.00000001
 43
0.00000001
 40
0.0
 40
0.0
 40
0.0
 40
0.0
 40
0.4999999999999974
 40
0.4999999999999974
 40
0.5624999999999971
 40
0.5624999999999971
 40
0.593749999999997
 40
0.593749999999997
 40
0.6249999999999968
 40
0.6249999999999968
 40
0.687499999999997
 40
0.687499999999997
 40
0.7499999999999972
 40
0.7499999999999972
 40
0.8124999999999977
 40
0.8124999999999977
 40
0.843749999999998
 40
0.843749999999998
 40
0.8749999999999984
 40
0.8749999999999984
 40
0.9062499999999988
 40
0.9062499999999988
 40
0.9374999999999992
 40
0.9374999999999992
 40
0.9687499999999996
 40
0.9687499999999996
 40
0.9843749999999998
 40
0.9843749999999998
 40
1.0
 40
1.0
 40
1.0
 40
1.0
 10
210.03412258659
 20
495.8372985823843
 30
0.0
 10
213.457631810765
 20
495.8372999489395
 30
0.0
 10
216.8817017974482
 20
495.9788970685951
 30
0.0
 10
220.717183634903
 20
496.3001049281087
 30
0.0
 10
221.1431156973678
 20
496.3380342828081
 30
0.0
 10
221.7816636067597
 20
496.3982878435046
 30
0.0
 10
221.9944470154211
 20
496.4190791102889
 30
0.0
 10
222.4169112849654
 20
496.4913730042156
 30
0.0
 10
222.6272043003411
 20
496.5391865855977
 30
0.0
 10
223.2530594838901
 20
496.7176969434615
 30
0.0
 10
223.6505272363677
 20
496.8790820882738
 30
0.0
 10
224.4078690768273
 20
497.2824157113698
 30
0.0
 10
224.7705953577253
 20
497.5277105115632
 30
0.0
 10
225.4248902548892
 20
498.081478008202
 30
0.0
 10
225.7198500446336
 20
498.3914363177955
 30
0.0
 10
226.1119502225362
 20
498.9080924560209
 30
0.0
 10
226.2336201022465
 20
499.0882172448198
 30
0.0
 10
226.4547703078912
 20
499.4564950432583
 30
0.0
 10
226.5550331707213
 20
499.6456482269845
 30
0.0
 10
226.7353873795177
 20
500.0337620431462
 30
0.0
 10
226.8154787150364
 20
500.2327227163859
 30
0.0
 10
226.9550483575274
 20
500.6406657932311
 30
0.0
 10
227.014547353115
 20
500.8502304911167
 30
0.0
 10
227.1100492452393
 20
501.2714926803026
 30
0.0
 10
227.1464326705884
 20
501.4841082907128
 30
0.0
 10
227.18363527506
 20
501.8060660840715
 30
0.0
 10
227.1931344859392
 20
501.9139120858596
 30
0.0
 10
227.2061764535476
 20
502.130564737445
 30
0.0
 10
227.2097041376851
 20
502.2405679335409
 30
0.0
 10
227.2101825733405
 20
502.3475148711827
 30
0.0
  0
SPLINE
  5
AC
330
1F
100
AcDbEntity
  8
0
  6
Continuous
 62
     8
370
     0
100
AcDbSpline
210
0.0
220
0.0
230
1.0
 70
     8
 71
     3
 72
    28
 73
    24
 74
     0
 42
0.00000001
 43
0.00000001
 40
0.0
 40
0.0
 40
0.0
 40
0.0
 40
0.0625000000000002
 40
0.0625000000000002
 40
0.1250000000000014
 40
0.1250000000000014
 40
0.1875000000000027
 40
0.1875000000000027
 40
0.2187500000000025
 40
0.2187500000000025
 40
0.2500000000000023
 40
0.2500000000000023
 40
0.3125000000000029
 40
0.3125000000000029
 40
0.3437500000000032
 40
0.3437500000000032
 40
0.3593750000000031
 40
0.3593750000000031
 40
0.3750000000000029
 40
0.3750000000000029
 40
0.5000000000000022
 40
0.5000000000000022
 40
1.0
 40
1.0
 40
1.0
 40
1.0
 10
225.8666785331918
 20
502.385996505869
 30
0.0
 10
225.8647201817874
 20
501.9953498120545
 30
0.0
 10
225.8123793822199
 20
501.6082821950914
 30
0.0
 10
225.6154620810782
 20
500.8543597408801
 30
0.0
 10
225.4722103269772
 20
500.4931874565074
 30
0.0
 10
225.1045936177152
 20
499.815273462881
 30
0.0
 10
224.875684955394
 20
499.4934813776946
 30
0.0
 10
224.4826018451341
 20
499.0699113323811
 30
0.0
 10
224.3429267863982
 20
498.937520026081
 30
0.0
 10
224.0468615044534
 20
498.6897468362377
 30
0.0
 10
223.8893985436989
 20
498.5737059832091
 30
0.0
 10
223.3995716308051
 20
498.257022695333
 30
0.0
 10
223.052923536849
 20
498.0881114260264
 30
0.0
 10
222.502563849402
 20
497.8986021564461
 30
0.0
 10
222.3134417471384
 20
497.8463221719167
 30
0.0
 10
222.0297241857691
 20
497.7869887232288
 30
0.0
 10
221.9348305851767
 20
497.7702748203843
 30
0.0
 10
221.7443962245628
 20
497.7430266438192
 30
0.0
 10
221.6487563469975
 20
497.7334407905166
 30
0.0
 10
220.7882905017852
 20
497.6443249261872
 30
0.0
 10
220.0226138005946
 20
497.5726402220944
 30
0.0
 10
216.1901007076675
 20
497.2524978526032
 30
0.0
 10
213.112247263184
 20
497.1179396900783
 30
0.0
 10
210.03412258659
 20
497.1178912835222
 30
0.0
  0
SPLINE
  5
AD
330
1F
100
AcDbEntity
  8
0
  6
Continuous
 62
     8
370
     0
100
AcDbSpline
210
0.0
220
0.0
230
1.0
 70
     8
 71
     3
 72
    24
 73
    20
 74
     0
 42
0.00000001
 43
0.00000001
 40
0.0
 40
0.0
 40
0.0
 40
0.0
 40
0.125
 40
0.125
 40
0.25
 40
0.25
 40
0.375
 40
0.375
 40
0.5
 40
0.5
 40
0.75
 40
0.75
 40
0.875
 40
0.875
 40
0.9375
 40
0.9375
 40
0.96875
 40
0.96875
 40
1.0
 40
1.0
 40
1.0
 40
1.0
 10
225.9418446565442
 20
588.1349632939299
 30
0.0
 10
225.9510578481136
 20
584.6774727449013
 30
0.0
 10
225.9586725490794
 20
581.199095356164
 30
0.0
 10
225.9710734751615
 20
574.1992752579218
 30
0.0
 10
225.9759327002769
 20
570.6764646614561
 30
0.0
 10
225.9830414031011
 20
563.5970423471163
 30
0.0
 10
225.9851108280585
 20
560.0407577194419
 30
0.0
 10
225.9848773573239
 20
552.9075164006578
 30
0.0
 10
225.9829750385078
 20
549.3311932350683
 30
0.0
 10
225.973416546287
 20
538.5730237332616
 30
0.0
 10
225.9613287991025
 20
531.3605529055648
 30
0.0
 10
225.9331361030729
 20
520.5149412734476
 30
0.0
 10
225.922108090178
 20
516.8937541129076
 30
0.0
 10
225.9027751030168
 20
511.4565661443522
 30
0.0
 10
225.895641197463
 20
509.6433831479072
 30
0.0
 10
225.8850359613932
 20
506.9224440479362
 30
0.0
 10
225.8815791486836
 20
506.0153283622777
 30
0.0
 10
225.8747826342721
 20
504.2008443021728
 30
0.0
 10
225.871241942128
 20
503.2935028354397
 30
0.0
 10
225.8666785330221
 20
502.38599650587
 30
0.0
  0
LWPOLYLINE
  5
AE
330
1F
100
AcDbEntity
  8
0
  6
Continuous
 62
     8
370
     0
100
AcDbPolyline
 90
        9
 70
   128
 43
0.0
 10
225.9418444223
 20
588.1349637196
 10
226.2070534266
 20
588.1243242905
 10
226.4604271836
 20
588.0984819517
 10
226.6927530504
 20
588.058377339
 10
226.895580206
 20
588.0054689036
 10
227.0615344382
 20
587.9416807578
 10
227.1845826394
 20
587.8693318949
 10
227.2602470107
 20
587.7910523699
 10
227.2857782877
 20
587.7096920297
  0
SPLINE
  5
AF
330
1F
100
AcDbEntity
  8
0
  6
Continuous
 62
     8
370
     0
100
AcDbSpline
210
0.0
220
0.0
230
1.0
 70
     8
 71
     3
 72
    24
 73
    20
 74
     0
 42
0.00000001
 43
0.00000001
 40
0.0
 40
0.0
 40
0.0
 40
0.0
 40
0.1249999999999999
 40
0.1249999999999999
 40
0.2499999999999999
 40
0.2499999999999999
 40
0.3749999999999998
 40
0.3749999999999998
 40
0.4999999999999999
 40
0.4999999999999999
 40
0.7499999999999997
 40
0.7499999999999997
 40
0.8749999999999998
 40
0.8749999999999998
 40
0.9374999999999999
 40
0.9374999999999999
 40
0.96875
 40
0.96875
 40
1.0
 40
1.0
 40
1.0
 40
1.0
 10
194.1264005166365
 20
588.13496329393
 30
0.0
 10
194.1171873250669
 20
584.6774727449015
 30
0.0
 10
194.1095726241017
 20
581.1990953561641
 30
0.0
 10
194.0971716980186
 20
574.1992752579218
 30
0.0
 10
194.0923124729036
 20
570.6764646614562
 30
0.0
 10
194.0852037700794
 20
563.5970423471164
 30
0.0
 10
194.0831343451219
 20
560.0407577194419
 30
0.0
 10
194.0833678158565
 20
552.9075164006578
 30
0.0
 10
194.0852701346726
 20
549.3311932350684
 30
0.0
 10
194.0948286268934
 20
538.5730237332617
 30
0.0
 10
194.1069163740778
 20
531.3605529055649
 30
0.0
 10
194.1351090701074
 20
520.5149412734477
 30
0.0
 10
194.1461370830021
 20
516.8937541129077
 30
0.0
 10
194.1654700701633
 20
511.4565661443523
 30
0.0
 10
194.1726039757171
 20
509.6433831479072
 30
0.0
 10
194.1832092117869
 20
506.9224440479362
 30
0.0
 10
194.1866660244965
 20
506.0153283622777
 30
0.0
 10
194.193462538908
 20
504.2008443021728
 30
0.0
 10
194.1970032310521
 20
503.2935028354398
 30
0.0
 10
194.201566640158
 20
502.3859965058701
 30
0.0
  0
LWPOLYLINE
  5
B0
330
1F
100
AcDbEntity
  8
0
  6
Continuous
 62
     8
370
     0
100
AcDbPolyline
 90
        9
 70
   128
 43
0.0
 10
194.1264012343
 20
588.1349637196
 10
193.8611903674
 20
588.1243242905
 10
193.6078166104
 20
588.0984819517
 10
193.3754926062
 20
588.058377339
 10
193.1726654506
 20
588.0054689036
 10
193.0067093558
 20
587.9416807578
 10
192.8836630172
 20
587.8693318949
 10
192.807998646
 20
587.7910523699
 10
192.7824673689
 20
587.7096920297
  0
LWPOLYLINE
  5
B1
330
1F
100
AcDbEntity
  8
0
  6
Continuous
 62
     8
370
     0
100
AcDbPolyline
 90
        3
 70
   128
 43
0.0
 10
225.9418351091
 20
588.1382680521
 10
225.9418351091
 20
588.1382103101
 10
225.9418444223
 20
588.1349637196
  0
LWPOLYLINE
  5
B2
330
1F
100
AcDbEntity
  8
0
  6
Continuous
 62
     8
370
     0
100
AcDbPolyline
 90
        3
 70
   128
 43
0.0
 10
194.1264105476
 20
588.1382680521
 10
194.1264086849
 20
588.1382103101
 10
194.1264012343
 20
588.1349637196
  0
LINE
  5
B3
330
1F
100
AcDbEntity
  8
0
  6
Continuous
 62
     8
370
     0
100
AcDbLine
 10
227.2101828343
 20
502.3475146876
 30
0.0
 11
227.2101828343
 21
502.3438564525
 31
0.0
  0
LINE
  5
B4
330
1F
100
AcDbEntity
  8
0
  6
Continuous
 62
     8
370
     0
100
AcDbLine
 10
192.8580628223
 20
502.3475146876
 30
0.0
 11
192.8580628223
 21
502.3438564525
 31
0.0
  0
LINE
  5
B5
330
1F
100
AcDbEntity
  8
0
  6
Continuous
 62
     8
370
     0
100
AcDbLine
 10
210.0341225866
 20
495.8372979448
 30
0.0
 11
210.0341225866
 21
495.8360164449
 31
0.0
  0
LWPOLYLINE
  5
B6
330
1F
100
AcDbEntity
  8
0
  6
Continuous
 62
     8
370
     0
100
AcDbPolyline
 90
        9
 70
   128
 43
0.0
 10
225.9418351091
 20
588.1382680521
 10
226.2070441134
 20
588.1276789144
 10
226.4604178704
 20
588.1018831418
 10
226.6927437372
 20
588.0618213699
 10
226.8955708928
 20
588.0089501873
 10
227.061525125
 20
587.9451918439
 10
227.1845714635
 20
587.8728653327
 10
227.2602358348
 20
587.7945988462
 10
227.2857671119
 20
587.7132403687
  0
SPLINE
  5
B7
330
1F
100
AcDbEntity
  8
0
  6
Continuous
 62
     8
370
     0
100
AcDbSpline
210
0.0
220
0.0
230
1.0
 70
     8
 71
     3
 72
    38
 73
    34
 74
     0
 42
0.00000001
 43
0.00000001
 40
0.0
 40
0.0
 40
0.0
 40
0.0
 40
0.03125
 40
0.03125
 40
0.0625
 40
0.0625
 40
0.1249999999999998
 40
0.1249999999999998
 40
0.1874999999999997
 40
0.1874999999999997
 40
0.2499999999999996
 40
0.2499999999999996
 40
0.3124999999999996
 40
0.3124999999999996
 40
0.3749999999999996
 40
0.3749999999999996
 40
0.4999999999999998
 40
0.4999999999999998
 40
0.5624999999999994
 40
0.5624999999999994
 40
0.6249999999999991
 40
0.6249999999999991
 40
0.7499999999999989
 40
0.7499999999999989
 40
0.8124999999999991
 40
0.8124999999999991
 40
0.8749999999999993
 40
0.8749999999999993
 40
0.9374999999999994
 40
0.9374999999999994
 40
0.9687499999999998
 40
0.9687499999999998
 40
1.0
 40
1.0
 40
1.0
 40
1.0
 10
210.0341225865904
 20
603.1334167469264
 30
0.0
 10
210.2947857285685
 20
603.1334167469922
 30
0.0
 10
210.5579983848248
 20
603.1271062043701
 30
0.0
 10
211.0796107262174
 20
603.1021653206013
 30
0.0
 10
211.3396685600214
 20
603.0835346880584
 30
0.0
 10
212.1176312072112
 20
603.0094278073884
 30
0.0
 10
212.6333321860786
 20
602.9357944581683
 30
0.0
 10
213.6588634579922
 20
602.7400758833347
 30
0.0
 10
214.1665839581469
 20
602.6181613778389
 30
0.0
 10
215.1580053054007
 20
602.3309473474953
 30
0.0
 10
215.6438473872896
 20
602.1652626213312
 30
0.0
 10
216.595963174874
 20
601.7900447892239
 30
0.0
 10
217.0622440605551
 20
601.5805276978327
 30
0.0
 10
217.9753321821358
 20
601.1176835050902
 30
0.0
 10
218.4244804373019
 20
600.8628015413309
 30
0.0
 10
219.7220362233418
 20
600.0427700313166
 30
0.0
 10
220.5196077756512
 20
599.425494053037
 30
0.0
 10
221.615874219524
 20
598.3938535525389
 30
0.0
 10
221.9644622200375
 20
598.0321938028604
 30
0.0
 10
222.6275560010882
 20
597.2727171239521
 30
0.0
 10
222.9400043210726
 20
596.8768354162057
 30
0.0
 10
223.8061235240389
 20
595.6618952846133
 30
0.0
 10
224.2962156230894
 20
594.8083794243486
 30
0.0
 10
224.8982075045604
 20
593.4609050153886
 30
0.0
 10
225.0764442776166
 20
593.00043342618
 30
0.0
 10
225.386395549424
 20
592.0560041229506
 30
0.0
 10
225.517350914821
 20
591.5732966432987
 30
0.0
 10
225.7264918213453
 20
590.6051590935624
 30
0.0
 10
225.8055493070579
 20
590.1172392459208
 30
0.0
 10
225.8857658515872
 20
589.3795439299012
 30
0.0
 10
225.9060970940827
 20
589.1326742754301
 30
0.0
 10
225.9337742277714
 20
588.6369622506847
 30
0.0
 10
225.9411250295893
 20
588.3864704131539
 30
0.0
 10
225.9418355610846
 20
588.1382681916366
 30
0.0
  0
SPLINE
  5
B8
330
1F
100
AcDbEntity
  8
0
  6
Continuous
 62
     8
370
     0
100
AcDbSpline
210
0.0
220
0.0
230
1.0
 70
     8
 71
     3
 72
    38
 73
    34
 74
     0
 42
0.00000001
 43
0.00000001
 40
0.0
 40
0.0
 40
0.0
 40
0.0
 40
0.0312499999999999
 40
0.0312499999999999
 40
0.0624999999999998
 40
0.0624999999999998
 40
0.1249999999999996
 40
0.1249999999999996
 40
0.1874999999999993
 40
0.1874999999999993
 40
0.2499999999999991
 40
0.2499999999999991
 40
0.3124999999999988
 40
0.3124999999999988
 40
0.3749999999999986
 40
0.3749999999999986
 40
0.4999999999999984
 40
0.4999999999999984
 40
0.5624999999999987
 40
0.5624999999999987
 40
0.6249999999999988
 40
0.6249999999999988
 40
0.7499999999999992
 40
0.7499999999999992
 40
0.8124999999999993
 40
0.8124999999999993
 40
0.8749999999999994
 40
0.8749999999999994
 40
0.9374999999999994
 40
0.9374999999999994
 40
0.9687499999999998
 40
0.9687499999999998
 40
1.0
 40
1.0
 40
1.0
 40
1.0
 10
210.0341225865904
 20
603.1334167469264
 30
0.0
 10
209.7734594446133
 20
603.1334162747665
 30
0.0
 10
209.5102467883559
 20
603.1271062043702
 30
0.0
 10
208.9886344469634
 20
603.1021653206014
 30
0.0
 10
208.7285766131594
 20
603.0835346880584
 30
0.0
 10
207.9506139659696
 20
603.0094278073885
 30
0.0
 10
207.4349129871021
 20
602.9357944581684
 30
0.0
 10
206.4093817151886
 20
602.7400758833347
 30
0.0
 10
205.9016612150339
 20
602.6181613778389
 30
0.0
 10
204.91023986778
 20
602.3309473474953
 30
0.0
 10
204.4243977858912
 20
602.1652626213312
 30
0.0
 10
203.4722819983068
 20
601.790044789224
 30
0.0
 10
203.0060011126257
 20
601.5805276978327
 30
0.0
 10
202.092912991045
 20
601.1176835050902
 30
0.0
 10
201.6437647358788
 20
600.862801541331
 30
0.0
 10
200.3462089498389
 20
600.0427700313166
 30
0.0
 10
199.5486373975296
 20
599.425494053037
 30
0.0
 10
198.4523709536568
 20
598.3938535525389
 30
0.0
 10
198.1037829531433
 20
598.0321938028605
 30
0.0
 10
197.4406891720926
 20
597.2727171239522
 30
0.0
 10
197.1282408521081
 20
596.8768354162058
 30
0.0
 10
196.2621216491418
 20
595.6618952846134
 30
0.0
 10
195.7720295500914
 20
594.8083794243487
 30
0.0
 10
195.1700376686202
 20
593.4609050153886
 30
0.0
 10
194.9918008955642
 20
593.0004334261802
 30
0.0
 10
194.6818496237567
 20
592.0560041229506
 30
0.0
 10
194.5508942583597
 20
591.5732966432988
 30
0.0
 10
194.3417533518354
 20
590.6051590935625
 30
0.0
 10
194.2626958661228
 20
590.1172392459209
 30
0.0
 10
194.1824793215935
 20
589.3795439299013
 30
0.0
 10
194.162148079098
 20
589.1326742754302
 30
0.0
 10
194.1344709454092
 20
588.6369622506849
 30
0.0
 10
194.1271206455232
 20
588.3864704274137
 30
0.0
 10
194.1264096120961
 20
588.1382681916367
 30
0.0
  0
LWPOLYLINE
  5
B9
330
1F
100
AcDbEntity
  8
0
  6
Continuous
 62
     8
370
     0
100
AcDbPolyline
 90
        9
 70
   128
 43
0.0
 10
194.1264105476
 20
588.1382680521
 10
193.8611996806
 20
588.1276789144
 10
193.6078259236
 20
588.1018831418
 10
193.3755019195
 20
588.0618213699
 10
193.1726747639
 20
588.0089501873
 10
193.0067205317
 20
587.9451918439
 10
192.8836723305
 20
587.8728653327
 10
192.8080079592
 20
587.7945988462
 10
192.7824766821
 20
587.7132403687
  0
CIRCLE
  5
BA
330
1F
100
AcDbEntity
  8
0
  6
Continuous
 62
     8
370
     0
100
AcDbCircle
 10
210.0341225866
 20
573.2754961832
 30
0.0
 40
85.26278213430561
  0
LINE
  5
BB
330
1F
100
AcDbEntity
  8
0
  6
Continuous
 62
     7
370
    15
100
AcDbLine
 10
124.5283690727
 20
406.8269615193
 30
0.0
 11
124.7713399566
 21
397.5483928873
 31
0.0
  0
LINE
  5
BC
330
1F
100
AcDbEntity
  8
0
  6
Continuous
 62
     7
370
    15
100
AcDbLine
 10
295.2969057
 20
397.5483928873
 30
0.0
 11
295.5398691333
 21
406.8269615193
 31
0.0
  0
ARC
  5
BD
330
1F
100
AcDbEntity
  8
0
  6
Continuous
 62
     7
370
    15
100
AcDbCircle
 10
293.8931859052
 20
397.5851507422
 30
0.0
 40
1.404200000000045
100
AcDbArc
 50
279.653305255
 51
358.5
  0
ARC
  5
BE
330
1F
100
AcDbEntity
  8
0
  6
Continuous
 62
     7
370
    15
100
AcDbCircle
 10
126.175059268
 20
397.5851507422
 30
0.0
 40
1.404200000000049
100
AcDbArc
 50
181.5
 51
260.346694745
  0
ARC
  5
BF
330
1F
100
AcDbEntity
  8
0
  6
Continuous
 62
     7
370
    15
100
AcDbCircle
 10
210.0341225866
 20
890.5998226101
 30
0.0
 40
501.4999999999999
100
AcDbArc
 50
272.8086178769
 51
279.653305255
  0
ARC
  5
C0
330
1F
100
AcDbEntity
  8
0
  6
Continuous
 62
     7
370
    15
100
AcDbCircle
 10
210.0341225866
 20
890.5998226101
 30
0.0
 40
501.4999999999999
100
AcDbArc
 50
260.346694745
 51
267.1913821231
  0
LINE
  5
C1
330
1F
100
AcDbEntity
  8
0
  6
Continuous
 62
     7
370
    15
100
AcDbLine
 10
234.6076221652
 20
362.6949614911
 30
0.0
 11
234.6076221652
 21
389.9222365646
 31
0.0
  0
LINE
  5
C2
330
1F
100
AcDbEntity
  8
0
  6
Continuous
 62
     7
370
    15
100
AcDbLine
 10
185.4606234915
 20
389.9221639214
 30
0.0
 11
185.4606234915
 21
362.6949614911
 31
0.0
  0
ARC
  5
C3
330
1F
100
AcDbEntity
  8
0
  6
Continuous
 62
     7
370
    15
100
AcDbCircle
 10
210.0341225866
 20
362.6949615209
 30
0.0
 40
24.5735
100
AcDbArc
 50
333.4933826394
 51
0.0
  0
ARC
  5
C4
330
1F
100
AcDbEntity
  8
0
  6
Continuous
 62
     7
370
    15
100
AcDbCircle
 10
210.0341225866
 20
362.6949615209
 30
0.0
 40
24.57350000000002
100
AcDbArc
 50
180.0
 51
206.5066173606
  0
ARC
  5
C5
330
1F
100
AcDbEntity
  8
0
  6
Continuous
 62
     7
370
    15
100
AcDbCircle
 10
210.0341225866
 20
362.6949615209
 30
0.0
 40
26.57950000000001
100
AcDbArc
 50
289.9258146636
 51
334.9401539127
  0
ARC
  5
C6
330
1F
100
AcDbEntity
  8
0
  6
Continuous
 62
     7
370
    15
100
AcDbCircle
 10
210.0341225866
 20
362.6949615209
 30
0.0
 40
26.57950000000002
100
AcDbArc
 50
205.0598460873
 51
250.0874641761
  0
SPLINE
  5
C7
330
1F
100
AcDbEntity
  8
0
  6
Continuous
 62
     7
370
    15
100
AcDbSpline
210
0.0
220
0.0
230
1.0
 70
     8
 71
     3
 72
    11
 73
     7
 74
     0
 42
0.00000001
 43
0.00000001
 40
0.0
 40
0.0
 40
0.0
 40
0.0
 40
0.2687325522430112
 40
0.5252460152543622
 40
0.7856655247711096
 40
1.0
 40
1.0
 40
1.0
 40
1.0
 10
227.2598260528572
 20
324.2587237684406
 30
0.0
 10
227.1681013375778
 20
324.7895807621873
 30
0.0
 10
226.9888225684123
 20
325.8271570375888
 30
0.0
 10
226.0246052090334
 20
327.3425435111875
 30
0.0
 10
224.6698083724903
 20
328.7289479072828
 30
0.0
 10
223.5299071485772
 20
329.4476946966154
 30
0.0
 10
223.0152824408539
 20
329.7721832124866
 30
0.0
  0
SPLINE
  5
C8
330
1F
100
AcDbEntity
  8
0
  6
Continuous
 62
     7
370
    15
100
AcDbSpline
210
0.0
220
0.0
230
1.0
 70
     8
 71
     3
 72
    11
 73
     7
 74
     0
 42
0.00000001
 43
0.00000001
 40
0.0
 40
0.0
 40
0.0
 40
0.0
 40
0.2143344571840185
 40
0.4747539447759835
 40
0.7312674703816483
 40
1.0
 40
1.0
 40
1.0
 40
1.0
 10
197.052963215781
 20
329.7721832124866
 30
0.0
 10
196.5383384714992
 20
329.4476947077183
 30
0.0
 10
195.3984371666083
 20
328.7289479429789
 30
0.0
 10
194.0436408781985
 20
327.3425431734277
 30
0.0
 10
193.0794207167339
 20
325.8271573771595
 30
0.0
 10
192.900142274461
 20
324.7895808208297
 30
0.0
 10
192.8084177411326
 20
324.2587237684406
 30
0.0
  0
SPLINE
  5
C9
330
1F
100
AcDbEntity
  8
0
  6
Continuous
 62
     7
370
    15
100
AcDbSpline
210
0.0
220
0.0
230
1.0
 70
     8
 71
     3
 72
    11
 73
     7
 74
     0
 42
0.00000001
 43
0.00000001
 40
0.0
 40
0.0
 40
0.0
 40
0.0
 40
0.2299333595537817
 40
0.4803400586389474
 40
0.7405063673896815
 40
1.0
 40
1.0
 40
1.0
 40
1.0
 10
223.166635397745
 20
329.7120197741664
 30
0.0
 10
222.8030900685504
 20
329.9144663699726
 30
0.0
 10
222.0436292183192
 20
330.3373854709224
 30
0.0
 10
220.73447075071
 20
331.3397128903084
 30
0.0
 10
219.3967923529371
 20
332.7440134501118
 30
0.0
 10
218.8691710899899
 20
334.0874047745028
 30
0.0
 10
218.6057019493707
 20
334.7582309572376
 30
0.0
  0
SPLINE
  5
CA
330
1F
100
AcDbEntity
  8
0
  6
Continuous
 62
     7
370
    15
100
AcDbSpline
210
0.0
220
0.0
230
1.0
 70
     8
 71
     3
 72
    11
 73
     7
 74
     0
 42
0.00000001
 43
0.00000001
 40
0.0
 40
0.0
 40
0.0
 40
0.0
 40
0.2594936094617706
 40
0.5196599707409005
 40
0.7700666775520234
 40
1.0
 40
1.0
 40
1.0
 40
1.0
 10
201.4625427759417
 20
334.7582309572376
 30
0.0
 10
201.1990740872937
 20
334.0874047352663
 30
0.0
 10
200.6714536525633
 20
332.7440131365104
 30
0.0
 10
199.3337738079788
 20
331.3397130523265
 30
0.0
 10
198.0246154399825
 20
330.3373855374741
 30
0.0
 10
197.2651552402613
 20
329.9144663777972
 30
0.0
 10
196.90161025889
 20
329.7120197741664
 30
0.0
  0
LINE
  5
CB
330
1F
100
AcDbEntity
  8
0
  6
Continuous
 62
     7
370
    15
100
AcDbLine
 10
200.989811819
 20
337.7004130809
 30
0.0
 11
201.0283722988
 21
337.6829563706
 31
0.0
  0
SPLINE
  5
CC
330
1F
100
AcDbEntity
  8
0
  6
Continuous
 62
     7
370
    15
100
AcDbSpline
210
0.0
220
0.0
230
1.0
 70
     8
 71
     3
 72
    11
 73
     7
 74
     0
 42
0.00000001
 43
0.00000001
 40
0.0
 40
0.0
 40
0.0
 40
0.0
 40
0.1876804441059266
 40
0.4149112435540162
 40
0.6872322109296628
 40
1.0
 40
1.0
 40
1.0
 40
1.0
 10
194.4701170063742
 20
308.535674127785
 30
0.0
 10
195.4835562022062
 20
308.4969191217765
 30
0.0
 10
197.7239990944435
 20
308.4112421733149
 30
0.0
 10
201.3266385716294
 20
308.3135916708756
 30
0.0
 10
205.5170442183569
 20
308.264771836054
 30
0.0
 10
208.46060104649
 20
308.3005830756239
 30
0.0
 10
210.0341225865901
 20
308.3197264997638
 30
0.0
  0
SPLINE
  5
CD
330
1F
100
AcDbEntity
  8
0
  6
Continuous
 62
     7
370
    15
100
AcDbSpline
210
0.0
220
0.0
230
1.0
 70
     8
 71
     3
 72
    12
 73
     8
 74
     0
 42
0.00000001
 43
0.00000001
 40
0.0
 40
0.0
 40
0.0
 40
0.0
 40
0.2303336963605173
 40
0.474802028638154
 40
0.6478234151908502
 40
0.8270179541441347
 40
1.0
 40
1.0
 40
1.0
 40
1.0
 10
210.0341225865901
 20
308.3197264997638
 30
0.0
 10
211.2948956758836
 20
308.3178510575191
 30
0.0
 10
213.8938103371237
 20
308.3139850848177
 30
0.0
 10
217.3434878377081
 20
308.3367079848979
 30
0.0
 10
220.4296465287495
 20
308.3820287692427
 30
0.0
 10
223.0977048442834
 20
308.4416641151102
 30
0.0
 10
224.7745132163737
 20
308.5047081617438
 30
0.0
 10
225.5981277189382
 20
308.5356741277851
 30
0.0
  0
LINE
  5
CE
330
1F
100
AcDbEntity
  8
0
  6
Continuous
 62
     7
370
    15
100
AcDbLine
 10
192.881485585
 20
309.7187369196
 30
0.0
 11
192.8908453769
 21
309.6746369331
 31
0.0
  0
LINE
  5
CF
330
1F
100
AcDbEntity
  8
0
  6
Continuous
 62
     7
370
    15
100
AcDbLine
 10
227.1834799535
 20
309.7009374826
 30
0.0
 11
227.1866837031
 21
309.7180440156
 31
0.0
  0
SPLINE
  5
D0
330
1F
100
AcDbEntity
  8
0
  6
Continuous
 62
     7
370
    15
100
AcDbSpline
210
0.0
220
0.0
230
1.0
 70
     8
 71
     3
 72
    11
 73
     7
 74
     0
 42
0.00000001
 43
0.00000001
 40
0.0
 40
0.0
 40
0.0
 40
0.0
 40
0.1211609627120697
 40
0.4013043931981651
 40
0.6893474308472952
 40
0.9999999999999999
 40
0.9999999999999999
 40
0.9999999999999999
 40
0.9999999999999999
 10
201.0439784712322
 20
337.6721157757915
 30
0.0
 10
201.0557826462889
 20
337.6668642375307
 30
0.0
 10
201.094879952899
 20
337.6494703069453
 30
0.0
 10
201.3069727269557
 20
337.496815882083
 30
0.0
 10
201.5943781193043
 20
337.1018895235496
 30
0.0
 10
201.6298268419664
 20
336.7414009973613
 30
0.0
 10
201.6482205576428
 20
336.5543498723186
 30
0.0
  0
SPLINE
  5
D1
330
1F
100
AcDbEntity
  8
0
  6
Continuous
 62
     7
370
    15
100
AcDbSpline
210
0.0
220
0.0
230
1.0
 70
     8
 71
     3
 72
    11
 73
     7
 74
     0
 42
0.00000001
 43
0.00000001
 40
0.0
 40
0.0
 40
0.0
 40
0.0
 40
0.2555127205821681
 40
0.5503714670435528
 40
0.8169672115125747
 40
1.0
 40
1.0
 40
1.0
 40
1.0
 10
218.436605434788
 20
336.5525244800723
 30
0.0
 10
218.4410737515556
 20
336.7084388558784
 30
0.0
 10
218.4506984545802
 20
337.044276631587
 30
0.0
 10
218.7180891020847
 20
337.4513307367647
 30
0.0
 10
218.9543096814604
 20
337.6391995356551
 30
0.0
 10
219.0111294187301
 20
337.6657646604284
 30
0.0
 10
219.0342593453057
 20
337.6765786735691
 30
0.0
  0
LINE
  5
D2
330
1F
100
AcDbEntity
  8
0
  6
Continuous
 62
     7
370
    15
100
AcDbLine
 10
218.4191692135
 20
336.3160579531
 30
0.0
 11
218.4149270392
 21
336.5591331451
 31
0.0
  0
LINE
  5
D3
330
1F
100
AcDbEntity
  8
0
  6
Continuous
 62
     7
370
    15
100
AcDbLine
 10
201.6532450429
 20
336.5548937647
 30
0.0
 11
201.6490755118
 21
336.3160579531
 31
0.0
  0
SPLINE
  5
D4
330
1F
100
AcDbEntity
  8
0
  6
Continuous
 62
     7
370
    15
100
AcDbSpline
210
0.0
220
0.0
230
1.0
 70
     8
 71
     3
 72
     9
 73
     5
 74
     0
 42
0.00000001
 43
0.00000001
 40
0.0
 40
0.0
 40
0.0
 40
0.0
 40
0.4930789695578512
 40
1.0
 40
1.0
 40
1.0
 40
1.0
 10
201.6157164684661
 20
336.3198651997722
 30
0.0
 10
201.6097796089016
 20
335.8454329629083
 30
0.0
 10
201.5977392260601
 20
334.8832498925385
 30
0.0
 10
201.1927860678424
 20
333.9972085121712
 30
0.0
 10
200.9875067955979
 20
333.548055502621
 30
0.0
  0
LINE
  5
D5
330
1F
100
AcDbEntity
  8
0
  6
Continuous
 62
     7
370
    15
100
AcDbLine
 10
218.4545306004
 20
335.9203799693
 30
0.0
 11
218.4302761666
 21
336.4306851356
 31
0.0
  0
LINE
  5
D6
330
1F
100
AcDbEntity
  8
0
  6
Continuous
 62
     7
370
    15
100
AcDbLine
 10
295.5398691333
 20
406.8269615193
 30
0.0
 11
124.5283690727
 21
406.8269615193
 31
0.0
  0
SPLINE
  5
D7
330
1F
100
AcDbEntity
  8
0
  6
Continuous
 62
     7
370
    15
100
AcDbSpline
210
0.0
220
0.0
230
1.0
 70
     8
 71
     3
 72
    37
 73
    33
 74
     0
 42
0.00000001
 43
0.00000001
 40
0.0
 40
0.0
 40
0.0
 40
0.0
 40
0.0182148269217531
 40
0.04517739611268
 40
0.0725329727384321
 40
0.1254651279648023
 40
0.1526240276153956
 40
0.1799827679286841
 40
0.2064709215194715
 40
0.2331444121010214
 40
0.2601050747733407
 40
0.2874591054208964
 40
0.313937012079194
 40
0.36750299976419
 40
0.3948465368221146
 40
0.4213133489172848
 40
0.474856753735602
 40
0.5021885907889977
 40
0.5286483323757982
 40
0.5821771686763655
 40
0.6095012379341793
 40
0.635961041580439
 40
0.689489699962226
 40
0.7168133721470699
 40
0.743280344174671
 40
0.7968233004187946
 40
0.824154094448545
 40
0.8506321639787656
 40
0.9041976389446498
 40
0.9315399414795282
 40
0.9580281935653128
 40
1.0
 40
1.0
 40
1.0
 40
1.0
 10
234.588960323406
 20
389.9222365646041
 30
0.0
 10
234.5885897690504
 20
389.9361284165349
 30
0.0
 10
234.5876707001525
 20
389.9705837369239
 30
0.0
 10
234.3847494331255
 20
390.0256742591682
 30
0.0
 10
233.8842209456609
 20
390.1061418051617
 30
0.0
 10
233.031704925565
 20
390.1845865355996
 30
0.0
 10
231.8622977217644
 20
390.2589250586511
 30
0.0
 10
230.8217162814843
 20
390.3125592300954
 30
0.0
 10
229.6395828791222
 20
390.3630845509757
 30
0.0
 10
228.3259826827461
 20
390.4102840823799
 30
0.0
 10
226.8676464730129
 20
390.4545173838601
 30
0.0
 10
225.291127858062
 20
390.4948122054745
 30
0.0
 10
223.0516657663061
 20
390.5429245772395
 30
0.0
 10
220.6150341534561
 20
390.5825043288116
 30
0.0
 10
218.0409559317539
 20
390.6124455613965
 30
0.0
 10
215.3917961176241
 20
390.6358412915207
 30
0.0
 10
212.6521861179824
 20
390.6492401391862
 30
0.0
 10
209.8902883961886
 20
390.6522006953543
 30
0.0
 10
207.1304137445391
 20
390.6482455232933
 30
0.0
 10
204.3965733781469
 20
390.6339757741131
 30
0.0
 10
201.7579237774284
 20
390.6096418857052
 30
0.0
 10
199.1979137194095
 20
390.5788037698186
 30
0.0
 10
196.7773016504718
 20
390.5384886696712
 30
0.0
 10
194.5585532727689
 20
390.4896225420491
 30
0.0
 10
192.486232432285
 20
390.4353828045149
 30
0.0
 10
190.6510733184777
 20
390.3735797218501
 30
0.0
 10
189.1016796687154
 20
390.3056808385209
 30
0.0
 10
187.750928284899
 20
390.2341583955723
 30
0.0
 10
186.7049572011209
 20
390.1578204850393
 30
0.0
 10
186.0072663860805
 20
390.0785470382093
 30
0.0
 10
185.5561690203391
 20
390.0065323647972
 30
0.0
 10
185.5335637039443
 20
389.9542298108955
 30
0.0
 10
185.5197047329672
 20
389.9221639214433
 30
0.0
  0
LWPOLYLINE
  5
D8
330
1F
100
AcDbEntity
  8
0
  6
Continuous
 62
     7
370
    15
100
AcDbPolyline
 90
       15
 70
   128
 43
0.0
 10
210.0341225866
 20
347.2651555268
 10
212.468732519
 20
347.2956768303
 10
214.8737894817
 20
347.3868756621
 10
217.220099315
 20
347.5376381604
 10
219.4791810102
 20
347.7461352079
 10
221.6236127055
 20
348.0098410575
 10
223.6273644007
 20
348.3255482344
 10
225.4661118127
 20
348.6894308655
 10
227.1175348646
 20
349.0970670311
 10
228.5615896321
 20
349.5435132711
 10
229.7807467616
 20
350.0233455627
 10
230.7602056748
 20
350.5307412772
 10
231.4880771077
 20
351.0595387845
 10
231.955528397
 20
351.6033231346
 10
232.0245263613
 20
351.7277813582
  0
LWPOLYLINE
  5
D9
330
1F
100
AcDbEntity
  8
0
  6
Continuous
 62
     7
370
    15
100
AcDbPolyline
 90
       15
 70
   128
 43
0.0
 10
188.0437192953
 20
351.7277813582
 10
188.1127172596
 20
351.6033231346
 10
188.5801685489
 20
351.0595387845
 10
189.3080399818
 20
350.5307412772
 10
190.287498895
 20
350.0233455627
 10
191.5066560245
 20
349.5435132711
 10
192.9507089294
 20
349.0970670311
 10
194.602133844
 20
348.6894308655
 10
196.4408812559
 20
348.3255482344
 10
198.4446320198
 20
348.0098410575
 10
200.5890637151
 20
347.7461352079
 10
202.848145876
 20
347.5376381604
 10
205.1944557092
 20
347.3868756621
 10
207.599512672
 20
347.2956768303
 10
210.0341225866
 20
347.2651555268
  0
LWPOLYLINE
  5
DA
330
1F
100
AcDbEntity
  8
0
  6
Continuous
 62
     7
370
    15
100
AcDbPolyline
 90
       35
 70
   128
 43
0.0
 10
233.863007415
 20
352.9942459492
 10
234.1144645102
 20
352.5932408003
 10
234.2471071965
 20
352.0181304841
 10
234.1144645102
 20
351.4430201678
 10
233.7179949022
 20
350.8742093174
 10
233.0620383359
 20
350.3179303436
 10
232.1537846214
 20
349.7802815466
 10
231.0031821466
 20
349.267148885
 10
229.6228372938
 20
348.7841575472
 10
228.0278766043
 20
348.3365974455
 10
226.2357716895
 20
347.9293747871
 10
224.2661576233
 20
347.5669487445
 10
222.1406150124
 20
347.2532904772
 10
219.8824306465
 20
346.9918384282
 10
217.516346041
 20
346.7854536204
 10
215.0682850256
 20
346.636397305
 10
212.5650685261
 20
346.5463086097
 10
210.0341225866
 20
346.5161672859
 10
207.5031766649
 20
346.5463086097
 10
204.9999601654
 20
346.636397305
 10
202.5518991499
 20
346.7854536204
 10
200.1858150101
 20
346.9918384282
 10
197.9276306442
 20
347.2532904772
 10
195.8020880333
 20
347.5669487445
 10
193.8324739671
 20
347.9293747871
 10
192.0403690524
 20
348.3365974455
 10
190.4454065002
 20
348.7841575472
 10
189.06506351
 20
349.267148885
 10
187.9144610352
 20
349.7802815466
 10
187.0062073208
 20
350.3179303436
 10
186.3502507544
 20
350.8742093174
 10
185.9537792838
 20
351.4430201678
 10
185.8211384601
 20
352.0181304841
 10
185.9537792838
 20
352.5932408003
 10
186.1947608627
 20
352.9809466629
  0
LWPOLYLINE
  5
DB
330
1F
100
AcDbEntity
  8
0
  6
Continuous
 62
     7
370
    15
100
AcDbPolyline
 90
       17
 70
   128
 43
0.0
 10
210.0341225866
 20
346.8336253493
 10
212.5459671001
 20
346.8635357051
 10
215.0302912555
 20
346.9529501228
 10
217.4598766937
 20
347.1008776753
 10
219.8081036545
 20
347.3057053117
 10
222.0492448173
 20
347.5651829569
 10
224.1587463281
 20
347.8764756648
 10
226.1134946234
 20
348.2361673443
 10
227.8920748717
 20
348.6403166382
 10
229.4749991483
 20
349.0844979016
 10
230.8449243642
 20
349.5638421802
 10
231.9868431873
 20
350.0731042652
 10
232.8882423676
 20
350.6066962211
 10
233.5392480231
 20
351.1587730674
 10
233.9327262229
 20
351.7232923834
 10
234.0643668062
 20
352.2940627365
 10
234.0423782802
 20
352.5276049106
  0
ARC
  5
DC
330
1F
100
AcDbEntity
  8
0
  6
Continuous
 62
     7
370
    15
100
AcDbCircle
 10
231.6629048129
 20
351.7751719214
 30
0.0
 40
2.512969981289438
100
AcDbArc
 50
22.2250961327
 51
58.2674989526
  0
ARC
  5
DD
330
1F
100
AcDbEntity
  8
0
  6
Continuous
 62
     7
370
    15
100
AcDbCircle
 10
188.4640594173
 20
351.7143697086
 30
0.0
 40
2.595629466158646
100
AcDbArc
 50
122.1290253098
 51
154.8316573233
  0
LWPOLYLINE
  5
DE
330
1F
100
AcDbEntity
  8
0
  6
Continuous
 62
     7
370
    15
100
AcDbPolyline
 90
       17
 70
   128
 43
0.0
 10
186.0380248613
 20
352.5850526123
 10
186.0038788504
 20
352.2940627365
 10
186.135517571
 20
351.7232923834
 10
186.5289957709
 20
351.1587730674
 10
187.1800014264
 20
350.6066962211
 10
188.0814024693
 20
350.0731042652
 10
189.2233212925
 20
349.5638421802
 10
190.5932465083
 20
349.0844979016
 10
192.1761707849
 20
348.6403166382
 10
193.9547510333
 20
348.2361673443
 10
195.9094993285
 20
347.8764756648
 10
198.018999908
 20
347.5651829569
 10
200.2601420022
 20
347.3057053117
 10
202.6083684973
 20
347.1008776753
 10
205.0379539355
 20
346.9529501228
 10
207.5222780909
 20
346.8635357051
 10
210.0341225866
 20
346.8336253493
  0
LINE
  5
DF
330
1F
100
AcDbEntity
  8
0
  6
Continuous
 62
     7
370
    15
100
AcDbLine
 10
223.1291645653
 20
329.70054588
 30
0.0
 11
223.0116195492
 21
329.7670646636
 31
0.0
  0
LINE
  5
E0
330
1F
100
AcDbEntity
  8
0
  6
Continuous
 62
     7
370
    15
100
AcDbLine
 10
192.846374724
 20
324.2557733385
 30
0.0
 11
192.7824673689
 21
323.8192289202
 31
0.0
  0
LINE
  5
E1
330
1F
100
AcDbEntity
  8
0
  6
Continuous
 62
     7
370
    15
100
AcDbLine
 10
196.9390810914
 20
329.70054588
 30
0.0
 11
197.0566251761
 21
329.7670646636
 31
0.0
  0
LINE
  5
E2
330
1F
100
AcDbEntity
  8
0
  6
Continuous
 62
     7
370
    15
100
AcDbLine
 10
218.6317827068
 20
334.7598104803
 30
0.0
 11
218.6840066201
 21
334.5886929958
 31
0.0
  0
LINE
  5
E3
330
1F
100
AcDbEntity
  8
0
  6
Continuous
 62
     7
370
    15
100
AcDbLine
 10
201.4364620186
 20
334.7598104803
 30
0.0
 11
201.3842390365
 21
334.5886929958
 31
0.0
  0
SPLINE
  5
E4
330
1F
100
AcDbEntity
  8
0
  6
Continuous
 62
     7
370
    15
100
AcDbSpline
210
0.0
220
0.0
230
1.0
 70
     8
 71
     3
 72
    10
 73
     6
 74
     0
 42
0.00000001
 43
0.00000001
 40
0.0
 40
0.0
 40
0.0
 40
0.0
 40
0.5
 40
0.5
 40
1.0
 40
1.0
 40
1.0
 40
1.0
 10
200.8644204228881
 20
337.7540554276225
 30
0.0
 10
201.1528983624022
 20
337.6493242215115
 30
0.0
 10
201.4061093921933
 20
337.4508538769048
 30
0.0
 10
201.7492739700803
 20
336.9391135459446
 30
0.0
 10
201.8383847428843
 20
336.6271002676018
 30
0.0
 10
201.8287072022713
 20
336.3160715831776
 30
0.0
  0
SPLINE
  5
E5
330
1F
100
AcDbEntity
  8
0
  6
Continuous
 62
     7
370
    15
100
AcDbSpline
210
0.0
220
0.0
230
1.0
 70
     8
 71
     3
 72
    14
 73
    10
 74
     0
 42
0.00000001
 43
0.00000001
 40
0.0
 40
0.0
 40
0.0
 40
0.0
 40
0.1021860464700719
 40
0.3076953988053598
 40
0.5157360132994653
 40
0.6733136216347361
 40
0.8319698948822747
 40
0.9940411575867373
 40
1.0
 40
1.0
 40
1.0
 40
1.0
 10
194.2015664166935
 20
308.5708706705249
 30
0.0
 10
194.2034795804744
 20
308.5688748194369
 30
0.0
 10
194.2092403639951
 20
308.5628650537432
 30
0.0
 10
194.261855978581
 20
308.5528639240814
 30
0.0
 10
194.369559352617
 20
308.5428401573862
 30
0.0
 10
194.5084567094688
 20
308.5344657539177
 30
0.0
 10
194.6692079974807
 20
308.5275006318773
 30
0.0
 10
194.7908650594285
 20
308.523126513672
 30
0.0
 10
194.8675855810315
 20
308.5210982157496
 30
0.0
 10
194.8703063166865
 20
308.5210262863314
 30
0.0
  0
SPLINE
  5
E6
330
1F
100
AcDbEntity
  8
0
  6
Continuous
 62
     7
370
    15
100
AcDbSpline
210
0.0
220
0.0
230
1.0
 70
     8
 71
     3
 72
    14
 73
    10
 74
     0
 42
0.00000001
 43
0.00000001
 40
0.0
 40
0.0
 40
0.0
 40
0.0
 40
0.0970545436476436
 40
0.2922438626580318
 40
0.4898370896569209
 40
0.6395015829451117
 40
0.7901905735538787
 40
0.944123227831679
 40
1.0
 40
1.0
 40
1.0
 40
1.0
 10
225.8666792399414
 20
308.5708706705249
 30
0.0
 10
225.8647668847589
 20
308.5688748187519
 30
0.0
 10
225.8590085344096
 20
308.5628650493013
 30
0.0
 10
225.8063601314991
 20
308.552863948998
 30
0.0
 10
225.6987745689532
 20
308.5428401023591
 30
0.0
 10
225.5595481958518
 20
308.5344658903794
 30
0.0
 10
225.3999590548551
 20
308.5275001091726
 30
0.0
 10
225.2551185360602
 20
308.5224200354672
 30
0.0
 10
225.1529147795992
 20
308.5198426135957
 30
0.0
 10
225.125695716513
 20
308.5191561906017
 30
0.0
  0
ARC
  5
E7
330
1F
100
AcDbEntity
  8
0
  6
Continuous
 62
     7
370
    15
100
AcDbCircle
 10
194.2619243703
 20
309.973472734
 30
0.0
 40
1.403900149981256
100
AcDbArc
 50
192.3059477677
 51
267.5359200131
  0
SPLINE
  5
E8
330
1F
100
AcDbEntity
  8
0
  6
Continuous
 62
     7
370
    15
100
AcDbSpline
210
0.0
220
0.0
230
1.0
 70
     8
 71
     3
 72
    22
 73
    18
 74
     0
 42
0.00000001
 43
0.00000001
 40
0.0
 40
0.0
 40
0.0
 40
0.0
 40
0.0625000000000001
 40
0.0625000000000001
 40
0.1250000000000003
 40
0.1250000000000003
 40
0.2500000000000003
 40
0.2500000000000003
 40
0.5000000000000003
 40
0.5000000000000003
 40
0.6250000000000002
 40
0.6250000000000002
 40
0.7500000000000002
 40
0.7500000000000002
 40
0.8750000000000001
 40
0.8750000000000001
 40
1.0
 40
1.0
 40
1.0
 40
1.0
 10
192.8569871905592
 20
309.9789927942135
 30
0.0
 10
192.8489326188122
 20
310.0237443114265
 30
0.0
 10
192.8413440981617
 20
310.0863663821064
 30
0.0
 10
192.8270280764714
 20
310.2372675831552
 30
0.0
 10
192.82029271933
 20
310.3272013778665
 30
0.0
 10
192.8012354526887
 20
310.6411359839636
 30
0.0
 10
192.7900849497682
 20
310.9089174506403
 30
0.0
 10
192.7616738299964
 20
311.8878990843917
 30
0.0
 10
192.7493747127774
 20
312.7751697498276
 30
0.0
 10
192.7404547275495
 20
314.4565095079275
 30
0.0
 10
192.7390749741961
 20
315.0760085294635
 30
0.0
 10
192.7394588061711
 20
316.4290247290994
 30
0.0
 10
192.741228680693
 20
317.1593552691356
 30
0.0
 10
192.7478643399482
 20
318.7640604888308
 30
0.0
 10
192.7527288877255
 20
319.6421146846392
 30
0.0
 10
192.7654078732146
 20
321.5497759456195
 30
0.0
 10
192.773241159137
 20
322.5784146301417
 30
0.0
 10
192.7824675531502
 20
323.6795570868319
 30
0.0
  0
SPLINE
  5
E9
330
1F
100
AcDbEntity
  8
0
  6
Continuous
 62
     7
370
    15
100
AcDbSpline
210
0.0
220
0.0
230
1.0
 70
     8
 71
     3
 72
    20
 73
    16
 74
     0
 42
0.00000001
 43
0.00000001
 40
0.0
 40
0.0
 40
0.0
 40
0.0
 40
0.0004219653747467
 40
0.012134978456554
 40
0.0589874524737647
 40
0.1526964555731487
 40
0.2464057955025885
 40
0.3401712813739833
 40
0.4338805260083102
 40
0.5275896220656827
 40
0.6213556380843172
 40
0.7150646011456067
 40
0.8087772019914214
 40
0.9043366615323941
 40
0.9999999999999999
 40
0.9999999999999999
 40
0.9999999999999999
 40
0.9999999999999999
 10
227.2111532724627
 20
309.9784418074763
 30
0.0
 10
227.2112079210486
 20
309.9787342704412
 30
0.0
 10
227.2127795178005
 20
309.9871449884557
 30
0.0
 10
227.2202863582624
 20
310.035183386311
 30
0.0
 10
227.2386417189367
 20
310.1864024661631
 30
0.0
 10
227.2633206534752
 20
310.5454994484555
 30
0.0
 10
227.287708742824
 20
311.172654886897
 30
0.0
 10
227.306419017143
 20
311.9979121997515
 30
0.0
 10
227.3196411145461
 20
313.0208037881279
 30
0.0
 10
227.3274421821502
 20
314.2404774618017
 30
0.0
 10
227.3298729219036
 20
315.6604510644747
 30
0.0
 10
227.3270168189804
 20
317.2650265152909
 30
0.0
 10
227.3187562342667
 20
319.1124343243163
 30
0.0
 10
227.3055561648117
 20
321.2250493690916
 30
0.0
 10
227.2923733005495
 20
322.8610937616898
 30
0.0
 10
227.2857782877215
 20
323.6795603363192
 30
0.0
  0
ARC
  5
EA
330
1F
100
AcDbEntity
  8
0
  6
Continuous
 62
     7
370
    15
100
AcDbCircle
 10
225.8063234167
 20
309.9734685084
 30
0.0
 40
1.403895836676525
100
AcDbArc
 50
272.4640005378
 51
348.7983381548
  0
SPLINE
  5
EB
330
1F
100
AcDbEntity
  8
0
  6
Continuous
 62
     7
370
    15
100
AcDbSpline
210
0.0
220
0.0
230
1.0
 70
     8
 71
     3
 72
     9
 73
     5
 74
     0
 42
0.00000001
 43
0.00000001
 40
0.0
 40
0.0
 40
0.0
 40
0.0
 40
0.7385277057086094
 40
1.0
 40
1.0
 40
1.0
 40
1.0
 10
192.7824673689135
 20
323.8192289201892
 30
0.0
 10
192.7724721822
 20
322.6023959233993
 30
0.0
 10
192.7589382461861
 20
320.9547488718613
 30
0.0
 10
192.7531133494011
 20
319.68773846888
 30
0.0
 10
192.7515903002747
 20
319.3564503519214
 30
0.0
  0
SPLINE
  5
EC
330
1F
100
AcDbEntity
  8
0
  6
Continuous
 62
     7
370
    15
100
AcDbSpline
210
0.0
220
0.0
230
1.0
 70
     8
 71
     3
 72
     9
 73
     5
 74
     0
 42
0.00000001
 43
0.00000001
 40
0.0
 40
0.0
 40
0.0
 40
0.0
 40
0.7385277058068911
 40
1.0
 40
1.0
 40
1.0
 40
1.0
 10
227.2857782877215
 20
323.8192289201892
 30
0.0
 10
227.2957741220043
 20
322.6023959235706
 30
0.0
 10
227.3093089348546
 20
320.9547488724837
 30
0.0
 10
227.3151311466418
 20
319.6877384689103
 30
0.0
 10
227.3166534937151
 20
319.3564503519214
 30
0.0
  0
LINE
  5
ED
330
1F
100
AcDbEntity
  8
0
  6
Continuous
 62
     8
370
     0
100
AcDbLine
 10
295.2969057
 20
397.5483928873
 30
0.0
 11
124.7713399566
 21
397.5483928873
 31
0.0
  0
LINE
  5
EE
330
1F
100
AcDbEntity
  8
0
  6
Continuous
 62
     8
370
     0
100
AcDbLine
 10
294.1286472119
 20
396.2008333831
 30
0.0
 11
125.9395909942
 21
396.2008333831
 31
0.0
  0
LINE
  5
EF
330
1F
100
AcDbEntity
  8
0
  6
Continuous
 62
     8
370
     0
100
AcDbLine
 10
234.0423782802
 20
352.5276049106
 30
0.0
 11
233.9891736842
 21
352.7256934969
 31
0.0
  0
LINE
  5
F0
330
1F
100
AcDbEntity
  8
0
  6
Continuous
 62
     8
370
     0
100
AcDbLine
 10
186.1148533858
 20
352.8182371585
 30
0.0
 11
186.0380248613
 21
352.5850526123
 31
0.0
  0
SPLINE
  5
F1
330
1F
100
AcDbEntity
  8
0
  6
Continuous
 62
     8
370
     0
100
AcDbSpline
210
0.0
220
0.0
230
1.0
 70
     8
 71
     3
 72
    24
 73
    20
 74
     0
 42
0.00000001
 43
0.00000001
 40
0.0
 40
0.0
 40
0.0
 40
0.0
 40
0.0310217579573836
 40
0.0932964225301285
 40
0.1563925224355887
 40
0.2203236976625401
 40
0.2524289390808027
 40
0.2834508620488109
 40
0.3616196357189844
 40
0.4409919424408953
 40
0.5057268845248837
 40
0.5594878279781386
 40
0.614150954189517
 40
0.6842410751575496
 40
0.7267751262767195
 40
0.8307540265268196
 40
0.9355568219830747
 40
0.990304732217499
 40
1.0
 40
1.0
 40
1.0
 40
1.0
 10
210.0327572472612
 20
337.2696950165904
 30
0.0
 10
210.1682226069161
 20
337.2699121263759
 30
0.0
 10
210.5756280624649
 20
337.2705650734563
 30
0.0
 10
211.2572836550713
 20
337.276582563751
 30
0.0
 10
212.0743179978748
 20
337.2897394699896
 30
0.0
 10
212.7500727558663
 20
337.3064540051085
 30
0.0
 10
213.2800339286148
 20
337.3230832702996
 30
0.0
 10
213.8617723879993
 20
337.3441755276905
 30
0.0
 10
214.6175040935765
 20
337.3774265400755
 30
0.0
 10
215.4716085453549
 20
337.4292186531572
 30
0.0
 10
216.1630747598801
 20
337.466128677376
 30
0.0
 10
216.7073295669053
 20
337.4912926938313
 30
0.0
 10
217.2067155705491
 20
337.5109112947212
 30
0.0
 10
217.5904721347448
 20
337.5180588009424
 30
0.0
 10
218.0361112961011
 20
337.5357175330073
 30
0.0
 10
218.4869233245949
 20
337.5717347781577
 30
0.0
 10
218.8435625864133
 20
337.633759433469
 30
0.0
 10
219.0309769776808
 20
337.6822003960453
 30
0.0
 10
219.0834746040378
 20
337.7044104691021
 30
0.0
 10
219.091372702194
 20
337.7077519027866
 30
0.0
  0
SPLINE
  5
F2
330
1F
100
AcDbEntity
  8
0
  6
Continuous
 62
     8
370
     0
100
AcDbSpline
210
0.0
220
0.0
230
1.0
 70
     8
 71
     3
 72
    20
 73
    16
 74
     0
 42
0.00000001
 43
0.00000001
 40
0.0
 40
0.0
 40
0.0
 40
0.0
 40
0.0330719297195799
 40
0.1120000865872476
 40
0.1923783490796125
 40
0.2732612661022578
 40
0.3274353980703076
 40
0.3818608350210695
 40
0.4377786300742034
 40
0.4944617668655129
 40
0.5560659333649984
 40
0.618622801323244
 40
0.7478386448208144
 40
0.8722724711708002
 40
0.9999999999999999
 40
0.9999999999999999
 40
0.9999999999999999
 40
0.9999999999999999
 10
200.9838187582024
 20
337.7088769404567
 30
0.0
 10
201.0114594328183
 20
337.6976303877723
 30
0.0
 10
201.1050662461055
 20
337.659543258139
 30
0.0
 10
201.3461754184662
 20
337.610188211334
 30
0.0
 10
201.7057883284256
 20
337.5611448241038
 30
0.0
 10
202.1013887763272
 20
337.5321175033823
 30
0.0
 10
202.4938139816447
 20
337.5181359144632
 30
0.0
 10
202.8765352061903
 20
337.5101393067457
 30
0.0
 10
203.3393684820023
 20
337.4922568914092
 30
0.0
 10
203.8852487387356
 20
337.4670740593979
 30
0.0
 10
204.5146687934815
 20
337.4338257793442
 30
0.0
 10
205.4757880310056
 20
337.3752748720848
 30
0.0
 10
206.7506906937662
 20
337.3200839989061
 30
0.0
 10
208.3729453896358
 20
337.2782928336141
 30
0.0
 10
209.474689677005
 20
337.2725858037863
 30
0.0
 10
210.0327572489665
 20
337.2696950165904
 30
0.0
  0
SPLINE
  5
F3
330
1F
100
AcDbEntity
  8
0
  6
Continuous
 62
     8
370
     0
100
AcDbSpline
210
0.0
220
0.0
230
1.0
 70
     8
 71
     3
 72
    30
 73
    26
 74
     0
 42
0.00000001
 43
0.00000001
 40
0.0
 40
0.0
 40
0.0
 40
0.0
 40
0.1250000000000001
 40
0.1250000000000001
 40
0.1875000000000002
 40
0.1875000000000002
 40
0.2500000000000003
 40
0.2500000000000003
 40
0.3750000000000009
 40
0.3750000000000009
 40
0.4375000000000009
 40
0.4375000000000009
 40
0.500000000000001
 40
0.500000000000001
 40
0.6250000000000012
 40
0.6250000000000012
 40
0.6875000000000011
 40
0.6875000000000011
 40
0.7500000000000009
 40
0.7500000000000009
 40
0.8125000000000007
 40
0.8125000000000007
 40
0.8750000000000006
 40
0.8750000000000006
 40
1.0
 40
1.0
 40
1.0
 40
1.0
 10
227.2857677573892
 20
323.6806955822676
 30
0.0
 10
227.2826370790956
 20
324.0274391396705
 30
0.0
 10
227.164817321659
 20
324.3778768915557
 30
0.0
 10
226.8227415191606
 20
324.9070313428083
 30
0.0
 10
226.6799655215899
 20
325.0849434608346
 30
0.0
 10
226.3422056056119
 20
325.4366438003843
 30
0.0
 10
226.148050499584
 20
325.6099435138437
 30
0.0
 10
225.492593376832
 20
326.1219760029095
 30
0.0
 10
224.9593310134497
 20
326.4529953528781
 30
0.0
 10
224.0174364691875
 20
326.9307932758648
 30
0.0
 10
223.6776720659478
 20
327.0876909936758
 30
0.0
 10
222.9572302256263
 20
327.3903995463821
 30
0.0
 10
222.5786074563867
 20
327.5355072056576
 30
0.0
 10
221.388313228532
 20
327.9515560411251
 30
0.0
 10
220.5229003228707
 20
328.2034709514953
 30
0.0
 10
219.1157724747404
 20
328.5401167593712
 30
0.0
 10
218.6291097493157
 20
328.6450769815252
 30
0.0
 10
217.6398686145249
 20
328.8361032717809
 30
0.0
 10
217.1347955138293
 20
328.9227937518995
 30
0.0
 10
216.1036903789775
 20
329.078127963707
 30
0.0
 10
215.5776561540638
 20
329.146777850107
 30
0.0
 10
214.5044416686355
 20
329.2658417108671
 30
0.0
 10
213.9549152201725
 20
329.3164160736652
 30
0.0
 10
212.2907634573376
 20
329.4382033548166
 30
0.0
 10
211.1688999384194
 20
329.4796363549476
 30
0.0
 10
210.0341225865904
 20
329.4796363549476
 30
0.0
  0
ARC
  5
F4
330
1F
100
AcDbEntity
  8
0
  6
Continuous
 62
     8
370
     0
100
AcDbCircle
 10
225.9162983025
 20
323.7133356844
 30
0.0
 40
1.369857794088489
100
AcDbArc
 50
271.0681663478
 51
358.6345479391
  0
SPLINE
  5
F5
330
1F
100
AcDbEntity
  8
0
  6
Continuous
 62
     8
370
     0
100
AcDbSpline
210
0.0
220
0.0
230
1.0
 70
     8
 71
     3
 72
    38
 73
    34
 74
     0
 42
0.00000001
 43
0.00000001
 40
0.0
 40
0.0
 40
0.0
 40
0.0
 40
0.03125
 40
0.03125
 40
0.0625
 40
0.0625
 40
0.1249999999999998
 40
0.1249999999999998
 40
0.1874999999999997
 40
0.1874999999999997
 40
0.2499999999999996
 40
0.2499999999999996
 40
0.3124999999999996
 40
0.3124999999999996
 40
0.3749999999999996
 40
0.3749999999999996
 40
0.4999999999999998
 40
0.4999999999999998
 40
0.5624999999999994
 40
0.5624999999999994
 40
0.6249999999999991
 40
0.6249999999999991
 40
0.7499999999999989
 40
0.7499999999999989
 40
0.8124999999999991
 40
0.8124999999999991
 40
0.8749999999999993
 40
0.8749999999999993
 40
0.9374999999999994
 40
0.9374999999999994
 40
0.9687499999999998
 40
0.9687499999999998
 40
1.0
 40
1.0
 40
1.0
 40
1.0
 10
210.0341225865904
 20
327.6764927775372
 30
0.0
 10
210.2947857285685
 20
327.6764927773714
 30
0.0
 10
210.5579983848248
 20
327.6739852509729
 30
0.0
 10
211.0796107262174
 20
327.6641048869608
 30
0.0
 10
211.3396685600214
 20
327.6567319229009
 30
0.0
 10
212.1176312072112
 20
327.6274652976891
 30
0.0
 10
212.6333321860786
 20
327.5984464779905
 30
0.0
 10
213.6588634579922
 20
327.5216420037253
 30
0.0
 10
214.1665839581469
 20
327.4739256277498
 30
0.0
 10
215.1580053054007
 20
327.3619399441904
 30
0.0
 10
215.6438473872896
 20
327.2975187708286
 30
0.0
 10
216.595963174874
 20
327.152146588247
 30
0.0
 10
217.0622440605551
 20
327.0712018360638
 30
0.0
 10
217.9753321821358
 20
326.893312351616
 30
0.0
 10
218.4244804373019
 20
326.7957762981065
 30
0.0
 10
219.7220362233418
 20
326.4839325387573
 30
0.0
 10
220.5196077756512
 20
326.2515832338237
 30
0.0
 10
221.615874219524
 20
325.8694730423032
 30
0.0
 10
221.9644622200375
 20
325.7364476685728
 30
0.0
 10
222.6275560010882
 20
325.4593790578813
 30
0.0
 10
222.9400043210726
 20
325.3160563988195
 30
0.0
 10
223.8061235240389
 20
324.8799675336826
 30
0.0
 10
224.2962156230894
 20
324.5784132848653
 30
0.0
 10
224.8982075045604
 20
324.1118148702135
 30
0.0
 10
225.0764442776166
 20
323.9538622845079
 30
0.0
 10
225.386395549424
 20
323.6329884720885
 30
0.0
 10
225.517350914821
 20
323.4705118133559
 30
0.0
 10
225.7264918213453
 20
323.147697742573
 30
0.0
 10
225.8055493070579
 20
322.9865113171761
 30
0.0
 10
225.8857658515872
 20
322.7451357206862
 30
0.0
 10
225.9060970940827
 20
322.6647447828823
 30
0.0
 10
225.9337742277714
 20
322.5041135370711
 30
0.0
 10
225.9411250295893
 20
322.4233440673865
 30
0.0
 10
225.9418355610846
 20
322.3437172756345
 30
0.0
  0
SPLINE
  5
F6
330
1F
100
AcDbEntity
  8
0
  6
Continuous
 62
     8
370
     0
100
AcDbSpline
210
0.0
220
0.0
230
1.0
 70
     8
 71
     3
 72
    38
 73
    34
 74
     0
 42
0.00000001
 43
0.00000001
 40
0.0
 40
0.0
 40
0.0
 40
0.0
 40
0.0312499999999999
 40
0.0312499999999999
 40
0.0624999999999998
 40
0.0624999999999998
 40
0.1249999999999996
 40
0.1249999999999996
 40
0.1874999999999993
 40
0.1874999999999993
 40
0.2499999999999991
 40
0.2499999999999991
 40
0.3124999999999988
 40
0.3124999999999988
 40
0.3749999999999986
 40
0.3749999999999986
 40
0.4999999999999984
 40
0.4999999999999984
 40
0.5624999999999987
 40
0.5624999999999987
 40
0.6249999999999988
 40
0.6249999999999988
 40
0.7499999999999992
 40
0.7499999999999992
 40
0.8124999999999993
 40
0.8124999999999993
 40
0.8749999999999994
 40
0.8749999999999994
 40
0.9374999999999994
 40
0.9374999999999994
 40
0.9687499999999998
 40
0.9687499999999998
 40
1.0
 40
1.0
 40
1.0
 40
1.0
 10
210.0341225865904
 20
327.6764927775372
 30
0.0
 10
209.7734594446133
 20
327.676492569095
 30
0.0
 10
209.5102467883559
 20
327.6739852509729
 30
0.0
 10
208.9886344469634
 20
327.6641048869608
 30
0.0
 10
208.7285766131594
 20
327.6567319229009
 30
0.0
 10
207.9506139659696
 20
327.6274652976891
 30
0.0
 10
207.4349129871021
 20
327.5984464779905
 30
0.0
 10
206.4093817151886
 20
327.5216420037253
 30
0.0
 10
205.9016612150339
 20
327.4739256277498
 30
0.0
 10
204.91023986778
 20
327.3619399441904
 30
0.0
 10
204.4243977858912
 20
327.2975187708286
 30
0.0
 10
203.4722819983068
 20
327.152146588247
 30
0.0
 10
203.0060011126257
 20
327.0712018360638
 30
0.0
 10
202.092912991045
 20
326.893312351616
 30
0.0
 10
201.6437647358788
 20
326.7957762981065
 30
0.0
 10
200.3462089498389
 20
326.4839325387573
 30
0.0
 10
199.5486373975296
 20
326.2515832338237
 30
0.0
 10
198.4523709536568
 20
325.8694730423032
 30
0.0
 10
198.1037829531433
 20
325.7364476685728
 30
0.0
 10
197.4406891720926
 20
325.4593790578813
 30
0.0
 10
197.1282408521081
 20
325.3160563988196
 30
0.0
 10
196.2621216491418
 20
324.8799675336827
 30
0.0
 10
195.7720295500914
 20
324.5784132848652
 30
0.0
 10
195.1700376686202
 20
324.1118148702135
 30
0.0
 10
194.9918008955642
 20
323.9538622845079
 30
0.0
 10
194.6818496237567
 20
323.6329884720885
 30
0.0
 10
194.5508942583597
 20
323.4705118133559
 30
0.0
 10
194.3417533518354
 20
323.147697742573
 30
0.0
 10
194.2626958661228
 20
322.9865113171761
 30
0.0
 10
194.1824793215935
 20
322.7451357206862
 30
0.0
 10
194.162148079098
 20
322.6647447828822
 30
0.0
 10
194.1344709454092
 20
322.504113537071
 30
0.0
 10
194.1271206455232
 20
322.4233440184564
 30
0.0
 10
194.1264096120961
 20
322.3437172756345
 30
0.0
  0
ARC
  5
F7
330
1F
100
AcDbEntity
  8
0
  6
Continuous
 62
     8
370
     0
100
AcDbCircle
 10
194.1519465315
 20
323.7133367654
 30
0.0
 40
1.369858859629006
100
AcDbArc
 50
181.365496228
 51
268.9318688941
  0
SPLINE
  5
F8
330
1F
100
AcDbEntity
  8
0
  6
Continuous
 62
     8
370
     0
100
AcDbSpline
210
0.0
220
0.0
230
1.0
 70
     8
 71
     3
 72
    30
 73
    26
 74
     0
 42
0.00000001
 43
0.00000001
 40
0.0
 40
0.0
 40
0.0
 40
0.0
 40
0.1249999999999996
 40
0.1249999999999996
 40
0.1874999999999996
 40
0.1874999999999996
 40
0.2499999999999996
 40
0.2499999999999996
 40
0.3749999999999994
 40
0.3749999999999994
 40
0.4374999999999993
 40
0.4374999999999993
 40
0.4999999999999993
 40
0.4999999999999993
 40
0.6249999999999998
 40
0.6249999999999998
 40
0.6874999999999998
 40
0.6874999999999998
 40
0.7499999999999998
 40
0.7499999999999998
 40
0.8124999999999998
 40
0.8124999999999998
 40
0.8749999999999998
 40
0.8749999999999998
 40
1.0
 40
1.0
 40
1.0
 40
1.0
 10
192.7824774157915
 20
323.6806955822676
 30
0.0
 10
192.7856080940851
 20
324.0274391396705
 30
0.0
 10
192.9034278515217
 20
324.3778768915557
 30
0.0
 10
193.2455036540201
 20
324.9070313428084
 30
0.0
 10
193.3882796515908
 20
325.0849434608346
 30
0.0
 10
193.7260395675688
 20
325.4366438003843
 30
0.0
 10
193.9201946735967
 20
325.6099435138438
 30
0.0
 10
194.5756517963488
 20
326.1219760029097
 30
0.0
 10
195.108914159731
 20
326.4529953528782
 30
0.0
 10
196.0508087039932
 20
326.9307932758647
 30
0.0
 10
196.3905731072329
 20
327.0876909936759
 30
0.0
 10
197.1110149475544
 20
327.3903995463821
 30
0.0
 10
197.489637716794
 20
327.5355072056574
 30
0.0
 10
198.6799319446488
 20
327.9515560411248
 30
0.0
 10
199.54534485031
 20
328.2034709514958
 30
0.0
 10
200.9524726984404
 20
328.5401167593715
 30
0.0
 10
201.4391354238651
 20
328.6450769815252
 30
0.0
 10
202.4283765586558
 20
328.8361032717809
 30
0.0
 10
202.9334496593515
 20
328.9227937518996
 30
0.0
 10
203.9645547942032
 20
329.0781279637072
 30
0.0
 10
204.490589019117
 20
329.1467778501067
 30
0.0
 10
205.5638035045453
 20
329.2658417108667
 30
0.0
 10
206.1133299530083
 20
329.3164160736654
 30
0.0
 10
207.7774817158432
 20
329.4382033548166
 30
0.0
 10
208.8993452347614
 20
329.4796363549476
 30
0.0
 10
210.0341225865904
 20
329.4796363549476
 30
0.0
  0
LWPOLYLINE
  5
F9
330
1F
100
AcDbEntity
  8
0
  6
Continuous
 62
     8
370
     0
100
AcDbPolyline
 90
        3
 70
   128
 43
0.0
 10
227.2857782877
 20
323.6795603363
 10
227.2857782877
 20
323.6795752375
 10
227.2857671119
 20
323.6806928246
  0
SPLINE
  5
FA
330
1F
100
AcDbEntity
  8
0
  6
Continuous
 62
     8
370
     0
100
AcDbSpline
210
0.0
220
0.0
230
1.0
 70
     8
 71
     3
 72
    13
 73
     9
 74
     0
 42
0.00000001
 43
0.00000001
 40
0.0
 40
0.0
 40
0.0
 40
0.0
 40
0.1133507999418536
 40
0.2908198924801844
 40
0.4681184945502286
 40
0.6454860866991666
 40
0.8227872336855913
 40
1.0
 40
1.0
 40
1.0
 40
1.0
 10
223.0116195491679
 20
329.7670646636165
 30
0.0
 10
222.7217223055333
 20
329.9424534084975
 30
0.0
 10
221.9779438296216
 20
330.392441727545
 30
0.0
 10
220.2929467868962
 20
331.0327819729999
 30
0.0
 10
218.0925425392882
 20
331.6612347804659
 30
0.0
 10
215.5857831368291
 20
332.1410573121217
 30
0.0
 10
212.8741386294032
 20
332.4714066489983
 30
0.0
 10
210.9806372502675
 20
332.5160560412905
 30
0.0
 10
210.0341225865904
 20
332.5383751718677
 30
0.0
  0
SPLINE
  5
FB
330
1F
100
AcDbEntity
  8
0
  6
Continuous
 62
     8
370
     0
100
AcDbSpline
210
0.0
220
0.0
230
1.0
 70
     8
 71
     3
 72
    10
 73
     6
 74
     0
 42
0.00000001
 43
0.00000001
 40
0.0
 40
0.0
 40
0.0
 40
0.0
 40
0.9116386097403709
 40
0.9758362961053119
 40
0.9999999999999999
 40
0.9999999999999999
 40
0.9999999999999999
 40
0.9999999999999999
 10
227.2297406084068
 20
324.2565705506481
 30
0.0
 10
227.2572043621288
 20
324.1243359940771
 30
0.0
 10
227.286602116264
 20
323.9827894661847
 30
0.0
 10
227.2857688838792
 20
323.8357666695599
 30
0.0
 10
227.2857762683349
 20
323.8227802460679
 30
0.0
 10
227.2857782877215
 20
323.8192289201892
 30
0.0
  0
LINE
  5
FC
330
1F
100
AcDbEntity
  8
0
  6
Continuous
 62
     8
370
     0
100
AcDbLine
 10
227.2857782877
 20
323.8192289202
 30
0.0
 11
227.2857782877
 21
323.6795603363
 31
0.0
  0
SPLINE
  5
FD
330
1F
100
AcDbEntity
  8
0
  6
Continuous
 62
     8
370
     0
100
AcDbSpline
210
0.0
220
0.0
230
1.0
 70
     8
 71
     3
 72
    13
 73
     9
 74
     0
 42
0.00000001
 43
0.00000001
 40
0.0
 40
0.0
 40
0.0
 40
0.0
 40
0.1133507979941675
 40
0.2908199254445982
 40
0.4681184792442137
 40
0.6454860938964001
 40
0.8227872378362916
 40
1.0
 40
1.0
 40
1.0
 40
1.0
 10
197.0566251761444
 20
329.7670646636165
 30
0.0
 10
197.3465223854649
 20
329.9424534196241
 30
0.0
 10
198.0903008704255
 20
330.3924418259571
 30
0.0
 10
199.7752988997192
 20
331.0327817427811
 30
0.0
 10
201.9757022697052
 20
331.6612349527298
 30
0.0
 10
204.4824620196516
 20
332.1410572479656
 30
0.0
 10
207.1941065319938
 20
332.4714066603382
 30
0.0
 10
209.0876079209552
 20
332.5160560451163
 30
0.0
 10
210.0341225865904
 20
332.5383751718676
 30
0.0
  0
LWPOLYLINE
  5
FE
330
1F
100
AcDbEntity
  8
0
  6
Continuous
 62
     8
370
     0
100
AcDbPolyline
 90
        3
 70
   128
 43
0.0
 10
192.7824673689
 20
323.6795603363
 10
192.7824673689
 20
323.6795752375
 10
192.7824766821
 20
323.6806928246
  0
LINE
  5
FF
330
1F
100
AcDbEntity
  8
0
  6
Continuous
 62
     8
370
     0
100
AcDbLine
 10
192.7824673689
 20
323.8192289202
 30
0.0
 11
192.7824673689
 21
323.6795603363
 31
0.0
  0
SPLINE
  5
100
330
1F
100
AcDbEntity
  8
0
  6
Continuous
 62
     8
370
     0
100
AcDbSpline
210
0.0
220
0.0
230
1.0
 70
     8
 71
     3
 72
     9
 73
     5
 74
     0
 42
0.00000001
 43
0.00000001
 40
0.0
 40
0.0
 40
0.0
 40
0.0
 40
0.7740482859261958
 40
1.0
 40
1.0
 40
1.0
 40
1.0
 10
218.4191692135461
 20
336.3160579530872
 30
0.0
 10
218.4234369421035
 20
335.904651408605
 30
0.0
 10
218.4289504593285
 20
335.3731515629722
 30
0.0
 10
218.5943992654219
 20
334.8728536510667
 30
0.0
 10
218.6317827067502
 20
334.7598104803241
 30
0.0
  0
SPLINE
  5
101
330
1F
100
AcDbEntity
  8
0
  6
Continuous
 62
     8
370
     0
100
AcDbSpline
210
0.0
220
0.0
230
1.0
 70
     8
 71
     3
 72
    34
 73
    30
 74
     0
 42
0.00000001
 43
0.00000001
 40
0.0
 40
0.0
 40
0.0
 40
0.0
 40
0.0312499999999998
 40
0.0312499999999998
 40
0.0624999999999997
 40
0.0624999999999997
 40
0.1249999999999995
 40
0.1249999999999995
 40
0.249999999999999
 40
0.249999999999999
 40
0.3749999999999986
 40
0.3749999999999986
 40
0.4374999999999987
 40
0.4374999999999987
 40
0.4999999999999989
 40
0.4999999999999989
 40
0.562499999999999
 40
0.562499999999999
 40
0.6249999999999991
 40
0.6249999999999991
 40
0.7499999999999994
 40
0.7499999999999994
 40
0.8749999999999997
 40
0.8749999999999997
 40
0.9374999999999999
 40
0.9374999999999999
 40
0.9687499999999999
 40
0.9687499999999999
 40
1.0
 40
1.0
 40
1.0
 40
1.0
 10
218.2395202232016
 20
336.316061520922
 30
0.0
 10
218.2184995177954
 20
336.3033531484206
 30
0.0
 10
218.1951145601426
 20
336.2905328035587
 30
0.0
 10
218.1451654247837
 20
336.2656347623445
 30
0.0
 10
218.1183517840921
 20
336.2534066571918
 30
0.0
 10
218.0324490522662
 20
336.2174843791239
 30
0.0
 10
217.9679063081787
 20
336.1945386215268
 30
0.0
 10
217.7526248362283
 20
336.1296653812594
 30
0.0
 10
217.5803358207416
 20
336.0917170891492
 30
0.0
 10
217.1763927035882
 20
336.0322532463056
 30
0.0
 10
216.9427270602474
 20
336.0103017315112
 30
0.0
 10
216.5546879478514
 20
335.9954885424489
 30
0.0
 10
216.4139424928397
 20
335.9859999460431
 30
0.0
 10
216.0986710723582
 20
335.9612421762333
 30
0.0
 10
215.9259638099724
 20
335.9455289567513
 30
0.0
 10
215.5494441522148
 20
335.9065617476812
 30
0.0
 10
215.3456697882652
 20
335.8831797132798
 30
0.0
 10
214.9250945307485
 20
335.8309848585115
 30
0.0
 10
214.7050879097825
 20
335.8003067943565
 30
0.0
 10
214.0298199829073
 20
335.7197649154596
 30
0.0
 10
213.5605245116086
 20
335.6714149182368
 30
0.0
 10
212.5804465994437
 20
335.5892021488798
 30
0.0
 10
212.0809802858994
 20
335.5562019018299
 30
0.0
 10
211.3222281117701
 20
335.5232013493563
 30
0.0
 10
211.0674312347331
 20
335.5156579605578
 30
0.0
 10
210.6820694940371
 20
335.5117561713105
 30
0.0
 10
210.5531016351275
 20
335.5115489643973
 30
0.0
 10
210.2942598978996
 20
335.5119862321077
 30
0.0
 10
210.1626064870619
 20
335.5126343228851
 30
0.0
 10
210.0341225865903
 20
335.5130037119074
 30
0.0
  0
SPLINE
  5
102
330
1F
100
AcDbEntity
  8
0
  6
Continuous
 62
     8
370
     0
100
AcDbSpline
210
0.0
220
0.0
230
1.0
 70
    24
 71
     3
 72
     8
 73
     4
 74
     0
 42
0.00000001
 43
0.00000001
 40
0.0
 40
0.0
 40
0.0
 40
0.0
 40
1.0
 40
1.0
 40
1.0
 40
1.0
 10
218.4191693963652
 20
336.316061520922
 30
0.0
 10
218.4191693963652
 20
336.316061520922
 30
0.0
 10
218.359022433747
 20
336.316061520922
 30
0.0
 10
218.2395644714876
 20
336.316061520922
 30
0.0
  0
SPLINE
  5
103
330
1F
100
AcDbEntity
  8
0
  6
Continuous
 62
     8
370
     0
100
AcDbSpline
210
0.0
220
0.0
230
1.0
 70
     8
 71
     3
 72
     9
 73
     5
 74
     0
 42
0.00000001
 43
0.00000001
 40
0.0
 40
0.0
 40
0.0
 40
0.0
 40
0.7740482859261958
 40
1.0
 40
1.0
 40
1.0
 40
1.0
 10
201.6490755117663
 20
336.3160579530872
 30
0.0
 10
201.6448077832088
 20
335.904651408605
 30
0.0
 10
201.6392942659839
 20
335.3731515629722
 30
0.0
 10
201.4738454598904
 20
334.8728536510667
 30
0.0
 10
201.4364620185621
 20
334.7598104803241
 30
0.0
  0
SPLINE
  5
104
330
1F
100
AcDbEntity
  8
0
  6
Continuous
 62
     8
370
     0
100
AcDbSpline
210
0.0
220
0.0
230
1.0
 70
    24
 71
     3
 72
    20
 73
    16
 74
     0
 42
0.00000001
 43
0.00000001
 40
0.8481203338387151
 40
0.8481203338387151
 40
0.8481203338387151
 40
0.8481203338387151
 40
0.8556648408298815
 40
0.8838823015056709
 40
0.905045397012513
 40
0.9198820537293078
 40
0.9273003820877053
 40
0.9347187104461027
 40
0.9421370388045001
 40
0.9495553671628976
 40
0.9525226985062565
 40
0.9643920238796924
 40
0.9715136191037539
 40
0.985756809551877
 40
1.0
 40
1.0
 40
1.0
 40
1.0
 10
201.8287159147017
 20
336.316061520922
 30
0.0
 10
201.8227761100483
 20
336.316061520922
 30
0.0
 10
201.7953199457629
 20
336.316061520922
 30
0.0
 10
201.7568922523053
 20
336.316061520922
 30
0.0
 10
201.7217609420973
 20
336.316061520922
 30
0.0
 10
201.7020593915328
 20
336.316061520922
 30
0.0
 10
201.690306336226
 20
336.316061520922
 30
0.0
 10
201.6823473291985
 20
336.316061520922
 30
0.0
 10
201.6752442075828
 20
336.316061520922
 30
0.0
 10
201.6702461153207
 20
336.316061520922
 30
0.0
 10
201.6645983452693
 20
336.316061520922
 30
0.0
 10
201.6598633005065
 20
336.316061520922
 30
0.0
 10
201.6543658280564
 20
336.316061520922
 30
0.0
 10
201.6502609179425
 20
336.316061520922
 30
0.0
 10
201.6496557671531
 20
336.316061520922
 30
0.0
 10
201.6490757768154
 20
336.316061520922
 30
0.0
  0
SPLINE
  5
105
330
1F
100
AcDbEntity
  8
0
  6
Continuous
 62
     8
370
     0
100
AcDbSpline
210
0.0
220
0.0
230
1.0
 70
     8
 71
     3
 72
    34
 73
    30
 74
     0
 42
0.00000001
 43
0.00000001
 40
0.0
 40
0.0
 40
0.0
 40
0.0
 40
0.03125
 40
0.03125
 40
0.0625
 40
0.0625
 40
0.1250000000000001
 40
0.1250000000000001
 40
0.2500000000000002
 40
0.2500000000000002
 40
0.3750000000000004
 40
0.3750000000000004
 40
0.4375000000000003
 40
0.4375000000000003
 40
0.5000000000000003
 40
0.5000000000000003
 40
0.5625000000000003
 40
0.5625000000000003
 40
0.6250000000000002
 40
0.6250000000000002
 40
0.7500000000000001
 40
0.7500000000000001
 40
0.8749999999999999
 40
0.8749999999999999
 40
0.9374999999999999
 40
0.9374999999999999
 40
0.9687499999999999
 40
0.9687499999999999
 40
1.0
 40
1.0
 40
1.0
 40
1.0
 10
210.0341225865903
 20
335.5130037119074
 30
0.0
 10
209.905730827232
 20
335.5126345877609
 30
0.0
 10
209.7739853170673
 20
335.5119862322671
 30
0.0
 10
209.5151435778365
 20
335.5115489643759
 30
0.0
 10
209.3861757179252
 20
335.5117561711324
 30
0.0
 10
209.0008139742284
 20
335.5156579597663
 30
0.0
 10
208.7460170952212
 20
335.5232013481641
 30
0.0
 10
207.9872649153034
 20
335.5562019000545
 30
0.0
 10
207.4877985983457
 20
335.5892021470739
 30
0.0
 10
206.507720678144
 20
335.6714149165883
 30
0.0
 10
206.0384252031613
 20
335.7197649140644
 30
0.0
 10
205.3631572711409
 20
335.8003067933619
 30
0.0
 10
205.1431506484438
 20
335.8309848577387
 30
0.0
 10
204.7225753877397
 20
335.883179712956
 30
0.0
 10
204.5188010222844
 20
335.906561747545
 30
0.0
 10
204.14228136189
 20
335.9455289568878
 30
0.0
 10
203.9695740984025
 20
335.9612421764535
 30
0.0
 10
203.6543026761375
 20
335.9859999463425
 30
0.0
 10
203.5135572206534
 20
335.9954885426895
 30
0.0
 10
203.1255181059807
 20
336.0103017316521
 30
0.0
 10
202.8918524616853
 20
336.0322532471168
 30
0.0
 10
202.4879093433736
 20
336.0917170908367
 30
0.0
 10
202.3156203276972
 20
336.12966538346
 30
0.0
 10
202.1003388560612
 20
336.1945386245155
 30
0.0
 10
202.0357961121793
 20
336.2174843823788
 30
0.0
 10
201.9498933808232
 20
336.2534066608472
 30
0.0
 10
201.9230797403151
 20
336.2656347661339
 30
0.0
 10
201.8731306053793
 20
336.2905328076153
 30
0.0
 10
201.849730580567
 20
336.3033622620609
 30
0.0
 10
201.8287249499791
 20
336.316061520922
 30
0.0
  0
SPLINE
  5
106
330
1F
100
AcDbEntity
  8
0
  6
Continuous
 62
     8
370
     0
100
AcDbSpline
210
0.0
220
0.0
230
1.0
 70
     8
 71
     3
 72
    10
 73
     6
 74
     0
 42
0.00000001
 43
0.00000001
 40
0.0
 40
0.0
 40
0.0
 40
0.0
 40
0.5
 40
0.5
 40
1.0
 40
1.0
 40
1.0
 40
1.0
 10
219.2038271736783
 20
337.7540566591726
 30
0.0
 10
218.9153580821375
 20
337.6493205883476
 30
0.0
 10
218.6621571498175
 20
337.4508492802186
 30
0.0
 10
218.3190065517583
 20
336.9391107125925
 30
0.0
 10
218.229899702549
 20
336.6271003406724
 30
0.0
 10
218.2395754944773
 20
336.3160735230911
 30
0.0
  0
LWPOLYLINE
  5
107
330
1F
100
AcDbEntity
  8
0
  6
Continuous
 62
     8
370
     0
100
AcDbPolyline
 90
        3
 70
   128
 43
0.0
 10
194.1264105476
 20
322.3437159388
 10
194.1264086849
 20
322.3437010376
 10
194.1264012343
 20
322.3426579563
  0
SPLINE
  5
108
330
1F
100
AcDbEntity
  8
0
  6
Continuous
 62
     8
370
     0
100
AcDbSpline
210
0.0
220
0.0
230
1.0
 70
     8
 71
     3
 72
    24
 73
    20
 74
     0
 42
0.00000001
 43
0.00000001
 40
0.0
 40
0.0
 40
0.0
 40
0.0
 40
0.1249999999999999
 40
0.1249999999999999
 40
0.2499999999999999
 40
0.2499999999999999
 40
0.3749999999999998
 40
0.3749999999999998
 40
0.4999999999999999
 40
0.4999999999999999
 40
0.7499999999999997
 40
0.7499999999999997
 40
0.8749999999999998
 40
0.8749999999999998
 40
0.9374999999999999
 40
0.9374999999999999
 40
0.96875
 40
0.96875
 40
1.0
 40
1.0
 40
1.0
 40
1.0
 10
194.1264005166365
 20
322.3426570319647
 30
0.0
 10
194.1171873250669
 20
321.2334719414178
 30
0.0
 10
194.1095726241017
 20
320.1974932690291
 30
0.0
 10
194.0971716980186
 20
318.2764790912434
 30
0.0
 10
194.0923124729036
 20
317.3924623106196
 30
0.0
 10
194.0852037700794
 20
315.7771277166016
 30
0.0
 10
194.0831343451219
 20
315.0420721039125
 30
0.0
 10
194.0833678158565
 20
313.6805943330813
 30
0.0
 10
194.0852701346726
 20
313.0575093614894
 30
0.0
 10
194.0948286268934
 20
311.3671878207892
 30
0.0
 10
194.1069163740778
 20
310.4763672338691
 30
0.0
 10
194.1351090701074
 20
309.495845543648
 30
0.0
 10
194.1461370830021
 20
309.2281439458363
 30
0.0
 10
194.1654700701633
 20
308.9152638462944
 30
0.0
 10
194.1726039757171
 20
308.8258371738093
 30
0.0
 10
194.1832092117869
 20
308.713619407579
 30
0.0
 10
194.1866660244965
 20
308.6798250993201
 30
0.0
 10
194.193462538908
 20
308.6197335302077
 30
0.0
 10
194.1970032310521
 20
308.5919043941853
 30
0.0
 10
194.201566640158
 20
308.5708694763818
 30
0.0
  0
LWPOLYLINE
  5
109
330
1F
100
AcDbEntity
  8
0
  6
Continuous
 62
     8
370
     0
100
AcDbPolyline
 90
        3
 70
   128
 43
0.0
 10
225.9418351091
 20
322.3437159388
 10
225.9418351091
 20
322.3437010376
 10
225.9418444223
 20
322.3426579563
  0
SPLINE
  5
10A
330
1F
100
AcDbEntity
  8
0
  6
Continuous
 62
     8
370
     0
100
AcDbSpline
210
0.0
220
0.0
230
1.0
 70
     8
 71
     3
 72
    24
 73
    20
 74
     0
 42
0.00000001
 43
0.00000001
 40
0.0
 40
0.0
 40
0.0
 40
0.0
 40
0.125
 40
0.125
 40
0.25
 40
0.25
 40
0.375
 40
0.375
 40
0.5
 40
0.5
 40
0.75
 40
0.75
 40
0.875
 40
0.875
 40
0.9375
 40
0.9375
 40
0.96875
 40
0.96875
 40
1.0
 40
1.0
 40
1.0
 40
1.0
 10
225.9418446565442
 20
322.3426570319647
 30
0.0
 10
225.9510578481136
 20
321.2334719414181
 30
0.0
 10
225.9586725490794
 20
320.1974932690292
 30
0.0
 10
225.9710734751615
 20
318.2764790912433
 30
0.0
 10
225.9759327002769
 20
317.3924623106196
 30
0.0
 10
225.9830414031011
 20
315.7771277166016
 30
0.0
 10
225.9851108280585
 20
315.0420721039124
 30
0.0
 10
225.9848773573239
 20
313.6805943330813
 30
0.0
 10
225.9829750385078
 20
313.0575093614895
 30
0.0
 10
225.973416546287
 20
311.3671878207891
 30
0.0
 10
225.9613287991025
 20
310.4763672338692
 30
0.0
 10
225.9331361030729
 20
309.4958455436479
 30
0.0
 10
225.922108090178
 20
309.2281439458363
 30
0.0
 10
225.9027751030168
 20
308.9152638462944
 30
0.0
 10
225.895641197463
 20
308.8258371738093
 30
0.0
 10
225.8850359613932
 20
308.713619407579
 30
0.0
 10
225.8815791486836
 20
308.67982509932
 30
0.0
 10
225.8747826342721
 20
308.6197335302077
 30
0.0
 10
225.871241942128
 20
308.5919043941854
 30
0.0
 10
225.8666785330221
 20
308.5708694763818
 30
0.0
  0
ARC
  5
10B
330
1F
100
AcDbEntity
  8
0
  6
Continuous
 62
     8
370
     0
100
AcDbCircle
 10
194.1518319907
 20
323.7121748232
 30
0.0
 40
1.369752960255954
100
AcDbArc
 50
181.3643694313
 51
268.9361886622
  0
ARC
  5
10C
330
1F
100
AcDbEntity
  8
0
  6
Continuous
 62
     8
370
     0
100
AcDbCircle
 10
225.9164127939
 20
323.7121756999
 30
0.0
 40
1.369753852946513
100
AcDbArc
 50
271.0638471285
 51
358.635594778
  0
SPLINE
  5
10D
330
1F
100
AcDbEntity
  8
0
  6
Continuous
 62
     8
370
     0
100
AcDbSpline
210
0.0
220
0.0
230
1.0
 70
     8
 71
     3
 72
    10
 73
     6
 74
     0
 42
0.00000001
 43
0.00000001
 40
0.0
 40
0.0
 40
0.0
 40
0.0
 40
0.4931076895249385
 40
0.9897345060120789
 40
1.0
 40
1.0
 40
1.0
 40
1.0
 10
201.8286717570551
 20
336.3160579530872
 30
0.0
 10
201.7806027231489
 20
336.351350478647
 30
0.0
 10
201.6841216044433
 20
336.4221873994514
 30
0.0
 10
201.6379533223894
 20
336.5046570083159
 30
0.0
 10
201.6538388226639
 20
336.5540061139957
 30
0.0
 10
201.6541605330237
 20
336.5550055234111
 30
0.0
  0
LINE
  5
10E
330
1F
100
AcDbEntity
  8
0
  6
Continuous
 62
     8
370
     0
100
AcDbLine
 10
218.3958488963
 20
336.5596770374
 30
0.0
 11
218.2395738996
 21
336.3160579531
 31
0.0
  0
ENDSEC
  0
SECTION
  2
OBJECTS
  0
DICTIONARY
  5
C
330
0
100
AcDbDictionary
281
     1
  3
ACAD_GROUP
350
D
  3
ACAD_LAYOUT
350
1A
  3
ACAD_MATERIAL
350
3B
  3
ACAD_MLEADERSTYLE
350
110
  3
ACAD_MLINESTYLE
350
17
  3
ACAD_PLOTSETTINGS
350
19
  3
ACAD_PLOTSTYLENAME
350
E
  3
ACAD_TABLESTYLE
350
10F
  3
ACAD_VISUALSTYLE
350
2A
  0
DICTIONARY
  5
D
102
{ACAD_REACTORS
330
C
102
}
330
C
100
AcDbDictionary
281
     1
  0
DICTIONARY
  5
1A
102
{ACAD_REACTORS
330
C
102
}
330
C
100
AcDbDictionary
281
     1
  3
Layout1
350
1E
  3
Layout2
350
26
  3
Model
350
22
  0
DICTIONARY
  5
3B
102
{ACAD_REACTORS
330
C
102
}
330
C
100
AcDbDictionary
281
     1
  3
ByBlock
350
3D
  3
ByLayer
350
3C
  3
Global
350
3E
  0
DICTIONARY
  5
110
102
{ACAD_REACTORS
330
C
102
}
330
C
100
AcDbDictionary
281
     1
  0
DICTIONARY
  5
17
102
{ACAD_REACTORS
330
C
102
}
330
C
100
AcDbDictionary
281
     1
  3
Standard
350
18
  0
DICTIONARY
  5
19
102
{ACAD_REACTORS
330
C
102
}
330
C
100
AcDbDictionary
281
     1
  0
ACDBDICTIONARYWDFLT
  5
E
102
{ACAD_REACTORS
330
C
102
}
330
C
100
AcDbDictionary
281
     1
  3
Normal
350
F
100
AcDbDictionaryWithDefault
340
F
  0
DICTIONARY
  5
10F
102
{ACAD_REACTORS
330
C
102
}
330
C
100
AcDbDictionary
281
     1
  0
DICTIONARY
  5
2A
102
{ACAD_REACTORS
330
C
102
}
330
C
100
AcDbDictionary
281
     1
  3
2dWireframe
350
2F
  3
3D Hidden
350
31
  3
3dWireframe
350
30
  3
Basic
350
32
  3
Brighten
350
36
  3
ColorChange
350
3A
  3
Conceptual
350
34
  3
Dim
350
35
  3
Facepattern
350
39
  3
Flat
350
2B
  3
FlatWithEdges
350
2C
  3
Gouraud
350
2D
  3
GouraudWithEdges
350
2E
  3
Linepattern
350
38
  3
Realistic
350
33
  3
Thicken
350
37
  0
LAYOUT
  5
1E
102
{ACAD_REACTORS
330
1A
102
}
330
1A
100
AcDbPlotSettings
  1

  2
none_device
  4

  6

 40
0.0
 41
0.0
 42
0.0
 43
0.0
 44
0.0
 45
0.0
 46
0.0
 47
0.0
 48
0.0
 49
0.0
140
0.0
141
0.0
142
1.0
143
1.0
 70
   688
 72
     0
 73
     0
 74
     5
  7

 75
    16
 76
     0
 77
     2
 78
   300
147
1.0
148
0.0
149
0.0
100
AcDbLayout
  1
Layout1
 70
     1
 71
     1
 10
0.0
 20
0.0
 11
420.0
 21
297.0
 12
0.0
 22
0.0
 32
0.0
 14
1.0000000000E+20
 24
1.0000000000E+20
 34
1.0000000000E+20
 15
-1.0000000000E+20
 25
-1.0000000000E+20
 35
-1.0000000000E+20
146
0.0
 13
0.0
 23
0.0
 33
0.0
 16
1.0
 26
0.0
 36
0.0
 17
0.0
 27
1.0
 37
0.0
 76
     0
330
1B
  0
LAYOUT
  5
26
102
{ACAD_REACTORS
330
1A
102
}
330
1A
100
AcDbPlotSettings
  1

  2
none_device
  4

  6

 40
0.0
 41
0.0
 42
0.0
 43
0.0
 44
0.0
 45
0.0
 46
0.0
 47
0.0
 48
0.0
 49
0.0
140
0.0
141
0.0
142
1.0
143
1.0
 70
   688
 72
     0
 73
     0
 74
     5
  7

 75
    16
 76
     0
 77
     2
 78
   300
147
1.0
148
0.0
149
0.0
100
AcDbLayout
  1
Layout2
 70
     1
 71
     2
 10
0.0
 20
0.0
 11
0.0
 21
0.0
 12
0.0
 22
0.0
 32
0.0
 14
0.0
 24
0.0
 34
0.0
 15
0.0
 25
0.0
 35
0.0
146
0.0
 13
0.0
 23
0.0
 33
0.0
 16
1.0
 26
0.0
 36
0.0
 17
0.0
 27
1.0
 37
0.0
 76
     0
330
23
  0
LAYOUT
  5
22
102
{ACAD_REACTORS
330
1A
102
}
330
1A
100
AcDbPlotSettings
  1

  2
none_device
  4

  6

 40
0.0
 41
0.0
 42
0.0
 43
0.0
 44
0.0
 45
0.0
 46
0.0
 47
0.0
 48
0.0
 49
0.0
140
0.0
141
0.0
142
1.0
143
1.0
 70
  1712
 72
     0
 73
     0
 74
     0
  7

 75
     0
 76
     0
 77
     2
 78
   300
147
1.0
148
0.0
149
0.0
100
AcDbLayout
  1
Model
 70
     1
 71
     0
 10
0.0
 20
0.0
 11
594.0
 21
841.0
 12
0.0
 22
0.0
 32
0.0
 14
0.0
 24
0.0
 34
0.0
 15
594.0
 25
841.0
 35
0.0
146
0.0
 13
0.0
 23
0.0
 33
0.0
 16
1.0
 26
0.0
 36
0.0
 17
0.0
 27
1.0
 37
0.0
 76
     0
330
1F
331
29
  0
MATERIAL
  5
3D
102
{ACAD_REACTORS
330
3B
102
}
330
3B
100
AcDbMaterial
  1
ByBlock
 72
     1
 94
      127
  0
MATERIAL
  5
3C
102
{ACAD_REACTORS
330
3B
102
}
330
3B
100
AcDbMaterial
  1
ByLayer
 72
     1
 94
      127
  0
MATERIAL
  5
3E
102
{ACAD_REACTORS
330
3B
102
}
330
3B
100
AcDbMaterial
  1
Global
 72
     1
 94
      127
  0
MLINESTYLE
  5
18
102
{ACAD_REACTORS
330
17
102
}
330
17
100
AcDbMlineStyle
  2
Standard
 70
     0
  3

 62
   256
 51
90.0
 52
90.0
 71
     2
 49
0.5
 62
   256
  6
BYLAYER
 49
-0.5
 62
   256
  6
BYLAYER
  0
ACDBPLACEHOLDER
  5
F
102
{ACAD_REACTORS
330
E
102
}
330
E
  0
VISUALSTYLE
  5
2F
102
{ACAD_REACTORS
330
2A
102
}
330
2A
100
AcDbVisualStyle
  2
2dWireframe
 70
     4
177
     2
291
     0
 71
     0
176
     1
 72
     2
176
     1
 73
     0
176
     1
 90
        0
176
     1
 40
-0.6
176
     1
 41
-30.0
176
     1
 62
     5
 63
     7
421
 16777215
176
     1
 74
     1
176
     1
 91
        4
176
     1
 64
     7
176
     1
 65
   257
176
     1
 75
     1
176
     1
175
     1
176
     1
 42
1.0
176
     1
 92
        0
176
     1
 66
   257
176
     1
 43
1.0
176
     1
 76
     1
176
     1
 77
     6
176
     1
 78
     2
176
     1
 67
     7
176
     1
 79
     5
176
     1
170
     0
176
     1
171
     0
176
     1
290
     0
176
     1
 93
        1
176
     1
 44
0.0
176
     1
173
     0
176
     1
  0
VISUALSTYLE
  5
31
102
{ACAD_REACTORS
330
2A
102
}
330
2A
100
AcDbVisualStyle
  2
3D Hidden
 70
     6
177
     2
291
     0
 71
     1
176
     1
 72
     2
176
     1
 73
     2
176
     1
 90
        0
176
     1
 40
-0.6
176
     1
 41
-30.0
176
     1
 62
     5
 63
     7
421
 16777215
176
     1
 74
     2
176
     1
 91
        2
176
     1
 64
     7
176
     1
 65
   257
176
     1
 75
     2
176
     1
175
     1
176
     1
 42
40.0
176
     1
 92
        0
176
     1
 66
   257
176
     1
 43
1.0
176
     1
 76
     1
176
     1
 77
     6
176
     1
 78
     2
176
     1
 67
     7
176
     1
 79
     3
176
     1
170
     0
176
     1
171
     0
176
     1
290
     0
176
     1
 93
        1
176
     1
 44
0.0
176
     1
173
     0
176
     1
  0
VISUALSTYLE
  5
30
102
{ACAD_REACTORS
330
2A
102
}
330
2A
100
AcDbVisualStyle
  2
3dWireframe
 70
     5
177
     2
291
     0
 71
     0
176
     1
 72
     2
176
     1
 73
     0
176
     1
 90
        0
176
     1
 40
-0.6
176
     1
 41
-30.0
176
     1
 62
     5
 63
     7
421
 16777215
176
     1
 74
     1
176
     1
 91
        4
176
     1
 64
     7
176
     1
 65
   257
176
     1
 75
     1
176
     1
175
     1
176
     1
 42
1.0
176
     1
 92
        0
176
     1
 66
   257
176
     1
 43
1.0
176
     1
 76
     1
176
     1
 77
     6
176
     1
 78
     2
176
     1
 67
     7
176
     1
 79
     5
176
     1
170
     0
176
     1
171
     0
176
     1
290
     0
176
     1
 93
        1
176
     1
 44
0.0
176
     1
173
     0
176
     1
  0
VISUALSTYLE
  5
32
102
{ACAD_REACTORS
330
2A
102
}
330
2A
100
AcDbVisualStyle
  2
Basic
 70
     7
177
     2
291
     1
 71
     1
176
     1
 72
     0
176
     1
 73
     1
176
     1
 90
        0
176
     1
 40
-0.6
176
     1
 41
-30.0
176
     1
 62
     5
 63
     7
421
 16777215
176
     1
 74
     0
176
     1
 91
        4
176
     1
 64
     7
176
     1
 65
   257
176
     1
 75
     1
176
     1
175
     1
176
     1
 42
1.0
176
     1
 92
        8
176
     1
 66
     7
176
     1
 43
1.0
176
     1
 76
     1
176
     1
 77
     6
176
     1
 78
     2
176
     1
 67
     7
176
     1
 79
     5
176
     1
170
     0
176
     1
171
     0
176
     1
290
     0
176
     1
 93
        1
176
     1
 44
0.0
176
     1
173
     0
176
     1
  0
VISUALSTYLE
  5
36
102
{ACAD_REACTORS
330
2A
102
}
330
2A
100
AcDbVisualStyle
  2
Brighten
 70
    12
177
     2
291
     1
 71
     2
176
     1
 72
     2
176
     1
 73
     0
176
     1
 90
        0
176
     1
 40
-0.6
176
     1
 41
-30.0
176
     1
 62
     5
 63
     7
421
 16777215
176
     1
 74
     1
176
     1
 91
        4
176
     1
 64
     7
176
     1
 65
   257
176
     1
 75
     1
176
     1
175
     1
176
     1
 42
1.0
176
     1
 92
        8
176
     1
 66
     7
176
     1
 43
1.0
176
     1
 76
     1
176
     1
 77
     6
176
     1
 78
     2
176
     1
 67
     7
176
     1
 79
     5
176
     1
170
     0
176
     1
171
     0
176
     1
290
     0
176
     1
 93
        1
176
     1
 44
50.0
176
     1
173
     0
176
     1
  0
VISUALSTYLE
  5
3A
102
{ACAD_REACTORS
330
2A
102
}
330
2A
100
AcDbVisualStyle
  2
ColorChange
 70
    16
177
     2
291
     1
 71
     2
176
     1
 72
     2
176
     1
 73
     3
176
     1
 90
        0
176
     1
 40
-0.6
176
     1
 41
-30.0
176
     1
 62
     5
 63
     8
421
  8421504
176
     1
 74
     1
176
     1
 91
        4
176
     1
 64
     7
176
     1
 65
   257
176
     1
 75
     1
176
     1
175
     1
176
     1
 42
1.0
176
     1
 92
        8
176
     1
 66
     8
424
  8421504
176
     1
 43
1.0
176
     1
 76
     1
176
     1
 77
     6
176
     1
 78
     2
176
     1
 67
     7
176
     1
 79
     5
176
     1
170
     0
176
     1
171
     0
176
     1
290
     0
176
     1
 93
        1
176
     1
 44
0.0
176
     1
173
     0
176
     1
  0
VISUALSTYLE
  5
34
102
{ACAD_REACTORS
330
2A
102
}
330
2A
100
AcDbVisualStyle
  2
Conceptual
 70
     9
177
     2
291
     0
 71
     3
176
     1
 72
     2
176
     1
 73
     0
176
     1
 90
        0
176
     1
 40
-0.6
176
     1
 41
-30.0
176
     1
 62
     5
 63
     7
421
 16777215
176
     1
 74
     2
176
     1
 91
        2
176
     1
 64
     7
176
     1
 65
   257
176
     1
 75
     1
176
     1
175
     1
176
     1
 42
40.0
176
     1
 92
        8
176
     1
 66
     7
176
     1
 43
1.0
176
     1
 76
     1
176
     1
 77
     6
176
     1
 78
     2
176
     1
 67
     7
176
     1
 79
     3
176
     1
170
     0
176
     1
171
     0
176
     1
290
     0
176
     1
 93
        1
176
     1
 44
0.0
176
     1
173
     0
176
     1
  0
VISUALSTYLE
  5
35
102
{ACAD_REACTORS
330
2A
102
}
330
2A
100
AcDbVisualStyle
  2
Dim
 70
    11
177
     2
291
     1
 71
     2
176
     1
 72
     2
176
     1
 73
     0
176
     1
 90
        0
176
     1
 40
-0.6
176
     1
 41
-30.0
176
     1
 62
     5
 63
     7
421
 16777215
176
     1
 74
     1
176
     1
 91
        4
176
     1
 64
     7
176
     1
 65
   257
176
     1
 75
     1
176
     1
175
     1
176
     1
 42
1.0
176
     1
 92
        8
176
     1
 66
     7
176
     1
 43
1.0
176
     1
 76
     1
176
     1
 77
     6
176
     1
 78
     2
176
     1
 67
     7
176
     1
 79
     5
176
     1
170
     0
176
     1
171
     0
176
     1
290
     0
176
     1
 93
        1
176
     1
 44
-50.0
176
     1
173
     0
176
     1
  0
VISUALSTYLE
  5
39
102
{ACAD_REACTORS
330
2A
102
}
330
2A
100
AcDbVisualStyle
  2
Facepattern
 70
    15
177
     2
291
     1
 71
     2
176
     1
 72
     2
176
     1
 73
     0
176
     1
 90
        0
176
     1
 40
-0.6
176
     1
 41
-30.0
176
     1
 62
     5
 63
     7
421
 16777215
176
     1
 74
     1
176
     1
 91
        4
176
     1
 64
     7
176
     1
 65
   257
176
     1
 75
     1
176
     1
175
     1
176
     1
 42
1.0
176
     1
 92
        8
176
     1
 66
     7
176
     1
 43
1.0
176
     1
 76
     1
176
     1
 77
     6
176
     1
 78
     2
176
     1
 67
     7
176
     1
 79
     5
176
     1
170
     0
176
     1
171
     0
176
     1
290
     0
176
     1
 93
        1
176
     1
 44
0.0
176
     1
173
     0
176
     1
  0
VISUALSTYLE
  5
2B
102
{ACAD_REACTORS
330
2A
102
}
330
2A
100
AcDbVisualStyle
  2
Flat
 70
     0
177
     2
291
     1
 71
     2
176
     1
 72
     1
176
     1
 73
     1
176
     1
 90
        2
176
     1
 40
-0.6
176
     1
 41
30.0
176
     1
 62
     5
 63
     7
421
 16777215
176
     1
 74
     0
176
     1
 91
        4
176
     1
 64
     7
176
     1
 65
   257
176
     1
 75
     1
176
     1
175
     1
176
     1
 42
1.0
176
     1
 92
        8
176
     1
 66
     7
176
     1
 43
1.0
176
     1
 76
     1
176
     1
 77
     6
176
     1
 78
     2
176
     1
 67
     7
176
     1
 79
     5
176
     1
170
     0
176
     1
171
     0
176
     1
290
     0
176
     1
 93
       13
176
     1
 44
0.0
176
     1
173
     0
176
     1
  0
VISUALSTYLE
  5
2C
102
{ACAD_REACTORS
330
2A
102
}
330
2A
100
AcDbVisualStyle
  2
FlatWithEdges
 70
     1
177
     2
291
     1
 71
     2
176
     1
 72
     1
176
     1
 73
     1
176
     1
 90
        2
176
     1
 40
-0.6
176
     1
 41
30.0
176
     1
 62
     5
 63
     7
421
 16777215
176
     1
 74
     1
176
     1
 91
        4
176
     1
 64
     7
176
     1
 65
   257
176
     1
 75
     1
176
     1
175
     1
176
     1
 42
1.0
176
     1
 92
        0
176
     1
 66
   257
176
     1
 43
1.0
176
     1
 76
     1
176
     1
 77
     6
176
     1
 78
     2
176
     1
 67
     7
176
     1
 79
     5
176
     1
170
     0
176
     1
171
     0
176
     1
290
     0
176
     1
 93
       13
176
     1
 44
0.0
176
     1
173
     0
176
     1
  0
VISUALSTYLE
  5
2D
102
{ACAD_REACTORS
330
2A
102
}
330
2A
100
AcDbVisualStyle
  2
Gouraud
 70
     2
177
     2
291
     1
 71
     2
176
     1
 72
     2
176
     1
 73
     1
176
     1
 90
        2
176
     1
 40
-0.6
176
     1
 41
30.0
176
     1
 62
     5
 63
     7
421
 16777215
176
     1
 74
     0
176
     1
 91
        4
176
     1
 64
     7
176
     1
 65
   257
176
     1
 75
     1
176
     1
175
     1
176
     1
 42
1.0
176
     1
 92
        0
176
     1
 66
     7
176
     1
 43
1.0
176
     1
 76
     1
176
     1
 77
     6
176
     1
 78
     2
176
     1
 67
     7
176
     1
 79
     5
176
     1
170
     0
176
     1
171
     0
176
     1
290
     0
176
     1
 93
       13
176
     1
 44
0.0
176
     1
173
     0
176
     1
  0
VISUALSTYLE
  5
2E
102
{ACAD_REACTORS
330
2A
102
}
330
2A
100
AcDbVisualStyle
  2
GouraudWithEdges
 70
     3
177
     2
291
     1
 71
     2
176
     1
 72
     2
176
     1
 73
     1
176
     1
 90
        2
176
     1
 40
-0.6
176
     1
 41
30.0
176
     1
 62
     5
 63
     7
421
 16777215
176
     1
 74
     1
176
     1
 91
        4
176
     1
 64
     7
176
     1
 65
   257
176
     1
 75
     1
176
     1
175
     1
176
     1
 42
1.0
176
     1
 92
        0
176
     1
 66
   257
176
     1
 43
1.0
176
     1
 76
     1
176
     1
 77
     6
176
     1
 78
     2
176
     1
 67
     7
176
     1
 79
     5
176
     1
170
     0
176
     1
171
     0
176
     1
290
     0
176
     1
 93
       13
176
     1
 44
0.0
176
     1
173
     0
176
     1
  0
VISUALSTYLE
  5
38
102
{ACAD_REACTORS
330
2A
102
}
330
2A
100
AcDbVisualStyle
  2
Linepattern
 70
    14
177
     2
291
     1
 71
     2
176
     1
 72
     2
176
     1
 73
     0
176
     1
 90
        0
176
     1
 40
-0.6
176
     1
 41
-30.0
176
     1
 62
     5
 63
     7
421
 16777215
176
     1
 74
     1
176
     1
 91
        4
176
     1
 64
     7
176
     1
 65
   257
176
     1
 75
     7
176
     1
175
     7
176
     1
 42
1.0
176
     1
 92
        8
176
     1
 66
     7
176
     1
 43
1.0
176
     1
 76
     1
176
     1
 77
     6
176
     1
 78
     2
176
     1
 67
     7
176
     1
 79
     5
176
     1
170
     0
176
     1
171
     0
176
     1
290
     0
176
     1
 93
        1
176
     1
 44
0.0
176
     1
173
     0
176
     1
  0
VISUALSTYLE
  5
33
102
{ACAD_REACTORS
330
2A
102
}
330
2A
100
AcDbVisualStyle
  2
Realistic
 70
     8
177
     2
291
     0
 71
     2
176
     1
 72
     2
176
     1
 73
     0
176
     1
 90
        0
176
     1
 40
-0.6
176
     1
 41
-30.0
176
     1
 62
     5
 63
     7
421
 16777215
176
     1
 74
     1
176
     1
 91
        0
176
     1
 64
     7
176
     1
 65
   257
176
     1
 75
     1
176
     1
175
     1
176
     1
 42
1.0
176
     1
 92
        8
176
     1
 66
     8
424
  7895160
176
     1
 43
1.0
176
     1
 76
     1
176
     1
 77
     6
176
     1
 78
     2
176
     1
 67
     7
176
     1
 79
     5
176
     1
170
     0
176
     1
171
     0
176
     1
290
     0
176
     1
 93
       13
176
     1
 44
0.0
176
     1
173
     0
176
     1
  0
VISUALSTYLE
  5
37
102
{ACAD_REACTORS
330
2A
102
}
330
2A
100
AcDbVisualStyle
  2
Thicken
 70
    13
177
     2
291
     1
 71
     2
176
     1
 72
     2
176
     1
 73
     0
176
     1
 90
        0
176
     1
 40
-0.6
176
     1
 41
-30.0
176
     1
 62
     5
 63
     7
421
 16777215
176
     1
 74
     1
176
     1
 91
        4
176
     1
 64
     7
176
     1
 65
   257
176
     1
 75
     1
176
     1
175
     1
176
     1
 42
1.0
176
     1
 92
       12
176
     1
 66
     7
176
     1
 43
1.0
176
     1
 76
     1
176
     1
 77
     6
176
     1
 78
     2
176
     1
 67
     7
176
     1
 79
     5
176
     1
170
     0
176
     1
171
     0
176
     1
290
     0
176
     1
 93
        1
176
     1
 44
0.0
176
     1
173
     0
176
     1
  0
ENDSEC
  0
EOF
