  0
SECTION
  2
HEADER
  9
$ACADVER
  1
AC1009
  9
$DWGCODEPAGE
  3
ansi_1252
  9
$INSBASE
 10
0.0
 20
0.0
 30
0.0
  9
$EXTMIN
 10
0.0
 20
0.0
 30
0.0
  9
$EXTMAX
 10
594.0
 20
841.0
 30
0.0
  9
$LIMMIN
 10
0.0
 20
0.0
  9
$LIMMAX
 10
594.0
 20
841.0
  9
$ORTHOMODE
 70
     0
  9
$REGENMODE
 70
     1
  9
$FILLMODE
 70
     1
  9
$QTEXTMODE
 70
     0
  9
$MIRRTEXT
 70
     1
  9
$DRAGMODE
 70
     2
  9
$LTSCALE
 40
1.0
  9
$OSMODE
 70
    37
  9
$ATTMODE
 70
     1
  9
$TEXTSIZE
 40
10.0
  9
$TRACEWID
 40
1.0
  9
$TEXTSTYLE
  7
STANDARD
  9
$CLAYER
  8
0
  9
$CELTYPE
  6
BYLAYER
  9
$CECOLOR
 62
   256
  9
$DIMSCALE
 40
1.0
  9
$DIMASZ
 40
2.5
  9
$DIMEXO
 40
0.0
  9
$DIMDLI
 40
3.75
  9
$DIMRND
 40
0.0
  9
$DIMDLE
 40
0.0
  9
$DIMEXE
 40
1.0
  9
$DIMTP
 40
0.0
  9
$DIMTM
 40
0.0
  9
$DIMTXT
 40
3.5
  9
$DIMCEN
 40
2.5
  9
$DIMTSZ
 40
0.0
  9
$DIMTOL
 70
     0
  9
$DIMLIM
 70
     0
  9
$DIMTIH
 70
     1
  9
$DIMTOH
 70
     1
  9
$DIMSE1
 70
     0
  9
$DIMSE2
 70
     0
  9
$DIMTAD
 70
     1
  9
$DIMZIN
 70
     0
  9
$DIMBLK
  1

  9
$DIMASO
 70
     1
  9
$DIMSHO
 70
     1
  9
$DIMPOST
  1

  9
$DIMAPOST
  1

  9
$DIMALT
 70
     0
  9
$DIMALTD
 70
     3
  9
$DIMALTF
 40
0.0393700787
  9
$DIMLFAC
 40
2.0
  9
$DIMTOFL
 70
     1
  9
$DIMTVP
 40
0.0
  9
$DIMTIX
 70
     0
  9
$DIMSOXD
 70
     0
  9
$DIMSAH
 70
     0
  9
$DIMBLK1
  1

  9
$DIMBLK2
  1

  9
$DIMSTYLE
  2
ISO-25
  9
$DIMCLRD
 70
     0
  9
$DIMCLRE
 70
     0
  9
$DIMCLRT
 70
     0
  9
$DIMTFAC
 40
1.0
  9
$DIMGAP
 40
1.5
  9
$LUNITS
 70
     2
  9
$LUPREC
 70
     2
  9
$SKETCHINC
 40
1.0
  9
$FILLETRAD
 40
10.0
  9
$AUNITS
 70
     0
  9
$AUPREC
 70
     2
  9
$MENU
  1
.
  9
$ELEVATION
 40
0.0
  9
$PELEVATION
 40
0.0
  9
$THICKNESS
 40
0.0
  9
$LIMCHECK
 70
     0
  9
$CHAMFERA
 40
0.0
  9
$CHAMFERB
 40
0.0
  9
$SKPOLY
 70
     0
  9
$TDCREATE
 40
2458702.388546458
  9
$TDUPDATE
 40
2458702.388546898
  9
$TDINDWG
 40
0.0000000116
  9
$TDUSRTIMER
 40
0.0000000116
  9
$USRTIMER
 70
     1
  9
$ANGBASE
 50
0.0
  9
$ANGDIR
 70
     0
  9
$PDMODE
 70
     0
  9
$PDSIZE
 40
-1.0
  9
$PLINEWID
 40
0.0
  9
$COORDS
 70
     1
  9
$SPLFRAME
 70
     0
  9
$SPLINETYPE
 70
     6
  9
$SPLINESEGS
 70
     8
  9
$ATTDIA
 70
     0
  9
$ATTREQ
 70
     1
  9
$HANDLING
 70
     1
  9
$HANDSEED
  5
361
  9
$SURFTAB1
 70
     6
  9
$SURFTAB2
 70
     6
  9
$SURFTYPE
 70
     6
  9
$SURFU
 70
     6
  9
$SURFV
 70
     6
  9
$UCSNAME
  2

  9
$UCSORG
 10
0.0
 20
0.0
 30
0.0
  9
$UCSXDIR
 10
1.0
 20
0.0
 30
0.0
  9
$UCSYDIR
 10
0.0
 20
1.0
 30
0.0
  9
$PUCSNAME
  2

  9
$PUCSORG
 10
0.0
 20
0.0
 30
0.0
  9
$PUCSXDIR
 10
1.0
 20
0.0
 30
0.0
  9
$PUCSYDIR
 10
0.0
 20
1.0
 30
0.0
  9
$USERI1
 70
     0
  9
$USERI2
 70
     0
  9
$USERI3
 70
     0
  9
$USERI4
 70
     0
  9
$USERI5
 70
     0
  9
$USERR1
 40
0.0
  9
$USERR2
 40
0.0
  9
$USERR3
 40
0.0
  9
$USERR4
 40
0.0
  9
$USERR5
 40
0.0
  9
$WORLDVIEW
 70
     1
  9
$SHADEDGE
 70
     3
  9
$SHADEDIF
 70
    70
  9
$TILEMODE
 70
     1
  9
$MAXACTVP
 70
    64
  9
$PLIMCHECK
 70
     0
  9
$PEXTMIN
 10
1.0000000000E+20
 20
1.0000000000E+20
 30
1.0000000000E+20
  9
$PEXTMAX
 10
-1.0000000000E+20
 20
-1.0000000000E+20
 30
-1.0000000000E+20
  9
$PLIMMIN
 10
0.0
 20
0.0
  9
$PLIMMAX
 10
420.0
 20
297.0
  9
$UNITMODE
 70
     0
  9
$VISRETAIN
 70
     1
  9
$PLINEGEN
 70
     0
  9
$PSLTSCALE
 70
     1
  0
ENDSEC
  0
SECTION
  2
TABLES
  0
TABLE
  2
VPORT
 70
     1
  0
VPORT
  2
*ACTIVE
 70
     0
 10
0.0
 20
0.0
 11
1.0
 21
1.0
 12
297.0
 22
420.5
 13
0.0
 23
0.0
 14
10.0
 24
10.0
 15
10.0
 25
10.0
 16
0.0
 26
0.0
 36
1.0
 17
0.0
 27
0.0
 37
0.0
 40
841.0
 41
0.7063020214
 42
50.0
 43
0.0
 44
0.0
 50
0.0
 51
0.0
 71
     0
 72
  2000
 73
     1
 74
     3
 75
     0
 76
     0
 77
     0
 78
     0
  0
ENDTAB
  0
TABLE
  2
LTYPE
 70
     6
  0
LTYPE
  2
CONTINUOUS
 70
     0
  3
Solid line
 72
    65
 73
     0
 40
0.0
  0
LTYPE
  2
HIDDEN
 70
     0
  3
Hidden __ __ __ __ __ __ __ __ __ __ __ __ __ __
 72
    65
 73
     2
 40
1.905
 49
1.27
 49
-0.635
  0
LTYPE
  2
PHANTOM
 70
     0
  3
Phantom ______  __  __  ______  __  __  ______
 72
    65
 73
     6
 40
12.7
 49
6.35
 49
-1.27
 49
1.27
 49
-1.27
 49
1.27
 49
-1.27
  0
LTYPE
  2
CENTER
 70
     0
  3
Center ____ _ ____ _ ____ _ ____ _ ____ _ ____
 72
    65
 73
     4
 40
10.16
 49
6.35
 49
-1.27
 49
1.27
 49
-1.27
  0
LTYPE
  2
CENTERX2
 70
     0
  3
Center (2x) ________  __  ________  __  _____
 72
    65
 73
     4
 40
20.32
 49
12.7
 49
-2.54
 49
2.54
 49
-2.54
  0
LTYPE
  2
DOT2
 70
     0
  3
Dot (.5x) ........................................
 72
    65
 73
     2
 40
0.635
 49
0.0
 49
-0.635
  0
ENDTAB
  0
TABLE
  2
LAYER
 70
     1
  0
LAYER
  2
0
 70
     0
 62
     7
  6
CONTINUOUS
  0
ENDTAB
  0
TABLE
  2
STYLE
 70
     1
  0
STYLE
  2
STANDARD
 70
     0
 40
0.0
 41
1.0
 50
0.0
 71
     0
 42
10.0
  3
txt
  4

  0
ENDTAB
  0
TABLE
  2
VIEW
 70
     0
  0
ENDTAB
  0
TABLE
  2
UCS
 70
     0
  0
ENDTAB
  0
TABLE
  2
APPID
 70
     1
  0
APPID
  2
ACAD
 70
     0
  0
ENDTAB
  0
TABLE
  2
DIMSTYLE
 70
     2
  0
DIMSTYLE
  2
ISO-25
 70
     0
  3

  4

  5

  6

  7

 40
1.0
 41
2.5
 42
0.625
 43
3.75
 44
1.25
 45
0.0
 46
0.0
 47
0.0
 48
0.0
140
2.5
141
2.5
142
0.0
143
0.0393700787
144
1.0
145
0.0
146
1.0
147
0.625
 71
     0
 72
     0
 73
     0
 74
     0
 75
     0
 76
     0
 77
     1
 78
     8
170
     0
171
     3
172
     1
173
     0
174
     0
175
     0
176
     0
177
     0
178
     0
  0
DIMSTYLE
  2
SLDDIMSTYLE0
 70
     0
  3

  4

  5

  6

  7

 40
1.0
 41
2.5
 42
0.0625
 43
0.38
 44
0.0
 45
0.000000001
 46
0.0
 47
0.0
 48
0.0
140
6.0
141
0.09
142
0.0
143
25.4
144
2.0
145
0.0
146
1.0
147
1.5
 71
     0
 72
     0
 73
     0
 74
     0
 75
     0
 76
     0
 77
     1
 78
    12
170
     0
171
     2
172
     0
173
     1
174
     0
175
     0
176
     0
177
     0
178
     0
  0
ENDTAB
  0
ENDSEC
  0
SECTION
  2
BLOCKS
  0
BLOCK
  8
0
  2
$MODEL_SPACE
 70
     0
 10
0.0
 20
0.0
 30
0.0
  3
$MODEL_SPACE
  1

  0
ENDBLK
  5
21
  8
0
  0
BLOCK
 67
     1
  8
0
  2
$PAPER_SPACE
 70
     0
 10
0.0
 20
0.0
 30
0.0
  3
$PAPER_SPACE
  1

  0
ENDBLK
  5
1D
 67
     1
  8
0
  0
BLOCK
  8
0
  2
_D
 70
     0
 10
0.0
 20
0.0
 30
0.0
  3
_D
  1

  0
SOLID
  5
7A
  8
0
  6
CONTINUOUS
 62
     7
 10
42.7614395004
 20
152.0299240879
 30
0.0
 11
42.4614395004
 21
149.5299240879
 31
0.0
 12
43.0614395004
 22
149.5299240879
 32
0.0
 13
43.0614395004
 23
149.5299240879
 33
0.0
  0
SOLID
  5
7B
  8
0
  6
CONTINUOUS
 62
     7
 10
42.7614395004
 20
52.0299240879
 30
0.0
 11
43.0614395004
 21
54.5299240879
 31
0.0
 12
42.4614395004
 22
54.5299240879
 32
0.0
 13
42.4614395004
 23
54.5299240879
 33
0.0
  0
LINE
  5
7C
  8
0
  6
CONTINUOUS
 62
     7
 10
56.6850079902
 20
152.0299240879
 30
0.0
 11
41.7614395004
 21
152.0299240879
 31
0.0
  0
LINE
  5
7D
  8
0
  6
CONTINUOUS
 62
     7
 10
56.6850079902
 20
52.0299240879
 30
0.0
 11
41.7614395004
 21
52.0299240879
 31
0.0
  0
LINE
  5
7E
  8
0
  6
CONTINUOUS
 62
     7
 10
42.7614395004
 20
152.0299240879
 30
0.0
 11
42.7614395004
 21
52.0299240879
 31
0.0
  0
TEXT
  5
7F
  8
0
  6
CONTINUOUS
 62
     7
 10
40.6418793617
 20
94.3680541463
 30
0.0
 40
6.0
  1
100
 50
90.0
 41
0.7
 11
42.7614397332
 21
94.3680541463
 31
0.0
 73
     1
  0
TEXT
  5
80
  8
0
  6
CONTINUOUS
 62
     7
 10
40.6418793617
 20
105.7430548466
 30
0.0
 40
6.0
  1
mm
 50
90.0
 41
0.7
 11
42.7614397332
 21
105.7430548466
 31
0.0
 73
     1
  0
ENDBLK
  5
79
  8
0
  0
BLOCK
  8
0
  2
_D_1
 70
     0
 10
0.0
 20
0.0
 30
0.0
  3
_D_1
  1

  0
SOLID
  5
85
  8
0
  6
CONTINUOUS
 62
     7
 10
56.6850079902
 20
38.4602342313
 30
0.0
 11
59.1850079902
 21
38.1602342313
 31
0.0
 12
59.1850079902
 22
38.7602342313
 32
0.0
 13
59.1850079902
 23
38.7602342313
 33
0.0
  0
SOLID
  5
86
  8
0
  6
CONTINUOUS
 62
     7
 10
156.6850079902
 20
38.4602342313
 30
0.0
 11
154.1850079902
 21
38.7602342313
 31
0.0
 12
154.1850079902
 22
38.1602342313
 32
0.0
 13
154.1850079902
 23
38.1602342313
 33
0.0
  0
LINE
  5
87
  8
0
  6
CONTINUOUS
 62
     7
 10
56.6850079902
 20
52.0299240879
 30
0.0
 11
56.6850079902
 21
37.4602342313
 31
0.0
  0
LINE
  5
88
  8
0
  6
CONTINUOUS
 62
     7
 10
156.6850079902
 20
52.0299240879
 30
0.0
 11
156.6850079902
 21
37.4602342313
 31
0.0
  0
LINE
  5
89
  8
0
  6
CONTINUOUS
 62
     7
 10
56.6850079902
 20
38.4602342313
 30
0.0
 11
156.6850079902
 21
38.4602342313
 31
0.0
  0
TEXT
  5
8A
  8
0
  6
CONTINUOUS
 62
     7
 10
93.9626484861
 20
40.57979437
 30
0.0
 40
6.0
  1
100
 41
0.7
 11
93.9626484861
 21
38.4602339984
 31
0.0
 73
     1
  0
TEXT
  5
8B
  8
0
  6
CONTINUOUS
 62
     7
 10
105.3376491864
 20
40.57979437
 30
0.0
 40
6.0
  1
mm
 41
0.7
 11
105.3376491864
 21
38.4602339984
 31
0.0
 73
     1
  0
ENDBLK
  5
84
  8
0
  0
ENDSEC
  0
SECTION
  2
ENTITIES
  0
LINE
  5
73
  8
0
  6
CONTINUOUS
 62
     7
 10
56.6850079902
 20
152.0299240879
 30
0.0
 11
56.6850079902
 21
52.0299240879
 31
0.0
  0
LINE
  5
74
  8
0
  6
CONTINUOUS
 62
     7
 10
56.6850079902
 20
52.0299240879
 30
0.0
 11
156.6850079902
 21
52.0299240879
 31
0.0
  0
DIMENSION
  5
75
  8
0
  6
CONTINUOUS
 62
     7
  2
_D
 10
42.7614395004
 20
52.0299240879
 30
0.0
 11
42.7614395004
 21
105.4472211621
 31
0.0
 70
   160
  1
<>mm
  3
SLDDIMSTYLE0
 13
56.6850079902
 23
152.0299240879
 33
0.0
 14
56.6850079902
 24
52.0299240879
 34
0.0
 50
90.0
  0
DIMENSION
  5
81
  8
0
  6
CONTINUOUS
 62
     7
  2
_D_1
 10
156.6850079902
 20
38.4602342313
 30
0.0
 11
105.0418155019
 21
38.4602342313
 31
0.0
 70
   160
  1
<>mm
  3
SLDDIMSTYLE0
 13
56.6850079902
 23
52.0299240879
 33
0.0
 14
156.6850079902
 24
52.0299240879
 34
0.0
  0
TEXT
  5
8C
  8
0
  6
CONTINUOUS
 62
     7
 10
412.8252631579
 20
39.0761681714
 30
0.0
 40
10.0
  1
KLUDI GmbH & Co KG
 41
0.6222222222
 11
412.8252631579
 21
35.5435675522
 31
0.0
 73
     1
  0
TEXT
  5
8D
  8
0
  6
CONTINUOUS
 62
     7
 10
210.0873490389
 20
39.0761681714
 30
0.0
 40
10.0
  1
20 118 05 15
 41
0.6125
 11
210.0873490389
 21
35.5435675522
 31
0.0
 73
     1
  0
ARC
  5
8E
  8
0
  6
CONTINUOUS
 62
     7
 10
196.2318006892
 20
545.2353631769
 30
0.0
 40
0.6636154518067089
 50
292.7739270998
 51
357.0704351945
  0
LINE
  5
8F
  8
0
  6
CONTINUOUS
 62
     7
 10
176.936246795
 20
545.0954400669
 30
0.0
 11
177.0404324495
 21
544.8674432537
 31
0.0
  0
LINE
  5
90
  8
0
  6
CONTINUOUS
 62
     7
 10
196.9013360132
 20
545.214706985
 30
0.0
 11
196.9013360132
 21
574.5940730735
 31
0.0
  0
LINE
  5
91
  8
0
  6
CONTINUOUS
 62
     7
 10
176.9013360132
 20
574.5940730735
 30
0.0
 11
176.9013360132
 21
545.214706985
 31
0.0
  0
ARC
  5
92
  8
0
  6
CONTINUOUS
 62
     7
 10
186.9013360132
 20
647.0217224872
 30
0.0
 40
10.0
 50
0.0
 51
180.0
  0
LINE
  5
93
  8
0
  6
CONTINUOUS
 62
     7
 10
176.9013360132
 20
647.0217224872
 30
0.0
 11
176.9013360132
 21
574.5940730735
 31
0.0
  0
LINE
  5
94
  8
0
  6
CONTINUOUS
 62
     7
 10
196.9013360132
 20
574.5940730735
 30
0.0
 11
196.9013360132
 21
647.0217224872
 31
0.0
  0
LINE
  5
95
  8
0
  6
CONTINUOUS
 62
     7
 10
157.9013360132
 20
365.8176885243
 30
0.0
 11
157.9013360132
 21
358.6176885243
 31
0.0
  0
LINE
  5
96
  8
0
  6
CONTINUOUS
 62
     7
 10
215.9013360132
 20
358.6176885243
 30
0.0
 11
215.9013360132
 21
365.8176885243
 31
0.0
  0
ARC
  5
97
  8
0
  6
CONTINUOUS
 62
     7
 10
158.7013360132
 20
365.8176885243
 30
0.0
 40
0.799999999999983
 50
90.0
 51
180.0
  0
ARC
  5
98
  8
0
  6
CONTINUOUS
 62
     7
 10
215.1013360132
 20
365.8176885243
 30
0.0
 40
0.8000000000000114
 50
0.0
 51
90.0
  0
ARC
  5
99
  8
0
  6
CONTINUOUS
 62
     7
 10
204.5013360132
 20
367.0176885243
 30
0.0
 40
0.4000000000000341
 50
270.0
 51
0.0
  0
ARC
  5
9A
  8
0
  6
CONTINUOUS
 62
     7
 10
169.3013360132
 20
367.0176885243
 30
0.0
 40
0.4000000000000341
 50
180.0
 51
270.0
  0
ARC
  5
9B
  8
0
  6
CONTINUOUS
 62
     7
 10
204.3013360132
 20
464.7176885243
 30
0.0
 40
0.6000000000000227
 50
0.0
 51
90.0
  0
ARC
  5
9C
  8
0
  6
CONTINUOUS
 62
     7
 10
169.5013360132
 20
464.7176885243
 30
0.0
 40
0.5999999999999943
 50
90.0
 51
180.0
  0
LINE
  5
9D
  8
0
  6
CONTINUOUS
 62
     7
 10
168.9013360132
 20
403.2209909552
 30
0.0
 11
168.9013360132
 21
367.0176885243
 31
0.0
  0
LINE
  5
9E
  8
0
  6
CONTINUOUS
 62
     7
 10
168.9013360132
 20
464.7176885243
 30
0.0
 11
168.9013360132
 21
437.4146543235
 31
0.0
  0
LINE
  5
9F
  8
0
  6
CONTINUOUS
 62
     7
 10
204.9013360132
 20
437.4117594445
 30
0.0
 11
204.9013360132
 21
464.7176885243
 31
0.0
  0
LINE
  5
A0
  8
0
  6
CONTINUOUS
 62
     7
 10
204.9013360132
 20
367.0176885243
 30
0.0
 11
204.9013360132
 21
403.2264161933
 31
0.0
  0
ARC
  5
A1
  8
0
  6
CONTINUOUS
 62
     7
 10
206.6843757423
 20
403.534648267
 30
0.0
 40
1.81484484960653
 50
79.2574065767
 51
190.7425808242
  0
ARC
  5
A2
  8
0
  6
CONTINUOUS
 62
     7
 10
206.6843752447
 20
437.1007282166
 30
0.0
 40
1.814849488787377
 50
169.2576298012
 51
280.7423758965
  0
ARC
  5
A3
  8
0
  6
CONTINUOUS
 62
     7
 10
167.1182987357
 20
403.5346452038
 30
0.0
 40
1.814865343242489
 50
349.2585805778
 51
100.7418137102
  0
ARC
  5
A4
  8
0
  6
CONTINUOUS
 62
     7
 10
167.1182978058
 20
437.1007327164
 30
0.0
 40
1.814865011563605
 50
259.2581798217
 51
10.7414462524
  0
LINE
  5
A5
  8
0
  6
CONTINUOUS
 62
     7
 10
206.9975397675
 20
405.3176885243
 30
0.0
 11
241.6013360132
 21
405.3176885243
 31
0.0
  0
LINE
  5
A6
  8
0
  6
CONTINUOUS
 62
     7
 10
241.6013360132
 20
435.3176885243
 30
0.0
 11
206.9998943051
 21
435.3176885243
 31
0.0
  0
LINE
  5
A7
  8
0
  6
CONTINUOUS
 62
     7
 10
166.8377770254
 20
435.3176885243
 30
0.0
 11
132.2013360132
 21
435.3176885243
 31
0.0
  0
LINE
  5
A8
  8
0
  6
CONTINUOUS
 62
     7
 10
132.2013360132
 20
405.3176885243
 30
0.0
 11
166.8011323513
 21
405.3176885243
 31
0.0
  0
ARC
  5
A9
  8
0
  6
CONTINUOUS
 62
     7
 10
128.1013360132
 20
406.0176885243
 30
0.0
 40
0.6999999999999886
 50
180.0
 51
270.0
  0
ARC
  5
AA
  8
0
  6
CONTINUOUS
 62
     7
 10
128.1013360132
 20
434.6176885243
 30
0.0
 40
0.6999999999999886
 50
90.0
 51
180.0
  0
LINE
  5
AB
  8
0
  6
CONTINUOUS
 62
     7
 10
131.6013360132
 20
435.3176885243
 30
0.0
 11
128.1013360132
 21
435.3176885243
 31
0.0
  0
LINE
  5
AC
  8
0
  6
CONTINUOUS
 62
     7
 10
128.1013360132
 20
405.3176885243
 30
0.0
 11
131.6013360132
 21
405.3176885243
 31
0.0
  0
ARC
  5
AD
  8
0
  6
CONTINUOUS
 62
     7
 10
241.6013360132
 20
435.0176885243
 30
0.0
 40
0.3000000000000114
 50
0.0
 51
90.0
  0
ARC
  5
AE
  8
0
  6
CONTINUOUS
 62
     7
 10
241.6013360132
 20
405.6176885243
 30
0.0
 40
0.3000000000000682
 50
270.0
 51
0.0
  0
ARC
  5
AF
  8
0
  6
CONTINUOUS
 62
     7
 10
245.7013360132
 20
434.6176885243
 30
0.0
 40
0.700000000000017
 50
0.0
 51
90.0
  0
ARC
  5
B0
  8
0
  6
CONTINUOUS
 62
     7
 10
245.7013360132
 20
406.0176885243
 30
0.0
 40
0.700000000000017
 50
270.0
 51
0.0
  0
ARC
  5
B1
  8
0
  6
CONTINUOUS
 62
     7
 10
242.2013360132
 20
405.6176885243
 30
0.0
 40
0.3000000000000682
 50
180.0
 51
270.0
  0
ARC
  5
B2
  8
0
  6
CONTINUOUS
 62
     7
 10
242.2013360132
 20
435.0176885243
 30
0.0
 40
0.3000000000000398
 50
90.0
 51
180.0
  0
ARC
  5
B3
  8
0
  6
CONTINUOUS
 62
     7
 10
131.6013360132
 20
435.0176885243
 30
0.0
 40
0.3000000000000114
 50
0.0
 51
90.0
  0
ARC
  5
B4
  8
0
  6
CONTINUOUS
 62
     7
 10
131.6013360132
 20
405.6176885243
 30
0.0
 40
0.3000000000000682
 50
270.0
 51
0.0
  0
LINE
  5
B5
  8
0
  6
CONTINUOUS
 62
     7
 10
242.2013360132
 20
405.3176885243
 30
0.0
 11
245.7013360132
 21
405.3176885243
 31
0.0
  0
LINE
  5
B6
  8
0
  6
CONTINUOUS
 62
     7
 10
245.7013360132
 20
435.3176885243
 30
0.0
 11
242.2013360132
 21
435.3176885243
 31
0.0
  0
ARC
  5
B7
  8
0
  6
CONTINUOUS
 62
     7
 10
132.2013360132
 20
405.6176885243
 30
0.0
 40
0.3000000000000682
 50
180.0
 51
270.0
  0
ARC
  5
B8
  8
0
  6
CONTINUOUS
 62
     7
 10
132.2013360132
 20
435.0176885243
 30
0.0
 40
0.3000000000000114
 50
90.0
 51
180.0
  0
LINE
  5
B9
  8
0
  6
CONTINUOUS
 62
     7
 10
196.9013360132
 20
465.8176885243
 30
0.0
 11
196.9013360132
 21
545.214706985
 31
0.0
  0
LINE
  5
BA
  8
0
  6
CONTINUOUS
 62
     7
 10
176.9013360132
 20
545.214706985
 30
0.0
 11
176.9013360132
 21
465.8176885243
 31
0.0
  0
LINE
  5
BB
  8
0
  6
CONTINUOUS
 62
     7
 10
177.2013360132
 20
465.8176885243
 30
0.0
 11
177.2013360132
 21
465.3176885243
 31
0.0
  0
LINE
  5
BC
  8
0
  6
CONTINUOUS
 62
     7
 10
196.6013360132
 20
465.3176885243
 30
0.0
 11
196.6013360132
 21
465.8176885243
 31
0.0
  0
ARC
  5
BD
  8
0
  6
CONTINUOUS
 62
     7
 10
111.9013360132
 20
413.1176885243
 30
0.0
 40
0.8000000000000682
 50
180.0
 51
270.0
  0
ARC
  5
BE
  8
0
  6
CONTINUOUS
 62
     7
 10
261.9013360132
 20
413.1176885243
 30
0.0
 40
0.8000000000000682
 50
270.0
 51
0.0
  0
LINE
  5
BF
  8
0
  6
CONTINUOUS
 62
     7
 10
127.4013360132
 20
428.3176885243
 30
0.0
 11
121.1013360132
 21
428.3176885243
 31
0.0
  0
LINE
  5
C0
  8
0
  6
CONTINUOUS
 62
     7
 10
111.9013360132
 20
412.3176885243
 30
0.0
 11
127.4013360132
 21
412.3176885243
 31
0.0
  0
LINE
  5
C1
  8
0
  6
CONTINUOUS
 62
     7
 10
246.4013360132
 20
412.3176885243
 30
0.0
 11
261.9013360132
 21
412.3176885243
 31
0.0
  0
LINE
  5
C2
  8
0
  6
CONTINUOUS
 62
     7
 10
252.7013360132
 20
428.3176885243
 30
0.0
 11
246.4013360132
 21
428.3176885243
 31
0.0
  0
ARC
  5
C3
  8
0
  6
CONTINUOUS
 62
     7
 10
252.7013360132
 20
429.3176885243
 30
0.0
 40
1.0
 50
270.0
 51
360.0
  0
ARC
  5
C4
  8
0
  6
CONTINUOUS
 62
     7
 10
121.1013360132
 20
429.3176885243
 30
0.0
 40
1.0
 50
180.0
 51
270.0
  0
POLYLINE
  5
C5
  8
0
  6
CONTINUOUS
 62
     7
 66
     1
 10
0.0
 20
0.0
 30
0.0
 70
   128
  0
VERTEX
  5
205
  8
0
  6
CONTINUOUS
 62
     7
 10
186.9013360132
 20
545.9895777843
 30
0.0
  0
VERTEX
  5
206
  8
0
  6
CONTINUOUS
 62
     7
 10
188.7769270732
 20
545.9670649098
 30
0.0
  0
VERTEX
  5
207
  8
0
  6
CONTINUOUS
 62
     7
 10
190.5804402206
 20
545.9003914434
 30
0.0
  0
VERTEX
  5
208
  8
0
  6
CONTINUOUS
 62
     7
 10
192.2425674566
 20
545.792119609
 30
0.0
  0
VERTEX
  5
209
  8
0
  6
CONTINUOUS
 62
     7
 10
193.6994341636
 20
545.6464102324
 30
0.0
  0
VERTEX
  5
20A
  8
0
  6
CONTINUOUS
 62
     7
 10
194.8950537712
 20
545.4688628434
 30
0.0
  0
VERTEX
  5
20B
  8
0
  6
CONTINUOUS
 62
     7
 10
195.7834792882
 20
545.2663004885
 30
0.0
  0
VERTEX
  5
20C
  8
0
  6
CONTINUOUS
 62
     7
 10
196.3305690203
 20
545.0465075254
 30
0.0
  0
VERTEX
  5
20D
  8
0
  6
CONTINUOUS
 62
     7
 10
196.5152986159
 20
544.8179304745
 30
0.0
  0
VERTEX
  5
20E
  8
0
  6
CONTINUOUS
 62
     7
 10
196.3305690203
 20
544.5893534235
 30
0.0
  0
VERTEX
  5
20F
  8
0
  6
CONTINUOUS
 62
     7
 10
195.7834792882
 20
544.3695604604
 30
0.0
  0
VERTEX
  5
210
  8
0
  6
CONTINUOUS
 62
     7
 10
194.8950537712
 20
544.1669981055
 30
0.0
  0
VERTEX
  5
211
  8
0
  6
CONTINUOUS
 62
     7
 10
193.6994341636
 20
543.9894507165
 30
0.0
  0
VERTEX
  5
212
  8
0
  6
CONTINUOUS
 62
     7
 10
192.2425674566
 20
543.8437413399
 30
0.0
  0
VERTEX
  5
213
  8
0
  6
CONTINUOUS
 62
     7
 10
190.5804402206
 20
543.7354695055
 30
0.0
  0
VERTEX
  5
214
  8
0
  6
CONTINUOUS
 62
     7
 10
188.7769270732
 20
543.668796039
 30
0.0
  0
VERTEX
  5
215
  8
0
  6
CONTINUOUS
 62
     7
 10
186.9013360132
 20
543.6462831645
 30
0.0
  0
VERTEX
  5
216
  8
0
  6
CONTINUOUS
 62
     7
 10
185.0257449532
 20
543.668796039
 30
0.0
  0
VERTEX
  5
217
  8
0
  6
CONTINUOUS
 62
     7
 10
183.2222318057
 20
543.7354695055
 30
0.0
  0
VERTEX
  5
218
  8
0
  6
CONTINUOUS
 62
     7
 10
181.5601045697
 20
543.8437413399
 30
0.0
  0
VERTEX
  5
219
  8
0
  6
CONTINUOUS
 62
     7
 10
180.1032378627
 20
543.9894507164
 30
0.0
  0
VERTEX
  5
21A
  8
0
  6
CONTINUOUS
 62
     7
 10
178.9076182552
 20
544.1669981054
 30
0.0
  0
VERTEX
  5
21B
  8
0
  6
CONTINUOUS
 62
     7
 10
178.0191927382
 20
544.3695604603
 30
0.0
  0
VERTEX
  5
21C
  8
0
  6
CONTINUOUS
 62
     7
 10
177.4721030061
 20
544.5893534234
 30
0.0
  0
VERTEX
  5
21D
  8
0
  6
CONTINUOUS
 62
     7
 10
177.2873734105
 20
544.8179304744
 30
0.0
  0
VERTEX
  5
21E
  8
0
  6
CONTINUOUS
 62
     7
 10
177.4721030061
 20
545.0465075254
 30
0.0
  0
VERTEX
  5
21F
  8
0
  6
CONTINUOUS
 62
     7
 10
178.0191927382
 20
545.2663004885
 30
0.0
  0
VERTEX
  5
220
  8
0
  6
CONTINUOUS
 62
     7
 10
178.9076182552
 20
545.4688628434
 30
0.0
  0
VERTEX
  5
221
  8
0
  6
CONTINUOUS
 62
     7
 10
180.1032378627
 20
545.6464102324
 30
0.0
  0
VERTEX
  5
222
  8
0
  6
CONTINUOUS
 62
     7
 10
181.5601045697
 20
545.7921196089
 30
0.0
  0
VERTEX
  5
223
  8
0
  6
CONTINUOUS
 62
     7
 10
183.2222318057
 20
545.9003914434
 30
0.0
  0
VERTEX
  5
224
  8
0
  6
CONTINUOUS
 62
     7
 10
185.0257449532
 20
545.9670649098
 30
0.0
  0
VERTEX
  5
225
  8
0
  6
CONTINUOUS
 62
     7
 10
186.9013360132
 20
545.9895777843
 30
0.0
  0
SEQEND
  5
34A
  8
0
  6
CONTINUOUS
 62
     7
  0
LINE
  5
C6
  8
0
  6
CONTINUOUS
 62
     7
 10
176.9061189706
 20
545.1770187508
 30
0.0
 11
176.9013360132
 21
545.214706985
 31
0.0
  0
POLYLINE
  5
C7
  8
0
  6
CONTINUOUS
 62
     7
 66
     1
 10
0.0
 20
0.0
 30
0.0
 70
   128
  0
VERTEX
  5
226
  8
0
  6
CONTINUOUS
 62
     7
 10
196.2758201819
 20
545.0778101984
 30
0.0
  0
VERTEX
  5
227
  8
0
  6
CONTINUOUS
 62
     7
 10
196.2763360132
 20
545.0658250622
 30
0.0
  0
VERTEX
  5
228
  8
0
  6
CONTINUOUS
 62
     7
 10
196.096198017
 20
544.8429294736
 30
0.0
  0
VERTEX
  5
229
  8
0
  6
CONTINUOUS
 62
     7
 10
195.5627066305
 20
544.6285996375
 30
0.0
  0
VERTEX
  5
22A
  8
0
  6
CONTINUOUS
 62
     7
 10
194.6963636285
 20
544.4310721293
 30
0.0
  0
VERTEX
  5
22B
  8
0
  6
CONTINUOUS
 62
     7
 10
193.5304620868
 20
544.2579378203
 30
0.0
  0
VERTEX
  5
22C
  8
0
  6
CONTINUOUS
 62
     7
 10
192.1098069477
 20
544.1158501649
 30
0.0
  0
VERTEX
  5
22D
  8
0
  6
CONTINUOUS
 62
     7
 10
190.4889931916
 20
544.0102695121
 30
0.0
  0
VERTEX
  5
22E
  8
0
  6
CONTINUOUS
 62
     7
 10
188.7303077821
 20
543.9452532671
 30
0.0
  0
VERTEX
  5
22F
  8
0
  6
CONTINUOUS
 62
     7
 10
186.9013360132
 20
543.9232999678
 30
0.0
  0
VERTEX
  5
230
  8
0
  6
CONTINUOUS
 62
     7
 10
185.0723642443
 20
543.9452532671
 30
0.0
  0
VERTEX
  5
231
  8
0
  6
CONTINUOUS
 62
     7
 10
183.3136788348
 20
544.0102695121
 30
0.0
  0
VERTEX
  5
232
  8
0
  6
CONTINUOUS
 62
     7
 10
181.6928650786
 20
544.1158501649
 30
0.0
  0
VERTEX
  5
233
  8
0
  6
CONTINUOUS
 62
     7
 10
180.2722099396
 20
544.2579378203
 30
0.0
  0
VERTEX
  5
234
  8
0
  6
CONTINUOUS
 62
     7
 10
179.1063083978
 20
544.4310721293
 30
0.0
  0
VERTEX
  5
235
  8
0
  6
CONTINUOUS
 62
     7
 10
178.2399653959
 20
544.6285996375
 30
0.0
  0
VERTEX
  5
236
  8
0
  6
CONTINUOUS
 62
     7
 10
177.7064740094
 20
544.8429294736
 30
0.0
  0
VERTEX
  5
237
  8
0
  6
CONTINUOUS
 62
     7
 10
177.5263360132
 20
545.0658250622
 30
0.0
  0
VERTEX
  5
238
  8
0
  6
CONTINUOUS
 62
     7
 10
177.5268518445
 20
545.0778101984
 30
0.0
  0
SEQEND
  5
34B
  8
0
  6
CONTINUOUS
 62
     7
  0
LINE
  5
C8
  8
0
  6
CONTINUOUS
 62
     7
 10
186.9013360132
 20
358.6176885243
 30
0.0
 11
215.9013360132
 21
358.6176885243
 31
0.0
  0
LINE
  5
C9
  8
0
  6
CONTINUOUS
 62
     7
 10
157.9013360132
 20
358.6176885243
 30
0.0
 11
186.9013360132
 21
358.6176885243
 31
0.0
  0
LINE
  5
CA
  8
0
  6
CONTINUOUS
 62
     7
 10
186.9013360132
 20
366.6176885243
 30
0.0
 11
215.1013360132
 21
366.6176885243
 31
0.0
  0
LINE
  5
CB
  8
0
  6
CONTINUOUS
 62
     7
 10
158.7013360132
 20
366.6176885243
 30
0.0
 11
186.9013360132
 21
366.6176885243
 31
0.0
  0
LINE
  5
CC
  8
0
  6
CONTINUOUS
 62
     7
 10
204.3013360132
 20
465.3176885243
 30
0.0
 11
169.5013360132
 21
465.3176885243
 31
0.0
  0
LINE
  5
CD
  8
0
  6
CONTINUOUS
 62
     7
 10
127.4013360132
 20
406.0176885243
 30
0.0
 11
127.4013360132
 21
434.6176885243
 31
0.0
  0
LINE
  5
CE
  8
0
  6
CONTINUOUS
 62
     7
 10
241.9013360132
 20
435.0176885243
 30
0.0
 11
241.9013360132
 21
405.6176889105
 31
0.0
  0
LINE
  5
CF
  8
0
  6
CONTINUOUS
 62
     7
 10
246.4013360132
 20
420.3176885243
 30
0.0
 11
246.4013360132
 21
406.0176885243
 31
0.0
  0
LINE
  5
D0
  8
0
  6
CONTINUOUS
 62
     7
 10
246.4013360132
 20
434.6176885243
 30
0.0
 11
246.4013360132
 21
420.3176885243
 31
0.0
  0
LINE
  5
D1
  8
0
  6
CONTINUOUS
 62
     7
 10
131.9013360132
 20
405.6176885243
 30
0.0
 11
131.9013360132
 21
435.0176881381
 31
0.0
  0
LINE
  5
D2
  8
0
  6
CONTINUOUS
 62
     7
 10
176.9013360132
 20
465.8176885243
 30
0.0
 11
196.9013360132
 21
465.8176885243
 31
0.0
  0
LINE
  5
D3
  8
0
  6
CONTINUOUS
 62
     7
 10
111.1013360132
 20
413.1176885243
 30
0.0
 11
111.1013360132
 21
425.7892148196
 31
0.0
  0
LINE
  5
D4
  8
0
  6
CONTINUOUS
 62
     7
 10
262.7013360132
 20
425.7892148196
 30
0.0
 11
262.7013360132
 21
413.1176885243
 31
0.0
  0
LINE
  5
D5
  8
0
  6
CONTINUOUS
 62
     7
 10
121.1013360132
 20
427.4106427748
 30
0.0
 11
121.1013360132
 21
426.3971621857
 31
0.0
  0
LINE
  5
D6
  8
0
  6
CONTINUOUS
 62
     7
 10
121.1013360132
 20
426.3971621857
 30
0.0
 11
119.3013360132
 21
426.3971621857
 31
0.0
  0
LINE
  5
D7
  8
0
  6
CONTINUOUS
 62
     7
 10
252.7013360132
 20
426.3971621857
 30
0.0
 11
252.7013360132
 21
427.4106427748
 31
0.0
  0
LINE
  5
D8
  8
0
  6
CONTINUOUS
 62
     7
 10
254.5013360132
 20
426.3971621857
 30
0.0
 11
252.7013360132
 21
426.3971621857
 31
0.0
  0
ARC
  5
D9
  8
0
  6
CONTINUOUS
 62
     7
 10
121.1790797753
 20
428.4861741973
 30
0.0
 40
1.07833757851315
 50
178.0984564408
 51
265.8656199576
  0
LINE
  5
DA
  8
0
  6
CONTINUOUS
 62
     7
 10
119.3013360132
 20
426.3971621857
 30
0.0
 11
119.3013360132
 21
427.9170306011
 31
0.0
  0
LINE
  5
DB
  8
0
  6
CONTINUOUS
 62
     7
 10
119.3013360132
 20
428.5219557067
 30
0.0
 11
119.3013360132
 21
427.9170306011
 31
0.0
  0
LINE
  5
DC
  8
0
  6
CONTINUOUS
 62
     7
 10
254.5013360132
 20
427.9170306011
 30
0.0
 11
254.5013360132
 21
428.5219557067
 31
0.0
  0
LINE
  5
DD
  8
0
  6
CONTINUOUS
 62
     7
 10
254.5013360132
 20
427.9170306011
 30
0.0
 11
254.5013360132
 21
426.3971621857
 31
0.0
  0
LINE
  5
DE
  8
0
  6
CONTINUOUS
 62
     7
 10
111.1013360132
 20
425.7892148196
 30
0.0
 11
111.1013360132
 21
427.9170306011
 31
0.0
  0
LINE
  5
DF
  8
0
  6
CONTINUOUS
 62
     7
 10
262.7013360132
 20
427.9170306011
 30
0.0
 11
262.7013360132
 21
425.7892148196
 31
0.0
  0
LINE
  5
E0
  8
0
  6
CONTINUOUS
 62
     7
 10
120.1013360132
 20
496.5176885243
 30
0.0
 11
120.1013360132
 21
428.5219557067
 31
0.0
  0
LINE
  5
E1
  8
0
  6
CONTINUOUS
 62
     7
 10
253.7013360132
 20
428.5219557067
 30
0.0
 11
253.7013360132
 21
496.5176885243
 31
0.0
  0
ARC
  5
E2
  8
0
  6
CONTINUOUS
 62
     7
 10
254.5013360132
 20
496.5176885243
 30
0.0
 40
0.8000000000000398
 50
90.0
 51
180.0
  0
ARC
  5
E3
  8
0
  6
CONTINUOUS
 62
     7
 10
111.9013360132
 20
496.5176885243
 30
0.0
 40
0.8000000000000114
 50
90.0
 51
180.0
  0
LINE
  5
E4
  8
0
  6
CONTINUOUS
 62
     7
 10
111.1013360132
 20
427.9170306011
 30
0.0
 11
111.1013360132
 21
496.5176885243
 31
0.0
  0
LINE
  5
E5
  8
0
  6
CONTINUOUS
 62
     7
 10
111.9013360132
 20
497.3176885243
 30
0.0
 11
119.3013360132
 21
497.3176885243
 31
0.0
  0
ARC
  5
E6
  8
0
  6
CONTINUOUS
 62
     7
 10
119.3013360132
 20
496.5176885243
 30
0.0
 40
0.8000000000000114
 50
0.0
 51
90.0
  0
ARC
  5
E7
  8
0
  6
CONTINUOUS
 62
     7
 10
261.9013360132
 20
496.5176885243
 30
0.0
 40
0.8000000000000114
 50
0.0
 51
90.0
  0
LINE
  5
E8
  8
0
  6
CONTINUOUS
 62
     7
 10
262.7013360132
 20
496.5176885243
 30
0.0
 11
262.7013360132
 21
427.9170306011
 31
0.0
  0
LINE
  5
E9
  8
0
  6
CONTINUOUS
 62
     7
 10
254.5013360132
 20
497.3176885243
 30
0.0
 11
261.9013360132
 21
497.3176885243
 31
0.0
  0
POLYLINE
  5
EA
  8
0
  6
CONTINUOUS
 62
     8
 66
     1
 10
0.0
 20
0.0
 30
0.0
 70
   128
  0
VERTEX
  5
239
  8
0
  6
CONTINUOUS
 62
     8
 10
186.9013360132
 20
546.433400419
 30
0.0
  0
VERTEX
  5
23A
  8
0
  6
CONTINUOUS
 62
     8
 10
188.7938484568
 20
546.411377041
 30
0.0
  0
VERTEX
  5
23B
  8
0
  6
CONTINUOUS
 62
     8
 10
190.6179605698
 20
546.3461028893
 30
0.0
  0
VERTEX
  5
23C
  8
0
  6
CONTINUOUS
 62
     8
 10
192.3077441877
 20
546.2399371418
 30
0.0
  0
VERTEX
  5
23D
  8
0
  6
CONTINUOUS
 62
     8
 10
193.802126128
 20
546.0967169052
 30
0.0
  0
VERTEX
  5
23E
  8
0
  6
CONTINUOUS
 62
     8
 10
195.0470955337
 20
545.921618532
 30
0.0
  0
VERTEX
  5
23F
  8
0
  6
CONTINUOUS
 62
     8
 10
195.9976559667
 20
545.7209705337
 30
0.0
  0
VERTEX
  5
240
  8
0
  6
CONTINUOUS
 62
     8
 10
196.6194516964
 20
545.5020248517
 30
0.0
  0
VERTEX
  5
241
  8
0
  6
CONTINUOUS
 62
     8
 10
196.890009405
 20
545.2726947534
 30
0.0
  0
VERTEX
  5
242
  8
0
  6
CONTINUOUS
 62
     8
 10
196.9012788545
 20
545.2105864842
 30
0.0
  0
SEQEND
  5
34C
  8
0
  6
CONTINUOUS
 62
     8
  0
POLYLINE
  5
EB
  8
0
  6
CONTINUOUS
 62
     8
 66
     1
 10
0.0
 20
0.0
 30
0.0
 70
   128
  0
VERTEX
  5
243
  8
0
  6
CONTINUOUS
 62
     8
 10
176.9013360132
 20
545.214706985
 30
0.0
  0
VERTEX
  5
244
  8
0
  6
CONTINUOUS
 62
     8
 10
176.9126626214
 20
545.2726947534
 30
0.0
  0
VERTEX
  5
245
  8
0
  6
CONTINUOUS
 62
     8
 10
177.1832203299
 20
545.5020248517
 30
0.0
  0
VERTEX
  5
246
  8
0
  6
CONTINUOUS
 62
     8
 10
177.8050160596
 20
545.7209705337
 30
0.0
  0
VERTEX
  5
247
  8
0
  6
CONTINUOUS
 62
     8
 10
178.7555764927
 20
545.921618532
 30
0.0
  0
VERTEX
  5
248
  8
0
  6
CONTINUOUS
 62
     8
 10
180.0005458984
 20
546.0967169052
 30
0.0
  0
VERTEX
  5
249
  8
0
  6
CONTINUOUS
 62
     8
 10
181.4949278386
 20
546.2399371418
 30
0.0
  0
VERTEX
  5
24A
  8
0
  6
CONTINUOUS
 62
     8
 10
183.1847114566
 20
546.3461028893
 30
0.0
  0
VERTEX
  5
24B
  8
0
  6
CONTINUOUS
 62
     8
 10
185.0088235696
 20
546.411377041
 30
0.0
  0
VERTEX
  5
24C
  8
0
  6
CONTINUOUS
 62
     8
 10
186.9013360132
 20
546.433400419
 30
0.0
  0
SEQEND
  5
34D
  8
0
  6
CONTINUOUS
 62
     8
  0
POLYLINE
  5
EC
  8
0
  6
CONTINUOUS
 62
     8
 66
     1
 10
0.0
 20
0.0
 30
0.0
 70
   128
  0
VERTEX
  5
24D
  8
0
  6
CONTINUOUS
 62
     8
 10
200.9932896738
 20
432.5918903074
 30
0.0
  0
VERTEX
  5
24E
  8
0
  6
CONTINUOUS
 62
     8
 10
202.5331031409
 20
434.5755862097
 30
0.0
  0
VERTEX
  5
24F
  8
0
  6
CONTINUOUS
 62
     8
 10
203.7715766711
 20
436.0948564591
 30
0.0
  0
VERTEX
  5
250
  8
0
  6
CONTINUOUS
 62
     8
 10
204.5885972956
 20
437.0706263872
 30
0.0
  0
VERTEX
  5
251
  8
0
  6
CONTINUOUS
 62
     8
 10
204.898815877
 20
437.436047078
 30
0.0
  0
VERTEX
  5
252
  8
0
  6
CONTINUOUS
 62
     8
 10
204.8781734146
 20
437.4117594445
 30
0.0
  0
SEQEND
  5
34E
  8
0
  6
CONTINUOUS
 62
     8
  0
POLYLINE
  5
ED
  8
0
  6
CONTINUOUS
 62
     8
 66
     1
 10
0.0
 20
0.0
 30
0.0
 70
   128
  0
VERTEX
  5
253
  8
0
  6
CONTINUOUS
 62
     8
 10
204.8757928989
 20
403.2264161933
 30
0.0
  0
VERTEX
  5
254
  8
0
  6
CONTINUOUS
 62
     8
 10
204.6916371787
 20
403.4430788757
 30
0.0
  0
VERTEX
  5
255
  8
0
  6
CONTINUOUS
 62
     8
 10
203.9653332895
 20
404.3074877257
 30
0.0
  0
VERTEX
  5
256
  8
0
  6
CONTINUOUS
 62
     8
 10
202.7964856413
 20
405.7319371008
 30
0.0
  0
VERTEX
  5
257
  8
0
  6
CONTINUOUS
 62
     8
 10
201.3044124335
 20
407.6319775635
 30
0.0
  0
VERTEX
  5
258
  8
0
  6
CONTINUOUS
 62
     8
 10
200.1828244968
 20
409.1481005831
 30
0.0
  0
VERTEX
  5
259
  8
0
  6
CONTINUOUS
 62
     8
 10
199.0101848551
 20
410.861294345
 30
0.0
  0
VERTEX
  5
25A
  8
0
  6
CONTINUOUS
 62
     8
 10
197.8918261175
 20
412.7029260878
 30
0.0
  0
VERTEX
  5
25B
  8
0
  6
CONTINUOUS
 62
     8
 10
197.3103408339
 20
413.8005599978
 30
0.0
  0
VERTEX
  5
25C
  8
0
  6
CONTINUOUS
 62
     8
 10
196.80512772
 20
414.8939958468
 30
0.0
  0
VERTEX
  5
25D
  8
0
  6
CONTINUOUS
 62
     8
 10
196.3831997992
 20
415.9832336349
 30
0.0
  0
VERTEX
  5
25E
  8
0
  6
CONTINUOUS
 62
     8
 10
195.8470738384
 20
417.9518717113
 30
0.0
  0
VERTEX
  5
25F
  8
0
  6
CONTINUOUS
 62
     8
 10
195.6222784136
 20
419.9149498961
 30
0.0
  0
VERTEX
  5
260
  8
0
  6
CONTINUOUS
 62
     8
 10
195.651987353
 20
421.2539544792
 30
0.0
  0
VERTEX
  5
261
  8
0
  6
CONTINUOUS
 62
     8
 10
195.829910576
 20
422.5942058176
 30
0.0
  0
VERTEX
  5
262
  8
0
  6
CONTINUOUS
 62
     8
 10
196.1531548807
 20
423.9357039113
 30
0.0
  0
VERTEX
  5
263
  8
0
  6
CONTINUOUS
 62
     8
 10
196.7586302551
 20
425.6310727798
 30
0.0
  0
VERTEX
  5
264
  8
0
  6
CONTINUOUS
 62
     8
 10
197.5690878229
 20
427.3395378924
 30
0.0
  0
VERTEX
  5
265
  8
0
  6
CONTINUOUS
 62
     8
 10
199.272280815
 20
430.1714600934
 30
0.0
  0
VERTEX
  5
266
  8
0
  6
CONTINUOUS
 62
     8
 10
200.9932896738
 20
432.5918903074
 30
0.0
  0
SEQEND
  5
34F
  8
0
  6
CONTINUOUS
 62
     8
  0
POLYLINE
  5
EE
  8
0
  6
CONTINUOUS
 62
     8
 66
     1
 10
0.0
 20
0.0
 30
0.0
 70
   128
  0
VERTEX
  5
267
  8
0
  6
CONTINUOUS
 62
     8
 10
173.4146847952
 20
431.7716769333
 30
0.0
  0
VERTEX
  5
268
  8
0
  6
CONTINUOUS
 62
     8
 10
174.5229918325
 20
430.1828982456
 30
0.0
  0
VERTEX
  5
269
  8
0
  6
CONTINUOUS
 62
     8
 10
175.6255331787
 20
428.4297445757
 30
0.0
  0
VERTEX
  5
26A
  8
0
  6
CONTINUOUS
 62
     8
 10
176.6199673271
 20
426.5734750529
 30
0.0
  0
VERTEX
  5
26B
  8
0
  6
CONTINUOUS
 62
     8
 10
177.3212902862
 20
424.9261324578
 30
0.0
  0
VERTEX
  5
26C
  8
0
  6
CONTINUOUS
 62
     8
 10
177.8227125391
 20
423.2910710532
 30
0.0
  0
VERTEX
  5
26D
  8
0
  6
CONTINUOUS
 62
     8
 10
178.1394251373
 20
421.3895443419
 30
0.0
  0
VERTEX
  5
26E
  8
0
  6
CONTINUOUS
 62
     8
 10
178.1586342997
 20
419.4889084498
 30
0.0
  0
VERTEX
  5
26F
  8
0
  6
CONTINUOUS
 62
     8
 10
178.0155115466
 20
418.2817647058
 30
0.0
  0
VERTEX
  5
270
  8
0
  6
CONTINUOUS
 62
     8
 10
177.7533540993
 20
417.071894091
 30
0.0
  0
VERTEX
  5
271
  8
0
  6
CONTINUOUS
 62
     8
 10
177.3757684906
 20
415.8592966053
 30
0.0
  0
VERTEX
  5
272
  8
0
  6
CONTINUOUS
 62
     8
 10
176.7514812137
 20
414.3403875694
 30
0.0
  0
VERTEX
  5
273
  8
0
  6
CONTINUOUS
 62
     8
 10
175.9722815862
 20
412.8130534689
 30
0.0
  0
VERTEX
  5
274
  8
0
  6
CONTINUOUS
 62
     8
 10
174.3490614056
 20
410.1942543926
 30
0.0
  0
VERTEX
  5
275
  8
0
  6
CONTINUOUS
 62
     8
 10
172.7132922572
 20
407.915720655
 30
0.0
  0
VERTEX
  5
276
  8
0
  6
CONTINUOUS
 62
     8
 10
171.9149448917
 20
406.8757839829
 30
0.0
  0
VERTEX
  5
277
  8
0
  6
CONTINUOUS
 62
     8
 10
171.1841323172
 20
405.953129856
 30
0.0
  0
VERTEX
  5
278
  8
0
  6
CONTINUOUS
 62
     8
 10
170.4950489328
 20
405.1031815324
 30
0.0
  0
VERTEX
  5
279
  8
0
  6
CONTINUOUS
 62
     8
 10
169.9199276278
 20
404.4066809271
 30
0.0
  0
VERTEX
  5
27A
  8
0
  6
CONTINUOUS
 62
     8
 10
169.0957162229
 20
403.4249938073
 30
0.0
  0
VERTEX
  5
27B
  8
0
  6
CONTINUOUS
 62
     8
 10
168.9251577367
 20
403.2243058872
 30
0.0
  0
VERTEX
  5
27C
  8
0
  6
CONTINUOUS
 62
     8
 10
168.922308946
 20
403.2209909552
 30
0.0
  0
SEQEND
  5
350
  8
0
  6
CONTINUOUS
 62
     8
  0
POLYLINE
  5
EF
  8
0
  6
CONTINUOUS
 62
     8
 66
     1
 10
0.0
 20
0.0
 30
0.0
 70
   128
  0
VERTEX
  5
27D
  8
0
  6
CONTINUOUS
 62
     8
 10
168.922082298
 20
437.4146543235
 30
0.0
  0
VERTEX
  5
27E
  8
0
  6
CONTINUOUS
 62
     8
 10
168.9182180017
 20
437.4191654431
 30
0.0
  0
VERTEX
  5
27F
  8
0
  6
CONTINUOUS
 62
     8
 10
169.3742300472
 20
436.8812308974
 30
0.0
  0
VERTEX
  5
280
  8
0
  6
CONTINUOUS
 62
     8
 10
169.8299596483
 20
436.3372074971
 30
0.0
  0
VERTEX
  5
281
  8
0
  6
CONTINUOUS
 62
     8
 10
170.4313072257
 20
435.6098133453
 30
0.0
  0
VERTEX
  5
282
  8
0
  6
CONTINUOUS
 62
     8
 10
171.8277136947
 20
433.8708415083
 30
0.0
  0
VERTEX
  5
283
  8
0
  6
CONTINUOUS
 62
     8
 10
173.4146847952
 20
431.7716769333
 30
0.0
  0
SEQEND
  5
351
  8
0
  6
CONTINUOUS
 62
     8
  0
POLYLINE
  5
F0
  8
0
  6
CONTINUOUS
 62
     8
 66
     1
 10
0.0
 20
0.0
 30
0.0
 70
   128
  0
VERTEX
  5
284
  8
0
  6
CONTINUOUS
 62
     8
 10
203.2369116569
 20
430.6230025578
 30
0.0
  0
VERTEX
  5
285
  8
0
  6
CONTINUOUS
 62
     8
 10
202.4309950353
 20
429.5227617756
 30
0.0
  0
VERTEX
  5
286
  8
0
  6
CONTINUOUS
 62
     8
 10
201.617761239
 20
428.3451023797
 30
0.0
  0
VERTEX
  5
287
  8
0
  6
CONTINUOUS
 62
     8
 10
200.7487074068
 20
426.9735332292
 30
0.0
  0
VERTEX
  5
288
  8
0
  6
CONTINUOUS
 62
     8
 10
200.0830538639
 20
425.7915666908
 30
0.0
  0
VERTEX
  5
289
  8
0
  6
CONTINUOUS
 62
     8
 10
199.4262172566
 20
424.4098678822
 30
0.0
  0
VERTEX
  5
28A
  8
0
  6
CONTINUOUS
 62
     8
 10
198.915160378
 20
422.9814337448
 30
0.0
  0
VERTEX
  5
28B
  8
0
  6
CONTINUOUS
 62
     8
 10
198.5249896804
 20
420.0298973088
 30
0.0
  0
VERTEX
  5
28C
  8
0
  6
CONTINUOUS
 62
     8
 10
198.6968699698
 20
418.5466948196
 30
0.0
  0
VERTEX
  5
28D
  8
0
  6
CONTINUOUS
 62
     8
 10
199.0942237452
 20
417.0904869332
 30
0.0
  0
VERTEX
  5
28E
  8
0
  6
CONTINUOUS
 62
     8
 10
199.6712395879
 20
415.6734989329
 30
0.0
  0
VERTEX
  5
28F
  8
0
  6
CONTINUOUS
 62
     8
 10
200.3660198272
 20
414.322499873
 30
0.0
  0
VERTEX
  5
290
  8
0
  6
CONTINUOUS
 62
     8
 10
201.1300224227
 20
413.0411677536
 30
0.0
  0
VERTEX
  5
291
  8
0
  6
CONTINUOUS
 62
     8
 10
201.9322455265
 20
411.8253121927
 30
0.0
  0
VERTEX
  5
292
  8
0
  6
CONTINUOUS
 62
     8
 10
202.7450887526
 20
410.6773920281
 30
0.0
  0
VERTEX
  5
293
  8
0
  6
CONTINUOUS
 62
     8
 10
203.53400335
 20
409.6193046213
 30
0.0
  0
VERTEX
  5
294
  8
0
  6
CONTINUOUS
 62
     8
 10
204.3165679407
 20
408.6091313746
 30
0.0
  0
VERTEX
  5
295
  8
0
  6
CONTINUOUS
 62
     8
 10
204.9712106431
 20
407.7889146186
 30
0.0
  0
VERTEX
  5
296
  8
0
  6
CONTINUOUS
 62
     8
 10
205.6001879018
 20
407.0165548599
 30
0.0
  0
VERTEX
  5
297
  8
0
  6
CONTINUOUS
 62
     8
 10
206.1077435474
 20
406.4037817704
 30
0.0
  0
VERTEX
  5
298
  8
0
  6
CONTINUOUS
 62
     8
 10
206.814901305
 20
405.5623763056
 30
0.0
  0
VERTEX
  5
299
  8
0
  6
CONTINUOUS
 62
     8
 10
206.9973982206
 20
405.3474299543
 30
0.0
  0
SEQEND
  5
352
  8
0
  6
CONTINUOUS
 62
     8
  0
POLYLINE
  5
F1
  8
0
  6
CONTINUOUS
 62
     8
 66
     1
 10
0.0
 20
0.0
 30
0.0
 70
   128
  0
VERTEX
  5
29A
  8
0
  6
CONTINUOUS
 62
     8
 10
206.9997992819
 20
435.2907732075
 30
0.0
  0
VERTEX
  5
29B
  8
0
  6
CONTINUOUS
 62
     8
 10
207.0201882728
 20
435.3147879088
 30
0.0
  0
VERTEX
  5
29C
  8
0
  6
CONTINUOUS
 62
     8
 10
206.7128359034
 20
434.9523936044
 30
0.0
  0
VERTEX
  5
29D
  8
0
  6
CONTINUOUS
 62
     8
 10
206.3780529786
 20
434.5550279643
 30
0.0
  0
VERTEX
  5
29E
  8
0
  6
CONTINUOUS
 62
     8
 10
205.9188378635
 20
434.0043881866
 30
0.0
  0
VERTEX
  5
29F
  8
0
  6
CONTINUOUS
 62
     8
 10
204.7162452852
 20
432.5290506573
 30
0.0
  0
VERTEX
  5
2A0
  8
0
  6
CONTINUOUS
 62
     8
 10
203.2369116569
 20
430.6230025578
 30
0.0
  0
SEQEND
  5
353
  8
0
  6
CONTINUOUS
 62
     8
  0
POLYLINE
  5
F2
  8
0
  6
CONTINUOUS
 62
     8
 66
     1
 10
0.0
 20
0.0
 30
0.0
 70
   128
  0
VERTEX
  5
2A1
  8
0
  6
CONTINUOUS
 62
     8
 10
171.14044112
 20
429.8439828633
 30
0.0
  0
VERTEX
  5
2A2
  8
0
  6
CONTINUOUS
 62
     8
 10
170.0587466793
 20
431.2911445045
 30
0.0
  0
VERTEX
  5
2A3
  8
0
  6
CONTINUOUS
 62
     8
 10
169.1182918638
 20
432.4895397835
 30
0.0
  0
VERTEX
  5
2A4
  8
0
  6
CONTINUOUS
 62
     8
 10
168.2734238444
 20
433.5321948561
 30
0.0
  0
VERTEX
  5
2A5
  8
0
  6
CONTINUOUS
 62
     8
 10
167.6996585218
 20
434.2261843713
 30
0.0
  0
VERTEX
  5
2A6
  8
0
  6
CONTINUOUS
 62
     8
 10
167.2676471272
 20
434.7416308825
 30
0.0
  0
VERTEX
  5
2A7
  8
0
  6
CONTINUOUS
 62
     8
 10
166.7965485174
 20
435.2982554818
 30
0.0
  0
VERTEX
  5
2A8
  8
0
  6
CONTINUOUS
 62
     8
 10
166.8391455431
 20
435.2480926829
 30
0.0
  0
SEQEND
  5
354
  8
0
  6
CONTINUOUS
 62
     8
  0
POLYLINE
  5
F3
  8
0
  6
CONTINUOUS
 62
     8
 66
     1
 10
0.0
 20
0.0
 30
0.0
 70
   128
  0
VERTEX
  5
2A9
  8
0
  6
CONTINUOUS
 62
     8
 10
166.8012307855
 20
405.3425301958
 30
0.0
  0
VERTEX
  5
2AA
  8
0
  6
CONTINUOUS
 62
     8
 10
166.8046621768
 20
405.3464590674
 30
0.0
  0
VERTEX
  5
2AB
  8
0
  6
CONTINUOUS
 62
     8
 10
166.9804434673
 20
405.5537281757
 30
0.0
  0
VERTEX
  5
2AC
  8
0
  6
CONTINUOUS
 62
     8
 10
167.3012579428
 20
405.9334444024
 30
0.0
  0
VERTEX
  5
2AD
  8
0
  6
CONTINUOUS
 62
     8
 10
167.7754718627
 20
406.5005216185
 30
0.0
  0
VERTEX
  5
2AE
  8
0
  6
CONTINUOUS
 62
     8
 10
168.1261439689
 20
406.9238193578
 30
0.0
  0
VERTEX
  5
2AF
  8
0
  6
CONTINUOUS
 62
     8
 10
168.5355774874
 20
407.423587125
 30
0.0
  0
VERTEX
  5
2B0
  8
0
  6
CONTINUOUS
 62
     8
 10
169.0037724184
 20
408.0031263811
 30
0.0
  0
VERTEX
  5
2B1
  8
0
  6
CONTINUOUS
 62
     8
 10
169.4346204886
 20
408.5439389139
 30
0.0
  0
VERTEX
  5
2B2
  8
0
  6
CONTINUOUS
 62
     8
 10
169.9247356
 20
409.1707641014
 30
0.0
  0
VERTEX
  5
2B3
  8
0
  6
CONTINUOUS
 62
     8
 10
170.4741177527
 20
409.8904820967
 30
0.0
  0
VERTEX
  5
2B4
  8
0
  6
CONTINUOUS
 62
     8
 10
171.3420575622
 20
411.0708448416
 30
0.0
  0
VERTEX
  5
2B5
  8
0
  6
CONTINUOUS
 62
     8
 10
172.5623446438
 20
412.868278893
 30
0.0
  0
VERTEX
  5
2B6
  8
0
  6
CONTINUOUS
 62
     8
 10
173.4908670495
 20
414.4199371489
 30
0.0
  0
VERTEX
  5
2B7
  8
0
  6
CONTINUOUS
 62
     8
 10
174.1334855556
 20
415.6779089665
 30
0.0
  0
VERTEX
  5
2B8
  8
0
  6
CONTINUOUS
 62
     8
 10
174.6738541748
 20
416.9914695942
 30
0.0
  0
VERTEX
  5
2B9
  8
0
  6
CONTINUOUS
 62
     8
 10
175.2624281124
 20
419.7246545962
 30
0.0
  0
VERTEX
  5
2BA
  8
0
  6
CONTINUOUS
 62
     8
 10
175.2469773423
 20
421.1078974362
 30
0.0
  0
VERTEX
  5
2BB
  8
0
  6
CONTINUOUS
 62
     8
 10
175.0186399364
 20
422.4870297414
 30
0.0
  0
VERTEX
  5
2BC
  8
0
  6
CONTINUOUS
 62
     8
 10
174.6069178664
 20
423.8285846241
 30
0.0
  0
VERTEX
  5
2BD
  8
0
  6
CONTINUOUS
 62
     8
 10
174.051704979
 20
425.1307307458
 30
0.0
  0
VERTEX
  5
2BE
  8
0
  6
CONTINUOUS
 62
     8
 10
173.6333398595
 20
425.9539208217
 30
0.0
  0
VERTEX
  5
2BF
  8
0
  6
CONTINUOUS
 62
     8
 10
173.1771028169
 20
426.7656116968
 30
0.0
  0
VERTEX
  5
2C0
  8
0
  6
CONTINUOUS
 62
     8
 10
172.6744435113
 20
427.5908144298
 30
0.0
  0
VERTEX
  5
2C1
  8
0
  6
CONTINUOUS
 62
     8
 10
172.2116332377
 20
428.3048946018
 30
0.0
  0
VERTEX
  5
2C2
  8
0
  6
CONTINUOUS
 62
     8
 10
171.5598780366
 20
429.2574698255
 30
0.0
  0
VERTEX
  5
2C3
  8
0
  6
CONTINUOUS
 62
     8
 10
171.14044112
 20
429.8439828633
 30
0.0
  0
SEQEND
  5
355
  8
0
  6
CONTINUOUS
 62
     8
  0
ARC
  5
F4
  8
0
  6
CONTINUOUS
 62
     8
 10
111.8168360132
 20
425.6780209831
 30
0.0
 40
0.7240886128533356
 50
83.2984027432
 51
171.1664861355
  0
LINE
  5
F5
  8
0
  6
CONTINUOUS
 62
     8
 10
111.9013360132
 20
426.3971621857
 30
0.0
 11
111.9013360132
 21
412.3176885243
 31
0.0
  0
LINE
  5
F6
  8
0
  6
CONTINUOUS
 62
     8
 10
261.9013360132
 20
412.3176885243
 30
0.0
 11
261.9013360132
 21
426.3971621857
 31
0.0
  0
ARC
  5
F7
  8
0
  6
CONTINUOUS
 62
     8
 10
261.9858360132
 20
425.6780209831
 30
0.0
 40
0.7240886128531947
 50
8.8335138645
 51
96.7015972569
  0
LINE
  5
F8
  8
0
  6
CONTINUOUS
 62
     8
 10
121.1013360132
 20
428.3176885243
 30
0.0
 11
121.1013360132
 21
427.4106427748
 31
0.0
  0
LINE
  5
F9
  8
0
  6
CONTINUOUS
 62
     8
 10
119.3013360132
 20
426.3971621857
 30
0.0
 11
111.9013360132
 21
426.3971621857
 31
0.0
  0
LINE
  5
FA
  8
0
  6
CONTINUOUS
 62
     8
 10
252.7013360132
 20
427.4106427748
 30
0.0
 11
252.7013360132
 21
428.3176885243
 31
0.0
  0
LINE
  5
FB
  8
0
  6
CONTINUOUS
 62
     8
 10
261.9013360132
 20
426.3971621857
 30
0.0
 11
254.5013360132
 21
426.3971621857
 31
0.0
  0
LINE
  5
FC
  8
0
  6
CONTINUOUS
 62
     8
 10
261.9013360132
 20
426.3971621857
 30
0.0
 11
261.9013360132
 21
427.9170306011
 31
0.0
  0
LINE
  5
FD
  8
0
  6
CONTINUOUS
 62
     8
 10
254.5013360132
 20
427.9170306011
 30
0.0
 11
261.9013360132
 21
427.9170306011
 31
0.0
  0
LINE
  5
FE
  8
0
  6
CONTINUOUS
 62
     8
 10
111.9013360132
 20
427.9170306011
 30
0.0
 11
111.9013360132
 21
426.3971621857
 31
0.0
  0
LINE
  5
FF
  8
0
  6
CONTINUOUS
 62
     8
 10
111.9013360132
 20
427.9170306011
 30
0.0
 11
119.3013360132
 21
427.9170306011
 31
0.0
  0
LINE
  5
100
  8
0
  6
CONTINUOUS
 62
     8
 10
111.1013360132
 20
427.9170306011
 30
0.0
 11
111.9013360132
 21
427.9170306011
 31
0.0
  0
LINE
  5
101
  8
0
  6
CONTINUOUS
 62
     8
 10
261.9013360132
 20
427.9170306011
 30
0.0
 11
262.7013360132
 21
427.9170306011
 31
0.0
  0
LINE
  5
102
  8
0
  6
CONTINUOUS
 62
     8
 10
119.3013360132
 20
428.5219557067
 30
0.0
 11
119.3013360132
 21
496.5176885243
 31
0.0
  0
LINE
  5
103
  8
0
  6
CONTINUOUS
 62
     8
 10
120.1013360132
 20
496.5176885243
 30
0.0
 11
119.3013360132
 21
496.5176885243
 31
0.0
  0
LINE
  5
104
  8
0
  6
CONTINUOUS
 62
     8
 10
111.9013360132
 20
496.5176885243
 30
0.0
 11
111.9013360132
 21
427.9170306011
 31
0.0
  0
LINE
  5
105
  8
0
  6
CONTINUOUS
 62
     8
 10
119.3013360132
 20
496.5176885243
 30
0.0
 11
111.9013360132
 21
496.5176885243
 31
0.0
  0
LINE
  5
106
  8
0
  6
CONTINUOUS
 62
     8
 10
254.5013360132
 20
496.5176885243
 30
0.0
 11
254.5013360132
 21
428.5219557067
 31
0.0
  0
LINE
  5
107
  8
0
  6
CONTINUOUS
 62
     8
 10
261.9013360132
 20
496.5176885243
 30
0.0
 11
254.5013360132
 21
496.5176885243
 31
0.0
  0
LINE
  5
108
  8
0
  6
CONTINUOUS
 62
     8
 10
261.9013360132
 20
427.9170306011
 30
0.0
 11
261.9013360132
 21
496.5176885243
 31
0.0
  0
LINE
  5
109
  8
0
  6
CONTINUOUS
 62
     8
 10
253.7013360132
 20
496.5176885243
 30
0.0
 11
254.5013360132
 21
496.5176885243
 31
0.0
  0
LINE
  5
10A
  8
0
  6
CONTINUOUS
 62
     8
 10
254.5013360132
 20
496.5176885243
 30
0.0
 11
254.5013360132
 21
497.3176885243
 31
0.0
  0
LINE
  5
10B
  8
0
  6
CONTINUOUS
 62
     8
 10
111.9013360132
 20
497.3176885243
 30
0.0
 11
111.9013360132
 21
496.5176885243
 31
0.0
  0
LINE
  5
10C
  8
0
  6
CONTINUOUS
 62
     8
 10
111.1013360132
 20
496.5176885243
 30
0.0
 11
111.9013360132
 21
496.5176885243
 31
0.0
  0
LINE
  5
10D
  8
0
  6
CONTINUOUS
 62
     8
 10
119.3013360132
 20
497.3176885243
 30
0.0
 11
119.3013360132
 21
496.5176885243
 31
0.0
  0
LINE
  5
10E
  8
0
  6
CONTINUOUS
 62
     8
 10
261.9013360132
 20
496.5176885243
 30
0.0
 11
262.7013360132
 21
496.5176885243
 31
0.0
  0
LINE
  5
10F
  8
0
  6
CONTINUOUS
 62
     8
 10
261.9013360132
 20
496.5176885243
 30
0.0
 11
261.9013360132
 21
497.3176885243
 31
0.0
  0
ARC
  5
110
  8
0
  6
CONTINUOUS
 62
     7
 10
331.2816360033
 20
365.8176885243
 30
0.0
 40
0.8000000000000114
 50
90.0
 51
180.0
  0
ARC
  5
111
  8
0
  6
CONTINUOUS
 62
     7
 10
387.6816360033
 20
365.8176885243
 30
0.0
 40
0.8000000000000114
 50
0.0
 51
90.0
  0
LINE
  5
112
  8
0
  6
CONTINUOUS
 62
     7
 10
330.4816360033
 20
365.8176885243
 30
0.0
 11
330.4816360033
 21
358.6176885243
 31
0.0
  0
LINE
  5
113
  8
0
  6
CONTINUOUS
 62
     7
 10
388.4816360033
 20
358.6176885243
 30
0.0
 11
388.4816360033
 21
365.8176885243
 31
0.0
  0
LINE
  5
114
  8
0
  6
CONTINUOUS
 62
     7
 10
341.4816360033
 20
390.397461591
 30
0.0
 11
341.4816360033
 21
367.0176885243
 31
0.0
  0
LINE
  5
115
  8
0
  6
CONTINUOUS
 62
     7
 10
341.4816360033
 20
464.7176885243
 30
0.0
 11
341.4816360033
 21
405.8441389161
 31
0.0
  0
LINE
  5
116
  8
0
  6
CONTINUOUS
 62
     7
 10
377.4816360033
 20
367.0176885243
 30
0.0
 11
377.4816360033
 21
464.7176885243
 31
0.0
  0
ARC
  5
117
  8
0
  6
CONTINUOUS
 62
     7
 10
376.8816360033
 20
464.7176885243
 30
0.0
 40
0.5999999999999659
 50
0.0
 51
90.0
  0
ARC
  5
118
  8
0
  6
CONTINUOUS
 62
     7
 10
342.0816360033
 20
464.7176885243
 30
0.0
 40
0.5999999999999659
 50
90.0
 51
180.0
  0
ARC
  5
119
  8
0
  6
CONTINUOUS
 62
     7
 10
377.0816360033
 20
367.0176885243
 30
0.0
 40
0.4000000000000341
 50
270.0
 51
0.0
  0
ARC
  5
11A
  8
0
  6
CONTINUOUS
 62
     7
 10
341.8816360033
 20
367.0176885243
 30
0.0
 40
0.4000000000000341
 50
180.0
 51
270.0
  0
ARC
  5
11B
  8
0
  6
CONTINUOUS
 62
     7
 10
441.9609901515
 20
564.542368339
 30
0.0
 40
72.47935414819409
 50
7.0
 51
180.0
  0
ARC
  5
11C
  8
0
  6
CONTINUOUS
 62
     7
 10
441.9609901515
 20
564.542368339
 30
0.0
 40
92.47935414819403
 50
7.0
 51
180.0
  0
LINE
  5
11D
  8
0
  6
CONTINUOUS
 62
     7
 10
369.4816360033
 20
465.8176885243
 30
0.0
 11
369.4816360033
 21
564.542368339
 31
0.0
  0
LINE
  5
11E
  8
0
  6
CONTINUOUS
 62
     7
 10
349.4816360033
 20
564.542368339
 30
0.0
 11
349.4816360033
 21
465.8176885243
 31
0.0
  0
LINE
  5
11F
  8
0
  6
CONTINUOUS
 62
     7
 10
537.3583497824
 20
546.433400419
 30
0.0
 11
533.7510172176
 21
575.8127665076
 31
0.0
  0
LINE
  5
120
  8
0
  6
CONTINUOUS
 62
     7
 10
513.9000941847
 20
573.3753796395
 30
0.0
 11
517.5074267495
 21
543.9960135509
 31
0.0
  0
ARC
  5
121
  8
0
  6
CONTINUOUS
 62
     7
 10
536.9613313217
 20
546.3846526817
 30
0.0
 40
0.4000000000000413
 50
279.0004018954
 51
7.0
  0
ARC
  5
122
  8
0
  6
CONTINUOUS
 62
     7
 10
517.9044452102
 20
544.0447612883
 30
0.0
 40
0.3999999999999657
 50
187.0
 51
274.9995981046
  0
LINE
  5
123
  8
0
  6
CONTINUOUS
 62
     7
 10
349.7816360033
 20
465.8176885243
 30
0.0
 11
349.7816360033
 21
465.3176885243
 31
0.0
  0
LINE
  5
124
  8
0
  6
CONTINUOUS
 62
     7
 10
369.1816360033
 20
465.3176885243
 30
0.0
 11
369.1816360033
 21
465.8176885243
 31
0.0
  0
LINE
  5
125
  8
0
  6
CONTINUOUS
 62
     7
 10
336.3315917182
 20
409.6176885243
 30
0.0
 11
341.4816360033
 21
390.397461591
 31
0.0
  0
LINE
  5
126
  8
0
  6
CONTINUOUS
 62
     7
 10
341.48368409
 20
405.844631248
 30
0.0
 11
340.4726964398
 21
409.6176885243
 31
0.0
  0
ARC
  5
127
  8
0
  6
CONTINUOUS
 62
     7
 10
340.702144079
 20
414.5176885243
 30
0.0
 40
0.4000000000000341
 50
0.0
 51
90.0
  0
LINE
  5
128
  8
0
  6
CONTINUOUS
 62
     7
 10
341.102144079
 20
409.8176885243
 30
0.0
 11
341.102144079
 21
414.5176885243
 31
0.0
  0
ARC
  5
129
  8
0
  6
CONTINUOUS
 62
     7
 10
340.902144079
 20
409.8176885243
 30
0.0
 40
0.1999999999999886
 50
270.0
 51
0.0
  0
ARC
  5
12A
  8
0
  6
CONTINUOUS
 62
     7
 10
359.4816360033
 20
420.3176885243
 30
0.0
 40
7.999999999999944
 50
130.5416018735
 51
49.4583981265
  0
LINE
  5
12B
  8
0
  6
CONTINUOUS
 62
     7
 10
354.9816360033
 20
427.9170306011
 30
0.0
 11
354.9816360033
 21
496.5176885243
 31
0.0
  0
ARC
  5
12C
  8
0
  6
CONTINUOUS
 62
     7
 10
355.7816360033
 20
496.5176885243
 30
0.0
 40
0.8000000000000114
 50
90.0
 51
180.0
  0
ARC
  5
12D
  8
0
  6
CONTINUOUS
 62
     7
 10
352.9816360033
 20
427.9170306011
 30
0.0
 40
2.000000000000003
 50
310.5416018735
 51
0.0
  0
LINE
  5
12E
  8
0
  6
CONTINUOUS
 62
     7
 10
355.7816360033
 20
497.3176885243
 30
0.0
 11
363.1816360033
 21
497.3176885243
 31
0.0
  0
ARC
  5
12F
  8
0
  6
CONTINUOUS
 62
     7
 10
365.9816360033
 20
427.9170306011
 30
0.0
 40
2.00000000000004
 50
180.0
 51
229.4583981265
  0
LINE
  5
130
  8
0
  6
CONTINUOUS
 62
     7
 10
363.9816360033
 20
496.5176885243
 30
0.0
 11
363.9816360033
 21
427.9170306011
 31
0.0
  0
ARC
  5
131
  8
0
  6
CONTINUOUS
 62
     7
 10
363.1816360033
 20
496.5176885243
 30
0.0
 40
0.8000000000000114
 50
0.0
 51
90.0
  0
ARC
  5
132
  8
0
  6
CONTINUOUS
 62
     7
 10
359.4816360033
 20
420.3176885243
 30
0.0
 40
15.0
 50
107.4576031237
 51
180.0
  0
ARC
  5
133
  8
0
  6
CONTINUOUS
 62
     7
 10
359.4816360033
 20
420.3176885243
 30
0.0
 40
15.0
 50
180.0
 51
72.5423968763
  0
LINE
  5
134
  8
0
  6
CONTINUOUS
 62
     7
 10
387.6816360033
 20
366.6176885243
 30
0.0
 11
331.2816360033
 21
366.6176885243
 31
0.0
  0
LINE
  5
135
  8
0
  6
CONTINUOUS
 62
     7
 10
330.4816360033
 20
358.6176885243
 30
0.0
 11
388.4816360033
 21
358.6176885243
 31
0.0
  0
ARC
  5
136
  8
0
  6
CONTINUOUS
 62
     7
 10
75.1166785995
 20
398.1244422141
 30
0.0
 40
266.4770098194146
 50
358.3383728178
 51
1.6600603928
  0
LINE
  5
137
  8
0
  6
CONTINUOUS
 62
     7
 10
342.0816360033
 20
465.3176885243
 30
0.0
 11
354.9816360033
 21
465.3176885243
 31
0.0
  0
LINE
  5
138
  8
0
  6
CONTINUOUS
 62
     7
 10
363.9816360033
 20
465.3176885243
 30
0.0
 11
376.8816360033
 21
465.3176885243
 31
0.0
  0
LINE
  5
139
  8
0
  6
CONTINUOUS
 62
     7
 10
363.9816360033
 20
465.8176885243
 30
0.0
 11
369.4816360033
 21
465.8176885243
 31
0.0
  0
LINE
  5
13A
  8
0
  6
CONTINUOUS
 62
     7
 10
349.4816360033
 20
465.8176885243
 30
0.0
 11
354.9816360033
 21
465.8176885243
 31
0.0
  0
LINE
  5
13B
  8
0
  6
CONTINUOUS
 62
     7
 10
517.9393047122
 20
543.6462831645
 30
0.0
 11
537.0239078789
 21
545.9895777843
 31
0.0
  0
LINE
  5
13C
  8
0
  6
CONTINUOUS
 62
     7
 10
317.923491793
 20
409.6176885243
 30
0.0
 11
317.723491793
 21
409.6176885243
 31
0.0
  0
ARC
  5
13D
  8
0
  6
CONTINUOUS
 62
     7
 10
317.723491793
 20
409.8176885243
 30
0.0
 40
0.1999999999999318
 50
180.0
 51
270.0
  0
ARC
  5
13E
  8
0
  6
CONTINUOUS
 62
     7
 10
317.923491793
 20
414.5176885243
 30
0.0
 40
0.3999999999999773
 50
90.0
 51
180.0
  0
LINE
  5
13F
  8
0
  6
CONTINUOUS
 62
     7
 10
317.523491793
 20
409.8176885243
 30
0.0
 11
317.523491793
 21
414.5176885243
 31
0.0
  0
LINE
  5
140
  8
0
  6
CONTINUOUS
 62
     7
 10
340.702144079
 20
409.6176885243
 30
0.0
 11
317.923491793
 21
409.6176885243
 31
0.0
  0
LINE
  5
141
  8
0
  6
CONTINUOUS
 62
     7
 10
317.923491793
 20
414.9176885243
 30
0.0
 11
340.702144079
 21
414.9176885243
 31
0.0
  0
LINE
  5
142
  8
0
  6
CONTINUOUS
 62
     7
 10
340.902144079
 20
409.6176885243
 30
0.0
 11
340.702144079
 21
409.6176885243
 31
0.0
  0
ARC
  5
143
  8
0
  6
CONTINUOUS
 62
     8
 10
359.4816360033
 20
420.3176885243
 30
0.0
 40
7.199999999999975
 50
130.5416018735
 51
49.4583981265
  0
LINE
  5
144
  8
0
  6
CONTINUOUS
 62
     8
 10
364.1616360033
 20
425.7892148196
 30
0.0
 11
364.6816360033
 21
426.3971621857
 31
0.0
  0
LINE
  5
145
  8
0
  6
CONTINUOUS
 62
     8
 10
354.8016360033
 20
425.7892148196
 30
0.0
 11
354.2816360033
 21
426.3971621857
 31
0.0
  0
ARC
  5
146
  8
0
  6
CONTINUOUS
 62
     8
 10
365.9816360033
 20
427.9170306011
 30
0.0
 40
2.800000000000011
 50
180.0
 51
229.4583981265
  0
ARC
  5
147
  8
0
  6
CONTINUOUS
 62
     8
 10
352.9816360033
 20
427.9170306011
 30
0.0
 40
2.800000000000011
 50
310.5416018735
 51
0.0
  0
LINE
  5
148
  8
0
  6
CONTINUOUS
 62
     8
 10
355.7816360033
 20
496.5176885243
 30
0.0
 11
355.7816360033
 21
427.9170306011
 31
0.0
  0
LINE
  5
149
  8
0
  6
CONTINUOUS
 62
     8
 10
363.1816360033
 20
496.5176885243
 30
0.0
 11
355.7816360033
 21
496.5176885243
 31
0.0
  0
LINE
  5
14A
  8
0
  6
CONTINUOUS
 62
     8
 10
363.1816360033
 20
427.9170306011
 30
0.0
 11
363.1816360033
 21
496.5176885243
 31
0.0
  0
LINE
  5
14B
  8
0
  6
CONTINUOUS
 62
     8
 10
354.9816360033
 20
496.5176885243
 30
0.0
 11
355.7816360033
 21
496.5176885243
 31
0.0
  0
LINE
  5
14C
  8
0
  6
CONTINUOUS
 62
     8
 10
354.9816360033
 20
427.9170306011
 30
0.0
 11
355.7816360033
 21
427.9170306011
 31
0.0
  0
LINE
  5
14D
  8
0
  6
CONTINUOUS
 62
     8
 10
355.7816360033
 20
497.3176885243
 30
0.0
 11
355.7816360033
 21
496.5176885243
 31
0.0
  0
LINE
  5
14E
  8
0
  6
CONTINUOUS
 62
     8
 10
363.1816360033
 20
497.3176885243
 30
0.0
 11
363.1816360033
 21
496.5176885243
 31
0.0
  0
LINE
  5
14F
  8
0
  6
CONTINUOUS
 62
     8
 10
363.1816360033
 20
427.9170306011
 30
0.0
 11
363.9816360033
 21
427.9170306011
 31
0.0
  0
LINE
  5
150
  8
0
  6
CONTINUOUS
 62
     8
 10
363.1816360033
 20
496.5176885243
 30
0.0
 11
363.9816360033
 21
496.5176885243
 31
0.0
  0
ARC
  5
151
  8
0
  6
CONTINUOUS
 62
     8
 10
359.4816360033
 20
420.3176885243
 30
0.0
 40
14.30000000000001
 50
180.0
 51
71.6581824204
  0
ARC
  5
152
  8
0
  6
CONTINUOUS
 62
     8
 10
359.4816360033
 20
420.3176885243
 30
0.0
 40
14.30000000000001
 50
108.3418175796
 51
180.0
  0
LINE
  5
153
  8
0
  6
CONTINUOUS
 62
     8
 10
388.4816360033
 20
365.8176885243
 30
0.0
 11
330.4816360033
 21
365.8176885243
 31
0.0
  0
POLYLINE
  5
154
  8
0
  6
CONTINUOUS
 62
     8
 66
     1
 10
0.0
 20
0.0
 30
0.0
 70
   128
  0
VERTEX
  5
2C4
  8
0
  6
CONTINUOUS
 62
     8
 10
371.4026359162
 20
431.7716769333
 30
0.0
  0
VERTEX
  5
2C5
  8
0
  6
CONTINUOUS
 62
     8
 10
372.5497879516
 20
430.1828982456
 30
0.0
  0
VERTEX
  5
2C6
  8
0
  6
CONTINUOUS
 62
     8
 10
373.5121837631
 20
428.4297445757
 30
0.0
  0
VERTEX
  5
2C7
  8
0
  6
CONTINUOUS
 62
     8
 10
374.2563934612
 20
426.5734750529
 30
0.0
  0
VERTEX
  5
2C8
  8
0
  6
CONTINUOUS
 62
     8
 10
374.7204917304
 20
424.9261324578
 30
0.0
  0
VERTEX
  5
2C9
  8
0
  6
CONTINUOUS
 62
     8
 10
375.0244348445
 20
423.2910710532
 30
0.0
  0
VERTEX
  5
2CA
  8
0
  6
CONTINUOUS
 62
     8
 10
375.2051508077
 20
421.3895443419
 30
0.0
  0
VERTEX
  5
2CB
  8
0
  6
CONTINUOUS
 62
     8
 10
375.2158397248
 20
419.4889084498
 30
0.0
  0
VERTEX
  5
2CC
  8
0
  6
CONTINUOUS
 62
     8
 10
375.1354573754
 20
418.2817647058
 30
0.0
  0
VERTEX
  5
2CD
  8
0
  6
CONTINUOUS
 62
     8
 10
374.9837141512
 20
417.071894091
 30
0.0
  0
VERTEX
  5
2CE
  8
0
  6
CONTINUOUS
 62
     8
 10
374.754604391
 20
415.8592966053
 30
0.0
  0
VERTEX
  5
2CF
  8
0
  6
CONTINUOUS
 62
     8
 10
374.347047116
 20
414.3403875694
 30
0.0
  0
VERTEX
  5
2D0
  8
0
  6
CONTINUOUS
 62
     8
 10
373.7839354455
 20
412.8130534689
 30
0.0
  0
VERTEX
  5
2D1
  8
0
  6
CONTINUOUS
 62
     8
 10
372.3828143284
 20
410.1942543926
 30
0.0
  0
VERTEX
  5
2D2
  8
0
  6
CONTINUOUS
 62
     8
 10
370.558612774
 20
407.915720655
 30
0.0
  0
VERTEX
  5
2D3
  8
0
  6
CONTINUOUS
 62
     8
 10
369.4519961349
 20
406.8757839829
 30
0.0
  0
VERTEX
  5
2D4
  8
0
  6
CONTINUOUS
 62
     8
 10
368.2548627745
 20
405.953129856
 30
0.0
  0
VERTEX
  5
2D5
  8
0
  6
CONTINUOUS
 62
     8
 10
366.8866170455
 20
405.1031815324
 30
0.0
  0
VERTEX
  5
2D6
  8
0
  6
CONTINUOUS
 62
     8
 10
365.4508712348
 20
404.4066809271
 30
0.0
  0
VERTEX
  5
2D7
  8
0
  6
CONTINUOUS
 62
     8
 10
362.1197989789
 20
403.4249938073
 30
0.0
  0
VERTEX
  5
2D8
  8
0
  6
CONTINUOUS
 62
     8
 10
360.4073868196
 20
403.2243058872
 30
0.0
  0
VERTEX
  5
2D9
  8
0
  6
CONTINUOUS
 62
     8
 10
358.6665292807
 20
403.2180726526
 30
0.0
  0
VERTEX
  5
2DA
  8
0
  6
CONTINUOUS
 62
     8
 10
355.3355685663
 20
403.7673077333
 30
0.0
  0
VERTEX
  5
2DB
  8
0
  6
CONTINUOUS
 62
     8
 10
353.72295066
 20
404.3190494588
 30
0.0
  0
VERTEX
  5
2DC
  8
0
  6
CONTINUOUS
 62
     8
 10
352.1640109882
 20
405.0555406411
 30
0.0
  0
VERTEX
  5
2DD
  8
0
  6
CONTINUOUS
 62
     8
 10
349.606732528
 20
406.7953744955
 30
0.0
  0
VERTEX
  5
2DE
  8
0
  6
CONTINUOUS
 62
     8
 10
347.5309044723
 20
408.9000478991
 30
0.0
  0
VERTEX
  5
2DF
  8
0
  6
CONTINUOUS
 62
     8
 10
346.389722213
 20
410.4901766039
 30
0.0
  0
VERTEX
  5
2E0
  8
0
  6
CONTINUOUS
 62
     8
 10
345.4323439557
 20
412.2454942065
 30
0.0
  0
VERTEX
  5
2E1
  8
0
  6
CONTINUOUS
 62
     8
 10
344.6924952262
 20
414.105085791
 30
0.0
  0
VERTEX
  5
2E2
  8
0
  6
CONTINUOUS
 62
     8
 10
344.2323121048
 20
415.7547445505
 30
0.0
  0
VERTEX
  5
2E3
  8
0
  6
CONTINUOUS
 62
     8
 10
343.9320931507
 20
417.3921692531
 30
0.0
  0
VERTEX
  5
2E4
  8
0
  6
CONTINUOUS
 62
     8
 10
343.7557698819
 20
419.2944080437
 30
0.0
  0
VERTEX
  5
2E5
  8
0
  6
CONTINUOUS
 62
     8
 10
343.7493738262
 20
421.1958372499
 30
0.0
  0
VERTEX
  5
2E6
  8
0
  6
CONTINUOUS
 62
     8
 10
344.2078870817
 20
424.7723951509
 30
0.0
  0
VERTEX
  5
2E7
  8
0
  6
CONTINUOUS
 62
     8
 10
344.633311922
 20
426.3486554152
 30
0.0
  0
VERTEX
  5
2E8
  8
0
  6
CONTINUOUS
 62
     8
 10
345.1879661354
 20
427.8426404957
 30
0.0
  0
VERTEX
  5
2E9
  8
0
  6
CONTINUOUS
 62
     8
 10
346.5819750673
 20
430.4434232326
 30
0.0
  0
VERTEX
  5
2EA
  8
0
  6
CONTINUOUS
 62
     8
 10
348.4062034059
 20
432.721255302
 30
0.0
  0
VERTEX
  5
2EB
  8
0
  6
CONTINUOUS
 62
     8
 10
349.5076975328
 20
433.7565405698
 30
0.0
  0
VERTEX
  5
2EC
  8
0
  6
CONTINUOUS
 62
     8
 10
350.6989335503
 20
434.6756481122
 30
0.0
  0
VERTEX
  5
2ED
  8
0
  6
CONTINUOUS
 62
     8
 10
352.0617575995
 20
435.5239759794
 30
0.0
  0
VERTEX
  5
2EE
  8
0
  6
CONTINUOUS
 62
     8
 10
353.4917933297
 20
436.2199693739
 30
0.0
  0
VERTEX
  5
2EF
  8
0
  6
CONTINUOUS
 62
     8
 10
354.9816360033
 20
436.6617376868
 30
0.0
  0
SEQEND
  5
356
  8
0
  6
CONTINUOUS
 62
     8
  0
ARC
  5
155
  8
0
  6
CONTINUOUS
 62
     8
 10
359.666078258
 20
422.2836549367
 30
0.0
 40
15.0920292562252
 50
38.9526316847
 51
73.384388762
  0
LINE
  5
156
  8
0
  6
CONTINUOUS
 62
     8
 10
377.4816360033
 20
464.7176885243
 30
0.0
 11
363.9816360033
 21
464.7176885243
 31
0.0
  0
LINE
  5
157
  8
0
  6
CONTINUOUS
 62
     8
 10
354.9816360033
 20
464.7176885243
 30
0.0
 11
341.4816360033
 21
464.7176885243
 31
0.0
  0
LINE
  5
158
  8
0
  6
CONTINUOUS
 62
     8
 10
341.4816360033
 20
367.0176885243
 30
0.0
 11
377.4816360033
 21
367.0176885243
 31
0.0
  0
LINE
  5
159
  8
0
  6
CONTINUOUS
 62
     8
 10
517.5074267495
 20
543.9960135509
 30
0.0
 11
537.3583497824
 21
546.433400419
 31
0.0
  0
LINE
  5
15A
  8
0
  6
CONTINUOUS
 62
     8
 10
317.523491793
 20
409.8176885243
 30
0.0
 11
317.923491793
 21
409.8176885243
 31
0.0
  0
LINE
  5
15B
  8
0
  6
CONTINUOUS
 62
     8
 10
317.923491793
 20
409.6176885243
 30
0.0
 11
317.923491793
 21
409.8176885243
 31
0.0
  0
LINE
  5
15C
  8
0
  6
CONTINUOUS
 62
     8
 10
317.523491793
 20
414.5176885243
 30
0.0
 11
317.923491793
 21
414.5176885243
 31
0.0
  0
LINE
  5
15D
  8
0
  6
CONTINUOUS
 62
     8
 10
317.923491793
 20
414.9176885243
 30
0.0
 11
317.923491793
 21
414.5176885243
 31
0.0
  0
LINE
  5
15E
  8
0
  6
CONTINUOUS
 62
     8
 10
317.923491793
 20
414.5176885243
 30
0.0
 11
317.923491793
 21
409.8176885243
 31
0.0
  0
LINE
  5
15F
  8
0
  6
CONTINUOUS
 62
     8
 10
317.923491793
 20
409.8176885243
 30
0.0
 11
340.702144079
 21
409.8176885243
 31
0.0
  0
LINE
  5
160
  8
0
  6
CONTINUOUS
 62
     8
 10
340.702144079
 20
409.6176885243
 30
0.0
 11
340.702144079
 21
409.8176885243
 31
0.0
  0
LINE
  5
161
  8
0
  6
CONTINUOUS
 62
     8
 10
340.702144079
 20
414.5176885243
 30
0.0
 11
317.923491793
 21
414.5176885243
 31
0.0
  0
LINE
  5
162
  8
0
  6
CONTINUOUS
 62
     8
 10
340.702144079
 20
409.8176885243
 30
0.0
 11
340.702144079
 21
414.5176885243
 31
0.0
  0
LINE
  5
163
  8
0
  6
CONTINUOUS
 62
     8
 10
340.702144079
 20
414.5176885243
 30
0.0
 11
340.702144079
 21
414.9176885243
 31
0.0
  0
LINE
  5
164
  8
0
  6
CONTINUOUS
 62
     8
 10
340.702144079
 20
414.5176885243
 30
0.0
 11
341.102144079
 21
414.5176885243
 31
0.0
  0
LINE
  5
165
  8
0
  6
CONTINUOUS
 62
     8
 10
340.702144079
 20
409.8176885243
 30
0.0
 11
341.102144079
 21
409.8176885243
 31
0.0
  0
LINE
  5
166
  8
0
  6
CONTINUOUS
 62
     7
 10
176.9013360132
 20
269.337740983
 30
0.0
 11
176.9013360132
 21
104.9938212851
 31
0.0
  0
LINE
  5
167
  8
0
  6
CONTINUOUS
 62
     7
 10
196.9013360132
 20
104.9938212851
 30
0.0
 11
196.9013360132
 21
269.337740983
 31
0.0
  0
LINE
  5
168
  8
0
  6
CONTINUOUS
 62
     7
 10
196.9013360132
 20
101.3864887204
 30
0.0
 11
196.9013360132
 21
104.9938212851
 31
0.0
  0
LINE
  5
169
  8
0
  6
CONTINUOUS
 62
     7
 10
176.9013360132
 20
104.9938212851
 30
0.0
 11
176.9013360132
 21
101.3864887204
 31
0.0
  0
POLYLINE
  5
16A
  8
0
  6
CONTINUOUS
 62
     7
 66
     1
 10
0.0
 20
0.0
 30
0.0
 70
   128
  0
VERTEX
  5
2F0
  8
0
  6
CONTINUOUS
 62
     7
 10
175.282385236
 20
254.3377126997
 30
0.0
  0
VERTEX
  5
2F1
  8
0
  6
CONTINUOUS
 62
     7
 10
176.7889617225
 20
254.1984987847
 30
0.0
  0
VERTEX
  5
2F2
  8
0
  6
CONTINUOUS
 62
     7
 10
176.9013360132
 20
254.1496853819
 30
0.0
  0
SEQEND
  5
357
  8
0
  6
CONTINUOUS
 62
     7
  0
POLYLINE
  5
16B
  8
0
  6
CONTINUOUS
 62
     7
 66
     1
 10
0.0
 20
0.0
 30
0.0
 70
   128
  0
VERTEX
  5
2F3
  8
0
  6
CONTINUOUS
 62
     7
 10
178.155141024
 20
285.0700031601
 30
0.0
  0
VERTEX
  5
2F4
  8
0
  6
CONTINUOUS
 62
     7
 10
176.7882999194
 20
284.4765602777
 30
0.0
  0
VERTEX
  5
2F5
  8
0
  6
CONTINUOUS
 62
     7
 10
175.2823828357
 20
284.3377685786
 30
0.0
  0
SEQEND
  5
358
  8
0
  6
CONTINUOUS
 62
     7
  0
POLYLINE
  5
16C
  8
0
  6
CONTINUOUS
 62
     7
 66
     1
 10
0.0
 20
0.0
 30
0.0
 70
   128
  0
VERTEX
  5
2F6
  8
0
  6
CONTINUOUS
 62
     7
 10
198.5202788998
 20
284.3377620084
 30
0.0
  0
VERTEX
  5
2F7
  8
0
  6
CONTINUOUS
 62
     7
 10
197.0094801096
 20
284.4796850012
 30
0.0
  0
VERTEX
  5
2F8
  8
0
  6
CONTINUOUS
 62
     7
 10
195.6229009451
 20
285.0836707789
 30
0.0
  0
SEQEND
  5
359
  8
0
  6
CONTINUOUS
 62
     7
  0
POLYLINE
  5
16D
  8
0
  6
CONTINUOUS
 62
     7
 66
     1
 10
0.0
 20
0.0
 30
0.0
 70
   128
  0
VERTEX
  5
2F9
  8
0
  6
CONTINUOUS
 62
     7
 10
196.9013360132
 20
254.1486627885
 30
0.0
  0
VERTEX
  5
2FA
  8
0
  6
CONTINUOUS
 62
     7
 10
197.0093645644
 20
254.1957233118
 30
0.0
  0
VERTEX
  5
2FB
  8
0
  6
CONTINUOUS
 62
     7
 10
198.5202793693
 20
254.3377210091
 30
0.0
  0
SEQEND
  5
35A
  8
0
  6
CONTINUOUS
 62
     7
  0
LINE
  5
16E
  8
0
  6
CONTINUOUS
 62
     7
 10
175.2956447504
 20
284.337740983
 30
0.0
 11
132.2013360132
 21
284.337740983
 31
0.0
  0
LINE
  5
16F
  8
0
  6
CONTINUOUS
 62
     7
 10
132.2013360132
 20
254.337740983
 30
0.0
 11
175.2956447504
 21
254.337740983
 31
0.0
  0
LINE
  5
170
  8
0
  6
CONTINUOUS
 62
     7
 10
198.5028753998
 20
254.337740983
 30
0.0
 11
241.6013360132
 21
254.337740983
 31
0.0
  0
LINE
  5
171
  8
0
  6
CONTINUOUS
 62
     7
 10
241.6013360132
 20
284.337740983
 30
0.0
 11
198.5028753998
 21
284.337740983
 31
0.0
  0
ARC
  5
172
  8
0
  6
CONTINUOUS
 62
     7
 10
128.1013360132
 20
255.037740983
 30
0.0
 40
0.700000000000017
 50
180.0
 51
270.0
  0
ARC
  5
173
  8
0
  6
CONTINUOUS
 62
     7
 10
128.1013360132
 20
283.637740983
 30
0.0
 40
0.6999999999999886
 50
90.0
 51
180.0
  0
ARC
  5
174
  8
0
  6
CONTINUOUS
 62
     7
 10
242.2013360132
 20
254.637740983
 30
0.0
 40
0.3000000000000398
 50
180.0
 51
270.0
  0
ARC
  5
175
  8
0
  6
CONTINUOUS
 62
     7
 10
242.2013360132
 20
284.037740983
 30
0.0
 40
0.3000000000000398
 50
90.0
 51
180.0
  0
ARC
  5
176
  8
0
  6
CONTINUOUS
 62
     7
 10
241.6013360132
 20
284.037740983
 30
0.0
 40
0.3000000000000114
 50
0.0
 51
90.0
  0
ARC
  5
177
  8
0
  6
CONTINUOUS
 62
     7
 10
241.6013360132
 20
254.637740983
 30
0.0
 40
0.3000000000000114
 50
270.0
 51
0.0
  0
LINE
  5
178
  8
0
  6
CONTINUOUS
 62
     7
 10
242.2013360132
 20
254.337740983
 30
0.0
 11
245.7013360132
 21
254.337740983
 31
0.0
  0
LINE
  5
179
  8
0
  6
CONTINUOUS
 62
     7
 10
245.7013360132
 20
284.337740983
 30
0.0
 11
242.2013360132
 21
284.337740983
 31
0.0
  0
ARC
  5
17A
  8
0
  6
CONTINUOUS
 62
     7
 10
132.2013360132
 20
254.637740983
 30
0.0
 40
0.3000000000000114
 50
180.0
 51
270.0
  0
ARC
  5
17B
  8
0
  6
CONTINUOUS
 62
     7
 10
132.2013360132
 20
284.037740983
 30
0.0
 40
0.3000000000000114
 50
90.0
 51
180.0
  0
ARC
  5
17C
  8
0
  6
CONTINUOUS
 62
     7
 10
245.7013360132
 20
283.637740983
 30
0.0
 40
0.700000000000017
 50
0.0
 51
90.0
  0
ARC
  5
17D
  8
0
  6
CONTINUOUS
 62
     7
 10
245.7013360132
 20
255.037740983
 30
0.0
 40
0.700000000000017
 50
270.0
 51
0.0
  0
LINE
  5
17E
  8
0
  6
CONTINUOUS
 62
     7
 10
131.6013360132
 20
284.337740983
 30
0.0
 11
128.1013360132
 21
284.337740983
 31
0.0
  0
LINE
  5
17F
  8
0
  6
CONTINUOUS
 62
     7
 10
128.1013360132
 20
254.337740983
 30
0.0
 11
131.6013360132
 21
254.337740983
 31
0.0
  0
ARC
  5
180
  8
0
  6
CONTINUOUS
 62
     7
 10
131.6013360132
 20
284.037740983
 30
0.0
 40
0.3000000000000114
 50
0.0
 51
90.0
  0
ARC
  5
181
  8
0
  6
CONTINUOUS
 62
     7
 10
131.6013360132
 20
254.637740983
 30
0.0
 40
0.3000000000000114
 50
270.0
 51
0.0
  0
LINE
  5
182
  8
0
  6
CONTINUOUS
 62
     7
 10
119.1995332982
 20
273.8454254973
 30
0.0
 11
119.2448382029
 21
273.837740983
 31
0.0
  0
LINE
  5
183
  8
0
  6
CONTINUOUS
 62
     7
 10
254.6031387282
 20
264.8300564687
 30
0.0
 11
254.5578338235
 21
264.837740983
 31
0.0
  0
LINE
  5
184
  8
0
  6
CONTINUOUS
 62
     7
 10
254.5578336531
 20
273.837740983
 30
0.0
 11
254.6031388012
 21
273.8454255399
 31
0.0
  0
LINE
  5
185
  8
0
  6
CONTINUOUS
 62
     7
 10
119.2448383733
 20
264.837740983
 30
0.0
 11
119.1995332251
 21
264.830056426
 31
0.0
  0
LINE
  5
186
  8
0
  6
CONTINUOUS
 62
     7
 10
127.4013360132
 20
277.337740983
 30
0.0
 11
111.9013360132
 21
277.337740983
 31
0.0
  0
LINE
  5
187
  8
0
  6
CONTINUOUS
 62
     7
 10
111.9013360132
 20
261.337740983
 30
0.0
 11
127.4013360132
 21
261.337740983
 31
0.0
  0
LINE
  5
188
  8
0
  6
CONTINUOUS
 62
     7
 10
246.4013360132
 20
261.337740983
 30
0.0
 11
261.9013360132
 21
261.337740983
 31
0.0
  0
LINE
  5
189
  8
0
  6
CONTINUOUS
 62
     7
 10
261.9013360132
 20
277.337740983
 30
0.0
 11
246.4013360132
 21
277.337740983
 31
0.0
  0
ARC
  5
18A
  8
0
  6
CONTINUOUS
 62
     7
 10
261.9013360132
 20
276.537740983
 30
0.0
 40
0.8000000000000114
 50
0.0
 51
90.0
  0
ARC
  5
18B
  8
0
  6
CONTINUOUS
 62
     7
 10
261.9013360132
 20
262.137740983
 30
0.0
 40
0.8000000000000682
 50
270.0
 51
0.0
  0
ARC
  5
18C
  8
0
  6
CONTINUOUS
 62
     7
 10
111.9013360132
 20
262.137740983
 30
0.0
 40
0.8000000000000682
 50
180.0
 51
270.0
  0
ARC
  5
18D
  8
0
  6
CONTINUOUS
 62
     7
 10
111.9013360132
 20
276.537740983
 30
0.0
 40
0.8000000000000114
 50
90.0
 51
180.0
  0
LINE
  5
18E
  8
0
  6
CONTINUOUS
 62
     7
 10
184.9013360132
 20
287.7434694314
 30
0.0
 11
184.9013360132
 21
287.2289650115
 31
0.0
  0
LINE
  5
18F
  8
0
  6
CONTINUOUS
 62
     7
 10
188.9013360132
 20
287.226284803
 30
0.0
 11
188.9013360132
 21
287.7434694314
 31
0.0
  0
ARC
  5
190
  8
0
  6
CONTINUOUS
 62
     7
 10
186.9013360132
 20
269.337740983
 30
0.0
 40
10.00000000000003
 50
0.0
 51
180.0
  0
ARC
  5
191
  8
0
  6
CONTINUOUS
 62
     7
 10
186.9435886865
 20
101.4187371059
 30
0.0
 40
9.957799545085333
 50
269.7568833246
 51
359.8144469961
  0
ARC
  5
192
  8
0
  6
CONTINUOUS
 62
     7
 10
186.8624024715
 20
101.4220811637
 30
0.0
 40
9.961130046785286
 50
180.2047258808
 51
270.2239437985
  0
ARC
  5
193
  8
0
  6
CONTINUOUS
 62
     7
 10
111.9013360132
 20
273.037740983
 30
0.0
 40
0.8000000000000682
 50
90.0
 51
180.0
  0
LINE
  5
194
  8
0
  6
CONTINUOUS
 62
     7
 10
111.9013360132
 20
273.837740983
 30
0.0
 11
119.3013360132
 21
273.837740983
 31
0.0
  0
LINE
  5
195
  8
0
  6
CONTINUOUS
 62
     7
 10
254.5013360132
 20
273.837740983
 30
0.0
 11
261.9013360132
 21
273.837740983
 31
0.0
  0
ARC
  5
196
  8
0
  6
CONTINUOUS
 62
     7
 10
119.3013360132
 20
273.037740983
 30
0.0
 40
0.8000000000000682
 50
0.0
 51
90.0
  0
ARC
  5
197
  8
0
  6
CONTINUOUS
 62
     7
 10
261.9013360132
 20
273.037740983
 30
0.0
 40
0.8000000000000682
 50
0.0
 51
90.0
  0
ARC
  5
198
  8
0
  6
CONTINUOUS
 62
     7
 10
254.5013360132
 20
273.037740983
 30
0.0
 40
0.8000000000000682
 50
90.0
 51
180.0
  0
LINE
  5
199
  8
0
  6
CONTINUOUS
 62
     7
 10
119.3013360132
 20
264.837740983
 30
0.0
 11
111.9013360132
 21
264.837740983
 31
0.0
  0
LINE
  5
19A
  8
0
  6
CONTINUOUS
 62
     7
 10
262.7013360132
 20
273.037740983
 30
0.0
 11
262.7013360132
 21
265.637740983
 31
0.0
  0
ARC
  5
19B
  8
0
  6
CONTINUOUS
 62
     7
 10
254.5013360132
 20
265.637740983
 30
0.0
 40
0.8000000000000398
 50
180.0
 51
270.0
  0
ARC
  5
19C
  8
0
  6
CONTINUOUS
 62
     7
 10
111.9013360132
 20
265.637740983
 30
0.0
 40
0.8000000000000114
 50
180.0
 51
270.0
  0
LINE
  5
19D
  8
0
  6
CONTINUOUS
 62
     7
 10
261.9013360132
 20
264.837740983
 30
0.0
 11
254.5013360132
 21
264.837740983
 31
0.0
  0
LINE
  5
19E
  8
0
  6
CONTINUOUS
 62
     7
 10
111.1013360132
 20
265.637740983
 30
0.0
 11
111.1013360132
 21
273.037740983
 31
0.0
  0
ARC
  5
19F
  8
0
  6
CONTINUOUS
 62
     7
 10
261.9013360132
 20
265.637740983
 30
0.0
 40
0.8000000000000114
 50
270.0
 51
0.0
  0
LINE
  5
1A0
  8
0
  6
CONTINUOUS
 62
     7
 10
253.7013360132
 20
265.637740983
 30
0.0
 11
253.7013360132
 21
273.037740983
 31
0.0
  0
LINE
  5
1A1
  8
0
  6
CONTINUOUS
 62
     7
 10
120.1013360132
 20
273.037740983
 30
0.0
 11
120.1013360132
 21
265.637740983
 31
0.0
  0
ARC
  5
1A2
  8
0
  6
CONTINUOUS
 62
     7
 10
119.3013360132
 20
265.637740983
 30
0.0
 40
0.8000000000000114
 50
270.0
 51
0.0
  0
ARC
  5
1A3
  8
0
  6
CONTINUOUS
 62
     7
 10
186.9013360132
 20
269.337740983
 30
0.0
 40
17.99999999999998
 50
303.7489885959
 51
0.0
  0
ARC
  5
1A4
  8
0
  6
CONTINUOUS
 62
     7
 10
186.9013360132
 20
269.337740983
 30
0.0
 40
18.00000000000006
 50
0.0
 51
236.2510114041
  0
LINE
  5
1A5
  8
0
  6
CONTINUOUS
 62
     7
 10
127.4013360132
 20
283.637740983
 30
0.0
 11
127.4013360132
 21
255.037740983
 31
0.0
  0
LINE
  5
1A6
  8
0
  6
CONTINUOUS
 62
     7
 10
241.9013360132
 20
269.337740983
 30
0.0
 11
241.9013360132
 21
254.637740983
 31
0.0
  0
LINE
  5
1A7
  8
0
  6
CONTINUOUS
 62
     7
 10
241.9013360132
 20
284.037740983
 30
0.0
 11
241.9013360132
 21
269.337740983
 31
0.0
  0
LINE
  5
1A8
  8
0
  6
CONTINUOUS
 62
     7
 10
131.9013360132
 20
254.637740983
 30
0.0
 11
131.9013360132
 21
284.037740983
 31
0.0
  0
LINE
  5
1A9
  8
0
  6
CONTINUOUS
 62
     7
 10
246.4013360132
 20
255.037740983
 30
0.0
 11
246.4013360132
 21
283.637740983
 31
0.0
  0
LINE
  5
1AA
  8
0
  6
CONTINUOUS
 62
     7
 10
119.3013360132
 20
274.537740983
 30
0.0
 11
121.1013360132
 21
274.537740983
 31
0.0
  0
LINE
  5
1AB
  8
0
  6
CONTINUOUS
 62
     7
 10
121.1013360132
 20
274.537740983
 30
0.0
 11
121.1013360132
 21
273.037740983
 31
0.0
  0
LINE
  5
1AC
  8
0
  6
CONTINUOUS
 62
     7
 10
254.5013360132
 20
264.137740983
 30
0.0
 11
252.7013360132
 21
264.137740983
 31
0.0
  0
LINE
  5
1AD
  8
0
  6
CONTINUOUS
 62
     7
 10
252.7013360132
 20
264.137740983
 30
0.0
 11
252.7013360132
 21
265.637740983
 31
0.0
  0
LINE
  5
1AE
  8
0
  6
CONTINUOUS
 62
     7
 10
252.7013360132
 20
273.037740983
 30
0.0
 11
252.7013360132
 21
274.537740983
 31
0.0
  0
LINE
  5
1AF
  8
0
  6
CONTINUOUS
 62
     7
 10
252.7013360132
 20
274.537740983
 30
0.0
 11
254.5013360132
 21
274.537740983
 31
0.0
  0
LINE
  5
1B0
  8
0
  6
CONTINUOUS
 62
     7
 10
121.1013360132
 20
265.637740983
 30
0.0
 11
121.1013360132
 21
264.137740983
 31
0.0
  0
LINE
  5
1B1
  8
0
  6
CONTINUOUS
 62
     7
 10
121.1013360132
 20
264.137740983
 30
0.0
 11
119.3013360132
 21
264.137740983
 31
0.0
  0
LINE
  5
1B2
  8
0
  6
CONTINUOUS
 62
     7
 10
262.7013360132
 20
274.017740983
 30
0.0
 11
262.7013360132
 21
273.037740983
 31
0.0
  0
LINE
  5
1B3
  8
0
  6
CONTINUOUS
 62
     7
 10
111.1013360132
 20
273.037740983
 30
0.0
 11
111.1013360132
 21
274.017740983
 31
0.0
  0
LINE
  5
1B4
  8
0
  6
CONTINUOUS
 62
     7
 10
262.7013360132
 20
265.637740983
 30
0.0
 11
262.7013360132
 21
264.657740983
 31
0.0
  0
LINE
  5
1B5
  8
0
  6
CONTINUOUS
 62
     7
 10
111.1013360132
 20
264.657740983
 30
0.0
 11
111.1013360132
 21
265.637740983
 31
0.0
  0
LINE
  5
1B6
  8
0
  6
CONTINUOUS
 62
     7
 10
262.7013360132
 20
264.657740983
 30
0.0
 11
262.7013360132
 21
262.137740983
 31
0.0
  0
LINE
  5
1B7
  8
0
  6
CONTINUOUS
 62
     7
 10
262.7013360132
 20
276.537740983
 30
0.0
 11
262.7013360132
 21
274.017740983
 31
0.0
  0
LINE
  5
1B8
  8
0
  6
CONTINUOUS
 62
     7
 10
111.1013360132
 20
274.017740983
 30
0.0
 11
111.1013360132
 21
276.537740983
 31
0.0
  0
LINE
  5
1B9
  8
0
  6
CONTINUOUS
 62
     7
 10
111.1013360132
 20
262.137740983
 30
0.0
 11
111.1013360132
 21
264.657740983
 31
0.0
  0
ARC
  5
1BA
  8
0
  6
CONTINUOUS
 62
     7
 10
189.1513360132
 20
310.8958851933
 30
0.0
 40
0.4000000000000057
 50
0.0
 51
90.0
  0
ARC
  5
1BB
  8
0
  6
CONTINUOUS
 62
     7
 10
184.6513360132
 20
310.8958851933
 30
0.0
 40
0.4000000000000341
 50
90.0
 51
180.0
  0
LINE
  5
1BC
  8
0
  6
CONTINUOUS
 62
     7
 10
184.6513360132
 20
311.2958851933
 30
0.0
 11
189.1513360132
 21
311.2958851933
 31
0.0
  0
LINE
  5
1BD
  8
0
  6
CONTINUOUS
 62
     7
 10
184.2513360132
 20
288.1172329073
 30
0.0
 11
184.2513360132
 21
310.8958851933
 31
0.0
  0
LINE
  5
1BE
  8
0
  6
CONTINUOUS
 62
     7
 10
189.5513360132
 20
310.8958851933
 30
0.0
 11
189.5513360132
 21
288.1172329073
 31
0.0
  0
ARC
  5
1BF
  8
0
  6
CONTINUOUS
 62
     7
 10
184.6513360132
 20
288.1172329073
 30
0.0
 40
0.4000000000000341
 50
180.0
 51
276.9106204233
  0
ARC
  5
1C0
  8
0
  6
CONTINUOUS
 62
     7
 10
189.1513360132
 20
288.1172329073
 30
0.0
 40
0.4000000000000082
 50
263.0893795767
 51
0.0
  0
ARC
  5
1C1
  8
0
  6
CONTINUOUS
 62
     7
 10
186.9013360132
 20
269.5530873573
 30
0.0
 40
18.29999999999997
 50
83.0893795767
 51
96.9106204233
  0
ARC
  5
1C2
  8
0
  6
CONTINUOUS
 62
     7
 10
186.9013360132
 20
269.337740983
 30
0.0
 40
29.00000000000004
 50
211.1473899215
 51
249.8287286535
  0
ARC
  5
1C3
  8
0
  6
CONTINUOUS
 62
     7
 10
186.9013360132
 20
269.337740983
 30
0.0
 40
28.99999999999999
 50
95.2429627674
 51
148.8526100785
  0
ARC
  5
1C4
  8
0
  6
CONTINUOUS
 62
     7
 10
186.9013360132
 20
269.337740983
 30
0.0
 40
28.99999999999998
 50
31.1473899215
 51
84.7570372326
  0
ARC
  5
1C5
  8
0
  6
CONTINUOUS
 62
     7
 10
186.9013360132
 20
269.337740983
 30
0.0
 40
29.0
 50
290.1712713465
 51
328.8526100785
  0
ARC
  5
1C6
  8
0
  6
CONTINUOUS
 62
     8
 10
186.9013360132
 20
105.051359238
 30
0.0
 40
10.00016552943107
 50
180.3296645482
 51
359.6703354518
  0
LINE
  5
1C7
  8
0
  6
CONTINUOUS
 62
     8
 10
111.9013360132
 20
273.037740983
 30
0.0
 11
111.1013360132
 21
273.037740983
 31
0.0
  0
LINE
  5
1C8
  8
0
  6
CONTINUOUS
 62
     8
 10
111.9013360132
 20
273.837740983
 30
0.0
 11
111.9013360132
 21
273.037740983
 31
0.0
  0
LINE
  5
1C9
  8
0
  6
CONTINUOUS
 62
     8
 10
119.3013360132
 20
273.837740983
 30
0.0
 11
119.3013360132
 21
273.037740983
 31
0.0
  0
LINE
  5
1CA
  8
0
  6
CONTINUOUS
 62
     8
 10
119.3013360132
 20
273.037740983
 30
0.0
 11
111.9013360132
 21
273.037740983
 31
0.0
  0
LINE
  5
1CB
  8
0
  6
CONTINUOUS
 62
     8
 10
261.9013360132
 20
273.037740983
 30
0.0
 11
254.5013360132
 21
273.037740983
 31
0.0
  0
LINE
  5
1CC
  8
0
  6
CONTINUOUS
 62
     8
 10
254.5013360132
 20
273.037740983
 30
0.0
 11
254.5013360132
 21
273.837740983
 31
0.0
  0
LINE
  5
1CD
  8
0
  6
CONTINUOUS
 62
     8
 10
261.9013360132
 20
273.037740983
 30
0.0
 11
261.9013360132
 21
273.837740983
 31
0.0
  0
LINE
  5
1CE
  8
0
  6
CONTINUOUS
 62
     8
 10
120.1013360132
 20
273.037740983
 30
0.0
 11
119.3013360132
 21
273.037740983
 31
0.0
  0
LINE
  5
1CF
  8
0
  6
CONTINUOUS
 62
     8
 10
261.9013360132
 20
273.037740983
 30
0.0
 11
262.7013360132
 21
273.037740983
 31
0.0
  0
LINE
  5
1D0
  8
0
  6
CONTINUOUS
 62
     8
 10
253.7013360132
 20
273.037740983
 30
0.0
 11
254.5013360132
 21
273.037740983
 31
0.0
  0
LINE
  5
1D1
  8
0
  6
CONTINUOUS
 62
     8
 10
111.9013360132
 20
265.637740983
 30
0.0
 11
119.3013360132
 21
265.637740983
 31
0.0
  0
LINE
  5
1D2
  8
0
  6
CONTINUOUS
 62
     8
 10
119.3013360132
 20
265.637740983
 30
0.0
 11
119.3013360132
 21
264.837740983
 31
0.0
  0
LINE
  5
1D3
  8
0
  6
CONTINUOUS
 62
     8
 10
111.9013360132
 20
265.637740983
 30
0.0
 11
111.9013360132
 21
264.837740983
 31
0.0
  0
LINE
  5
1D4
  8
0
  6
CONTINUOUS
 62
     8
 10
111.9013360132
 20
273.037740983
 30
0.0
 11
111.9013360132
 21
265.637740983
 31
0.0
  0
LINE
  5
1D5
  8
0
  6
CONTINUOUS
 62
     8
 10
119.3013360132
 20
265.637740983
 30
0.0
 11
119.3013360132
 21
273.037740983
 31
0.0
  0
LINE
  5
1D6
  8
0
  6
CONTINUOUS
 62
     8
 10
261.9013360132
 20
265.637740983
 30
0.0
 11
261.9013360132
 21
273.037740983
 31
0.0
  0
LINE
  5
1D7
  8
0
  6
CONTINUOUS
 62
     8
 10
261.9013360132
 20
265.637740983
 30
0.0
 11
262.7013360132
 21
265.637740983
 31
0.0
  0
LINE
  5
1D8
  8
0
  6
CONTINUOUS
 62
     8
 10
253.7013360132
 20
265.637740983
 30
0.0
 11
254.5013360132
 21
265.637740983
 31
0.0
  0
LINE
  5
1D9
  8
0
  6
CONTINUOUS
 62
     8
 10
254.5013360132
 20
264.837740983
 30
0.0
 11
254.5013360132
 21
265.637740983
 31
0.0
  0
LINE
  5
1DA
  8
0
  6
CONTINUOUS
 62
     8
 10
111.9013360132
 20
265.637740983
 30
0.0
 11
111.1013360132
 21
265.637740983
 31
0.0
  0
LINE
  5
1DB
  8
0
  6
CONTINUOUS
 62
     8
 10
254.5013360132
 20
265.637740983
 30
0.0
 11
261.9013360132
 21
265.637740983
 31
0.0
  0
LINE
  5
1DC
  8
0
  6
CONTINUOUS
 62
     8
 10
254.5013360132
 20
273.037740983
 30
0.0
 11
254.5013360132
 21
265.637740983
 31
0.0
  0
LINE
  5
1DD
  8
0
  6
CONTINUOUS
 62
     8
 10
261.9013360132
 20
264.837740983
 30
0.0
 11
261.9013360132
 21
265.637740983
 31
0.0
  0
LINE
  5
1DE
  8
0
  6
CONTINUOUS
 62
     8
 10
120.1013360132
 20
265.637740983
 30
0.0
 11
119.3013360132
 21
265.637740983
 31
0.0
  0
ARC
  5
1DF
  8
0
  6
CONTINUOUS
 62
     8
 10
186.9013360132
 20
269.337740983
 30
0.0
 40
17.40000000000002
 50
0.0
 51
234.9204890595
  0
ARC
  5
1E0
  8
0
  6
CONTINUOUS
 62
     8
 10
186.9013360132
 20
269.337740983
 30
0.0
 40
17.39999999999998
 50
305.0795109405
 51
0.0
  0
POLYLINE
  5
1E1
  8
0
  6
CONTINUOUS
 62
     8
 66
     1
 10
0.0
 20
0.0
 30
0.0
 70
   128
  0
VERTEX
  5
2FC
  8
0
  6
CONTINUOUS
 62
     8
 10
171.14044112
 20
257.751123005
 30
0.0
  0
VERTEX
  5
2FD
  8
0
  6
CONTINUOUS
 62
     8
 10
170.0587466793
 20
259.1111450757
 30
0.0
  0
VERTEX
  5
2FE
  8
0
  6
CONTINUOUS
 62
     8
 10
169.1182918638
 20
260.5715538458
 30
0.0
  0
VERTEX
  5
2FF
  8
0
  6
CONTINUOUS
 62
     8
 10
168.2734238444
 20
262.2400778177
 30
0.0
  0
VERTEX
  5
300
  8
0
  6
CONTINUOUS
 62
     8
 10
167.6996585218
 20
263.720469112
 30
0.0
  0
VERTEX
  5
301
  8
0
  6
CONTINUOUS
 62
     8
 10
167.2676471272
 20
265.2207169551
 30
0.0
  0
VERTEX
  5
302
  8
0
  6
CONTINUOUS
 62
     8
 10
166.7965485174
 20
268.5744496685
 30
0.0
  0
VERTEX
  5
303
  8
0
  6
CONTINUOUS
 62
     8
 10
166.9828367302
 20
272.0036784976
 30
0.0
  0
VERTEX
  5
304
  8
0
  6
CONTINUOUS
 62
     8
 10
167.7769422993
 20
275.180114055
 30
0.0
  0
VERTEX
  5
305
  8
0
  6
CONTINUOUS
 62
     8
 10
168.3326450081
 20
276.5679714569
 30
0.0
  0
VERTEX
  5
306
  8
0
  6
CONTINUOUS
 62
     8
 10
169.0034306345
 20
277.901664004
 30
0.0
  0
VERTEX
  5
307
  8
0
  6
CONTINUOUS
 62
     8
 10
169.4447065468
 20
278.6481053653
 30
0.0
  0
VERTEX
  5
308
  8
0
  6
CONTINUOUS
 62
     8
 10
169.929304692
 20
279.3816225192
 30
0.0
  0
VERTEX
  5
309
  8
0
  6
CONTINUOUS
 62
     8
 10
170.472967442
 20
280.1192777175
 30
0.0
  0
VERTEX
  5
30A
  8
0
  6
CONTINUOUS
 62
     8
 10
171.3429157094
 20
281.1495090499
 30
0.0
  0
VERTEX
  5
30B
  8
0
  6
CONTINUOUS
 62
     8
 10
172.5612462393
 20
282.3560789402
 30
0.0
  0
VERTEX
  5
30C
  8
0
  6
CONTINUOUS
 62
     8
 10
173.480921233
 20
283.1219498107
 30
0.0
  0
VERTEX
  5
30D
  8
0
  6
CONTINUOUS
 62
     8
 10
174.1212885803
 20
283.5935848733
 30
0.0
  0
VERTEX
  5
30E
  8
0
  6
CONTINUOUS
 62
     8
 10
174.6625609508
 20
283.9570396624
 30
0.0
  0
VERTEX
  5
30F
  8
0
  6
CONTINUOUS
 62
     8
 10
175.2599726365
 20
284.3245683283
 30
0.0
  0
VERTEX
  5
310
  8
0
  6
CONTINUOUS
 62
     8
 10
175.2556554612
 20
284.3220254082
 30
0.0
  0
SEQEND
  5
35B
  8
0
  6
CONTINUOUS
 62
     8
  0
ARC
  5
1E2
  8
0
  6
CONTINUOUS
 62
     8
 10
183.7971044129
 20
268.8897470244
 30
0.0
 40
16.86001396069932
 50
221.3497169276
 51
239.5636261304
  0
ARC
  5
1E3
  8
0
  6
CONTINUOUS
 62
     8
 10
190.0213498081
 20
268.8788203462
 30
0.0
 40
16.84215294403916
 50
300.4522384311
 51
321.6903305679
  0
POLYLINE
  5
1E4
  8
0
  6
CONTINUOUS
 62
     8
 66
     1
 10
0.0
 20
0.0
 30
0.0
 70
   128
  0
VERTEX
  5
311
  8
0
  6
CONTINUOUS
 62
     8
 10
198.5591195826
 20
284.314379873
 30
0.0
  0
VERTEX
  5
312
  8
0
  6
CONTINUOUS
 62
     8
 10
198.525425122
 20
284.3347242408
 30
0.0
  0
VERTEX
  5
313
  8
0
  6
CONTINUOUS
 62
     8
 10
198.6999683794
 20
284.230962092
 30
0.0
  0
VERTEX
  5
314
  8
0
  6
CONTINUOUS
 62
     8
 10
199.0984797701
 20
283.98374629
 30
0.0
  0
VERTEX
  5
315
  8
0
  6
CONTINUOUS
 62
     8
 10
199.6758830422
 20
283.59743493
 30
0.0
  0
VERTEX
  5
316
  8
0
  6
CONTINUOUS
 62
     8
 10
200.3674832639
 20
283.0864262149
 30
0.0
  0
VERTEX
  5
317
  8
0
  6
CONTINUOUS
 62
     8
 10
201.1294649837
 20
282.455116828
 30
0.0
  0
VERTEX
  5
318
  8
0
  6
CONTINUOUS
 62
     8
 10
201.931241121
 20
281.7031931627
 30
0.0
  0
VERTEX
  5
319
  8
0
  6
CONTINUOUS
 62
     8
 10
202.7421143382
 20
280.8331039251
 30
0.0
  0
VERTEX
  5
31A
  8
0
  6
CONTINUOUS
 62
     8
 10
203.5284895649
 20
279.8591226501
 30
0.0
  0
VERTEX
  5
31B
  8
0
  6
CONTINUOUS
 62
     8
 10
204.3108558513
 20
278.722802968
 30
0.0
  0
VERTEX
  5
31C
  8
0
  6
CONTINUOUS
 62
     8
 10
204.9654001162
 20
277.5966920877
 30
0.0
  0
VERTEX
  5
31D
  8
0
  6
CONTINUOUS
 62
     8
 10
205.5937767594
 20
276.2866443489
 30
0.0
  0
VERTEX
  5
31E
  8
0
  6
CONTINUOUS
 62
     8
 10
206.1013315571
 20
274.960663006
 30
0.0
  0
VERTEX
  5
31F
  8
0
  6
CONTINUOUS
 62
     8
 10
206.8109645564
 20
272.0612924311
 30
0.0
  0
VERTEX
  5
320
  8
0
  6
CONTINUOUS
 62
     8
 10
207.0201882728
 20
269.0427663205
 30
0.0
  0
VERTEX
  5
321
  8
0
  6
CONTINUOUS
 62
     8
 10
206.7128359034
 20
266.0475423235
 30
0.0
  0
VERTEX
  5
322
  8
0
  6
CONTINUOUS
 62
     8
 10
206.3780529786
 20
264.615647626
 30
0.0
  0
VERTEX
  5
323
  8
0
  6
CONTINUOUS
 62
     8
 10
205.9188378635
 20
263.1998054707
 30
0.0
  0
VERTEX
  5
324
  8
0
  6
CONTINUOUS
 62
     8
 10
204.7162452852
 20
260.6266770493
 30
0.0
  0
VERTEX
  5
325
  8
0
  6
CONTINUOUS
 62
     8
 10
203.2369116569
 20
258.438176649
 30
0.0
  0
SEQEND
  5
35C
  8
0
  6
CONTINUOUS
 62
     8
  0
LINE
  5
1E5
  8
0
  6
CONTINUOUS
 62
     8
 10
121.1013360132
 20
273.037740983
 30
0.0
 11
121.1013360132
 21
265.637740983
 31
0.0
  0
LINE
  5
1E6
  8
0
  6
CONTINUOUS
 62
     8
 10
252.7013360132
 20
265.637740983
 30
0.0
 11
252.7013360132
 21
273.037740983
 31
0.0
  0
LINE
  5
1E7
  8
0
  6
CONTINUOUS
 62
     8
 10
111.9013360132
 20
274.537740983
 30
0.0
 11
119.3013360132
 21
274.537740983
 31
0.0
  0
LINE
  5
1E8
  8
0
  6
CONTINUOUS
 62
     8
 10
119.3013360132
 20
264.137740983
 30
0.0
 11
111.9013360132
 21
264.137740983
 31
0.0
  0
LINE
  5
1E9
  8
0
  6
CONTINUOUS
 62
     8
 10
261.9013360132
 20
264.137740983
 30
0.0
 11
254.5013360132
 21
264.137740983
 31
0.0
  0
LINE
  5
1EA
  8
0
  6
CONTINUOUS
 62
     8
 10
261.9013360132
 20
274.537740983
 30
0.0
 11
261.9013360132
 21
277.337740983
 31
0.0
  0
LINE
  5
1EB
  8
0
  6
CONTINUOUS
 62
     8
 10
261.9013360132
 20
261.337740983
 30
0.0
 11
261.9013360132
 21
264.137740983
 31
0.0
  0
LINE
  5
1EC
  8
0
  6
CONTINUOUS
 62
     8
 10
254.5013360132
 20
274.537740983
 30
0.0
 11
261.9013360132
 21
274.537740983
 31
0.0
  0
LINE
  5
1ED
  8
0
  6
CONTINUOUS
 62
     8
 10
261.9013360132
 20
273.837740983
 30
0.0
 11
261.9013360132
 21
274.537740983
 31
0.0
  0
LINE
  5
1EE
  8
0
  6
CONTINUOUS
 62
     8
 10
111.9013360132
 20
274.537740983
 30
0.0
 11
111.9013360132
 21
273.837740983
 31
0.0
  0
LINE
  5
1EF
  8
0
  6
CONTINUOUS
 62
     8
 10
111.9013360132
 20
264.837740983
 30
0.0
 11
111.9013360132
 21
264.137740983
 31
0.0
  0
LINE
  5
1F0
  8
0
  6
CONTINUOUS
 62
     8
 10
261.9013360132
 20
264.137740983
 30
0.0
 11
261.9013360132
 21
264.837740983
 31
0.0
  0
POLYLINE
  5
1F1
  8
0
  6
CONTINUOUS
 62
     8
 66
     1
 10
0.0
 20
0.0
 30
0.0
 70
   128
  0
VERTEX
  5
326
  8
0
  6
CONTINUOUS
 62
     8
 10
262.7013360132
 20
274.017740983
 30
0.0
  0
VERTEX
  5
327
  8
0
  6
CONTINUOUS
 62
     8
 10
262.6859642375
 20
274.1191879504
 30
0.0
  0
VERTEX
  5
328
  8
0
  6
CONTINUOUS
 62
     8
 10
262.6404396392
 20
274.2167363678
 30
0.0
  0
VERTEX
  5
329
  8
0
  6
CONTINUOUS
 62
     8
 10
262.566511703
 20
274.3066375042
 30
0.0
  0
VERTEX
  5
32A
  8
0
  6
CONTINUOUS
 62
     8
 10
262.4670214381
 20
274.3854365092
 30
0.0
  0
VERTEX
  5
32B
  8
0
  6
CONTINUOUS
 62
     8
 10
262.3457921996
 20
274.4501051814
 30
0.0
  0
VERTEX
  5
32C
  8
0
  6
CONTINUOUS
 62
     8
 10
262.2074827591
 20
274.4981583399
 30
0.0
  0
VERTEX
  5
32D
  8
0
  6
CONTINUOUS
 62
     8
 10
262.0574082708
 20
274.5277493288
 30
0.0
  0
VERTEX
  5
32E
  8
0
  6
CONTINUOUS
 62
     8
 10
261.9013360132
 20
274.537740983
 30
0.0
  0
SEQEND
  5
35D
  8
0
  6
CONTINUOUS
 62
     8
  0
POLYLINE
  5
1F2
  8
0
  6
CONTINUOUS
 62
     8
 66
     1
 10
0.0
 20
0.0
 30
0.0
 70
   128
  0
VERTEX
  5
32F
  8
0
  6
CONTINUOUS
 62
     8
 10
111.1013360132
 20
274.017740983
 30
0.0
  0
VERTEX
  5
330
  8
0
  6
CONTINUOUS
 62
     8
 10
111.1167077889
 20
274.1191879504
 30
0.0
  0
VERTEX
  5
331
  8
0
  6
CONTINUOUS
 62
     8
 10
111.1622323872
 20
274.2167363678
 30
0.0
  0
VERTEX
  5
332
  8
0
  6
CONTINUOUS
 62
     8
 10
111.2361603233
 20
274.3066375042
 30
0.0
  0
VERTEX
  5
333
  8
0
  6
CONTINUOUS
 62
     8
 10
111.3356505882
 20
274.3854365092
 30
0.0
  0
VERTEX
  5
334
  8
0
  6
CONTINUOUS
 62
     8
 10
111.4568798268
 20
274.4501051814
 30
0.0
  0
VERTEX
  5
335
  8
0
  6
CONTINUOUS
 62
     8
 10
111.5951892673
 20
274.4981583399
 30
0.0
  0
VERTEX
  5
336
  8
0
  6
CONTINUOUS
 62
     8
 10
111.7452637556
 20
274.5277493288
 30
0.0
  0
VERTEX
  5
337
  8
0
  6
CONTINUOUS
 62
     8
 10
111.9013360132
 20
274.537740983
 30
0.0
  0
SEQEND
  5
35E
  8
0
  6
CONTINUOUS
 62
     8
  0
POLYLINE
  5
1F3
  8
0
  6
CONTINUOUS
 62
     8
 66
     1
 10
0.0
 20
0.0
 30
0.0
 70
   128
  0
VERTEX
  5
338
  8
0
  6
CONTINUOUS
 62
     8
 10
262.7013360132
 20
264.657740983
 30
0.0
  0
VERTEX
  5
339
  8
0
  6
CONTINUOUS
 62
     8
 10
262.6859642375
 20
264.5562940155
 30
0.0
  0
VERTEX
  5
33A
  8
0
  6
CONTINUOUS
 62
     8
 10
262.6404396392
 20
264.4587455982
 30
0.0
  0
VERTEX
  5
33B
  8
0
  6
CONTINUOUS
 62
     8
 10
262.566511703
 20
264.3688444618
 30
0.0
  0
VERTEX
  5
33C
  8
0
  6
CONTINUOUS
 62
     8
 10
262.4670214381
 20
264.2900454568
 30
0.0
  0
VERTEX
  5
33D
  8
0
  6
CONTINUOUS
 62
     8
 10
262.3457921996
 20
264.2253767846
 30
0.0
  0
VERTEX
  5
33E
  8
0
  6
CONTINUOUS
 62
     8
 10
262.2074827591
 20
264.1773236261
 30
0.0
  0
VERTEX
  5
33F
  8
0
  6
CONTINUOUS
 62
     8
 10
262.0574082708
 20
264.1477326372
 30
0.0
  0
VERTEX
  5
340
  8
0
  6
CONTINUOUS
 62
     8
 10
261.9013360132
 20
264.137740983
 30
0.0
  0
SEQEND
  5
35F
  8
0
  6
CONTINUOUS
 62
     8
  0
POLYLINE
  5
1F4
  8
0
  6
CONTINUOUS
 62
     8
 66
     1
 10
0.0
 20
0.0
 30
0.0
 70
   128
  0
VERTEX
  5
341
  8
0
  6
CONTINUOUS
 62
     8
 10
111.1013360132
 20
264.657740983
 30
0.0
  0
VERTEX
  5
342
  8
0
  6
CONTINUOUS
 62
     8
 10
111.1167077889
 20
264.5562940155
 30
0.0
  0
VERTEX
  5
343
  8
0
  6
CONTINUOUS
 62
     8
 10
111.1622323872
 20
264.4587455982
 30
0.0
  0
VERTEX
  5
344
  8
0
  6
CONTINUOUS
 62
     8
 10
111.2361603233
 20
264.3688444618
 30
0.0
  0
VERTEX
  5
345
  8
0
  6
CONTINUOUS
 62
     8
 10
111.3356505882
 20
264.2900454568
 30
0.0
  0
VERTEX
  5
346
  8
0
  6
CONTINUOUS
 62
     8
 10
111.4568798268
 20
264.2253767846
 30
0.0
  0
VERTEX
  5
347
  8
0
  6
CONTINUOUS
 62
     8
 10
111.5951892673
 20
264.1773236261
 30
0.0
  0
VERTEX
  5
348
  8
0
  6
CONTINUOUS
 62
     8
 10
111.7452637556
 20
264.1477326372
 30
0.0
  0
VERTEX
  5
349
  8
0
  6
CONTINUOUS
 62
     8
 10
111.9013360132
 20
264.137740983
 30
0.0
  0
SEQEND
  5
360
  8
0
  6
CONTINUOUS
 62
     8
  0
LINE
  5
1F5
  8
0
  6
CONTINUOUS
 62
     8
 10
189.5513360132
 20
310.8958851933
 30
0.0
 11
189.1513360132
 21
310.8958851933
 31
0.0
  0
LINE
  5
1F6
  8
0
  6
CONTINUOUS
 62
     8
 10
189.1513360132
 20
310.8958851933
 30
0.0
 11
189.1513360132
 21
311.2958851933
 31
0.0
  0
LINE
  5
1F7
  8
0
  6
CONTINUOUS
 62
     8
 10
184.6513360132
 20
311.2958851933
 30
0.0
 11
184.6513360132
 21
310.8958851933
 31
0.0
  0
LINE
  5
1F8
  8
0
  6
CONTINUOUS
 62
     8
 10
184.6513360132
 20
310.8958851933
 30
0.0
 11
184.2513360132
 21
310.8958851933
 31
0.0
  0
LINE
  5
1F9
  8
0
  6
CONTINUOUS
 62
     8
 10
189.1513360132
 20
310.8958851933
 30
0.0
 11
184.6513360132
 21
310.8958851933
 31
0.0
  0
LINE
  5
1FA
  8
0
  6
CONTINUOUS
 62
     8
 10
189.1513360132
 20
288.1172329073
 30
0.0
 11
189.1513360132
 21
310.8958851933
 31
0.0
  0
ARC
  5
1FB
  8
0
  6
CONTINUOUS
 62
     8
 10
186.9013360132
 20
269.5530873573
 30
0.0
 40
18.69999999999997
 50
83.0893795767
 51
96.9106204233
  0
LINE
  5
1FC
  8
0
  6
CONTINUOUS
 62
     8
 10
184.6513360132
 20
310.8958851933
 30
0.0
 11
184.6513360132
 21
288.1172329073
 31
0.0
  0
LINE
  5
1FD
  8
0
  6
CONTINUOUS
 62
     8
 10
184.2513360132
 20
288.1172329073
 30
0.0
 11
184.6513360132
 21
288.1172329073
 31
0.0
  0
LINE
  5
1FE
  8
0
  6
CONTINUOUS
 62
     8
 10
189.1513360132
 20
288.1172329073
 30
0.0
 11
189.5513360132
 21
288.1172329073
 31
0.0
  0
LINE
  5
1FF
  8
0
  6
CONTINUOUS
 62
     8
 10
184.6513360132
 20
288.1172329073
 30
0.0
 11
184.6994643554
 21
287.7201388848
 31
0.0
  0
LINE
  5
200
  8
0
  6
CONTINUOUS
 62
     8
 10
189.1032076709
 20
287.7201388848
 30
0.0
 11
189.1513360132
 21
288.1172329073
 31
0.0
  0
ARC
  5
201
  8
0
  6
CONTINUOUS
 62
     8
 10
186.9013360132
 20
269.337740983
 30
0.0
 40
28.2
 50
290.7695397346
 51
327.8650719959
  0
ARC
  5
202
  8
0
  6
CONTINUOUS
 62
     8
 10
186.9013360132
 20
269.337740983
 30
0.0
 40
28.2
 50
32.1349280041
 51
84.6078661677
  0
ARC
  5
203
  8
0
  6
CONTINUOUS
 62
     8
 10
186.9013360132
 20
269.337740983
 30
0.0
 40
28.20000000000002
 50
95.3921338323
 51
147.8650719959
  0
ARC
  5
204
  8
0
  6
CONTINUOUS
 62
     8
 10
186.9013360132
 20
269.337740983
 30
0.0
 40
28.20000000000004
 50
212.1349280041
 51
249.2304602654
  0
ENDSEC
  0
EOF
