  0
SECTION
  2
HEADER
  9
$ACADVER
  1
AC1015
  9
$ACADMAINTVER
 70
     6
  9
$DWGCODEPAGE
  3
ANSI_1252
  9
$INSBASE
 10
0.0
 20
0.0
 30
0.0
  9
$EXTMIN
 10
0.0
 20
0.0
 30
0.0
  9
$EXTMAX
 10
594.0
 20
841.0
 30
0.0
  9
$LIMMIN
 10
0.0
 20
0.0
  9
$LIMMAX
 10
594.0
 20
841.0
  9
$ORTHOMODE
 70
     0
  9
$REGENMODE
 70
     1
  9
$FILLMODE
 70
     1
  9
$QTEXTMODE
 70
     0
  9
$MIRRTEXT
 70
     1
  9
$LTSCALE
 40
1.0
  9
$ATTMODE
 70
     1
  9
$TEXTSIZE
 40
10.0
  9
$TRACEWID
 40
1.0
  9
$TEXTSTYLE
  7
Standard
  9
$CLAYER
  8
0
  9
$CELTYPE
  6
ByLayer
  9
$CECOLOR
 62
   256
  9
$CELTSCALE
 40
1.0
  9
$DISPSILH
 70
     0
  9
$DIMSCALE
 40
1.0
  9
$DIMASZ
 40
2.5
  9
$DIMEXO
 40
0.0
  9
$DIMDLI
 40
3.75
  9
$DIMRND
 40
0.0
  9
$DIMDLE
 40
0.0
  9
$DIMEXE
 40
1.0
  9
$DIMTP
 40
0.0
  9
$DIMTM
 40
0.0
  9
$DIMTXT
 40
3.5
  9
$DIMCEN
 40
2.5
  9
$DIMTSZ
 40
0.0
  9
$DIMTOL
 70
     0
  9
$DIMLIM
 70
     0
  9
$DIMTIH
 70
     1
  9
$DIMTOH
 70
     1
  9
$DIMSE1
 70
     0
  9
$DIMSE2
 70
     0
  9
$DIMTAD
 70
     1
  9
$DIMZIN
 70
     0
  9
$DIMBLK
  1

  9
$DIMASO
 70
     1
  9
$DIMSHO
 70
     1
  9
$DIMPOST
  1

  9
$DIMAPOST
  1

  9
$DIMALT
 70
     0
  9
$DIMALTD
 70
     3
  9
$DIMALTF
 40
0.0393700787
  9
$DIMLFAC
 40
1.0
  9
$DIMTOFL
 70
     1
  9
$DIMTVP
 40
0.0
  9
$DIMTIX
 70
     0
  9
$DIMSOXD
 70
     0
  9
$DIMSAH
 70
     0
  9
$DIMBLK1
  1

  9
$DIMBLK2
  1

  9
$DIMSTYLE
  2
ISO-25
  9
$DIMCLRD
 70
     0
  9
$DIMCLRE
 70
     0
  9
$DIMCLRT
 70
     0
  9
$DIMTFAC
 40
1.0
  9
$DIMGAP
 40
1.5
  9
$DIMJUST
 70
     0
  9
$DIMSD1
 70
     0
  9
$DIMSD2
 70
     0
  9
$DIMTOLJ
 70
     0
  9
$DIMTZIN
 70
     0
  9
$DIMALTZ
 70
     0
  9
$DIMALTTZ
 70
     0
  9
$DIMUPT
 70
     0
  9
$DIMDEC
 70
     2
  9
$DIMTDEC
 70
     2
  9
$DIMALTU
 70
     2
  9
$DIMALTTD
 70
     3
  9
$DIMTXSTY
  7
Standard
  9
$DIMAUNIT
 70
     0
  9
$DIMADEC
 70
     2
  9
$DIMALTRND
 40
0.0
  9
$DIMAZIN
 70
     0
  9
$DIMDSEP
 70
    44
  9
$DIMATFIT
 70
     3
  9
$DIMFRAC
 70
     0
  9
$DIMLDRBLK
  1

  9
$DIMLUNIT
 70
     2
  9
$DIMLWD
 70
    -2
  9
$DIMLWE
 70
    -2
  9
$DIMTMOVE
 70
     0
  9
$LUNITS
 70
     2
  9
$LUPREC
 70
     2
  9
$SKETCHINC
 40
1.0
  9
$FILLETRAD
 40
10.0
  9
$AUNITS
 70
     0
  9
$AUPREC
 70
     2
  9
$MENU
  1
.
  9
$ELEVATION
 40
0.0
  9
$PELEVATION
 40
0.0
  9
$THICKNESS
 40
0.0
  9
$LIMCHECK
 70
     0
  9
$CHAMFERA
 40
0.0
  9
$CHAMFERB
 40
0.0
  9
$CHAMFERC
 40
0.0
  9
$CHAMFERD
 40
0.0
  9
$SKPOLY
 70
     0
  9
$TDCREATE
 40
2459535.484523414
  9
$TDUCREATE
 40
2459535.442856748
  9
$TDUPDATE
 40
2459535.484524317
  9
$TDUUPDATE
 40
2459535.442857651
  9
$TDINDWG
 40
0.0000000116
  9
$TDUSRTIMER
 40
0.0000000116
  9
$USRTIMER
 70
     1
  9
$ANGBASE
 50
0.0
  9
$ANGDIR
 70
     0
  9
$PDMODE
 70
     0
  9
$PDSIZE
 40
-1.0
  9
$PLINEWID
 40
0.0
  9
$SPLFRAME
 70
     0
  9
$SPLINETYPE
 70
     6
  9
$SPLINESEGS
 70
     8
  9
$HANDSEED
  5
1A7
  9
$SURFTAB1
 70
     6
  9
$SURFTAB2
 70
     6
  9
$SURFTYPE
 70
     6
  9
$SURFU
 70
     6
  9
$SURFV
 70
     6
  9
$UCSBASE
  2

  9
$UCSNAME
  2

  9
$UCSORG
 10
0.0
 20
0.0
 30
0.0
  9
$UCSXDIR
 10
1.0
 20
0.0
 30
0.0
  9
$UCSYDIR
 10
0.0
 20
1.0
 30
0.0
  9
$UCSORTHOREF
  2

  9
$UCSORTHOVIEW
 70
     0
  9
$UCSORGTOP
 10
0.0
 20
0.0
 30
0.0
  9
$UCSORGBOTTOM
 10
0.0
 20
0.0
 30
0.0
  9
$UCSORGLEFT
 10
0.0
 20
0.0
 30
0.0
  9
$UCSORGRIGHT
 10
0.0
 20
0.0
 30
0.0
  9
$UCSORGFRONT
 10
0.0
 20
0.0
 30
0.0
  9
$UCSORGBACK
 10
0.0
 20
0.0
 30
0.0
  9
$PUCSBASE
  2

  9
$PUCSNAME
  2

  9
$PUCSORG
 10
0.0
 20
0.0
 30
0.0
  9
$PUCSXDIR
 10
1.0
 20
0.0
 30
0.0
  9
$PUCSYDIR
 10
0.0
 20
1.0
 30
0.0
  9
$PUCSORTHOREF
  2

  9
$PUCSORTHOVIEW
 70
     0
  9
$PUCSORGTOP
 10
0.0
 20
0.0
 30
0.0
  9
$PUCSORGBOTTOM
 10
0.0
 20
0.0
 30
0.0
  9
$PUCSORGLEFT
 10
0.0
 20
0.0
 30
0.0
  9
$PUCSORGRIGHT
 10
0.0
 20
0.0
 30
0.0
  9
$PUCSORGFRONT
 10
0.0
 20
0.0
 30
0.0
  9
$PUCSORGBACK
 10
0.0
 20
0.0
 30
0.0
  9
$USERI1
 70
     0
  9
$USERI2
 70
     0
  9
$USERI3
 70
     0
  9
$USERI4
 70
     0
  9
$USERI5
 70
     0
  9
$USERR1
 40
0.0
  9
$USERR2
 40
0.0
  9
$USERR3
 40
0.0
  9
$USERR4
 40
0.0
  9
$USERR5
 40
0.0
  9
$WORLDVIEW
 70
     1
  9
$SHADEDGE
 70
     3
  9
$SHADEDIF
 70
    70
  9
$TILEMODE
 70
     1
  9
$MAXACTVP
 70
    64
  9
$PINSBASE
 10
0.0
 20
0.0
 30
0.0
  9
$PLIMCHECK
 70
     0
  9
$PEXTMIN
 10
1.0000000000E+20
 20
1.0000000000E+20
 30
1.0000000000E+20
  9
$PEXTMAX
 10
-1.0000000000E+20
 20
-1.0000000000E+20
 30
-1.0000000000E+20
  9
$PLIMMIN
 10
0.0
 20
0.0
  9
$PLIMMAX
 10
420.0
 20
297.0
  9
$UNITMODE
 70
     0
  9
$VISRETAIN
 70
     1
  9
$PLINEGEN
 70
     0
  9
$PSLTSCALE
 70
     1
  9
$TREEDEPTH
 70
  3020
  9
$CMLSTYLE
  2
Standard
  9
$CMLJUST
 70
     0
  9
$CMLSCALE
 40
20.0
  9
$PROXYGRAPHICS
 70
     1
  9
$MEASUREMENT
 70
     1
  9
$CELWEIGHT
370
    -1
  9
$ENDCAPS
280
     0
  9
$JOINSTYLE
280
     0
  9
$LWDISPLAY
290
     1
  9
$INSUNITS
 70
     4
  9
$HYPERLINKBASE
  1

  9
$STYLESHEET
  1

  9
$XEDIT
290
     1
  9
$CEPSNTYPE
380
     0
  9
$PSTYLEMODE
290
     1
  9
$FINGERPRINTGUID
  2
{ec5c4fca-ede9-44f8-afbb-c27b5c411cf4}
  9
$VERSIONGUID
  2
{FAEB1C32-E019-11D5-929B-00C0DF256EC4}
  9
$EXTNAMES
290
     1
  9
$PSVPSCALE
 40
0.0
  9
$OLESTARTUP
290
     0
  0
ENDSEC
  0
SECTION
  2
CLASSES
  0
CLASS
  1
ACDBDICTIONARYWDFLT
  2
AcDbDictionaryWithDefault
  3
ObjectDBX Classes
 90
        0
280
     0
281
     0
  0
CLASS
  1
VISUALSTYLE
  2
AcDbVisualStyle
  3
ObjectDBX Classes
 90
     4095
280
     0
281
     0
  0
CLASS
  1
MATERIAL
  2
AcDbMaterial
  3
ObjectDBX Classes
 90
     1153
280
     0
281
     0
  0
CLASS
  1
SCALE
  2
AcDbScale
  3
ObjectDBX Classes
 90
     1153
280
     0
281
     0
  0
CLASS
  1
TABLESTYLE
  2
AcDbTableStyle
  3
ObjectDBX Classes
 90
     4095
280
     0
281
     0
  0
CLASS
  1
MLEADERSTYLE
  2
AcDbMLeaderStyle
  3
ACDB_MLEADERSTYLE_CLASS
 90
     4095
280
     0
281
     0
  0
CLASS
  1
SUN
  2
AcDbSun
  3
SCENEOE
 90
     1153
280
     0
281
     0
  0
CLASS
  1
ACDBPLACEHOLDER
  2
AcDbPlaceHolder
  3
ObjectDBX Classes
 90
        0
280
     0
281
     0
  0
CLASS
  1
LAYOUT
  2
AcDbLayout
  3
ObjectDBX Classes
 90
        0
280
     0
281
     0
  0
ENDSEC
  0
SECTION
  2
TABLES
  0
TABLE
  2
VPORT
  5
8
330
0
100
AcDbSymbolTable
 70
     1
  0
VPORT
  5
29
330
8
100
AcDbSymbolTableRecord
100
AcDbViewportTableRecord
  2
*Active
 70
     0
 10
0.0
 20
0.0
 11
1.0
 21
1.0
 12
297.0
 22
420.5
 13
0.0
 23
0.0
 14
10.0
 24
10.0
 15
10.0
 25
10.0
 16
0.0
 26
0.0
 36
1.0
 17
0.0
 27
0.0
 37
0.0
 40
841.0
 41
0.7063020214
 42
50.0
 43
0.0
 44
0.0
 50
0.0
 51
0.0
 71
     0
 72
  2000
 73
     1
 74
     3
 75
     0
 76
     0
 77
     0
 78
     0
281
     0
 65
     1
110
0.0
120
0.0
130
0.0
111
1.0
121
0.0
131
0.0
112
0.0
122
1.0
132
0.0
 79
     0
146
0.0
  0
ENDTAB
  0
TABLE
  2
LTYPE
  5
5
330
0
100
AcDbSymbolTable
 70
     6
  0
LTYPE
  5
14
330
5
100
AcDbSymbolTableRecord
100
AcDbLinetypeTableRecord
  2
ByBlock
 70
     0
  3

 72
    65
 73
     0
 40
0.0
  0
LTYPE
  5
15
330
5
100
AcDbSymbolTableRecord
100
AcDbLinetypeTableRecord
  2
ByLayer
 70
     0
  3

 72
    65
 73
     0
 40
0.0
  0
LTYPE
  5
16
330
5
100
AcDbSymbolTableRecord
100
AcDbLinetypeTableRecord
  2
Continuous
 70
     0
  3
Solid line
 72
    65
 73
     0
 40
0.0
  0
LTYPE
  5
6E
330
5
100
AcDbSymbolTableRecord
100
AcDbLinetypeTableRecord
  2
HIDDEN
 70
     0
  3
Hidden __ __ __ __ __ __ __ __ __ __ __ __ __ __
 72
    65
 73
     2
 40
1.905
 49
1.27
 74
     0
 49
-0.635
 74
     0
  0
LTYPE
  5
6F
330
5
100
AcDbSymbolTableRecord
100
AcDbLinetypeTableRecord
  2
PHANTOM
 70
     0
  3
Phantom ______  __  __  ______  __  __  ______
 72
    65
 73
     6
 40
12.7
 49
6.35
 74
     0
 49
-1.27
 74
     0
 49
1.27
 74
     0
 49
-1.27
 74
     0
 49
1.27
 74
     0
 49
-1.27
 74
     0
  0
LTYPE
  5
70
330
5
100
AcDbSymbolTableRecord
100
AcDbLinetypeTableRecord
  2
CENTER
 70
     0
  3
Center ____ _ ____ _ ____ _ ____ _ ____ _ ____
 72
    65
 73
     4
 40
10.16
 49
6.35
 74
     0
 49
-1.27
 74
     0
 49
1.27
 74
     0
 49
-1.27
 74
     0
  0
LTYPE
  5
71
330
5
100
AcDbSymbolTableRecord
100
AcDbLinetypeTableRecord
  2
CENTERX2
 70
     0
  3
Center (2x) ________  __  ________  __  _____
 72
    65
 73
     4
 40
20.32
 49
12.7
 74
     0
 49
-2.54
 74
     0
 49
2.54
 74
     0
 49
-2.54
 74
     0
  0
LTYPE
  5
72
330
5
100
AcDbSymbolTableRecord
100
AcDbLinetypeTableRecord
  2
DOT2
 70
     0
  3
Dot (.5x) ........................................
 72
    65
 73
     2
 40
0.635
 49
0.0
 74
     0
 49
-0.635
 74
     0
  0
ENDTAB
  0
TABLE
  2
LAYER
  5
2
330
0
100
AcDbSymbolTable
 70
     1
  0
LAYER
  5
10
330
2
100
AcDbSymbolTableRecord
100
AcDbLayerTableRecord
  2
0
 70
     0
 62
     7
  6
Continuous
370
    -3
390
F
  0
ENDTAB
  0
TABLE
  2
STYLE
  5
3
330
0
100
AcDbSymbolTable
 70
     3
  0
STYLE
  5
11
330
3
100
AcDbSymbolTableRecord
100
AcDbTextStyleTableRecord
  2
Standard
 70
     0
 40
0.0
 41
1.0
 50
0.0
 71
     0
 42
10.0
  3
txt
  4

  0
STYLE
  5
76
330
3
100
AcDbSymbolTableRecord
100
AcDbTextStyleTableRecord
  2
SLDTEXTSTYLE0
 70
     0
 40
0.0
 41
0.96
 50
0.0
 71
     0
 42
10.0
  3
ISOCP3
  4

  0
STYLE
  5
8D
330
3
100
AcDbSymbolTableRecord
100
AcDbTextStyleTableRecord
  2
SLDTEXTSTYLE1
 70
     0
 40
0.0
 41
0.605
 50
0.0
 71
     0
 42
10.0
  3
TXT
  4

  0
ENDTAB
  0
TABLE
  2
VIEW
  5
6
330
0
100
AcDbSymbolTable
 70
     0
  0
ENDTAB
  0
TABLE
  2
UCS
  5
7
330
0
100
AcDbSymbolTable
 70
     0
  0
ENDTAB
  0
TABLE
  2
APPID
  5
9
330
0
100
AcDbSymbolTable
 70
     1
  0
APPID
  5
12
330
9
100
AcDbSymbolTableRecord
100
AcDbRegAppTableRecord
  2
ACAD
 70
     0
  0
ENDTAB
  0
TABLE
  2
DIMSTYLE
  5
A
330
0
100
AcDbSymbolTable
 70
     2
100
AcDbDimStyleTable
  0
DIMSTYLE
105
27
330
A
100
AcDbSymbolTableRecord
100
AcDbDimStyleTableRecord
  2
ISO-25
 70
     0
 41
2.5
 42
0.625
 43
3.75
 44
1.25
 73
     0
 74
     0
 77
     1
 78
     8
140
2.5
141
2.5
143
0.0393700787
147
0.625
171
     3
172
     1
178
     0
271
     2
272
     2
274
     3
278
    44
283
     0
284
     8
340
11
  0
DIMSTYLE
105
77
102
{ACAD_REACTORS
330
75
330
82
102
}
330
A
100
AcDbSymbolTableRecord
100
AcDbDimStyleTableRecord
  2
SLDDIMSTYLE0
 70
     0
 41
2.5
 44
0.0
 45
0.000000001
 73
     0
 74
     0
 77
     1
 78
    12
 79
     3
140
6.0
147
1.5
173
     1
178
     0
271
     2
272
     2
276
     2
284
    12
340
76
  0
ENDTAB
  0
TABLE
  2
BLOCK_RECORD
  5
1
330
0
100
AcDbSymbolTable
 70
     3
  0
BLOCK_RECORD
  5
1F
330
1
100
AcDbSymbolTableRecord
100
AcDbBlockTableRecord
  2
*Model_Space
340
22
  0
BLOCK_RECORD
  5
1B
330
1
100
AcDbSymbolTableRecord
100
AcDbBlockTableRecord
  2
*Paper_Space
340
1E
  0
BLOCK_RECORD
  5
23
330
1
100
AcDbSymbolTableRecord
100
AcDbBlockTableRecord
  2
*Paper_Space0
340
26
  0
BLOCK_RECORD
  5
78
330
1
100
AcDbSymbolTableRecord
100
AcDbBlockTableRecord
  2
_D
340
0
  0
BLOCK_RECORD
  5
83
330
1
100
AcDbSymbolTableRecord
100
AcDbBlockTableRecord
  2
_D_1
340
0
  0
ENDTAB
  0
ENDSEC
  0
SECTION
  2
BLOCKS
  0
BLOCK
  5
20
330
1F
100
AcDbEntity
  8
0
100
AcDbBlockBegin
  2
*Model_Space
 70
     0
 10
0.0
 20
0.0
 30
0.0
  3
*Model_Space
  1

  0
ENDBLK
  5
21
330
1F
100
AcDbEntity
  8
0
100
AcDbBlockEnd
  0
BLOCK
  5
1C
330
1B
100
AcDbEntity
 67
     1
  8
0
100
AcDbBlockBegin
  2
*Paper_Space
 70
     0
 10
0.0
 20
0.0
 30
0.0
  3
*Paper_Space
  1

  0
ENDBLK
  5
1D
330
1B
100
AcDbEntity
 67
     1
  8
0
100
AcDbBlockEnd
  0
BLOCK
  5
24
330
23
100
AcDbEntity
  8
0
100
AcDbBlockBegin
  2
*Paper_Space0
 70
     0
 10
0.0
 20
0.0
 30
0.0
  3
*Paper_Space0
  1

  0
ENDBLK
  5
25
330
23
100
AcDbEntity
  8
0
100
AcDbBlockEnd
  0
BLOCK
  5
79
330
78
100
AcDbEntity
  8
0
100
AcDbBlockBegin
  2
_D
 70
     0
 10
0.0
 20
0.0
 30
0.0
  3
_D
  1

  0
SOLID
  5
7B
330
78
100
AcDbEntity
  8
0
  6
Continuous
 62
     7
370
    18
100
AcDbTrace
 10
42.7614395004
 20
152.0299240879
 30
0.0
 11
42.4614395004
 21
149.5299240879
 31
0.0
 12
43.0614395004
 22
149.5299240879
 32
0.0
 13
43.0614395004
 23
149.5299240879
 33
0.0
  0
SOLID
  5
7C
330
78
100
AcDbEntity
  8
0
  6
Continuous
 62
     7
370
    18
100
AcDbTrace
 10
42.7614395004
 20
52.0299240879
 30
0.0
 11
43.0614395004
 21
54.5299240879
 31
0.0
 12
42.4614395004
 22
54.5299240879
 32
0.0
 13
42.4614395004
 23
54.5299240879
 33
0.0
  0
LINE
  5
7D
330
78
100
AcDbEntity
  8
0
  6
Continuous
 62
     7
370
     0
100
AcDbLine
 10
56.6850079902
 20
152.0299240879
 30
0.0
 11
41.7614395004
 21
152.0299240879
 31
0.0
  0
LINE
  5
7E
330
78
100
AcDbEntity
  8
0
  6
Continuous
 62
     7
370
     0
100
AcDbLine
 10
56.6850079902
 20
52.0299240879
 30
0.0
 11
41.7614395004
 21
52.0299240879
 31
0.0
  0
LINE
  5
7F
330
78
100
AcDbEntity
  8
0
  6
Continuous
 62
     7
370
     0
100
AcDbLine
 10
42.7614395004
 20
152.0299240879
 30
0.0
 11
42.7614395004
 21
52.0299240879
 31
0.0
  0
MTEXT
  5
80
330
78
100
AcDbEntity
  8
0
  6
Continuous
 62
     7
370
    18
100
AcDbMText
 10
35.0270332946
 20
94.3680541463
 30
0.0
 40
6.0
 41
0.0
 71
     1
 72
     1
  1
100
  7
SLDTEXTSTYLE0
 11
-7.044195017643634E-15
 21
1.0
 31
0.0
 73
     1
 44
1.0
  0
MTEXT
  5
81
330
78
100
AcDbEntity
  8
0
  6
Continuous
 62
     7
370
    18
100
AcDbMText
 10
35.0270332946
 20
105.7430548466
 30
0.0
 40
6.0
 41
0.0
 71
     1
 72
     1
  1
mm
  7
SLDTEXTSTYLE0
 11
-7.044195017643634E-15
 21
1.0
 31
0.0
 73
     1
 44
1.0
  0
ENDBLK
  5
7A
330
78
100
AcDbEntity
  8
0
100
AcDbBlockEnd
  0
BLOCK
  5
84
330
83
100
AcDbEntity
  8
0
100
AcDbBlockBegin
  2
_D_1
 70
     0
 10
0.0
 20
0.0
 30
0.0
  3
_D_1
  1

  0
SOLID
  5
86
330
83
100
AcDbEntity
  8
0
  6
Continuous
 62
     7
370
    18
100
AcDbTrace
 10
56.6850079902
 20
38.4602342313
 30
0.0
 11
59.1850079902
 21
38.1602342313
 31
0.0
 12
59.1850079902
 22
38.7602342313
 32
0.0
 13
59.1850079902
 23
38.7602342313
 33
0.0
  0
SOLID
  5
87
330
83
100
AcDbEntity
  8
0
  6
Continuous
 62
     7
370
    18
100
AcDbTrace
 10
156.6850079902
 20
38.4602342313
 30
0.0
 11
154.1850079902
 21
38.7602342313
 31
0.0
 12
154.1850079902
 22
38.1602342313
 32
0.0
 13
154.1850079902
 23
38.1602342313
 33
0.0
  0
LINE
  5
88
330
83
100
AcDbEntity
  8
0
  6
Continuous
 62
     7
370
     0
100
AcDbLine
 10
56.6850079902
 20
52.0299240879
 30
0.0
 11
56.6850079902
 21
37.4602342313
 31
0.0
  0
LINE
  5
89
330
83
100
AcDbEntity
  8
0
  6
Continuous
 62
     7
370
     0
100
AcDbLine
 10
156.6850079902
 20
52.0299240879
 30
0.0
 11
156.6850079902
 21
37.4602342313
 31
0.0
  0
LINE
  5
8A
330
83
100
AcDbEntity
  8
0
  6
Continuous
 62
     7
370
     0
100
AcDbLine
 10
56.6850079902
 20
38.4602342313
 30
0.0
 11
156.6850079902
 21
38.4602342313
 31
0.0
  0
MTEXT
  5
8B
330
83
100
AcDbEntity
  8
0
  6
Continuous
 62
     7
370
    18
100
AcDbMText
 10
93.9626484861
 20
46.1946404371
 30
0.0
 40
6.0
 41
0.0
 71
     1
 72
     1
  1
100
  7
SLDTEXTSTYLE0
 73
     1
 44
1.0
  0
MTEXT
  5
8C
330
83
100
AcDbEntity
  8
0
  6
Continuous
 62
     7
370
    18
100
AcDbMText
 10
105.3376491864
 20
46.1946404371
 30
0.0
 40
6.0
 41
0.0
 71
     1
 72
     1
  1
mm
  7
SLDTEXTSTYLE0
 73
     1
 44
1.0
  0
ENDBLK
  5
85
330
83
100
AcDbEntity
  8
0
100
AcDbBlockEnd
  0
ENDSEC
  0
SECTION
  2
ENTITIES
  0
LINE
  5
73
330
1F
100
AcDbEntity
  8
0
  6
Continuous
 62
     7
370
    18
100
AcDbLine
 10
56.6850079902
 20
152.0299240879
 30
0.0
 11
56.6850079902
 21
52.0299240879
 31
0.0
  0
LINE
  5
74
330
1F
100
AcDbEntity
  8
0
  6
Continuous
 62
     7
370
    18
100
AcDbLine
 10
56.6850079902
 20
52.0299240879
 30
0.0
 11
156.6850079902
 21
52.0299240879
 31
0.0
  0
DIMENSION
  5
75
330
1F
100
AcDbEntity
  8
0
  6
Continuous
 62
     7
370
    18
100
AcDbDimension
  2
_D
 10
42.7614395004
 20
52.0299240879
 30
0.0
 11
42.7614395004
 21
105.4472211621
 31
0.0
 70
   160
  1
<>mm
 71
     2
 42
-1.0
  3
SLDDIMSTYLE0
100
AcDbAlignedDimension
 13
56.6850079902
 23
152.0299240879
 33
0.0
 14
56.6850079902
 24
52.0299240879
 34
0.0
 50
90.0
100
AcDbRotatedDimension
  0
DIMENSION
  5
82
330
1F
100
AcDbEntity
  8
0
  6
Continuous
 62
     7
370
    18
100
AcDbDimension
  2
_D_1
 10
156.6850079902
 20
38.4602342313
 30
0.0
 11
105.0418155019
 21
38.4602342313
 31
0.0
 70
   160
  1
<>mm
 71
     2
 42
-1.0
  3
SLDDIMSTYLE0
100
AcDbAlignedDimension
 13
56.6850079902
 23
52.0299240879
 33
0.0
 14
156.6850079902
 24
52.0299240879
 34
0.0
100
AcDbRotatedDimension
  0
MTEXT
  5
8E
330
1F
100
AcDbEntity
  8
0
  6
Continuous
 62
     7
370
     0
100
AcDbMText
 10
412.8252631579
 20
48.4342449499
 30
0.0
 40
10.0
 41
0.0
 71
     1
 72
     1
  1
KLUDI GmbH & Co KG
  7
SLDTEXTSTYLE1
 73
     1
 44
1.0
  0
MTEXT
  5
8F
330
1F
100
AcDbEntity
  8
0
  6
Continuous
 62
     7
370
     0
100
AcDbMText
 10
210.0873490389
 20
48.4342449499
 30
0.0
 40
10.0
 41
0.0
 71
     1
 72
     1
  1
42 230 .. 75
  7
SLDTEXTSTYLE1
 73
     1
 44
1.0
  0
LINE
  5
90
330
1F
100
AcDbEntity
  8
0
  6
Continuous
 62
     7
370
    25
100
AcDbLine
 10
133.6463524023
 20
711.6355971576
 30
0.0
 11
133.6463524023
 21
704.2030196937
 31
0.0
  0
LINE
  5
91
330
1F
100
AcDbEntity
  8
0
  6
Continuous
 62
     7
370
    25
100
AcDbLine
 10
152.3463524023
 20
704.2030196937
 30
0.0
 11
152.3463524023
 21
711.57975463
 31
0.0
  0
LINE
  5
92
330
1F
100
AcDbEntity
  8
0
  6
Continuous
 62
     7
370
    25
100
AcDbLine
 10
131.4963524023
 20
718.3530196937
 30
0.0
 11
131.4963524023
 21
668.3530196937
 31
0.0
  0
LINE
  5
93
330
1F
100
AcDbEntity
  8
0
  6
Continuous
 62
     7
370
    25
100
AcDbLine
 10
154.4963524023
 20
668.3530196937
 30
0.0
 11
154.4963524023
 21
718.3530196937
 31
0.0
  0
SPLINE
  5
94
330
1F
100
AcDbEntity
  8
0
  6
Continuous
 62
     7
370
    25
100
AcDbSpline
210
0.0
220
0.0
230
1.0
 70
     8
 71
     3
 72
    24
 73
    20
 74
     0
 42
0.00000001
 43
0.00000001
 40
0.0
 40
0.0
 40
0.0
 40
0.0
 40
0.0387662754008243
 40
0.1009872137852932
 40
0.1632253883324696
 40
0.2255466050048601
 40
0.2880507038758078
 40
0.3507940758460367
 40
0.4137889623928111
 40
0.4770135529554534
 40
0.5404243586527226
 40
0.6039612040299299
 40
0.6675363560125562
 40
0.7310668179228756
 40
0.794461588780268
 40
0.8576364768136091
 40
0.9205368703664646
 40
0.983159075693754
 40
0.9999999999999999
 40
0.9999999999999999
 40
0.9999999999999999
 40
0.9999999999999999
 10
242.1342259647483
 20
545.4855724534449
 30
0.0
 10
242.1220679088643
 20
545.8037520604604
 30
0.0
 10
242.0903958388479
 20
546.6326186890843
 30
0.0
 10
241.7695680934136
 20
547.9474127273265
 30
0.0
 10
241.1208902138553
 20
549.3534334579338
 30
0.0
 10
240.1939948552896
 20
550.6095966474893
 30
0.0
 10
239.0298403437911
 20
551.6689132309168
 30
0.0
 10
237.669770450701
 20
552.4916020074336
 30
0.0
 10
236.1646943817398
 20
553.0454629241117
 30
0.0
 10
234.5712746376222
 20
553.3075341986146
 30
0.0
 10
232.9508239538365
 20
553.2654667693294
 30
0.0
 10
231.3669607018641
 20
552.9186043686828
 30
0.0
 10
229.8829745282824
 20
552.2786500499748
 30
0.0
 10
228.5588981278896
 20
551.3697149032654
 30
0.0
 10
227.4489248319714
 20
550.2277367559369
 30
0.0
 10
226.5971183642907
 20
548.8989377497402
 30
0.0
 10
226.0404195570817
 20
547.4384125932139
 30
0.0
 10
225.8479659125458
 20
546.2756082217289
 30
0.0
 10
225.8366287028612
 20
545.6237279311075
 30
0.0
 10
225.8342259647483
 20
545.4855724534449
 30
0.0
  0
ARC
  5
95
330
1F
100
AcDbEntity
  8
0
  6
Continuous
 62
     7
370
    25
100
AcDbCircle
 10
176.9963524023
 20
496.4530196937
 30
0.0
 40
7.000000000000011
100
AcDbArc
 50
180.0667159543
 51
269.8617957819
  0
SPLINE
  5
96
330
1F
100
AcDbEntity
  8
0
  6
Continuous
 62
     7
370
    25
100
AcDbSpline
210
0.0
220
0.0
230
1.0
 70
     8
 71
     3
 72
    16
 73
    12
 74
     0
 42
0.00000001
 43
0.00000001
 40
0.0
 40
0.0
 40
0.0
 40
0.0
 40
0.1013943844241171
 40
0.22431743379046
 40
0.3513753863182307
 40
0.4804152877856179
 40
0.6202285635948173
 40
0.7483710896011747
 40
0.8668589595778156
 40
0.977113017808975
 40
1.0
 40
1.0
 40
1.0
 40
1.0
 10
170.0072404299946
 20
432.5119641469462
 30
0.0
 10
170.0229964620816
 20
432.8801741989074
 30
0.0
 10
170.0578539416604
 20
433.6947748734997
 30
0.0
 10
170.4068883615956
 20
434.9326876347188
 30
0.0
 10
171.0116598655278
 20
436.1744436320238
 30
0.0
 10
171.8942629531754
 20
437.320130622106
 30
0.0
 10
172.9984581365756
 20
438.2601178274861
 30
0.0
 10
174.2384956273384
 20
438.93696654692
 30
0.0
 10
175.4794856232937
 20
439.3137792201469
 30
0.0
 10
176.3897884020562
 20
439.466181822086
 30
0.0
 10
176.8722622982585
 20
439.4416858596592
 30
0.0
 10
176.9551996963365
 20
439.4374749968476
 30
0.0
  0
ARC
  5
97
330
1F
100
AcDbEntity
  8
0
  6
Continuous
 62
     7
370
    25
100
AcDbCircle
 10
116.2963524023
 20
389.7530196937
 30
0.0
 40
0.3000000000000114
100
AcDbArc
 50
180.0
 51
270.0
  0
ARC
  5
98
330
1F
100
AcDbEntity
  8
0
  6
Continuous
 62
     7
370
    25
100
AcDbCircle
 10
169.6963524023
 20
389.7530196937
 30
0.0
 40
0.3000000000000114
100
AcDbArc
 50
270.0
 51
0.0
  0
ARC
  5
99
330
1F
100
AcDbEntity
  8
0
  6
Continuous
 62
     7
370
    25
100
AcDbCircle
 10
116.1963524023
 20
502.9530196937
 30
0.0
 40
0.2000000000000028
100
AcDbArc
 50
90.0
 51
180.0
  0
ARC
  5
9A
330
1F
100
AcDbEntity
  8
0
  6
Continuous
 62
     7
370
    25
100
AcDbCircle
 10
169.7963524023
 20
502.9530196937
 30
0.0
 40
0.2000000000000171
100
AcDbArc
 50
0.0
 51
90.0
  0
LINE
  5
9B
330
1F
100
AcDbEntity
  8
0
  6
Continuous
 62
     7
370
    25
100
AcDbLine
 10
115.9963524023
 20
502.9530196937
 30
0.0
 11
115.9963524023
 21
389.7530196937
 31
0.0
  0
LINE
  5
9C
330
1F
100
AcDbEntity
  8
0
  6
Continuous
 62
     7
370
    25
100
AcDbLine
 10
169.9963524023
 20
496.4417689126
 30
0.0
 11
169.9963524023
 21
502.9530196937
 31
0.0
  0
LINE
  5
9D
330
1F
100
AcDbEntity
  8
0
  6
Continuous
 62
     7
370
    25
100
AcDbLine
 10
169.9963524023
 20
389.7530196937
 30
0.0
 11
169.9963524023
 21
432.516500963
 31
0.0
  0
LINE
  5
9E
330
1F
100
AcDbEntity
  8
0
  6
Continuous
 62
     7
370
    25
100
AcDbLine
 10
115.9963524023
 20
536.5290867475
 30
0.0
 11
115.9963524023
 21
531.9530196937
 31
0.0
  0
LINE
  5
9F
330
1F
100
AcDbEntity
  8
0
  6
Continuous
 62
     7
370
    25
100
AcDbLine
 10
169.9963524023
 20
531.9530196937
 30
0.0
 11
169.9963524023
 21
536.5290867475
 31
0.0
  0
ARC
  5
A0
330
1F
100
AcDbEntity
  8
0
  6
Continuous
 62
     7
370
    25
100
AcDbCircle
 10
116.1963524023
 20
531.9530196937
 30
0.0
 40
0.2000000000000455
100
AcDbArc
 50
180.0
 51
270.0
  0
ARC
  5
A1
330
1F
100
AcDbEntity
  8
0
  6
Continuous
 62
     7
370
    25
100
AcDbCircle
 10
169.7963524023
 20
531.9530196937
 30
0.0
 40
0.2000000000000455
100
AcDbArc
 50
270.0
 51
0.0
  0
LINE
  5
A2
330
1F
100
AcDbEntity
  8
0
  6
Continuous
 62
     7
370
    25
100
AcDbLine
 10
115.9963524023
 20
531.4530196937
 30
0.0
 11
115.9963524023
 21
503.4530196937
 31
0.0
  0
LINE
  5
A3
330
1F
100
AcDbEntity
  8
0
  6
Continuous
 62
     7
370
    25
100
AcDbLine
 10
169.9963524023
 20
503.4530196937
 30
0.0
 11
169.9963524023
 21
531.4530196937
 31
0.0
  0
ARC
  5
A4
330
1F
100
AcDbEntity
  8
0
  6
Continuous
 62
     7
370
    25
100
AcDbCircle
 10
169.6963524023
 20
536.5290867475
 30
0.0
 40
0.3000000000000528
100
AcDbArc
 50
0.0
 51
89.5
  0
ARC
  5
A5
330
1F
100
AcDbEntity
  8
0
  6
Continuous
 62
     7
370
    25
100
AcDbCircle
 10
116.2963524023
 20
536.5290867475
 30
0.0
 40
0.3000000000000529
100
AcDbArc
 50
90.5
 51
180.0
  0
LINE
  5
A6
330
1F
100
AcDbEntity
  8
0
  6
Continuous
 62
     7
370
    25
100
AcDbLine
 10
169.698970363
 20
536.8290753244
 30
0.0
 11
155.4463524023
 21
536.953456037
 31
0.0
  0
LINE
  5
A7
330
1F
100
AcDbEntity
  8
0
  6
Continuous
 62
     7
370
    25
100
AcDbLine
 10
130.5463524023
 20
536.953456037
 30
0.0
 11
116.2937344417
 21
536.8290753244
 31
0.0
  0
LINE
  5
A8
330
1F
100
AcDbEntity
  8
0
  6
Continuous
 62
     7
370
    25
100
AcDbLine
 10
116.4963524023
 20
531.7530196937
 30
0.0
 11
116.4963524023
 21
531.4530196937
 31
0.0
  0
LINE
  5
A9
330
1F
100
AcDbEntity
  8
0
  6
Continuous
 62
     7
370
    25
100
AcDbLine
 10
169.4963524023
 20
531.4530196937
 30
0.0
 11
169.4963524023
 21
531.7530196937
 31
0.0
  0
LINE
  5
AA
330
1F
100
AcDbEntity
  8
0
  6
Continuous
 62
     7
370
    25
100
AcDbLine
 10
169.4963524023
 20
503.1530196937
 30
0.0
 11
169.4963524023
 21
503.4530196937
 31
0.0
  0
LINE
  5
AB
330
1F
100
AcDbEntity
  8
0
  6
Continuous
 62
     7
370
    25
100
AcDbLine
 10
116.4963524023
 20
503.4530196937
 30
0.0
 11
116.4963524023
 21
503.1530196937
 31
0.0
  0
ARC
  5
AC
330
1F
100
AcDbEntity
  8
0
  6
Continuous
 62
     7
370
    25
100
AcDbCircle
 10
118.4963524023
 20
390.9530196937
 30
0.0
 40
2.000000000000012
100
AcDbArc
 50
228.5903778907
 51
270.0
  0
ARC
  5
AD
330
1F
100
AcDbEntity
  8
0
  6
Continuous
 62
     7
370
    25
100
AcDbCircle
 10
167.4963524023
 20
390.9530196937
 30
0.0
 40
2.000000000000022
100
AcDbArc
 50
270.0
 51
311.4096221093
  0
LINE
  5
AE
330
1F
100
AcDbEntity
  8
0
  6
Continuous
 62
     7
370
    25
100
AcDbLine
 10
118.4963524023
 20
388.9530196937
 30
0.0
 11
167.4963524023
 21
388.9530196937
 31
0.0
  0
ARC
  5
AF
330
1F
100
AcDbEntity
  8
0
  6
Continuous
 62
     7
370
    25
100
AcDbCircle
 10
202.6963524023
 20
439.7530196937
 30
0.0
 40
0.2999999999999829
100
AcDbArc
 50
270.0
 51
0.0
  0
ARC
  5
B0
330
1F
100
AcDbEntity
  8
0
  6
Continuous
 62
     7
370
    25
100
AcDbCircle
 10
202.6963524023
 20
489.1530196937
 30
0.0
 40
0.3000000000000682
100
AcDbArc
 50
0.0
 51
90.0
  0
LINE
  5
B1
330
1F
100
AcDbEntity
  8
0
  6
Continuous
 62
     7
370
    25
100
AcDbLine
 10
176.9570674983
 20
439.4530196937
 30
0.0
 11
202.6963524023
 21
439.4530196937
 31
0.0
  0
LINE
  5
B2
330
1F
100
AcDbEntity
  8
0
  6
Continuous
 62
     7
370
    25
100
AcDbLine
 10
202.6963524023
 20
489.4530196937
 30
0.0
 11
176.9746017359
 21
489.4530196937
 31
0.0
  0
LINE
  5
B3
330
1F
100
AcDbEntity
  8
0
  6
Continuous
 62
     7
370
    25
100
AcDbLine
 10
216.2450153783
 20
439.4530049702
 30
0.0
 11
240.2741810248
 21
439.4530049702
 31
0.0
  0
LINE
  5
B4
330
1F
100
AcDbEntity
  8
0
  6
Continuous
 62
     7
370
    25
100
AcDbLine
 10
221.6810745332
 20
489.4530049702
 30
0.0
 11
219.8360846963
 21
489.4530049702
 31
0.0
  0
LINE
  5
B5
330
1F
100
AcDbEntity
  8
0
  6
Continuous
 62
     7
370
    25
100
AcDbLine
 10
213.1813199083
 20
489.4530049702
 30
0.0
 11
209.5087023023
 21
489.4530049702
 31
0.0
  0
ARC
  5
B6
330
1F
100
AcDbEntity
  8
0
  6
Continuous
 62
     7
370
    25
100
AcDbCircle
 10
240.2741810248
 20
441.6530049702
 30
0.0
 40
2.199999999999969
100
AcDbArc
 50
270.0
 51
350.7996163194
  0
LINE
  5
B7
330
1F
100
AcDbEntity
  8
0
  6
Continuous
 62
     7
370
    25
100
AcDbLine
 10
202.9963524023
 20
440.4530196937
 30
0.0
 11
204.4607265592
 21
440.4785804396
 31
0.0
  0
LINE
  5
B8
330
1F
100
AcDbEntity
  8
0
  6
Continuous
 62
     7
370
    25
100
AcDbLine
 10
204.4607265592
 20
488.4274589477
 30
0.0
 11
202.9963524023
 21
488.4530196937
 31
0.0
  0
ARC
  5
B9
330
1F
100
AcDbEntity
  8
0
  6
Continuous
 62
     7
370
    25
100
AcDbCircle
 10
200.4963524023
 20
464.4530196937
 30
0.0
 40
24.30000000000044
100
AcDbArc
 50
279.3893727434
 51
302.6643863686
  0
ARC
  5
BA
330
1F
100
AcDbEntity
  8
0
  6
Continuous
 62
     7
370
    25
100
AcDbCircle
 10
200.4963524023
 20
464.4530196937
 30
0.0
 40
24.30000000000048
100
AcDbArc
 50
68.2301871803
 51
80.6106272566
  0
ARC
  5
BB
330
1F
100
AcDbEntity
  8
0
  6
Continuous
 62
     7
370
    25
100
AcDbCircle
 10
99.5087023023
 20
464.4530049702
 30
0.0
 40
144.8000000000001
100
AcDbArc
 50
350.7996163194
 51
0.0
  0
ARC
  5
BC
330
1F
100
AcDbEntity
  8
0
  6
Continuous
 62
     7
370
    25
100
AcDbCircle
 10
99.5087023023
 20
464.4530049702
 30
0.0
 40
144.8
100
AcDbArc
 50
0.0
 51
9.2003836806
  0
LINE
  5
BD
330
1F
100
AcDbEntity
  8
0
  6
Continuous
 62
     7
370
    25
100
AcDbLine
 10
130.5463524023
 20
537.1530196937
 30
0.0
 11
130.5463524023
 21
536.953456037
 31
0.0
  0
LINE
  5
BE
330
1F
100
AcDbEntity
  8
0
  6
Continuous
 62
     7
370
    25
100
AcDbLine
 10
155.4463524023
 20
536.953456037
 30
0.0
 11
155.4463524023
 21
537.1530196937
 31
0.0
  0
LINE
  5
BF
330
1F
100
AcDbEntity
  8
0
  6
Continuous
 62
     7
370
    25
100
AcDbLine
 10
220.4734480475
 20
488.4554484664
 30
0.0
 11
220.2567931614
 21
489.0098747193
 31
0.0
  0
LINE
  5
C0
330
1F
100
AcDbEntity
  8
0
  6
Continuous
 62
     7
370
    25
100
AcDbLine
 10
212.7606114432
 20
489.0098747193
 30
0.0
 11
212.543956557
 21
488.4554484664
 31
0.0
  0
LINE
  5
C1
330
1F
100
AcDbEntity
  8
0
  6
Continuous
 62
     7
370
    25
100
AcDbLine
 10
220.5087023023
 20
487.9379365119
 30
0.0
 11
220.5087023023
 21
488.2742129072
 31
0.0
  0
LINE
  5
C2
330
1F
100
AcDbEntity
  8
0
  6
Continuous
 62
     7
370
    25
100
AcDbLine
 10
212.5087023023
 20
488.2742129072
 30
0.0
 11
212.5087023023
 21
487.9444476323
 31
0.0
  0
LINE
  5
C3
330
1F
100
AcDbEntity
  8
0
  6
Continuous
 62
     7
370
    25
100
AcDbLine
 10
131.4963524023
 20
668.3530196937
 30
0.0
 11
131.4963524023
 21
537.1530196937
 31
0.0
  0
LINE
  5
C4
330
1F
100
AcDbEntity
  8
0
  6
Continuous
 62
     7
370
    25
100
AcDbLine
 10
154.4963524023
 20
537.1530196937
 30
0.0
 11
154.4963524023
 21
668.3530196937
 31
0.0
  0
CIRCLE
  5
C5
330
1F
100
AcDbEntity
  8
0
  6
Continuous
 62
     7
370
    25
100
AcDbCircle
 10
142.9963524023
 20
718.3530196937
 30
0.0
 40
11.49999999999997
  0
LINE
  5
C6
330
1F
100
AcDbEntity
  8
0
  6
Continuous
 62
     7
370
    25
100
AcDbLine
 10
142.9963524023
 20
704.2030196937
 30
0.0
 11
152.3463524023
 21
704.2030196937
 31
0.0
  0
LINE
  5
C7
330
1F
100
AcDbEntity
  8
0
  6
Continuous
 62
     7
370
    25
100
AcDbLine
 10
133.6463524023
 20
704.2030196937
 30
0.0
 11
142.9963524023
 21
704.2030196937
 31
0.0
  0
LWPOLYLINE
  5
C8
330
1F
100
AcDbEntity
  8
0
  6
Continuous
 62
     7
370
    25
100
AcDbPolyline
 90
        3
 70
   128
 43
0.0
 10
225.8342259647
 20
544.0148858371
 10
226.0123230188
 20
545.6071764525
 10
226.1204182935
 20
546.0265807369
  0
LINE
  5
C9
330
1F
100
AcDbEntity
  8
0
  6
Continuous
 62
     7
370
    25
100
AcDbLine
 10
225.8342259647
 20
544.0148858371
 30
0.0
 11
225.8342259647
 21
545.4855724534
 31
0.0
  0
LINE
  5
CA
330
1F
100
AcDbEntity
  8
0
  6
Continuous
 62
     7
370
    25
100
AcDbLine
 10
242.1342259647
 20
544.0148858371
 30
0.0
 11
242.1342259647
 21
545.4855724534
 31
0.0
  0
LINE
  5
CB
330
1F
100
AcDbEntity
  8
0
  6
Continuous
 62
     7
370
    25
100
AcDbLine
 10
242.1342259647
 20
544.0148858371
 30
0.0
 11
242.1342259647
 21
490.1617456955
 31
0.0
  0
LINE
  5
CC
330
1F
100
AcDbEntity
  8
0
  6
Continuous
 62
     7
370
    25
100
AcDbLine
 10
225.8342259647
 20
491.3648734219
 30
0.0
 11
225.8342259647
 21
544.0148858371
 31
0.0
  0
LINE
  5
CD
330
1F
100
AcDbEntity
  8
0
  6
Continuous
 62
     7
370
    25
100
AcDbLine
 10
142.9963524023
 20
389.4530196937
 30
0.0
 11
116.2963524023
 21
389.4530196937
 31
0.0
  0
LINE
  5
CE
330
1F
100
AcDbEntity
  8
0
  6
Continuous
 62
     7
370
    25
100
AcDbLine
 10
169.6963524023
 20
389.4530196937
 30
0.0
 11
142.9963524023
 21
389.4530196937
 31
0.0
  0
LINE
  5
CF
330
1F
100
AcDbEntity
  8
0
  6
Continuous
 62
     7
370
    25
100
AcDbLine
 10
142.9963524023
 20
503.1530196937
 30
0.0
 11
169.7963524023
 21
503.1530196937
 31
0.0
  0
LINE
  5
D0
330
1F
100
AcDbEntity
  8
0
  6
Continuous
 62
     7
370
    25
100
AcDbLine
 10
116.1963524023
 20
503.1530196937
 30
0.0
 11
142.9963524023
 21
503.1530196937
 31
0.0
  0
LINE
  5
D1
330
1F
100
AcDbEntity
  8
0
  6
Continuous
 62
     7
370
    25
100
AcDbLine
 10
142.9963524023
 20
531.7530196937
 30
0.0
 11
116.1963524023
 21
531.7530196937
 31
0.0
  0
LINE
  5
D2
330
1F
100
AcDbEntity
  8
0
  6
Continuous
 62
     7
370
    25
100
AcDbLine
 10
169.7963524023
 20
531.7530196937
 30
0.0
 11
142.9963524023
 21
531.7530196937
 31
0.0
  0
LINE
  5
D3
330
1F
100
AcDbEntity
  8
0
  6
Continuous
 62
     7
370
    25
100
AcDbLine
 10
142.9963524023
 20
503.4530196937
 30
0.0
 11
169.9963524023
 21
503.4530196937
 31
0.0
  0
LINE
  5
D4
330
1F
100
AcDbEntity
  8
0
  6
Continuous
 62
     7
370
    25
100
AcDbLine
 10
115.9963524023
 20
503.4530196937
 30
0.0
 11
142.9963524023
 21
503.4530196937
 31
0.0
  0
LINE
  5
D5
330
1F
100
AcDbEntity
  8
0
  6
Continuous
 62
     7
370
    25
100
AcDbLine
 10
142.9963524023
 20
531.4530196937
 30
0.0
 11
169.9963524023
 21
531.4530196937
 31
0.0
  0
LINE
  5
D6
330
1F
100
AcDbEntity
  8
0
  6
Continuous
 62
     7
370
    25
100
AcDbLine
 10
115.9963524023
 20
531.4530196937
 30
0.0
 11
142.9963524023
 21
531.4530196937
 31
0.0
  0
LINE
  5
D7
330
1F
100
AcDbEntity
  8
0
  6
Continuous
 62
     7
370
    25
100
AcDbLine
 10
130.5463524023
 20
536.953456037
 30
0.0
 11
155.4463524023
 21
536.953456037
 31
0.0
  0
LINE
  5
D8
330
1F
100
AcDbEntity
  8
0
  6
Continuous
 62
     7
370
    25
100
AcDbLine
 10
202.9963524023
 20
464.4530196937
 30
0.0
 11
202.9963524023
 21
439.7530196937
 31
0.0
  0
LINE
  5
D9
330
1F
100
AcDbEntity
  8
0
  6
Continuous
 62
     7
370
    25
100
AcDbLine
 10
202.9963524023
 20
489.1530196937
 30
0.0
 11
202.9963524023
 21
464.4530196937
 31
0.0
  0
SPLINE
  5
DA
330
1F
100
AcDbEntity
  8
0
  6
Continuous
 62
     7
370
    25
100
AcDbSpline
210
0.0
220
0.0
230
1.0
 70
     8
 71
     3
 72
    10
 73
     6
 74
     0
 42
0.00000001
 43
0.00000001
 40
0.0
 40
0.0
 40
0.0
 40
0.0
 40
0.5
 40
0.5
 40
1.0
 40
1.0
 40
1.0
 40
1.0
 10
209.5087023022566
 20
458.8735805794441
 30
0.0
 10
209.5087023022566
 20
457.8614684899327
 30
0.0
 10
209.5807228147042
 20
456.8813406415638
 30
0.0
 10
209.864763979411
 20
454.9810468885083
 30
0.0
 10
210.0767835431752
 20
454.0609011085498
 30
0.0
 10
210.3609449916135
 20
453.1702587482591
 30
0.0
  0
LINE
  5
DB
330
1F
100
AcDbEntity
  8
0
  6
Continuous
 62
     7
370
    25
100
AcDbLine
 10
209.5087023023
 20
458.8735805794
 30
0.0
 11
209.5087023023
 21
489.4530049702
 31
0.0
  0
ELLIPSE
  5
DC
330
1F
100
AcDbEntity
  8
0
  6
Continuous
 62
     7
370
    25
100
AcDbEllipse
 10
209.5087023023
 20
464.4530049702
 30
0.0
 11
-6.795130988579672
 21
24.99228780441968
 31
0.0
210
0.0
220
0.0
230
1.0
 40
0.0913782192
 41
2.014189324901258
 42
3.116753020528651
  0
SPLINE
  5
DD
330
1F
100
AcDbEntity
  8
0
  6
Continuous
 62
     7
370
    25
100
AcDbSpline
210
0.0
220
0.0
230
1.0
 70
     8
 71
     3
 72
    12
 73
     8
 74
     0
 42
0.00000001
 43
0.00000001
 40
0.0
 40
0.0
 40
0.0
 40
0.0
 40
0.2128665248245111
 40
0.4256666242015736
 40
0.6401865921063861
 40
0.8558610503029738
 40
1.0
 40
1.0
 40
1.0
 40
1.0
 10
216.5087023022566
 20
486.274588752622
 30
0.0
 10
216.9550373168996
 20
486.2963225887225
 30
0.0
 10
217.8475680664044
 20
486.3397834788344
 30
0.0
 10
219.0418531296372
 20
486.6675767442806
 30
0.0
 10
219.9410707037528
 20
487.1153831966159
 30
0.0
 10
220.4582637549285
 20
487.5760866583586
 30
0.0
 10
220.4588807173322
 20
487.8351482659563
 30
0.0
 10
220.4591278685249
 20
487.9389266889021
 30
0.0
  0
SPLINE
  5
DE
330
1F
100
AcDbEntity
  8
0
  6
Continuous
 62
     7
370
    25
100
AcDbSpline
210
0.0
220
0.0
230
1.0
 70
     8
 71
     3
 72
    12
 73
     8
 74
     0
 42
0.00000001
 43
0.00000001
 40
0.0
 40
0.0
 40
0.0
 40
0.0
 40
0.2063911997713017
 40
0.4184789910362607
 40
0.6328361940342578
 40
0.8484713859361389
 40
1.0
 40
1.0
 40
1.0
 40
1.0
 10
212.514655172494
 20
487.9447713212278
 30
0.0
 10
212.5532093537045
 20
487.7906264065738
 30
0.0
 10
212.6313818478374
 20
487.4780820324472
 30
0.0
 10
213.2925639240979
 20
486.9804602711673
 30
0.0
 10
214.2856828616084
 20
486.5614779054334
 30
0.0
 10
215.423465360825
 20
486.312517114802
 30
0.0
 10
216.191665763229
 20
486.2856689842446
 30
0.0
 10
216.5087023022566
 20
486.274588752622
 30
0.0
  0
LINE
  5
DF
330
1F
100
AcDbEntity
  8
0
  6
Continuous
 62
     7
370
    25
100
AcDbLine
 10
204.4607265592
 20
440.4785804396
 30
0.0
 11
204.4607265592
 21
488.4274589477
 31
0.0
  0
SPLINE
  5
E0
330
1F
100
AcDbEntity
  8
0
  6
Continuous
 62
     7
370
    25
100
AcDbSpline
210
0.0
220
0.0
230
1.0
 70
     8
 71
     3
 72
     8
 73
     4
 74
     0
 42
0.00000001
 43
0.00000001
 40
0.0
 40
0.0
 40
0.0
 40
0.0
 40
1.0
 40
1.0
 40
1.0
 40
1.0
 10
242.1342259647483
 20
486.7340703017134
 30
0.0
 10
242.1342259647483
 20
486.6941228435417
 30
0.0
 10
242.1306363073209
 20
486.6713414593586
 30
0.0
 10
242.1209124889216
 20
486.6887390963697
 30
0.0
  0
SPLINE
  5
E1
330
1F
100
AcDbEntity
  8
0
  6
Continuous
 62
     7
370
    25
100
AcDbSpline
210
0.0
220
0.0
230
1.0
 70
     8
 71
     3
 72
    22
 73
    18
 74
     0
 42
0.00000001
 43
0.00000001
 40
0.0
 40
0.0
 40
0.0
 40
0.0
 40
0.1250000000000024
 40
0.1250000000000024
 40
0.1875000000000037
 40
0.1875000000000037
 40
0.250000000000005
 40
0.250000000000005
 40
0.375000000000003
 40
0.375000000000003
 40
0.500000000000001
 40
0.500000000000001
 40
0.7500000000000006
 40
0.7500000000000006
 40
0.8750000000000002
 40
0.8750000000000002
 40
1.0
 40
1.0
 40
1.0
 40
1.0
 10
225.7517619513529
 20
492.0361693726814
 30
0.0
 10
225.6814728444673
 20
491.6987358074231
 30
0.0
 10
225.571527240294
 20
491.4069149199357
 30
0.0
 10
225.3630143555197
 20
491.0224123768342
 30
0.0
 10
225.2869369501455
 20
490.9048927478601
 30
0.0
 10
225.1273319493482
 20
490.6913196314617
 30
0.0
 10
225.043541236436
 20
490.5946962293581
 30
0.0
 10
224.7826360189208
 20
490.3290840126047
 30
0.0
 10
224.5947758014512
 20
490.1834065955661
 30
0.0
 10
224.2109124054233
 20
489.942049650401
 30
0.0
 10
224.0141996723212
 20
489.8454923287084
 30
0.0
 10
223.4143212290511
 20
489.6062540020091
 30
0.0
 10
223.0001579244057
 20
489.5129356585767
 30
0.0
 10
222.3778948991506
 20
489.4362226348886
 30
0.0
 10
222.1698285601293
 20
489.4214560700816
 30
0.0
 10
221.7527054927344
 20
489.4108695719318
 30
0.0
 10
221.5425297861587
 20
489.415135048278
 30
0.0
 10
221.3342259647483
 20
489.4283967514212
 30
0.0
  0
SPLINE
  5
E2
330
1F
100
AcDbEntity
  8
0
  6
Continuous
 62
     7
370
    25
100
AcDbSpline
210
0.0
220
0.0
230
1.0
 70
     8
 71
     3
 72
    20
 73
    16
 74
     0
 42
0.00000001
 43
0.00000001
 40
0.0
 40
0.0
 40
0.0
 40
0.0
 40
0.2499999999999942
 40
0.2499999999999942
 40
0.3749999999999951
 40
0.3749999999999951
 40
0.4999999999999961
 40
0.4999999999999961
 40
0.6249999999999971
 40
0.6249999999999971
 40
0.749999999999998
 40
0.749999999999998
 40
0.874999999999999
 40
0.874999999999999
 40
1.0
 40
1.0
 40
1.0
 40
1.0
 10
242.1209124889216
 20
486.6887390963698
 30
0.0
 10
242.0912069012589
 20
486.7418876651856
 30
0.0
 10
242.0133646593561
 20
486.7895634564624
 30
0.0
 10
241.8284698700672
 20
486.8510732869723
 30
0.0
 10
241.7567405312051
 20
486.8694520627927
 30
0.0
 10
241.593632573702
 20
486.9020698183538
 30
0.0
 10
241.5011527523403
 20
486.916419935754
 30
0.0
 10
241.3013724348159
 20
486.939996176923
 30
0.0
 10
241.1944096051229
 20
486.9492717752426
 30
0.0
 10
240.9665197151626
 20
486.9628440813312
 30
0.0
 10
240.8444236224555
 20
486.9671205059033
 30
0.0
 10
240.5949524513361
 20
486.9702460471962
 30
0.0
 10
240.4668681265678
 20
486.969186080017
 30
0.0
 10
240.2039848295083
 20
486.9617884969012
 30
0.0
 10
240.0672282854823
 20
486.9552777819237
 30
0.0
 10
239.9342259647484
 20
486.9464255218385
 30
0.0
  0
LINE
  5
E3
330
1F
100
AcDbEntity
  8
0
  6
Continuous
 62
     7
370
    25
100
AcDbLine
 10
242.1342259647
 20
490.1617456955
 30
0.0
 11
242.1342259647
 21
486.7340703017
 31
0.0
  0
LINE
  5
E4
330
1F
100
AcDbEntity
  8
0
  6
Continuous
 62
     7
370
    25
100
AcDbLine
 10
142.9963524023
 20
537.1530196937
 30
0.0
 11
155.4463524023
 21
537.1530196937
 31
0.0
  0
LINE
  5
E5
330
1F
100
AcDbEntity
  8
0
  6
Continuous
 62
     7
370
    25
100
AcDbLine
 10
130.5463524023
 20
537.1530196937
 30
0.0
 11
142.9963524023
 21
537.1530196937
 31
0.0
  0
LWPOLYLINE
  5
E6
330
1F
100
AcDbEntity
  8
0
  6
Continuous
 62
     7
370
    25
100
AcDbPolyline
 90
       20
 70
   128
 43
0.0
 10
216.5087023023
 20
490.1817706245
 10
215.3496283778
 20
490.1156187201
 10
214.3161580979
 20
489.924331592
 10
213.5202840034
 20
489.6286381688
 10
213.0482514017
 20
489.2605814209
 10
212.9512123495
 20
488.8600460081
 10
213.2396825338
 20
488.4704361572
 10
213.882401734
 20
488.1339721411
 10
214.8097213522
 20
487.8871150565
 10
215.9211519186
 20
487.7566156991
 10
217.0962526859
 20
487.7566156991
 10
218.2076832524
 20
487.8871150565
 10
219.1350028705
 20
488.1339721411
 10
219.7777220708
 20
488.4704361572
 10
220.0661922551
 20
488.8600460081
 10
219.9691532028
 20
489.2605814209
 10
219.4971206011
 20
489.6286381688
 10
218.7012465066
 20
489.924331592
 10
217.6677762267
 20
490.1156187201
 10
216.5087023023
 20
490.1817706245
  0
LWPOLYLINE
  5
E7
330
1F
100
AcDbEntity
  8
0
  6
Continuous
 62
     7
370
    25
100
AcDbPolyline
 90
        7
 70
   128
 43
0.0
 10
216.5087023023
 20
486.9061323339
 10
215.3296816046
 20
486.9669123152
 10
214.25542207
 20
487.1438516911
 10
213.3813763724
 20
487.4212286216
 10
212.7852073077
 20
487.7743969491
 10
212.5198871135
 20
488.1719761179
 10
212.543956557
 20
488.4554484664
  0
LWPOLYLINE
  5
E8
330
1F
100
AcDbEntity
  8
0
  6
Continuous
 62
     7
370
    25
100
AcDbPolyline
 90
        7
 70
   128
 43
0.0
 10
220.4734480475
 20
488.4554484664
 10
220.497517491
 20
488.1719761179
 10
220.2321972968
 20
487.7743969491
 10
219.6360282321
 20
487.4212286216
 10
218.7619825345
 20
487.1438516911
 10
217.6877229999
 20
486.9669123152
 10
216.5087023023
 20
486.9061323339
  0
SPLINE
  5
E9
330
1F
100
AcDbEntity
  8
0
  6
Continuous
 62
     7
370
    25
100
AcDbSpline
210
0.0
220
0.0
230
1.0
 70
     8
 71
     3
 72
     9
 73
     5
 74
     0
 42
0.00000001
 43
0.00000001
 40
0.0
 40
0.0
 40
0.0
 40
0.0
 40
0.0420882453872256
 40
0.9999999999999999
 40
0.9999999999999999
 40
0.9999999999999999
 40
0.9999999999999999
 10
221.3342259647483
 20
489.4283967514212
 30
0.0
 10
221.3389353718016
 20
489.4282706070861
 30
0.0
 10
221.4508290136001
 20
489.4252734677662
 30
0.0
 10
221.5624121852445
 20
489.4313775770585
 30
0.0
 10
221.6692990169796
 20
489.437224775101
 30
0.0
  0
CIRCLE
  5
EA
330
1F
100
AcDbEntity
  8
0
  6
Continuous
 62
     8
370
    18
100
AcDbCircle
 10
142.9963524023
 20
718.3530196937
 30
0.0
 40
10.49999999999997
  0
LINE
  5
EB
330
1F
100
AcDbEntity
  8
0
  6
Continuous
 62
     8
370
    18
100
AcDbLine
 10
131.4963524023
 20
668.3530196937
 30
0.0
 11
154.4963524023
 21
668.3530196937
 31
0.0
  0
ARC
  5
EC
330
1F
100
AcDbEntity
  8
0
  6
Continuous
 62
     8
370
    18
100
AcDbCircle
 10
233.9447478824
 20
543.5673772766
 30
0.0
 40
8.201695871808713
100
AcDbArc
 50
3.1277788962
 51
162.5519555502
  0
ARC
  5
ED
330
1F
100
AcDbEntity
  8
0
  6
Continuous
 62
     8
370
    18
100
AcDbCircle
 10
233.9842259647
 20
542.9644122281
 30
0.0
 40
5.957459312483007
100
AcDbArc
 50
2.8674893493
 51
177.1325106507
  0
LINE
  5
EE
330
1F
100
AcDbEntity
  8
0
  6
Continuous
 62
     8
370
    18
100
AcDbLine
 10
239.9342259647
 20
489.4093013801
 30
0.0
 11
239.9342259647
 21
543.2624415218
 31
0.0
  0
SPLINE
  5
EF
330
1F
100
AcDbEntity
  8
0
  6
Continuous
 62
     8
370
    18
100
AcDbSpline
210
0.0
220
0.0
230
1.0
 70
     8
 71
     3
 72
     8
 73
     4
 74
     0
 42
0.00000001
 43
0.00000001
 40
0.0
 40
0.0
 40
0.0
 40
0.0
 40
1.0
 40
1.0
 40
1.0
 40
1.0
 10
228.0342259647483
 20
490.6124291065963
 30
0.0
 10
228.0342259647483
 20
490.2076985205533
 30
0.0
 10
227.9932933958266
 20
489.8066564843466
 30
0.0
 10
227.9114462114707
 20
489.4093013801366
 30
0.0
  0
LINE
  5
F0
330
1F
100
AcDbEntity
  8
0
  6
Continuous
 62
     8
370
    18
100
AcDbLine
 10
228.0342259647
 20
543.2624415218
 30
0.0
 11
228.0342259647
 21
490.6124291066
 31
0.0
  0
LWPOLYLINE
  5
F1
330
1F
100
AcDbEntity
  8
0
  6
Continuous
 62
     8
370
    18
100
AcDbPolyline
 90
       16
 70
   128
 43
0.0
 10
242.1342259647
 20
545.4855724534
 10
241.9561289107
 20
547.0778630688
 10
241.4296214445
 20
548.6005629436
 10
240.5777144689
 20
549.9871227866
 10
239.4376404066
 20
551.1769432792
 10
238.0592259647
 20
552.1180235564
 10
236.5027144689
 20
552.7692338945
 10
234.8361329404
 20
553.1021132767
 10
233.1323189891
 20
553.1021132767
 10
231.4657374606
 20
552.7692338945
 10
229.9092259647
 20
552.1180235564
 10
228.5308115229
 20
551.1769432792
 10
227.3907374606
 20
549.9871227866
 10
226.538830485
 20
548.6005629436
 10
226.0123230188
 20
547.0778630688
 10
225.8342259647
 20
545.4855724534
  0
SPLINE
  5
F2
330
1F
100
AcDbEntity
  8
0
  6
Continuous
 62
     8
370
    18
100
AcDbSpline
210
0.0
220
0.0
230
1.0
 70
     8
 71
     3
 72
    21
 73
    17
 74
     0
 42
0.00000001
 43
0.00000001
 40
0.0
 40
0.0
 40
0.0
 40
0.0
 40
0.0105469484536092
 40
0.0739789005009432
 40
0.0809938964596151
 40
0.1284098739877343
 40
0.1766626738420602
 40
0.299197190961967
 40
0.4241322530586088
 40
0.5418620932252752
 40
0.6622654831481761
 40
0.7356063003327694
 40
0.8104056013033601
 40
0.8772379291004236
 40
0.9461039283464089
 40
1.0
 40
1.0
 40
1.0
 40
1.0
 10
154.4854776954145
 20
464.4530196936542
 30
0.0
 10
154.4890061610282
 20
464.290434786289
 30
0.0
 10
154.5137556900227
 20
463.1500241037275
 30
0.0
 10
154.8825890442691
 20
461.9176902970173
 30
0.0
 10
155.6369897059442
 20
460.2822319079438
 30
0.0
 10
156.4378246613459
 20
458.9310089530856
 30
0.0
 10
158.4158487012401
 20
456.2977217461281
 30
0.0
 10
161.4377100446967
 20
453.1094306898219
 30
0.0
 10
165.2279782770921
 20
449.5506805127507
 30
0.0
 10
168.8626611392124
 20
446.3320625427442
 30
0.0
 10
171.719017452199
 20
443.8815288853867
 30
0.0
 10
173.8451655110233
 20
442.0842789566518
 30
0.0
 10
175.272748697311
 20
440.8878043761293
 30
0.0
 10
176.3055685902839
 20
440.0268094091451
 30
0.0
 10
176.9131266334797
 20
439.5220816654007
 30
0.0
 10
176.9436457567929
 20
439.4967688435835
 30
0.0
 10
176.9570445276417
 20
439.4856557884809
 30
0.0
  0
SPLINE
  5
F3
330
1F
100
AcDbEntity
  8
0
  6
Continuous
 62
     8
370
    18
100
AcDbSpline
210
0.0
220
0.0
230
1.0
 70
     8
 71
     3
 72
    20
 73
    16
 74
     0
 42
0.00000001
 43
0.00000001
 40
0.0
 40
0.0
 40
0.0
 40
0.0
 40
0.0570473862243054
 40
0.1237640529337691
 40
0.1505720151358201
 40
0.2301513423678409
 40
0.3121995112222025
 40
0.3789343688289106
 40
0.4457007375283308
 40
0.5838883415386059
 40
0.7074527081055405
 40
0.8332269526680554
 40
0.8861559303202671
 40
0.9402367804767127
 40
1.0
 40
1.0
 40
1.0
 40
1.0
 10
176.9746803815395
 20
489.4350251498874
 30
0.0
 10
176.9510110364865
 20
489.4153875802588
 30
0.0
 10
176.8996604967347
 20
489.3727839595172
 30
0.0
 10
176.4116884837273
 20
488.9673624524487
 30
0.0
 10
175.6538349560354
 20
488.3359899786945
 30
0.0
 10
174.5524282630565
 20
487.4159008393559
 30
0.0
 10
172.8500438853636
 20
485.9825069173243
 30
0.0
 10
171.0131100428376
 20
484.4194831557388
 30
0.0
 10
168.5053220765552
 20
482.2570644542133
 30
0.0
 10
165.207076909939
 20
479.3447605682244
 30
0.0
 10
161.1892974544113
 20
475.548447842704
 30
0.0
 10
158.0972445907978
 20
472.2662194896079
 30
0.0
 10
156.0609276668515
 20
469.4015580392308
 30
0.0
 10
154.8117182147616
 20
467.1357476916144
 30
0.0
 10
154.5977839462905
 20
465.3765319666664
 30
0.0
 10
154.4854776954145
 20
464.4530196936542
 30
0.0
  0
SPLINE
  5
F4
330
1F
100
AcDbEntity
  8
0
  6
Continuous
 62
     8
370
    18
100
AcDbSpline
210
0.0
220
0.0
230
1.0
 70
     8
 71
     3
 72
    20
 73
    16
 74
     0
 42
0.00000001
 43
0.00000001
 40
0.0
 40
0.0
 40
0.0
 40
0.0
 40
0.0711196222459726
 40
0.1297914344972545
 40
0.1885699423392098
 40
0.3135656510387608
 40
0.4386681392159687
 40
0.5262089855677281
 40
0.6139659516008872
 40
0.7012497617875748
 40
0.7787181609315883
 40
0.8560548014887442
 40
0.9148111389204991
 40
0.973525904915224
 40
1.0
 40
1.0
 40
1.0
 40
1.0
 10
152.12006954684
 20
464.4530196936543
 30
0.0
 10
152.2045121845254
 20
465.6211511431162
 30
0.0
 10
152.3586177707448
 20
467.7529602236348
 30
0.0
 10
153.3278102064485
 20
470.6901897434714
 30
0.0
 10
154.9055451553814
 20
474.2741097960631
 30
0.0
 10
157.343101041688
 20
478.5469796658759
 30
0.0
 10
160.1979747400038
 20
482.8441343325416
 30
0.0
 10
162.6690731449256
 20
486.4198696583127
 30
0.0
 10
164.734997878357
 20
489.3108102845188
 30
0.0
 10
166.5512186670082
 20
491.8032310038122
 30
0.0
 10
168.0457655539805
 20
493.8324876099085
 30
0.0
 10
169.0879630603491
 20
495.2355373035037
 30
0.0
 10
169.7159299348571
 20
496.0778837427151
 30
0.0
 10
169.9751785465373
 20
496.4246790597264
 30
0.0
 10
169.9849250943674
 20
496.4377273022047
 30
0.0
 10
169.987954023628
 20
496.441782297279
 30
0.0
  0
SPLINE
  5
F5
330
1F
100
AcDbEntity
  8
0
  6
Continuous
 62
     8
370
    18
100
AcDbSpline
210
0.0
220
0.0
230
1.0
 70
     8
 71
     3
 72
    20
 73
    16
 74
     0
 42
0.00000001
 43
0.00000001
 40
0.0
 40
0.0
 40
0.0
 40
0.0
 40
0.0409610150477106
 40
0.0515370206167024
 40
0.1163946594635124
 40
0.1813241304203161
 40
0.2522972131609886
 40
0.3233530689752344
 40
0.4383762352746563
 40
0.5536072571606967
 40
0.6774646344411012
 40
0.801245307419326
 40
0.9046467402236094
 40
0.9873086612309734
 40
1.0
 40
1.0
 40
1.0
 40
1.0
 10
169.9488504454532
 20
432.5165132060231
 30
0.0
 10
169.9574765222061
 20
432.5049963165296
 30
0.0
 10
169.9683298249121
 20
432.4905058023033
 30
0.0
 10
169.8012854325023
 20
432.7140996815942
 30
0.0
 10
169.4565367434577
 20
433.1756406691354
 30
0.0
 10
168.6337495924434
 20
434.2813361859414
 30
0.0
 10
167.496690140524
 20
435.8170577952357
 30
0.0
 10
165.8136913971387
 20
438.1111622897675
 30
0.0
 10
163.5326264276049
 20
441.2592656530284
 30
0.0
 10
160.6361318799697
 20
445.4090870344342
 30
0.0
 10
157.568649229282
 20
450.0050904286308
 30
0.0
 10
154.7826144972016
 20
454.8248006141304
 30
0.0
 10
152.7743481988718
 20
459.4442552363477
 30
0.0
 10
152.1440858353025
 20
462.6819408250458
 30
0.0
 10
152.1228905934907
 20
464.2449818813917
 30
0.0
 10
152.12006954684
 20
464.4530196936543
 30
0.0
  0
LINE
  5
F6
330
1F
100
AcDbEntity
  8
0
  6
Continuous
 62
     8
370
    18
100
AcDbLine
 10
142.9963524023
 20
389.7530196937
 30
0.0
 11
169.9963524023
 21
389.7530196937
 31
0.0
  0
LINE
  5
F7
330
1F
100
AcDbEntity
  8
0
  6
Continuous
 62
     8
370
    18
100
AcDbLine
 10
115.9963524023
 20
389.7530196937
 30
0.0
 11
142.9963524023
 21
389.7530196937
 31
0.0
  0
LINE
  5
F8
330
1F
100
AcDbEntity
  8
0
  6
Continuous
 62
     8
370
    18
100
AcDbLine
 10
142.9963524023
 20
502.9530196937
 30
0.0
 11
115.9963524023
 21
502.9530196937
 31
0.0
  0
LINE
  5
F9
330
1F
100
AcDbEntity
  8
0
  6
Continuous
 62
     8
370
    18
100
AcDbLine
 10
169.9963524023
 20
502.9530196937
 30
0.0
 11
142.9963524023
 21
502.9530196937
 31
0.0
  0
LINE
  5
FA
330
1F
100
AcDbEntity
  8
0
  6
Continuous
 62
     8
370
    18
100
AcDbLine
 10
169.9963524023
 20
536.5290867475
 30
0.0
 11
115.9963524023
 21
536.5290867475
 31
0.0
  0
LINE
  5
FB
330
1F
100
AcDbEntity
  8
0
  6
Continuous
 62
     8
370
    18
100
AcDbLine
 10
142.9963524023
 20
531.9530196937
 30
0.0
 11
169.9963524023
 21
531.9530196937
 31
0.0
  0
LINE
  5
FC
330
1F
100
AcDbEntity
  8
0
  6
Continuous
 62
     8
370
    18
100
AcDbLine
 10
115.9963524023
 20
531.9530196937
 30
0.0
 11
142.9963524023
 21
531.9530196937
 31
0.0
  0
LINE
  5
FD
330
1F
100
AcDbEntity
  8
0
  6
Continuous
 62
     8
370
    18
100
AcDbLine
 10
142.9963524023
 20
536.8290753244
 30
0.0
 11
169.698970363
 21
536.8290753244
 31
0.0
  0
LINE
  5
FE
330
1F
100
AcDbEntity
  8
0
  6
Continuous
 62
     8
370
    18
100
AcDbLine
 10
116.2937344417
 20
536.8290753244
 30
0.0
 11
142.9963524023
 21
536.8290753244
 31
0.0
  0
LINE
  5
FF
330
1F
100
AcDbEntity
  8
0
  6
Continuous
 62
     8
370
    18
100
AcDbLine
 10
202.6963524023
 20
464.4530196937
 30
0.0
 11
202.6963524023
 21
489.4530196937
 31
0.0
  0
LINE
  5
100
330
1F
100
AcDbEntity
  8
0
  6
Continuous
 62
     8
370
    18
100
AcDbLine
 10
202.6963524023
 20
439.4530196937
 30
0.0
 11
202.6963524023
 21
464.4530196937
 31
0.0
  0
LINE
  5
101
330
1F
100
AcDbEntity
  8
0
  6
Continuous
 62
     8
370
    18
100
AcDbLine
 10
221.3342259647
 20
484.2980946015
 30
0.0
 11
221.3342259647
 21
489.4283967514
 31
0.0
  0
LINE
  5
102
330
1F
100
AcDbEntity
  8
0
  6
Continuous
 62
     8
370
    18
100
AcDbLine
 10
240.2741810248
 20
484.2980946015
 30
0.0
 11
221.3342259647
 21
484.2980946015
 31
0.0
  0
LINE
  5
103
330
1F
100
AcDbEntity
  8
0
  6
Continuous
 62
     8
370
    18
100
AcDbLine
 10
240.2741810248
 20
439.4530049702
 30
0.0
 11
240.2741810248
 21
484.2980946015
 31
0.0
  0
LINE
  5
104
330
1F
100
AcDbEntity
  8
0
  6
Continuous
 62
     8
370
    18
100
AcDbLine
 10
242.4458784525
 20
482.8309496301
 30
0.0
 11
242.4458784525
 21
441.3012518146
 31
0.0
  0
LINE
  5
105
330
1F
100
AcDbEntity
  8
0
  6
Continuous
 62
     8
370
    18
100
AcDbLine
 10
242.4458784525
 20
487.6047581259
 30
0.0
 11
242.4458784525
 21
487.5819691896
 31
0.0
  0
LINE
  5
106
330
1F
100
AcDbEntity
  8
0
  6
Continuous
 62
     8
370
    18
100
AcDbLine
 10
242.4458784525
 20
487.5819691896
 30
0.0
 11
242.3739612067
 21
487.886363514
 31
0.0
  0
ARC
  5
107
330
1F
100
AcDbEntity
  8
0
  6
Continuous
 62
     8
370
    18
100
AcDbCircle
 10
240.4345627952
 20
482.1946273748
 30
0.0
 40
2.109572631185554
100
AcDbArc
 50
17.5558689586
 51
94.3601597972
  0
SPLINE
  5
108
330
1F
100
AcDbEntity
  8
0
  6
Continuous
 62
     8
370
    18
100
AcDbSpline
210
0.0
220
0.0
230
1.0
 70
     8
 71
     3
 72
    14
 73
    10
 74
     0
 42
0.00000001
 43
0.00000001
 40
0.0
 40
0.0
 40
0.0
 40
0.0
 40
0.2499999999999987
 40
0.2499999999999987
 40
0.3749999999999981
 40
0.3749999999999981
 40
0.4999999999999974
 40
0.4999999999999974
 40
1.0
 40
1.0
 40
1.0
 40
1.0
 10
242.4458784525445
 20
487.5819691896118
 30
0.0
 10
242.4458784525445
 20
487.5644312322306
 30
0.0
 10
242.4387115463663
 20
487.5813041259522
 30
0.0
 10
242.4176063316611
 20
487.656308490999
 30
0.0
 10
242.4088353456179
 20
487.6896405196432
 30
0.0
 10
242.3877682631643
 20
487.7732121847253
 30
0.0
 10
242.3754011123821
 20
487.8237558457284
 30
0.0
 10
242.3058238209272
 20
488.1143743146468
 30
0.0
 10
242.2254598036029
 20
488.4672250711271
 30
0.0
 10
242.1209124889215
 20
488.9376255798448
 30
0.0
  0
SPLINE
  5
109
330
1F
100
AcDbEntity
  8
0
  6
Continuous
 62
     8
370
    18
100
AcDbSpline
210
0.0
220
0.0
230
1.0
 70
     8
 71
     3
 72
    16
 73
    12
 74
     0
 42
0.00000001
 43
0.00000001
 40
0.0
 40
0.0
 40
0.0
 40
0.0
 40
0.2500000000000054
 40
0.2500000000000054
 40
0.5000000000000109
 40
0.5000000000000109
 40
0.6250000000000099
 40
0.6250000000000099
 40
0.750000000000009
 40
0.750000000000009
 40
1.0
 40
1.0
 40
1.0
 40
1.0
 10
242.1209124889216
 20
486.6887390963698
 30
0.0
 10
242.1731200790496
 20
486.3076417913571
 30
0.0
 10
242.219620337246
 20
485.9355176330855
 30
0.0
 10
242.2998754757764
 20
485.2223909621471
 30
0.0
 10
242.3339210852022
 20
484.8793196533559
 30
0.0
 10
242.375588642976
 20
484.3856146626457
 30
0.0
 10
242.3879206032535
 20
484.2241107162532
 30
0.0
 10
242.408932157145
 20
483.9142038226295
 30
0.0
 10
242.4176801859997
 20
483.7650833856995
 30
0.0
 10
242.4387302412731
 20
483.3349676880667
 30
0.0
 10
242.4458784525445
 20
483.071085689439
 30
0.0
 10
242.4458784525445
 20
482.830949630084
 30
0.0
  0
SPLINE
  5
10A
330
1F
100
AcDbEntity
  8
0
  6
Continuous
 62
     8
370
    18
100
AcDbSpline
210
0.0
220
0.0
230
1.0
 70
     8
 71
     3
 72
    24
 73
    20
 74
     0
 42
0.00000001
 43
0.00000001
 40
0.0
 40
0.0
 40
0.0
 40
0.0
 40
0.1249999999999983
 40
0.1249999999999983
 40
0.1874999999999963
 40
0.1874999999999963
 40
0.2499999999999942
 40
0.2499999999999942
 40
0.3749999999999933
 40
0.3749999999999933
 40
0.4999999999999923
 40
0.4999999999999923
 40
0.7499999999999905
 40
0.7499999999999905
 40
0.8749999999999923
 40
0.8749999999999923
 40
0.9374999999999961
 40
0.9374999999999961
 40
1.0
 40
1.0
 40
1.0
 40
1.0
 10
227.9114462114707
 20
489.4093013801366
 30
0.0
 10
227.8076159898072
 20
489.0707406796251
 30
0.0
 10
227.6478055936538
 20
488.7473726836748
 30
0.0
 10
227.3479807639732
 20
488.2794883443053
 30
0.0
 10
227.2382982826031
 20
488.1274866443081
 30
0.0
 10
227.007980978357
 20
487.8368382416162
 30
0.0
 10
226.8868777914207
 20
487.6973793800541
 30
0.0
 10
226.508947788816
 20
487.2934036710498
 30
0.0
 10
226.2357176847064
 20
487.0416457616391
 30
0.0
 10
225.6723509614416
 20
486.5758711106577
 30
0.0
 10
225.381903709236
 20
486.3612195376631
 30
0.0
 10
224.4910527345726
 20
485.7579270173195
 30
0.0
 10
223.8688671515172
 20
485.4082098813645
 30
0.0
 10
222.9249758577608
 20
484.9469335420434
 30
0.0
 10
222.6077131043642
 20
484.8035257447638
 30
0.0
 10
222.1309136179722
 20
484.6032208218487
 30
0.0
 10
221.9717741375477
 20
484.53890184904
 30
0.0
 10
221.6531712394751
 20
484.414973541755
 30
0.0
 10
221.4926621109105
 20
484.3549899184697
 30
0.0
 10
221.3342259647483
 20
484.2980946015361
 30
0.0
  0
SPLINE
  5
10B
330
1F
100
AcDbEntity
  8
0
  6
Continuous
 62
     8
370
    18
100
AcDbSpline
210
0.0
220
0.0
230
1.0
 70
     8
 71
     3
 72
    22
 73
    18
 74
     0
 42
0.00000001
 43
0.00000001
 40
0.0
 40
0.0
 40
0.0
 40
0.0
 40
0.1250000000000032
 40
0.1250000000000032
 40
0.1875000000000047
 40
0.1875000000000047
 40
0.2500000000000063
 40
0.2500000000000063
 40
0.3750000000000034
 40
0.3750000000000034
 40
0.5000000000000004
 40
0.5000000000000004
 40
0.7500000000000002
 40
0.7500000000000002
 40
0.8750000000000001
 40
0.8750000000000001
 40
1.0
 40
1.0
 40
1.0
 40
1.0
 10
225.7517619513529
 20
490.5436364281067
 30
0.0
 10
225.6814728444673
 20
490.1965611824052
 30
0.0
 10
225.571527240294
 20
489.8507215375372
 30
0.0
 10
225.3630143555197
 20
489.3367825626093
 30
0.0
 10
225.2869369501455
 20
489.1683845415506
 30
0.0
 10
225.1273319493483
 20
488.8428358070499
 30
0.0
 10
225.043541236436
 20
488.6849640117383
 30
0.0
 10
224.7826360189208
 20
488.2230560859555
 30
0.0
 10
224.5947758014512
 20
487.928825559016
 30
0.0
 10
224.2109124054233
 20
487.3748745607419
 30
0.0
 10
224.0141996723212
 20
487.1137615257715
 30
0.0
 10
223.4143212290511
 20
486.3634768607348
 30
0.0
 10
223.0001579244057
 20
485.90527972918
 30
0.0
 10
222.3778948991506
 20
485.2684769411944
 30
0.0
 10
222.1698285601293
 20
485.0644148697268
 30
0.0
 10
221.7527054927344
 20
484.6706169445698
 30
0.0
 10
221.5425297861485
 20
484.4799177258039
 30
0.0
 10
221.3342259647483
 20
484.2980946015361
 30
0.0
  0
LINE
  5
10C
330
1F
100
AcDbEntity
  8
0
  6
Continuous
 62
     8
370
    18
100
AcDbLine
 10
239.9342259647
 20
486.9464255218
 30
0.0
 11
239.9342259647
 21
489.4093013801
 31
0.0
  0
SPLINE
  5
10D
330
1F
100
AcDbEntity
  8
0
  6
Continuous
 62
     8
370
    18
100
AcDbSpline
210
0.0
220
0.0
230
1.0
 70
     8
 71
     3
 72
    14
 73
    10
 74
     0
 42
0.00000001
 43
0.00000001
 40
0.0
 40
0.0
 40
0.0
 40
0.0
 40
0.25
 40
0.25
 40
0.5
 40
0.5
 40
0.75
 40
0.75
 40
1.0
 40
1.0
 40
1.0
 40
1.0
 10
240.2741810248468
 20
484.2980946015361
 30
0.0
 10
240.2741810248468
 20
484.4627266318348
 30
0.0
 10
240.2666226438057
 20
484.6441015070449
 30
0.0
 10
240.237003473994
 20
485.038960439781
 30
0.0
 10
240.2146021034461
 20
485.2548700522125
 30
0.0
 10
240.1563053490163
 20
485.7072202905732
 30
0.0
 10
240.1206657160853
 20
485.9427389826172
 30
0.0
 10
240.0368424595912
 20
486.431786951033
 30
0.0
 10
239.9882926723353
 20
486.6869701071797
 30
0.0
 10
239.9342259647484
 20
486.9464255218386
 30
0.0
  0
SPLINE
  5
10E
330
1F
100
AcDbEntity
  8
0
  6
Continuous
 62
     8
370
    18
100
AcDbSpline
210
0.0
220
0.0
230
1.0
 70
     8
 71
     3
 72
     8
 73
     4
 74
     0
 42
0.00000001
 43
0.00000001
 40
0.0
 40
0.0
 40
0.0
 40
0.0
 40
1.0
 40
1.0
 40
1.0
 40
1.0
 10
225.7517619513529
 20
490.5436364281067
 30
0.0
 10
225.8067238607875
 20
490.8150286689025
 30
0.0
 10
225.8342259647483
 20
491.0887694366235
 30
0.0
 10
225.8342259647483
 20
491.3648734219127
 30
0.0
  0
LWPOLYLINE
  5
10F
330
1F
100
AcDbEntity
  8
0
  6
Continuous
 62
     8
370
    18
100
AcDbPolyline
 90
       13
 70
   128
 43
0.0
 10
220.2567931614
 20
489.0098747193
 10
220.2901209353
 20
488.8385428391
 10
220.1050451341
 20
488.438884565
 10
219.5679342393
 20
488.0783476273
 10
218.7313644075
 20
487.7922238935
 10
217.6772249227
 20
487.6085211483
 10
216.5087023023
 20
487.5452214962
 10
215.3401796818
 20
487.6085211483
 10
214.286040197
 20
487.7922238935
 10
213.4494703652
 20
488.0783476273
 10
212.9123594704
 20
488.438884565
 10
212.7272836692
 20
488.8385428391
 10
212.7606114432
 20
489.0098747193
  0
LINE
  5
110
330
1F
100
AcDbEntity
  8
0
  6
Continuous
 62
     7
370
    25
100
AcDbLine
 10
131.4963524023
 20
298.2545316411
 30
0.0
 11
131.4963524023
 21
248.2545316411
 31
0.0
  0
LINE
  5
111
330
1F
100
AcDbEntity
  8
0
  6
Continuous
 62
     7
370
    25
100
AcDbLine
 10
154.4963524023
 20
248.2545316411
 30
0.0
 11
154.4963524023
 21
298.2545316411
 31
0.0
  0
LINE
  5
112
330
1F
100
AcDbEntity
  8
0
  6
Continuous
 62
     7
370
    25
100
AcDbLine
 10
154.4963524023
 20
89.4545316411
 30
0.0
 11
154.4963524023
 21
248.2545316411
 31
0.0
  0
LINE
  5
113
330
1F
100
AcDbEntity
  8
0
  6
Continuous
 62
     7
370
    25
100
AcDbLine
 10
131.4963524023
 20
248.2545316411
 30
0.0
 11
131.4963524023
 21
89.4545316411
 31
0.0
  0
LINE
  5
114
330
1F
100
AcDbEntity
  8
0
  6
Continuous
 62
     7
370
    25
100
AcDbLine
 10
131.4963524023
 20
89.4545316411
 30
0.0
 11
131.4963524023
 21
89.2545316411
 31
0.0
  0
LINE
  5
115
330
1F
100
AcDbEntity
  8
0
  6
Continuous
 62
     7
370
    25
100
AcDbLine
 10
154.4963524023
 20
89.2545316411
 30
0.0
 11
154.4963524023
 21
89.4545316411
 31
0.0
  0
ARC
  5
116
330
1F
100
AcDbEntity
  8
0
  6
Continuous
 62
     7
370
    25
100
AcDbCircle
 10
132.4963524023
 20
89.2545316411
 30
0.0
 40
1.0
100
AcDbArc
 50
180.0
 51
270.0
  0
ARC
  5
117
330
1F
100
AcDbEntity
  8
0
  6
Continuous
 62
     7
370
    25
100
AcDbCircle
 10
153.4963524023
 20
89.2545316411
 30
0.0
 40
1.0
100
AcDbArc
 50
270.0
 51
0.0
  0
SPLINE
  5
118
330
1F
100
AcDbEntity
  8
0
  6
Continuous
 62
     7
370
    25
100
AcDbSpline
210
0.0
220
0.0
230
1.0
 70
     8
 71
     3
 72
    24
 73
    20
 74
     0
 42
0.00000001
 43
0.00000001
 40
0.0
 40
0.0
 40
0.0
 40
0.0
 40
0.050816044647622
 40
0.0962904038005649
 40
0.1428574037646654
 40
0.1951515144067336
 40
0.2579496333946881
 40
0.3291875473475984
 40
0.3976356688546272
 40
0.4637322388795979
 40
0.5288819505547228
 40
0.594077346126185
 40
0.6599832226938851
 40
0.7278357907026013
 40
0.7999224936729022
 40
0.8593425801598282
 40
0.909212020756032
 40
0.9562199437654051
 40
1.0
 40
1.0
 40
1.0
 40
1.0
 10
225.8342259647483
 20
267.0084919226904
 30
0.0
 10
225.8684445677409
 20
266.6742878684515
 30
0.0
 10
225.9332847795775
 20
266.0410106514307
 30
0.0
 10
226.3825891996877
 20
265.2331525712877
 30
0.0
 10
226.9747890119428
 20
264.5857149293858
 30
0.0
 10
227.7605130932295
 20
264.0332191482955
 30
0.0
 10
228.7935732382101
 20
263.5519716269031
 30
0.0
 10
230.0907322516436
 20
263.1658752326828
 30
0.0
 10
231.5731984704421
 20
262.9032166279943
 30
0.0
 10
233.1159397261569
 20
262.77211551193
 30
0.0
 10
234.6708820132728
 20
262.7652119983991
 30
0.0
 10
236.1946856927949
 20
262.8796450791045
 30
0.0
 10
237.6455782900518
 20
263.1162180057258
 30
0.0
 10
238.995880490068
 20
263.48545846095
 30
0.0
 10
240.1253283522044
 20
263.9773385611493
 30
0.0
 10
241.0106853436928
 20
264.590524762715
 30
0.0
 10
241.6428550515231
 20
265.3063047465851
 30
0.0
 10
242.0559992997888
 20
266.1239458969484
 30
0.0
 10
242.1087758808648
 20
266.7207157460423
 30
0.0
 10
242.1342259647483
 20
267.0084919226904
 30
0.0
  0
LINE
  5
119
330
1F
100
AcDbEntity
  8
0
  6
Continuous
 62
     7
370
    25
100
AcDbLine
 10
154.4854776955
 20
323.2545316411
 30
0.0
 11
152.1207937834
 21
323.666036309
 31
0.0
  0
LINE
  5
11A
330
1F
100
AcDbEntity
  8
0
  6
Continuous
 62
     7
370
    25
100
AcDbLine
 10
212.5087023023
 20
289.7044446624
 30
0.0
 11
212.5087023023
 21
289.584419918
 31
0.0
  0
LINE
  5
11B
330
1F
100
AcDbEntity
  8
0
  6
Continuous
 62
     7
370
    25
100
AcDbLine
 10
220.5087023023
 20
289.584419918
 30
0.0
 11
220.5087023023
 21
289.7068145164
 31
0.0
  0
LINE
  5
11C
330
1F
100
AcDbEntity
  8
0
  6
Continuous
 62
     7
370
    25
100
AcDbLine
 10
154.4963524023
 20
273.2545316411
 30
0.0
 11
202.6963524023
 21
273.2545316411
 31
0.0
  0
LINE
  5
11D
330
1F
100
AcDbEntity
  8
0
  6
Continuous
 62
     7
370
    25
100
AcDbLine
 10
202.6963524023
 20
323.2545316411
 30
0.0
 11
154.5219110993
 21
323.2545316411
 31
0.0
  0
ARC
  5
11E
330
1F
100
AcDbEntity
  8
0
  6
Continuous
 62
     7
370
    25
100
AcDbCircle
 10
202.6963524023
 20
273.5545316411
 30
0.0
 40
0.3000000000000114
100
AcDbArc
 50
270.0
 51
0.0
  0
ARC
  5
11F
330
1F
100
AcDbEntity
  8
0
  6
Continuous
 62
     7
370
    25
100
AcDbCircle
 10
202.6963524023
 20
322.9545316411
 30
0.0
 40
0.2999999999999829
100
AcDbArc
 50
0.0
 51
90.0
  0
LINE
  5
120
330
1F
100
AcDbEntity
  8
0
  6
Continuous
 62
     7
370
    25
100
AcDbLine
 10
209.5087023023
 20
273.2546305513
 30
0.0
 11
225.8342259647
 21
273.2546305513
 31
0.0
  0
LINE
  5
121
330
1F
100
AcDbEntity
  8
0
  6
Continuous
 62
     7
370
    25
100
AcDbLine
 10
240.2741810248
 20
323.2546305513
 30
0.0
 11
211.9605197506
 21
323.2546305513
 31
0.0
  0
ARC
  5
122
330
1F
100
AcDbEntity
  8
0
  6
Continuous
 62
     7
370
    25
100
AcDbCircle
 10
240.2741810248
 20
275.4546305513
 30
0.0
 40
2.200000000000006
100
AcDbArc
 50
327.7228610334
 51
350.7996163194
  0
ARC
  5
123
330
1F
100
AcDbEntity
  8
0
  6
Continuous
 62
     7
370
    25
100
AcDbCircle
 10
240.2741810248
 20
321.0546305513
 30
0.0
 40
2.200000000000045
100
AcDbArc
 50
9.2003836806
 51
90.0
  0
ARC
  5
124
330
1F
100
AcDbEntity
  8
0
  6
Continuous
 62
     7
370
    25
100
AcDbCircle
 10
99.5087023023
 20
298.2546305513
 30
0.0
 40
144.8
100
AcDbArc
 50
350.7996163194
 51
9.2003836806
  0
LINE
  5
125
330
1F
100
AcDbEntity
  8
0
  6
Continuous
 62
     7
370
    25
100
AcDbLine
 10
202.9963524023
 20
274.2545316411
 30
0.0
 11
204.4607265592
 21
274.2800923871
 31
0.0
  0
LINE
  5
126
330
1F
100
AcDbEntity
  8
0
  6
Continuous
 62
     7
370
    25
100
AcDbLine
 10
204.4607265592
 20
322.2289708952
 30
0.0
 11
202.9963524023
 21
322.2545316411
 31
0.0
  0
ARC
  5
127
330
1F
100
AcDbEntity
  8
0
  6
Continuous
 62
     7
370
    25
100
AcDbCircle
 10
200.4963524023
 20
298.2545316411
 30
0.0
 40
24.30000000000052
100
AcDbArc
 50
68.0154770161
 51
80.6106272566
  0
ARC
  5
128
330
1F
100
AcDbEntity
  8
0
  6
Continuous
 62
     7
370
    25
100
AcDbCircle
 10
200.4963524023
 20
298.2545316411
 30
0.0
 40
24.30000000000043
100
AcDbArc
 50
279.3893727434
 51
291.7698128197
  0
ARC
  5
129
330
1F
100
AcDbEntity
  8
0
  6
Continuous
 62
     7
370
    25
100
AcDbCircle
 10
142.9963524023
 20
298.2545316411
 30
0.0
 40
11.5
100
AcDbArc
 50
0.0
 51
180.0
  0
LINE
  5
12A
330
1F
100
AcDbEntity
  8
0
  6
Continuous
 62
     7
370
    25
100
AcDbLine
 10
132.4963524023
 20
88.2545316411
 30
0.0
 11
153.4963524023
 21
88.2545316411
 31
0.0
  0
LINE
  5
12B
330
1F
100
AcDbEntity
  8
0
  6
Continuous
 62
     7
370
    25
100
AcDbLine
 10
225.8342259647
 20
267.0084919227
 30
0.0
 11
225.8342259647
 21
271.0491701921
 31
0.0
  0
LINE
  5
12C
330
1F
100
AcDbEntity
  8
0
  6
Continuous
 62
     7
370
    25
100
AcDbLine
 10
242.1342259647
 20
267.0084919227
 30
0.0
 11
242.1342259647
 21
271.0491701921
 31
0.0
  0
LINE
  5
12D
330
1F
100
AcDbEntity
  8
0
  6
Continuous
 62
     7
370
    25
100
AcDbLine
 10
225.8342259647
 20
271.0491701921
 30
0.0
 11
225.8342259647
 21
290.212207545
 31
0.0
  0
LINE
  5
12E
330
1F
100
AcDbEntity
  8
0
  6
Continuous
 62
     7
370
    25
100
AcDbLine
 10
242.1342259647
 20
290.6501102254
 30
0.0
 11
242.1342259647
 21
271.0491701921
 31
0.0
  0
ARC
  5
12F
330
1F
100
AcDbEntity
  8
0
  6
Continuous
 62
     7
370
    25
100
AcDbCircle
 10
142.9963524023
 20
298.2545316411
 30
0.0
 40
12.44999999999998
100
AcDbArc
 50
337.4723546214
 51
202.5276453786
  0
ARC
  5
130
330
1F
100
AcDbEntity
  8
0
  6
Continuous
 62
     7
370
    25
100
AcDbCircle
 10
142.9963524023
 20
298.2545316411
 30
0.0
 40
27.00000000000006
100
AcDbArc
 50
295.2092855871
 51
90.0
  0
ARC
  5
131
330
1F
100
AcDbEntity
  8
0
  6
Continuous
 62
     7
370
    25
100
AcDbCircle
 10
142.9963524023
 20
298.2545316411
 30
0.0
 40
27.00000000000006
100
AcDbArc
 50
90.0
 51
244.7907144129
  0
SPLINE
  5
132
330
1F
100
AcDbEntity
  8
0
  6
Continuous
 62
     7
370
    25
100
AcDbSpline
210
0.0
220
0.0
230
1.0
 70
     8
 71
     3
 72
     8
 73
     4
 74
     0
 42
0.00000001
 43
0.00000001
 40
0.0
 40
0.0
 40
0.0
 40
0.0
 40
1.0
 40
1.0
 40
1.0
 40
1.0
 10
242.1209124889216
 20
292.84160373835
 30
0.0
 10
242.1306705846065
 20
292.7865156724499
 30
0.0
 10
242.1342259647483
 20
292.7042097581337
 30
0.0
 10
242.1342259647483
 20
292.6181809203135
 30
0.0
  0
SPLINE
  5
133
330
1F
100
AcDbEntity
  8
0
  6
Continuous
 62
     7
370
    25
100
AcDbSpline
210
0.0
220
0.0
230
1.0
 70
     8
 71
     3
 72
    20
 73
    16
 74
     0
 42
0.00000001
 43
0.00000001
 40
0.0
 40
0.0
 40
0.0
 40
0.0
 40
0.249999999999989
 40
0.249999999999989
 40
0.3749999999999908
 40
0.3749999999999908
 40
0.4999999999999927
 40
0.4999999999999927
 40
0.6249999999999944
 40
0.6249999999999944
 40
0.7499999999999963
 40
0.7499999999999963
 40
0.8749999999999981
 40
0.8749999999999981
 40
1.0
 40
1.0
 40
1.0
 40
1.0
 10
242.1209124889216
 20
292.84160373835
 30
0.0
 10
242.091206901259
 20
293.0093027877966
 30
0.0
 10
242.013364659356
 20
293.1724605777174
 30
0.0
 10
241.8284698700672
 20
293.4039066914213
 30
0.0
 10
241.7567405312051
 20
293.4771509862305
 30
0.0
 10
241.5936325737019
 20
293.6160463282483
 30
0.0
 10
241.5011527523401
 20
293.6823062492251
 30
0.0
 10
241.3013724348156
 20
293.8031120028627
 30
0.0
 10
241.1944096051226
 20
293.8577228039185
 30
0.0
 10
240.9665197151623
 20
293.9555218430618
 30
0.0
 10
240.8444236224552
 20
293.9989429610737
 30
0.0
 10
240.5949524513357
 20
294.0709204118878
 30
0.0
 10
240.4668681265674
 20
294.0999269622632
 30
0.0
 10
240.2039848295078
 20
294.1439516405026
 30
0.0
 10
240.0672282854822
 20
294.1589540595204
 30
0.0
 10
239.9342259647478
 20
294.1660665641317
 30
0.0
  0
LINE
  5
134
330
1F
100
AcDbEntity
  8
0
  6
Continuous
 62
     7
370
    25
100
AcDbLine
 10
242.1342259647
 20
292.6181809203
 30
0.0
 11
242.1342259647
 21
290.6501102254
 31
0.0
  0
LWPOLYLINE
  5
135
330
1F
100
AcDbEntity
  8
0
  6
Continuous
 62
     7
370
    25
100
AcDbPolyline
 90
       21
 70
   128
 43
0.0
 10
216.5087023023
 20
292.9323918061
 10
217.6772249227
 20
292.7584774414
 10
218.7313644075
 20
292.2537582969
 10
219.5679342393
 20
291.4676397993
 10
220.1050451341
 20
290.4770727041
 10
220.2901209353
 20
289.3790206205
 10
220.1050451341
 20
288.2809685368
 10
219.5679342393
 20
287.2904014416
 10
218.7313644075
 20
286.504282944
 10
217.6772249227
 20
285.9995637996
 10
216.5087023023
 20
285.8256494349
 10
215.3401796818
 20
285.9995637996
 10
214.286040197
 20
286.504282944
 10
213.4494703652
 20
287.2904014416
 10
212.9123594704
 20
288.2809685368
 10
212.7272836692
 20
289.3790206205
 10
212.9123594704
 20
290.4770727041
 10
213.4494703652
 20
291.4676397993
 10
214.286040197
 20
292.2537582969
 10
215.3401796818
 20
292.7584774414
 10
216.5087023023
 20
292.9323918061
  0
LWPOLYLINE
  5
136
330
1F
100
AcDbEntity
  8
0
  6
Continuous
 62
     7
370
    25
100
AcDbPolyline
 90
       20
 70
   128
 43
0.0
 10
216.5087023023
 20
292.6889021699
 10
215.3496283778
 20
292.5071513062
 10
214.3161580979
 20
291.9815942412
 10
213.5202840034
 20
291.1691832377
 10
213.0482514017
 20
290.157955634
 10
212.9512123495
 20
289.0574936316
 10
213.2396825338
 20
287.9870493639
 10
213.882401734
 20
287.062622077
 10
214.8097213522
 20
286.3843878114
 10
215.9211519186
 20
286.0258437737
 10
217.0962526859
 20
286.0258437737
 10
218.2076832524
 20
286.3843878114
 10
219.1350028705
 20
287.062622077
 10
219.7777220708
 20
287.9870493639
 10
220.0661922551
 20
289.0574936316
 10
219.9691532028
 20
290.157955634
 10
219.4971206011
 20
291.1691832377
 10
218.7012465066
 20
291.9815942412
 10
217.6677762267
 20
292.5071513062
 10
216.5087023023
 20
292.6889021699
  0
LWPOLYLINE
  5
137
330
1F
100
AcDbEntity
  8
0
  6
Continuous
 62
     7
370
    25
100
AcDbPolyline
 90
       22
 70
   128
 43
0.0
 10
216.5087023023
 20
285.8256494349
 10
215.3296816046
 20
285.9926410611
 10
214.25542207
 20
286.4787780011
 10
213.3813763724
 20
287.2408648542
 10
212.7852073077
 20
288.2111868593
 10
212.5198871135
 20
289.303526648
 10
212.6089906535
 20
290.4208250364
 10
213.0446006871
 20
291.4638051596
 10
213.7880113512
 20
292.3397936564
 10
214.7731673458
 20
292.9709551049
 10
215.9125332376
 20
293.3012080404
 10
217.104871367
 20
293.3012080404
 10
218.2442372587
 20
292.9709551049
 10
219.2293932533
 20
292.3397936564
 10
219.9728039174
 20
291.4638051596
 10
220.408413951
 20
290.4208250364
 10
220.497517491
 20
289.303526648
 10
220.2321972968
 20
288.2111868593
 10
219.6360282321
 20
287.2408648542
 10
218.7619825345
 20
286.4787780011
 10
217.6877229999
 20
285.9926410611
 10
216.5087023023
 20
285.8256494349
  0
SPLINE
  5
138
330
1F
100
AcDbEntity
  8
0
  6
Continuous
 62
     7
370
    25
100
AcDbSpline
210
0.0
220
0.0
230
1.0
 70
     8
 71
     3
 72
    18
 73
    14
 74
     0
 42
0.00000001
 43
0.00000001
 40
0.0
 40
0.0
 40
0.0
 40
0.0
 40
0.0348503263357425
 40
0.1408195667906486
 40
0.2472501830107265
 40
0.3548675078974132
 40
0.4625758967641599
 40
0.5690960360713846
 40
0.6750132365683814
 40
0.7818407229828578
 40
0.8896784078095752
 40
0.9970606913417767
 40
1.0
 40
1.0
 40
1.0
 40
1.0
 10
220.4591278685248
 20
289.7095350052857
 30
0.0
 10
220.4729258894388
 20
289.845489212935
 30
0.0
 10
220.5286794944107
 20
290.3948388069697
 30
0.0
 10
220.1694523553754
 20
291.3667048728566
 30
0.0
 10
219.4169600166304
 20
292.4460235515258
 30
0.0
 10
218.3036857076294
 20
293.234613746535
 30
0.0
 10
216.9930521054404
 20
293.6205490472783
 30
0.0
 10
215.6308139456111
 20
293.5525249728987
 30
0.0
 10
214.3769959142047
 20
293.0482452552687
 30
0.0
 10
213.3422452450538
 20
292.1680328553696
 30
0.0
 10
212.7087355536489
 20
291.0239039129319
 30
0.0
 10
212.4385053031116
 20
290.1398932965571
 30
0.0
 10
212.5126789567944
 20
289.7166115268579
 30
0.0
 10
212.5146551724939
 20
289.7053339904678
 30
0.0
  0
LINE
  5
139
330
1F
100
AcDbEntity
  8
0
  6
Continuous
 62
     7
370
    25
100
AcDbLine
 10
202.9963524023
 20
273.5545316411
 30
0.0
 11
202.9963524023
 21
322.9545316411
 31
0.0
  0
LINE
  5
13A
330
1F
100
AcDbEntity
  8
0
  6
Continuous
 62
     7
370
    25
100
AcDbLine
 10
209.5087023023
 20
273.2546305513
 30
0.0
 11
209.5087023023
 21
320.5090960756
 31
0.0
  0
SPLINE
  5
13B
330
1F
100
AcDbEntity
  8
0
  6
Continuous
 62
     7
370
    25
100
AcDbSpline
210
0.0
220
0.0
230
1.0
 70
     8
 71
     3
 72
    10
 73
     6
 74
     0
 42
0.00000001
 43
0.00000001
 40
0.0
 40
0.0
 40
0.0
 40
0.0
 40
0.5
 40
0.5
 40
1.0
 40
1.0
 40
1.0
 40
1.0
 10
210.3609449916135
 20
322.5968655488477
 30
0.0
 10
210.0767835431752
 20
322.3694267911384
 30
0.0
 10
209.864763979411
 20
322.0833189486294
 30
0.0
 10
209.5807228147042
 20
321.3896564626029
 30
0.0
 10
209.5087023022566
 20
320.9821577764158
 30
0.0
 10
209.5087023022566
 20
320.5090960756318
 30
0.0
  0
ELLIPSE
  5
13C
330
1F
100
AcDbEntity
  8
0
  6
Continuous
 62
     7
370
    25
100
AcDbEllipse
 10
209.5087023023
 20
298.2546305513
 30
0.0
 11
2.640597838118368
 21
24.99007957229236
 31
0.0
210
0.0
220
0.0
230
1.0
 40
0.2666888441
 41
0.0281724459375199
 42
0.2580715155677293
  0
LINE
  5
13D
330
1F
100
AcDbEntity
  8
0
  6
Continuous
 62
     7
370
    25
100
AcDbLine
 10
204.4607265592
 20
274.2800923871
 30
0.0
 11
204.4607265592
 21
322.2289708952
 31
0.0
  0
LINE
  5
13E
330
1F
100
AcDbEntity
  8
0
  6
Continuous
 62
     8
370
    18
100
AcDbLine
 10
154.4963524023
 20
248.2545316411
 30
0.0
 11
131.4963524023
 21
248.2545316411
 31
0.0
  0
LINE
  5
13F
330
1F
100
AcDbEntity
  8
0
  6
Continuous
 62
     8
370
    18
100
AcDbLine
 10
154.4963524023
 20
89.4545316411
 30
0.0
 11
131.4963524023
 21
89.4545316411
 31
0.0
  0
LINE
  5
140
330
1F
100
AcDbEntity
  8
0
  6
Continuous
 62
     8
370
    18
100
AcDbLine
 10
131.4963524023
 20
89.2545316411
 30
0.0
 11
154.4963524023
 21
89.2545316411
 31
0.0
  0
LWPOLYLINE
  5
141
330
1F
100
AcDbEntity
  8
0
  6
Continuous
 62
     8
370
    18
100
AcDbPolyline
 90
       16
 70
   128
 43
0.0
 10
242.1342259647
 20
271.0491701921
 10
241.9561289107
 20
270.4696238038
 10
241.4296214445
 20
269.9154063736
 10
240.5777144689
 20
269.4107398628
 10
239.4376404066
 20
268.9776806193
 10
238.0592259647
 20
268.6351554104
 10
236.5027144689
 20
268.3981342311
 10
234.8361329404
 20
268.2769760443
 10
233.1323189891
 20
268.2769760443
 10
231.4657374606
 20
268.3981342311
 10
229.9092259647
 20
268.6351554104
 10
228.5308115229
 20
268.9776806193
 10
227.3907374606
 20
269.4107398628
 10
226.538830485
 20
269.9154063736
 10
226.0123230188
 20
270.4696238038
 10
225.8342259647
 20
271.0491701921
  0
LWPOLYLINE
  5
142
330
1F
100
AcDbEntity
  8
0
  6
Continuous
 62
     8
370
    18
100
AcDbPolyline
 90
       13
 70
   128
 43
0.0
 10
228.0342259647
 20
273.1164939578
 10
228.2369672983
 20
272.5897920627
 10
228.8313748122
 20
272.0989840314
 10
229.7769406167
 20
271.67751762
 10
231.0092259647
 20
271.3541150681
 10
232.4442526464
 20
271.150815725
 10
233.9842259647
 20
271.081474105
 10
235.5241992831
 20
271.150815725
 10
236.9592259647
 20
271.3541150681
 10
238.1915113128
 20
271.67751762
 10
239.1370771173
 20
272.0989840314
 10
239.7314846312
 20
272.5897920627
 10
239.9342259647
 20
273.1164939578
  0
LWPOLYLINE
  5
143
330
1F
100
AcDbEntity
  8
0
  6
Continuous
 62
     8
370
    18
100
AcDbPolyline
 90
       16
 70
   128
 43
0.0
 10
225.8342259647
 20
267.0084919227
 10
226.0123230188
 20
266.4289455344
 10
226.538830485
 20
265.8747281043
 10
227.3907374606
 20
265.3700615934
 10
228.5308115229
 20
264.93700235
 10
229.9092259647
 20
264.594477141
 10
231.4657374606
 20
264.3574559617
 10
233.1323189891
 20
264.236297775
 10
234.8361329404
 20
264.236297775
 10
236.5027144689
 20
264.3574559617
 10
238.0592259647
 20
264.594477141
 10
239.4376404066
 20
264.93700235
 10
240.5777144689
 20
265.3700615934
 10
241.4296214445
 20
265.8747281043
 10
241.9561289107
 20
266.4289455344
 10
242.1342259647
 20
267.0084919227
  0
LINE
  5
144
330
1F
100
AcDbEntity
  8
0
  6
Continuous
 62
     8
370
    18
100
AcDbLine
 10
239.9342259647
 20
273.1164939578
 30
0.0
 11
239.9342259647
 21
292.7174339911
 31
0.0
  0
LINE
  5
145
330
1F
100
AcDbEntity
  8
0
  6
Continuous
 62
     8
370
    18
100
AcDbLine
 10
228.0342259647
 20
292.2795313107
 30
0.0
 11
228.0342259647
 21
273.1164939578
 31
0.0
  0
SPLINE
  5
146
330
1F
100
AcDbEntity
  8
0
  6
Continuous
 62
     8
370
    18
100
AcDbSpline
210
0.0
220
0.0
230
1.0
 70
     8
 71
     3
 72
     8
 73
     4
 74
     0
 42
0.00000001
 43
0.00000001
 40
0.0
 40
0.0
 40
0.0
 40
0.0
 40
1.0
 40
1.0
 40
1.0
 40
1.0
 10
227.9114462114707
 20
292.717433991141
 30
0.0
 10
227.9932933958266
 20
292.5728085607748
 30
0.0
 10
228.0342259647483
 20
292.426841196906
 30
0.0
 10
228.0342259647483
 20
292.2795313106893
 30
0.0
  0
ARC
  5
147
330
1F
100
AcDbEntity
  8
0
  6
Continuous
 62
     8
370
    18
100
AcDbCircle
 10
142.9963524023
 20
298.2545316411
 30
0.0
 40
26.70261796064946
100
AcDbArc
 50
295.5100483653
 51
244.4899516347
  0
LWPOLYLINE
  5
148
330
1F
100
AcDbEntity
  8
0
  6
Continuous
 62
     8
370
    18
100
AcDbPolyline
 90
       28
 70
   128
 43
0.0
 10
154.5219420759
 20
323.2442713688
 10
154.5701621189
 20
323.2306790591
 10
155.0060416301
 20
323.1047588413
 10
155.7476783926
 20
322.8782091007
 10
157.0706525294
 20
322.4343652424
 10
158.5964580678
 20
321.8559984983
 10
162.971838559
 20
319.7492727881
 10
167.4542045492
 20
316.7061527623
 10
170.5149542312
 20
313.8546398096
 10
173.2892188199
 20
310.3157322928
 10
174.7628945646
 20
307.7230366612
 10
175.9467630376
 20
304.8035523481
 10
176.6884575906
 20
301.8211794442
 10
176.9935126639
 20
298.5978322644
 10
176.829365142
 20
295.6251583131
 10
176.2282283414
 20
292.6402611902
 10
175.8749595858
 20
291.4888349365
 10
174.5037859066
 20
288.2715861628
 10
172.6875931367
 20
285.3123944217
 10
170.9897511228
 20
283.1788719051
 10
169.1469621245
 20
281.2788192408
 10
165.0363341076
 20
278.0287672082
 10
161.2206740151
 20
275.8301510408
 10
157.4832492814
 20
274.2238884279
 10
156.1039165827
 20
273.7452889094
 10
154.9984400264
 20
273.4020629879
 10
154.4854776954
 20
273.2545316411
 10
154.4854776954
 20
273.2545316411
  0
SPLINE
  5
149
330
1F
100
AcDbEntity
  8
0
  6
Continuous
 62
     8
370
    18
100
AcDbSpline
210
0.0
220
0.0
230
1.0
 70
     8
 71
     3
 72
     8
 73
     4
 74
     0
 42
0.00000001
 43
0.00000001
 40
0.0
 40
0.0
 40
0.0
 40
0.0
 40
1.0
 40
1.0
 40
1.0
 40
1.0
 10
225.8342259647483
 20
290.2122075449603
 30
0.0
 10
225.8342259647483
 20
290.3210828745229
 30
0.0
 10
225.8067238607875
 20
290.4293852140575
 30
0.0
 10
225.7517619513529
 20
290.5371488061899
 30
0.0
  0
SPLINE
  5
14A
330
1F
100
AcDbEntity
  8
0
  6
Continuous
 62
     8
370
    18
100
AcDbSpline
210
0.0
220
0.0
230
1.0
 70
     8
 71
     3
 72
    22
 73
    18
 74
     0
 42
0.00000001
 43
0.00000001
 40
0.0
 40
0.0
 40
0.0
 40
0.0
 40
0.1250000000000032
 40
0.1250000000000032
 40
0.1875000000000047
 40
0.1875000000000047
 40
0.2500000000000063
 40
0.2500000000000063
 40
0.3750000000000034
 40
0.3750000000000034
 40
0.5000000000000004
 40
0.5000000000000004
 40
0.7500000000000002
 40
0.7500000000000002
 40
0.8750000000000001
 40
0.8750000000000001
 40
1.0
 40
1.0
 40
1.0
 40
1.0
 10
225.7517619513529
 20
286.4364482431787
 30
0.0
 10
225.6814728444673
 20
286.5477735096684
 30
0.0
 10
225.571527240294
 20
286.589610578275
 30
0.0
 10
225.3630143555197
 20
286.575301726322
 30
0.0
 10
225.2869369501455
 20
286.5574408666584
 30
0.0
 10
225.1273319493483
 20
286.5017277787105
 30
0.0
 10
225.043541236436
 20
286.4639028283634
 30
0.0
 10
224.7826360189208
 20
286.3266416526725
 30
0.0
 10
224.5947758014512
 20
286.2026251938639
 30
0.0
 10
224.2109124054233
 20
285.9179368519213
 30
0.0
 10
224.0141996723212
 20
285.7569709804371
 30
0.0
 10
223.4143212290511
 20
285.2350053005555
 30
0.0
 10
223.0001579244057
 20
284.8341247932697
 30
0.0
 10
222.3778948991506
 20
284.1945570616959
 30
0.0
 10
222.1698285601293
 20
283.9743380516233
 30
0.0
 10
221.7527054927344
 20
283.5214976269759
 30
0.0
 10
221.5425297861485
 20
283.2875952447225
 30
0.0
 10
221.3342259647483
 20
283.0502753355947
 30
0.0
  0
LINE
  5
14B
330
1F
100
AcDbEntity
  8
0
  6
Continuous
 62
     8
370
    18
100
AcDbLine
 10
221.3342259647
 20
283.0502753356
 30
0.0
 11
221.3342259647
 21
297.1456646474
 31
0.0
  0
SPLINE
  5
14C
330
1F
100
AcDbEntity
  8
0
  6
Continuous
 62
     8
370
    18
100
AcDbSpline
210
0.0
220
0.0
230
1.0
 70
     8
 71
     3
 72
    22
 73
    18
 74
     0
 42
0.00000001
 43
0.00000001
 40
0.0
 40
0.0
 40
0.0
 40
0.0
 40
0.1250000000000024
 40
0.1250000000000024
 40
0.1875000000000037
 40
0.1875000000000037
 40
0.250000000000005
 40
0.250000000000005
 40
0.375000000000003
 40
0.375000000000003
 40
0.500000000000001
 40
0.500000000000001
 40
0.7500000000000006
 40
0.7500000000000006
 40
0.8750000000000002
 40
0.8750000000000002
 40
1.0
 40
1.0
 40
1.0
 40
1.0
 10
225.7517619513529
 20
290.5371488061899
 30
0.0
 10
225.6814728444673
 20
290.6749643719826
 30
0.0
 10
225.571527240294
 20
290.8652167567197
 30
0.0
 10
225.3630143555197
 20
291.2065315784643
 30
0.0
 10
225.2869369501455
 20
291.3284579521912
 30
0.0
 10
225.1273319493482
 20
291.5803953465088
 30
0.0
 10
225.043541236436
 20
291.7108489734788
 30
0.0
 10
224.7826360189208
 20
292.112905825882
 30
0.0
 10
224.5947758014512
 20
292.3970356821159
 30
0.0
 10
224.2109124054233
 20
292.9711924425458
 30
0.0
 10
224.0141996723212
 20
293.2623396775348
 30
0.0
 10
223.4143212290511
 20
294.1444622725302
 30
0.0
 10
223.0001579244057
 20
294.7460779964486
 30
0.0
 10
222.3778948991506
 20
295.6453442451499
 30
0.0
 10
222.1698285601293
 20
295.9452103652316
 30
0.0
 10
221.7527054927344
 20
296.5452346831635
 30
0.0
 10
221.5425297861587
 20
296.8469933983277
 30
0.0
 10
221.3342259647483
 20
297.1456646473833
 30
0.0
  0
SPLINE
  5
14D
330
1F
100
AcDbEntity
  8
0
  6
Continuous
 62
     8
370
    18
100
AcDbSpline
210
0.0
220
0.0
230
1.0
 70
     8
 71
     3
 72
    24
 73
    20
 74
     0
 42
0.00000001
 43
0.00000001
 40
0.0
 40
0.0
 40
0.0
 40
0.0
 40
0.1249999999999983
 40
0.1249999999999983
 40
0.1874999999999963
 40
0.1874999999999963
 40
0.2499999999999942
 40
0.2499999999999942
 40
0.3749999999999958
 40
0.3749999999999958
 40
0.4999999999999974
 40
0.4999999999999974
 40
0.7500000000000007
 40
0.7500000000000007
 40
0.8750000000000003
 40
0.8750000000000003
 40
0.9375000000000001
 40
0.9375000000000001
 40
1.0
 40
1.0
 40
1.0
 40
1.0
 10
227.9114462114707
 20
292.717433991141
 30
0.0
 10
227.8076159898071
 20
292.8406600086195
 30
0.0
 10
227.6478055936538
 20
292.9925776484355
 30
0.0
 10
227.3479807639732
 20
293.2479478003957
 30
0.0
 10
227.2382982826031
 20
293.3373143775487
 30
0.0
 10
227.007980978357
 20
293.5185987430231
 30
0.0
 10
226.8868777914207
 20
293.6109366174786
 30
0.0
 10
226.508947788816
 20
293.8918027072992
 30
0.0
 10
226.2357176847064
 20
294.0854100225707
 30
0.0
 10
225.6723509614416
 20
294.4714103331272
 30
0.0
 10
225.381903709236
 20
294.6641361216491
 30
0.0
 10
224.4910527345725
 20
295.2417951207099
 30
0.0
 10
223.8688671515172
 20
295.627643797444
 30
0.0
 10
222.9249758577608
 20
296.2000664551314
 30
0.0
 10
222.6077131043643
 20
296.3903154401213
 30
0.0
 10
222.1309136179723
 20
296.6742859943989
 30
0.0
 10
221.9717741375477
 20
296.7687415005341
 30
0.0
 10
221.6531712394751
 20
296.9573930461051
 30
0.0
 10
221.4926621109087
 20
297.0522057133596
 30
0.0
 10
221.3342259647483
 20
297.1456646473833
 30
0.0
  0
SPLINE
  5
14E
330
1F
100
AcDbEntity
  8
0
  6
Continuous
 62
     8
370
    18
100
AcDbSpline
210
0.0
220
0.0
230
1.0
 70
     8
 71
     3
 72
    14
 73
    10
 74
     0
 42
0.00000001
 43
0.00000001
 40
0.0
 40
0.0
 40
0.0
 40
0.0
 40
0.25
 40
0.25
 40
0.5
 40
0.5
 40
0.75
 40
0.75
 40
1.0
 40
1.0
 40
1.0
 40
1.0
 10
239.9342259647484
 20
294.1660665641317
 30
0.0
 10
239.9882926723353
 20
294.3745305966454
 30
0.0
 10
240.0368424595912
 20
294.5980679630863
 30
0.0
 10
240.1206657160853
 20
295.0634928405389
 30
0.0
 10
240.1563053490163
 20
295.3066223822553
 30
0.0
 10
240.2146021034462
 20
295.814489918533
 30
0.0
 10
240.237003473994
 20
296.0787453079063
 30
0.0
 10
240.2666226438057
 20
296.6078114067984
 30
0.0
 10
240.2741810248468
 20
296.875232300986
 30
0.0
 10
240.2741810248468
 20
297.1456646473833
 30
0.0
  0
LINE
  5
14F
330
1F
100
AcDbEntity
  8
0
  6
Continuous
 62
     8
370
    18
100
AcDbLine
 10
239.9342259647
 20
292.7174339911
 30
0.0
 11
239.9342259647
 21
294.1660665641
 31
0.0
  0
LINE
  5
150
330
1F
100
AcDbEntity
  8
0
  6
Continuous
 62
     8
370
    18
100
AcDbLine
 10
221.3342259647
 20
297.1456646474
 30
0.0
 11
240.2741810248
 21
297.1456646474
 31
0.0
  0
LWPOLYLINE
  5
151
330
1F
100
AcDbEntity
  8
0
  6
Continuous
 62
     8
370
    18
100
AcDbPolyline
 90
        3
 70
   128
 43
0.0
 10
225.7517619514
 20
286.4364482432
 10
225.7985598701
 20
286.0405197321
 10
225.8342259647
 20
285.905367304
  0
SPLINE
  5
152
330
1F
100
AcDbEntity
  8
0
  6
Continuous
 62
     8
370
    18
100
AcDbSpline
210
0.0
220
0.0
230
1.0
 70
     8
 71
     3
 72
    14
 73
    10
 74
     0
 42
0.00000001
 43
0.00000001
 40
0.0
 40
0.0
 40
0.0
 40
0.0
 40
0.2499999999999987
 40
0.2499999999999987
 40
0.3749999999999981
 40
0.3749999999999981
 40
0.4999999999999974
 40
0.4999999999999974
 40
1.0
 40
1.0
 40
1.0
 40
1.0
 10
242.4458784525445
 20
297.2276503566785
 30
0.0
 10
242.4458784525445
 20
296.8326721566377
 30
0.0
 10
242.4387115463663
 20
296.4416644657985
 30
0.0
 10
242.4176063316611
 20
295.8608871578301
 30
0.0
 10
242.4088353456179
 20
295.6682559760793
 30
0.0
 10
242.3877682631643
 20
295.2849446215189
 30
0.0
 10
242.3754011123821
 20
295.0934734993118
 30
0.0
 10
242.3058238209272
 20
294.1584963433053
 30
0.0
 10
242.2254598036029
 20
293.4682671084894
 30
0.0
 10
242.1209124889215
 20
292.84160373835
 30
0.0
  0
ARC
  5
153
330
1F
100
AcDbEntity
  8
0
  6
Continuous
 62
     8
370
    18
100
AcDbCircle
 10
240.7069375325
 20
314.4862414953
 30
0.0
 40
17.34597600637711
100
AcDbArc
 50
268.5704065105
 51
275.7535894247
  0
SPLINE
  5
154
330
1F
100
AcDbEntity
  8
0
  6
Continuous
 62
     8
370
    18
100
AcDbSpline
210
0.0
220
0.0
230
1.0
 70
     8
 71
     3
 72
    11
 73
     7
 74
     0
 42
0.00000001
 43
0.00000001
 40
0.0
 40
0.0
 40
0.0
 40
0.0
 40
0.4104112162778361
 40
0.702190029633445
 40
0.9969672011878392
 40
0.9999999999999999
 40
0.9999999999999999
 40
0.9999999999999999
 40
0.9999999999999999
 10
225.8342259647483
 20
284.6304969147594
 30
0.0
 10
225.2518753500445
 20
284.4931809087292
 30
0.0
 10
224.2555068806235
 20
284.2582411056263
 30
0.0
 10
222.7149677699487
 20
283.6644010561865
 30
0.0
 10
221.8013673644601
 20
283.269131986228
 30
0.0
 10
221.3389352216337
 20
283.0524816315674
 30
0.0
 10
221.3342259647483
 20
283.0502753355947
 30
0.0
  0
LINE
  5
155
330
1F
100
AcDbEntity
  8
0
  6
Continuous
 62
     8
370
    18
100
AcDbLine
 10
225.8342259647
 20
283.0502753356
 30
0.0
 11
221.3342259647
 21
283.0502753356
 31
0.0
  0
LINE
  5
156
330
1F
100
AcDbEntity
  8
0
  6
Continuous
 62
     8
370
    18
100
AcDbLine
 10
202.6963524023
 20
273.2545316411
 30
0.0
 11
202.6963524023
 21
323.2545316411
 31
0.0
  0
LINE
  5
157
330
1F
100
AcDbEntity
  8
0
  6
Continuous
 62
     8
370
    18
100
AcDbLine
 10
240.2741810248
 20
297.1456646474
 30
0.0
 11
240.2741810248
 21
323.2546305513
 31
0.0
  0
LINE
  5
158
330
1F
100
AcDbEntity
  8
0
  6
Continuous
 62
     8
370
    18
100
AcDbLine
 10
242.4458784525
 20
284.1743313975
 30
0.0
 11
242.4458784525
 21
275.1028773956
 31
0.0
  0
LINE
  5
159
330
1F
100
AcDbEntity
  8
0
  6
Continuous
 62
     8
370
    18
100
AcDbLine
 10
242.4458784525
 20
321.406383707
 30
0.0
 11
242.4458784525
 21
297.2276503567
 31
0.0
  0
ARC
  5
15A
330
1F
100
AcDbEntity
  8
0
  6
Continuous
 62
     8
370
    18
100
AcDbCircle
 10
241.3651799378
 20
284.4998575544
 30
0.0
 40
1.128661401249938
100
AcDbArc
 50
312.9514867758
 51
343.2367380079
  0
SPLINE
  5
15B
330
1F
100
AcDbEntity
  8
0
  6
Continuous
 62
     8
370
    18
100
AcDbSpline
210
0.0
220
0.0
230
1.0
 70
     8
 71
     3
 72
    16
 73
    12
 74
     0
 42
0.00000001
 43
0.00000001
 40
0.0
 40
0.0
 40
0.0
 40
0.0
 40
0.2500000000000054
 40
0.2500000000000054
 40
0.5000000000000109
 40
0.5000000000000109
 40
0.6250000000000099
 40
0.6250000000000099
 40
0.750000000000009
 40
0.750000000000009
 40
1.0
 40
1.0
 40
1.0
 40
1.0
 10
242.1209124889216
 20
286.662838906086
 30
0.0
 10
242.1731200790496
 20
286.5741090043361
 30
0.0
 10
242.219620337246
 20
286.4526365855995
 30
0.0
 10
242.2998754757764
 20
286.1507052576494
 30
0.0
 10
242.3339210852022
 20
285.9698228475263
 30
0.0
 10
242.375588642976
 20
285.652156737798
 30
0.0
 10
242.3879206032535
 20
285.5380728465357
 30
0.0
 10
242.408932157145
 20
285.2983760296263
 30
0.0
 10
242.4176801859997
 20
285.1723631841788
 30
0.0
 10
242.4387302412731
 20
284.7760992834075
 30
0.0
 10
242.4458784525445
 20
284.4877627501503
 30
0.0
 10
242.4458784525445
 20
284.1743313974887
 30
0.0
  0
ARC
  5
15C
330
1F
100
AcDbEntity
  8
0
  6
Continuous
 62
     7
370
    25
100
AcDbCircle
 10
319.628891291
 20
389.7530196937
 30
0.0
 40
0.3000000000000114
100
AcDbArc
 50
180.0
 51
270.0
  0
ARC
  5
15D
330
1F
100
AcDbEntity
  8
0
  6
Continuous
 62
     7
370
    25
100
AcDbCircle
 10
373.028891291
 20
389.7530196937
 30
0.0
 40
0.3000000000000114
100
AcDbArc
 50
270.0
 51
0.0
  0
LINE
  5
15E
330
1F
100
AcDbEntity
  8
0
  6
Continuous
 62
     7
370
    25
100
AcDbLine
 10
319.328891291
 20
502.9530196937
 30
0.0
 11
319.328891291
 21
389.7530196937
 31
0.0
  0
LINE
  5
15F
330
1F
100
AcDbEntity
  8
0
  6
Continuous
 62
     7
370
    25
100
AcDbLine
 10
373.328891291
 20
389.7530196937
 30
0.0
 11
373.328891291
 21
502.9530196937
 31
0.0
  0
ARC
  5
160
330
1F
100
AcDbEntity
  8
0
  6
Continuous
 62
     7
370
    25
100
AcDbCircle
 10
319.528891291
 20
502.9530196937
 30
0.0
 40
0.1999999999999886
100
AcDbArc
 50
90.0
 51
180.0
  0
ARC
  5
161
330
1F
100
AcDbEntity
  8
0
  6
Continuous
 62
     7
370
    25
100
AcDbCircle
 10
373.128891291
 20
502.9530196937
 30
0.0
 40
0.1999999999999886
100
AcDbArc
 50
0.0
 51
90.0
  0
LINE
  5
162
330
1F
100
AcDbEntity
  8
0
  6
Continuous
 62
     7
370
    25
100
AcDbLine
 10
319.328891291
 20
536.5290867475
 30
0.0
 11
319.328891291
 21
531.9530196937
 31
0.0
  0
LINE
  5
163
330
1F
100
AcDbEntity
  8
0
  6
Continuous
 62
     7
370
    25
100
AcDbLine
 10
373.328891291
 20
531.9530196937
 30
0.0
 11
373.328891291
 21
536.5290867475
 31
0.0
  0
LINE
  5
164
330
1F
100
AcDbEntity
  8
0
  6
Continuous
 62
     7
370
    25
100
AcDbLine
 10
319.328891291
 20
531.4530196937
 30
0.0
 11
319.328891291
 21
503.4530196937
 31
0.0
  0
LINE
  5
165
330
1F
100
AcDbEntity
  8
0
  6
Continuous
 62
     7
370
    25
100
AcDbLine
 10
373.328891291
 20
503.4530196937
 30
0.0
 11
373.328891291
 21
531.4530196937
 31
0.0
  0
ARC
  5
166
330
1F
100
AcDbEntity
  8
0
  6
Continuous
 62
     7
370
    25
100
AcDbCircle
 10
319.528891291
 20
531.9530196937
 30
0.0
 40
0.2000000000000455
100
AcDbArc
 50
180.0
 51
270.0
  0
ARC
  5
167
330
1F
100
AcDbEntity
  8
0
  6
Continuous
 62
     7
370
    25
100
AcDbCircle
 10
373.128891291
 20
531.9530196937
 30
0.0
 40
0.2000000000000455
100
AcDbArc
 50
270.0
 51
0.0
  0
ARC
  5
168
330
1F
100
AcDbEntity
  8
0
  6
Continuous
 62
     7
370
    25
100
AcDbCircle
 10
373.028891291
 20
536.5290867475
 30
0.0
 40
0.3000000000000533
100
AcDbArc
 50
0.0
 51
89.5
  0
ARC
  5
169
330
1F
100
AcDbEntity
  8
0
  6
Continuous
 62
     7
370
    25
100
AcDbCircle
 10
319.628891291
 20
536.5290867475
 30
0.0
 40
0.3000000000000523
100
AcDbArc
 50
90.5
 51
180.0
  0
LINE
  5
16A
330
1F
100
AcDbEntity
  8
0
  6
Continuous
 62
     7
370
    25
100
AcDbLine
 10
373.0315092517
 20
536.8290753244
 30
0.0
 11
358.778891291
 21
536.953456037
 31
0.0
  0
LINE
  5
16B
330
1F
100
AcDbEntity
  8
0
  6
Continuous
 62
     7
370
    25
100
AcDbLine
 10
333.878891291
 20
536.953456037
 30
0.0
 11
319.6262733304
 21
536.8290753244
 31
0.0
  0
LINE
  5
16C
330
1F
100
AcDbEntity
  8
0
  6
Continuous
 62
     7
370
    25
100
AcDbLine
 10
319.828891291
 20
531.7530196937
 30
0.0
 11
319.828891291
 21
531.4530196937
 31
0.0
  0
LINE
  5
16D
330
1F
100
AcDbEntity
  8
0
  6
Continuous
 62
     7
370
    25
100
AcDbLine
 10
372.828891291
 20
531.4530196937
 30
0.0
 11
372.828891291
 21
531.7530196937
 31
0.0
  0
LINE
  5
16E
330
1F
100
AcDbEntity
  8
0
  6
Continuous
 62
     7
370
    25
100
AcDbLine
 10
372.828891291
 20
503.1530196937
 30
0.0
 11
372.828891291
 21
503.4530196937
 31
0.0
  0
LINE
  5
16F
330
1F
100
AcDbEntity
  8
0
  6
Continuous
 62
     7
370
    25
100
AcDbLine
 10
319.828891291
 20
503.4530196937
 30
0.0
 11
319.828891291
 21
503.1530196937
 31
0.0
  0
ARC
  5
170
330
1F
100
AcDbEntity
  8
0
  6
Continuous
 62
     7
370
    25
100
AcDbCircle
 10
321.828891291
 20
390.9530196937
 30
0.0
 40
2.0
100
AcDbArc
 50
228.5903778907
 51
270.0
  0
ARC
  5
171
330
1F
100
AcDbEntity
  8
0
  6
Continuous
 62
     7
370
    25
100
AcDbCircle
 10
370.828891291
 20
390.9530196937
 30
0.0
 40
2.000000000000003
100
AcDbArc
 50
270.0
 51
311.4096221093
  0
LINE
  5
172
330
1F
100
AcDbEntity
  8
0
  6
Continuous
 62
     7
370
    25
100
AcDbLine
 10
321.828891291
 20
388.9530196937
 30
0.0
 11
370.828891291
 21
388.9530196937
 31
0.0
  0
LINE
  5
173
330
1F
100
AcDbEntity
  8
0
  6
Continuous
 62
     7
370
    25
100
AcDbLine
 10
333.878891291
 20
537.1530196937
 30
0.0
 11
333.878891291
 21
536.953456037
 31
0.0
  0
LINE
  5
174
330
1F
100
AcDbEntity
  8
0
  6
Continuous
 62
     7
370
    25
100
AcDbLine
 10
358.778891291
 20
536.953456037
 30
0.0
 11
358.778891291
 21
537.1530196937
 31
0.0
  0
LINE
  5
175
330
1F
100
AcDbEntity
  8
0
  6
Continuous
 62
     7
370
    25
100
AcDbLine
 10
334.828891291
 20
668.3530196937
 30
0.0
 11
334.828891291
 21
537.1530196937
 31
0.0
  0
LINE
  5
176
330
1F
100
AcDbEntity
  8
0
  6
Continuous
 62
     7
370
    25
100
AcDbLine
 10
357.828891291
 20
537.1530196937
 30
0.0
 11
357.828891291
 21
668.3530196937
 31
0.0
  0
ARC
  5
177
330
1F
100
AcDbEntity
  8
0
  6
Continuous
 62
     7
370
    25
100
AcDbCircle
 10
396.328891291
 20
668.3530196937
 30
0.0
 40
38.5
100
AcDbArc
 50
90.0
 51
180.0
  0
ARC
  5
178
330
1F
100
AcDbEntity
  8
0
  6
Continuous
 62
     7
370
    25
100
AcDbCircle
 10
396.328891291
 20
668.3530196937
 30
0.0
 40
61.50000000000011
100
AcDbArc
 50
90.0
 51
180.0
  0
LINE
  5
179
330
1F
100
AcDbEntity
  8
0
  6
Continuous
 62
     7
370
    25
100
AcDbLine
 10
555.128891291
 20
729.8530196937
 30
0.0
 11
396.328891291
 21
729.8530196937
 31
0.0
  0
LINE
  5
17A
330
1F
100
AcDbEntity
  8
0
  6
Continuous
 62
     7
370
    25
100
AcDbLine
 10
549.478891291
 20
706.8530196937
 30
0.0
 11
555.128891291
 21
706.8530196937
 31
0.0
  0
LINE
  5
17B
330
1F
100
AcDbEntity
  8
0
  6
Continuous
 62
     7
370
    25
100
AcDbLine
 10
396.328891291
 20
706.8530196937
 30
0.0
 11
530.8635103902
 21
706.8530196937
 31
0.0
  0
LINE
  5
17C
330
1F
100
AcDbEntity
  8
0
  6
Continuous
 62
     7
370
    25
100
AcDbLine
 10
555.128891291
 20
706.8530196937
 30
0.0
 11
555.328891291
 21
706.8530196937
 31
0.0
  0
LINE
  5
17D
330
1F
100
AcDbEntity
  8
0
  6
Continuous
 62
     7
370
    25
100
AcDbLine
 10
555.328891291
 20
729.8530196937
 30
0.0
 11
555.128891291
 21
729.8530196937
 31
0.0
  0
ARC
  5
17E
330
1F
100
AcDbEntity
  8
0
  6
Continuous
 62
     7
370
    25
100
AcDbCircle
 10
555.328891291
 20
707.8530196937
 30
0.0
 40
1.0
100
AcDbArc
 50
270.0
 51
0.0
  0
ARC
  5
17F
330
1F
100
AcDbEntity
  8
0
  6
Continuous
 62
     7
370
    25
100
AcDbCircle
 10
555.328891291
 20
728.8530196937
 30
0.0
 40
1.0
100
AcDbArc
 50
0.0
 51
90.0
  0
LINE
  5
180
330
1F
100
AcDbEntity
  8
0
  6
Continuous
 62
     7
370
    25
100
AcDbLine
 10
530.778891291
 20
706.921566172
 30
0.0
 11
530.778891291
 21
704.2030196937
 31
0.0
  0
LINE
  5
181
330
1F
100
AcDbEntity
  8
0
  6
Continuous
 62
     7
370
    25
100
AcDbLine
 10
549.478891291
 20
704.2030196937
 30
0.0
 11
549.478891291
 21
706.8530196937
 31
0.0
  0
ARC
  5
182
330
1F
100
AcDbEntity
  8
0
  6
Continuous
 62
     7
370
    25
100
AcDbCircle
 10
375.5692725929
 20
551.0767435471
 30
0.0
 40
2.20000000000003
100
AcDbArc
 50
70.0
 51
160.0
  0
LINE
  5
183
330
1F
100
AcDbEntity
  8
0
  6
Continuous
 62
     7
370
    25
100
AcDbLine
 10
380.3623951776
 20
551.6733806965
 30
0.0
 11
376.3217169082
 21
553.1440673128
 31
0.0
  0
ARC
  5
184
330
1F
100
AcDbEntity
  8
0
  6
Continuous
 62
     7
370
    25
100
AcDbCircle
 10
379.6099508623
 20
549.6060569308
 30
0.0
 40
2.200000000000069
100
AcDbArc
 50
340.0
 51
70.0
  0
LINE
  5
185
330
1F
100
AcDbEntity
  8
0
  6
Continuous
 62
     7
370
    25
100
AcDbLine
 10
373.028891291
 20
389.4530196937
 30
0.0
 11
319.628891291
 21
389.4530196937
 31
0.0
  0
LINE
  5
186
330
1F
100
AcDbEntity
  8
0
  6
Continuous
 62
     7
370
    25
100
AcDbLine
 10
319.528891404
 20
503.1530196937
 30
0.0
 11
373.128891291
 21
503.1530196937
 31
0.0
  0
LINE
  5
187
330
1F
100
AcDbEntity
  8
0
  6
Continuous
 62
     7
370
    25
100
AcDbLine
 10
319.328891291
 20
503.4530196937
 30
0.0
 11
373.328891291
 21
503.4530196937
 31
0.0
  0
LINE
  5
188
330
1F
100
AcDbEntity
  8
0
  6
Continuous
 62
     7
370
    25
100
AcDbLine
 10
319.328891291
 20
531.4530196937
 30
0.0
 11
373.328891291
 21
531.4530196937
 31
0.0
  0
LINE
  5
189
330
1F
100
AcDbEntity
  8
0
  6
Continuous
 62
     7
370
    25
100
AcDbLine
 10
373.128891291
 20
531.7530196937
 30
0.0
 11
319.528891291
 21
531.7530196937
 31
0.0
  0
LINE
  5
18A
330
1F
100
AcDbEntity
  8
0
  6
Continuous
 62
     7
370
    25
100
AcDbLine
 10
333.878891291
 20
536.953456037
 30
0.0
 11
358.778891291
 21
536.953456037
 31
0.0
  0
LINE
  5
18B
330
1F
100
AcDbEntity
  8
0
  6
Continuous
 62
     7
370
    25
100
AcDbLine
 10
333.878891291
 20
537.1530196937
 30
0.0
 11
358.778891291
 21
537.1530196937
 31
0.0
  0
SPLINE
  5
18C
330
1F
100
AcDbEntity
  8
0
  6
Continuous
 62
     7
370
    25
100
AcDbSpline
210
0.0
220
0.0
230
1.0
 70
     8
 71
     3
 72
    20
 73
    16
 74
     0
 42
0.00000001
 43
0.00000001
 40
0.0
 40
0.0
 40
0.0
 40
0.0
 40
0.0270118481207813
 40
0.1062148195226195
 40
0.1890872776284364
 40
0.3093503846886639
 40
0.3695303728669814
 40
0.4318588178842426
 40
0.4947061123358663
 40
0.5577560734056906
 40
0.6429061441535266
 40
0.7674475532216917
 40
0.8712987415517229
 40
0.9560650821072509
 40
1.0
 40
1.0
 40
1.0
 40
1.0
 10
530.863510390229
 20
706.921639040915
 30
0.0
 10
530.8391468511693
 20
706.9018876659233
 30
0.0
 10
530.7433455978605
 20
706.8242221644479
 30
0.0
 10
531.2989826969894
 20
707.2760138145593
 30
0.0
 10
532.5561380915372
 20
708.2610763978763
 30
0.0
 10
534.3419545500889
 20
709.5565952574216
 30
0.0
 10
536.308947850136
 20
710.6843445432755
 30
0.0
 10
538.0125586912138
 20
711.4047218196631
 30
0.0
 10
539.9555225620776
 20
711.7575097639632
 30
0.0
 10
542.1639527090998
 20
711.4694166402662
 30
0.0
 10
544.6703997494253
 20
710.3669243868337
 30
0.0
 10
547.0030809711457
 20
708.7909464642662
 30
0.0
 10
548.6884833659467
 20
707.4934377882647
 30
0.0
 10
549.3995917972912
 20
706.9174871863357
 30
0.0
 10
549.4587100241577
 20
706.8694263012248
 30
0.0
 10
549.4788912910285
 20
706.8530196936542
 30
0.0
  0
LINE
  5
18D
330
1F
100
AcDbEntity
  8
0
  6
Continuous
 62
     7
370
    25
100
AcDbLine
 10
556.328891291
 20
718.3530196937
 30
0.0
 11
556.328891291
 21
728.8530196937
 31
0.0
  0
LINE
  5
18E
330
1F
100
AcDbEntity
  8
0
  6
Continuous
 62
     7
370
    25
100
AcDbLine
 10
556.328891291
 20
707.8530196937
 30
0.0
 11
556.328891291
 21
718.3530196937
 31
0.0
  0
LINE
  5
18F
330
1F
100
AcDbEntity
  8
0
  6
Continuous
 62
     7
370
    25
100
AcDbLine
 10
530.778891291
 20
704.2030196937
 30
0.0
 11
549.478891291
 21
704.2030196937
 31
0.0
  0
LINE
  5
190
330
1F
100
AcDbEntity
  8
0
  6
Continuous
 62
     7
370
    25
100
AcDbLine
 10
368.0581513295
 20
536.8724771615
 30
0.0
 11
371.4669289744
 21
546.2380167688
 31
0.0
  0
LINE
  5
191
330
1F
100
AcDbEntity
  8
0
  6
Continuous
 62
     7
370
    25
100
AcDbLine
 10
379.6422547752
 20
543.2624415218
 30
0.0
 11
373.328891291
 21
525.9166179082
 31
0.0
  0
LINE
  5
192
330
1F
100
AcDbEntity
  8
0
  6
Continuous
 62
     7
370
    25
100
AcDbLine
 10
371.4669289744
 20
546.2380167688
 30
0.0
 11
373.5019488272
 21
551.8291878624
 31
0.0
  0
LINE
  5
193
330
1F
100
AcDbEntity
  8
0
  6
Continuous
 62
     7
370
    25
100
AcDbLine
 10
381.677274628
 20
548.8536126155
 30
0.0
 11
379.6422547752
 21
543.2624415218
 31
0.0
  0
LINE
  5
194
330
1F
100
AcDbEntity
  8
0
  6
Continuous
 62
     8
370
    18
100
AcDbLine
 10
319.328891291
 20
389.7530196937
 30
0.0
 11
373.328891291
 21
389.7530196937
 31
0.0
  0
LINE
  5
195
330
1F
100
AcDbEntity
  8
0
  6
Continuous
 62
     8
370
    18
100
AcDbLine
 10
373.328891291
 20
502.9530196937
 30
0.0
 11
319.328891291
 21
502.9530196937
 31
0.0
  0
LINE
  5
196
330
1F
100
AcDbEntity
  8
0
  6
Continuous
 62
     8
370
    18
100
AcDbLine
 10
373.328891291
 20
536.5290867475
 30
0.0
 11
319.328891291
 21
536.5290867475
 31
0.0
  0
LINE
  5
197
330
1F
100
AcDbEntity
  8
0
  6
Continuous
 62
     8
370
    18
100
AcDbLine
 10
319.328891291
 20
531.9530196937
 30
0.0
 11
373.328891291
 21
531.9530196937
 31
0.0
  0
LINE
  5
198
330
1F
100
AcDbEntity
  8
0
  6
Continuous
 62
     8
370
    18
100
AcDbLine
 10
319.6262733304
 20
536.8290753244
 30
0.0
 11
373.0315092517
 21
536.8290753244
 31
0.0
  0
LINE
  5
199
330
1F
100
AcDbEntity
  8
0
  6
Continuous
 62
     8
370
    18
100
AcDbLine
 10
346.328891291
 20
668.3530196937
 30
0.0
 11
357.828891291
 21
668.3530196937
 31
0.0
  0
LINE
  5
19A
330
1F
100
AcDbEntity
  8
0
  6
Continuous
 62
     8
370
    18
100
AcDbLine
 10
334.828891291
 20
668.3530196937
 30
0.0
 11
346.328891291
 21
668.3530196937
 31
0.0
  0
LINE
  5
19B
330
1F
100
AcDbEntity
  8
0
  6
Continuous
 62
     8
370
    18
100
AcDbLine
 10
396.328891291
 20
718.3530196937
 30
0.0
 11
396.328891291
 21
706.8530196937
 31
0.0
  0
LINE
  5
19C
330
1F
100
AcDbEntity
  8
0
  6
Continuous
 62
     8
370
    18
100
AcDbLine
 10
396.328891291
 20
729.8530196937
 30
0.0
 11
396.328891291
 21
718.3530196937
 31
0.0
  0
LINE
  5
19D
330
1F
100
AcDbEntity
  8
0
  6
Continuous
 62
     8
370
    18
100
AcDbLine
 10
555.128891291
 20
718.3530196937
 30
0.0
 11
555.128891291
 21
706.8530196937
 31
0.0
  0
LINE
  5
19E
330
1F
100
AcDbEntity
  8
0
  6
Continuous
 62
     8
370
    18
100
AcDbLine
 10
555.128891291
 20
729.8530196937
 30
0.0
 11
555.128891291
 21
718.3530196937
 31
0.0
  0
LINE
  5
19F
330
1F
100
AcDbEntity
  8
0
  6
Continuous
 62
     8
370
    18
100
AcDbLine
 10
555.328891291
 20
718.3530196937
 30
0.0
 11
555.328891291
 21
729.8530196937
 31
0.0
  0
LINE
  5
1A0
330
1F
100
AcDbEntity
  8
0
  6
Continuous
 62
     8
370
    18
100
AcDbLine
 10
555.328891291
 20
706.8530196937
 30
0.0
 11
555.328891291
 21
718.3530196937
 31
0.0
  0
LINE
  5
1A1
330
1F
100
AcDbEntity
  8
0
  6
Continuous
 62
     8
370
    18
100
AcDbLine
 10
373.0027856464
 20
531.4530196937
 30
0.0
 11
373.1119767167
 21
531.7530196937
 31
0.0
  0
LINE
  5
1A2
330
1F
100
AcDbEntity
  8
0
  6
Continuous
 62
     8
370
    18
100
AcDbLine
 10
373.328891291
 20
532.3489875886
 30
0.0
 11
377.5749310095
 21
544.0148858371
 31
0.0
  0
LINE
  5
1A3
330
1F
100
AcDbEntity
  8
0
  6
Continuous
 62
     8
370
    18
100
AcDbLine
 10
373.5342527401
 20
545.4855724534
 30
0.0
 11
370.3919296021
 21
536.8521105871
 31
0.0
  0
LINE
  5
1A4
330
1F
100
AcDbEntity
  8
0
  6
Continuous
 62
     8
370
    18
100
AcDbLine
 10
376.3217169082
 20
553.1440673128
 30
0.0
 11
373.5342527401
 21
545.4855724534
 31
0.0
  0
LINE
  5
1A5
330
1F
100
AcDbEntity
  8
0
  6
Continuous
 62
     8
370
    18
100
AcDbLine
 10
377.5749310095
 20
544.0148858371
 30
0.0
 11
380.3623951776
 21
551.6733806965
 31
0.0
  0
ENDSEC
  0
SECTION
  2
OBJECTS
  0
DICTIONARY
  5
C
330
0
100
AcDbDictionary
281
     1
  3
ACAD_GROUP
350
D
  3
ACAD_LAYOUT
350
1A
  3
ACAD_MLINESTYLE
350
17
  3
ACAD_PLOTSETTINGS
350
19
  3
ACAD_PLOTSTYLENAME
350
E
  3
ACAD_SCALELIST
350
47
  3
DWGPROPS
350
1A6
  0
DICTIONARY
  5
D
102
{ACAD_REACTORS
330
C
102
}
330
C
100
AcDbDictionary
281
     1
  0
DICTIONARY
  5
1A
102
{ACAD_REACTORS
330
C
102
}
330
C
100
AcDbDictionary
281
     1
  3
Layout1
350
1E
  3
Layout2
350
26
  3
Model
350
22
  0
DICTIONARY
  5
17
102
{ACAD_REACTORS
330
C
102
}
330
C
100
AcDbDictionary
281
     1
  3
Standard
350
18
  0
DICTIONARY
  5
19
102
{ACAD_REACTORS
330
C
102
}
330
C
100
AcDbDictionary
281
     1
  0
ACDBDICTIONARYWDFLT
  5
E
102
{ACAD_REACTORS
330
C
102
}
330
C
100
AcDbDictionary
281
     1
  3
Normal
350
F
100
AcDbDictionaryWithDefault
340
F
  0
DICTIONARY
  5
47
102
{ACAD_REACTORS
330
C
102
}
330
C
100
AcDbDictionary
281
     1
  3
A0
350
48
  3
A1
350
49
  3
A2
350
4A
  3
A3
350
4B
  3
A4
350
4C
  3
A5
350
4D
  3
A6
350
4E
  3
A7
350
4F
  3
A8
350
50
  3
A9
350
51
  3
B0
350
52
  3
B1
350
53
  3
B2
350
54
  3
B3
350
55
  3
B4
350
56
  3
B5
350
57
  3
B6
350
58
  3
B7
350
59
  3
B8
350
5A
  3
B9
350
5B
  3
C0
350
5C
  3
C1
350
5D
  3
C2
350
5E
  3
C3
350
5F
  3
C4
350
60
  3
C5
350
61
  3
C6
350
62
  3
C7
350
63
  3
C8
350
64
  3
C9
350
65
  3
D0
350
66
  3
D1
350
67
  3
D2
350
68
  0
XRECORD
  5
1A6
102
{ACAD_REACTORS
330
C
102
}
330
C
100
AcDbXrecord
280
     1
  1
DWGPROPS COOKIE
  2

  3

  4

  6

  7

  8
mkramer
  9

300
=
301
=
302
=
303
=
304
=
305
=
306
=
307
=
308
=
309
=
 40
0.0
 41
2459535.442856748
 42
2459535.442857651
  1

 90
        0
  0
LAYOUT
  5
1E
102
{ACAD_REACTORS
330
1A
102
}
330
1A
100
AcDbPlotSettings
  1

  2
none_device
  4

  6

 40
0.0
 41
0.0
 42
0.0
 43
0.0
 44
0.0
 45
0.0
 46
0.0
 47
0.0
 48
0.0
 49
0.0
140
0.0
141
0.0
142
1.0
143
1.0
 70
   688
 72
     1
 73
     0
 74
     5
  7

 75
    16
147
1.0
148
0.0
149
0.0
100
AcDbLayout
  1
Layout1
 70
     1
 71
     1
 10
0.0
 20
0.0
 11
420.0
 21
297.0
 12
0.0
 22
0.0
 32
0.0
 14
1.0000000000E+20
 24
1.0000000000E+20
 34
1.0000000000E+20
 15
-1.0000000000E+20
 25
-1.0000000000E+20
 35
-1.0000000000E+20
146
0.0
 13
0.0
 23
0.0
 33
0.0
 16
1.0
 26
0.0
 36
0.0
 17
0.0
 27
1.0
 37
0.0
 76
     0
330
1B
  0
LAYOUT
  5
26
102
{ACAD_REACTORS
330
1A
102
}
330
1A
100
AcDbPlotSettings
  1

  2
none_device
  4

  6

 40
0.0
 41
0.0
 42
0.0
 43
0.0
 44
0.0
 45
0.0
 46
0.0
 47
0.0
 48
0.0
 49
0.0
140
0.0
141
0.0
142
1.0
143
1.0
 70
   688
 72
     1
 73
     0
 74
     5
  7

 75
    16
147
1.0
148
0.0
149
0.0
100
AcDbLayout
  1
Layout2
 70
     1
 71
     2
 10
0.0
 20
0.0
 11
0.0
 21
0.0
 12
0.0
 22
0.0
 32
0.0
 14
0.0
 24
0.0
 34
0.0
 15
0.0
 25
0.0
 35
0.0
146
0.0
 13
0.0
 23
0.0
 33
0.0
 16
1.0
 26
0.0
 36
0.0
 17
0.0
 27
1.0
 37
0.0
 76
     0
330
23
  0
LAYOUT
  5
22
102
{ACAD_REACTORS
330
1A
102
}
330
1A
100
AcDbPlotSettings
  1

  2
none_device
  4
Letter_(8.50_x_11.00_Inches)
  6

 40
6.35
 41
6.35
 42
6.35000508
 43
6.35000508
 44
215.9
 45
279.4
 46
0.0
 47
0.0
 48
0.0
 49
0.0
140
0.0
141
0.0
142
1.0
143
1.0
 70
  1712
 72
     1
 73
     0
 74
     0
  7

 75
     0
147
1.0
148
0.0
149
0.0
100
AcDbLayout
  1
Model
 70
     1
 71
     0
 10
0.0
 20
0.0
 11
594.0
 21
841.0
 12
0.0
 22
0.0
 32
0.0
 14
0.0
 24
0.0
 34
0.0
 15
594.0
 25
841.0
 35
0.0
146
0.0
 13
0.0
 23
0.0
 33
0.0
 16
1.0
 26
0.0
 36
0.0
 17
0.0
 27
1.0
 37
0.0
 76
     0
330
1F
331
29
  0
MLINESTYLE
  5
18
102
{ACAD_REACTORS
330
17
102
}
330
17
100
AcDbMlineStyle
  2
Standard
 70
     0
  3

 62
   256
 51
90.0
 52
90.0
 71
     2
 49
0.5
 62
   256
  6
BYLAYER
 49
-0.5
 62
   256
  6
BYLAYER
  0
ACDBPLACEHOLDER
  5
F
102
{ACAD_REACTORS
330
E
102
}
330
E
  0
SCALE
  5
48
102
{ACAD_REACTORS
330
47
102
}
330
47
100
AcDbScale
 70
     0
300
1:1
140
1.0
141
1.0
290
     1
  0
SCALE
  5
49
102
{ACAD_REACTORS
330
47
102
}
330
47
100
AcDbScale
 70
     0
300
1:2
140
1.0
141
2.0
290
     0
  0
SCALE
  5
4A
102
{ACAD_REACTORS
330
47
102
}
330
47
100
AcDbScale
 70
     0
300
1:4
140
1.0
141
4.0
290
     0
  0
SCALE
  5
4B
102
{ACAD_REACTORS
330
47
102
}
330
47
100
AcDbScale
 70
     0
300
1:5
140
1.0
141
5.0
290
     0
  0
SCALE
  5
4C
102
{ACAD_REACTORS
330
47
102
}
330
47
100
AcDbScale
 70
     0
300
1:8
140
1.0
141
8.0
290
     0
  0
SCALE
  5
4D
102
{ACAD_REACTORS
330
47
102
}
330
47
100
AcDbScale
 70
     0
300
1:10
140
1.0
141
10.0
290
     0
  0
SCALE
  5
4E
102
{ACAD_REACTORS
330
47
102
}
330
47
100
AcDbScale
 70
     0
300
1:16
140
1.0
141
16.0
290
     0
  0
SCALE
  5
4F
102
{ACAD_REACTORS
330
47
102
}
330
47
100
AcDbScale
 70
     0
300
1:20
140
1.0
141
20.0
290
     0
  0
SCALE
  5
50
102
{ACAD_REACTORS
330
47
102
}
330
47
100
AcDbScale
 70
     0
300
1:30
140
1.0
141
30.0
290
     0
  0
SCALE
  5
51
102
{ACAD_REACTORS
330
47
102
}
330
47
100
AcDbScale
 70
     0
300
1:40
140
1.0
141
40.0
290
     0
  0
SCALE
  5
52
102
{ACAD_REACTORS
330
47
102
}
330
47
100
AcDbScale
 70
     0
300
1:50
140
1.0
141
50.0
290
     0
  0
SCALE
  5
53
102
{ACAD_REACTORS
330
47
102
}
330
47
100
AcDbScale
 70
     0
300
1:100
140
1.0
141
100.0
290
     0
  0
SCALE
  5
54
102
{ACAD_REACTORS
330
47
102
}
330
47
100
AcDbScale
 70
     0
300
2:1
140
2.0
141
1.0
290
     0
  0
SCALE
  5
55
102
{ACAD_REACTORS
330
47
102
}
330
47
100
AcDbScale
 70
     0
300
4:1
140
4.0
141
1.0
290
     0
  0
SCALE
  5
56
102
{ACAD_REACTORS
330
47
102
}
330
47
100
AcDbScale
 70
     0
300
8:1
140
8.0
141
1.0
290
     0
  0
SCALE
  5
57
102
{ACAD_REACTORS
330
47
102
}
330
47
100
AcDbScale
 70
     0
300
10:1
140
10.0
141
1.0
290
     0
  0
SCALE
  5
58
102
{ACAD_REACTORS
330
47
102
}
330
47
100
AcDbScale
 70
     0
300
100:1
140
100.0
141
1.0
290
     0
  0
SCALE
  5
59
102
{ACAD_REACTORS
330
47
102
}
330
47
100
AcDbScale
 70
     0
300
1/128" = 1'-0"
140
0.0078125
141
12.0
290
     0
  0
SCALE
  5
5A
102
{ACAD_REACTORS
330
47
102
}
330
47
100
AcDbScale
 70
     0
300
1/64" = 1'-0"
140
0.015625
141
12.0
290
     0
  0
SCALE
  5
5B
102
{ACAD_REACTORS
330
47
102
}
330
47
100
AcDbScale
 70
     0
300
1/32" = 1'-0"
140
0.03125
141
12.0
290
     0
  0
SCALE
  5
5C
102
{ACAD_REACTORS
330
47
102
}
330
47
100
AcDbScale
 70
     0
300
1/16" = 1'-0"
140
0.0625
141
12.0
290
     0
  0
SCALE
  5
5D
102
{ACAD_REACTORS
330
47
102
}
330
47
100
AcDbScale
 70
     0
300
3/32" = 1'-0"
140
0.09375
141
12.0
290
     0
  0
SCALE
  5
5E
102
{ACAD_REACTORS
330
47
102
}
330
47
100
AcDbScale
 70
     0
300
1/8" = 1'-0"
140
0.125
141
12.0
290
     0
  0
SCALE
  5
5F
102
{ACAD_REACTORS
330
47
102
}
330
47
100
AcDbScale
 70
     0
300
3/16" = 1'-0"
140
0.1875
141
12.0
290
     0
  0
SCALE
  5
60
102
{ACAD_REACTORS
330
47
102
}
330
47
100
AcDbScale
 70
     0
300
1/4" = 1'-0"
140
0.25
141
12.0
290
     0
  0
SCALE
  5
61
102
{ACAD_REACTORS
330
47
102
}
330
47
100
AcDbScale
 70
     0
300
3/8" = 1'-0"
140
0.375
141
12.0
290
     0
  0
SCALE
  5
62
102
{ACAD_REACTORS
330
47
102
}
330
47
100
AcDbScale
 70
     0
300
1/2" = 1'-0"
140
0.5
141
12.0
290
     0
  0
SCALE
  5
63
102
{ACAD_REACTORS
330
47
102
}
330
47
100
AcDbScale
 70
     0
300
3/4" = 1'-0"
140
0.75
141
12.0
290
     0
  0
SCALE
  5
64
102
{ACAD_REACTORS
330
47
102
}
330
47
100
AcDbScale
 70
     0
300
1" = 1'-0"
140
1.0
141
12.0
290
     0
  0
SCALE
  5
65
102
{ACAD_REACTORS
330
47
102
}
330
47
100
AcDbScale
 70
     0
300
1-1/2" = 1'-0"
140
1.5
141
12.0
290
     0
  0
SCALE
  5
66
102
{ACAD_REACTORS
330
47
102
}
330
47
100
AcDbScale
 70
     0
300
3" = 1'-0"
140
3.0
141
12.0
290
     0
  0
SCALE
  5
67
102
{ACAD_REACTORS
330
47
102
}
330
47
100
AcDbScale
 70
     0
300
6" = 1'-0"
140
6.0
141
12.0
290
     0
  0
SCALE
  5
68
102
{ACAD_REACTORS
330
47
102
}
330
47
100
AcDbScale
 70
     0
300
1'-0" = 1'-0"
140
12.0
141
12.0
290
     0
  0
ENDSEC
  0
EOF
