  0
SECTION
  2
HEADER
  9
$ACADVER
  1
AC1015
  9
$ACADMAINTVER
 70
     6
  9
$DWGCODEPAGE
  3
ANSI_1252
  9
$INSBASE
 10
0.0
 20
0.0
 30
0.0
  9
$EXTMIN
 10
0.0
 20
0.0
 30
0.0
  9
$EXTMAX
 10
594.0
 20
841.0
 30
0.0
  9
$LIMMIN
 10
0.0
 20
0.0
  9
$LIMMAX
 10
594.0
 20
841.0
  9
$ORTHOMODE
 70
     0
  9
$REGENMODE
 70
     1
  9
$FILLMODE
 70
     1
  9
$QTEXTMODE
 70
     0
  9
$MIRRTEXT
 70
     1
  9
$LTSCALE
 40
1.0
  9
$ATTMODE
 70
     1
  9
$TEXTSIZE
 40
10.0
  9
$TRACEWID
 40
1.0
  9
$TEXTSTYLE
  7
Standard
  9
$CLAYER
  8
0
  9
$CELTYPE
  6
ByLayer
  9
$CECOLOR
 62
   256
  9
$CELTSCALE
 40
1.0
  9
$DISPSILH
 70
     0
  9
$DIMSCALE
 40
1.0
  9
$DIMASZ
 40
2.5
  9
$DIMEXO
 40
0.0
  9
$DIMDLI
 40
3.75
  9
$DIMRND
 40
0.0
  9
$DIMDLE
 40
0.0
  9
$DIMEXE
 40
1.0
  9
$DIMTP
 40
0.0
  9
$DIMTM
 40
0.0
  9
$DIMTXT
 40
3.5
  9
$DIMCEN
 40
2.5
  9
$DIMTSZ
 40
0.0
  9
$DIMTOL
 70
     0
  9
$DIMLIM
 70
     0
  9
$DIMTIH
 70
     1
  9
$DIMTOH
 70
     1
  9
$DIMSE1
 70
     0
  9
$DIMSE2
 70
     0
  9
$DIMTAD
 70
     1
  9
$DIMZIN
 70
     0
  9
$DIMBLK
  1

  9
$DIMASO
 70
     1
  9
$DIMSHO
 70
     1
  9
$DIMPOST
  1

  9
$DIMAPOST
  1

  9
$DIMALT
 70
     0
  9
$DIMALTD
 70
     3
  9
$DIMALTF
 40
0.0393700787
  9
$DIMLFAC
 40
1.0
  9
$DIMTOFL
 70
     1
  9
$DIMTVP
 40
0.0
  9
$DIMTIX
 70
     0
  9
$DIMSOXD
 70
     0
  9
$DIMSAH
 70
     0
  9
$DIMBLK1
  1

  9
$DIMBLK2
  1

  9
$DIMSTYLE
  2
ISO-25
  9
$DIMCLRD
 70
     0
  9
$DIMCLRE
 70
     0
  9
$DIMCLRT
 70
     0
  9
$DIMTFAC
 40
1.0
  9
$DIMGAP
 40
1.5
  9
$DIMJUST
 70
     0
  9
$DIMSD1
 70
     0
  9
$DIMSD2
 70
     0
  9
$DIMTOLJ
 70
     0
  9
$DIMTZIN
 70
     0
  9
$DIMALTZ
 70
     0
  9
$DIMALTTZ
 70
     0
  9
$DIMUPT
 70
     0
  9
$DIMDEC
 70
     2
  9
$DIMTDEC
 70
     2
  9
$DIMALTU
 70
     2
  9
$DIMALTTD
 70
     3
  9
$DIMTXSTY
  7
Standard
  9
$DIMAUNIT
 70
     0
  9
$DIMADEC
 70
     2
  9
$DIMALTRND
 40
0.0
  9
$DIMAZIN
 70
     0
  9
$DIMDSEP
 70
    44
  9
$DIMATFIT
 70
     3
  9
$DIMFRAC
 70
     0
  9
$DIMLDRBLK
  1

  9
$DIMLUNIT
 70
     2
  9
$DIMLWD
 70
    -2
  9
$DIMLWE
 70
    -2
  9
$DIMTMOVE
 70
     0
  9
$LUNITS
 70
     2
  9
$LUPREC
 70
     2
  9
$SKETCHINC
 40
1.0
  9
$FILLETRAD
 40
10.0
  9
$AUNITS
 70
     0
  9
$AUPREC
 70
     2
  9
$MENU
  1
.
  9
$ELEVATION
 40
0.0
  9
$PELEVATION
 40
0.0
  9
$THICKNESS
 40
0.0
  9
$LIMCHECK
 70
     0
  9
$CHAMFERA
 40
0.0
  9
$CHAMFERB
 40
0.0
  9
$CHAMFERC
 40
0.0
  9
$CHAMFERD
 40
0.0
  9
$SKPOLY
 70
     0
  9
$TDCREATE
 40
2457990.479480243
  9
$TDUCREATE
 40
2457990.39614691
  9
$TDUPDATE
 40
2457990.479483854
  9
$TDUUPDATE
 40
2457990.396150521
  9
$TDINDWG
 40
0.0000000116
  9
$TDUSRTIMER
 40
0.0000000116
  9
$USRTIMER
 70
     1
  9
$ANGBASE
 50
0.0
  9
$ANGDIR
 70
     0
  9
$PDMODE
 70
     0
  9
$PDSIZE
 40
-1.0
  9
$PLINEWID
 40
0.0
  9
$SPLFRAME
 70
     0
  9
$SPLINETYPE
 70
     6
  9
$SPLINESEGS
 70
     8
  9
$HANDSEED
  5
1EC
  9
$SURFTAB1
 70
     6
  9
$SURFTAB2
 70
     6
  9
$SURFTYPE
 70
     6
  9
$SURFU
 70
     6
  9
$SURFV
 70
     6
  9
$UCSBASE
  2

  9
$UCSNAME
  2

  9
$UCSORG
 10
0.0
 20
0.0
 30
0.0
  9
$UCSXDIR
 10
1.0
 20
0.0
 30
0.0
  9
$UCSYDIR
 10
0.0
 20
1.0
 30
0.0
  9
$UCSORTHOREF
  2

  9
$UCSORTHOVIEW
 70
     0
  9
$UCSORGTOP
 10
0.0
 20
0.0
 30
0.0
  9
$UCSORGBOTTOM
 10
0.0
 20
0.0
 30
0.0
  9
$UCSORGLEFT
 10
0.0
 20
0.0
 30
0.0
  9
$UCSORGRIGHT
 10
0.0
 20
0.0
 30
0.0
  9
$UCSORGFRONT
 10
0.0
 20
0.0
 30
0.0
  9
$UCSORGBACK
 10
0.0
 20
0.0
 30
0.0
  9
$PUCSBASE
  2

  9
$PUCSNAME
  2

  9
$PUCSORG
 10
0.0
 20
0.0
 30
0.0
  9
$PUCSXDIR
 10
1.0
 20
0.0
 30
0.0
  9
$PUCSYDIR
 10
0.0
 20
1.0
 30
0.0
  9
$PUCSORTHOREF
  2

  9
$PUCSORTHOVIEW
 70
     0
  9
$PUCSORGTOP
 10
0.0
 20
0.0
 30
0.0
  9
$PUCSORGBOTTOM
 10
0.0
 20
0.0
 30
0.0
  9
$PUCSORGLEFT
 10
0.0
 20
0.0
 30
0.0
  9
$PUCSORGRIGHT
 10
0.0
 20
0.0
 30
0.0
  9
$PUCSORGFRONT
 10
0.0
 20
0.0
 30
0.0
  9
$PUCSORGBACK
 10
0.0
 20
0.0
 30
0.0
  9
$USERI1
 70
     0
  9
$USERI2
 70
     0
  9
$USERI3
 70
     0
  9
$USERI4
 70
     0
  9
$USERI5
 70
     0
  9
$USERR1
 40
0.0
  9
$USERR2
 40
0.0
  9
$USERR3
 40
0.0
  9
$USERR4
 40
0.0
  9
$USERR5
 40
0.0
  9
$WORLDVIEW
 70
     1
  9
$SHADEDGE
 70
     3
  9
$SHADEDIF
 70
    70
  9
$TILEMODE
 70
     1
  9
$MAXACTVP
 70
    64
  9
$PINSBASE
 10
0.0
 20
0.0
 30
0.0
  9
$PLIMCHECK
 70
     0
  9
$PEXTMIN
 10
1.0000000000E+20
 20
1.0000000000E+20
 30
1.0000000000E+20
  9
$PEXTMAX
 10
-1.0000000000E+20
 20
-1.0000000000E+20
 30
-1.0000000000E+20
  9
$PLIMMIN
 10
0.0
 20
0.0
  9
$PLIMMAX
 10
420.0
 20
297.0
  9
$UNITMODE
 70
     0
  9
$VISRETAIN
 70
     1
  9
$PLINEGEN
 70
     0
  9
$PSLTSCALE
 70
     1
  9
$TREEDEPTH
 70
  3020
  9
$CMLSTYLE
  2
Standard
  9
$CMLJUST
 70
     0
  9
$CMLSCALE
 40
20.0
  9
$PROXYGRAPHICS
 70
     1
  9
$MEASUREMENT
 70
     1
  9
$CELWEIGHT
370
    -1
  9
$ENDCAPS
280
     0
  9
$JOINSTYLE
280
     0
  9
$LWDISPLAY
290
     1
  9
$INSUNITS
 70
     4
  9
$HYPERLINKBASE
  1

  9
$STYLESHEET
  1

  9
$XEDIT
290
     1
  9
$CEPSNTYPE
380
     0
  9
$PSTYLEMODE
290
     1
  9
$FINGERPRINTGUID
  2
{FB2F6704-CE1C-4CE1-B444-8079C5820FA6}
  9
$VERSIONGUID
  2
{FAEB1C32-E019-11D5-929B-00C0DF256EC4}
  9
$EXTNAMES
290
     1
  9
$PSVPSCALE
 40
0.0
  9
$OLESTARTUP
290
     0
  0
ENDSEC
  0
SECTION
  2
CLASSES
  0
CLASS
  1
ACDBDICTIONARYWDFLT
  2
AcDbDictionaryWithDefault
  3
ObjectDBX Classes
 90
        0
280
     0
281
     0
  0
CLASS
  1
VISUALSTYLE
  2
AcDbVisualStyle
  3
ObjectDBX Classes
 90
     4095
280
     0
281
     0
  0
CLASS
  1
MATERIAL
  2
AcDbMaterial
  3
ObjectDBX Classes
 90
     1153
280
     0
281
     0
  0
CLASS
  1
SCALE
  2
AcDbScale
  3
ObjectDBX Classes
 90
     1153
280
     0
281
     0
  0
CLASS
  1
TABLESTYLE
  2
AcDbTableStyle
  3
ObjectDBX Classes
 90
     4095
280
     0
281
     0
  0
CLASS
  1
MLEADERSTYLE
  2
AcDbMLeaderStyle
  3
ACDB_MLEADERSTYLE_CLASS
 90
     4095
280
     0
281
     0
  0
CLASS
  1
SUN
  2
AcDbSun
  3
SCENEOE
 90
     1153
280
     0
281
     0
  0
CLASS
  1
ACDBPLACEHOLDER
  2
AcDbPlaceHolder
  3
ObjectDBX Classes
 90
        0
280
     0
281
     0
  0
CLASS
  1
LAYOUT
  2
AcDbLayout
  3
ObjectDBX Classes
 90
        0
280
     0
281
     0
  0
ENDSEC
  0
SECTION
  2
TABLES
  0
TABLE
  2
VPORT
  5
8
330
0
100
AcDbSymbolTable
 70
     1
  0
VPORT
  5
29
330
8
100
AcDbSymbolTableRecord
100
AcDbViewportTableRecord
  2
*Active
 70
     0
 10
0.0
 20
0.0
 11
1.0
 21
1.0
 12
297.0
 22
420.5
 13
0.0
 23
0.0
 14
10.0
 24
10.0
 15
10.0
 25
10.0
 16
0.0
 26
0.0
 36
1.0
 17
0.0
 27
0.0
 37
0.0
 40
841.0
 41
0.7063020214
 42
50.0
 43
0.0
 44
0.0
 50
0.0
 51
0.0
 71
     0
 72
  2000
 73
     1
 74
     3
 75
     0
 76
     0
 77
     0
 78
     0
281
     0
 65
     1
110
0.0
120
0.0
130
0.0
111
1.0
121
0.0
131
0.0
112
0.0
122
1.0
132
0.0
 79
     0
146
0.0
  0
ENDTAB
  0
TABLE
  2
LTYPE
  5
5
330
0
100
AcDbSymbolTable
 70
     6
  0
LTYPE
  5
14
330
5
100
AcDbSymbolTableRecord
100
AcDbLinetypeTableRecord
  2
ByBlock
 70
     0
  3

 72
    65
 73
     0
 40
0.0
  0
LTYPE
  5
15
330
5
100
AcDbSymbolTableRecord
100
AcDbLinetypeTableRecord
  2
ByLayer
 70
     0
  3

 72
    65
 73
     0
 40
0.0
  0
LTYPE
  5
16
330
5
100
AcDbSymbolTableRecord
100
AcDbLinetypeTableRecord
  2
Continuous
 70
     0
  3
Solid line
 72
    65
 73
     0
 40
0.0
  0
LTYPE
  5
6E
330
5
100
AcDbSymbolTableRecord
100
AcDbLinetypeTableRecord
  2
HIDDEN
 70
     0
  3
Hidden __ __ __ __ __ __ __ __ __ __ __ __ __ __
 72
    65
 73
     2
 40
1.905
 49
1.27
 74
     0
 49
-0.635
 74
     0
  0
LTYPE
  5
6F
330
5
100
AcDbSymbolTableRecord
100
AcDbLinetypeTableRecord
  2
PHANTOM
 70
     0
  3
Phantom ______  __  __  ______  __  __  ______
 72
    65
 73
     6
 40
12.7
 49
6.35
 74
     0
 49
-1.27
 74
     0
 49
1.27
 74
     0
 49
-1.27
 74
     0
 49
1.27
 74
     0
 49
-1.27
 74
     0
  0
LTYPE
  5
70
330
5
100
AcDbSymbolTableRecord
100
AcDbLinetypeTableRecord
  2
CENTER
 70
     0
  3
Center ____ _ ____ _ ____ _ ____ _ ____ _ ____
 72
    65
 73
     4
 40
10.16
 49
6.35
 74
     0
 49
-1.27
 74
     0
 49
1.27
 74
     0
 49
-1.27
 74
     0
  0
LTYPE
  5
71
330
5
100
AcDbSymbolTableRecord
100
AcDbLinetypeTableRecord
  2
CENTERX2
 70
     0
  3
Center (2x) ________  __  ________  __  _____
 72
    65
 73
     4
 40
20.32
 49
12.7
 74
     0
 49
-2.54
 74
     0
 49
2.54
 74
     0
 49
-2.54
 74
     0
  0
LTYPE
  5
72
330
5
100
AcDbSymbolTableRecord
100
AcDbLinetypeTableRecord
  2
DOT2
 70
     0
  3
Dot (.5x) ........................................
 72
    65
 73
     2
 40
0.635
 49
0.0
 74
     0
 49
-0.635
 74
     0
  0
ENDTAB
  0
TABLE
  2
LAYER
  5
2
330
0
100
AcDbSymbolTable
 70
     1
  0
LAYER
  5
10
330
2
100
AcDbSymbolTableRecord
100
AcDbLayerTableRecord
  2
0
 70
     0
 62
     7
  6
Continuous
370
    -3
390
F
  0
ENDTAB
  0
TABLE
  2
STYLE
  5
3
330
0
100
AcDbSymbolTable
 70
     3
  0
STYLE
  5
11
330
3
100
AcDbSymbolTableRecord
100
AcDbTextStyleTableRecord
  2
Standard
 70
     0
 40
0.0
 41
1.0
 50
0.0
 71
     0
 42
10.0
  3
txt
  4

  0
STYLE
  5
76
330
3
100
AcDbSymbolTableRecord
100
AcDbTextStyleTableRecord
  2
SLDTEXTSTYLE0
 70
     0
 40
0.0
 41
0.96
 50
0.0
 71
     0
 42
10.0
  3
ISOCP3
  4

  0
STYLE
  5
8D
330
3
100
AcDbSymbolTableRecord
100
AcDbTextStyleTableRecord
  2
SLDTEXTSTYLE1
 70
     0
 40
0.0
 41
0.605
 50
0.0
 71
     0
 42
10.0
  3
TXT
  4

  0
ENDTAB
  0
TABLE
  2
VIEW
  5
6
330
0
100
AcDbSymbolTable
 70
     0
  0
ENDTAB
  0
TABLE
  2
UCS
  5
7
330
0
100
AcDbSymbolTable
 70
     0
  0
ENDTAB
  0
TABLE
  2
APPID
  5
9
330
0
100
AcDbSymbolTable
 70
     1
  0
APPID
  5
12
330
9
100
AcDbSymbolTableRecord
100
AcDbRegAppTableRecord
  2
ACAD
 70
     0
  0
ENDTAB
  0
TABLE
  2
DIMSTYLE
  5
A
330
0
100
AcDbSymbolTable
 70
     2
100
AcDbDimStyleTable
  0
DIMSTYLE
105
27
330
A
100
AcDbSymbolTableRecord
100
AcDbDimStyleTableRecord
  2
ISO-25
 70
     0
 41
2.5
 42
0.625
 43
3.75
 44
1.25
 73
     0
 74
     0
 77
     1
 78
     8
140
2.5
141
2.5
143
0.0393700787
147
0.625
171
     3
172
     1
178
     0
271
     2
272
     2
274
     3
278
    44
283
     0
284
     8
340
11
  0
DIMSTYLE
105
77
102
{ACAD_REACTORS
330
75
330
82
102
}
330
A
100
AcDbSymbolTableRecord
100
AcDbDimStyleTableRecord
  2
SLDDIMSTYLE0
 70
     0
 41
2.5
 44
0.0
 45
0.000000001
 73
     0
 74
     0
 77
     1
 78
    12
 79
     3
140
6.0
147
1.5
173
     1
178
     0
271
     2
272
     2
276
     2
284
    12
340
76
  0
ENDTAB
  0
TABLE
  2
BLOCK_RECORD
  5
1
330
0
100
AcDbSymbolTable
 70
     3
  0
BLOCK_RECORD
  5
1F
330
1
100
AcDbSymbolTableRecord
100
AcDbBlockTableRecord
  2
*Model_Space
340
22
  0
BLOCK_RECORD
  5
1B
330
1
100
AcDbSymbolTableRecord
100
AcDbBlockTableRecord
  2
*Paper_Space
340
1E
  0
BLOCK_RECORD
  5
23
330
1
100
AcDbSymbolTableRecord
100
AcDbBlockTableRecord
  2
*Paper_Space0
340
26
  0
BLOCK_RECORD
  5
78
330
1
100
AcDbSymbolTableRecord
100
AcDbBlockTableRecord
  2
_D
340
0
  0
BLOCK_RECORD
  5
83
330
1
100
AcDbSymbolTableRecord
100
AcDbBlockTableRecord
  2
_D_1
340
0
  0
ENDTAB
  0
ENDSEC
  0
SECTION
  2
BLOCKS
  0
BLOCK
  5
20
330
1F
100
AcDbEntity
  8
0
100
AcDbBlockBegin
  2
*Model_Space
 70
     0
 10
0.0
 20
0.0
 30
0.0
  3
*Model_Space
  1

  0
ENDBLK
  5
21
330
1F
100
AcDbEntity
  8
0
100
AcDbBlockEnd
  0
BLOCK
  5
1C
330
1B
100
AcDbEntity
 67
     1
  8
0
100
AcDbBlockBegin
  2
*Paper_Space
 70
     0
 10
0.0
 20
0.0
 30
0.0
  3
*Paper_Space
  1

  0
ENDBLK
  5
1D
330
1B
100
AcDbEntity
 67
     1
  8
0
100
AcDbBlockEnd
  0
BLOCK
  5
24
330
23
100
AcDbEntity
  8
0
100
AcDbBlockBegin
  2
*Paper_Space0
 70
     0
 10
0.0
 20
0.0
 30
0.0
  3
*Paper_Space0
  1

  0
ENDBLK
  5
25
330
23
100
AcDbEntity
  8
0
100
AcDbBlockEnd
  0
BLOCK
  5
79
330
78
100
AcDbEntity
  8
0
100
AcDbBlockBegin
  2
_D
 70
     0
 10
0.0
 20
0.0
 30
0.0
  3
_D
  1

  0
SOLID
  5
7B
330
78
100
AcDbEntity
  8
0
  6
Continuous
 62
     7
370
    18
100
AcDbTrace
 10
42.7614395004
 20
152.0299240879
 30
0.0
 11
42.4614395004
 21
149.5299240879
 31
0.0
 12
43.0614395004
 22
149.5299240879
 32
0.0
 13
43.0614395004
 23
149.5299240879
 33
0.0
  0
SOLID
  5
7C
330
78
100
AcDbEntity
  8
0
  6
Continuous
 62
     7
370
    18
100
AcDbTrace
 10
42.7614395004
 20
52.0299240879
 30
0.0
 11
43.0614395004
 21
54.5299240879
 31
0.0
 12
42.4614395004
 22
54.5299240879
 32
0.0
 13
42.4614395004
 23
54.5299240879
 33
0.0
  0
LINE
  5
7D
330
78
100
AcDbEntity
  8
0
  6
Continuous
 62
     7
370
    18
100
AcDbLine
 10
56.6850079902
 20
152.0299240879
 30
0.0
 11
41.7614395004
 21
152.0299240879
 31
0.0
  0
LINE
  5
7E
330
78
100
AcDbEntity
  8
0
  6
Continuous
 62
     7
370
    18
100
AcDbLine
 10
56.6850079902
 20
52.0299240879
 30
0.0
 11
41.7614395004
 21
52.0299240879
 31
0.0
  0
LINE
  5
7F
330
78
100
AcDbEntity
  8
0
  6
Continuous
 62
     7
370
    18
100
AcDbLine
 10
42.7614395004
 20
152.0299240879
 30
0.0
 11
42.7614395004
 21
52.0299240879
 31
0.0
  0
MTEXT
  5
80
330
78
100
AcDbEntity
  8
0
  6
Continuous
 62
     7
370
    18
100
AcDbMText
 10
35.0270332946
 20
94.3680541463
 30
0.0
 40
6.0
 41
0.0
 71
     1
 72
     1
  1
100
  7
SLDTEXTSTYLE0
 11
-7.044195017643634E-15
 21
1.0
 31
0.0
 73
     1
 44
1.0
  0
MTEXT
  5
81
330
78
100
AcDbEntity
  8
0
  6
Continuous
 62
     7
370
    18
100
AcDbMText
 10
35.0270332946
 20
105.7430548466
 30
0.0
 40
6.0
 41
0.0
 71
     1
 72
     1
  1
mm
  7
SLDTEXTSTYLE0
 11
-7.044195017643634E-15
 21
1.0
 31
0.0
 73
     1
 44
1.0
  0
ENDBLK
  5
7A
330
78
100
AcDbEntity
  8
0
100
AcDbBlockEnd
  0
BLOCK
  5
84
330
83
100
AcDbEntity
  8
0
100
AcDbBlockBegin
  2
_D_1
 70
     0
 10
0.0
 20
0.0
 30
0.0
  3
_D_1
  1

  0
SOLID
  5
86
330
83
100
AcDbEntity
  8
0
  6
Continuous
 62
     7
370
    18
100
AcDbTrace
 10
56.6850079902
 20
38.4602342313
 30
0.0
 11
59.1850079902
 21
38.1602342313
 31
0.0
 12
59.1850079902
 22
38.7602342313
 32
0.0
 13
59.1850079902
 23
38.7602342313
 33
0.0
  0
SOLID
  5
87
330
83
100
AcDbEntity
  8
0
  6
Continuous
 62
     7
370
    18
100
AcDbTrace
 10
156.6850079902
 20
38.4602342313
 30
0.0
 11
154.1850079902
 21
38.7602342313
 31
0.0
 12
154.1850079902
 22
38.1602342313
 32
0.0
 13
154.1850079902
 23
38.1602342313
 33
0.0
  0
LINE
  5
88
330
83
100
AcDbEntity
  8
0
  6
Continuous
 62
     7
370
    18
100
AcDbLine
 10
56.6850079902
 20
52.0299240879
 30
0.0
 11
56.6850079902
 21
37.4602342313
 31
0.0
  0
LINE
  5
89
330
83
100
AcDbEntity
  8
0
  6
Continuous
 62
     7
370
    18
100
AcDbLine
 10
156.6850079902
 20
52.0299240879
 30
0.0
 11
156.6850079902
 21
37.4602342313
 31
0.0
  0
LINE
  5
8A
330
83
100
AcDbEntity
  8
0
  6
Continuous
 62
     7
370
    18
100
AcDbLine
 10
56.6850079902
 20
38.4602342313
 30
0.0
 11
156.6850079902
 21
38.4602342313
 31
0.0
  0
MTEXT
  5
8B
330
83
100
AcDbEntity
  8
0
  6
Continuous
 62
     7
370
    18
100
AcDbMText
 10
93.9626484861
 20
46.1946404371
 30
0.0
 40
6.0
 41
0.0
 71
     1
 72
     1
  1
100
  7
SLDTEXTSTYLE0
 73
     1
 44
1.0
  0
MTEXT
  5
8C
330
83
100
AcDbEntity
  8
0
  6
Continuous
 62
     7
370
    18
100
AcDbMText
 10
105.3376491864
 20
46.1946404371
 30
0.0
 40
6.0
 41
0.0
 71
     1
 72
     1
  1
mm
  7
SLDTEXTSTYLE0
 73
     1
 44
1.0
  0
ENDBLK
  5
85
330
83
100
AcDbEntity
  8
0
100
AcDbBlockEnd
  0
ENDSEC
  0
SECTION
  2
ENTITIES
  0
LINE
  5
73
330
1F
100
AcDbEntity
  8
0
  6
Continuous
 62
     7
370
    18
100
AcDbLine
 10
56.6850079902
 20
152.0299240879
 30
0.0
 11
56.6850079902
 21
52.0299240879
 31
0.0
  0
LINE
  5
74
330
1F
100
AcDbEntity
  8
0
  6
Continuous
 62
     7
370
    18
100
AcDbLine
 10
56.6850079902
 20
52.0299240879
 30
0.0
 11
156.6850079902
 21
52.0299240879
 31
0.0
  0
DIMENSION
  5
75
330
1F
100
AcDbEntity
  8
0
  6
Continuous
 62
     7
370
    18
100
AcDbDimension
  2
_D
 10
42.7614395004
 20
52.0299240879
 30
0.0
 11
42.7614395004
 21
105.4472211621
 31
0.0
 70
   160
  1
<>mm
 71
     2
 42
-1.0
  3
SLDDIMSTYLE0
100
AcDbAlignedDimension
 13
56.6850079902
 23
152.0299240879
 33
0.0
 14
56.6850079902
 24
52.0299240879
 34
0.0
 50
90.0
100
AcDbRotatedDimension
  0
DIMENSION
  5
82
330
1F
100
AcDbEntity
  8
0
  6
Continuous
 62
     7
370
    18
100
AcDbDimension
  2
_D_1
 10
156.6850079902
 20
38.4602342313
 30
0.0
 11
105.0418155019
 21
38.4602342313
 31
0.0
 70
   160
  1
<>mm
 71
     2
 42
-1.0
  3
SLDDIMSTYLE0
100
AcDbAlignedDimension
 13
56.6850079902
 23
52.0299240879
 33
0.0
 14
156.6850079902
 24
52.0299240879
 34
0.0
100
AcDbRotatedDimension
  0
MTEXT
  5
8E
330
1F
100
AcDbEntity
  8
0
  6
Continuous
 62
     7
370
     0
100
AcDbMText
 10
412.8252631579
 20
48.4342449499
 30
0.0
 40
10.0
 41
0.0
 71
     1
 72
     1
  1
KLUDI GmbH & Co KG
  7
SLDTEXTSTYLE1
 73
     1
 44
1.0
  0
MTEXT
  5
8F
330
1F
100
AcDbEntity
  8
0
  6
Continuous
 62
     7
370
     0
100
AcDbMText
 10
210.0873490389
 20
48.4342449499
 30
0.0
 40
10.0
 41
0.0
 71
     1
 72
     1
  1
34 385 05 75
  7
SLDTEXTSTYLE1
 73
     1
 44
1.0
  0
SPLINE
  5
90
330
1F
100
AcDbEntity
  8
0
  6
Continuous
 62
     7
370
    25
100
AcDbSpline
210
0.0
220
0.0
230
1.0
 70
     8
 71
     3
 72
    11
 73
     7
 74
     0
 42
0.000000001
 43
0.00000001
 40
0.0
 40
0.0
 40
0.0
 40
0.0
 40
0.1650255474925983
 40
0.4143209315102858
 40
0.7387596390116992
 40
1.0
 40
1.0
 40
1.0
 40
1.0
 10
383.8684426938287
 20
321.324316714382
 30
0.0
 10
383.8646084633051
 20
321.59362313504
 30
0.0
 10
383.8549820631126
 20
322.2697565505269
 30
0.0
 10
383.8658379383505
 20
323.5175828894719
 30
0.0
 10
383.9168912594755
 20
324.9427788351318
 30
0.0
 10
383.9853204749838
 20
325.8900743836073
 30
0.0
 10
384.0158431177131
 20
326.312612671828
 30
0.0
  0
LINE
  5
91
330
1F
100
AcDbEntity
  8
0
  6
Continuous
 62
     7
370
    25
100
AcDbLine
 10
383.1903560405
 20
383.620869298
 30
0.0
 11
383.1297790949
 21
389.37555619
 31
0.0
  0
LINE
  5
92
330
1F
100
AcDbEntity
  8
0
  6
Continuous
 62
     7
370
    25
100
AcDbLine
 10
337.5986328666
 20
414.8904121709
 30
0.0
 11
337.3694790845
 21
393.1208661985
 31
0.0
  0
SPLINE
  5
93
330
1F
100
AcDbEntity
  8
0
  6
Continuous
 62
     7
370
    25
100
AcDbSpline
210
0.0
220
0.0
230
1.0
 70
     8
 71
     3
 72
    17
 73
    13
 74
     0
 42
0.000000001
 43
0.00000001
 40
0.0
 40
0.0
 40
0.0
 40
0.0
 40
0.1976415177105599
 40
0.3917011719884307
 40
0.5813500957396047
 40
0.6741061723250015
 40
0.7583788203598915
 40
0.8325872427440122
 40
0.8818752101145831
 40
0.9259599402827884
 40
0.9651768441856357
 40
1.0
 40
1.0
 40
1.0
 40
1.0
 10
470.7519373242847
 20
377.0301155042408
 30
0.0
 10
467.7690021105095
 20
377.3191862423751
 30
0.0
 10
461.8571915115217
 20
377.8920888805777
 30
0.0
 10
453.0063870273184
 20
378.3548896501927
 30
0.0
 10
445.7279800905901
 20
378.7373237029005
 30
0.0
 10
440.1195042735672
 20
379.0279723887332
 30
0.0
 10
436.2764387294055
 20
379.2224813554728
 30
0.0
 10
433.1088446133111
 20
379.379186376477
 30
0.0
 10
430.5764532800129
 20
379.5026498210182
 30
0.0
 10
428.6064567296498
 20
379.5970131427546
 30
0.0
 10
426.8881942765132
 20
379.6776433229506
 30
0.0
 10
425.8882656962118
 20
379.7208867172361
 30
0.0
 10
425.4179707114688
 20
379.7412253212688
 30
0.0
  0
SPLINE
  5
94
330
1F
100
AcDbEntity
  8
0
  6
Continuous
 62
     7
370
    25
100
AcDbSpline
210
0.0
220
0.0
230
1.0
 70
     8
 71
     3
 72
    14
 73
    10
 74
     0
 42
0.000000001
 43
0.00000001
 40
0.0
 40
0.0
 40
0.0
 40
0.0
 40
0.0867669941946364
 40
0.183365646021882
 40
0.2920377742274033
 40
0.4143631791312419
 40
0.6005376235862268
 40
0.8147222633388795
 40
0.9999999999999999
 40
0.9999999999999999
 40
0.9999999999999999
 40
0.9999999999999999
 10
394.5058172886364
 20
380.7241655182598
 30
0.0
 10
394.2009537960175
 20
380.7301622135519
 30
0.0
 10
393.5566824138933
 20
380.7428350958666
 30
0.0
 10
392.3575125710119
 20
380.7605496221449
 30
0.0
 10
390.949246822602
 20
380.7803084981131
 30
0.0
 10
389.0921832834617
 20
380.8057828651106
 30
0.0
 10
386.7207283176277
 20
380.8386482788239
 30
0.0
 10
384.041642653138
 20
380.8766701196298
 30
0.0
 10
382.2118647121811
 20
380.901575558833
 30
0.0
 10
381.3631812428227
 20
380.913127143359
 30
0.0
  0
SPLINE
  5
95
330
1F
100
AcDbEntity
  8
0
  6
Continuous
 62
     7
370
    25
100
AcDbSpline
210
0.0
220
0.0
230
1.0
 70
     8
 71
     3
 72
    13
 73
     9
 74
     0
 42
0.000000001
 43
0.00000001
 40
0.0
 40
0.0
 40
0.0
 40
0.0
 40
0.0693225563331308
 40
0.1701487854365791
 40
0.2728682548681697
 40
0.3773359506168268
 40
0.4810664757540144
 40
1.0
 40
1.0
 40
1.0
 40
1.0
 10
447.667147809743
 20
415.9343055677173
 30
0.0
 10
447.154439524246
 20
416.0302251353177
 30
0.0
 10
445.8960223989254
 20
416.265654969272
 30
0.0
 10
443.8652701531886
 20
416.5527825357137
 30
0.0
 10
441.5697087293968
 20
416.8228013885657
 30
0.0
 10
439.2468013764617
 20
417.0405450342068
 30
0.0
 10
433.8095464219406
 20
417.463761040555
 30
0.0
 10
429.1488661017895
 20
417.6528448005531
 30
0.0
 10
425.2646154110423
 20
417.8104288172481
 30
0.0
  0
SPLINE
  5
96
330
1F
100
AcDbEntity
  8
0
  6
Continuous
 62
     7
370
    25
100
AcDbSpline
210
0.0
220
0.0
230
1.0
 70
     8
 71
     3
 72
    14
 73
    10
 74
     0
 42
0.000000001
 43
0.00000001
 40
0.0
 40
0.0
 40
0.0
 40
0.0
 40
0.1039024442000864
 40
0.2066278569097082
 40
0.3115566726803806
 40
0.4223510837701462
 40
0.5887097980235226
 40
0.7803827979059605
 40
1.0
 40
1.0
 40
1.0
 40
1.0
 10
403.6159253065578
 20
418.2447976660488
 30
0.0
 10
402.999354609616
 20
418.2481278911457
 30
0.0
 10
401.7731978745823
 20
418.2547506157612
 30
0.0
 10
399.664456019142
 20
418.2535881344117
 30
0.0
 10
397.3996541780592
 20
418.2547838710697
 30
0.0
 10
394.6262519016112
 20
418.2622218248724
 30
0.0
 10
391.2498626950151
 20
418.2739152984365
 30
0.0
 10
387.1597318492008
 20
418.2851850821888
 30
0.0
 10
384.3302623198667
 20
418.2774103620644
 30
0.0
 10
382.8194065337173
 20
418.273258883929
 30
0.0
  0
SPLINE
  5
97
330
1F
100
AcDbEntity
  8
0
  6
Continuous
 62
     7
370
    25
100
AcDbSpline
210
0.0
220
0.0
230
1.0
 70
     8
 71
     3
 72
     9
 73
     5
 74
     0
 42
0.000000001
 43
0.00000001
 40
0.0
 40
0.0
 40
0.0
 40
0.0
 40
0.5000117970617299
 40
1.0
 40
1.0
 40
1.0
 40
1.0
 10
362.9930243679426
 20
418.0955178332088
 30
0.0
 10
362.5324783720703
 20
418.088297790688
 30
0.0
 10
361.6114081121712
 20
418.0738580463397
 30
0.0
 10
360.6904072061985
 20
418.0440461880989
 30
0.0
 10
360.2299176183167
 20
418.0291406106708
 30
0.0
  0
LINE
  5
98
330
1F
100
AcDbEntity
  8
0
  6
Continuous
 62
     7
370
    25
100
AcDbLine
 10
338.6561217104
 20
379.7519318056
 30
0.0
 11
338.6561217104
 21
378.4829414677
 31
0.0
  0
ARC
  5
99
330
1F
100
AcDbEntity
  8
0
  6
Continuous
 62
     7
370
    25
100
AcDbCircle
 10
371.6561224406
 20
379.7519303949
 30
0.0
 40
10.00000000000007
100
AcDbArc
 50
6.9136539229
 51
9.0468459803
  0
ARC
  5
9A
330
1F
100
AcDbEntity
  8
0
  6
Continuous
 62
     7
370
    25
100
AcDbCircle
 10
348.6561224406
 20
379.7519303949
 30
0.0
 40
10.0
100
AcDbArc
 50
170.9531540197
 51
180.0
  0
ARC
  5
9B
330
1F
100
AcDbEntity
  8
0
  6
Continuous
 62
     7
370
    25
100
AcDbCircle
 10
360.1561224406
 20
377.9208696199
 30
0.0
 40
21.6448608219134
100
AcDbArc
 50
143.123105149
 51
170.9531540197
  0
ARC
  5
9C
330
1F
100
AcDbEntity
  8
0
  6
Continuous
 62
     7
370
    25
100
AcDbCircle
 10
360.1561224406
 20
377.9208696199
 30
0.0
 40
21.64486082191339
100
AcDbArc
 50
9.0468459803
 51
15.2684548419
  0
SPLINE
  5
9D
330
1F
100
AcDbEntity
  8
0
  6
Continuous
 62
     7
370
    25
100
AcDbSpline
210
0.0
220
0.0
230
1.0
 70
     8
 71
     3
 72
    15
 73
    11
 74
     0
 42
0.000000001
 43
0.00000001
 40
0.0
 40
0.0
 40
0.0
 40
0.0
 40
0.1443387795477015
 40
0.331024834947889
 40
0.4994363963377942
 40
0.6347864707974566
 40
0.690756793190976
 40
0.7444994690834937
 40
0.86325830923073
 40
1.0
 40
1.0
 40
1.0
 40
1.0
 10
427.631165677785
 20
409.9213741016147
 30
0.0
 10
428.2129389170323
 20
409.9214107128282
 30
0.0
 10
429.5471707229431
 20
409.9214946765483
 30
0.0
 10
431.3689461977272
 20
409.9281402891178
 30
0.0
 10
433.1232622224776
 20
409.9423813672369
 30
0.0
 10
434.5025774544291
 20
409.9595611599977
 30
0.0
 10
435.5125545234924
 20
409.973110622203
 30
0.0
 10
436.3895701447797
 20
409.9847001125541
 30
0.0
 10
437.271262416885
 20
409.9982097416408
 30
0.0
 10
437.7997660267432
 20
410.0133628424598
 30
0.0
 10
438.0826166217319
 20
410.0214726519344
 30
0.0
  0
SPLINE
  5
9E
330
1F
100
AcDbEntity
  8
0
  6
Continuous
 62
     7
370
    25
100
AcDbSpline
210
0.0
220
0.0
230
1.0
 70
     8
 71
     3
 72
    10
 73
     6
 74
     0
 42
0.000000001
 43
0.00000001
 40
0.0
 40
0.0
 40
0.0
 40
0.0
 40
0.1785204945128832
 40
0.5814179035319168
 40
1.0
 40
1.0
 40
1.0
 40
1.0
 10
444.6832051818362
 20
411.148283560252
 30
0.0
 10
444.8516932249314
 20
411.2178488213427
 30
0.0
 10
445.4004367462502
 20
411.4444137788977
 30
0.0
 10
446.2565331793953
 20
412.0264699274625
 30
0.0
 10
446.8446912978605
 20
412.6344018550614
 30
0.0
 10
447.1443852727405
 20
412.9441715073345
 30
0.0
  0
SPLINE
  5
9F
330
1F
100
AcDbEntity
  8
0
  6
Continuous
 62
     7
370
    25
100
AcDbSpline
210
0.0
220
0.0
230
1.0
 70
     8
 71
     3
 72
    11
 73
     7
 74
     0
 42
0.000000001
 43
0.00000001
 40
0.0
 40
0.0
 40
0.0
 40
0.0
 40
0.3684524642874208
 40
0.7247883085199829
 40
0.9017043924113717
 40
1.0
 40
1.0
 40
1.0
 40
1.0
 10
438.0148610417834
 20
410.0196174573658
 30
0.0
 10
438.8341665285514
 20
410.0441520515209
 30
0.0
 10
440.4458345060315
 20
410.0924144156563
 30
0.0
 10
442.5185836194057
 20
410.3715750155534
 30
0.0
 10
443.9091197685796
 20
410.7944215580737
 30
0.0
 10
444.4794897625893
 20
411.05515798923
 30
0.0
 10
444.6832051818363
 20
411.148283560252
 30
0.0
  0
LINE
  5
A0
330
1F
100
AcDbEntity
  8
0
  6
Continuous
 62
     7
370
    25
100
AcDbLine
 10
447.3243689482
 20
356.3889934909
 30
0.0
 11
448.8991013114
 21
352.491393615
 31
0.0
  0
LINE
  5
A1
330
1F
100
AcDbEntity
  8
0
  6
Continuous
 62
     7
370
    25
100
AcDbLine
 10
471.1515119617
 20
361.4819533419
 30
0.0
 11
469.8238035982
 21
364.7681362223
 31
0.0
  0
LINE
  5
A2
330
1F
100
AcDbEntity
  8
0
  6
Continuous
 62
     7
370
    25
100
AcDbLine
 10
470.4406073635
 20
360.5720362854
 30
0.0
 11
471.1515119617
 21
361.4819533419
 31
0.0
  0
LINE
  5
A3
330
1F
100
AcDbEntity
  8
0
  6
Continuous
 62
     7
370
    25
100
AcDbLine
 10
448.8991013114
 20
352.491393615
 30
0.0
 11
450.0425642674
 21
352.3306920421
 31
0.0
  0
LINE
  5
A4
330
1F
100
AcDbEntity
  8
0
  6
Continuous
 62
     7
370
    25
100
AcDbLine
 10
447.1035411899
 20
412.8981567216
 30
0.0
 11
448.3144766037
 21
414.3526218128
 31
0.0
  0
LINE
  5
A5
330
1F
100
AcDbEntity
  8
0
  6
Continuous
 62
     7
370
    25
100
AcDbLine
 10
383.0821680223
 20
389.6208665561
 30
0.0
 11
383.2403550242
 21
389.6208665561
 31
0.0
  0
LINE
  5
A6
330
1F
100
AcDbEntity
  8
0
  6
Continuous
 62
     7
370
    25
100
AcDbLine
 10
383.2403550242
 20
389.6208665561
 30
0.0
 11
383.8409034853
 21
389.8394516897
 31
0.0
  0
LINE
  5
A7
330
1F
100
AcDbEntity
  8
0
  6
Continuous
 62
     7
370
    25
100
AcDbLine
 10
383.8409034853
 20
397.4022901845
 30
0.0
 11
383.3566585873
 21
397.5785411191
 31
0.0
  0
ARC
  5
A8
330
1F
100
AcDbEntity
  8
0
  6
Continuous
 62
     7
370
    25
100
AcDbCircle
 10
383.7724987451
 20
397.2143497288
 30
0.0
 40
0.1999999999999886
100
AcDbArc
 50
0.0
 51
70.0
  0
ARC
  5
A9
330
1F
100
AcDbEntity
  8
0
  6
Continuous
 62
     7
370
    25
100
AcDbCircle
 10
383.7724987451
 20
390.0273895109
 30
0.0
 40
0.2000000000000455
100
AcDbArc
 50
290.0
 51
0.0
  0
LINE
  5
AA
330
1F
100
AcDbEntity
  8
0
  6
Continuous
 62
     7
370
    25
100
AcDbLine
 10
383.9724993651
 20
390.0273925853
 30
0.0
 11
383.9724993651
 21
397.2143492889
 31
0.0
  0
LINE
  5
AB
330
1F
100
AcDbEntity
  8
0
  6
Continuous
 62
     7
370
    25
100
AcDbLine
 10
331.969974408
 20
334.7837477219
 30
0.0
 11
336.460454235
 21
322.4462586683
 31
0.0
  0
LINE
  5
AC
330
1F
100
AcDbEntity
  8
0
  6
Continuous
 62
     7
370
    25
100
AcDbLine
 10
336.6017898862
 20
333.7531573367
 30
0.0
 11
335.728745753
 21
336.1518270564
 31
0.0
  0
ARC
  5
AD
330
1F
100
AcDbEntity
  8
0
  6
Continuous
 62
     7
370
    25
100
AcDbCircle
 10
330.0905899451
 20
334.0997077417
 30
0.0
 40
2.0
100
AcDbArc
 50
20.0
 51
90.0
  0
ARC
  5
AE
330
1F
100
AcDbEntity
  8
0
  6
Continuous
 62
     7
370
    25
100
AcDbCircle
 10
330.0905899451
 20
334.0997077417
 30
0.0
 40
6.0
100
AcDbArc
 50
20.0
 51
90.0
  0
LINE
  5
AF
330
1F
100
AcDbEntity
  8
0
  6
Continuous
 62
     7
370
    25
100
AcDbLine
 10
317.0905893986
 20
336.0997065198
 30
0.0
 11
330.0905896668
 21
336.0997065198
 31
0.0
  0
LINE
  5
B0
330
1F
100
AcDbEntity
  8
0
  6
Continuous
 62
     7
370
    25
100
AcDbLine
 10
330.0905896668
 20
340.0997071755
 30
0.0
 11
317.0905893986
 21
340.0997071755
 31
0.0
  0
SPLINE
  5
B1
330
1F
100
AcDbEntity
  8
0
  6
Continuous
 62
     7
370
    25
100
AcDbSpline
210
0.0
220
0.0
230
1.0
 70
     8
 71
     3
 72
     9
 73
     5
 74
     0
 42
0.000000001
 43
0.00000001
 40
0.0
 40
0.0
 40
0.0
 40
0.0
 40
0.9199288804348124
 40
1.0
 40
1.0
 40
1.0
 40
1.0
 10
444.6828103010646
 20
411.1481047463176
 30
0.0
 10
444.8565139433005
 20
411.2085843183077
 30
0.0
 10
445.0453368468208
 20
411.2743280657607
 30
0.0
 10
445.2104564383609
 20
411.3849521953369
 30
0.0
 10
445.2236777489177
 20
411.393809993243
 30
0.0
  0
SPLINE
  5
B2
330
1F
100
AcDbEntity
  8
0
  6
Continuous
 62
     7
370
    25
100
AcDbSpline
210
0.0
220
0.0
230
1.0
 70
     8
 71
     3
 72
    11
 73
     7
 74
     0
 42
0.000000001
 43
0.00000001
 40
0.0
 40
0.0
 40
0.0
 40
0.0
 40
0.3684758229990402
 40
0.7248342577881376
 40
0.9017615575952413
 40
1.0
 40
1.0
 40
1.0
 40
1.0
 10
438.0148610417834
 20
410.0196174573658
 30
0.0
 10
438.8341666732436
 20
410.0441517496667
 30
0.0
 10
440.4458349353498
 20
410.0924135200199
 30
0.0
 10
442.5185823131503
 20
410.3715777406402
 30
0.0
 10
443.9089820491932
 20
410.7943752372021
 30
0.0
 10
444.4792247889454
 20
411.0550424898146
 30
0.0
 10
444.6828103010646
 20
411.1481047463176
 30
0.0
  0
LINE
  5
B3
330
1F
100
AcDbEntity
  8
0
  6
Continuous
 62
     7
370
    25
100
AcDbLine
 10
424.6516784971
 20
409.9227375579
 30
0.0
 11
425.5899152105
 21
409.9223277759
 31
0.0
  0
SPLINE
  5
B4
330
1F
100
AcDbEntity
  8
0
  6
Continuous
 62
     7
370
    25
100
AcDbSpline
210
0.0
220
0.0
230
1.0
 70
     8
 71
     3
 72
    11
 73
     7
 74
     0
 42
0.000000001
 43
0.00000001
 40
0.0
 40
0.0
 40
0.0
 40
0.0
 40
0.22761650329392
 40
0.4987250084437213
 40
0.8039327819029627
 40
1.0
 40
1.0
 40
1.0
 40
1.0
 10
393.5050404016964
 20
380.7427621674297
 30
0.0
 10
393.1430241308336
 20
380.7484565725551
 30
0.0
 10
392.3498190462724
 20
380.7609334457306
 30
0.0
 10
390.9542601816506
 20
380.7801884641094
 30
0.0
 10
389.5863433507677
 20
380.7990192639375
 30
0.0
 10
388.676200059813
 20
380.8116657953868
 30
0.0
 10
388.3202093039743
 20
380.8166123223064
 30
0.0
  0
LINE
  5
B5
330
1F
100
AcDbEntity
  8
0
  6
Continuous
 62
     7
370
    25
100
AcDbLine
 10
470.7519373243
 20
377.0301155042
 30
0.0
 11
470.5393648093
 21
377.0491070342
 31
0.0
  0
SPLINE
  5
B6
330
1F
100
AcDbEntity
  8
0
  6
Continuous
 62
     7
370
    25
100
AcDbSpline
210
0.0
220
0.0
230
1.0
 70
     8
 71
     3
 72
    13
 73
     9
 74
     0
 42
0.000000001
 43
0.00000001
 40
0.0
 40
0.0
 40
0.0
 40
0.0
 40
0.2396031000948065
 40
0.4731414278405573
 40
0.6282539331745287
 40
0.7669910122000985
 40
0.8904092159554771
 40
1.0
 40
1.0
 40
1.0
 40
1.0
 10
439.6164750998012
 20
379.0526873659847
 30
0.0
 10
438.4519131709641
 20
379.1119030545653
 30
0.0
 10
436.1522664067916
 20
379.2288355793722
 30
0.0
 10
433.1088432239953
 20
379.3791499607721
 30
0.0
 10
430.5764374509133
 20
379.5026567184663
 30
0.0
 10
428.6064477881652
 20
379.5970117588806
 30
0.0
 10
426.8881866782142
 20
379.6776436305414
 30
0.0
 10
425.8882581947054
 20
379.7208868157871
 30
0.0
 10
425.4179632608882
 20
379.7412253212688
 30
0.0
  0
SPLINE
  5
B7
330
1F
100
AcDbEntity
  8
0
  6
Continuous
 62
     7
370
    25
100
AcDbSpline
210
0.0
220
0.0
230
1.0
 70
     8
 71
     3
 72
    28
 73
    24
 74
     0
 42
0.000000001
 43
0.00000001
 40
0.0
 40
0.0
 40
0.0
 40
0.0
 40
0.0341163697437296
 40
0.0680487772392433
 40
0.1017672769267689
 40
0.1352485736312831
 40
0.1684732135926255
 40
0.2731070664555073
 40
0.375026105119332
 40
0.4746065821014027
 40
0.5724893484975458
 40
0.6696679814038798
 40
0.6985023106144987
 40
0.7274346073264629
 40
0.7565083346582263
 40
0.7857691782501827
 40
0.8152643298996848
 40
0.8450424914214496
 40
0.8751565570554388
 40
0.905661743643739
 40
0.9366079661460452
 40
0.9680391520922434
 40
1.0
 40
1.0
 40
1.0
 40
1.0
 10
400.9713192111656
 20
409.5559123788763
 30
0.0
 10
400.7142925145931
 20
409.53578534752
 30
0.0
 10
400.2016250604947
 20
409.4956398137618
 30
0.0
 10
399.4361436717517
 20
409.4213382136249
 30
0.0
 10
398.6767989568847
 20
409.334716670952
 30
0.0
 10
397.9246981572038
 20
409.2329008944493
 30
0.0
 10
396.6460017118236
 20
409.0291946181388
 30
0.0
 10
394.8723828957254
 20
408.6450372755435
 30
0.0
 10
392.666922579504
 20
407.932812782824
 30
0.0
 10
390.6019574688329
 20
406.9946470806199
 30
0.0
 10
388.7064457694154
 20
405.8135359423919
 30
0.0
 10
387.4114102752255
 20
404.7128525821143
 30
0.0
 10
386.6026080155096
 20
403.8657971387888
 30
0.0
 10
386.1727327544269
 20
403.3695905890713
 30
0.0
 10
385.765883243732
 20
402.8502600050259
 30
0.0
 10
385.3830241433213
 20
402.3077648139957
 30
0.0
 10
385.0251734495551
 20
401.7421442627199
 30
0.0
 10
384.693305395299
 20
401.1534719214474
 30
0.0
 10
384.3887179894455
 20
400.5416941173227
 30
0.0
 10
384.1125588935416
 20
399.9068880388534
 30
0.0
 10
383.8667142856589
 20
399.2492008165026
 30
0.0
 10
383.6489778158306
 20
398.5698876936063
 30
0.0
 10
383.5322987228273
 20
398.1051699600805
 30
0.0
 10
383.473471729611
 20
397.8708696561105
 30
0.0
  0
SPLINE
  5
B8
330
1F
100
AcDbEntity
  8
0
  6
Continuous
 62
     7
370
    25
100
AcDbSpline
210
0.0
220
0.0
230
1.0
 70
     8
 71
     3
 72
    16
 73
    12
 74
     0
 42
0.000000001
 43
0.00000001
 40
0.0
 40
0.0
 40
0.0
 40
0.0
 40
0.2500000000000001
 40
0.2500000000000001
 40
0.5000000000000002
 40
0.5000000000000002
 40
0.6250000000000001
 40
0.6250000000000001
 40
0.7500000000000001
 40
0.7500000000000001
 40
1.0
 40
1.0
 40
1.0
 40
1.0
 10
383.4734717210343
 20
397.8708696197222
 30
0.0
 10
383.4723429742253
 20
397.8708729062572
 30
0.0
 10
383.4473922007029
 20
397.8126028388336
 30
0.0
 10
383.3585090890471
 20
397.5897839915937
 30
0.0
 10
383.2936537759344
 20
397.422600105677
 30
0.0
 10
383.1846239427788
 20
397.105939016155
 30
0.0
 10
383.14632642969
 20
396.989323998057
 30
0.0
 10
383.0683495888712
 20
396.7335724783321
 30
0.0
 10
383.0285399560761
 20
396.5937540294286
 30
0.0
 10
382.9145084353747
 20
396.1521242546642
 30
0.0
 10
382.8444496796433
 20
395.8252663384002
 30
0.0
 10
382.7903554038335
 20
395.4624361011267
 30
0.0
  0
SPLINE
  5
B9
330
1F
100
AcDbEntity
  8
0
  6
Continuous
 62
     7
370
    25
100
AcDbSpline
210
0.0
220
0.0
230
1.0
 70
    24
 71
     3
 72
     8
 73
     4
 74
     0
 42
0.000000001
 43
0.00000001
 40
0.0
 40
0.0
 40
0.0
 40
0.0
 40
1.0
 40
1.0
 40
1.0
 40
1.0
 10
382.7903554038375
 20
395.4624361011531
 30
0.0
 10
382.7903554038375
 20
395.3478360403037
 30
0.0
 10
382.7903554038375
 20
395.2296340049458
 30
0.0
 10
382.7903554038375
 20
395.1102494117233
 30
0.0
  0
SPLINE
  5
BA
330
1F
100
AcDbEntity
  8
0
  6
Continuous
 62
     7
370
    25
100
AcDbSpline
210
0.0
220
0.0
230
1.0
 70
     8
 71
     3
 72
     8
 73
     4
 74
     0
 42
0.000000001
 43
0.00000001
 40
0.0
 40
0.0
 40
0.0
 40
0.0
 40
1.0
 40
1.0
 40
1.0
 40
1.0
 10
382.7903554038375
 20
395.1102494117233
 30
0.0
 10
382.7584821063984
 20
394.8220937782167
 30
0.0
 10
382.7391623074458
 20
394.5258786998371
 30
0.0
 10
382.7341371857083
 20
394.2217450422648
 30
0.0
  0
LINE
  5
BB
330
1F
100
AcDbEntity
  8
0
  6
Continuous
 62
     7
370
    25
100
AcDbLine
 10
337.1446634029
 20
377.1829865169
 30
0.0
 11
336.9738327657
 21
363.5166025948
 31
0.0
  0
LINE
  5
BC
330
1F
100
AcDbEntity
  8
0
  6
Continuous
 62
     7
370
    25
100
AcDbLine
 10
336.9738327657
 20
363.5166025948
 30
0.0
 11
336.6017898862
 21
333.7531573367
 31
0.0
  0
LINE
  5
BD
330
1F
100
AcDbEntity
  8
0
  6
Continuous
 62
     7
370
    25
100
AcDbLine
 10
384.1561226492
 20
298.0997077417
 30
0.0
 11
383.8673660849
 21
321.2001714152
 31
0.0
  0
LINE
  5
BE
330
1F
100
AcDbEntity
  8
0
  6
Continuous
 62
     7
370
    25
100
AcDbLine
 10
336.156122232
 20
298.0997077417
 30
0.0
 11
384.1561226492
 21
298.0997077417
 31
0.0
  0
LINE
  5
BF
330
1F
100
AcDbEntity
  8
0
  6
Continuous
 62
     7
370
    25
100
AcDbLine
 10
336.460454235
 20
322.4462586683
 30
0.0
 11
336.156122232
 21
298.0997077417
 31
0.0
  0
SPLINE
  5
C0
330
1F
100
AcDbEntity
  8
0
  6
Continuous
 62
     7
370
    25
100
AcDbSpline
210
0.0
220
0.0
230
1.0
 70
     8
 71
     3
 72
    36
 73
    32
 74
     0
 42
0.000000001
 43
0.00000001
 40
0.0
 40
0.0
 40
0.0
 40
0.0
 40
0.0312500000000002
 40
0.0312500000000002
 40
0.0625000000000004
 40
0.0625000000000004
 40
0.1250000000000002
 40
0.1250000000000002
 40
0.1875
 40
0.1875
 40
0.2499999999999999
 40
0.2499999999999999
 40
0.3749999999999995
 40
0.3749999999999995
 40
0.4999999999999992
 40
0.4999999999999992
 40
0.6249999999999988
 40
0.6249999999999988
 40
0.7499999999999983
 40
0.7499999999999983
 40
0.812499999999999
 40
0.812499999999999
 40
0.8749999999999997
 40
0.8749999999999997
 40
0.9375000000000002
 40
0.9375000000000002
 40
0.9687500000000006
 40
0.9687500000000006
 40
0.9843750000000003
 40
0.9843750000000003
 40
1.0
 40
1.0
 40
1.0
 40
1.0
 10
336.4604543189279
 20
322.4462580098896
 30
0.0
 10
336.4604543189279
 20
322.4462580098896
 30
0.0
 10
336.4621365405974
 20
322.4835232557394
 30
0.0
 10
336.4675574701818
 20
322.6059617383572
 30
0.0
 10
336.4712311118605
 20
322.689857499397
 30
0.0
 10
336.483261779336
 20
322.9716562427676
 30
0.0
 10
336.492564163627
 20
323.1985849057493
 30
0.0
 10
336.5106449683544
 20
323.6685442208539
 30
0.0
 10
336.5195381643214
 20
323.9136441250349
 30
0.0
 10
336.5365415297956
 20
324.4157481004972
 30
0.0
 10
336.5446668338617
 20
324.6733071520713
 30
0.0
 10
336.5672293115448
 20
325.4463870743506
 30
0.0
 10
336.5800339941654
 20
325.9673410990215
 30
0.0
 10
336.6011330726299
 20
327.0166301081327
 30
0.0
 10
336.6094528221583
 20
327.5468606567177
 30
0.0
 10
336.6216029633667
 20
328.6055312818949
 30
0.0
 10
336.6254250818941
 20
329.1315594945301
 30
0.0
 10
336.6289945497621
 20
330.1766686175189
 30
0.0
 10
336.628738895096
 20
330.6958301290744
 30
0.0
 10
336.6256132775521
 20
331.4672653792003
 30
0.0
 10
336.6241063781913
 20
331.7241315572416
 30
0.0
 10
336.6202859406804
 20
332.2291233477765
 30
0.0
 10
336.6179661552771
 20
332.4778492121512
 30
0.0
 10
336.6127800275241
 20
332.9554127104761
 30
0.0
 10
336.6099143162268
 20
333.1833845157885
 30
0.0
 10
336.6058064633407
 20
333.4822468768521
 30
0.0
 10
336.604500832778
 20
333.5723749372165
 30
0.0
 10
336.602971889393
 20
333.6753698681308
 30
0.0
 10
336.6025456275747
 20
333.7035808325904
 30
0.0
 10
336.6019533976555
 20
333.7425645142451
 30
0.0
 10
336.6017905622234
 20
333.7531574735369
 30
0.0
 10
336.6017905622234
 20
333.7531574735369
 30
0.0
  0
SPLINE
  5
C1
330
1F
100
AcDbEntity
  8
0
  6
Continuous
 62
     7
370
    25
100
AcDbSpline
210
0.0
220
0.0
230
1.0
 70
     8
 71
     3
 72
    12
 73
     8
 74
     0
 42
0.000000001
 43
0.00000001
 40
0.0
 40
0.0
 40
0.0
 40
0.0
 40
0.5
 40
0.5
 40
0.75
 40
0.75
 40
1.0
 40
1.0
 40
1.0
 40
1.0
 10
338.049639033286
 20
378.3311822464149
 30
0.0
 10
337.7942282100311
 20
378.2664221022945
 30
0.0
 10
337.5671951618442
 20
378.1191075784231
 30
0.0
 10
337.322575372034
 20
377.8104552734735
 30
0.0
 10
337.2569713453816
 20
377.6914852868506
 30
0.0
 10
337.1700646606628
 20
377.4462979966819
 30
0.0
 10
337.1463497026426
 20
377.3178887069676
 30
0.0
 10
337.1446634557935
 20
377.1829889591879
 30
0.0
  0
SPLINE
  5
C2
330
1F
100
AcDbEntity
  8
0
  6
Continuous
 62
     7
370
    25
100
AcDbSpline
210
0.0
220
0.0
230
1.0
 70
     8
 71
     3
 72
    60
 73
    56
 74
     0
 42
0.000000001
 43
0.00000001
 40
0.0
 40
0.0
 40
0.0
 40
0.0
 40
0.0142627366859398
 40
0.0284560671163685
 40
0.0425753108203026
 40
0.0566170719908137
 40
0.0705790913059684
 40
0.0844600681491148
 40
0.0982594852700778
 40
0.1119774625355883
 40
0.1256146590331013
 40
0.1391722341051889
 40
0.1526514661358804
 40
0.1660510720388313
 40
0.1793687839381459
 40
0.1926030503518978
 40
0.2057532336788817
 40
0.2188195800861467
 40
0.2318030573761788
 40
0.2447051411072687
 40
0.2575276123004545
 40
0.2702724092110342
 40
0.2829415544502183
 40
0.2955371597446972
 40
0.3080614954058725
 40
0.3205171114256328
 40
0.3329071198178506
 40
0.3452352126346085
 40
0.3575055012345671
 40
0.369722488440877
 40
0.3818909146404023
 40
0.3940153759246086
 40
0.4061007336528791
 40
0.4181522123046443
 40
0.4301753597683758
 40
0.4421760039480711
 40
0.4541602058228535
 40
0.4661342093200279
 40
0.4781043884815654
 40
0.490077192434958
 40
0.5020590886493691
 40
0.5140565049000393
 40
0.5260757703091349
 40
0.5381230558031278
 40
0.5502043143371297
 40
0.5623252212846053
 40
0.5744911154650739
 40
0.5867069413650273
 40
0.6468964051823498
 40
0.7087905463914589
 40
0.7726173313876299
 40
0.8383573855156212
 40
0.9058279257423991
 40
0.9527285130766998
 40
1.0
 40
1.0
 40
1.0
 40
1.0
 10
383.8677496728091
 20
321.1998101637938
 30
0.0
 10
383.8654066425945
 20
321.465812295373
 30
0.0
 10
383.8607319839712
 20
321.9965221216842
 30
0.0
 10
383.8654701376489
 20
322.7905942743325
 30
0.0
 10
383.8794365100771
 20
323.5804248812127
 30
0.0
 10
383.9037982711213
 20
324.3656944444637
 30
0.0
 10
383.9386523597709
 20
325.1461198060426
 30
0.0
 10
383.9843060175341
 20
325.9214625718179
 30
0.0
 10
384.0409474426581
 20
326.6915175780518
 30
0.0
 10
384.1087442422532
 20
327.4561076143167
 30
0.0
 10
384.1878199658128
 20
328.215080037266
 30
0.0
 10
384.2782761813783
 20
328.9682965723438
 30
0.0
 10
384.3801200625068
 20
329.7155875541115
 30
0.0
 10
384.4936495026023
 20
330.4566701801551
 30
0.0
 10
384.6192372197362
 20
331.191173255366
 30
0.0
 10
384.7571937879741
 20
331.9187226057078
 30
0.0
 10
384.9077819988386
 20
332.6389766909682
 30
0.0
 10
385.0712091473191
 20
333.3516310604447
 30
0.0
 10
385.2476386588258
 20
334.0564115749856
 30
0.0
 10
385.4372048876148
 20
334.7530623535135
 30
0.0
 10
385.6400298388022
 20
335.4413318474084
 30
0.0
 10
385.8562376380804
 20
336.1209602946817
 30
0.0
 10
386.0859642918098
 20
336.7916709122863
 30
0.0
 10
386.3293624156978
 20
337.4531656795143
 30
0.0
 10
386.5865971017544
 20
338.1051277987984
 30
0.0
 10
386.8578485915137
 20
338.7472268832762
 30
0.0
 10
387.1432621893282
 20
339.3791468158818
 30
0.0
 10
387.4429428583626
 20
340.0005949218191
 30
0.0
 10
387.7569860088487
 20
340.6112868657848
 30
0.0
 10
388.0854691283849
 20
341.2109444657965
 30
0.0
 10
388.4284489069634
 20
341.7992870018188
 30
0.0
 10
388.7859586194313
 20
342.3760316403003
 30
0.0
 10
389.158008486844
 20
342.9408980770062
 30
0.0
 10
389.5445903413459
 20
343.4936183833603
 30
0.0
 10
389.9456786809843
 20
344.0339394539599
 30
0.0
 10
390.3612304389457
 20
344.5616233290891
 30
0.0
 10
390.7911847678747
 20
345.0764475181641
 30
0.0
 10
391.2354628419292
 20
345.5782053148916
 30
0.0
 10
391.6939676707499
 20
346.0667061075118
 30
0.0
 10
392.1665839022675
 20
346.5417756972591
 30
0.0
 10
392.6531776107523
 20
347.0032566457383
 30
0.0
 10
393.1535959817737
 20
347.4510086609785
 30
0.0
 10
393.6676671334096
 20
347.8849090676236
 30
0.0
 10
394.1951991173439
 20
348.3048532486781
 30
0.0
 10
394.7359816613045
 20
348.7107555008957
 30
0.0
 10
395.2897773314149
 20
349.1025486256166
 30
0.0
 10
395.8563521327239
 20
349.4801884870012
 30
0.0
 10
397.1923568677146
 20
350.3188208528912
 30
0.0
 10
399.4200415021411
 20
351.4804312909229
 30
0.0
 10
402.6674239733197
 20
352.7142441076282
 30
0.0
 10
406.1215298278177
 20
353.6402702798262
 30
0.0
 10
409.7417902486775
 20
354.2909593487061
 30
0.0
 10
413.0817362253258
 20
354.6664528747745
 30
0.0
 10
416.0887497495591
 20
354.8857393765772
 30
0.0
 10
417.842673563932
 20
354.9789483797531
 30
0.0
 10
418.7230894123585
 20
355.0257364345931
 30
0.0
  0
SPLINE
  5
C3
330
1F
100
AcDbEntity
  8
0
  6
Continuous
 62
     7
370
    25
100
AcDbSpline
210
0.0
220
0.0
230
1.0
 70
     8
 71
     3
 72
    19
 73
    15
 74
     0
 42
0.000000001
 43
0.00000001
 40
0.0
 40
0.0
 40
0.0
 40
0.0
 40
0.024277304915896
 40
0.1253814810013176
 40
0.2279838475721546
 40
0.3264936406606878
 40
0.4269878886996589
 40
0.5289084506786927
 40
0.6287498067461824
 40
0.7305928290311868
 40
0.8338850151818306
 40
0.8889856582787201
 40
0.9440873506092482
 40
1.0
 40
1.0
 40
1.0
 40
1.0
 10
383.1289129649392
 20
389.3755487394092
 30
0.0
 10
383.1291889612952
 20
389.3741394203116
 30
0.0
 10
383.1306143597066
 20
389.3668609140575
 30
0.0
 10
383.1230411566975
 20
389.4054678167046
 30
0.0
 10
383.106020961714
 20
389.4934125039164
 30
0.0
 10
383.0791805939757
 20
389.6356891811202
 30
0.0
 10
383.0448955793727
 20
389.8244124824537
 30
0.0
 10
383.0041200076881
 20
390.0606681972214
 30
0.0
 10
382.9587941761063
 20
390.3413289324
 30
0.0
 10
382.9109234561597
 20
390.6635089629157
 30
0.0
 10
382.8699230927031
 20
390.9699989141886
 30
0.0
 10
382.8374934616257
 20
391.239073031482
 30
0.0
 10
382.8131094516893
 20
391.4567522007683
 30
0.0
 10
382.7979765705555
 20
391.6089476412521
 30
0.0
 10
382.7903548573247
 20
391.6856012534855
 30
0.0
  0
SPLINE
  5
C4
330
1F
100
AcDbEntity
  8
0
  6
Continuous
 62
     7
370
    25
100
AcDbSpline
210
0.0
220
0.0
230
1.0
 70
     8
 71
     3
 72
    12
 73
     8
 74
     0
 42
0.000000001
 43
0.00000001
 40
0.0
 40
0.0
 40
0.0
 40
0.0
 40
0.5000000000000103
 40
0.5000000000000103
 40
0.7500000000000051
 40
0.7500000000000051
 40
1.0
 40
1.0
 40
1.0
 40
1.0
 10
382.7903554038394
 20
392.2268221297242
 30
0.0
 10
382.7672674943698
 20
392.5454414374345
 30
0.0
 10
382.7502072123939
 20
392.8742178567902
 30
0.0
 10
382.7356392201663
 20
393.3772358302894
 30
0.0
 10
382.7325959007416
 20
393.5480313181122
 30
0.0
 10
382.7304285004597
 20
393.8876096022106
 30
0.0
 10
382.7312775940987
 20
394.0556355699036
 30
0.0
 10
382.7339423160254
 20
394.2219492533458
 30
0.0
  0
SPLINE
  5
C5
330
1F
100
AcDbEntity
  8
0
  6
Continuous
 62
     7
370
    25
100
AcDbSpline
210
0.0
220
0.0
230
1.0
 70
    24
 71
     3
 72
     8
 73
     4
 74
     0
 42
0.000000001
 43
0.00000001
 40
0.0
 40
0.0
 40
0.0
 40
0.0
 40
1.0
 40
1.0
 40
1.0
 40
1.0
 10
382.7903554038375
 20
391.6856034565993
 30
0.0
 10
382.7903554038375
 20
391.866013826599
 30
0.0
 10
382.7903554038375
 20
392.0464200890333
 30
0.0
 10
382.7903554038375
 20
392.2268221297196
 30
0.0
  0
SPLINE
  5
C6
330
1F
100
AcDbEntity
  8
0
  6
Continuous
 62
     7
370
    25
100
AcDbSpline
210
0.0
220
0.0
230
1.0
 70
     8
 71
     3
 72
    18
 73
    14
 74
     0
 42
0.000000001
 43
0.00000001
 40
0.0
 40
0.0
 40
0.0
 40
0.0
 40
0.2499999999999999
 40
0.2499999999999999
 40
0.3749999999999998
 40
0.3749999999999998
 40
0.4999999999999998
 40
0.4999999999999998
 40
0.7499999999999997
 40
0.7499999999999997
 40
0.8749999999999998
 40
0.8749999999999998
 40
1.0
 40
1.0
 40
1.0
 40
1.0
 10
353.6737535750862
 20
386.533515437194
 30
0.0
 10
354.8471656948037
 20
386.0594261671152
 30
0.0
 10
356.0503185528238
 20
385.6379299859702
 30
0.0
 10
357.9019218840742
 20
385.0887939690763
 30
0.0
 10
358.5269596257338
 20
384.9196214052195
 30
0.0
 10
359.7934267342358
 20
384.6100509011818
 30
0.0
 10
360.4384578758869
 20
384.4690311600866
 30
0.0
 10
362.3646977041789
 20
384.0974009371102
 30
0.0
 10
363.6397835866152
 20
383.9165619405921
 30
0.0
 10
365.537448103378
 20
383.7377186997277
 30
0.0
 10
366.1674917596892
 20
383.6935400813828
 30
0.0
 10
367.422092783088
 20
383.6350364766204
 30
0.0
 10
368.0458232224262
 20
383.6208696198655
 30
0.0
 10
368.6580173117226
 20
383.6208696198655
 30
0.0
  0
LWPOLYLINE
  5
C7
330
1F
100
AcDbEntity
  8
0
  6
Continuous
 62
     7
370
    25
100
AcDbPolyline
 90
       15
 70
   128
 43
0.0
 10
337.3694790845
 20
393.1208661985
 10
337.3951426094
 20
393.1105024409
 10
337.6001043563
 20
393.0276892376
 10
338.00819687
 20
392.862807889
 10
338.6157693659
 20
392.61733361
 10
339.4173959588
 20
392.2934568715
 10
340.4059091901
 20
391.8940759492
 10
341.5724745338
 20
391.4227522206
 10
342.9066667651
 20
390.8837027144
 10
344.3965593671
 20
390.2817479563
 10
346.0288381522
 20
389.6222598147
 10
347.7889139523
 20
388.9111466002
 10
349.6610548665
 20
388.1547487569
 10
351.6285296847
 20
387.3598388624
 10
353.6737536398
 20
386.5335173201
  0
LINE
  5
C8
330
1F
100
AcDbEntity
  8
0
  6
Continuous
 62
     7
370
    25
100
AcDbLine
 10
368.6580172126
 20
383.620869298
 30
0.0
 11
383.1903560405
 21
383.620869298
 31
0.0
  0
SPLINE
  5
C9
330
1F
100
AcDbEntity
  8
0
  6
Continuous
 62
     7
370
    25
100
AcDbSpline
210
0.0
220
0.0
230
1.0
 70
     8
 71
     3
 72
    10
 73
     6
 74
     0
 42
0.000000001
 43
0.00000001
 40
0.0
 40
0.0
 40
0.0
 40
0.0
 40
0.5
 40
0.5
 40
1.0
 40
1.0
 40
1.0
 40
1.0
 10
338.328161549986
 20
415.8426397560516
 30
0.0
 10
338.1199051282937
 20
415.7841440907871
 30
0.0
 10
337.9361941919307
 20
415.6593686576435
 30
0.0
 10
337.6741543617818
 20
415.3178114319816
 30
0.0
 10
337.6009098361096
 20
415.1067193681716
 30
0.0
 10
337.598632955297
 20
414.8904156909683
 30
0.0
  0
SPLINE
  5
CA
330
1F
100
AcDbEntity
  8
0
  6
Continuous
 62
     7
370
    25
100
AcDbSpline
210
0.0
220
0.0
230
1.0
 70
     8
 71
     3
 72
    15
 73
    11
 74
     0
 42
0.000000001
 43
0.00000001
 40
0.0
 40
0.0
 40
0.0
 40
0.0
 40
0.0000024180731678
 40
0.1478859602300668
 40
0.2957909699357411
 40
0.4439147018532615
 40
0.5920357628932609
 40
0.7403793843072195
 40
0.8887193665061723
 40
1.0
 40
1.0
 40
1.0
 40
1.0
 10
360.210079996368
 20
416.2019229721782
 30
0.0
 10
360.2100600008241
 20
416.2019229721813
 30
0.0
 10
358.9871606066662
 20
416.201923159618
 30
0.0
 10
356.5351334206838
 20
416.1329204938309
 30
0.0
 10
352.9611095309736
 20
416.1029356068281
 30
0.0
 10
349.5915014311803
 20
416.0457474527983
 30
0.0
 10
346.5063773303207
 20
415.9975180076435
 30
0.0
 10
343.8324809691757
 20
415.9519757031524
 30
0.0
 10
341.7330252697215
 20
415.9139511124844
 30
0.0
 10
340.8053571408736
 20
415.8953794124084
 30
0.0
 10
340.407732719659
 20
415.8874190640209
 30
0.0
  0
SPLINE
  5
CB
330
1F
100
AcDbEntity
  8
0
  6
Continuous
 62
     7
370
    25
100
AcDbSpline
210
0.0
220
0.0
230
1.0
 70
     8
 71
     3
 72
    20
 73
    16
 74
     0
 42
0.000000001
 43
0.00000001
 40
0.0
 40
0.0
 40
0.0
 40
0.0
 40
0.2500000000000002
 40
0.2500000000000002
 40
0.3750000000000003
 40
0.3750000000000003
 40
0.4375000000000002
 40
0.4375000000000002
 40
0.5000000000000001
 40
0.5000000000000001
 40
0.75
 40
0.75
 40
0.875
 40
0.875
 40
1.0
 40
1.0
 40
1.0
 40
1.0
 10
374.8303361613777
 20
379.7519303948626
 30
0.0
 10
375.9072692575394
 20
379.9122257694041
 30
0.0
 10
376.8603469741016
 20
380.0687840460887
 30
0.0
 10
378.1131844500056
 20
380.2861362992783
 30
0.0
 10
378.5010998911892
 20
380.3556820884222
 30
0.0
 10
379.0374467458059
 20
380.4541209862599
 30
0.0
 10
379.2089594023485
 20
380.486017156023
 30
0.0
 10
379.532991836982
 20
380.5469268284078
 30
0.0
 10
379.6859362967082
 20
380.5760165520518
 30
0.0
 10
380.4062499704755
 20
380.7142866249134
 30
0.0
 10
380.8418186471251
 20
380.8019699243105
 30
0.0
 10
381.2848336855517
 20
380.892064987796
 30
0.0
 10
381.3971961348616
 20
380.9151896935036
 30
0.0
 10
381.546254328162
 20
380.94595160326
 30
0.0
 10
381.5836437593716
 20
380.953729240356
 30
0.0
 10
381.5836421404958
 20
380.9537426130119
 30
0.0
  0
SPLINE
  5
CC
330
1F
100
AcDbEntity
  8
0
  6
Continuous
 62
     7
370
    25
100
AcDbSpline
210
0.0
220
0.0
230
1.0
 70
     8
 71
     3
 72
    10
 73
     6
 74
     0
 42
0.000000001
 43
0.00000001
 40
0.0
 40
0.0
 40
0.0
 40
0.0
 40
0.3484287171076515
 40
0.7501765115329161
 40
1.0
 40
1.0
 40
1.0
 40
1.0
 10
476.6072592084399
 20
376.0899639916179
 30
0.0
 10
475.9302629975183
 20
376.2242744092438
 30
0.0
 10
474.4726717287902
 20
376.5134483940791
 30
0.0
 10
472.5149267743262
 20
376.8211853715964
 30
0.0
 10
471.2326690489503
 20
376.9684131976348
 30
0.0
 10
470.7410296742908
 20
377.0248628449199
 30
0.0
  0
SPLINE
  5
CD
330
1F
100
AcDbEntity
  8
0
  6
Continuous
 62
     7
370
    25
100
AcDbSpline
210
0.0
220
0.0
230
1.0
 70
     8
 71
     3
 72
    10
 73
     6
 74
     0
 42
0.000000001
 43
0.00000001
 40
0.0
 40
0.0
 40
0.0
 40
0.0
 40
0.0448694536317201
 40
0.5222665603542404
 40
1.0
 40
1.0
 40
1.0
 40
1.0
 10
425.6285539214603
 20
379.7193131637333
 30
0.0
 10
424.9702881888498
 20
379.7511898984214
 30
0.0
 10
417.3082786892184
 20
380.1222252294407
 30
0.0
 10
402.6255947644663
 20
380.5673488736818
 30
0.0
 10
388.5992726715075
 20
380.8249128977638
 30
0.0
 10
381.5836420600406
 20
380.9537402581928
 30
0.0
  0
SPLINE
  5
CE
330
1F
100
AcDbEntity
  8
0
  6
Continuous
 62
     7
370
    25
100
AcDbSpline
210
0.0
220
0.0
230
1.0
 70
     8
 71
     3
 72
    18
 73
    14
 74
     0
 42
0.000000001
 43
0.00000001
 40
0.0
 40
0.0
 40
0.0
 40
0.0
 40
0.2500000000000001
 40
0.2500000000000001
 40
0.3750000000000001
 40
0.3750000000000001
 40
0.5000000000000001
 40
0.5000000000000001
 40
0.7500000000000003
 40
0.7500000000000003
 40
0.8750000000000001
 40
0.8750000000000001
 40
1.0
 40
1.0
 40
1.0
 40
1.0
 10
360.1561224405754
 20
378.499169270822
 30
0.0
 10
361.5181877372701
 20
378.5217100340395
 30
0.0
 10
362.8571768039456
 20
378.5727284781717
 30
0.0
 10
364.8329562597959
 20
378.683751911247
 30
0.0
 10
365.486058317052
 20
378.7265916326567
 30
0.0
 10
366.7811558331521
 20
378.8229205244755
 30
0.0
 10
367.4260987149202
 20
378.8767151077258
 30
0.0
 10
369.3076912983597
 20
379.0491267258156
 30
0.0
 10
370.4999132985153
 20
379.1791205456887
 30
0.0
 10
372.1978555828691
 20
379.3870797605975
 30
0.0
 10
372.7486695687837
 20
379.4585766593154
 30
0.0
 10
373.8191919585041
 20
379.6044033569951
 30
0.0
 10
374.3356161852264
 20
379.6782941363495
 30
0.0
 10
374.8303361613778
 20
379.7519303948626
 30
0.0
  0
SPLINE
  5
CF
330
1F
100
AcDbEntity
  8
0
  6
Continuous
 62
     7
370
    25
100
AcDbSpline
210
0.0
220
0.0
230
1.0
 70
     8
 71
     3
 72
     9
 73
     5
 74
     0
 42
0.000000001
 43
0.00000001
 40
0.850222474942791
 40
0.850222474942791
 40
0.850222474942791
 40
0.850222474942791
 40
0.875
 40
0.8909762012040324
 40
0.8909762012040324
 40
0.8909762012040324
 40
0.8909762012040324
 10
338.6561224405754
 20
378.4829436095197
 30
0.0
 10
338.5214495462594
 20
378.4496864809925
 30
0.0
 10
338.3108162470141
 20
378.3971884388695
 30
0.0
 10
338.1207330693335
 20
378.3492083424193
 30
0.0
 10
338.0496390332859
 20
378.3311822464149
 30
0.0
  0
SPLINE
  5
D0
330
1F
100
AcDbEntity
  8
0
  6
Continuous
 62
     7
370
    25
100
AcDbSpline
210
0.0
220
0.0
230
1.0
 70
     8
 71
     3
 72
    32
 73
    28
 74
     0
 42
0.000000001
 43
0.00000001
 40
0.0
 40
0.0
 40
0.0
 40
0.0
 40
0.1249999999999998
 40
0.1249999999999998
 40
0.1874999999999998
 40
0.1874999999999998
 40
0.2499999999999998
 40
0.2499999999999998
 40
0.3749999999999996
 40
0.3749999999999996
 40
0.4374999999999996
 40
0.4374999999999996
 40
0.4999999999999997
 40
0.4999999999999997
 40
0.6249999999999998
 40
0.6249999999999998
 40
0.6562499999999998
 40
0.6562499999999998
 40
0.6874999999999998
 40
0.6874999999999998
 40
0.7499999999999999
 40
0.7499999999999999
 40
0.8124999999999999
 40
0.8124999999999999
 40
0.8749999999999999
 40
0.8749999999999999
 40
1.0
 40
1.0
 40
1.0
 40
1.0
 10
360.1561224405754
 20
378.4991692708218
 30
0.0
 10
358.7365968999346
 20
378.4754505479941
 30
0.0
 10
357.3406904401723
 20
378.4841049839533
 30
0.0
 10
355.280940579484
 20
378.4848545171707
 30
0.0
 10
354.6000812179682
 20
378.4845072914689
 30
0.0
 10
353.2500685808924
 20
378.4839309707158
 30
0.0
 10
352.5790988720966
 20
378.4838496830253
 30
0.0
 10
350.6272595993789
 20
378.4841887087404
 30
0.0
 10
349.3928524775036
 20
378.484589616817
 30
0.0
 10
347.6405817542525
 20
378.4842982064109
 30
0.0
 10
347.0712625440572
 20
378.4840995129862
 30
0.0
 10
345.9758161862378
 20
378.4838194075652
 30
0.0
 10
345.4544782224089
 20
378.4837552371679
 30
0.0
 10
343.9671534298941
 20
378.4836557035233
 30
0.0
 10
343.0771304759745
 20
378.4839737894883
 30
0.0
 10
342.0945437461302
 20
378.4842021886384
 30
0.0
 10
341.904095416745
 20
378.4842244248721
 30
0.0
 10
341.5398986636893
 20
378.4842230559215
 30
0.0
 10
341.3659634554979
 20
378.4841995355477
 30
0.0
 10
340.8681956736811
 20
378.4841044003908
 30
0.0
 10
340.5683442369062
 20
378.4840439658601
 30
0.0
 10
340.0316601837348
 20
378.4840364806572
 30
0.0
 10
339.7948278380334
 20
378.4840160931358
 30
0.0
 10
339.3850378585423
 20
378.4838663238548
 30
0.0
 10
339.2115232269238
 20
378.4837542545087
 30
0.0
 10
338.7953540542133
 20
378.4834075633775
 30
0.0
 10
338.6561224405755
 20
378.4831403165514
 30
0.0
 10
338.6561224405755
 20
378.4829436095197
 30
0.0
  0
SPLINE
  5
D1
330
1F
100
AcDbEntity
  8
0
  6
Continuous
 62
     7
370
    25
100
AcDbSpline
210
0.0
220
0.0
230
1.0
 70
     8
 71
     3
 72
     9
 73
     5
 74
     0
 42
0.000000001
 43
0.00000001
 40
0.0461274644246422
 40
0.0461274644246422
 40
0.0461274644246422
 40
0.0461274644246422
 40
0.5
 40
1.0
 40
1.0
 40
1.0
 40
1.0
 10
338.3281615499859
 20
415.8426397560516
 30
0.0
 10
340.7463865913264
 20
416.521877790601
 30
0.0
 10
346.8841494240258
 20
417.6216128304056
 30
0.0
 10
355.2402811962813
 20
418.032490879646
 30
0.0
 10
360.2299176212983
 20
418.0585916657239
 30
0.0
  0
LINE
  5
D2
330
1F
100
AcDbEntity
  8
0
  6
Continuous
 62
     7
370
    25
100
AcDbLine
 10
447.7037674134
 20
415.9356839251
 30
0.0
 11
447.2809469645
 21
416.0041473102
 31
0.0
  0
SPLINE
  5
D3
330
1F
100
AcDbEntity
  8
0
  6
Continuous
 62
     7
370
    25
100
AcDbSpline
210
0.0
220
0.0
230
1.0
 70
     8
 71
     3
 72
    10
 73
     6
 74
     0
 42
0.000000001
 43
0.00000001
 40
0.0
 40
0.0
 40
0.0
 40
0.0
 40
0.0384546936990722
 40
0.195452123643868
 40
1.0
 40
1.0
 40
1.0
 40
1.0
 10
425.4635608141414
 20
417.8002960276363
 30
0.0
 10
425.142813399614
 20
417.8127516574449
 30
0.0
 10
423.5125634277055
 20
417.8760593856636
 30
0.0
 10
415.1686601900567
 20
418.1189183785755
 30
0.0
 10
407.1424326884087
 20
418.1922356184459
 30
0.0
 10
400.4266968314639
 20
418.2535819005726
 30
0.0
  0
SPLINE
  5
D4
330
1F
100
AcDbEntity
  8
0
  6
Continuous
 62
     7
370
    25
100
AcDbSpline
210
0.0
220
0.0
230
1.0
 70
     8
 71
     3
 72
     9
 73
     5
 74
     0
 42
0.000000001
 43
0.00000001
 40
0.0
 40
0.0
 40
0.0
 40
0.0
 40
0.4398422958347475
 40
0.9999999999999999
 40
0.9999999999999999
 40
0.9999999999999999
 40
0.9999999999999999
 10
392.6019927804462
 20
418.2691536140201
 30
0.0
 10
388.2607287685257
 20
418.2734787214948
 30
0.0
 10
378.3906820426158
 20
418.2833120356522
 30
0.0
 10
368.5213969680432
 20
418.1573320567564
 30
0.0
 10
362.9930408989183
 20
418.0867634010074
 30
0.0
  0
SPLINE
  5
D5
330
1F
100
AcDbEntity
  8
0
  6
Continuous
 62
     7
370
    25
100
AcDbSpline
210
0.0
220
0.0
230
1.0
 70
     8
 71
     3
 72
    10
 73
     6
 74
     0
 42
0.000000001
 43
0.00000001
 40
0.0
 40
0.0
 40
0.0
 40
0.0
 40
0.5
 40
0.5
 40
1.0
 40
1.0
 40
1.0
 40
1.0
 10
463.4275575413742
 20
361.3681162550783
 30
0.0
 10
462.2176217537333
 20
360.841139312073
 30
0.0
 10
460.9827194320214
 20
360.3939510990161
 30
0.0
 10
458.4748713482988
 20
359.6211549361341
 30
0.0
 10
457.2018521600213
 20
359.2957816439733
 30
0.0
 10
455.9142132331338
 20
359.017130510866
 30
0.0
  0
SPLINE
  5
D6
330
1F
100
AcDbEntity
  8
0
  6
Continuous
 62
     7
370
    25
100
AcDbSpline
210
0.0
220
0.0
230
1.0
 70
     8
 71
     3
 72
    22
 73
    18
 74
     0
 42
0.000000001
 43
0.00000001
 40
0.0
 40
0.0
 40
0.0
 40
0.0
 40
0.125
 40
0.125
 40
0.25
 40
0.25
 40
0.375
 40
0.375
 40
0.5
 40
0.5
 40
0.7499999999999996
 40
0.7499999999999996
 40
0.8749999999999996
 40
0.8749999999999996
 40
0.9374999999999998
 40
0.9374999999999998
 40
1.0
 40
1.0
 40
1.0
 40
1.0
 10
457.9699046779755
 20
359.847683766807
 30
0.0
 10
457.5275717124387
 20
359.7198545147754
 30
0.0
 10
457.0849580040852
 20
359.5886277173515
 30
0.0
 10
456.2078277159295
 20
359.3217549784698
 30
0.0
 10
455.779040148998
 20
359.1879015830998
 30
0.0
 10
454.9400167666053
 20
358.9205703675864
 30
0.0
 10
454.5297796156898
 20
358.7871021671226
 30
0.0
 10
453.727373519282
 20
358.522425086261
 30
0.0
 10
453.3334267734102
 20
358.3906380235348
 30
0.0
 10
452.1911352674547
 20
358.0060011170897
 30
0.0
 10
451.4951074643223
 20
357.7684489113199
 30
0.0
 10
450.5437930323233
 20
357.4487308796938
 30
0.0
 10
450.2410306130089
 20
357.3480679567099
 30
0.0
 10
449.8166117292783
 20
357.2069080767187
 30
0.0
 10
449.6803409521644
 20
357.1613846993138
 30
0.0
 10
449.4207061291569
 20
357.066803943016
 30
0.0
 10
449.2953178451423
 20
357.0230561542493
 30
0.0
 10
449.1741583969889
 20
356.9834637445555
 30
0.0
  0
SPLINE
  5
D7
330
1F
100
AcDbEntity
  8
0
  6
Continuous
 62
     7
370
    25
100
AcDbSpline
210
0.0
220
0.0
230
1.0
 70
     8
 71
     3
 72
    16
 73
    12
 74
     0
 42
0.000000001
 43
0.00000001
 40
0.0
 40
0.0
 40
0.0
 40
0.0
 40
0.1250000000000003
 40
0.1250000000000003
 40
0.2500000000000007
 40
0.2500000000000007
 40
0.5000000000000004
 40
0.5000000000000004
 40
0.7500000000000002
 40
0.7500000000000002
 40
1.0
 40
1.0
 40
1.0
 40
1.0
 10
466.1842971463275
 20
362.4517029106272
 30
0.0
 10
466.0848716080405
 20
362.3991350155964
 30
0.0
 10
465.9826644798418
 20
362.3495013682634
 30
0.0
 10
465.7724305248043
 20
362.2568265936456
 30
0.0
 10
465.6666387442929
 20
362.2082745018981
 30
0.0
 10
465.3452535496405
 20
362.0609620054076
 30
0.0
 10
465.1242085179653
 20
361.9641152049901
 30
0.0
 10
464.6651042340134
 20
361.7817318845658
 30
0.0
 10
464.4275839711253
 20
361.6948667533774
 30
0.0
 10
463.9374825082231
 20
361.5272537951811
 30
0.0
 10
463.6841273183841
 20
361.4464388433116
 30
0.0
 10
463.4275575413798
 20
361.3681162550801
 30
0.0
  0
SPLINE
  5
D8
330
1F
100
AcDbEntity
  8
0
  6
Continuous
 62
     7
370
    25
100
AcDbSpline
210
0.0
220
0.0
230
1.0
 70
     8
 71
     3
 72
    14
 73
    10
 74
     0
 42
0.000000001
 43
0.00000001
 40
0.0
 40
0.0
 40
0.0
 40
0.0
 40
0.0126160850881823
 40
0.1783274260349555
 40
0.3515981907862426
 40
0.5242903125482391
 40
0.6939845859068964
 40
0.8544192953929699
 40
1.0
 40
1.0
 40
1.0
 40
1.0
 10
427.631165677785
 20
409.9215603661297
 30
0.0
 10
427.5190245123737
 20
409.9213732765413
 30
0.0
 10
425.9339174652524
 20
409.9187287791006
 30
0.0
 10
422.8086428504675
 20
409.9262297615672
 30
0.0
 10
418.2605100738778
 20
409.9265068456947
 30
0.0
 10
413.6769050527276
 20
409.9140823276146
 30
0.0
 10
409.20781594194
 20
409.8662846754887
 30
0.0
 10
404.9795381508583
 20
409.782142308386
 30
0.0
 10
402.2635468507395
 20
409.6290208908619
 30
0.0
 10
400.9714683835498
 20
409.5561764430759
 30
0.0
  0
SPLINE
  5
D9
330
1F
100
AcDbEntity
  8
0
  6
Continuous
 62
     7
370
    25
100
AcDbSpline
210
0.0
220
0.0
230
1.0
 70
     8
 71
     3
 72
    10
 73
     6
 74
     0
 42
0.000000001
 43
0.00000001
 40
0.0
 40
0.0
 40
0.0
 40
0.0
 40
0.4029544484914709
 40
0.7915144491882906
 40
0.9999999999999999
 40
0.9999999999999999
 40
0.9999999999999999
 40
0.9999999999999999
 10
447.1034741346828
 20
412.898395140147
 30
0.0
 10
446.8201715673671
 20
412.6102792006266
 30
0.0
 10
446.2636866436694
 20
412.0443394771029
 30
0.0
 10
445.4363270172599
 20
411.4471795363607
 30
0.0
 10
444.8692354906506
 20
411.248521711251
 30
0.0
 10
444.6712097470752
 20
411.179151315665
 30
0.0
  0
SPLINE
  5
DA
330
1F
100
AcDbEntity
  8
0
  6
Continuous
 62
     7
370
    25
100
AcDbSpline
210
0.0
220
0.0
230
1.0
 70
     8
 71
     3
 72
    10
 73
     6
 74
     0
 42
0.000000001
 43
0.00000001
 40
0.0
 40
0.0
 40
0.0
 40
0.0
 40
0.0185248417247875
 40
0.4991980484823688
 40
0.9999999999999999
 40
0.9999999999999999
 40
0.9999999999999999
 40
0.9999999999999999
 10
443.16511213231
 20
410.5939678144214
 30
0.0
 10
443.1356392883166
 20
410.5823918949327
 30
0.0
 10
442.3414200219204
 20
410.2704498819314
 30
0.0
 10
440.6023210908349
 20
410.1341551832032
 30
0.0
 10
438.9338200460333
 20
410.0597408904287
 30
0.0
 10
438.0824601595393
 20
410.0217706751583
 30
0.0
  0
LINE
  5
DB
330
1F
100
AcDbEntity
  8
0
  6
Continuous
 62
     7
370
    25
100
AcDbLine
 10
455.5786883776
 20
355.1901242923
 30
0.0
 11
454.2965403144
 21
358.3635463607
 31
0.0
  0
LWPOLYLINE
  5
DC
330
1F
100
AcDbEntity
  8
0
  6
Continuous
 62
     7
370
    25
100
AcDbPolyline
 90
       10
 70
   128
 43
0.0
 10
455.5786883776
 20
355.1901242923
 10
454.2328602021
 20
354.6463734698
 10
452.9946854656
 20
354.1461191368
 10
451.887171561
 20
353.6986521673
 10
450.930896992
 20
353.3122911346
 10
450.1436388438
 20
352.9942183983
 10
449.5400226061
 20
352.7503422689
 10
449.1312688534
 20
352.5851964247
 10
448.9249771779
 20
352.5018467796
 10
448.8991013114
 20
352.491393615
  0
SPLINE
  5
DD
330
1F
100
AcDbEntity
  8
0
  6
Continuous
 62
     7
370
    25
100
AcDbSpline
210
0.0
220
0.0
230
1.0
 70
     8
 71
     3
 72
    16
 73
    12
 74
     0
 42
0.000000001
 43
0.00000001
 40
0.0
 40
0.0
 40
0.0
 40
0.0
 40
0.1249999999999999
 40
0.1249999999999999
 40
0.2499999999999998
 40
0.2499999999999998
 40
0.4999999999999998
 40
0.4999999999999998
 40
0.7499999999999999
 40
0.7499999999999999
 40
1.0
 40
1.0
 40
1.0
 40
1.0
 10
447.3243663187358
 20
356.3889924290067
 30
0.0
 10
447.3243659928485
 20
356.3889932356062
 30
0.0
 10
447.3336098098879
 20
356.3939857405266
 30
0.0
 10
447.3736173419152
 20
356.4054071095404
 30
0.0
 10
447.4039086219636
 20
356.4130054387162
 30
0.0
 10
447.52465348726
 20
356.4436612079691
 30
0.0
 10
447.6457352113308
 20
356.4747419773849
 30
0.0
 10
447.9607815144485
 20
356.5688915036127
 30
0.0
 10
448.1542166074258
 20
356.6339469201762
 30
0.0
 10
448.6112860302012
 20
356.7930693819557
 30
0.0
 10
448.8740534935079
 20
356.8855708486258
 30
0.0
 10
449.1741036737146
 20
356.9836167935311
 30
0.0
  0
LWPOLYLINE
  5
DE
330
1F
100
AcDbEntity
  8
0
  6
Continuous
 62
     7
370
    25
100
AcDbPolyline
 90
        9
 70
   128
 43
0.0
 10
454.2965403144
 20
358.3635463607
 10
454.7359383051
 20
358.5410750699
 10
455.1826378648
 20
358.721554209
 10
455.6358343308
 20
358.9046559524
 10
456.0946857874
 20
359.0900487494
 10
456.5583726709
 20
359.277386148
 10
457.0260381644
 20
359.4663365972
 10
457.4968329017
 20
359.6565499198
 10
457.9699075167
 20
359.8476833892
  0
SPLINE
  5
DF
330
1F
100
AcDbEntity
  8
0
  6
Continuous
 62
     7
370
    25
100
AcDbSpline
210
0.0
220
0.0
230
1.0
 70
     8
 71
     3
 72
     8
 73
     4
 74
     0
 42
0.000000001
 43
0.00000001
 40
0.0
 40
0.0
 40
0.0
 40
0.0
 40
1.0
 40
1.0
 40
1.0
 40
1.0
 10
477.5323545496624
 20
374.6434624004015
 30
0.0
 10
477.5067210428898
 20
374.5331142148951
 30
0.0
 10
477.4664203669569
 20
374.4291347241269
 30
0.0
 10
477.4119585811438
 20
374.3313041899154
 30
0.0
  0
SPLINE
  5
E0
330
1F
100
AcDbEntity
  8
0
  6
Continuous
 62
     7
370
    25
100
AcDbSpline
210
0.0
220
0.0
230
1.0
 70
     8
 71
     3
 72
    14
 73
    10
 74
     0
 42
0.000000001
 43
0.00000001
 40
0.0
 40
0.0
 40
0.0
 40
0.0
 40
0.25
 40
0.25
 40
0.5
 40
0.5
 40
0.75
 40
0.75
 40
1.0
 40
1.0
 40
1.0
 40
1.0
 10
476.6072601232879
 20
376.0899651688101
 30
0.0
 10
476.7647337833468
 20
376.0572927387428
 30
0.0
 10
476.9128124148789
 20
375.9937194389222
 30
0.0
 10
477.1754725978047
 20
375.8128154475523
 30
0.0
 10
477.2884845214437
 20
375.6957275513757
 30
0.0
 10
477.4596546326615
 20
375.4283958610293
 30
0.0
 10
477.5188621509254
 20
375.2766250033442
 30
0.0
 10
477.5732735196802
 20
374.9606854146132
 30
0.0
 10
477.5688271778598
 20
374.80047128623
 30
0.0
 10
477.5323545496024
 20
374.6434624001436
 30
0.0
  0
SPLINE
  5
E1
330
1F
100
AcDbEntity
  8
0
  6
Continuous
 62
     7
370
    25
100
AcDbSpline
210
0.0
220
0.0
230
1.0
 70
     8
 71
     3
 72
    13
 73
     9
 74
     0
 42
0.000000001
 43
0.00000001
 40
0.0386047796335825
 40
0.0386047796335825
 40
0.0386047796335825
 40
0.0386047796335825
 40
0.041015625
 40
0.066650390625
 40
0.109375
 40
0.18115234375
 40
0.30078125
 40
0.3569347590197052
 40
0.3569347590197052
 40
0.3569347590197052
 40
0.3569347590197052
 10
477.4119585811436
 20
374.3313041899156
 30
0.0
 10
477.3961177391112
 20
374.3028490444361
 30
0.0
 10
477.2115936822125
 20
373.9721948817547
 30
0.0
 10
476.7388642671868
 20
373.1483839675176
 30
0.0
 10
475.7651247042862
 20
371.5713548990121
 30
0.0
 10
474.0276361888123
 20
369.0870292361439
 30
0.0
 10
471.9756306330381
 20
366.7280525980643
 30
0.0
 10
470.3579499686794
 20
365.2289891138315
 30
0.0
 10
469.823806273636
 20
364.7681362886996
 30
0.0
  0
SPLINE
  5
E2
330
1F
100
AcDbEntity
  8
0
  6
Continuous
 62
     7
370
    25
100
AcDbSpline
210
0.0
220
0.0
230
1.0
 70
     8
 71
     3
 72
    20
 73
    16
 74
     0
 42
0.000000001
 43
0.00000001
 40
0.0
 40
0.0
 40
0.0
 40
0.0
 40
0.25
 40
0.25
 40
0.375
 40
0.375
 40
0.5
 40
0.5
 40
0.625
 40
0.625
 40
0.75
 40
0.75
 40
0.875
 40
0.875
 40
1.0
 40
1.0
 40
1.0
 40
1.0
 10
466.1844029633048
 20
362.4514499811477
 30
0.0
 10
466.7772101205742
 20
362.7652503642404
 30
0.0
 10
467.300410145972
 20
363.0630283528008
 30
0.0
 10
467.9851396787365
 20
363.4797611942724
 30
0.0
 10
468.1953587973205
 20
363.612859472924
 30
0.0
 10
468.5750113081205
 20
363.8619269556946
 30
0.0
 10
468.7454538618526
 20
363.9786656766729
 30
0.0
 10
469.0496969467865
 20
364.1927380135784
 30
0.0
 10
469.1835085210329
 20
364.2900513420032
 30
0.0
 10
469.4149344200181
 20
364.4612500719099
 30
0.0
 10
469.5122973636543
 20
364.5349660702457
 30
0.0
 10
469.6668749123554
 20
364.6525640791277
 30
0.0
 10
469.7248510397591
 20
364.6970230378067
 30
0.0
 10
469.8030818613632
 20
364.7553881066955
 30
0.0
 10
469.8237705366353
 20
364.7682247408808
 30
0.0
 10
469.8238062736361
 20
364.7681362886998
 30
0.0
  0
LWPOLYLINE
  5
E3
330
1F
100
AcDbEntity
  8
0
  6
Continuous
 62
     7
370
    25
100
AcDbPolyline
 90
       10
 70
   128
 43
0.0
 10
471.1515119617
 20
361.4819533419
 10
471.1256360953
 20
361.4715001774
 10
470.9193444197
 20
361.3881505322
 10
470.510590667
 20
361.2230009627
 10
469.9069744294
 20
360.9791285586
 10
469.1197162812
 20
360.6610558223
 10
468.1634417121
 20
360.2746910643
 10
467.055920357
 20
359.8272278201
 10
465.8177456205
 20
359.3269697618
 10
464.4719248955
 20
358.7832226646
  0
LINE
  5
E4
330
1F
100
AcDbEntity
  8
0
  6
Continuous
 62
     7
370
    25
100
AcDbLine
 10
463.4275546615
 20
361.368115921
 30
0.0
 11
464.4719248955
 21
358.7832226646
 31
0.0
  0
SPLINE
  5
E5
330
1F
100
AcDbEntity
  8
0
  6
Continuous
 62
     7
370
    25
100
AcDbSpline
210
0.0
220
0.0
230
1.0
 70
     8
 71
     3
 72
     8
 73
     4
 74
     0
 42
0.000000001
 43
0.00000001
 40
0.0
 40
0.0
 40
0.0
 40
0.0
 40
1.0
 40
1.0
 40
1.0
 40
1.0
 10
464.4719223036748
 20
358.7832227617369
 30
0.0
 10
463.1428803816135
 20
357.8528594729801
 30
0.0
 10
461.7422487241476
 20
357.0576707236233
 30
0.0
 10
460.2415839635857
 20
356.4513628041696
 30
0.0
  0
SPLINE
  5
E6
330
1F
100
AcDbEntity
  8
0
  6
Continuous
 62
     7
370
    25
100
AcDbSpline
210
0.0
220
0.0
230
1.0
 70
     8
 71
     3
 72
    10
 73
     6
 74
     0
 42
0.000000001
 43
0.00000001
 40
0.0
 40
0.0
 40
0.0
 40
0.0
 40
0.5
 40
0.5
 40
1.0
 40
1.0
 40
1.0
 40
1.0
 10
460.2415839635857
 20
356.4513628041696
 30
0.0
 10
459.4929990368996
 20
356.1489148615235
 30
0.0
 10
458.715801233019
 20
355.8920296839199
 30
0.0
 10
457.156378918689
 20
355.4766648663126
 30
0.0
 10
456.370061771666
 20
355.315563042806
 30
0.0
 10
455.5786871883988
 20
355.1901225426472
 30
0.0
  0
LWPOLYLINE
  5
E7
330
1F
100
AcDbEntity
  8
0
  6
Continuous
 62
     7
370
    25
100
AcDbPolyline
 90
       12
 70
   128
 43
0.0
 10
470.4406073635
 20
360.5720362854
 10
470.336798424
 20
360.5300932419
 10
470.0274726694
 20
360.4051209283
 10
469.5189407413
 20
360.1996599924
 10
468.8215440457
 20
359.9178939354
 10
467.9494908397
 20
359.5655597043
 10
466.9205209558
 20
359.1498284828
 10
465.7555928771
 20
358.679167856
 10
464.4784143512
 20
358.1631518197
 10
463.1149804537
 20
357.612289418
 10
461.6930594985
 20
357.0377974999
 10
460.2415820901
 20
356.4513623011
  0
LWPOLYLINE
  5
E8
330
1F
100
AcDbEntity
  8
0
  6
Continuous
 62
     7
370
    25
100
AcDbPolyline
 90
       12
 70
   128
 43
0.0
 10
460.2415820901
 20
356.4513623011
 10
458.7901121323
 20
355.8649308276
 10
457.3681837265
 20
355.2904351842
 10
456.0047572796
 20
354.7395727825
 10
454.7275787537
 20
354.2235604715
 10
453.5626432245
 20
353.7528961193
 10
452.5336807911
 20
353.3371648979
 10
451.6616201346
 20
352.9848306668
 10
450.964223439
 20
352.703068335
 10
450.4556915109
 20
352.4976073992
 10
450.1463732069
 20
352.3726313603
 10
450.0425642674
 20
352.3306920421
  0
SPLINE
  5
E9
330
1F
100
AcDbEntity
  8
0
  6
Continuous
 62
     7
370
    25
100
AcDbSpline
210
0.0
220
0.0
230
1.0
 70
     8
 71
     3
 72
    22
 73
    18
 74
     0
 42
0.000000001
 43
0.00000001
 40
0.0
 40
0.0
 40
0.0
 40
0.0
 40
0.125
 40
0.125
 40
0.25
 40
0.25
 40
0.375
 40
0.375
 40
0.5
 40
0.5
 40
0.625
 40
0.625
 40
0.75
 40
0.75
 40
0.875
 40
0.875
 40
1.0
 40
1.0
 40
1.0
 40
1.0
 10
448.3068952161738
 20
414.3428731346542
 30
0.0
 10
448.3592648990569
 20
414.4107657295454
 30
0.0
 10
448.4019158923646
 20
414.4838215522255
 30
0.0
 10
448.468389483769
 20
414.6399361195456
 30
0.0
 10
448.4918115867925
 20
414.7230916709192
 30
0.0
 10
448.5166526896111
 20
414.8903111135858
 30
0.0
 10
448.5184089207253
 20
414.9767571096723
 30
0.0
 10
448.5001938183995
 20
415.1453552670904
 30
0.0
 10
448.4805582935708
 20
415.227868240704
 30
0.0
 10
448.4198701040273
 20
415.3880411189698
 30
0.0
 10
448.3800294989827
 20
415.4626427144601
 30
0.0
 10
448.2818499337712
 20
415.6011619191577
 30
0.0
 10
448.2233591516148
 20
415.6646250878617
 30
0.0
 10
448.0939611010735
 20
415.7734293795277
 30
0.0
 10
448.0211826734121
 20
415.8202677702369
 30
0.0
 10
447.8682358408691
 20
415.8930349619014
 30
0.0
 10
447.7879691649278
 20
415.9195036341813
 30
0.0
 10
447.7037654878527
 20
415.9356816676138
 30
0.0
  0
ARC
  5
EA
330
1F
100
AcDbEntity
  8
0
  6
Continuous
 62
     7
370
    25
100
AcDbCircle
 10
428.5116895573
 20
429.6121178089
 30
0.0
 40
24.99999999999826
100
AcDbArc
 50
318.0450049942
 51
322.3548155901
  0
SPLINE
  5
EB
330
1F
100
AcDbEntity
  8
0
  6
Continuous
 62
     7
370
    25
100
AcDbSpline
210
0.0
220
0.0
230
1.0
 70
     8
 71
     3
 72
    19
 73
    15
 74
     0
 42
0.000000001
 43
0.00000001
 40
0.0
 40
0.0
 40
0.0
 40
0.0
 40
0.0158203125
 40
0.03955078125
 40
0.10546875
 40
0.17138671875
 40
0.28125
 40
0.45703125
 40
0.75
 40
0.8125
 40
0.875
 40
0.953125
 40
0.9799107142857143
 40
1.0
 40
1.0
 40
1.0
 40
1.0
 10
418.7226047558743
 20
355.0261932035282
 30
0.0
 10
418.8514533842897
 20
355.0319850960362
 30
0.0
 10
419.1735749553283
 20
355.0464648273063
 30
0.0
 10
420.0559267300357
 20
355.0961024444817
 30
0.0
 10
421.3380562849951
 20
355.1623438133753
 30
0.0
 10
423.3173416123261
 20
355.262612381127
 30
0.0
 10
426.1760365121567
 20
355.4035574987193
 30
0.0
 10
430.8449384892107
 20
355.6232199159754
 30
0.0
 10
435.1215824456195
 20
355.8083501826218
 30
0.0
 10
438.5242279766294
 20
355.9461003852983
 30
0.0
 10
440.1859002870514
 20
356.0117686100229
 30
0.0
 10
441.5645010403538
 20
356.0647629023342
 30
0.0
 10
442.5996780111242
 20
356.1037729471542
 30
0.0
 10
442.9925051346512
 20
356.1171528505422
 30
0.0
 10
443.1561224405756
 20
356.1245076346794
 30
0.0
  0
SPLINE
  5
EC
330
1F
100
AcDbEntity
  8
0
  6
Continuous
 62
     7
370
    25
100
AcDbSpline
210
0.0
220
0.0
230
1.0
 70
     8
 71
     3
 72
    12
 73
     8
 74
     0
 42
0.000000001
 43
0.00000001
 40
0.9237375678373765
 40
0.9237375678373765
 40
0.9237375678373765
 40
0.9237375678373765
 40
0.923828125
 40
0.953125
 40
0.9799107142857143
 40
0.9933035714285714
 40
1.0
 40
1.0
 40
1.0
 40
1.0
 10
447.3243663187358
 20
356.3889924290067
 30
0.0
 10
447.3227773285462
 20
356.3888467264327
 30
0.0
 10
446.8070983378785
 20
356.3415793594869
 30
0.0
 10
445.807112737559
 20
356.2609963656884
 30
0.0
 10
444.535635263501
 20
356.1846505509715
 30
0.0
 10
443.6614154056713
 20
356.1439780058448
 30
0.0
 10
443.2824456818495
 20
356.1293752274707
 30
0.0
 10
443.1561224405756
 20
356.1245076346794
 30
0.0
  0
LINE
  5
ED
330
1F
100
AcDbEntity
  8
0
  6
Continuous
 62
     7
370
    25
100
AcDbLine
 10
383.2403550242
 20
395.1530642104
 30
0.0
 11
383.2403550242
 21
397.2749523115
 31
0.0
  0
LINE
  5
EE
330
1F
100
AcDbEntity
  8
0
  6
Continuous
 62
     7
370
    25
100
AcDbLine
 10
383.2403550242
 20
389.6208665561
 30
0.0
 11
383.2403550242
 21
395.1530642104
 31
0.0
  0
LINE
  5
EF
330
1F
100
AcDbEntity
  8
0
  6
Continuous
 62
     7
370
    25
100
AcDbLine
 10
317.0905893986
 20
336.0997065198
 30
0.0
 11
317.0905893986
 21
340.0997071755
 31
0.0
  0
SPLINE
  5
F0
330
1F
100
AcDbEntity
  8
0
  6
Continuous
 62
     8
370
    18
100
AcDbSpline
210
0.0
220
0.0
230
1.0
 70
     8
 71
     3
 72
    18
 73
    14
 74
     0
 42
0.000000001
 43
0.00000001
 40
0.0
 40
0.0
 40
0.0
 40
0.0
 40
0.125
 40
0.125
 40
0.25
 40
0.25
 40
0.375
 40
0.375
 40
0.5
 40
0.5
 40
0.75
 40
0.75
 40
1.0
 40
1.0
 40
1.0
 40
1.0
 10
419.1556965433987
 20
376.534217442555
 30
0.0
 10
416.6963082504677
 20
376.5873297548235
 30
0.0
 10
414.2364847167098
 20
376.6365827957248
 30
0.0
 10
409.3157022955924
 20
376.7290690663613
 30
0.0
 10
406.8547815728472
 20
376.7720414805779
 30
0.0
 10
401.9318832249339
 20
376.8513592520589
 30
0.0
 10
399.4699057439618
 20
376.8877067506253
 30
0.0
 10
394.5448852131519
 20
376.9536382175071
 30
0.0
 10
392.0823950158498
 20
376.983171375159
 30
0.0
 10
384.6950740870443
 20
377.0635253916213
 30
0.0
 10
379.7703859903017
 20
377.1057899621344
 30
0.0
 10
369.9216230839689
 20
377.1637379326089
 30
0.0
 10
365.0023078072127
 20
377.1779968242384
 30
0.0
 10
360.0887051591702
 20
377.1835200472299
 30
0.0
  0
SPLINE
  5
F1
330
1F
100
AcDbEntity
  8
0
  6
Continuous
 62
     8
370
    18
100
AcDbSpline
210
0.0
220
0.0
230
1.0
 70
     8
 71
     3
 72
    18
 73
    14
 74
     0
 42
0.000000001
 43
0.00000001
 40
0.0
 40
0.0
 40
0.0
 40
0.0
 40
0.2499999999999998
 40
0.2499999999999998
 40
0.4999999999999996
 40
0.4999999999999996
 40
0.6249999999999997
 40
0.6249999999999997
 40
0.7499999999999998
 40
0.7499999999999998
 40
0.8749999999999999
 40
0.8749999999999999
 40
1.0
 40
1.0
 40
1.0
 40
1.0
 10
360.1561224405754
 20
378.3317430718911
 30
0.0
 10
365.0612761923286
 20
378.3280082018279
 30
0.0
 10
369.9743775326854
 20
378.3157229379514
 30
0.0
 10
379.8081268932463
 20
378.2616623497925
 30
0.0
 10
384.7252320458255
 20
378.221361206652
 30
0.0
 10
392.1011062507722
 20
378.1442437220996
 30
0.0
 10
394.5597709748772
 20
378.1158438360852
 30
0.0
 10
399.477116352172
 20
378.0522743885631
 30
0.0
 10
401.9352431946153
 20
378.0171547777574
 30
0.0
 10
406.8504135450964
 20
377.9404019906154
 30
0.0
 10
409.3074567671237
 20
377.8987674873904
 30
0.0
 10
414.2204534978913
 20
377.8091180528746
 30
0.0
 10
416.6763669511809
 20
377.7613623769981
 30
0.0
 10
419.1318343446455
 20
377.7098542436635
 30
0.0
  0
SPLINE
  5
F2
330
1F
100
AcDbEntity
  8
0
  6
Continuous
 62
     8
370
    18
100
AcDbSpline
210
0.0
220
0.0
230
1.0
 70
     8
 71
     3
 72
    34
 73
    30
 74
     0
 42
0.000000001
 43
0.00000001
 40
0.0
 40
0.0
 40
0.0
 40
0.0
 40
0.0624999999999998
 40
0.0624999999999998
 40
0.1249999999999997
 40
0.1249999999999997
 40
0.1874999999999996
 40
0.1874999999999996
 40
0.2499999999999994
 40
0.2499999999999994
 40
0.3749999999999989
 40
0.3749999999999989
 40
0.4374999999999988
 40
0.4374999999999988
 40
0.4687499999999987
 40
0.4687499999999987
 40
0.4999999999999987
 40
0.4999999999999987
 40
0.6249999999999989
 40
0.6249999999999989
 40
0.6874999999999991
 40
0.6874999999999991
 40
0.7499999999999992
 40
0.7499999999999992
 40
0.8749999999999997
 40
0.8749999999999997
 40
0.9374999999999998
 40
0.9374999999999998
 40
1.0
 40
1.0
 40
1.0
 40
1.0
 10
358.3600317274712
 20
377.1837046865359
 30
0.0
 10
357.64039941954
 20
377.1817646231545
 30
0.0
 10
356.9291761393345
 20
377.1836371953946
 30
0.0
 10
355.5229475494788
 20
377.1847076558347
 30
0.0
 10
354.8279456637053
 20
377.1844971078724
 30
0.0
 10
353.4540412367145
 20
377.1839065238757
 30
0.0
 10
352.7751386068263
 20
377.1836133955522
 30
0.0
 10
351.4337260299707
 20
377.1837110078245
 30
0.0
 10
350.7678719471019
 20
377.1839423671414
 30
0.0
 10
348.8296698114644
 20
377.184420539666
 30
0.0
 10
347.6116532255064
 20
377.184269695601
 30
0.0
 10
345.8933498673667
 20
377.183732933456
 30
0.0
 10
345.3388201054408
 20
377.1836002974352
 30
0.0
 10
344.53515946248
 20
377.1834881946762
 30
0.0
 10
344.2715314077737
 20
377.183460533269
 30
0.0
 10
343.7590445838246
 20
377.1834272876056
 30
0.0
 10
343.5095783878172
 20
377.1834218417852
 30
0.0
 10
342.2955623773043
 20
377.1834944334392
 30
0.0
 10
341.4301033798233
 20
377.1840220569165
 30
0.0
 10
340.2901341055784
 20
377.1838562212201
 30
0.0
 10
339.9355326155472
 20
377.1837286079983
 30
0.0
 10
339.2867012909949
 20
377.1837595695945
 30
0.0
 10
338.9947865774918
 20
377.183814215382
 30
0.0
 10
338.2136053093715
 20
377.1836811645358
 30
0.0
 10
337.8181009022102
 20
377.1833284073515
 30
0.0
 10
337.4160664107129
 20
377.1831920268041
 30
0.0
 10
337.3141510716128
 20
377.1831977042642
 30
0.0
 10
337.1786587703629
 20
377.1831196887885
 30
0.0
 10
337.1446640096938
 20
377.1830332711838
 30
0.0
 10
337.1446634557937
 20
377.1829889591718
 30
0.0
  0
SPLINE
  5
F3
330
1F
100
AcDbEntity
  8
0
  6
Continuous
 62
     8
370
    18
100
AcDbSpline
210
0.0
220
0.0
230
1.0
 70
     8
 71
     3
 72
    34
 73
    30
 74
     0
 42
0.000000001
 43
0.00000001
 40
0.0
 40
0.0
 40
0.0
 40
0.0
 40
0.0624999999999999
 40
0.0624999999999999
 40
0.1249999999999997
 40
0.1249999999999997
 40
0.2499999999999994
 40
0.2499999999999994
 40
0.3124999999999993
 40
0.3124999999999993
 40
0.3749999999999992
 40
0.3749999999999992
 40
0.4999999999999989
 40
0.4999999999999989
 40
0.5312499999999988
 40
0.5312499999999988
 40
0.5624999999999989
 40
0.5624999999999989
 40
0.624999999999999
 40
0.624999999999999
 40
0.7499999999999994
 40
0.7499999999999994
 40
0.8124999999999997
 40
0.8124999999999997
 40
0.8749999999999997
 40
0.8749999999999997
 40
0.9374999999999998
 40
0.9374999999999998
 40
1.0
 40
1.0
 40
1.0
 40
1.0
 10
338.0496390332856
 20
378.3311822464148
 30
0.0
 10
338.0496274413252
 20
378.3312240785263
 30
0.0
 10
338.0823747512703
 20
378.3313306764528
 30
0.0
 10
338.2123842531403
 20
378.331360898623
 30
0.0
 10
338.3098790120786
 20
378.3312429859798
 30
0.0
 10
338.6951200292474
 20
378.33110473059
 30
0.0
 10
339.0754255765804
 20
378.3315406578872
 30
0.0
 10
339.8263522723068
 20
378.331778288775
 30
0.0
 10
340.1069210783195
 20
378.3317514606565
 30
0.0
 10
340.7298937148884
 20
378.3316134940577
 30
0.0
 10
341.0704172168615
 20
378.3317082557348
 30
0.0
 10
342.1658468082566
 20
378.3319915521179
 30
0.0
 10
342.9972278422377
 20
378.331474656801
 30
0.0
 10
344.1632302585394
 20
378.3313548085009
 30
0.0
 10
344.4028470502669
 20
378.3313561816877
 30
0.0
 10
344.8951134512166
 20
378.3313858809151
 30
0.0
 10
345.1483464558382
 20
378.3314138248804
 30
0.0
 10
345.920314611461
 20
378.331525413658
 30
0.0
 10
346.4529476011433
 20
378.3316456951658
 30
0.0
 10
348.1035450231458
 20
378.3322152642864
 30
0.0
 10
349.2736595612103
 20
378.332437124992
 30
0.0
 10
351.1353430054513
 20
378.3319462031324
 30
0.0
 10
351.7748882448189
 20
378.3316948391653
 30
0.0
 10
353.0633164385185
 20
378.3315465737996
 30
0.0
 10
353.715409016268
 20
378.3318170235985
 30
0.0
 10
355.0351424968692
 20
378.3324468479627
 30
0.0
 10
355.7027628112297
 20
378.3326973486471
 30
0.0
 10
357.053545529674
 20
378.3316612873971
 30
0.0
 10
357.7365980705636
 20
378.3296595869988
 30
0.0
 10
358.4278406294234
 20
378.3315956280536
 30
0.0
  0
SPLINE
  5
F4
330
1F
100
AcDbEntity
  8
0
  6
Continuous
 62
     8
370
    18
100
AcDbSpline
210
0.0
220
0.0
230
1.0
 70
     8
 71
     3
 72
    35
 73
    31
 74
     0
 42
0.000000001
 43
0.00000001
 40
0.0
 40
0.0
 40
0.0
 40
0.0
 40
0.0624999999999998
 40
0.0624999999999998
 40
0.1249999999999997
 40
0.1249999999999997
 40
0.1874999999999996
 40
0.1874999999999996
 40
0.2499999999999994
 40
0.3124999999999992
 40
0.3124999999999992
 40
0.3437499999999992
 40
0.3437499999999992
 40
0.3749999999999991
 40
0.3749999999999991
 40
0.4999999999999992
 40
0.4999999999999992
 40
0.5624999999999993
 40
0.5624999999999993
 40
0.6249999999999993
 40
0.6249999999999993
 40
0.7499999999999993
 40
0.7499999999999993
 40
0.8124999999999996
 40
0.8124999999999996
 40
0.8749999999999998
 40
0.8749999999999998
 40
0.9374999999999999
 40
0.9374999999999999
 40
1.0
 40
1.0
 40
1.0
 40
1.0
 10
337.598632955297
 20
414.8904156909683
 30
0.0
 10
337.59860581944
 20
414.8878377845585
 30
0.0
 10
337.6355359183678
 20
414.8924011950999
 30
0.0
 10
337.781776781033
 20
414.8966146555282
 30
0.0
 10
337.89111276485
 20
414.8985015264824
 30
0.0
 10
338.183035605021
 20
414.9036529363872
 30
0.0
 10
338.3655775787569
 20
414.9068677604199
 30
0.0
 10
338.7966994729184
 20
414.9145063157086
 30
0.0
 10
339.2950255132027
 20
414.923374366008
 30
0.0
 10
339.9259693847736
 20
414.9345002941559
 30
0.0
 10
340.4496765100334
 20
414.9435416156566
 30
0.0
 10
340.6326769985604
 20
414.9466707823978
 30
0.0
 10
341.0158581958377
 20
414.9531264954073
 30
0.0
 10
341.2162142467072
 20
414.9564521125517
 30
0.0
 10
342.2499047111566
 20
414.9733270329933
 30
0.0
 10
343.1862328836495
 20
414.9879789086412
 30
0.0
 10
344.7509814189292
 20
415.0116227040327
 30
0.0
 10
345.2994642974825
 20
415.019766188471
 30
0.0
 10
346.4519631421849
 20
415.0367527154419
 30
0.0
 10
347.0508617870735
 20
415.0455196135603
 30
0.0
 10
348.8942724001909
 20
415.0723349772996
 30
0.0
 10
350.1929000798121
 20
415.0910544534564
 30
0.0
 10
352.2463137359096
 20
415.119345540789
 30
0.0
 10
352.9522141597475
 20
415.1288738194568
 30
0.0
 10
354.372567922644
 20
415.1484423527572
 30
0.0
 10
355.0889056436088
 20
415.1587338034018
 30
0.0
 10
356.5336438138319
 20
415.1788706325567
 30
0.0
 10
357.2620498786329
 20
415.1882629913549
 30
0.0
 10
358.7310207636669
 20
415.2049643031149
 30
0.0
 10
359.4715738774706
 20
415.2132182082985
 30
0.0
 10
360.2183483315746
 20
415.2268346690279
 30
0.0
  0
SPLINE
  5
F5
330
1F
100
AcDbEntity
  8
0
  6
Continuous
 62
     8
370
    18
100
AcDbSpline
210
0.0
220
0.0
230
1.0
 70
     8
 71
     3
 72
     8
 73
     4
 74
     0
 42
0.000000001
 43
0.00000001
 40
0.0
 40
0.0
 40
0.0
 40
0.0
 40
0.001732679377181
 40
0.001732679377181
 40
0.001732679377181
 40
0.001732679377181
 10
360.0887051591479
 20
377.1835200353534
 30
0.0
 10
359.5126997014896
 20
377.1840853857865
 30
0.0
 10
358.9368151693757
 20
377.1853206541902
 30
0.0
 10
358.3610017955176
 20
377.1837100050256
 30
0.0
  0
LWPOLYLINE
  5
F6
330
1F
100
AcDbEntity
  8
0
  6
Continuous
 62
     8
370
    18
100
AcDbPolyline
 90
        7
 70
   128
 43
0.0
 10
340.4077327197
 20
415.887419064
 10
339.9839623218
 20
415.8790893149
 10
338.8656506633
 20
415.8563650441
 10
338.4623004441
 20
415.8443472576
 10
338.3281620537
 20
415.8426410746
 10
338.3281620537
 20
415.8426410746
 10
338.3281620537
 20
415.8426410746
  0
LINE
  5
F7
330
1F
100
AcDbEntity
  8
0
  6
Continuous
 62
     8
370
    18
100
AcDbLine
 10
470.7410296743
 20
377.0248628449
 30
0.0
 11
470.5393648093
 21
377.0491070342
 31
0.0
  0
LINE
  5
F8
330
1F
100
AcDbEntity
  8
0
  6
Continuous
 62
     8
370
    18
100
AcDbLine
 10
440.6342914646
 20
379.0004811477
 30
0.0
 11
425.6285539215
 21
379.7193131637
 31
0.0
  0
SPLINE
  5
F9
330
1F
100
AcDbEntity
  8
0
  6
Continuous
 62
     8
370
    18
100
AcDbSpline
210
0.0
220
0.0
230
1.0
 70
     8
 71
     3
 72
    10
 73
     6
 74
     0
 42
0.000000001
 43
0.00000001
 40
0.0
 40
0.0
 40
0.0
 40
0.0
 40
0.5
 40
0.5
 40
1.0
 40
1.0
 40
1.0
 40
1.0
 10
476.0039979669934
 20
376.0237453230988
 30
0.0
 10
476.2097219598818
 20
376.0564969443005
 30
0.0
 10
476.3591616656449
 20
376.0716240605194
 30
0.0
 10
476.5584452492208
 20
376.0883433625466
 30
0.0
 10
476.6082822360793
 20
376.0900114951145
 30
0.0
 10
476.6072601232878
 20
376.0899651688101
 30
0.0
  0
SPLINE
  5
FA
330
1F
100
AcDbEntity
  8
0
  6
Continuous
 62
     8
370
    18
100
AcDbSpline
210
0.0
220
0.0
230
1.0
 70
     8
 71
     3
 72
    28
 73
    24
 74
     0
 42
0.000000001
 43
0.00000001
 40
0.0
 40
0.0
 40
0.0
 40
0.0
 40
0.1250000000000002
 40
0.1250000000000002
 40
0.2500000000000004
 40
0.2500000000000004
 40
0.3125000000000004
 40
0.3125000000000004
 40
0.3750000000000003
 40
0.3750000000000003
 40
0.4375000000000003
 40
0.4375000000000003
 40
0.5000000000000003
 40
0.5000000000000003
 40
0.5624999999999996
 40
0.5624999999999996
 40
0.6249999999999988
 40
0.6249999999999988
 40
0.7499999999999991
 40
0.7499999999999991
 40
0.8749999999999996
 40
0.8749999999999996
 40
1.0
 40
1.0
 40
1.0
 40
1.0
 10
470.0310608181101
 20
376.1667266781797
 30
0.0
 10
470.4295543041857
 20
376.1490500192087
 30
0.0
 10
470.8285841395216
 20
376.1307033593253
 30
0.0
 10
471.6236134681697
 20
376.0949311535737
 30
0.0
 10
472.0192781241142
 20
376.0780384910549
 30
0.0
 10
472.6033360066504
 20
376.0542645838023
 30
0.0
 10
472.7964580576481
 20
376.0465500932609
 30
0.0
 10
473.1780753506181
 20
376.0315886961164
 30
0.0
 10
473.3657976263205
 20
376.0243960703517
 30
0.0
 10
473.7254566069906
 20
376.0109035326355
 30
0.0
 10
473.8985851864004
 20
376.0045410711041
 30
0.0
 10
474.2293785526658
 20
375.9929863790507
 30
0.0
 10
474.3880963628033
 20
375.9877660114793
 30
0.0
 10
474.6747044948434
 20
375.9795668003547
 30
0.0
 10
474.8039401569662
 20
375.9765236710354
 30
0.0
 10
475.0387753735743
 20
375.972107024806
 30
0.0
 10
475.1450103184558
 20
375.9707302439126
 30
0.0
 10
475.4261310744666
 20
375.9691268001068
 30
0.0
 10
475.5593147647257
 20
375.9717278789108
 30
0.0
 10
475.7575866029217
 20
375.9823199283391
 30
0.0
 10
475.8245789647725
 20
375.9899866057052
 30
0.0
 10
475.9285382659405
 20
376.0067329897448
 30
0.0
 10
475.9607867985418
 20
376.0166206953217
 30
0.0
 10
476.0047840717577
 20
376.0236265039904
 30
0.0
  0
SPLINE
  5
FB
330
1F
100
AcDbEntity
  8
0
  6
Continuous
 62
     8
370
    18
100
AcDbSpline
210
0.0
220
0.0
230
1.0
 70
     8
 71
     3
 72
    14
 73
    10
 74
     0
 42
0.000000001
 43
0.00000001
 40
0.0
 40
0.0
 40
0.0
 40
0.0
 40
0.125
 40
0.125
 40
0.25
 40
0.25
 40
0.5
 40
0.5
 40
1.0
 40
1.0
 40
1.0
 40
1.0
 10
443.6694230368802
 20
377.0882951589037
 30
0.0
 10
444.7717142201419
 20
377.0551222525895
 30
0.0
 10
445.8737910360438
 20
377.0212343263314
 30
0.0
 10
448.0767779265392
 20
376.9533779750615
 30
0.0
 10
449.1777775415133
 20
376.9192201389482
 30
0.0
 10
452.4796073993058
 20
376.8151536470624
 30
0.0
 10
454.679468819008
 20
376.7436759019081
 30
0.0
 10
461.2729062631785
 20
376.5194099787986
 30
0.0
 10
465.6602086303312
 20
376.3607429259392
 30
0.0
 10
470.0310567417575
 20
376.1667298686601
 30
0.0
  0
SPLINE
  5
FC
330
1F
100
AcDbEntity
  8
0
  6
Continuous
 62
     8
370
    18
100
AcDbSpline
210
0.0
220
0.0
230
1.0
 70
     8
 71
     3
 72
    12
 73
     8
 74
     0
 42
0.000000001
 43
0.00000001
 40
0.0
 40
0.0
 40
0.0
 40
0.0
 40
0.5
 40
0.5
 40
0.75
 40
0.75
 40
1.0
 40
1.0
 40
1.0
 40
1.0
 10
419.1318285261738
 20
377.7098800470368
 30
0.0
 10
423.2265109854936
 20
377.6245150549045
 30
0.0
 10
427.3188747877098
 20
377.5295630407412
 30
0.0
 10
433.4535285577942
 20
377.3745029951032
 30
0.0
 10
435.4977543821287
 20
377.3205836602381
 30
0.0
 10
439.5846694499716
 20
377.2080054197706
 30
0.0
 10
441.6272413614955
 20
377.1497536032994
 30
0.0
 10
443.6694230368801
 20
377.0882951589037
 30
0.0
  0
SPLINE
  5
FD
330
1F
100
AcDbEntity
  8
0
  6
Continuous
 62
     8
370
    18
100
AcDbSpline
210
0.0
220
0.0
230
1.0
 70
     8
 71
     3
 72
    14
 73
    10
 74
     0
 42
0.000000001
 43
0.00000001
 40
0.0
 40
0.0
 40
0.0
 40
0.0
 40
0.25
 40
0.25
 40
0.5
 40
0.5
 40
0.75
 40
0.75
 40
1.0
 40
1.0
 40
1.0
 40
1.0
 10
443.7163842190893
 20
375.90718974348
 30
0.0
 10
441.6720766292874
 20
375.9648633025257
 30
0.0
 10
439.6275545723174
 20
376.0256060644528
 30
0.0
 10
435.5366987390581
 20
376.1392037345177
 30
0.0
 10
433.4905416133927
 20
376.1940089517348
 30
0.0
 10
429.3969486181795
 20
376.2988815543224
 30
0.0
 10
427.3495556687508
 20
376.3490024185708
 30
0.0
 10
423.253488611107
 20
376.4439292302089
 30
0.0
 10
421.2047944417068
 20
376.4878291647385
 30
0.0
 10
419.1556836111419
 20
376.5341041945282
 30
0.0
  0
SPLINE
  5
FE
330
1F
100
AcDbEntity
  8
0
  6
Continuous
 62
     8
370
    18
100
AcDbSpline
210
0.0
220
0.0
230
1.0
 70
     8
 71
     3
 72
    20
 73
    16
 74
     0
 42
0.000000001
 43
0.00000001
 40
0.0
 40
0.0
 40
0.0
 40
0.0
 40
0.0624999999999997
 40
0.0624999999999997
 40
0.1249999999999994
 40
0.1249999999999994
 40
0.2499999999999988
 40
0.2499999999999988
 40
0.4999999999999992
 40
0.4999999999999992
 40
0.7499999999999997
 40
0.7499999999999997
 40
0.8749999999999998
 40
0.8749999999999998
 40
1.0
 40
1.0
 40
1.0
 40
1.0
 10
470.1316576844459
 20
374.9042759492949
 30
0.0
 10
469.5839404077969
 20
374.9332810599336
 30
0.0
 10
469.0358497571257
 20
374.9573650294968
 30
0.0
 10
467.9394032514463
 20
375.00736614953
 30
0.0
 10
467.3909688520732
 20
375.0322285623364
 30
0.0
 10
465.7451027302562
 20
375.1057978499155
 30
0.0
 10
464.647110867898
 20
375.1533122699766
 30
0.0
 10
461.3512001435297
 20
375.2913355869792
 30
0.0
 10
459.1512506298772
 20
375.3781736307717
 30
0.0
 10
454.7473539040637
 20
375.5458395744946
 30
0.0
 10
452.5434984251186
 20
375.6269183541223
 30
0.0
 10
449.2355345901896
 20
375.740807632757
 30
0.0
 10
448.1324724833624
 20
375.7775272863583
 30
0.0
 10
445.925223677033
 20
375.846052200539
 30
0.0
 10
444.8208833307775
 20
375.8760298558724
 30
0.0
 10
443.7163842190892
 20
375.9071897434801
 30
0.0
  0
SPLINE
  5
FF
330
1F
100
AcDbEntity
  8
0
  6
Continuous
 62
     8
370
    18
100
AcDbSpline
210
0.0
220
0.0
230
1.0
 70
     8
 71
     3
 72
    11
 73
     7
 74
     0
 42
0.000000001
 43
0.00000001
 40
0.0
 40
0.0
 40
0.0
 40
0.0
 40
0.0017331700196795
 40
0.0017331700196795
 40
0.0017331700196795
 40
0.0017332300196795
 40
0.0017332300196795
 40
0.0017332300196795
 40
0.0017332300196795
 10
358.4278404028963
 20
378.3315948834467
 30
0.0
 10
359.0038086848455
 20
378.3332579254919
 30
0.0
 10
359.5798613871531
 20
378.3321149997754
 30
0.0
 10
360.156062598657
 20
378.3317401542513
 30
0.0
 10
360.156082545963
 20
378.3317401412747
 30
0.0
 10
360.1561024932691
 20
378.3317401283001
 30
0.0
 10
360.1561224405754
 20
378.3317401153244
 30
0.0
  0
SPLINE
  5
100
330
1F
100
AcDbEntity
  8
0
  6
Continuous
 62
     8
370
    18
100
AcDbSpline
210
0.0
220
0.0
230
1.0
 70
     8
 71
     3
 72
    16
 73
    12
 74
     0
 42
0.000000001
 43
0.00000001
 40
0.0
 40
0.0
 40
0.0
 40
0.0
 40
0.0624999999999999
 40
0.0624999999999999
 40
0.1249999999999997
 40
0.1249999999999997
 40
0.2499999999999999
 40
0.2499999999999999
 40
0.5
 40
0.5
 40
1.0
 40
1.0
 40
1.0
 40
1.0
 10
400.9052542263142
 20
416.5063296219755
 30
0.0
 10
400.0590905124592
 20
416.5056054761555
 30
0.0
 10
399.213483118406
 20
416.5021647754308
 30
0.0
 10
397.5215981979312
 20
416.4959432737602
 30
0.0
 10
396.675313983977
 20
416.4931888036726
 30
0.0
 10
394.1356015586927
 20
416.48553516428
 30
0.0
 10
392.4414021609301
 20
416.4809415447183
 30
0.0
 10
387.3581741025478
 20
416.4607681052697
 30
0.0
 10
383.9677554592965
 20
416.4415467970434
 30
0.0
 10
373.7924813050515
 20
416.36800218548
 30
0.0
 10
367.0055068379424
 20
416.2958053084558
 30
0.0
 10
360.2180300866339
 20
416.202011121454
 30
0.0
  0
SPLINE
  5
101
330
1F
100
AcDbEntity
  8
0
  6
Continuous
 62
     8
370
    18
100
AcDbSpline
210
0.0
220
0.0
230
1.0
 70
     8
 71
     3
 72
    16
 73
    12
 74
     0
 42
0.000000001
 43
0.00000001
 40
0.0
 40
0.0
 40
0.0
 40
0.0
 40
0.5
 40
0.5
 40
0.7499999999999999
 40
0.7499999999999999
 40
0.875
 40
0.875
 40
0.9375
 40
0.9375
 40
1.0
 40
1.0
 40
1.0
 40
1.0
 10
360.2308867873498
 20
415.2269069579593
 30
0.0
 10
367.0267437987184
 20
415.3158079238002
 30
0.0
 10
373.8220944103925
 20
415.3788265941125
 30
0.0
 10
384.0097720902697
 20
415.4519155236708
 30
0.0
 10
387.4043117967831
 20
415.4719785253016
 30
0.0
 10
392.4937097331474
 20
415.4946063501255
 30
0.0
 10
394.189954033061
 20
415.5019850150808
 30
0.0
 10
396.7327700390692
 20
415.5068346735592
 30
0.0
 10
397.580099512943
 20
415.5065763060529
 30
0.0
 10
399.2740968415892
 20
415.5010512421726
 30
0.0
 10
400.120759873997
 20
415.496230424552
 30
0.0
 10
400.9679556582181
 20
415.496168620062
 30
0.0
  0
SPLINE
  5
102
330
1F
100
AcDbEntity
  8
0
  6
Continuous
 62
     8
370
    18
100
AcDbSpline
210
0.0
220
0.0
230
1.0
 70
     8
 71
     3
 72
    10
 73
     6
 74
     0
 42
0.000000001
 43
0.00000001
 40
0.0
 40
0.0
 40
0.0
 40
0.0
 40
0.4999999999999999
 40
0.4999999999999999
 40
1.0
 40
1.0
 40
1.0
 40
1.0
 10
447.7037654878527
 20
415.9356816676138
 30
0.0
 10
447.7051273200524
 20
415.9354917458669
 30
0.0
 10
447.6669188835851
 20
415.9323621128471
 30
0.0
 10
447.5088476255193
 20
415.9132404786403
 30
0.0
 10
447.3891214651466
 20
415.8972127105508
 30
0.0
 10
447.2236439695905
 20
415.8663621356816
 30
0.0
  0
SPLINE
  5
103
330
1F
100
AcDbEntity
  8
0
  6
Continuous
 62
     8
370
    18
100
AcDbSpline
210
0.0
220
0.0
230
1.0
 70
     8
 71
     3
 72
    22
 73
    18
 74
     0
 42
0.000000001
 43
0.00000001
 40
0.0
 40
0.0
 40
0.0
 40
0.0
 40
0.2500000000000034
 40
0.2500000000000034
 40
0.3750000000000039
 40
0.3750000000000039
 40
0.5000000000000043
 40
0.5000000000000043
 40
0.6250000000000048
 40
0.6250000000000048
 40
0.7500000000000053
 40
0.7500000000000053
 40
0.8750000000000058
 40
0.8750000000000058
 40
0.9375000000000029
 40
0.9375000000000029
 40
1.0
 40
1.0
 40
1.0
 40
1.0
 10
447.2236790472097
 20
415.8663635084554
 30
0.0
 10
447.1725717224478
 20
415.8568741204601
 30
0.0
 10
447.0978203847035
 20
415.8489110077938
 30
0.0
 10
446.884485623742
 20
415.8441173940087
 30
0.0
 10
446.7944851572537
 20
415.8437862000047
 30
0.0
 10
446.5704035446598
 20
415.846071777976
 30
0.0
 10
446.4382932028784
 20
415.8485120122659
 30
0.0
 10
446.1276957330238
 20
415.855878216209
 30
0.0
 10
445.9490702557462
 20
415.8608316956777
 30
0.0
 10
445.5521426220039
 20
415.873995744401
 30
0.0
 10
445.3314090770262
 20
415.8822232537567
 30
0.0
 10
444.8652537764159
 20
415.9002461116615
 30
0.0
 10
444.6236653410119
 20
415.9099112957748
 30
0.0
 10
444.2535115988171
 20
415.9246596300836
 30
0.0
 10
444.1288185029842
 20
415.9296163352574
 30
0.0
 10
443.8772736292615
 20
415.9395601915809
 30
0.0
 10
443.7487072617066
 20
415.944754537431
 30
0.0
 10
443.6226551931937
 20
415.9495401337433
 30
0.0
  0
SPLINE
  5
104
330
1F
100
AcDbEntity
  8
0
  6
Continuous
 62
     8
370
    18
100
AcDbSpline
210
0.0
220
0.0
230
1.0
 70
     8
 71
     3
 72
    19
 73
    15
 74
     0
 42
0.000000001
 43
0.00000001
 40
0.0
 40
0.0
 40
0.0
 40
0.0
 40
0.1249999999999999
 40
0.1249999999999999
 40
0.2499999999999999
 40
0.2499999999999999
 40
0.4999999999999998
 40
0.4999999999999998
 40
0.7499999999999997
 40
0.7499999999999997
 40
0.8749999999999922
 40
0.937499999999996
 40
0.937499999999996
 40
1.0
 40
1.0
 40
1.0
 40
1.0
 10
443.6226551931937
 20
415.9495401337433
 30
0.0
 10
443.5138551218781
 20
415.9535524958187
 30
0.0
 10
443.4037477058424
 20
415.958077958124
 30
0.0
 10
443.1837030177205
 20
415.9665730529263
 30
0.0
 10
443.0733297485384
 20
415.9708036752077
 30
0.0
 10
442.7413999565971
 20
415.9834171210757
 30
0.0
 10
442.5191167621807
 20
415.9917179803971
 30
0.0
 10
442.0739096682382
 20
416.0079453010106
 30
0.0
 10
441.8509506281884
 20
416.0158733409075
 30
0.0
 10
441.5160586891685
 20
416.0275681963144
 30
0.0
 10
441.3484993747723
 20
416.0333620427032
 30
0.0
 10
441.1807857285028
 20
416.0390758616975
 30
0.0
 10
441.0689441115254
 20
416.0428678479848
 30
0.0
 10
441.0127047191643
 20
416.0449197379655
 30
0.0
 10
440.9570624649617
 20
416.0466298668099
 30
0.0
  0
SPLINE
  5
105
330
1F
100
AcDbEntity
  8
0
  6
Continuous
 62
     8
370
    18
100
AcDbSpline
210
0.0
220
0.0
230
1.0
 70
     8
 71
     3
 72
    15
 73
    11
 74
     0
 42
0.000000001
 43
0.00000001
 40
0.0
 40
0.0
 40
0.0
 40
0.0
 40
0.0625000000000025
 40
0.0625000000000025
 40
0.1250000000000051
 40
0.2500000000000103
 40
0.2500000000000103
 40
0.500000000000007
 40
0.500000000000007
 40
1.0
 40
1.0
 40
1.0
 40
1.0
 10
440.9570624649617
 20
416.0466298668099
 30
0.0
 10
440.8980365971746
 20
416.0484891575488
 30
0.0
 10
440.838385080093
 20
416.0506282637774
 30
0.0
 10
440.7196664477082
 20
416.0545999260902
 30
0.0
 10
440.5415481081522
 20
416.0605307530612
 30
0.0
 10
440.3633162359506
 20
416.0663820985587
 30
0.0
 10
440.00672102946
 20
416.0779783182397
 30
0.0
 10
439.7688163337085
 20
416.0855696588767
 30
0.0
 10
439.0547245959133
 20
416.1078802019056
 30
0.0
 10
438.5781689819902
 20
416.1221487866526
 30
0.0
 10
438.1014883571968
 20
416.1357172744969
 30
0.0
  0
SPLINE
  5
106
330
1F
100
AcDbEntity
  8
0
  6
Continuous
 62
     8
370
    18
100
AcDbSpline
210
0.0
220
0.0
230
1.0
 70
     8
 71
     3
 72
    12
 73
     8
 74
     0
 42
0.000000001
 43
0.00000001
 40
0.0
 40
0.0
 40
0.0
 40
0.0
 40
0.25
 40
0.25
 40
0.5
 40
0.5
 40
1.0
 40
1.0
 40
1.0
 40
1.0
 10
438.1014883377207
 20
416.1357172916602
 30
0.0
 10
435.0202672024784
 20
416.223624740424
 30
0.0
 10
431.9318869933085
 20
416.2863761863019
 30
0.0
 10
425.747115851415
 20
416.3824194238615
 30
0.0
 10
422.6507648205584
 20
416.4152036411521
 30
0.0
 10
413.3504552140487
 20
416.4908813603432
 30
0.0
 10
407.134188357182
 20
416.5103778904576
 30
0.0
 10
400.9064698926067
 20
416.5063301353097
 30
0.0
  0
SPLINE
  5
107
330
1F
100
AcDbEntity
  8
0
  6
Continuous
 62
     8
370
    18
100
AcDbSpline
210
0.0
220
0.0
230
1.0
 70
     8
 71
     3
 72
    28
 73
    24
 74
     0
 42
0.000000001
 43
0.00000001
 40
0.0
 40
0.0
 40
0.0
 40
0.0
 40
0.1250000000000022
 40
0.1250000000000022
 40
0.2500000000000044
 40
0.2500000000000044
 40
0.3750000000000066
 40
0.3750000000000066
 40
0.5000000000000088
 40
0.5000000000000088
 40
0.5625000000000099
 40
0.5625000000000099
 40
0.625000000000011
 40
0.625000000000011
 40
0.7500000000000094
 40
0.7500000000000094
 40
0.8125000000000071
 40
0.8125000000000071
 40
0.8750000000000048
 40
0.8750000000000048
 40
0.9375000000000024
 40
0.9375000000000024
 40
1.0
 40
1.0
 40
1.0
 40
1.0
 10
476.8826983428272
 20
374.2691451662606
 30
0.0
 10
476.8377750443508
 20
374.2611792392472
 30
0.0
 10
476.8088122069356
 20
374.2530112545567
 30
0.0
 10
476.6881792029191
 20
374.2308664388544
 30
0.0
 10
476.6082727596294
 20
374.2201522104345
 30
0.0
 10
476.3675925566769
 20
374.2130879984605
 30
0.0
 10
476.2058679052495
 20
374.2175213276016
 30
0.0
 10
475.7693391990411
 20
374.2481980880934
 30
0.0
 10
475.5061867553661
 20
374.2741582296016
 30
0.0
 10
475.0319184675096
 20
374.3413199669759
 30
0.0
 10
474.8581467790054
 20
374.3671533120815
 30
0.0
 10
474.4943311194635
 20
374.4207289465079
 30
0.0
 10
474.3037555443117
 20
374.4488743878009
 30
0.0
 10
473.70909509352
 20
374.5380105533567
 30
0.0
 10
473.2768722058252
 20
374.6067557706565
 30
0.0
 10
472.6188049710555
 20
374.6963134477905
 30
0.0
 10
472.3970166145463
 20
374.7244173741623
 30
0.0
 10
471.9499837482761
 20
374.7768068021899
 30
0.0
 10
471.724890480991
 20
374.8029162165852
 30
0.0
 10
471.2715618500834
 20
374.8415166369551
 30
0.0
 10
471.0439510589115
 20
374.8586159106693
 30
0.0
 10
470.5877132918455
 20
374.8857002544162
 30
0.0
 10
470.3603923698125
 20
374.8978170705673
 30
0.0
 10
470.1303438871442
 20
374.9033557719185
 30
0.0
  0
SPLINE
  5
108
330
1F
100
AcDbEntity
  8
0
  6
Continuous
 62
     8
370
    18
100
AcDbSpline
210
0.0
220
0.0
230
1.0
 70
     8
 71
     3
 72
    12
 73
     8
 74
     0
 42
0.000000001
 43
0.00000001
 40
0.0
 40
0.0
 40
0.0
 40
0.0
 40
0.4999999999999997
 40
0.4999999999999997
 40
0.7499999999999998
 40
0.7499999999999998
 40
1.0
 40
1.0
 40
1.0
 40
1.0
 10
400.9680065509498
 20
415.4959182899612
 30
0.0
 10
407.2021733424219
 20
415.4933898137143
 30
0.0
 10
413.4249498198535
 20
415.4727098493738
 30
0.0
 10
422.7358852810779
 20
415.3920684886832
 30
0.0
 10
425.8359090091556
 20
415.3570278510571
 30
0.0
 10
432.0284858293423
 20
415.2539322284715
 30
0.0
 10
435.1210871550681
 20
415.1865830962756
 30
0.0
 10
438.2072339929941
 20
415.0908957640851
 30
0.0
  0
LINE
  5
109
330
1F
100
AcDbEntity
  8
0
  6
Continuous
 62
     8
370
    18
100
AcDbLine
 10
430.2617943232
 20
409.9256432843
 30
0.0
 11
427.6311656778
 21
409.9215603661
 31
0.0
  0
SPLINE
  5
10A
330
1F
100
AcDbEntity
  8
0
  6
Continuous
 62
     8
370
    18
100
AcDbSpline
210
0.0
220
0.0
230
1.0
 70
     8
 71
     3
 72
    28
 73
    24
 74
     0
 42
0.000000001
 43
0.00000001
 40
0.0
 40
0.0
 40
0.0
 40
0.0
 40
0.25
 40
0.25
 40
0.375
 40
0.375
 40
0.5
 40
0.5
 40
0.5625
 40
0.5625
 40
0.625
 40
0.625
 40
0.6875
 40
0.6875
 40
0.75
 40
0.75
 40
0.8125
 40
0.8125
 40
0.875
 40
0.875
 40
0.9375
 40
0.9375
 40
1.0
 40
1.0
 40
1.0
 40
1.0
 10
438.2072341596052
 20
415.0909025416692
 30
0.0
 10
439.2870431941141
 20
415.0578471273228
 30
0.0
 10
440.3666066268633
 20
415.0086734158072
 30
0.0
 10
441.9762764066714
 20
414.9154741181025
 30
0.0
 10
442.5122054606842
 20
414.8824052898733
 30
0.0
 10
443.5749530097237
 20
414.7991762293547
 30
0.0
 10
444.0970261258758
 20
414.7491854850934
 30
0.0
 10
444.8498503643402
 20
414.6611059982921
 30
0.0
 10
445.0956460596577
 20
414.6290161855192
 30
0.0
 10
445.5720976202135
 20
414.5599743177489
 30
0.0
 10
445.8024696527046
 20
414.5228946669085
 30
0.0
 10
446.2213902003045
 20
414.4513277705574
 30
0.0
 10
446.4116449266606
 20
414.4164435753309
 30
0.0
 10
446.7580804239327
 20
414.3601023756489
 30
0.0
 10
446.9133924324503
 20
414.3373839029489
 30
0.0
 10
447.1830168287568
 20
414.3009579932263
 30
0.0
 10
447.299105488692
 20
414.2869785319336
 30
0.0
 10
447.4959708625094
 20
414.2659546829391
 30
0.0
 10
447.5746760130811
 20
414.2594691797731
 30
0.0
 10
447.7020664882741
 20
414.2529368388073
 30
0.0
 10
447.7511003288235
 20
414.252649263615
 30
0.0
 10
447.8293945561334
 20
414.2560568629227
 30
0.0
 10
447.8587356187878
 20
414.2597921931614
 30
0.0
 10
447.8822211846603
 20
414.2649238476272
 30
0.0
  0
SPLINE
  5
10B
330
1F
100
AcDbEntity
  8
0
  6
Continuous
 62
     8
370
    18
100
AcDbSpline
210
0.0
220
0.0
230
1.0
 70
     8
 71
     3
 72
    10
 73
     6
 74
     0
 42
0.000000001
 43
0.00000001
 40
0.0
 40
0.0
 40
0.0
 40
0.0
 40
0.5
 40
0.5
 40
1.0
 40
1.0
 40
1.0
 40
1.0
 10
477.4119585811436
 20
374.3313041899155
 30
0.0
 10
477.4118356408145
 20
374.3312263626099
 30
0.0
 10
477.3686020424167
 20
374.3293003252236
 30
0.0
 10
477.1954674715943
 20
374.3141747473065
 30
0.0
 10
477.0651849681712
 20
374.300733667177
 30
0.0
 10
476.8818195091388
 20
374.2690875874268
 30
0.0
  0
SPLINE
  5
10C
330
1F
100
AcDbEntity
  8
0
  6
Continuous
 62
     8
370
    18
100
AcDbSpline
210
0.0
220
0.0
230
1.0
 70
     8
 71
     3
 72
    10
 73
     6
 74
     0
 42
0.000000001
 43
0.00000001
 40
0.0
 40
0.0
 40
0.0
 40
0.0
 40
0.5
 40
0.5
 40
1.0
 40
1.0
 40
1.0
 40
1.0
 10
447.8822010377569
 20
414.2649206013439
 30
0.0
 10
448.0314074188801
 20
414.298919423962
 30
0.0
 10
448.1375200134451
 20
414.3173943820332
 30
0.0
 10
448.2763237975267
 20
414.3396244528706
 30
0.0
 10
448.3089565779663
 20
414.343371477258
 30
0.0
 10
448.3068952161738
 20
414.3428731346542
 30
0.0
  0
LINE
  5
10D
330
1F
100
AcDbEntity
  8
0
  6
Continuous
 62
     8
370
    18
100
AcDbLine
 10
383.8409034853
 20
389.8394516897
 30
0.0
 11
383.8409034853
 21
397.4022901845
 31
0.0
  0
LWPOLYLINE
  5
10E
330
1F
100
AcDbEntity
  8
0
  6
Continuous
 62
     8
370
    18
100
AcDbPolyline
 90
       12
 70
   128
 43
0.0
 10
331.969974408
 20
334.7837477219
 10
331.9763949459
 20
334.7860834789
 10
332.1282694434
 20
334.8413630616
 10
332.4666524624
 20
334.9645248842
 10
332.9548722451
 20
335.1422212314
 10
333.5400240813
 20
335.3551998031
 10
334.1586979424
 20
335.5803787005
 10
334.7438497787
 20
335.7933572721
 10
335.2320695614
 20
335.9710536194
 10
335.5704507177
 20
336.0942154419
 10
335.7223270779
 20
336.1494912994
 10
335.728745753
 20
336.1518270564
  0
LINE
  5
10F
330
1F
100
AcDbEntity
  8
0
  6
Continuous
 62
     8
370
    18
100
AcDbLine
 10
330.0905896668
 20
336.0997065198
 30
0.0
 11
330.0905896668
 21
340.0997071755
 31
0.0
  0
LINE
  5
110
330
1F
100
AcDbEntity
  8
0
  6
Continuous
 62
     8
370
    18
100
AcDbLine
 10
438.082683677
 20
410.024437983
 30
0.0
 11
438.0826166217
 21
410.0214726519
 31
0.0
  0
SPLINE
  5
111
330
1F
100
AcDbEntity
  8
0
  6
Continuous
 62
     7
370
    25
100
AcDbSpline
210
0.0
220
0.0
230
1.0
 70
     8
 71
     3
 72
     9
 73
     5
 74
     0
 42
0.000000001
 43
0.00000001
 40
0.0
 40
0.0
 40
0.0
 40
0.0
 40
0.7438747888056622
 40
1.0
 40
1.0
 40
1.0
 40
1.0
 10
172.46991887888
 20
378.2808742713688
 30
0.0
 10
171.229736380016
 20
378.5757105399045
 30
0.0
 10
169.5625438396489
 20
378.9720625509859
 30
0.0
 10
167.9264533922523
 20
379.2643101992928
 30
0.0
 10
167.5074093808798
 20
379.3391621899364
 30
0.0
  0
SPLINE
  5
112
330
1F
100
AcDbEntity
  8
0
  6
Continuous
 62
     7
370
    25
100
AcDbSpline
210
0.0
220
0.0
230
1.0
 70
     8
 71
     3
 72
     9
 73
     5
 74
     0
 42
0.000000001
 43
0.00000001
 40
0.0
 40
0.0
 40
0.0
 40
0.0
 40
0.2632233206309369
 40
0.9999999999999999
 40
0.9999999999999999
 40
0.9999999999999999
 40
0.9999999999999999
 10
131.589695142713
 20
379.3478644680736
 30
0.0
 10
131.1549072759297
 20
379.2702628549436
 30
0.0
 10
129.5031240458532
 20
378.9754500209438
 30
0.0
 10
127.8199378650811
 20
378.5755277063332
 30
0.0
 10
126.5798055400519
 20
378.2808742713688
 30
0.0
  0
LINE
  5
113
330
1F
100
AcDbEntity
  8
0
  6
Continuous
 62
     7
370
    25
100
AcDbLine
 10
140.9527317454
 20
353.8409023773
 30
0.0
 11
141.6670766493
 21
353.5677417409
 31
0.0
  0
LINE
  5
114
330
1F
100
AcDbEntity
  8
0
  6
Continuous
 62
     7
370
    25
100
AcDbLine
 10
157.3826608082
 20
353.5677417409
 30
0.0
 11
158.097005712
 21
353.8409023773
 31
0.0
  0
SPLINE
  5
115
330
1F
100
AcDbEntity
  8
0
  6
Continuous
 62
     7
370
    25
100
AcDbSpline
210
0.0
220
0.0
230
1.0
 70
     8
 71
     3
 72
    11
 73
     7
 74
     0
 42
0.000000001
 43
0.00000001
 40
0.0
 40
0.0
 40
0.0
 40
0.0
 40
0.2242711050352691
 40
0.4657458556766847
 40
0.7239538043479692
 40
0.9999999999999999
 40
0.9999999999999999
 40
0.9999999999999999
 40
0.9999999999999999
 10
171.0337747653393
 20
416.4106360864399
 30
0.0
 10
169.5108073049233
 20
416.6608270642034
 30
0.0
 10
166.3480468462916
 20
417.1804009567149
 30
0.0
 10
161.2098485910327
 20
417.77014943973
 30
0.0
 10
155.5578770233164
 20
418.2059321372805
 30
0.0
 10
151.5801424413205
 20
418.2637235571114
 30
0.0
 10
149.524868728724
 20
418.2935840677974
 30
0.0
  0
SPLINE
  5
116
330
1F
100
AcDbEntity
  8
0
  6
Continuous
 62
     7
370
    25
100
AcDbSpline
210
0.0
220
0.0
230
1.0
 70
     8
 71
     3
 72
    11
 73
     7
 74
     0
 42
0.000000001
 43
0.00000001
 40
0.0
 40
0.0
 40
0.0
 40
0.0
 40
0.2760461956520338
 40
0.5342541443233172
 40
0.7757288949647319
 40
1.0
 40
1.0
 40
1.0
 40
1.0
 10
149.524868728724
 20
418.2935840677974
 30
0.0
 10
147.4695950161274
 20
418.2637235571114
 30
0.0
 10
143.4918604341315
 20
418.2059321372805
 30
0.0
 10
137.8398888664152
 20
417.77014943973
 30
0.0
 10
132.7016906111563
 20
417.1804009567149
 30
0.0
 10
129.5389301525246
 20
416.6608270642034
 30
0.0
 10
128.0159626921086
 20
416.4106360864399
 30
0.0
  0
SPLINE
  5
117
330
1F
100
AcDbEntity
  8
0
  6
Continuous
 62
     7
370
    25
100
AcDbSpline
210
0.0
220
0.0
230
1.0
 70
     8
 71
     3
 72
    31
 73
    27
 74
     0
 42
0.000000001
 43
0.00000001
 40
0.0
 40
0.0
 40
0.0
 40
0.0
 40
0.0465787067798678
 40
0.0982988086145197
 40
0.1439749920508504
 40
0.1814543833123803
 40
0.2103864809108018
 40
0.2373730281232591
 40
0.2714522871585124
 40
0.3058071946986004
 40
0.3449397305734435
 40
0.3909910288845563
 40
0.4320632346294794
 40
0.4702247355334954
 40
0.5018577295150879
 40
0.5283203215191409
 40
0.557596064386778
 40
0.6000817115603189
 40
0.6445804913685165
 40
0.6908917189340198
 40
0.7391664037759368
 40
0.8056975131980068
 40
0.873595018899337
 40
0.9331528024546406
 40
0.9708819136815383
 40
1.0
 40
1.0
 40
1.0
 40
1.0
 10
173.2364755888848
 20
321.2033285987137
 30
0.0
 10
173.222940534688
 20
322.1404042177996
 30
0.0
 10
173.1943764161442
 20
324.1179906152323
 30
0.0
 10
173.1554158752267
 20
327.0505102439436
 30
0.0
 10
173.1281258330561
 20
329.7819527173139
 30
0.0
 10
173.1021199306124
 20
332.0574185243614
 30
0.0
 10
173.0806255452883
 20
333.9556484168639
 30
0.0
 10
173.0605378139169
 20
335.7786787016601
 30
0.0
 10
173.039835055932
 20
337.7118551157201
 30
0.0
 10
173.0175179807319
 20
339.8934935933792
 30
0.0
 10
172.9946830531605
 20
342.3089633475057
 30
0.0
 10
172.9730088571884
 20
344.8398329460474
 30
0.0
 10
172.9541619008004
 20
347.3516790140611
 30
0.0
 10
172.9404333646826
 20
349.572775166099
 30
0.0
 10
172.9314309642755
 20
351.4864475603931
 30
0.0
 10
172.9263699888162
 20
353.2082353297462
 30
0.0
 10
172.9249791234751
 20
354.9952272669398
 30
0.0
 10
172.9298233870811
 20
356.9384602638589
 30
0.0
 10
172.9625814715401
 20
358.8777743554877
 30
0.0
 10
173.0234812493819
 20
360.4696682914274
 30
0.0
 10
173.113656027683
 20
362.105061144852
 30
0.0
 10
173.2443777196382
 20
363.9214475808508
 30
0.0
 10
173.3843293668585
 20
365.720954567681
 30
0.0
 10
173.492480946216
 20
367.4333591296124
 30
0.0
 10
173.5547539720546
 20
368.8870012760967
 30
0.0
 10
173.5623099430136
 20
369.8103175157885
 30
0.0
 10
173.5656012614636
 20
370.2125064325092
 30
0.0
  0
SPLINE
  5
118
330
1F
100
AcDbEntity
  8
0
  6
Continuous
 62
     7
370
    25
100
AcDbSpline
210
0.0
220
0.0
230
1.0
 70
     8
 71
     3
 72
    34
 73
    30
 74
     0
 42
0.000000001
 43
0.00000001
 40
0.0
 40
0.0
 40
0.0
 40
0.0
 40
0.0001291369697501
 40
0.0400618969552217
 40
0.1089353172544886
 40
0.1786900659067393
 40
0.2487671989946787
 40
0.2988487858316121
 40
0.3426227421879456
 40
0.3807226223910781
 40
0.42231530326618
 40
0.4549623894058354
 40
0.4887220498008462
 40
0.5213623002320413
 40
0.5667423393326384
 40
0.6030438088003702
 40
0.6311149513943505
 40
0.6639746507292649
 40
0.6989531069036097
 40
0.7344024704902801
 40
0.7769975022091126
 40
0.8056628953289235
 40
0.8293688472594639
 40
0.8478293193867182
 40
0.8632489047362182
 40
0.8879520413851566
 40
0.9238773807635714
 40
0.9710371786272287
 40
1.0
 40
1.0
 40
1.0
 40
1.0
 10
125.4822716881899
 20
370.1987303089855
 30
0.0
 10
125.4822505024837
 20
370.1969269479342
 30
0.0
 10
125.475678104348
 20
369.637473952002
 30
0.0
 10
125.517259897716
 20
368.3678818837686
 30
0.0
 10
125.6114858458025
 20
366.4328906341065
 30
0.0
 10
125.7742692770915
 20
364.3249537950287
 30
0.0
 10
125.9076245113631
 20
362.5260780624039
 30
0.0
 10
126.0031346515102
 20
360.9393959540697
 30
0.0
 10
126.0670539385225
 20
359.4631471543385
 30
0.0
 10
126.1074817989036
 20
357.9318206544792
 30
0.0
 10
126.1246094999752
 20
356.1286107963939
 30
0.0
 10
126.1268941777098
 20
354.2413758424662
 30
0.0
 10
126.1226165285897
 20
352.4422994430775
 30
0.0
 10
126.113572979729
 20
350.3449526772153
 30
0.0
 10
126.1006956800287
 20
348.1381091902144
 30
0.0
 10
126.0854963897196
 20
345.9958455932804
 30
0.0
 10
126.0701565555372
 20
344.0732125676245
 30
0.0
 10
126.0539911867353
 20
342.1720965815832
 30
0.0
 10
126.0350919737224
 20
340.123869759362
 30
0.0
 10
126.0119466887701
 20
337.9148027675573
 30
0.0
 10
125.9895299182789
 20
335.8055729468235
 30
0.0
 10
125.9687382100483
 20
333.9260353869942
 30
0.0
 10
125.9529715847934
 20
332.5246603372827
 30
0.0
 10
125.9399905595968
 20
331.3859467418332
 30
0.0
 10
125.9266444177814
 20
330.2275477361998
 30
0.0
 10
125.9085727850861
 20
328.7176961931706
 30
0.0
 10
125.8818939080835
 20
326.5788998363844
 30
0.0
 10
125.8538462884801
 20
324.3549035069619
 30
0.0
 10
125.8339706277501
 20
322.8441823236384
 30
0.0
 10
125.8264084180264
 20
322.2693893354891
 30
0.0
  0
SPLINE
  5
119
330
1F
100
AcDbEntity
  8
0
  6
Continuous
 62
     7
370
    25
100
AcDbSpline
210
0.0
220
0.0
230
1.0
 70
     8
 71
     3
 72
    12
 73
     8
 74
     0
 42
0.000000001
 43
0.00000001
 40
0.0
 40
0.0
 40
0.0
 40
0.0
 40
0.0954509567011581
 40
0.3294646304147379
 40
0.5603625152167495
 40
0.8003660519902382
 40
1.0
 40
1.0
 40
1.0
 40
1.0
 10
173.5220898707775
 20
377.031903643584
 30
0.0
 10
173.5266628084259
 20
377.0947851963876
 30
0.0
 10
173.5424470526526
 20
377.3118311880712
 30
0.0
 10
173.3682602729517
 20
377.7065858137367
 30
0.0
 10
173.1015604593061
 20
377.9957099366933
 30
0.0
 10
172.8734223906914
 20
378.1419877774431
 30
0.0
 10
172.7684041037422
 20
378.1830200156583
 30
0.0
 10
172.7207165976433
 20
378.2016522478817
 30
0.0
  0
SPLINE
  5
11A
330
1F
100
AcDbEntity
  8
0
  6
Continuous
 62
     7
370
    25
100
AcDbSpline
210
0.0
220
0.0
230
1.0
 70
     8
 71
     3
 72
    12
 73
     8
 74
     0
 42
0.000000001
 43
0.00000001
 40
0.0
 40
0.0
 40
0.0
 40
0.0
 40
0.1868216175828127
 40
0.4367581632035547
 40
0.6624717271711281
 40
0.8819745528049905
 40
1.0
 40
1.0
 40
1.0
 40
1.0
 10
126.3309878130821
 20
378.1994021725414
 30
0.0
 10
126.2887493550966
 20
378.1845860431179
 30
0.0
 10
126.1900027990771
 20
378.1499483734707
 30
0.0
 10
125.9627988529092
 20
378.0080829199404
 30
0.0
 10
125.6979842451446
 20
377.7279211904488
 30
0.0
 10
125.5141924429479
 20
377.3393089246179
 30
0.0
 10
125.5262979568714
 20
377.1113092297209
 30
0.0
 10
125.5305309613613
 20
377.0315832686184
 30
0.0
  0
LINE
  5
11B
330
1F
100
AcDbEntity
  8
0
  6
Continuous
 62
     7
370
    25
100
AcDbLine
 10
173.5677544793
 20
370.3287578416
 30
0.0
 11
173.5403884967
 21
377.0290798735
 31
0.0
  0
LINE
  5
11C
330
1F
100
AcDbEntity
  8
0
  6
Continuous
 62
     7
370
    25
100
AcDbLine
 10
125.5093489607
 20
377.0290873241
 30
0.0
 11
125.4819829782
 21
370.3287578416
 31
0.0
  0
SPLINE
  5
11D
330
1F
100
AcDbEntity
  8
0
  6
Continuous
 62
     7
370
    25
100
AcDbSpline
210
0.0
220
0.0
230
1.0
 70
     8
 71
     3
 72
    11
 73
     7
 74
     0
 42
0.000000001
 43
0.00000001
 40
0.0
 40
0.0
 40
0.0
 40
0.0
 40
0.159931662902059
 40
0.4853557978965517
 40
0.7761632997777657
 40
1.0
 40
1.0
 40
1.0
 40
1.0
 10
127.7411331256298
 20
416.3167736720798
 30
0.0
 10
127.6906029909928
 20
416.3008793267143
 30
0.0
 10
127.5372556589541
 20
416.2526436456934
 30
0.0
 10
127.2184109367376
 20
416.0230787079972
 30
0.0
 10
127.0065855775055
 20
415.6597510618459
 30
0.0
 10
126.9762279016746
 20
415.5441713803687
 30
0.0
 10
126.9630242904095
 20
415.4939017486332
 30
0.0
  0
SPLINE
  5
11E
330
1F
100
AcDbEntity
  8
0
  6
Continuous
 62
     7
370
    25
100
AcDbSpline
210
0.0
220
0.0
230
1.0
 70
     8
 71
     3
 72
    11
 73
     7
 74
     0
 42
0.000000001
 43
0.00000001
 40
0.0
 40
0.0
 40
0.0
 40
0.0
 40
0.145626213732525
 40
0.4351606055912213
 40
0.7357595246876614
 40
1.0
 40
1.0
 40
1.0
 40
1.0
 10
172.0844090749888
 20
415.5024028610943
 30
0.0
 10
172.0783166442723
 20
415.5270721302874
 30
0.0
 10
172.0601112280071
 20
415.6007889004102
 30
0.0
 10
171.9193626199709
 20
415.9101107012877
 30
0.0
 10
171.599299943435
 20
416.2069987666678
 30
0.0
 10
171.4033371676174
 20
416.2817918013805
 30
0.0
 10
171.3116627951531
 20
416.3167811226604
 30
0.0
  0
LINE
  5
11F
330
1F
100
AcDbEntity
  8
0
  6
Continuous
 62
     7
370
    25
100
AcDbLine
 10
173.5248689373
 20
298.0997077417
 30
0.0
 11
173.2361123731
 21
321.2001714152
 31
0.0
  0
LINE
  5
120
330
1F
100
AcDbEntity
  8
0
  6
Continuous
 62
     7
370
    25
100
AcDbLine
 10
125.8136213591
 20
321.1999814254
 30
0.0
 11
125.5248685201
 21
298.0997077417
 31
0.0
  0
LINE
  5
121
330
1F
100
AcDbEntity
  8
0
  6
Continuous
 62
     7
370
    25
100
AcDbLine
 10
172.4754639735
 20
384.5559469652
 30
0.0
 11
172.1526098271
 21
415.2270070505
 31
0.0
  0
LINE
  5
122
330
1F
100
AcDbEntity
  8
0
  6
Continuous
 62
     7
370
    25
100
AcDbLine
 10
126.8948961814
 20
415.0149784279
 30
0.0
 11
126.5739493837
 21
384.5250717592
 31
0.0
  0
ARC
  5
123
330
1F
100
AcDbEntity
  8
0
  6
Continuous
 62
     7
370
    25
100
AcDbCircle
 10
161.0248687287
 20
379.7519303949
 30
0.0
 40
10.0
100
AcDbArc
 50
0.0
 51
9.0468459803
  0
ARC
  5
124
330
1F
100
AcDbEntity
  8
0
  6
Continuous
 62
     7
370
    25
100
AcDbCircle
 10
138.0248687287
 20
379.7519303949
 30
0.0
 40
10.0
100
AcDbArc
 50
170.9531540197
 51
180.0
  0
ARC
  5
125
330
1F
100
AcDbEntity
  8
0
  6
Continuous
 62
     7
370
    25
100
AcDbCircle
 10
149.5248687287
 20
377.9208696199
 30
0.0
 40
21.6448608219134
100
AcDbArc
 50
164.7315451581
 51
170.9531540197
  0
ARC
  5
126
330
1F
100
AcDbEntity
  8
0
  6
Continuous
 62
     7
370
    25
100
AcDbCircle
 10
149.5248687287
 20
377.9208696199
 30
0.0
 40
21.64486082191334
100
AcDbArc
 50
9.0468459803
 51
15.2684548419
  0
LINE
  5
127
330
1F
100
AcDbEntity
  8
0
  6
Continuous
 62
     7
370
    25
100
AcDbLine
 10
128.0248679986
 20
379.7519318056
 30
0.0
 11
128.0248679986
 21
378.4991688323
 31
0.0
  0
LINE
  5
128
330
1F
100
AcDbEntity
  8
0
  6
Continuous
 62
     7
370
    25
100
AcDbLine
 10
171.0248694589
 20
378.4991688323
 30
0.0
 11
171.0248694589
 21
379.7519318056
 31
0.0
  0
SPLINE
  5
129
330
1F
100
AcDbEntity
  8
0
  6
Continuous
 62
     7
370
    25
100
AcDbSpline
210
0.0
220
0.0
230
1.0
 70
     8
 71
     3
 72
    20
 73
    16
 74
     0
 42
0.000000001
 43
0.00000001
 40
0.0
 40
0.0
 40
0.0
 40
0.0
 40
0.1250000000000003
 40
0.1250000000000003
 40
0.2500000000000006
 40
0.2500000000000006
 40
0.3750000000000008
 40
0.3750000000000008
 40
0.5000000000000011
 40
0.5000000000000011
 40
0.6250000000000013
 40
0.6250000000000013
 40
0.7500000000000017
 40
0.7500000000000017
 40
1.0
 40
1.0
 40
1.0
 40
1.0
 10
149.5248687287236
 20
364.7681362886998
 30
0.0
 10
149.9635561419489
 20
364.768224733318
 30
0.0
 10
150.3991996980091
 20
364.7553927559359
 30
0.0
 10
151.2642813830745
 20
364.6967892326394
 30
0.0
 10
151.6937564184177
 20
364.6520876022881
 30
0.0
 10
152.5465736916343
 20
364.5335301352235
 30
0.0
 10
152.9678265523879
 20
364.4598078660551
 30
0.0
 10
153.786895038424
 20
364.2892796323444
 30
0.0
 10
154.1867825752906
 20
364.192190424974
 30
0.0
 10
154.967823758097
 20
363.9779804088401
 30
0.0
 10
155.3489805500151
 20
363.8608824967318
 30
0.0
 10
156.0924623183875
 20
363.6102473513719
 30
0.0
 10
156.4542280593366
 20
363.4766132908491
 30
0.0
 10
157.4870273109431
 20
363.062075524
 30
0.0
 10
158.1147270922642
 20
362.7652279761352
 30
0.0
 10
158.6800415899866
 20
362.4514499811477
 30
0.0
  0
SPLINE
  5
12A
330
1F
100
AcDbEntity
  8
0
  6
Continuous
 62
     7
370
    25
100
AcDbSpline
210
0.0
220
0.0
230
1.0
 70
     8
 71
     3
 72
    20
 73
    16
 74
     0
 42
0.000000001
 43
0.00000001
 40
0.0
 40
0.0
 40
0.0
 40
0.0
 40
0.25
 40
0.25
 40
0.375
 40
0.375
 40
0.5
 40
0.5
 40
0.625
 40
0.625
 40
0.75
 40
0.75
 40
0.875
 40
0.875
 40
1.0
 40
1.0
 40
1.0
 40
1.0
 10
140.3696958674606
 20
362.4514499811477
 30
0.0
 10
140.935050700454
 20
362.7652503642404
 30
0.0
 10
141.5644176252107
 20
363.0630283528008
 30
0.0
 10
142.6036898224768
 20
363.4797611942724
 30
0.0
 10
142.9646942397272
 20
363.612859472924
 30
0.0
 10
143.7041895242866
 20
363.8619269556946
 30
0.0
 10
144.0842366134801
 20
363.9786656766729
 30
0.0
 10
144.8651281580868
 20
364.1927380135784
 30
0.0
 10
145.2659737769974
 20
364.2900513420032
 30
0.0
 10
146.0894207431558
 20
364.4612500719099
 30
0.0
 10
146.5123448716582
 20
364.5349660702457
 30
0.0
 10
147.3605752464748
 20
364.6525640791277
 30
0.0
 10
147.7883083611615
 20
364.6970230378067
 30
0.0
 10
148.6510705354466
 20
364.7553881066955
 30
0.0
 10
149.086143803894
 20
364.7682247408808
 30
0.0
 10
149.5248687287236
 20
364.7681362886998
 30
0.0
  0
LINE
  5
12B
330
1F
100
AcDbEntity
  8
0
  6
Continuous
 62
     7
370
    25
100
AcDbLine
 10
172.5143504163
 20
378.2547450852
 30
0.0
 11
172.4689465781
 21
378.2764486265
 31
0.0
  0
SPLINE
  5
12C
330
1F
100
AcDbEntity
  8
0
  6
Continuous
 62
     7
370
    25
100
AcDbSpline
210
0.0
220
0.0
230
1.0
 70
     8
 71
     3
 72
    20
 73
    16
 74
     0
 42
0.000000001
 43
0.00000001
 40
0.0
 40
0.0
 40
0.0
 40
0.0
 40
0.25
 40
0.25
 40
0.375
 40
0.375
 40
0.4375
 40
0.4375
 40
0.5
 40
0.5
 40
0.7500000000000002
 40
0.7500000000000002
 40
0.8750000000000001
 40
0.8750000000000001
 40
1.0
 40
1.0
 40
1.0
 40
1.0
 10
149.5248687287239
 20
380.9537426130119
 30
0.0
 10
151.0071275635225
 20
380.9537158632683
 30
0.0
 10
152.4635773597584
 20
380.9226840800685
 30
0.0
 10
154.6110161161657
 20
380.8337842691719
 30
0.0
 10
155.32057180841
 20
380.7970781561186
 30
0.0
 10
156.3752427579866
 20
380.7318418703514
 30
0.0
 10
156.7261411963818
 20
380.7083255817788
 30
0.0
 10
157.4176015390151
 20
380.658496208037
 30
0.0
 10
157.7586374519603
 20
380.6321646530154
 30
0.0
 10
159.4407610821939
 20
380.4939860840111
 30
0.0
 10
160.7133869888731
 20
380.3626066923172
 30
0.0
 10
162.5119510715787
 20
380.1444218744545
 30
0.0
 10
163.0950984895704
 20
380.0678401864853
 30
0.0
 10
164.2062274345656
 20
379.9117331356663
 30
0.0
 10
164.7355421351486
 20
379.8320915838127
 30
0.0
 10
165.2384759427348
 20
379.7519303948626
 30
0.0
  0
SPLINE
  5
12D
330
1F
100
AcDbEntity
  8
0
  6
Continuous
 62
     7
370
    25
100
AcDbSpline
210
0.0
220
0.0
230
1.0
 70
     8
 71
     3
 72
     9
 73
     5
 74
     0
 42
0.000000001
 43
0.00000001
 40
0.0
 40
0.0
 40
0.0
 40
0.0
 40
0.9647017964461284
 40
1.0
 40
1.0
 40
1.0
 40
1.0
 10
165.238476621118
 20
379.7519318055866
 30
0.0
 10
166.0551526727095
 20
379.6183779810096
 30
0.0
 10
166.9017107019369
 20
379.4799374545494
 30
0.0
 10
167.4895900977656
 20
379.3587723937835
 30
0.0
 10
167.5103411843447
 20
379.3544954848049
 30
0.0
  0
SPLINE
  5
12E
330
1F
100
AcDbEntity
  8
0
  6
Continuous
 62
     7
370
    25
100
AcDbSpline
210
0.0
220
0.0
230
1.0
 70
     8
 71
     3
 72
    20
 73
    16
 74
     0
 42
0.000000001
 43
0.00000001
 40
0.0
 40
0.0
 40
0.0
 40
0.0
 40
0.2500000000000002
 40
0.2500000000000002
 40
0.3750000000000003
 40
0.3750000000000003
 40
0.4375000000000002
 40
0.4375000000000002
 40
0.5000000000000001
 40
0.5000000000000001
 40
0.75
 40
0.75
 40
0.875
 40
0.875
 40
1.0
 40
1.0
 40
1.0
 40
1.0
 10
133.8112615147129
 20
379.7519303948626
 30
0.0
 10
134.8169597099683
 20
379.9122257694041
 30
0.0
 10
135.9173195427035
 20
380.0687840460887
 30
0.0
 10
137.704516139569
 20
380.2861362992783
 30
0.0
 10
138.3232011504778
 20
380.3556820884222
 30
0.0
 10
139.2865973788349
 20
380.4541209862599
 30
0.0
 10
139.6144075120119
 20
380.486017156023
 30
0.0
 10
140.2747761076736
 20
380.5469268284078
 30
0.0
 10
140.6080088211305
 20
380.5760165520518
 30
0.0
 10
142.2891268223285
 20
380.7142866249134
 30
0.0
 10
143.68140767289
 20
380.8019699243105
 30
0.0
 10
145.8411334438102
 20
380.892064987796
 30
0.0
 10
146.5755182321234
 20
380.9151896935036
 30
0.0
 10
148.0457992710523
 20
380.94595160326
 30
0.0
 10
148.7838621016175
 20
380.953729240356
 30
0.0
 10
149.5248687287239
 20
380.9537426130119
 30
0.0
  0
LINE
  5
12F
330
1F
100
AcDbEntity
  8
0
  6
Continuous
 62
     7
370
    25
100
AcDbLine
 10
126.5807759782
 20
378.2764486265
 30
0.0
 11
126.5365996232
 21
378.2553411317
 31
0.0
  0
SPLINE
  5
130
330
1F
100
AcDbEntity
  8
0
  6
Continuous
 62
     7
370
    25
100
AcDbSpline
210
0.0
220
0.0
230
1.0
 70
     8
 71
     3
 72
     9
 73
     5
 74
     0
 42
0.000000001
 43
0.00000001
 40
0.0
 40
0.0
 40
0.0
 40
0.0
 40
0.5100406075990817
 40
1.0
 40
1.0
 40
1.0
 40
1.0
 10
131.5880131741432
 20
379.3569020223377
 30
0.0
 10
131.9186921079157
 20
379.4220597216971
 30
0.0
 10
132.5670305516508
 20
379.5498097447121
 30
0.0
 10
133.402107192682
 20
379.6854658316534
 30
0.0
 10
133.8112608363299
 20
379.7519318055866
 30
0.0
  0
SPLINE
  5
131
330
1F
100
AcDbEntity
  8
0
  6
Continuous
 62
     7
370
    25
100
AcDbSpline
210
0.0
220
0.0
230
1.0
 70
     8
 71
     3
 72
     8
 73
     4
 74
     0
 42
0.000000001
 43
0.00000001
 40
0.0
 40
0.0
 40
0.0
 40
0.0
 40
1.0
 40
1.0
 40
1.0
 40
1.0
 10
138.5248687287236
 20
359.017130510866
 30
0.0
 10
138.1353126847872
 20
359.2832822449754
 30
0.0
 10
137.8153314377888
 20
359.5607309132785
 30
0.0
 10
137.5538839262072
 20
359.8476837668069
 30
0.0
  0
SPLINE
  5
132
330
1F
100
AcDbEntity
  8
0
  6
Continuous
 62
     7
370
    25
100
AcDbSpline
210
0.0
220
0.0
230
1.0
 70
     8
 71
     3
 72
    16
 73
    12
 74
     0
 42
0.000000001
 43
0.00000001
 40
0.0
 40
0.0
 40
0.0
 40
0.0
 40
0.1250000000000003
 40
0.1250000000000003
 40
0.2500000000000007
 40
0.2500000000000007
 40
0.5000000000000004
 40
0.5000000000000004
 40
0.7500000000000002
 40
0.7500000000000002
 40
1.0
 40
1.0
 40
1.0
 40
1.0
 10
140.3696930179972
 20
362.4517029106272
 30
0.0
 10
140.2748917417777
 20
362.3991350155964
 30
0.0
 10
140.1823584818184
 20
362.3495013682634
 30
0.0
 10
140.0017742094542
 20
362.2568265936456
 30
0.0
 10
139.9137293815157
 20
362.2082745018981
 30
0.0
 10
139.6562777617347
 20
362.0609620054076
 30
0.0
 10
139.4935412271429
 20
361.9641152049901
 30
0.0
 10
139.1857901835043
 20
361.7817318845658
 30
0.0
 10
139.0407769469278
 20
361.6948667533774
 30
0.0
 10
138.7686963841405
 20
361.5272537951811
 30
0.0
 10
138.6413758314221
 20
361.4464388433116
 30
0.0
 10
138.5248687287261
 20
361.3681162550801
 30
0.0
  0
SPLINE
  5
133
330
1F
100
AcDbEntity
  8
0
  6
Continuous
 62
     7
370
    25
100
AcDbSpline
210
0.0
220
0.0
230
1.0
 70
     8
 71
     3
 72
     8
 73
     4
 74
     0
 42
0.000000001
 43
0.00000001
 40
0.0
 40
0.0
 40
0.0
 40
0.0
 40
1.0
 40
1.0
 40
1.0
 40
1.0
 10
161.4958535312481
 20
359.8476837668158
 30
0.0
 10
161.234406019665
 20
359.5607309132843
 30
0.0
 10
160.9144247726642
 20
359.2832822449782
 30
0.0
 10
160.5248687287237
 20
359.017130510866
 30
0.0
  0
SPLINE
  5
134
330
1F
100
AcDbEntity
  8
0
  6
Continuous
 62
     7
370
    25
100
AcDbSpline
210
0.0
220
0.0
230
1.0
 70
     8
 71
     3
 72
    14
 73
    10
 74
     0
 42
0.000000001
 43
0.00000001
 40
0.0
 40
0.0
 40
0.0
 40
0.0
 40
0.4999999999999996
 40
0.4999999999999996
 40
0.7499999999999993
 40
0.7499999999999993
 40
0.8749999999999997
 40
0.8749999999999997
 40
1.0
 40
1.0
 40
1.0
 40
1.0
 10
160.5248687287273
 20
361.3681162550759
 30
0.0
 10
160.2913398527892
 20
361.5251074218552
 30
0.0
 10
160.0207479515974
 20
361.688778675941
 30
0.0
 10
159.5598458027566
 20
361.9619661207
 30
0.0
 10
159.3969863361792
 20
362.058874193142
 30
0.0
 10
159.1387028122257
 20
362.2067666314064
 30
0.0
 10
159.0502856266956
 20
362.2556203886569
 30
0.0
 10
158.868799358853
 20
362.3487865236941
 30
0.0
 10
158.775649074241
 20
362.398689548291
 30
0.0
 10
158.6800444394499
 20
362.4517029106272
 30
0.0
  0
LWPOLYLINE
  5
135
330
1F
100
AcDbEntity
  8
0
  6
Continuous
 62
     7
370
    25
100
AcDbPolyline
 90
       23
 70
   128
 43
0.0
 10
160.5248686691
 20
356.4513623011
 10
160.4129041379
 20
357.0377974999
 10
160.0792913531
 20
357.612289418
 10
159.5308205878
 20
358.1631518197
 10
158.7786574682
 20
358.679167856
 10
157.8381138687
 20
359.1498284828
 10
156.7283368503
 20
359.5655597043
 10
155.4719175046
 20
359.9178939354
 10
154.0944336747
 20
360.1996599924
 10
152.623926785
 20
360.4051209283
 10
151.0903319876
 20
360.5300932419
 10
149.5248687287
 20
360.5720362854
 10
147.9594054698
 20
360.5300932419
 10
146.4258106725
 20
360.4051209283
 10
144.9553037827
 20
360.1996599924
 10
143.5778199529
 20
359.9178939354
 10
142.3214006071
 20
359.5655597043
 10
141.2116235887
 20
359.1498284828
 10
140.2710799893
 20
358.679167856
 10
139.5189168697
 20
358.1631518197
 10
138.9704461043
 20
357.612289418
 10
138.6368333196
 20
357.0377974999
 10
138.5248687883
 20
356.4513623011
  0
SPLINE
  5
136
330
1F
100
AcDbEntity
  8
0
  6
Continuous
 62
     7
370
    25
100
AcDbSpline
210
0.0
220
0.0
230
1.0
 70
    24
 71
     3
 72
     8
 73
     4
 74
     0
 42
0.000000001
 43
0.00000001
 40
0.0
 40
0.0
 40
0.0
 40
0.0
 40
1.0
 40
1.0
 40
1.0
 40
1.0
 10
138.5248687287236
 20
358.7832227617369
 30
0.0
 10
138.5248687287236
 20
357.8528594729801
 30
0.0
 10
138.5248687287236
 20
357.0576707236233
 30
0.0
 10
138.5248687287236
 20
356.4513628041696
 30
0.0
  0
LWPOLYLINE
  5
137
330
1F
100
AcDbEntity
  8
0
  6
Continuous
 62
     7
370
    25
100
AcDbPolyline
 90
       18
 70
   128
 43
0.0
 10
160.5248686691
 20
358.7832226646
 10
159.7703846936
 20
359.3269697618
 10
158.8254946118
 20
359.8272278201
 10
157.7077575793
 20
360.2746910643
 10
156.4379467463
 20
360.6610558223
 10
155.0396599641
 20
360.9791285586
 10
153.5388843921
 20
361.2230009627
 10
151.9635108133
 20
361.3881505322
 10
150.3428164587
 20
361.4715001774
 10
148.7069209988
 20
361.4715001774
 10
147.0862266441
 20
361.3881505322
 10
145.5108530653
 20
361.2230009627
 10
144.0100774934
 20
360.9791285586
 10
142.6117907112
 20
360.6610558223
 10
141.3419798782
 20
360.2746910643
 10
140.2242428457
 20
359.8272278201
 10
139.2793527638
 20
359.3269697618
 10
138.5248687883
 20
358.7832226646
  0
SPLINE
  5
138
330
1F
100
AcDbEntity
  8
0
  6
Continuous
 62
     7
370
    25
100
AcDbSpline
210
0.0
220
0.0
230
1.0
 70
    24
 71
     3
 72
     8
 73
     4
 74
     0
 42
0.000000001
 43
0.00000001
 40
0.0
 40
0.0
 40
0.0
 40
0.0
 40
1.0
 40
1.0
 40
1.0
 40
1.0
 10
160.5248687287236
 20
358.7832227617369
 30
0.0
 10
160.5248687287236
 20
357.8528594729801
 30
0.0
 10
160.5248687287236
 20
357.0576707236233
 30
0.0
 10
160.5248687287236
 20
356.4513628041696
 30
0.0
  0
LINE
  5
139
330
1F
100
AcDbEntity
  8
0
  6
Continuous
 62
     7
370
    25
100
AcDbLine
 10
160.5248686691
 20
361.368115921
 30
0.0
 11
160.5248686691
 21
358.7832226646
 31
0.0
  0
LINE
  5
13A
330
1F
100
AcDbEntity
  8
0
  6
Continuous
 62
     7
370
    25
100
AcDbLine
 10
138.5248687883
 20
361.368115921
 30
0.0
 11
138.5248687883
 21
358.7832226646
 31
0.0
  0
LWPOLYLINE
  5
13B
330
1F
100
AcDbEntity
  8
0
  6
Continuous
 62
     7
370
    25
100
AcDbPolyline
 90
       23
 70
   128
 43
0.0
 10
138.5248687883
 20
356.4513623011
 10
138.6368333196
 20
355.8649308276
 10
138.9704461043
 20
355.2904351842
 10
139.5189168697
 20
354.7395727825
 10
140.2710799893
 20
354.2235604715
 10
141.2116235887
 20
353.7528961193
 10
142.3214006071
 20
353.3371648979
 10
143.5778199529
 20
352.9848306668
 10
144.9553037827
 20
352.703068335
 10
146.4258106725
 20
352.4976073992
 10
147.9594054698
 20
352.3726313603
 10
149.5248687287
 20
352.3306920421
 10
151.0903319876
 20
352.3726313603
 10
152.623926785
 20
352.4976073992
 10
154.0944336747
 20
352.703068335
 10
155.4719175046
 20
352.9848306668
 10
156.7283368503
 20
353.3371648979
 10
157.8381138687
 20
353.7528961193
 10
158.7786574682
 20
354.2235604715
 10
159.5308205878
 20
354.7395727825
 10
160.0792913531
 20
355.2904351842
 10
160.4129041379
 20
355.8649308276
 10
160.5248686691
 20
356.4513623011
  0
ARC
  5
13C
330
1F
100
AcDbEntity
  8
0
  6
Continuous
 62
     7
370
    25
100
AcDbCircle
 10
143.8077793695
 20
361.8374546157
 30
0.0
 40
8.490944861253402
100
AcDbArc
 50
231.5243699826
 51
250.3516657452
  0
ARC
  5
13D
330
1F
100
AcDbEntity
  8
0
  6
Continuous
 62
     7
370
    25
100
AcDbCircle
 10
155.2419580879
 20
361.8374546157
 30
0.0
 40
8.49094486125341
100
AcDbArc
 50
289.6483342548
 51
308.4756300174
  0
SPLINE
  5
13E
330
1F
100
AcDbEntity
  8
0
  6
Continuous
 62
     7
370
    25
100
AcDbSpline
210
0.0
220
0.0
230
1.0
 70
    24
 71
     3
 72
    10
 73
     6
 74
     0
 42
0.000000001
 43
0.00000001
 40
0.0
 40
0.0
 40
0.0
 40
0.0
 40
0.5
 40
0.5
 40
1.0
 40
1.0
 40
1.0
 40
1.0
 10
138.5248687287236
 20
356.4513628041696
 30
0.0
 10
138.5248687287236
 20
356.1489148615235
 30
0.0
 10
138.5248687287236
 20
355.8920296839199
 30
0.0
 10
138.5248687287236
 20
355.4766648663126
 30
0.0
 10
138.5248687287236
 20
355.315563042806
 30
0.0
 10
138.5248687287236
 20
355.1901225426472
 30
0.0
  0
SPLINE
  5
13F
330
1F
100
AcDbEntity
  8
0
  6
Continuous
 62
     7
370
    25
100
AcDbSpline
210
0.0
220
0.0
230
1.0
 70
    24
 71
     3
 72
    10
 73
     6
 74
     0
 42
0.000000001
 43
0.00000001
 40
0.0
 40
0.0
 40
0.0
 40
0.0
 40
0.5
 40
0.5
 40
1.0
 40
1.0
 40
1.0
 40
1.0
 10
160.5248687287236
 20
356.4513628041696
 30
0.0
 10
160.5248687287236
 20
356.1489148615235
 30
0.0
 10
160.5248687287236
 20
355.8920296839199
 30
0.0
 10
160.5248687287236
 20
355.4766648663126
 30
0.0
 10
160.5248687287236
 20
355.315563042806
 30
0.0
 10
160.5248687287236
 20
355.1901225426473
 30
0.0
  0
ARC
  5
140
330
1F
100
AcDbEntity
  8
0
  6
Continuous
 62
     7
370
    25
100
AcDbCircle
 10
158.8929615844
 20
360.4909065963
 30
0.0
 40
2.681190464210836
100
AcDbArc
 50
307.4919667598
 51
346.1192380461
  0
ARC
  5
141
330
1F
100
AcDbEntity
  8
0
  6
Continuous
 62
     7
370
    25
100
AcDbCircle
 10
140.1567758731
 20
360.4909065963
 30
0.0
 40
2.681190464210836
100
AcDbArc
 50
193.8807619539
 51
232.5080332402
  0
SPLINE
  5
142
330
1F
100
AcDbEntity
  8
0
  6
Continuous
 62
     7
370
    25
100
AcDbSpline
210
0.0
220
0.0
230
1.0
 70
     8
 71
     3
 72
    10
 73
     6
 74
     0
 42
0.000000001
 43
0.00000001
 40
0.0
 40
0.0
 40
0.0
 40
0.0
 40
0.4655461428066586
 40
0.9313981525608093
 40
1.0
 40
1.0
 40
1.0
 40
1.0
 10
169.892375620213
 20
416.5063313436268
 30
0.0
 10
170.1607613299465
 20
416.4945105480301
 30
0.0
 10
170.6977090806303
 20
416.4708611904945
 30
0.0
 10
171.0414120238888
 20
416.4309874022906
 30
0.0
 10
171.0988282562409
 20
416.3798304219738
 30
0.0
 10
171.1061981340317
 20
416.3732639741657
 30
0.0
  0
SPLINE
  5
143
330
1F
100
AcDbEntity
  8
0
  6
Continuous
 62
     7
370
    25
100
AcDbSpline
210
0.0
220
0.0
230
1.0
 70
     8
 71
     3
 72
    10
 73
     6
 74
     0
 42
0.000000001
 43
0.00000001
 40
0.0
 40
0.0
 40
0.0
 40
0.0
 40
0.4688701875725115
 40
0.9380484260122867
 40
0.9999999999999999
 40
0.9999999999999999
 40
0.9999999999999999
 40
0.9999999999999999
 10
129.1573618372349
 20
416.5063313436268
 30
0.0
 10
128.889096770402
 20
416.4944810468502
 30
0.0
 10
128.3523903847827
 20
416.4707726675725
 30
0.0
 10
128.0098370810003
 20
416.4314962863078
 30
0.0
 10
127.9527031577659
 20
416.3811215894563
 30
0.0
 10
127.9460389932064
 20
416.3752458286045
 30
0.0
  0
LWPOLYLINE
  5
144
330
1F
100
AcDbEntity
  8
0
  6
Continuous
 62
     7
370
    25
100
AcDbPolyline
 90
        7
 70
   128
 43
0.0
 10
125.8136213591
 20
321.1999702495
 10
125.8136232217
 20
321.1999944639
 10
125.8136232217
 20
321.2000037771
 10
125.8136232217
 20
321.1999981892
 10
125.8136232217
 20
321.1999963265
 10
125.8136232217
 20
321.2000261289
 10
125.8279860785
 20
322.2693688464
  0
LINE
  5
145
330
1F
100
AcDbEntity
  8
0
  6
Continuous
 62
     7
370
    25
100
AcDbLine
 10
173.5396900048
 20
377.0482874703
 30
0.0
 11
173.528566288
 21
377.0319781494
 31
0.0
  0
LINE
  5
146
330
1F
100
AcDbEntity
  8
0
  6
Continuous
 62
     7
370
    25
100
AcDbLine
 10
125.5211171528
 20
377.0319706988
 30
0.0
 11
125.5100269636
 21
377.0482278657
 31
0.0
  0
SPLINE
  5
147
330
1F
100
AcDbEntity
  8
0
  6
Continuous
 62
     7
370
    25
100
AcDbSpline
210
0.0
220
0.0
230
1.0
 70
     8
 71
     3
 72
     8
 73
     4
 74
     0
 42
0.000000001
 43
0.00000001
 40
0.0
 40
0.0
 40
0.0
 40
0.0
 40
1.0
 40
1.0
 40
1.0
 40
1.0
 10
153.237246381335
 20
395.110249411723
 30
0.0
 10
153.2694768811902
 20
395.2291251424801
 30
0.0
 10
153.3092725883748
 20
395.3468497995007
 30
0.0
 10
153.3551602182843
 20
395.4624361011531
 30
0.0
  0
SPLINE
  5
148
330
1F
100
AcDbEntity
  8
0
  6
Continuous
 62
     7
370
    25
100
AcDbSpline
210
0.0
220
0.0
230
1.0
 70
     8
 71
     3
 72
    18
 73
    14
 74
     0
 42
0.000000001
 43
0.00000001
 40
0.0
 40
0.0
 40
0.0
 40
0.0
 40
0.2500000000000066
 40
0.2500000000000066
 40
0.375000000000007
 40
0.375000000000007
 40
0.5000000000000074
 40
0.5000000000000074
 40
0.7500000000000036
 40
0.7500000000000036
 40
0.8750000000000018
 40
0.8750000000000018
 40
1.0
 40
1.0
 40
1.0
 40
1.0
 10
153.3551602182843
 20
395.462436101153
 30
0.0
 10
153.1806732999765
 20
395.8253530878735
 30
0.0
 10
152.9611579938502
 20
396.1528160884917
 30
0.0
 10
152.5666238203596
 20
396.5956486319791
 30
0.0
 10
152.4233098986342
 20
396.7354200554961
 30
0.0
 10
152.1224557685952
 20
396.9904285230174
 30
0.0
 10
151.9640456710116
 20
397.1068091393689
 30
0.0
 10
151.46431866248
 20
397.4230358329796
 30
0.0
 10
151.0946815477441
 20
397.5902536871905
 30
0.0
 10
150.5225493519773
 20
397.7568808522195
 30
0.0
 10
150.3276432946507
 20
397.799218752227
 30
0.0
 10
149.928990581285
 20
397.8564019363386
 30
0.0
 10
149.7254847745079
 20
397.8708712679607
 30
0.0
 10
149.5248338172838
 20
397.870869619722
 30
0.0
  0
SPLINE
  5
149
330
1F
100
AcDbEntity
  8
0
  6
Continuous
 62
     7
370
    25
100
AcDbSpline
210
0.0
220
0.0
230
1.0
 70
     8
 71
     3
 72
    16
 73
    12
 74
     0
 42
0.000000001
 43
0.00000001
 40
0.0
 40
0.0
 40
0.0
 40
0.0
 40
0.2500000000000001
 40
0.2500000000000001
 40
0.5000000000000002
 40
0.5000000000000002
 40
0.6250000000000001
 40
0.6250000000000001
 40
0.7500000000000001
 40
0.7500000000000001
 40
1.0
 40
1.0
 40
1.0
 40
1.0
 10
149.5249036401641
 20
397.8708696197222
 30
0.0
 10
149.1248120448228
 20
397.8708729062572
 30
0.0
 10
148.7183418154763
 20
397.8126028388336
 30
0.0
 10
147.9536170777519
 20
397.5897839915937
 30
0.0
 10
147.584495168877
 20
397.422600105677
 30
0.0
 10
147.0844348815008
 20
397.105939016155
 30
0.0
 10
146.9258154051193
 20
396.989323998057
 30
0.0
 10
146.6244129038937
 20
396.7335724783321
 30
0.0
 10
146.4813020866443
 20
396.5937540294286
 30
0.0
 10
146.0882121495144
 20
396.1521242546642
 30
0.0
 10
145.8690224491747
 20
395.8252663384002
 30
0.0
 10
145.694577239151
 20
395.4624361011267
 30
0.0
  0
SPLINE
  5
14A
330
1F
100
AcDbEntity
  8
0
  6
Continuous
 62
     7
370
    25
100
AcDbSpline
210
0.0
220
0.0
230
1.0
 70
     8
 71
     3
 72
     8
 73
     4
 74
     0
 42
0.000000001
 43
0.00000001
 40
0.0
 40
0.0
 40
0.0
 40
0.0
 40
1.0
 40
1.0
 40
1.0
 40
1.0
 10
145.6945772391637
 20
395.4624361011531
 30
0.0
 10
145.7400733325994
 20
395.3478360403037
 30
0.0
 10
145.7801226095632
 20
395.2296340049458
 30
0.0
 10
145.8124910761128
 20
395.1102494117233
 30
0.0
  0
LINE
  5
14B
330
1F
100
AcDbEntity
  8
0
  6
Continuous
 62
     7
370
    25
100
AcDbLine
 10
126.8949278464
 20
415.0149784279
 30
0.0
 11
126.8971276303
 21
415.2267462802
 31
0.0
  0
LINE
  5
14C
330
1F
100
AcDbEntity
  8
0
  6
Continuous
 62
     7
370
    25
100
AcDbLine
 10
126.9473017027
 20
415.4968298268
 30
0.0
 11
126.8970009704
 21
415.2269101929
 31
0.0
  0
LINE
  5
14D
330
1F
100
AcDbEntity
  8
0
  6
Continuous
 62
     7
370
    25
100
AcDbLine
 10
172.1007109453
 20
415.505442698
 30
0.0
 11
172.1526098271
 21
415.2270666551
 31
0.0
  0
LINE
  5
14E
330
1F
100
AcDbEntity
  8
0
  6
Continuous
 62
     7
370
    25
100
AcDbLine
 10
173.5248689373
 20
298.0997077417
 30
0.0
 11
149.5248687287
 21
298.0997077417
 31
0.0
  0
LINE
  5
14F
330
1F
100
AcDbEntity
  8
0
  6
Continuous
 62
     7
370
    25
100
AcDbLine
 10
125.5248685201
 20
298.0997077417
 30
0.0
 11
149.5248687287
 21
298.0997077417
 31
0.0
  0
CIRCLE
  5
150
330
1F
100
AcDbEntity
  8
0
  6
Continuous
 62
     7
370
    25
100
AcDbCircle
 10
149.5248687287
 20
393.6208696199
 30
0.0
 40
3.569682227408607
  0
CIRCLE
  5
151
330
1F
100
AcDbEntity
  8
0
  6
Continuous
 62
     7
370
    25
100
AcDbCircle
 10
149.5248687287
 20
393.6208696199
 30
0.0
 40
4.000000000000023
  0
SPLINE
  5
152
330
1F
100
AcDbEntity
  8
0
  6
Continuous
 62
     7
370
    25
100
AcDbSpline
210
0.0
220
0.0
230
1.0
 70
     8
 71
     3
 72
    32
 73
    28
 74
     0
 42
0.000000001
 43
0.00000001
 40
0.0
 40
0.0
 40
0.0
 40
0.0
 40
0.1249999999999985
 40
0.1249999999999985
 40
0.1874999999999977
 40
0.1874999999999977
 40
0.2499999999999968
 40
0.2499999999999968
 40
0.3749999999999976
 40
0.3749999999999976
 40
0.4374999999999974
 40
0.4374999999999974
 40
0.4999999999999972
 40
0.4999999999999972
 40
0.562499999999997
 40
0.562499999999997
 40
0.6249999999999968
 40
0.6249999999999968
 40
0.7499999999999963
 40
0.7499999999999963
 40
0.8124999999999973
 40
0.8124999999999973
 40
0.8749999999999982
 40
0.8749999999999982
 40
0.9374999999999991
 40
0.9374999999999991
 40
1.0
 40
1.0
 40
1.0
 40
1.0
 10
153.3086822650106
 20
391.6856034566173
 30
0.0
 10
153.130129361732
 20
391.3364985607641
 30
0.0
 10
152.9085410012165
 20
391.0201183159226
 30
0.0
 10
152.5132371636896
 20
390.5926993067804
 30
0.0
 10
152.3699365796175
 20
390.4576901794076
 30
0.0
 10
152.0700113855359
 20
390.2117107639011
 30
0.0
 10
151.9126054851163
 20
390.0997038215408
 30
0.0
 10
151.4181501258888
 20
389.7962693610637
 30
0.0
 10
151.0545881238445
 20
389.6368279852525
 30
0.0
 10
150.4953375264512
 20
389.4786211234361
 30
0.0
 10
150.305534374922
 20
389.4386282190665
 30
0.0
 10
149.9189879032699
 20
389.3846859526992
 30
0.0
 10
149.7215810816212
 20
389.3709607452483
 30
0.0
 10
149.3321138346679
 20
389.3707794157464
 30
0.0
 10
149.1385489978688
 20
389.3840103213697
 30
0.0
 10
148.753736144804
 20
389.4369032973773
 30
0.0
 10
148.5613497030907
 20
389.4768999999063
 30
0.0
 10
147.9958271882992
 20
389.6361557702564
 30
0.0
 10
147.6411196189186
 20
389.7912245025271
 30
0.0
 10
147.1418353520734
 20
390.0964263965846
 30
0.0
 10
146.9818988475541
 20
390.2101142959065
 30
0.0
 10
146.6824620106049
 20
390.4553251571793
 30
0.0
 10
146.5417558750906
 20
390.5875511417868
 30
0.0
 10
146.278321925497
 20
390.8713392706198
 30
0.0
 10
146.154955205635
 20
391.0238879642832
 30
0.0
 10
145.931013291682
 20
391.3438465698782
 30
0.0
 10
145.8303320908545
 20
391.5110501351548
 30
0.0
 10
145.7410551924373
 20
391.6856034566173
 30
0.0
  0
SPLINE
  5
153
330
1F
100
AcDbEntity
  8
0
  6
Continuous
 62
     7
370
    25
100
AcDbSpline
210
0.0
220
0.0
230
1.0
 70
     8
 71
     3
 72
     8
 73
     4
 74
     0
 42
0.000000001
 43
0.00000001
 40
0.0
 40
0.0
 40
0.0
 40
0.0
 40
1.0
 40
1.0
 40
1.0
 40
1.0
 10
153.2740861931171
 20
392.2268221297387
 30
0.0
 10
153.2856697117818
 20
392.046420089052
 30
0.0
 10
153.297201267277
 20
391.8660138266175
 30
0.0
 10
153.3086822650107
 20
391.6856034566173
 30
0.0
  0
SPLINE
  5
154
330
1F
100
AcDbEntity
  8
0
  6
Continuous
 62
     7
370
    25
100
AcDbSpline
210
0.0
220
0.0
230
1.0
 70
     8
 71
     3
 72
     8
 73
     4
 74
     0
 42
0.000000001
 43
0.00000001
 40
0.0
 40
0.0
 40
0.0
 40
0.0
 40
1.0
 40
1.0
 40
1.0
 40
1.0
 10
145.7410551924361
 20
391.6856034565993
 30
0.0
 10
145.7525361901698
 20
391.866013826599
 30
0.0
 10
145.764067745665
 20
392.0464200890333
 30
0.0
 10
145.7756512643296
 20
392.2268221297196
 30
0.0
  0
SPLINE
  5
155
330
1F
100
AcDbEntity
  8
0
  6
Continuous
 62
     7
370
    25
100
AcDbSpline
210
0.0
220
0.0
230
1.0
 70
     8
 71
     3
 72
    11
 73
     7
 74
     0
 42
0.000000001
 43
0.00000001
 40
0.0
 40
0.0
 40
0.0
 40
0.0
 40
0.0164100265119638
 40
0.4197162550636463
 40
0.8359623708668685
 40
1.0
 40
1.0
 40
1.0
 40
1.0
 10
126.583989041057
 20
384.5249674510715
 30
0.0
 10
126.5805301480573
 20
384.5130084911333
 30
0.0
 10
126.4920626726718
 20
384.2071363539945
 30
0.0
 10
126.8059428256542
 20
383.8824841721278
 30
0.0
 10
127.4113083166313
 20
383.6392298839779
 30
0.0
 10
128.000634353422
 20
383.6249157046644
 30
0.0
 10
128.1672281046776
 20
383.6208692979572
 30
0.0
  0
SPLINE
  5
156
330
1F
100
AcDbEntity
  8
0
  6
Continuous
 62
     7
370
    25
100
AcDbSpline
210
0.0
220
0.0
230
1.0
 70
     8
 71
     3
 72
    10
 73
     6
 74
     0
 42
0.000000001
 43
0.00000001
 40
0.0
 40
0.0
 40
0.0
 40
0.0
 40
0.3893716500403349
 40
0.7903364392870441
 40
1.0
 40
1.0
 40
1.0
 40
1.0
 10
170.8825093527703
 20
383.6208692979572
 30
0.0
 10
171.2473482900208
 20
383.647541892295
 30
0.0
 10
171.9878888675128
 20
383.7016812299515
 30
0.0
 10
172.4571658496892
 20
384.0331725925987
 30
0.0
 10
172.4265890552437
 20
384.4218674424738
 30
0.0
 10
172.4160902967123
 20
384.555328567004
 30
0.0
  0
LINE
  5
157
330
1F
100
AcDbEntity
  8
0
  6
Continuous
 62
     7
370
    25
100
AcDbLine
 10
128.1672281047
 20
383.620869298
 30
0.0
 11
170.8825093528
 21
383.620869298
 31
0.0
  0
SPLINE
  5
158
330
1F
100
AcDbEntity
  8
0
  6
Continuous
 62
     8
370
    18
100
AcDbSpline
210
0.0
220
0.0
230
1.0
 70
     8
 71
     3
 72
    10
 73
     6
 74
     0
 42
0.000000001
 43
0.00000001
 40
0.0
 40
0.0
 40
0.0
 40
0.0
 40
0.5000000000000001
 40
0.5000000000000001
 40
1.0
 40
1.0
 40
1.0
 40
1.0
 10
160.9267444433081
 20
374.2690875874268
 30
0.0
 10
159.0327343323713
 20
374.3007318447087
 30
0.0
 10
157.1334516469027
 20
374.3141746390491
 30
0.0
 10
153.3308872937088
 20
374.3293003718296
 30
0.0
 10
151.4281300836355
 20
374.3312263625459
 30
0.0
 10
149.5248687287235
 20
374.3313041899154
 30
0.0
  0
SPLINE
  5
159
330
1F
100
AcDbEntity
  8
0
  6
Continuous
 62
     8
370
    18
100
AcDbSpline
210
0.0
220
0.0
230
1.0
 70
     8
 71
     3
 72
    10
 73
     6
 74
     0
 42
0.000000001
 43
0.00000001
 40
0.0
 40
0.0
 40
0.0
 40
0.0
 40
0.5
 40
0.5
 40
1.0
 40
1.0
 40
1.0
 40
1.0
 10
149.5248687287235
 20
376.0899651688102
 30
0.0
 10
151.4202205237564
 20
376.0900114949932
 30
0.0
 10
153.3148964967521
 20
376.0883434325576
 30
0.0
 10
157.1003140552619
 20
376.0716240965993
 30
0.0
 10
158.9901198012032
 20
376.0564973224397
 30
0.0
 10
160.8740127893978
 20
376.0237460473914
 30
0.0
  0
SPLINE
  5
15A
330
1F
100
AcDbEntity
  8
0
  6
Continuous
 62
     8
370
    18
100
AcDbSpline
210
0.0
220
0.0
230
1.0
 70
     8
 71
     3
 72
    14
 73
    10
 74
     0
 42
0.000000001
 43
0.00000001
 40
0.0
 40
0.0
 40
0.0
 40
0.0
 40
0.25
 40
0.25
 40
0.5
 40
0.5
 40
0.75
 40
0.75
 40
1.0
 40
1.0
 40
1.0
 40
1.0
 10
160.9267131724382
 20
374.2694981058468
 30
0.0
 10
160.9387325177082
 20
374.4380866920815
 30
0.0
 10
160.9471468724607
 20
374.6286009150357
 30
0.0
 10
160.9549033593227
 20
375.0113054129954
 30
0.0
 10
160.9542387907137
 20
375.2031648917374
 30
0.0
 10
160.9439716384991
 20
375.5454252699333
 30
0.0
 10
160.9343779331619
 20
375.6955303313654
 30
0.0
 10
160.9083945681837
 20
375.9204605644822
 30
0.0
 10
160.8920273713975
 20
375.995091314016
 30
0.0
 10
160.8740965577801
 20
376.0236269667559
 30
0.0
  0
SPLINE
  5
15B
330
1F
100
AcDbEntity
  8
0
  6
Continuous
 62
     8
370
    18
100
AcDbSpline
210
0.0
220
0.0
230
1.0
 70
     8
 71
     3
 72
    10
 73
     6
 74
     0
 42
0.000000001
 43
0.00000001
 40
0.0
 40
0.0
 40
0.0
 40
0.0
 40
0.5
 40
0.5
 40
1.0
 40
1.0
 40
1.0
 40
1.0
 10
149.5248687287235
 20
374.3313041899155
 30
0.0
 10
147.6216089197758
 20
374.3312263626099
 30
0.0
 10
145.7188429021393
 20
374.3293003252236
 30
0.0
 10
141.9163085711137
 20
374.3141747473065
 30
0.0
 10
140.017112402054
 20
374.300733667177
 30
0.0
 10
138.1229930141389
 20
374.2690875874268
 30
0.0
  0
SPLINE
  5
15C
330
1F
100
AcDbEntity
  8
0
  6
Continuous
 62
     8
370
    18
100
AcDbSpline
210
0.0
220
0.0
230
1.0
 70
     8
 71
     3
 72
    14
 73
    10
 74
     0
 42
0.000000001
 43
0.00000001
 40
0.0
 40
0.0
 40
0.0
 40
0.0
 40
0.25
 40
0.25
 40
0.5
 40
0.5
 40
0.75
 40
0.75
 40
1.0
 40
1.0
 40
1.0
 40
1.0
 10
138.1229355922752
 20
374.268734295496
 30
0.0
 10
138.1109031858471
 20
374.4374383399912
 30
0.0
 10
138.1024800460743
 20
374.6281379351147
 30
0.0
 10
138.0947211518307
 20
375.0112293117886
 30
0.0
 10
138.0953921349862
 20
375.2032886274044
 30
0.0
 10
138.1056866507101
 20
375.5458340114823
 30
0.0
 10
138.1153012532003
 20
375.6960228021105
 30
0.0
 10
138.1413330568024
 20
375.9209193545356
 30
0.0
 10
138.1577276701926
 20
375.9954319402449
 30
0.0
 10
138.175683014758
 20
376.0237450620812
 30
0.0
  0
SPLINE
  5
15D
330
1F
100
AcDbEntity
  8
0
  6
Continuous
 62
     8
370
    18
100
AcDbSpline
210
0.0
220
0.0
230
1.0
 70
     8
 71
     3
 72
    10
 73
     6
 74
     0
 42
0.000000001
 43
0.00000001
 40
0.0
 40
0.0
 40
0.0
 40
0.0
 40
0.5
 40
0.5
 40
1.0
 40
1.0
 40
1.0
 40
1.0
 10
138.1756830060315
 20
376.0237453230988
 30
0.0
 10
140.059580398315
 20
376.0564969443005
 30
0.0
 10
141.9494221727821
 20
376.0716240605194
 30
0.0
 10
145.7348181701495
 20
376.0883433625466
 30
0.0
 10
147.6295119736504
 20
376.0900114951145
 30
0.0
 10
149.5248687287235
 20
376.0899651688101
 30
0.0
  0
SPLINE
  5
15E
330
1F
100
AcDbEntity
  8
0
  6
Continuous
 62
     8
370
    18
100
AcDbSpline
210
0.0
220
0.0
230
1.0
 70
     8
 71
     3
 72
    28
 73
    24
 74
     0
 42
0.000000001
 43
0.00000001
 40
0.0
 40
0.0
 40
0.0
 40
0.0
 40
0.1250000000000022
 40
0.1250000000000022
 40
0.2500000000000044
 40
0.2500000000000044
 40
0.3750000000000066
 40
0.3750000000000066
 40
0.5000000000000088
 40
0.5000000000000088
 40
0.5625000000000099
 40
0.5625000000000099
 40
0.625000000000011
 40
0.625000000000011
 40
0.7500000000000094
 40
0.7500000000000094
 40
0.8125000000000071
 40
0.8125000000000071
 40
0.8750000000000048
 40
0.8750000000000048
 40
0.9375000000000024
 40
0.9375000000000024
 40
1.0
 40
1.0
 40
1.0
 40
1.0
 10
138.1229668040955
 20
374.2691451662606
 30
0.0
 10
137.660047425405
 20
374.2611792392472
 30
0.0
 10
137.1950021524193
 20
374.2530112545567
 30
0.0
 10
136.2727304099736
 20
374.2308664388544
 30
0.0
 10
135.8113749932346
 20
374.2201522104345
 30
0.0
 10
134.9169255201838
 20
374.2130879984605
 30
0.0
 10
134.4832048791705
 20
374.2175213276016
 30
0.0
 10
133.6554991702359
 20
374.2481980880934
 30
0.0
 10
133.2769561693959
 20
374.2741582296016
 30
0.0
 10
132.7725519920424
 20
374.3413199669759
 30
0.0
 10
132.6144915351435
 20
374.3671533120815
 30
0.0
 10
132.3295104928249
 20
374.4207289465079
 30
0.0
 10
132.2012387764081
 20
374.4488743878009
 30
0.0
 10
131.8543107654751
 20
374.5380105533567
 30
0.0
 10
131.6750268549337
 20
374.6067557706565
 30
0.0
 10
131.4754325221578
 20
374.6963134477905
 30
0.0
 10
131.4192052263513
 20
374.7244173741623
 30
0.0
 10
131.3207942198785
 20
374.7768068021899
 30
0.0
 10
131.2787363107922
 20
374.8029162165852
 30
0.0
 10
131.2028537524527
 20
374.8415166369551
 30
0.0
 10
131.1682421143808
 20
374.8586159106693
 30
0.0
 10
131.1004706382771
 20
374.8857002544162
 30
0.0
 10
131.0674201029834
 20
374.8978170705673
 30
0.0
 10
131.0336414723528
 20
374.9033557719185
 30
0.0
  0
SPLINE
  5
15F
330
1F
100
AcDbEntity
  8
0
  6
Continuous
 62
     8
370
    18
100
AcDbSpline
210
0.0
220
0.0
230
1.0
 70
     8
 71
     3
 72
    28
 73
    24
 74
     0
 42
0.000000001
 43
0.00000001
 40
0.0
 40
0.0
 40
0.0
 40
0.0
 40
0.1250000000000002
 40
0.1250000000000002
 40
0.2500000000000004
 40
0.2500000000000004
 40
0.3125000000000004
 40
0.3125000000000004
 40
0.3750000000000003
 40
0.3750000000000003
 40
0.4375000000000003
 40
0.4375000000000003
 40
0.5000000000000003
 40
0.5000000000000003
 40
0.5624999999999996
 40
0.5624999999999996
 40
0.6249999999999988
 40
0.6249999999999988
 40
0.7499999999999991
 40
0.7499999999999991
 40
0.8749999999999996
 40
0.8749999999999996
 40
1.0
 40
1.0
 40
1.0
 40
1.0
 10
132.0896156573457
 20
376.1667266781797
 30
0.0
 10
132.1518245277123
 20
376.1490500192087
 30
0.0
 10
132.2114260283384
 20
376.1307033593253
 30
0.0
 10
132.3447923486586
 20
376.0949311535737
 30
0.0
 10
132.4202076562264
 20
376.0780384910549
 30
0.0
 10
132.5771887507985
 20
376.0542645838023
 30
0.0
 10
132.6367726292524
 20
376.0465500932609
 30
0.0
 10
132.7773791104801
 20
376.0315886961164
 30
0.0
 10
132.8586308695099
 20
376.0243960703517
 30
0.0
 10
133.0437220351789
 20
376.0109035326355
 30
0.0
 10
133.14771321997
 20
376.0045410711041
 30
0.0
 10
133.3821264698913
 20
375.9929863790507
 30
0.0
 10
133.5140257467396
 20
375.9877660114793
 30
0.0
 10
133.7995284812126
 20
375.9795668003547
 30
0.0
 10
133.953696776372
 20
375.9765236710354
 30
0.0
 10
134.2812128289103
 20
375.972107024806
 30
0.0
 10
134.4557519022313
 20
375.9707302439126
 30
0.0
 10
134.9974574311691
 20
375.9691268001068
 30
0.0
 10
135.3776335944337
 20
375.9717278789108
 30
0.0
 10
136.1618872574198
 20
375.9823199283391
 30
0.0
 10
136.5641340224247
 20
375.9899866057052
 30
0.0
 10
137.3680621351521
 20
376.0067329897448
 30
0.0
 10
137.7725674033104
 20
376.0166206953217
 30
0.0
 10
138.1755992557228
 20
376.0236265039904
 30
0.0
  0
SPLINE
  5
160
330
1F
100
AcDbEntity
  8
0
  6
Continuous
 62
     8
370
    18
100
AcDbSpline
210
0.0
220
0.0
230
1.0
 70
     8
 71
     3
 72
    32
 73
    28
 74
     0
 42
0.000000001
 43
0.00000001
 40
0.0
 40
0.0
 40
0.0
 40
0.0
 40
0.0624999999999987
 40
0.0624999999999987
 40
0.1249999999999974
 40
0.1249999999999974
 40
0.1874999999999961
 40
0.1874999999999961
 40
0.2499999999999948
 40
0.2499999999999948
 40
0.3749999999999953
 40
0.3749999999999953
 40
0.4374999999999971
 40
0.4374999999999971
 40
0.499999999999999
 40
0.499999999999999
 40
0.6249999999999993
 40
0.6249999999999993
 40
0.7499999999999999
 40
0.7499999999999999
 40
0.8750000000000003
 40
0.8750000000000003
 40
0.9375000000000002
 40
0.9375000000000002
 40
0.9687500000000001
 40
0.9687500000000001
 40
1.0
 40
1.0
 40
1.0
 40
1.0
 10
168.0160959850943
 20
374.9033557719185
 30
0.0
 10
167.9826452647443
 20
374.8978708382145
 30
0.0
 10
167.9492668965358
 20
374.8857002812571
 30
0.0
 10
167.8814954156641
 20
374.8586159437601
 30
0.0
 10
167.8468837769484
 20
374.8415166751683
 30
0.0
 10
167.7710012186251
 20
374.802916251585
 30
0.0
 10
167.72894331307
 20
374.7768068443926
 30
0.0
 10
167.6305323111389
 20
374.7244174147643
 30
0.0
 10
167.5743050177011
 20
374.6963134872663
 30
0.0
 10
167.3747106900663
 20
374.6067558049456
 30
0.0
 10
167.1954267787115
 20
374.5380105797278
 30
0.0
 10
166.8484987473371
 20
374.4488744027923
 30
0.0
 10
166.7202270216557
 20
374.4207289580904
 30
0.0
 10
166.4352459553555
 20
374.3671533174345
 30
0.0
 10
166.2771854831209
 20
374.3413199693347
 30
0.0
 10
165.7727812526184
 20
374.2741582248844
 30
0.0
 10
165.3942382077017
 20
374.2481980825837
 30
0.0
 10
164.5665323961384
 20
374.2175213234141
 30
0.0
 10
164.1328117073281
 20
374.2130879972988
 30
0.0
 10
163.2383621286559
 20
374.2201522160622
 30
0.0
 10
162.777006660553
 20
374.2308664499939
 30
0.0
 10
162.0853027781326
 20
374.2474750608122
 30
0.0
 10
161.8539115068806
 20
374.2523553437101
 30
0.0
 10
161.5061570000655
 20
374.2584804727898
 30
0.0
 10
161.3901251177569
 20
374.2603517955997
 30
0.0
 10
161.1582850190126
 20
374.2646057361594
 30
0.0
 10
161.0413770359667
 20
374.2671730170421
 30
0.0
 10
160.9267706533516
 20
374.2691451662606
 30
0.0
  0
SPLINE
  5
161
330
1F
100
AcDbEntity
  8
0
  6
Continuous
 62
     8
370
    18
100
AcDbSpline
210
0.0
220
0.0
230
1.0
 70
     8
 71
     3
 72
    28
 73
    24
 74
     0
 42
0.000000001
 43
0.00000001
 40
0.0
 40
0.0
 40
0.0
 40
0.0
 40
0.1249999999999999
 40
0.1249999999999999
 40
0.2499999999999999
 40
0.2499999999999999
 40
0.3749999999999998
 40
0.3749999999999998
 40
0.4374999999999991
 40
0.4374999999999991
 40
0.4999999999999983
 40
0.4999999999999983
 40
0.5624999999999976
 40
0.5624999999999976
 40
0.6249999999999968
 40
0.6249999999999968
 40
0.6874999999999959
 40
0.6874999999999959
 40
0.7499999999999951
 40
0.7499999999999951
 40
0.8749999999999977
 40
0.8749999999999977
 40
1.0
 40
1.0
 40
1.0
 40
1.0
 10
160.8740965665401
 20
376.0236272277206
 30
0.0
 10
161.2770633986958
 20
376.0166226367069
 30
0.0
 10
161.6815031579351
 20
376.0067370389713
 30
0.0
 10
162.4853034651957
 20
375.9899923916353
 30
0.0
 10
162.8874850962352
 20
375.9823265285376
 30
0.0
 10
163.6716288841774
 20
375.9717326265691
 30
0.0
 10
164.0517575335958
 20
375.9691288308193
 30
0.0
 10
164.5934044097785
 20
375.9707267392531
 30
0.0
 10
164.7679392824932
 20
375.9721014934519
 30
0.0
 10
165.0954488772789
 20
375.976513336668
 30
0.0
 10
165.2496191253769
 20
375.9795535756039
 30
0.0
 10
165.5351372201326
 20
375.9877458132068
 30
0.0
 10
165.667054504881
 20
375.992962772509
 30
0.0
 10
165.9015112277559
 20
376.0045119776568
 30
0.0
 10
166.00552480645
 20
376.0108718812851
 30
0.0
 10
166.1906631341795
 20
376.0243596518023
 30
0.0
 10
166.2719409857049
 20
376.0315494265923
 30
0.0
 10
166.4126045500545
 20
376.0465066454987
 30
0.0
 10
166.4722132051531
 20
376.0542191119391
 30
0.0
 10
166.6292576844012
 20
376.0779866525194
 30
0.0
 10
166.7047046843711
 20
376.094873136602
 30
0.0
 10
166.8380888142778
 20
376.130637199928
 30
0.0
 10
166.8976847850607
 20
376.1489813109249
 30
0.0
 10
166.9598769951601
 20
376.1666571091872
 30
0.0
  0
SPLINE
  5
162
330
1F
100
AcDbEntity
  8
0
  6
Continuous
 62
     8
370
    18
100
AcDbSpline
210
0.0
220
0.0
230
1.0
 70
     8
 71
     3
 72
    10
 73
     6
 74
     0
 42
0.000000001
 43
0.00000001
 40
0.0411836683844229
 40
0.0411836683844229
 40
0.0411836683844229
 40
0.0411836683844229
 40
0.4022034504429702
 40
0.4449280598179702
 40
0.4703947820585474
 40
0.4703947820585474
 40
0.4703947820585474
 40
0.4703947820585474
 10
158.6800400976375
 20
362.4516912766866
 30
0.0
 10
159.5830073998868
 20
364.8712020456939
 30
0.0
 10
160.5389207760345
 20
368.4047433217239
 30
0.0
 10
160.8822491237896
 20
373.1846891464533
 30
0.0
 10
160.9168066018356
 20
373.971193966188
 30
0.0
 10
160.926763779481
 20
374.2689396049151
 30
0.0
  0
SPLINE
  5
163
330
1F
100
AcDbEntity
  8
0
  6
Continuous
 62
     8
370
    18
100
AcDbSpline
210
0.0
220
0.0
230
1.0
 70
     8
 71
     3
 72
    12
 73
     8
 74
     0
 42
0.000000001
 43
0.00000001
 40
0.0411942870555923
 40
0.0411942870555923
 40
0.0411942870555923
 40
0.0411942870555923
 40
0.066650390625
 40
0.109375
 40
0.18115234375
 40
0.30078125
 40
0.4703940046550592
 40
0.4703940046550592
 40
0.4703940046550592
 40
0.4703940046550592
 10
138.1229861348166
 20
374.2692931969927
 30
0.0
 10
138.132941618593
 20
373.9717220219798
 30
0.0
 10
138.1674968275913
 20
373.1845708907248
 30
0.0
 10
138.2794500525406
 20
371.6259161694923
 30
0.0
 10
138.5708281516513
 20
369.1766031741737
 30
0.0
 10
139.2401714481771
 20
365.8051674558956
 30
0.0
 10
139.9454634263723
 20
363.5881522432836
 30
0.0
 10
140.3696915265848
 20
362.4514616122254
 30
0.0
  0
SPLINE
  5
164
330
1F
100
AcDbEntity
  8
0
  6
Continuous
 62
     8
370
    18
100
AcDbSpline
210
0.0
220
0.0
230
1.0
 70
     8
 71
     3
 72
    10
 73
     6
 74
     0
 42
0.000000001
 43
0.00000001
 40
0.0
 40
0.0
 40
0.0
 40
0.0
 40
0.5580484109885955
 40
0.8370974727254465
 40
1.0
 40
1.0
 40
1.0
 40
1.0
 10
171.7407659461169
 20
377.7098394226787
 30
0.0
 10
172.0492984493862
 20
377.8469546302617
 30
0.0
 10
172.5121109467516
 20
378.0526335489358
 30
0.0
 10
172.6693824573909
 20
378.1994260827339
 30
0.0
 10
172.5561044700608
 20
378.2398462772749
 30
0.0
 10
172.5143504162697
 20
378.2547450852153
 30
0.0
  0
SPLINE
  5
165
330
1F
100
AcDbEntity
  8
0
  6
Continuous
 62
     8
370
    18
100
AcDbSpline
210
0.0
220
0.0
230
1.0
 70
     8
 71
     3
 72
    12
 73
     8
 74
     0
 42
0.000000001
 43
0.00000001
 40
0.0
 40
0.0
 40
0.0
 40
0.0
 40
0.2500000000000004
 40
0.2500000000000004
 40
0.5000000000000009
 40
0.5000000000000009
 40
1.0
 40
1.0
 40
1.0
 40
1.0
 10
170.0323704783852
 20
377.0882951589024
 30
0.0
 10
170.2070007121247
 20
377.1497517474867
 30
0.0
 10
170.3778387431568
 20
377.2080018782785
 30
0.0
 10
170.6985763368913
 20
377.3205770001452
 30
0.0
 10
170.8507336227968
 20
377.3744949168605
 30
0.0
 10
171.2798495868037
 20
377.5295510948649
 30
0.0
 10
171.5271734308436
 20
377.6245009000597
 30
0.0
 10
171.7406417247407
 20
377.7098645884508
 30
0.0
  0
SPLINE
  5
166
330
1F
100
AcDbEntity
  8
0
  6
Continuous
 62
     8
370
    18
100
AcDbSpline
210
0.0
220
0.0
230
1.0
 70
     8
 71
     3
 72
    14
 73
    10
 74
     0
 42
0.000000001
 43
0.00000001
 40
0.0
 40
0.0
 40
0.0
 40
0.0
 40
0.5000000000000009
 40
0.5000000000000009
 40
0.7500000000000006
 40
0.7500000000000006
 40
0.8750000000000003
 40
0.8750000000000003
 40
1.0
 40
1.0
 40
1.0
 40
1.0
 10
166.9598503191832
 20
376.1666602538685
 30
0.0
 10
167.6410963441356
 20
376.3606912152714
 30
0.0
 10
168.2056949897014
 20
376.5193726498843
 30
0.0
 10
168.9603548711027
 20
376.7436543284592
 30
0.0
 10
169.1973038563782
 20
376.8151368128313
 30
0.0
 10
169.5303012544928
 20
376.919209888548
 30
0.0
 10
169.6374801683053
 20
376.9533698322161
 30
0.0
 10
169.8418702263198
 20
377.0212302930662
 30
0.0
 10
169.9381033038406
 20
377.0551202679403
 30
0.0
 10
170.0323704783852
 20
377.0882951589024
 30
0.0
  0
SPLINE
  5
167
330
1F
100
AcDbEntity
  8
0
  6
Continuous
 62
     8
370
    18
100
AcDbSpline
210
0.0
220
0.0
230
1.0
 70
    24
 71
     3
 72
   102
 73
    98
 74
     0
 42
0.000000001
 43
0.00000001
 40
0.1708576508463762
 40
0.1708576508463762
 40
0.1708576508463762
 40
0.1708576508463762
 40
0.1808336024868595
 40
0.1918466728647771
 40
0.2017808085589613
 40
0.2095861807701294
 40
0.2169301481303612
 40
0.2227004156038637
 40
0.2322997101764061
 40
0.2398420520237987
 40
0.25
 40
0.2522301521508456
 40
0.2619637692192302
 40
0.2707583965025984
 40
0.2776685317790061
 40
0.2982068017071779
 40
0.3143445202582716
 40
0.3251030767673603
 40
0.3335564034706222
 40
0.3521336853978338
 40
0.3667307464935324
 40
0.3763028193571563
 40
0.3838239258822334
 40
0.3869753182798154
 40
0.3894514344575846
 40
0.4060681313701999
 40
0.4191247782093371
 40
0.4333011059339565
 40
0.4444401923115884
 40
0.4596094617891761
 40
0.4715288463349626
 40
0.4761471145295427
 40
0.4797758192058657
 40
0.4913013749644893
 40
0.500357592155549
 40
0.513566088811173
 40
0.5239447835738628
 40
0.5420575560227678
 40
0.5562902171779747
 40
0.5675370832316591
 40
0.5763743986079991
 40
0.5959447479225966
 40
0.6113229495716875
 40
0.6211205709054461
 40
0.625
 40
0.6288191226552685
 40
0.6397920387927515
 40
0.648414187027504
 40
0.6589854807112381
 40
0.6672920712468016
 40
0.6751260427757252
 40
0.6812815919236294
 40
0.6875
 40
0.695974545649405
 40
0.7106691883275381
 40
0.7337646363543967
 40
0.7484644734288411
 40
0.75
 40
0.7631666924538056
 40
0.7862760000982206
 40
0.7899885777936352
 40
0.8125
 40
0.8173355320499024
 40
0.838834843522084
 40
0.8414352753797129
 40
0.8434786316154032
 40
0.8619326849065616
 40
0.875
 40
0.8764436556780364
 40
0.8848685794440205
 40
0.890625
 40
0.8914920276172706
 40
0.8915921471880712
 40
0.8945489536251368
 40
0.8969514752221123
 40
0.897107759716842
 40
0.8999244200917231
 40
0.9000968732756467
 40
0.9022684695999709
 40
0.9024391372807729
 40
0.9051938471355404
 40
0.9053391670893559
 40
0.90625
 40
0.9075061536552294
 40
0.9131197944915022
 40
0.9131197944915022
 40
0.9131714338150144
 40
0.9140625
 40
0.9177345818473905
 40
0.9202162023448053
 40
0.9204443312516144
 40
0.9223715092628997
 40
0.9226237195962741
 40
0.9274931306606122
 40
0.9296875
 40
0.9316674529880639
 40
0.9333813624924199
 40
0.9333813624924199
 40
0.9333813624924199
 40
0.9333813624924199
 10
149.5248687287239
 20
380.9537426130119
 30
0.0
 10
149.5248687287239
 20
380.9480472335758
 30
0.0
 10
149.5248687287239
 20
380.9357135638207
 30
0.0
 10
149.5248687287238
 20
380.9164556049756
 30
0.0
 10
149.5248687287238
 20
380.8975416616847
 30
0.0
 10
149.5248687287238
 20
380.8802972563103
 30
0.0
 10
149.5248687287238
 20
380.86538575012
 30
0.0
 10
149.5248687287238
 20
380.8486979206481
 30
0.0
 10
149.5248687287238
 20
380.8312762719324
 30
0.0
 10
149.5248687287238
 20
380.8097373347175
 30
0.0
 10
149.5248687287238
 20
380.7934240479659
 30
0.0
 10
149.5248687287238
 20
380.7748603176183
 30
0.0
 10
149.5248687287238
 20
380.7570265627687
 30
0.0
 10
149.5248687287238
 20
380.7343859035943
 30
0.0
 10
149.5248687287238
 20
380.7011788833445
 30
0.0
 10
149.5248687287238
 20
380.6592462997928
 30
0.0
 10
149.5248687287238
 20
380.6107031092753
 30
0.0
 10
149.5248687287238
 20
380.5729365034917
 30
0.0
 10
149.5248687287238
 20
380.5313480658671
 30
0.0
 10
149.5248687287238
 20
380.4836504702936
 30
0.0
 10
149.5248687287238
 20
380.4322932312722
 30
0.0
 10
149.5248687287238
 20
380.3929340001142
 30
0.0
 10
149.5248687287238
 20
380.3672092537415
 30
0.0
 10
149.5248687287238
 20
380.3502656129653
 30
0.0
 10
149.5248687287238
 20
380.3213908560579
 30
0.0
 10
149.5248687287238
 20
380.2786268957791
 30
0.0
 10
149.5248687287238
 20
380.2181114114712
 30
0.0
 10
149.5248687287238
 20
380.1633966055829
 30
0.0
 10
149.5248687287237
 20
380.1039430701886
 30
0.0
 10
149.5248687287237
 20
380.0461088629681
 30
0.0
 10
149.5248687287237
 20
379.9966910317465
 30
0.0
 10
149.5248687287237
 20
379.9646971495499
 30
0.0
 10
149.5248687287237
 20
379.9330527486736
 30
0.0
 10
149.5248687287237
 20
379.8936861438045
 30
0.0
 10
149.5248687287237
 20
379.8375673887078
 30
0.0
 10
149.5248687287237
 20
379.7821245026173
 30
0.0
 10
149.5248687287237
 20
379.7096353685218
 30
0.0
 10
149.5248687287237
 20
379.6333050552689
 30
0.0
 10
149.5248687287237
 20
379.5530341399755
 30
0.0
 10
149.5248687287237
 20
379.4883600848997
 30
0.0
 10
149.5248687287237
 20
379.4122749182993
 30
0.0
 10
149.5248687287237
 20
379.3261509690503
 30
0.0
 10
149.5248687287237
 20
379.2354800095227
 30
0.0
 10
149.5248687287237
 20
379.1753597492666
 30
0.0
 10
149.5248687287237
 20
379.138749868507
 30
0.0
 10
149.5248687287236
 20
379.0994360135744
 30
0.0
 10
149.5248687287236
 20
379.049584183324
 30
0.0
 10
149.5248687287236
 20
378.9845992985757
 30
0.0
 10
149.5248687287236
 20
378.924812381493
 30
0.0
 10
149.5248687287236
 20
378.8663696572652
 30
0.0
 10
149.5248687287236
 20
378.8174098477937
 30
0.0
 10
149.5248687287236
 20
378.7729586316668
 30
0.0
 10
149.5248687287236
 20
378.7270735692573
 30
0.0
 10
149.5248687287236
 20
378.6624301472143
 30
0.0
 10
149.5248687287236
 20
378.5603477873549
 30
0.0
 10
149.5248687287236
 20
378.4426567041386
 30
0.0
 10
149.5248687287236
 20
378.3515475119676
 30
0.0
 10
149.5248687287236
 20
378.2821888874813
 30
0.0
 10
149.5248687287236
 20
378.191499947433
 30
0.0
 10
149.5248687287236
 20
378.090892539921
 30
0.0
 10
149.5248687287236
 20
377.9612062692507
 30
0.0
 10
149.5248687287236
 20
377.8760030517047
 30
0.0
 10
149.5248687287236
 20
377.7349145110202
 30
0.0
 10
149.5248687287236
 20
377.645720067885
 30
0.0
 10
149.5248687287236
 20
377.5537669615803
 30
0.0
 10
149.5248687287236
 20
377.4713558776693
 30
0.0
 10
149.5248687287236
 20
377.338778286529
 30
0.0
 10
149.5248687287236
 20
377.1958849818122
 30
0.0
 10
149.5248687287236
 20
377.0923954245111
 30
0.0
 10
149.5248687287236
 20
377.0200520971267
 30
0.0
 10
149.5248687287235
 20
376.9451160717666
 30
0.0
 10
149.5248687287235
 20
376.9101355483369
 30
0.0
 10
149.5248687287235
 20
376.8895883972299
 30
0.0
 10
149.5248687287235
 20
376.8603963345486
 30
0.0
 10
149.5248687287235
 20
376.8297579115575
 30
0.0
 10
149.5248687287235
 20
376.7993049597859
 30
0.0
 10
149.5248687287235
 20
376.7810803512062
 30
0.0
 10
149.5248687287235
 20
376.7504441378227
 30
0.0
 10
149.5248687287235
 20
376.7352333641387
 30
0.0
 10
149.5248687287235
 20
376.7037920950849
 30
0.0
 10
149.5248687287235
 20
376.6843879276884
 30
0.0
 10
149.5248687287235
 20
376.6596916178869
 30
0.0
 10
149.5248687287235
 20
376.6445702813719
 30
0.0
 10
149.5248687287235
 20
376.5927236207145
 30
0.0
 10
149.5248687287235
 20
376.5445596302321
 30
0.0
 10
149.5248687287235
 20
376.5042107437401
 30
0.0
 10
149.5248687287235
 20
376.4974907580124
 30
0.0
 10
149.5248687287235
 20
376.4645055486413
 30
0.0
 10
149.5248687287235
 20
376.4136149583716
 30
0.0
 10
149.5248687287235
 20
376.3676892715567
 30
0.0
 10
149.5248687287235
 20
376.3345336545231
 30
0.0
 10
149.5248687287235
 20
376.317413412906
 30
0.0
 10
149.5248687287235
 20
376.267724856193
 30
0.0
 10
149.5248687287235
 20
376.2172679086727
 30
0.0
 10
149.5248687287235
 20
376.158449209197
 30
0.0
 10
149.5248687287235
 20
376.1218073745687
 30
0.0
 10
149.5248687287235
 20
376.0998826487381
 30
0.0
 10
149.5248687287235
 20
376.08996516881
 30
0.0
  0
SPLINE
  5
168
330
1F
100
AcDbEntity
  8
0
  6
Continuous
 62
     8
370
    18
100
AcDbSpline
210
0.0
220
0.0
230
1.0
 70
     8
 71
     3
 72
    14
 73
    10
 74
     0
 42
0.000000001
 43
0.00000001
 40
0.0
 40
0.0
 40
0.0
 40
0.0
 40
0.125
 40
0.125
 40
0.25
 40
0.25
 40
0.5
 40
0.5
 40
1.0
 40
1.0
 40
1.0
 40
1.0
 10
129.0173669790582
 20
377.0882951589037
 30
0.0
 10
129.1116285141831
 20
377.0551222525895
 30
0.0
 10
129.2078556083609
 20
377.0212343263314
 30
0.0
 10
129.4122322385722
 20
376.9533779750615
 30
0.0
 10
129.5194039596296
 20
376.9192201389482
 30
0.0
 10
129.8523786289907
 20
376.8151536470624
 30
0.0
 10
130.0893111539807
 20
376.7436759019081
 30
0.0
 10
130.8439145491994
 20
376.5194099787986
 30
0.0
 10
131.40847845679
 20
376.3607429259392
 30
0.0
 10
132.0896427229363
 20
376.1667298686601
 30
0.0
  0
SPLINE
  5
169
330
1F
100
AcDbEntity
  8
0
  6
Continuous
 62
     8
370
    18
100
AcDbSpline
210
0.0
220
0.0
230
1.0
 70
     8
 71
     3
 72
    12
 73
     8
 74
     0
 42
0.000000001
 43
0.00000001
 40
0.0
 40
0.0
 40
0.0
 40
0.0
 40
0.5
 40
0.5
 40
0.75
 40
0.75
 40
1.0
 40
1.0
 40
1.0
 40
1.0
 10
127.3090570755801
 20
377.7098800470368
 30
0.0
 10
127.5225282360591
 20
377.6245150549045
 30
0.0
 10
127.7698555432447
 20
377.5295630407412
 30
0.0
 10
128.1989811119387
 20
377.3745029951032
 30
0.0
 10
128.3511422452718
 20
377.3205836602381
 30
0.0
 10
128.6718885242651
 20
377.2080054197706
 30
0.0
 10
128.8427314719903
 20
377.1497536032994
 30
0.0
 10
129.0173669790583
 20
377.0882951589037
 30
0.0
  0
SPLINE
  5
16A
330
1F
100
AcDbEntity
  8
0
  6
Continuous
 62
     8
370
    18
100
AcDbSpline
210
0.0
220
0.0
230
1.0
 70
     8
 71
     3
 72
    10
 73
     6
 74
     0
 42
0.000000001
 43
0.00000001
 40
0.0
 40
0.0
 40
0.0
 40
0.0
 40
0.1644319960759946
 40
0.4430879471248168
 40
1.0
 40
1.0
 40
1.0
 40
1.0
 10
126.5365996231703
 20
378.2553411316631
 30
0.0
 10
126.4942972125637
 20
378.2402835469695
 30
0.0
 10
126.3803066953807
 20
378.1997085101776
 30
0.0
 10
126.5373447036176
 20
378.0527009377759
 30
0.0
 10
127.000342748734
 20
377.8469732798035
 30
0.0
 10
127.308934258428
 20
377.7098543238399
 30
0.0
  0
LINE
  5
16B
330
1F
100
AcDbEntity
  8
0
  6
Continuous
 62
     8
370
    18
100
AcDbLine
 10
126.3541796078
 20
372.4094740343
 30
0.0
 11
126.3541796078
 21
376.5341601562
 31
0.0
  0
SPLINE
  5
16C
330
1F
100
AcDbEntity
  8
0
  6
Continuous
 62
     8
370
    18
100
AcDbSpline
210
0.0
220
0.0
230
1.0
 70
     8
 71
     3
 72
    14
 73
    10
 74
     0
 42
0.000000001
 43
0.00000001
 40
0.0
 40
0.0
 40
0.0
 40
0.0
 40
0.25
 40
0.25
 40
0.5
 40
0.5
 40
0.75
 40
0.75
 40
1.0
 40
1.0
 40
1.0
 40
1.0
 10
128.0286189634913
 20
375.90718974348
 30
0.0
 10
127.857300434289
 20
375.9648633025257
 30
0.0
 10
127.6898405881556
 20
376.0256060644528
 30
0.0
 10
127.3753958229867
 20
376.1392037345177
 30
0.0
 10
127.2262098836468
 20
376.1940089517348
 30
0.0
 10
126.9457467561436
 20
376.2988815543224
 30
0.0
 10
126.8144589596264
 20
376.3490024185708
 30
0.0
 10
126.570960880259
 20
376.4439292302089
 30
0.0
 10
126.458727851901
 20
376.4878291647385
 30
0.0
 10
126.3543025867281
 20
376.5341041945282
 30
0.0
  0
SPLINE
  5
16D
330
1F
100
AcDbEntity
  8
0
  6
Continuous
 62
     8
370
    18
100
AcDbSpline
210
0.0
220
0.0
230
1.0
 70
     8
 71
     3
 72
    20
 73
    16
 74
     0
 42
0.000000001
 43
0.00000001
 40
0.0
 40
0.0
 40
0.0
 40
0.0
 40
0.0624999999999997
 40
0.0624999999999997
 40
0.1249999999999994
 40
0.1249999999999994
 40
0.2499999999999988
 40
0.2499999999999988
 40
0.4999999999999992
 40
0.4999999999999992
 40
0.7499999999999997
 40
0.7499999999999997
 40
0.8749999999999998
 40
0.8749999999999998
 40
1.0
 40
1.0
 40
1.0
 40
1.0
 10
131.0338038211917
 20
374.9042759492949
 30
0.0
 10
130.9525577123042
 20
374.9332810599336
 30
0.0
 10
130.8726488204379
 20
374.9573650294968
 30
0.0
 10
130.7155370495359
 20
375.00736614953
 30
0.0
 10
130.638609043125
 20
375.0322285623364
 30
0.0
 10
130.4119508945341
 20
375.1057978499155
 30
0.0
 10
130.2662670478585
 20
375.1533122699766
 30
0.0
 10
129.8430624654986
 20
375.2913355869792
 30
0.0
 10
129.5804255134106
 20
375.3781736307717
 30
0.0
 10
129.0848539406521
 20
375.5458395744946
 30
0.0
 10
128.8509796280395
 20
375.6269183541223
 30
0.0
 10
128.5226425476795
 20
375.740807632757
 30
0.0
 10
128.4170159556722
 20
375.7775272863583
 30
0.0
 10
128.2157962025717
 20
375.846052200539
 30
0.0
 10
128.1211789893227
 20
375.8760298558724
 30
0.0
 10
128.0286189634913
 20
375.9071897434801
 30
0.0
  0
SPLINE
  5
16E
330
1F
100
AcDbEntity
  8
0
  6
Continuous
 62
     8
370
    18
100
AcDbSpline
210
0.0
220
0.0
230
1.0
 70
     8
 71
     3
 72
    20
 73
    16
 74
     0
 42
0.000000001
 43
0.00000001
 40
0.0
 40
0.0
 40
0.0
 40
0.0
 40
0.125
 40
0.125
 40
0.2500000000000001
 40
0.2500000000000001
 40
0.5000000000000001
 40
0.5000000000000001
 40
0.7500000000000002
 40
0.7500000000000002
 40
0.8750000000000009
 40
0.8750000000000009
 40
0.9375000000000004
 40
0.9375000000000004
 40
1.0
 40
1.0
 40
1.0
 40
1.0
 10
171.0211184939522
 20
375.9071897434788
 30
0.0
 10
170.9285589443954
 20
375.8760300162068
 30
0.0
 10
170.833938952818
 20
375.846051459362
 30
0.0
 10
170.6327091163982
 20
375.7775230257608
 30
0.0
 10
170.527078844288
 20
375.7408020598907
 30
0.0
 10
170.1987346275137
 20
375.6269103067175
 30
0.0
 10
169.9648625941211
 20
375.5458323997432
 30
0.0
 10
169.4692956836407
 20
375.3781682254415
 30
0.0
 10
169.206661314703
 20
375.2913311134218
 30
0.0
 10
168.7834613120685
 20
375.1533093093656
 30
0.0
 10
168.6377791037441
 20
375.1057954167266
 30
0.0
 10
168.4111235907415
 20
375.0322270027229
 30
0.0
 10
168.3341964932359
 20
375.0073648937652
 30
0.0
 10
168.1770866160882
 20
374.957364396247
 30
0.0
 10
168.0971787204625
 20
374.9332806941196
 30
0.0
 10
168.0159336362554
 20
374.9042759492949
 30
0.0
  0
SPLINE
  5
16F
330
1F
100
AcDbEntity
  8
0
  6
Continuous
 62
     8
370
    18
100
AcDbSpline
210
0.0
220
0.0
230
1.0
 70
     8
 71
     3
 72
    14
 73
    10
 74
     0
 42
0.000000001
 43
0.00000001
 40
0.0
 40
0.0
 40
0.0
 40
0.0
 40
0.25
 40
0.25
 40
0.5
 40
0.5
 40
0.75
 40
0.75
 40
1.0
 40
1.0
 40
1.0
 40
1.0
 10
172.6954348707194
 20
376.5341041945282
 30
0.0
 10
172.5910096062231
 20
376.4878291650386
 30
0.0
 10
172.4787765775461
 20
376.4439292303351
 30
0.0
 10
172.2352784930046
 20
376.3490024167059
 30
0.0
 10
172.1039906916162
 20
376.2988815506228
 30
0.0
 10
171.8235275485118
 20
376.194008942356
 30
0.0
 10
171.6743416196981
 20
376.1392037291445
 30
0.0
 10
171.3598968641865
 20
376.0256060626486
 30
0.0
 10
171.1924370209358
 20
375.964863301777
 30
0.0
 10
171.0211184939522
 20
375.9071897434787
 30
0.0
  0
LINE
  5
170
330
1F
100
AcDbEntity
  8
0
  6
Continuous
 62
     8
370
    18
100
AcDbLine
 10
172.6955578496
 20
372.4094740343
 30
0.0
 11
172.6955578496
 21
376.5341601562
 31
0.0
  0
SPLINE
  5
171
330
1F
100
AcDbEntity
  8
0
  6
Continuous
 62
     8
370
    18
100
AcDbSpline
210
0.0
220
0.0
230
1.0
 70
     8
 71
     3
 72
    10
 73
     6
 74
     0
 42
0.000000001
 43
0.00000001
 40
0.0
 40
0.0
 40
0.0
 40
0.0
 40
0.5000000000000001
 40
0.5000000000000001
 40
1.0
 40
1.0
 40
1.0
 40
1.0
 10
159.8812042399971
 20
414.2649206013439
 30
0.0
 10
158.1599187610485
 20
414.2989198385363
 30
0.0
 10
156.4345117645948
 20
414.3173943820332
 30
0.0
 10
152.9812643577766
 20
414.3396244528707
 30
0.0
 10
151.2529421171198
 20
414.3433717736545
 30
0.0
 10
149.524868728724
 20
414.3428731346542
 30
0.0
  0
SPLINE
  5
172
330
1F
100
AcDbEntity
  8
0
  6
Continuous
 62
     8
370
    18
100
AcDbSpline
210
0.0
220
0.0
230
1.0
 70
     8
 71
     3
 72
    10
 73
     6
 74
     0
 42
0.000000001
 43
0.00000001
 40
0.0
 40
0.0
 40
0.0
 40
0.0
 40
0.5000000000000001
 40
0.5000000000000001
 40
1.0
 40
1.0
 40
1.0
 40
1.0
 10
149.524868728724
 20
415.9356816676138
 30
0.0
 10
151.2489201571057
 20
415.9354915929755
 30
0.0
 10
152.9730171222626
 20
415.9323621128472
 30
0.0
 10
156.4184034026746
 20
415.9132404786405
 30
0.0
 10
158.1389510279855
 20
415.8972127105508
 30
0.0
 10
159.8552677924413
 20
415.8663621356816
 30
0.0
  0
SPLINE
  5
173
330
1F
100
AcDbEntity
  8
0
  6
Continuous
 62
     8
370
    18
100
AcDbSpline
210
0.0
220
0.0
230
1.0
 70
     8
 71
     3
 72
    10
 73
     6
 74
     0
 42
0.000000001
 43
0.00000001
 40
0.0
 40
0.0
 40
0.0
 40
0.0
 40
0.4999999999999999
 40
0.4999999999999999
 40
1.0
 40
1.0
 40
1.0
 40
1.0
 10
149.524868728724
 20
415.9356816676138
 30
0.0
 10
147.8008173003144
 20
415.9354917458669
 30
0.0
 10
146.0767203351854
 20
415.9323621128471
 30
0.0
 10
142.6313340547734
 20
415.9132404786403
 30
0.0
 10
140.9107864294625
 20
415.8972127105508
 30
0.0
 10
139.1944696650067
 20
415.8663621356816
 30
0.0
  0
SPLINE
  5
174
330
1F
100
AcDbEntity
  8
0
  6
Continuous
 62
     8
370
    18
100
AcDbSpline
210
0.0
220
0.0
230
1.0
 70
     8
 71
     3
 72
    10
 73
     6
 74
     0
 42
0.000000001
 43
0.00000001
 40
0.0
 40
0.0
 40
0.0
 40
0.0
 40
0.5
 40
0.5
 40
1.0
 40
1.0
 40
1.0
 40
1.0
 10
139.1685332174509
 20
414.2649206013439
 30
0.0
 10
140.8898186872605
 20
414.298919423962
 30
0.0
 10
142.6152256928531
 20
414.3173943820332
 30
0.0
 10
146.0684730996713
 20
414.3396244528706
 30
0.0
 10
147.7967953404886
 20
414.343371477258
 30
0.0
 10
149.524868728724
 20
414.3428731346542
 30
0.0
  0
SPLINE
  5
175
330
1F
100
AcDbEntity
  8
0
  6
Continuous
 62
     8
370
    18
100
AcDbSpline
210
0.0
220
0.0
230
1.0
 70
     8
 71
     3
 72
    15
 73
    11
 74
     0
 42
0.000000001
 43
0.00000001
 40
0.0
 40
0.0
 40
0.0
 40
0.0
 40
0.0625000000000025
 40
0.0625000000000025
 40
0.1250000000000051
 40
0.2500000000000103
 40
0.2500000000000103
 40
0.500000000000007
 40
0.500000000000007
 40
1.0
 40
1.0
 40
1.0
 40
1.0
 10
133.9662431476519
 20
416.0466298668099
 30
0.0
 10
133.9535261594478
 20
416.0484891575488
 30
0.0
 10
133.94413430863
 20
416.0506282637774
 30
0.0
 10
133.9222613545409
 20
416.0545999260902
 30
0.0
 10
133.8896828626165
 20
416.0605307530612
 30
0.0
 10
133.8577526799046
 20
416.0663820985587
 30
0.0
 10
133.7946403772511
 20
416.0779783182397
 30
0.0
 10
133.7535591485746
 20
416.0855696588767
 30
0.0
 10
133.6324357123709
 20
416.1078802019056
 30
0.0
 10
133.554463097316
 20
416.1221487866526
 30
0.0
 10
133.4770927687206
 20
416.1357172744969
 30
0.0
  0
SPLINE
  5
176
330
1F
100
AcDbEntity
  8
0
  6
Continuous
 62
     8
370
    18
100
AcDbSpline
210
0.0
220
0.0
230
1.0
 70
     8
 71
     3
 72
    19
 73
    15
 74
     0
 42
0.000000001
 43
0.00000001
 40
0.0
 40
0.0
 40
0.0
 40
0.0
 40
0.1249999999999999
 40
0.1249999999999999
 40
0.2499999999999999
 40
0.2499999999999999
 40
0.4999999999999998
 40
0.4999999999999998
 40
0.7499999999999997
 40
0.7499999999999997
 40
0.8749999999999922
 40
0.937499999999996
 40
0.937499999999996
 40
1.0
 40
1.0
 40
1.0
 40
1.0
 10
134.5589796682621
 20
415.9495401337433
 30
0.0
 10
134.5255299078739
 20
415.9535524958187
 30
0.0
 10
134.4964039610745
 20
415.958077958124
 30
0.0
 10
134.4381768684567
 20
415.9665730529263
 30
0.0
 10
134.4104047303827
 20
415.9708036752077
 30
0.0
 10
134.3301786761699
 20
415.9834171210757
 30
0.0
 10
134.2808198845302
 20
415.9917179803971
 30
0.0
 10
134.1857242217748
 20
416.0079453010106
 30
0.0
 10
134.1398694497468
 20
416.0158733409075
 30
0.0
 10
134.0732533602385
 20
416.0275681963144
 30
0.0
 10
134.0404860947008
 20
416.0333620427032
 30
0.0
 10
134.0084539410377
 20
416.0390758616975
 30
0.0
 10
133.9872540055181
 20
416.0428678479848
 30
0.0
 10
133.9782273031734
 20
416.0449197379655
 30
0.0
 10
133.9662431476519
 20
416.0466298668099
 30
0.0
  0
SPLINE
  5
177
330
1F
100
AcDbEntity
  8
0
  6
Continuous
 62
     8
370
    18
100
AcDbSpline
210
0.0
220
0.0
230
1.0
 70
     8
 71
     3
 72
    22
 73
    18
 74
     0
 42
0.000000001
 43
0.00000001
 40
0.0
 40
0.0
 40
0.0
 40
0.0
 40
0.2500000000000034
 40
0.2500000000000034
 40
0.3750000000000039
 40
0.3750000000000039
 40
0.5000000000000043
 40
0.5000000000000043
 40
0.6250000000000048
 40
0.6250000000000048
 40
0.7500000000000053
 40
0.7500000000000053
 40
0.8750000000000058
 40
0.8750000000000058
 40
0.9375000000000029
 40
0.9375000000000029
 40
1.0
 40
1.0
 40
1.0
 40
1.0
 10
139.1946655127921
 20
415.8663635084554
 30
0.0
 10
138.6658252619961
 20
415.8568741204601
 30
0.0
 10
138.1420361694395
 20
415.8489110077938
 30
0.0
 10
137.3779674305682
 20
415.8441173940087
 30
0.0
 10
137.1248409326799
 20
415.8437862000047
 30
0.0
 10
136.6415729576199
 20
415.846071777976
 30
0.0
 10
136.4116656084879
 20
415.8485120122659
 30
0.0
 10
135.9789434638781
 20
415.855878216209
 30
0.0
 10
135.7769956611978
 20
415.8608316956777
 30
0.0
 10
135.4296859350721
 20
415.873995744401
 30
0.0
 10
135.2803684801809
 20
415.8822232537567
 30
0.0
 10
135.0202341622904
 20
415.9002461116615
 30
0.0
 10
134.9110270223109
 20
415.9099112957748
 30
0.0
 10
134.7662299294138
 20
415.9246596300836
 30
0.0
 10
134.7211656375247
 20
415.9296163352574
 30
0.0
 10
134.6363149515393
 20
415.9395601915809
 30
0.0
 10
134.5977599925622
 20
415.944754537431
 30
0.0
 10
134.5589796682621
 20
415.9495401337433
 30
0.0
  0
SPLINE
  5
178
330
1F
100
AcDbEntity
  8
0
  6
Continuous
 62
     8
370
    18
100
AcDbSpline
210
0.0
220
0.0
230
1.0
 70
     8
 71
     3
 72
    28
 73
    24
 74
     0
 42
0.000000001
 43
0.00000001
 40
0.0
 40
0.0
 40
0.0
 40
0.0
 40
0.25
 40
0.25
 40
0.375
 40
0.375
 40
0.5
 40
0.5
 40
0.5625
 40
0.5625
 40
0.625
 40
0.625
 40
0.6875
 40
0.6875
 40
0.75
 40
0.75
 40
0.8125
 40
0.8125
 40
0.875
 40
0.875
 40
0.9375
 40
0.9375
 40
1.0
 40
1.0
 40
1.0
 40
1.0
 10
132.6138731753111
 20
415.0909025416692
 30
0.0
 10
132.7842032345364
 20
415.0578471273228
 30
0.0
 10
132.9568839905332
 20
415.0086734158072
 30
0.0
 10
133.2597629045918
 20
414.9154741181025
 30
0.0
 10
133.3653334736165
 20
414.8824052898733
 30
0.0
 10
133.6150473524105
 20
414.7991762293547
 30
0.0
 10
133.7623235980147
 20
414.7491854850934
 30
0.0
 10
134.0604408543649
 20
414.6611059982921
 30
0.0
 10
134.1727809695689
 20
414.6290161855192
 30
0.0
 10
134.4365537215128
 20
414.5599743177489
 30
0.0
 10
134.5887928154816
 20
414.5228946669085
 30
0.0
 10
134.9307410509045
 20
414.4513277705574
 30
0.0
 10
135.1226731846263
 20
414.4164435753309
 30
0.0
 10
135.5458617884306
 20
414.3601023756489
 30
0.0
 10
135.7757808964637
 20
414.3373839029489
 30
0.0
 10
136.2517686164555
 20
414.3009579932263
 30
0.0
 10
136.5000190956085
 20
414.2869785319336
 30
0.0
 10
137.0157899386508
 20
414.2659546829391
 30
0.0
 10
137.2798382618791
 20
414.2594691797731
 30
0.0
 10
137.8117140668785
 20
414.2529368388073
 30
0.0
 10
138.0805273802452
 20
414.252649263615
 30
0.0
 10
138.6220318749169
 20
414.2560568629227
 30
0.0
 10
138.8961756655297
 20
414.2597921931614
 30
0.0
 10
139.1685318259142
 20
414.2649238476272
 30
0.0
  0
ARC
  5
179
330
1F
100
AcDbEntity
  8
0
  6
Continuous
 62
     8
370
    18
100
AcDbCircle
 10
133.6140887685
 20
415.1435302281
 30
0.0
 40
1.001600049805779
100
AcDbArc
 50
97.861384019
 51
183.0120688294
  0
SPLINE
  5
17A
330
1F
100
AcDbEntity
  8
0
  6
Continuous
 62
     8
370
    18
100
AcDbSpline
210
0.0
220
0.0
230
1.0
 70
     8
 71
     3
 72
    28
 73
    24
 74
     0
 42
0.000000001
 43
0.00000001
 40
0.0
 40
0.0
 40
0.0
 40
0.0
 40
0.2500000000000001
 40
0.2500000000000001
 40
0.375
 40
0.375
 40
0.5
 40
0.5
 40
0.5625
 40
0.5625
 40
0.625
 40
0.625
 40
0.6875
 40
0.6875
 40
0.75
 40
0.75
 40
0.8125000000000001
 40
0.8125000000000001
 40
0.8750000000000001
 40
0.8750000000000001
 40
0.9375000000000001
 40
0.9375000000000001
 40
1.0
 40
1.0
 40
1.0
 40
1.0
 10
166.4358642821368
 20
415.0909025416692
 30
0.0
 10
166.2655342227098
 20
415.0578468233733
 30
0.0
 10
166.0928534669148
 20
415.0086734158074
 30
0.0
 10
165.7899745528561
 20
414.9154741181025
 30
0.0
 10
165.6844039838315
 20
414.8824052898733
 30
0.0
 10
165.4346901050375
 20
414.7991762293547
 30
0.0
 10
165.2874138594333
 20
414.7491854850936
 30
0.0
 10
164.9892966030831
 20
414.6611059982922
 30
0.0
 10
164.8769564878791
 20
414.6290161855192
 30
0.0
 10
164.6131837359352
 20
414.5599743177489
 30
0.0
 10
164.4609446419663
 20
414.5228946669084
 30
0.0
 10
164.1189964065435
 20
414.4513277705573
 30
0.0
 10
163.9270642728217
 20
414.416443575331
 30
0.0
 10
163.5038756690174
 20
414.3601023756489
 30
0.0
 10
163.2739565609844
 20
414.3373839029489
 30
0.0
 10
162.7979688409926
 20
414.3009579932262
 30
0.0
 10
162.5497183618396
 20
414.2869785319339
 30
0.0
 10
162.0339475187973
 20
414.2659546829393
 30
0.0
 10
161.7698991955689
 20
414.2594691797732
 30
0.0
 10
161.2380233905696
 20
414.2529368388074
 30
0.0
 10
160.9692100772029
 20
414.2526492636151
 30
0.0
 10
160.4277055825312
 20
414.2560568629228
 30
0.0
 10
160.1535618156707
 20
414.2597920118586
 30
0.0
 10
159.8812056315338
 20
414.2649238476272
 30
0.0
  0
SPLINE
  5
17B
330
1F
100
AcDbEntity
  8
0
  6
Continuous
 62
     8
370
    18
100
AcDbSpline
210
0.0
220
0.0
230
1.0
 70
     8
 71
     3
 72
    22
 73
    18
 74
     0
 42
0.000000001
 43
0.00000001
 40
0.0
 40
0.0
 40
0.0
 40
0.0
 40
0.2499999999999986
 40
0.2499999999999986
 40
0.3749999999999978
 40
0.3749999999999978
 40
0.4999999999999971
 40
0.4999999999999971
 40
0.6249999999999964
 40
0.6249999999999964
 40
0.7499999999999957
 40
0.7499999999999957
 40
0.8749999999999949
 40
0.8749999999999949
 40
0.9374999999999974
 40
0.9374999999999974
 40
1.0
 40
1.0
 40
1.0
 40
1.0
 10
159.8550719446559
 20
415.8663635084554
 30
0.0
 10
160.3839121954519
 20
415.85687412046
 30
0.0
 10
160.9077012880085
 20
415.8489110077938
 30
0.0
 10
161.6717700268797
 20
415.8441173940088
 30
0.0
 10
161.9248965247681
 20
415.8437862000047
 30
0.0
 10
162.4081644998281
 20
415.8460717779759
 30
0.0
 10
162.6380718489599
 20
415.8485120122662
 30
0.0
 10
163.0707939935698
 20
415.8558782162091
 30
0.0
 10
163.2727417962503
 20
415.8608316956778
 30
0.0
 10
163.6200515223758
 20
415.873995744401
 30
0.0
 10
163.769368977267
 20
415.8822232537567
 30
0.0
 10
164.0295032951575
 20
415.9002461116615
 30
0.0
 10
164.138710435137
 20
415.9099112957749
 30
0.0
 10
164.2835075280342
 20
415.9246596300836
 30
0.0
 10
164.3285718199232
 20
415.9296163352574
 30
0.0
 10
164.4134225059086
 20
415.9395601915809
 30
0.0
 10
164.4519963802526
 20
415.9447507398631
 30
0.0
 10
164.4907577891859
 20
415.9495401337433
 30
0.0
  0
SPLINE
  5
17C
330
1F
100
AcDbEntity
  8
0
  6
Continuous
 62
     8
370
    18
100
AcDbSpline
210
0.0
220
0.0
230
1.0
 70
     8
 71
     3
 72
    15
 73
    11
 74
     0
 42
0.000000001
 43
0.00000001
 40
0.0
 40
0.0
 40
0.0
 40
0.0
 40
0.4999999999999928
 40
0.4999999999999928
 40
0.7499999999999818
 40
0.7499999999999818
 40
0.8749999999999833
 40
0.9374999999999917
 40
0.9374999999999917
 40
1.0
 40
1.0
 40
1.0
 40
1.0
 10
164.4907577891859
 20
415.9495401337433
 30
0.0
 10
164.6191793257812
 20
415.9666259147726
 30
0.0
 10
164.7213697415401
 20
415.9836043200903
 30
0.0
 10
164.8640132356732
 20
416.0079453010107
 30
0.0
 10
164.9098680077011
 20
416.0158733409075
 30
0.0
 10
164.9764840972095
 20
416.0275681963144
 30
0.0
 10
165.0092513627471
 20
416.0333620427032
 30
0.0
 10
165.0412835164102
 20
416.0390758616975
 30
0.0
 10
165.0624834519298
 20
416.0428678479848
 30
0.0
 10
165.0715301661269
 20
416.0449176945052
 30
0.0
 10
165.083494309796
 20
416.0466298668099
 30
0.0
  0
SPLINE
  5
17D
330
1F
100
AcDbEntity
  8
0
  6
Continuous
 62
     8
370
    18
100
AcDbSpline
210
0.0
220
0.0
230
1.0
 70
     8
 71
     3
 72
     8
 73
     4
 74
     0
 42
0.000000001
 43
0.00000001
 40
0.0
 40
0.0
 40
0.0
 40
0.0
 40
1.0
 40
1.0
 40
1.0
 40
1.0
 10
165.083494309796
 20
416.0466298668099
 30
0.0
 10
165.2609833832009
 20
416.0786822125562
 30
0.0
 10
165.4178761750607
 20
416.1085749973452
 30
0.0
 10
165.5726035607144
 20
416.1357100617936
 30
0.0
  0
ARC
  5
17E
330
1F
100
AcDbEntity
  8
0
  6
Continuous
 62
     8
370
    18
100
AcDbCircle
 10
165.4356773614
 20
415.1435044001
 30
0.0
 40
1.001608730397829
100
AcDbArc
 50
356.989863587
 51
82.1427066009
  0
SPLINE
  5
17F
330
1F
100
AcDbEntity
  8
0
  6
Continuous
 62
     8
370
    18
100
AcDbSpline
210
0.0
220
0.0
230
1.0
 70
     8
 71
     3
 72
    12
 73
     8
 74
     0
 42
0.000000001
 43
0.00000001
 40
0.0
 40
0.0
 40
0.0
 40
0.0
 40
0.25
 40
0.25
 40
0.5
 40
0.5
 40
1.0
 40
1.0
 40
1.0
 40
1.0
 10
165.5726035606834
 20
416.1357100617977
 30
0.0
 10
166.0711019113239
 20
416.2236196045299
 30
0.0
 10
166.5299947117476
 20
416.2863722467553
 30
0.0
 10
167.3807539250851
 20
416.3824174391816
 30
0.0
 10
167.7718551088584
 20
416.415202215847
 30
0.0
 10
168.8463885830757
 20
416.4908810989465
 30
0.0
 10
169.4329536606858
 20
416.5103779181995
 30
0.0
 10
169.8922883524927
 20
416.5063301353097
 30
0.0
  0
SPLINE
  5
180
330
1F
100
AcDbEntity
  8
0
  6
Continuous
 62
     8
370
    18
100
AcDbSpline
210
0.0
220
0.0
230
1.0
 70
     8
 71
     3
 72
    12
 73
     8
 74
     0
 42
0.000000001
 43
0.00000001
 40
0.0
 40
0.0
 40
0.0
 40
0.0
 40
0.25
 40
0.25
 40
0.5
 40
0.5
 40
1.0
 40
1.0
 40
1.0
 40
1.0
 10
133.4770928989711
 20
416.1357172916602
 30
0.0
 10
132.9786001377755
 20
416.223624740424
 30
0.0
 10
132.5197121723652
 20
416.2863761863019
 30
0.0
 10
131.6689616291929
 20
416.3824194238615
 30
0.0
 10
131.2778642643
 20
416.4152036411521
 30
0.0
 10
130.2033408567048
 20
416.4908813603432
 30
0.0
 10
129.6167806486826
 20
416.5103778904576
 30
0.0
 10
129.1574491049553
 20
416.5063301353097
 30
0.0
  0
SPLINE
  5
181
330
1F
100
AcDbEntity
  8
0
  6
Continuous
 62
     8
370
    18
100
AcDbSpline
210
0.0
220
0.0
230
1.0
 70
     8
 71
     3
 72
    10
 73
     6
 74
     0
 42
0.000000001
 43
0.00000001
 40
0.0
 40
0.0
 40
0.0
 40
0.0
 40
0.5
 40
0.5
 40
1.0
 40
1.0
 40
1.0
 40
1.0
 10
171.7407656462389
 20
377.7098386871068
 30
0.0
 10
172.0079164289974
 20
377.6540160422317
 30
0.0
 10
172.2544710168587
 20
377.5036999691945
 30
0.0
 10
172.5988946937747
 20
377.0796159145143
 30
0.0
 10
172.6955421532854
 20
376.8073521082376
 30
0.0
 10
172.6955570071508
 20
376.534217442555
 30
0.0
  0
SPLINE
  5
182
330
1F
100
AcDbEntity
  8
0
  6
Continuous
 62
     8
370
    18
100
AcDbSpline
210
0.0
220
0.0
230
1.0
 70
     8
 71
     3
 72
    10
 73
     6
 74
     0
 42
0.000000001
 43
0.00000001
 40
0.0
 40
0.0
 40
0.0
 40
0.0
 40
0.5
 40
0.5
 40
1.0
 40
1.0
 40
1.0
 40
1.0
 10
126.3541617965864
 20
376.5342254443835
 30
0.0
 10
126.3541766787542
 20
376.8073600146877
 30
0.0
 10
126.4508240956354
 20
377.0796237159759
 30
0.0
 10
126.7952475919371
 20
377.5037076658932
 30
0.0
 10
127.0418020441672
 20
377.6540237416368
 30
0.0
 10
127.3089527111536
 20
377.7098464654304
 30
0.0
  0
SPLINE
  5
183
330
1F
100
AcDbEntity
  8
0
  6
Continuous
 62
     8
370
    18
100
AcDbSpline
210
0.0
220
0.0
230
1.0
 70
     8
 71
     3
 72
    17
 73
    13
 74
     0
 42
0.000000001
 43
0.00000001
 40
0.0
 40
0.0
 40
0.0
 40
0.0
 40
0.155265444991225
 40
0.3091841837290173
 40
0.3859847733573373
 40
0.462640666609014
 40
0.5391653615413415
 40
0.6155709745930804
 40
0.6918918885775399
 40
0.7681575040417021
 40
0.9202667485966379
 40
0.9999999999999999
 40
0.9999999999999999
 40
0.9999999999999999
 40
0.9999999999999999
 10
172.6955578496126
 20
372.4094740342853
 30
0.0
 10
172.6868347525646
 20
371.2384471190666
 30
0.0
 10
172.6694642188922
 20
368.9065502766812
 30
0.0
 10
172.1643103127844
 20
366.019711518505
 30
0.0
 10
171.3975154955893
 20
363.8284454038716
 30
0.0
 10
170.6073900551428
 20
362.2788189147848
 30
0.0
 10
169.5950253771991
 20
360.8669722862842
 30
0.0
 10
168.3788459599136
 20
359.6305083460384
 30
0.0
 10
166.9986494430772
 20
358.5840043575285
 30
0.0
 10
164.9994520509215
 20
357.4477238236025
 30
0.0
 10
162.8239668073102
 20
356.5788697641862
 30
0.0
 10
161.1132153918846
 20
356.2171974701984
 30
0.0
 10
160.5248686691193
 20
356.0928142857311
 30
0.0
  0
SPLINE
  5
184
330
1F
100
AcDbEntity
  8
0
  6
Continuous
 62
     8
370
    18
100
AcDbSpline
210
0.0
220
0.0
230
1.0
 70
     8
 71
     3
 72
    17
 73
    13
 74
     0
 42
0.000000001
 43
0.00000001
 40
0.0
 40
0.0
 40
0.0
 40
0.0
 40
0.155265444991225
 40
0.3091841837290173
 40
0.3859847733573373
 40
0.462640666609014
 40
0.5391653615413415
 40
0.6155709745930804
 40
0.6918918885775399
 40
0.7681575040417021
 40
0.9202667485966379
 40
0.9999999999999999
 40
0.9999999999999999
 40
0.9999999999999999
 40
0.9999999999999999
 10
126.3541796078352
 20
372.4094740342853
 30
0.0
 10
126.3629027048832
 20
371.2384471190666
 30
0.0
 10
126.3802732385557
 20
368.9065502766812
 30
0.0
 10
126.8854271446634
 20
366.019711518505
 30
0.0
 10
127.6522219618586
 20
363.8284454038716
 30
0.0
 10
128.4423474023051
 20
362.2788189147848
 30
0.0
 10
129.4547120802488
 20
360.8669722862842
 30
0.0
 10
130.6708914975343
 20
359.6305083460384
 30
0.0
 10
132.0510880143707
 20
358.5840043575285
 30
0.0
 10
134.0502854065263
 20
357.4477238236025
 30
0.0
 10
136.2257706501377
 20
356.5788697641862
 30
0.0
 10
137.9365220655633
 20
356.2171974701984
 30
0.0
 10
138.5248687883286
 20
356.0928142857311
 30
0.0
  0
SPLINE
  5
185
330
1F
100
AcDbEntity
  8
0
  6
Continuous
 62
     8
370
    18
100
AcDbSpline
210
0.0
220
0.0
230
1.0
 70
     8
 71
     3
 72
    27
 73
    23
 74
     0
 42
0.000000001
 43
0.00000001
 40
0.0
 40
0.0
 40
0.0
 40
0.0
 40
0.3172173042994668
 40
0.4055736495405721
 40
0.4375065871911057
 40
0.469326416335421
 40
0.4851759214560229
 40
0.5010272934898896
 40
0.5797956652353843
 40
0.6264880369262975
 40
0.6496146483823206
 40
0.6841460367996421
 40
0.7178524521814142
 40
0.7632811457552295
 40
0.8072250070809602
 40
0.849541647348695
 40
0.8899380650707667
 40
0.9288701678145269
 40
0.9461296438514343
 40
0.9636279705381687
 40
0.9815390284665967
 40
1.0
 40
1.0
 40
1.0
 40
1.0
 10
149.5251259279213
 20
409.5559390847973
 30
0.0
 10
151.8797289153994
 20
409.5577592218782
 30
0.0
 10
154.890172904133
 20
409.5600863321227
 30
0.0
 10
158.1371018787776
 20
409.6183359424422
 30
0.0
 10
159.2657381412066
 20
409.6480476039507
 30
0.0
 10
159.856293997213
 20
409.6666238278113
 30
0.0
 10
160.3274696606382
 20
409.6835937171699
 30
0.0
 10
161.1467859907656
 20
409.7158586149001
 30
0.0
 10
162.1944593787482
 20
409.7684652605425
 30
0.0
 10
163.2945059451653
 20
409.8486201885987
 30
0.0
 10
164.065924383888
 20
409.9182129996074
 30
0.0
 10
164.7402735810594
 20
409.9905190957741
 30
0.0
 10
165.5766335660208
 20
410.1021856405027
 30
0.0
 10
166.4771596435941
 20
410.2584503851855
 30
0.0
 10
167.4281726967705
 20
410.4887254405904
 30
0.0
 10
168.3172350362488
 20
410.8011301927458
 30
0.0
 10
169.118541541091
 20
411.228516353333
 30
0.0
 10
169.6623902541383
 20
411.7097749930114
 30
0.0
 10
169.9899856890387
 20
412.1494238765811
 30
0.0
 10
170.1840092028298
 20
412.4897266125743
 30
0.0
 10
170.3440517056067
 20
412.8573202741516
 30
0.0
 10
170.4201110535373
 20
413.1165748764552
 30
0.0
 10
170.4587157032577
 20
413.2481620302061
 30
0.0
  0
SPLINE
  5
186
330
1F
100
AcDbEntity
  8
0
  6
Continuous
 62
     8
370
    18
100
AcDbSpline
210
0.0
220
0.0
230
1.0
 70
     8
 71
     3
 72
    12
 73
     8
 74
     0
 42
0.000000001
 43
0.00000001
 40
0.0
 40
0.0
 40
0.0
 40
0.0
 40
0.4999999999999991
 40
0.4999999999999991
 40
0.7499999999999996
 40
0.7499999999999996
 40
1.0
 40
1.0
 40
1.0
 40
1.0
 10
170.7178472181817
 20
415.4959182899612
 30
0.0
 10
170.257935573738
 20
415.4933898137145
 30
0.0
 10
169.671120233575
 20
415.4727098493739
 30
0.0
 10
168.6025014421677
 20
415.3920684886832
 30
0.0
 10
168.2144054533017
 20
415.357027851057
 30
0.0
 10
167.373687268711
 20
415.2539322284715
 30
0.0
 10
166.9211180695186
 20
415.1865833226827
 30
0.0
 10
166.4358639397225
 20
415.0908957640851
 30
0.0
  0
SPLINE
  5
187
330
1F
100
AcDbEntity
  8
0
  6
Continuous
 62
     8
370
    18
100
AcDbSpline
210
0.0
220
0.0
230
1.0
 70
     8
 71
     3
 72
    16
 73
    12
 74
     0
 42
0.000000001
 43
0.00000001
 40
0.0
 40
0.0
 40
0.0
 40
0.0
 40
0.1155326613160844
 40
0.2302792001652204
 40
0.3440365940522531
 40
0.4566017448861501
 40
0.5678294684965436
 40
0.6776677128565711
 40
0.7861743578027434
 40
0.8935185439939127
 40
1.0
 40
1.0
 40
1.0
 40
1.0
 10
170.4584517355621
 20
413.2484203074847
 30
0.0
 10
170.4797812474987
 20
413.3331207690412
 30
0.0
 10
170.5222951383129
 20
413.5019453621794
 30
0.0
 10
170.5718961570588
 20
413.7573481348965
 30
0.0
 10
170.6119134326078
 20
414.0120736155748
 30
0.0
 10
170.6432620161809
 20
414.265334910271
 30
0.0
 10
170.6677313767605
 20
414.5163574457636
 30
0.0
 10
170.6865256242094
 20
414.7647876046524
 30
0.0
 10
170.7006195774124
 20
415.0105810005725
 30
0.0
 10
170.7110687743594
 20
415.2540168425221
 30
0.0
 10
170.7155969258674
 20
415.4155851829783
 30
0.0
 10
170.7178518666717
 20
415.4960434103428
 30
0.0
  0
SPLINE
  5
188
330
1F
100
AcDbEntity
  8
0
  6
Continuous
 62
     8
370
    18
100
AcDbSpline
210
0.0
220
0.0
230
1.0
 70
     8
 71
     3
 72
    12
 73
     8
 74
     0
 42
0.000000001
 43
0.00000001
 40
0.0
 40
0.0
 40
0.0
 40
0.0
 40
0.4999999999999997
 40
0.4999999999999997
 40
0.7499999999999998
 40
0.7499999999999998
 40
1.0
 40
1.0
 40
1.0
 40
1.0
 10
128.3318902392662
 20
415.4959182899612
 30
0.0
 10
128.79180188371
 20
415.4933898137143
 30
0.0
 10
129.378617223873
 20
415.4727098493738
 30
0.0
 10
130.4472360152803
 20
415.3920684886832
 30
0.0
 10
130.8353320041462
 20
415.3570278510571
 30
0.0
 10
131.676050188737
 20
415.2539322284715
 30
0.0
 10
132.1286192166516
 20
415.1865830962756
 30
0.0
 10
132.6138735177255
 20
415.0908957640851
 30
0.0
  0
SPLINE
  5
189
330
1F
100
AcDbEntity
  8
0
  6
Continuous
 62
     8
370
    18
100
AcDbSpline
210
0.0
220
0.0
230
1.0
 70
     8
 71
     3
 72
    34
 73
    30
 74
     0
 42
0.000000001
 43
0.00000001
 40
0.0
 40
0.0
 40
0.0
 40
0.0
 40
0.0102400522878123
 40
0.0206142259609809
 40
0.0311450922000197
 40
0.0418733180454187
 40
0.052861183594367
 40
0.0641957377485296
 40
0.0759910925494031
 40
0.088389382629989
 40
0.1015601494380115
 40
0.1156982795241994
 40
0.1310209939246316
 40
0.1477645858209039
 40
0.1661815684909025
 40
0.1865386314776255
 40
0.2091155400853006
 40
0.2342049004629628
 40
0.2621125856810456
 40
0.2931586531473543
 40
0.3276785496708527
 40
0.3660245016997845
 40
0.4085669899918612
 40
0.4556962633485608
 40
0.553418070134907
 40
0.6584062067920315
 40
0.7690326931738
 40
0.8835204269165007
 40
1.0
 40
1.0
 40
1.0
 40
1.0
 10
128.5912604325663
 20
413.2483827507619
 30
0.0
 10
128.611967732103
 20
413.175217842757
 30
0.0
 10
128.6536535496843
 20
413.0279297329276
 30
0.0
 10
128.7307192928553
 20
412.809751526929
 30
0.0
 10
128.8211292157862
 20
412.5928607770696
 30
0.0
 10
128.9278566412147
 20
412.3783360099078
 30
0.0
 10
129.0529017271247
 20
412.1669456828506
 30
0.0
 10
129.1988155658773
 20
411.9595559058582
 30
0.0
 10
129.368282689068
 20
411.7570156369434
 30
0.0
 10
129.5642377595652
 20
411.5601750621956
 30
0.0
 10
129.7898404817513
 20
411.369855610469
 30
0.0
 10
130.048503824037
 20
411.1868280234683
 30
0.0
 10
130.3439209059204
 20
411.0117918471194
 30
0.0
 10
130.6801011067443
 20
410.8453678990724
 30
0.0
 10
131.061401374305
 20
410.6880983308899
 30
0.0
 10
131.4925518869832
 20
410.5404512018928
 30
0.0
 10
131.9786759704042
 20
410.4028248511171
 30
0.0
 10
132.5253067138672
 20
410.2755496120171
 30
0.0
 10
133.1384024633249
 20
410.1588843643368
 30
0.0
 10
133.8243636431886
 20
410.0530132672814
 30
0.0
 10
134.5900504603402
 20
409.9580371638323
 30
0.0
 10
135.4428026019368
 20
409.8739714157916
 30
0.0
 10
136.3904591214532
 20
409.8007176815133
 30
0.0
 10
137.7792984478092
 20
409.7180248123844
 30
0.0
 10
139.632948376532
 20
409.6467201047583
 30
0.0
 10
141.9587182557481
 20
409.5964524972986
 30
0.0
 10
144.409334471015
 20
409.5695207201877
 30
0.0
 10
146.9453644479456
 20
409.5575615239778
 30
0.0
 10
148.6601047179773
 20
409.5566411084929
 30
0.0
 10
149.524868728724
 20
409.5561769319641
 30
0.0
  0
SPLINE
  5
18A
330
1F
100
AcDbEntity
  8
0
  6
Continuous
 62
     8
370
    18
100
AcDbSpline
210
0.0
220
0.0
230
1.0
 70
     8
 71
     3
 72
     8
 73
     4
 74
     0
 42
0.000000001
 43
0.00000001
 40
0.0
 40
0.0
 40
0.0
 40
0.0
 40
1.0
 40
1.0
 40
1.0
 40
1.0
 10
128.3318870577019
 20
415.4960434841688
 30
0.0
 10
128.3539885089008
 20
414.6262637681484
 30
0.0
 10
128.4205536709827
 20
413.8831556409793
 30
0.0
 10
128.5912590891108
 20
413.2483826645193
 30
0.0
  0
SPLINE
  5
18B
330
1F
100
AcDbEntity
  8
0
  6
Continuous
 62
     8
370
    18
100
AcDbSpline
210
0.0
220
0.0
230
1.0
 70
     8
 71
     3
 72
    10
 73
     6
 74
     0
 42
0.000000001
 43
0.00000001
 40
0.0
 40
0.0
 40
0.0
 40
0.0
 40
0.5
 40
0.5
 40
1.0
 40
1.0
 40
1.0
 40
1.0
 10
169.8922853490732
 20
416.5063306606539
 30
0.0
 10
170.1253078950063
 20
416.4655738199528
 30
0.0
 10
170.3423130041502
 20
416.3385198033269
 30
0.0
 10
170.6421709853239
 20
415.971610311468
 30
0.0
 10
170.7237732899075
 20
415.7332852261357
 30
0.0
 10
170.7178511993209
 20
415.4961686163479
 30
0.0
  0
SPLINE
  5
18C
330
1F
100
AcDbEntity
  8
0
  6
Continuous
 62
     8
370
    18
100
AcDbSpline
210
0.0
220
0.0
230
1.0
 70
     8
 71
     3
 72
    10
 73
     6
 74
     0
 42
0.000000001
 43
0.00000001
 40
0.0
 40
0.0
 40
0.0
 40
0.0
 40
0.5
 40
0.5
 40
1.0
 40
1.0
 40
1.0
 40
1.0
 10
128.3318902392662
 20
415.4959182899613
 30
0.0
 10
128.325896618167
 20
415.7330751059052
 30
0.0
 10
128.4074666623789
 20
415.9714622521439
 30
0.0
 10
128.7073340370669
 20
416.3384736913166
 30
0.0
 10
128.9243797535294
 20
416.4655661181685
 30
0.0
 10
129.1574491049553
 20
416.5063301353097
 30
0.0
  0
SPLINE
  5
18D
330
1F
100
AcDbEntity
  8
0
  6
Continuous
 62
     8
370
    18
100
AcDbSpline
210
0.0
220
0.0
230
1.0
 70
     8
 71
     3
 72
     9
 73
     5
 74
     0
 42
0.000000001
 43
0.00000001
 40
0.0
 40
0.0
 40
0.0
 40
0.0
 40
0.3038991872332127
 40
1.0
 40
1.0
 40
1.0
 40
1.0
 10
173.5285662879614
 20
377.03197814939
 30
0.0
 10
173.5162144998093
 20
376.9978572384711
 30
0.0
 10
173.4755701392085
 20
376.8855801664934
 30
0.0
 10
173.0156845688906
 20
376.6784224297728
 30
0.0
 10
172.6955578496126
 20
376.5342197608707
 30
0.0
  0
SPLINE
  5
18E
330
1F
100
AcDbEntity
  8
0
  6
Continuous
 62
     8
370
    18
100
AcDbSpline
210
0.0
220
0.0
230
1.0
 70
     8
 71
     3
 72
     9
 73
     5
 74
     0
 42
0.000000001
 43
0.00000001
 40
0.0
 40
0.0
 40
0.0
 40
0.0
 40
0.6961267680802783
 40
1.0
 40
1.0
 40
1.0
 40
1.0
 10
126.3541796078352
 20
376.5342197608707
 30
0.0
 10
126.0340671915341
 20
376.678421357735
 30
0.0
 10
125.5742193147116
 20
376.8855698305082
 30
0.0
 10
125.533492838675
 20
376.9978513504576
 30
0.0
 10
125.5211171527771
 20
377.0319706988094
 30
0.0
  0
SPLINE
  5
18F
330
1F
100
AcDbEntity
  8
0
  6
Continuous
 62
     8
370
    18
100
AcDbSpline
210
0.0
220
0.0
230
1.0
 70
     8
 71
     3
 72
    16
 73
    12
 74
     0
 42
0.000000001
 43
0.00000001
 40
0.0
 40
0.0
 40
0.0
 40
0.0
 40
0.4999999999999999
 40
0.4999999999999999
 40
0.7499999999999998
 40
0.7499999999999998
 40
0.8749999999999999
 40
0.8749999999999999
 40
0.9375
 40
0.9375
 40
1.0
 40
1.0
 40
1.0
 40
1.0
 10
172.1527356625168
 20
415.2269069579593
 30
0.0
 10
172.1578358918188
 20
415.3158079238001
 30
0.0
 10
172.0383083736876
 20
415.3788265941124
 30
0.0
 10
171.7027355542732
 20
415.4519155236708
 30
0.0
 10
171.5638693228804
 20
415.4719785253017
 30
0.0
 10
171.3074392623332
 20
415.4946063501255
 30
0.0
 10
171.2175788647304
 20
415.5019850150811
 30
0.0
 10
171.0517348424272
 20
415.5068346735592
 30
0.0
 10
170.9908687451736
 20
415.5065763060529
 30
0.0
 10
170.8557025398501
 20
415.5010512421727
 30
0.0
 10
170.7813419247184
 20
415.496230424552
 30
0.0
 10
170.7178550194558
 20
415.496168620062
 30
0.0
  0
SPLINE
  5
190
330
1F
100
AcDbEntity
  8
0
  6
Continuous
 62
     8
370
    18
100
AcDbSpline
210
0.0
220
0.0
230
1.0
 70
     8
 71
     3
 72
    12
 73
     8
 74
     0
 42
0.000000001
 43
0.00000001
 40
0.0
 40
0.0
 40
0.0
 40
0.0
 40
0.1955469945527517
 40
0.393572938266464
 40
0.593821608690426
 40
0.7960448836274097
 40
1.0
 40
1.0
 40
1.0
 40
1.0
 10
172.1794247059065
 20
412.6608018292295
 30
0.0
 10
172.1777149274747
 20
412.8277119491877
 30
0.0
 10
172.1742736957506
 20
413.1636481086192
 30
0.0
 10
172.1688621511026
 20
413.6712676629951
 30
0.0
 10
172.1634721165881
 20
414.1849990159772
 30
0.0
 10
172.1581280290661
 20
414.7041502370179
 30
0.0
 10
172.1545318656199
 20
415.0520522138803
 30
0.0
 10
172.1527261173333
 20
415.2267448851188
 30
0.0
  0
SPLINE
  5
191
330
1F
100
AcDbEntity
  8
0
  6
Continuous
 62
     8
370
    18
100
AcDbSpline
210
0.0
220
0.0
230
1.0
 70
     8
 71
     3
 72
    16
 73
    12
 74
     0
 42
0.000000001
 43
0.00000001
 40
0.0
 40
0.0
 40
0.0
 40
0.0
 40
0.5
 40
0.5
 40
0.7499999999999999
 40
0.7499999999999999
 40
0.875
 40
0.875
 40
0.9375
 40
0.9375
 40
1.0
 40
1.0
 40
1.0
 40
1.0
 10
126.8970017949312
 20
415.2269069579593
 30
0.0
 10
126.8919015656292
 20
415.3158079238002
 30
0.0
 10
127.0114290837603
 20
415.3788265941125
 30
0.0
 10
127.3470019031748
 20
415.4519155236708
 30
0.0
 10
127.4858681345676
 20
415.4719785253016
 30
0.0
 10
127.7422981951148
 20
415.4946063501255
 30
0.0
 10
127.8321585927176
 20
415.5019850150808
 30
0.0
 10
127.9980026150208
 20
415.5068346735592
 30
0.0
 10
128.0588687122744
 20
415.5065763060529
 30
0.0
 10
128.1940349175978
 20
415.5010512421726
 30
0.0
 10
128.2683955327296
 20
415.496230424552
 30
0.0
 10
128.3318824379922
 20
415.496168620062
 30
0.0
  0
LINE
  5
192
330
1F
100
AcDbEntity
  8
0
  6
Continuous
 62
     8
370
    18
100
AcDbLine
 10
126.8704787662
 20
412.6608035755
 30
0.0
 11
126.8949278464
 21
415.0149784279
 31
0.0
  0
CIRCLE
  5
193
330
1F
100
AcDbEntity
  8
0
  6
Continuous
 62
     8
370
    18
100
AcDbCircle
 10
149.5248687287
 20
393.6208696199
 30
0.0
 40
3.781418633081808
  0
SPLINE
  5
194
330
1F
100
AcDbEntity
  8
0
  6
Continuous
 62
     7
370
    25
100
AcDbSpline
210
0.0
220
0.0
230
1.0
 70
     8
 71
     3
 72
    10
 73
     6
 74
     0
 42
0.000000001
 43
0.00000001
 40
0.0
 40
0.0
 40
0.0
 40
0.0
 40
0.2623625047960504
 40
0.7105225864412384
 40
1.0
 40
1.0
 40
1.0
 40
1.0
 10
172.0744308849243
 20
189.6446799624124
 30
0.0
 10
172.0837133618581
 20
190.2237218632718
 30
0.0
 10
172.1088518988023
 20
191.7918664782057
 30
0.0
 10
172.1266114578271
 20
193.8790899140373
 30
0.0
 10
172.1426473236998
 20
195.3234641738738
 30
0.0
 10
172.1489404161839
 20
195.890292362065
 30
0.0
  0
SPLINE
  5
195
330
1F
100
AcDbEntity
  8
0
  6
Continuous
 62
     7
370
    25
100
AcDbSpline
210
0.0
220
0.0
230
1.0
 70
     8
 71
     3
 72
    10
 73
     6
 74
     0
 42
0.000000001
 43
0.00000001
 40
0.0
 40
0.0
 40
0.0
 40
0.0
 40
0.2894277577931196
 40
0.7003996307881212
 40
0.9999999999999999
 40
0.9999999999999999
 40
0.9999999999999999
 40
0.9999999999999999
 10
126.8987816592125
 20
196.0508321176627
 30
0.0
 10
126.9044742810797
 20
195.5276744926798
 30
0.0
 10
126.9182501202889
 20
194.261661135233
 30
0.0
 10
126.9346698144959
 20
192.3085079407735
 30
0.0
 10
126.9566325572426
 20
190.808278613459
 30
0.0
 10
126.9658927639393
 20
190.1757331329742
 30
0.0
  0
SPLINE
  5
196
330
1F
100
AcDbEntity
  8
0
  6
Continuous
 62
     7
370
    25
100
AcDbSpline
210
0.0
220
0.0
230
1.0
 70
     8
 71
     3
 72
    18
 73
    14
 74
     0
 42
0.000000001
 43
0.00000001
 40
0.0
 40
0.0
 40
0.0
 40
0.0
 40
0.1921103330666288
 40
0.3618647310790004
 40
0.4765454081994677
 40
0.5502579337435175
 40
0.6173128635454795
 40
0.6818500470287515
 40
0.7497272229725487
 40
0.816937503986711
 40
0.8892190925348897
 40
0.9663309403791513
 40
0.9999999999999999
 40
0.9999999999999999
 40
0.9999999999999999
 40
0.9999999999999999
 10
132.6177430172829
 20
121.4422626185575
 30
0.0
 10
132.7458177827297
 20
120.6050729101789
 30
0.0
 10
132.9870632161045
 20
119.0281175020621
 30
0.0
 10
133.3815093393161
 20
116.9656766908891
 30
0.0
 10
133.763960671905
 20
115.4309910495469
 30
0.0
 10
134.1895670486476
 20
114.385052156802
 30
0.0
 10
134.6533947630873
 20
113.6028589730171
 30
0.0
 10
135.2445808028135
 20
112.9432144506223
 30
0.0
 10
135.9607418822049
 20
112.421668675738
 30
0.0
 10
136.7860307994288
 20
112.0180773632514
 30
0.0
 10
137.7059814526789
 20
111.7482106123081
 30
0.0
 10
138.5045434152412
 20
111.6184876152412
 30
0.0
 10
138.9913112528393
 20
111.5781456574314
 30
0.0
 10
139.1392520462541
 20
111.5658847379842
 30
0.0
  0
SPLINE
  5
197
330
1F
100
AcDbEntity
  8
0
  6
Continuous
 62
     7
370
    25
100
AcDbSpline
210
0.0
220
0.0
230
1.0
 70
     8
 71
     3
 72
    18
 73
    14
 74
     0
 42
0.000000001
 43
0.00000001
 40
0.0
 40
0.0
 40
0.0
 40
0.0
 40
0.0903406062469543
 40
0.1656656301520314
 40
0.237223310044449
 40
0.3032275398927139
 40
0.3678059377401209
 40
0.4333753752042779
 40
0.4993100411648204
 40
0.5796948286317171
 40
0.6733282945384494
 40
0.814290427141174
 40
1.0
 40
1.0
 40
1.0
 40
1.0
 10
159.9111494441895
 20
111.5628598022619
 30
0.0
 10
160.3077451504417
 20
111.6039285461426
 30
0.0
 10
161.0350180825301
 20
111.679239966081
 30
0.0
 10
162.0527141494194
 20
111.9404382993572
 30
0.0
 10
162.915647670648
 20
112.3211220905961
 30
0.0
 10
163.6602685319793
 20
112.8204323667094
 30
0.0
 10
164.2717758862364
 20
113.4407361845574
 30
0.0
 10
164.7469302255836
 20
114.1684789213797
 30
0.0
 10
165.132299912229
 20
115.021988659609
 30
0.0
 10
165.4467454291214
 20
116.0337880720058
 30
0.0
 10
165.7475589264598
 20
117.3893348321823
 30
0.0
 10
166.0914158712529
 20
119.2096913731369
 30
0.0
 10
166.3108611372201
 20
120.6328570783407
 30
0.0
 10
166.4356135596899
 20
121.4419124412694
 30
0.0
  0
SPLINE
  5
198
330
1F
100
AcDbEntity
  8
0
  6
Continuous
 62
     7
370
    25
100
AcDbSpline
210
0.0
220
0.0
230
1.0
 70
     8
 71
     3
 72
    11
 73
     7
 74
     0
 42
0.000000001
 43
0.00000001
 40
0.0
 40
0.0
 40
0.0
 40
0.0
 40
0.097241843845671
 40
0.5167986214331947
 40
0.9581195359728608
 40
1.0
 40
1.0
 40
1.0
 40
1.0
 10
139.1395472755102
 20
111.5681124615827
 30
0.0
 10
139.4751756515022
 20
111.5382494169282
 30
0.0
 10
141.2588962718332
 20
111.3795401648316
 30
0.0
 10
144.5763286627437
 20
111.2044703731037
 30
0.0
 10
147.7049679544127
 20
111.1334448444589
 30
0.0
 10
149.3797150835175
 20
111.1357561110452
 30
0.0
 10
149.5248702714084
 20
111.1359564352193
 30
0.0
  0
SPLINE
  5
199
330
1F
100
AcDbEntity
  8
0
  6
Continuous
 62
     7
370
    25
100
AcDbSpline
210
0.0
220
0.0
230
1.0
 70
     8
 71
     3
 72
    11
 73
     7
 74
     0
 42
0.000000001
 43
0.00000001
 40
0.0
 40
0.0
 40
0.0
 40
0.0
 40
0.0349351712229404
 40
0.4746454066324576
 40
0.8959006973338823
 40
1.0
 40
1.0
 40
1.0
 40
1.0
 10
149.5248669335435
 20
111.1357701707044
 30
0.0
 10
149.6459511010307
 20
111.1356092001945
 30
0.0
 10
151.2910566465849
 20
111.1334221803391
 30
0.0
 10
154.3959834247063
 20
111.2015007777823
 30
0.0
 10
157.7376471656011
 20
111.3754228455652
 30
0.0
 10
159.5509323554587
 20
111.5366371456165
 30
0.0
 10
159.9102358167438
 20
111.5685818481603
 30
0.0
  0
SPLINE
  5
19A
330
1F
100
AcDbEntity
  8
0
  6
Continuous
 62
     7
370
    25
100
AcDbSpline
210
0.0
220
0.0
230
1.0
 70
     8
 71
     3
 72
    16
 73
    12
 74
     0
 42
0.000000001
 43
0.00000001
 40
0.0
 40
0.0
 40
0.0
 40
0.0
 40
0.040683531677787
 40
0.1811552794264819
 40
0.3391972347360952
 40
0.4844643662318939
 40
0.6390266408098196
 40
0.7955850553716808
 40
0.9144021198933133
 40
0.9604970893605502
 40
1.0
 40
1.0
 40
1.0
 40
1.0
 10
173.452423216906
 20
183.4627059984365
 30
0.0
 10
173.4474975219801
 20
183.6806268297204
 30
0.0
 10
173.4255644300415
 20
184.6509828301965
 30
0.0
 10
173.372629507618
 20
186.4663626991675
 30
0.0
 10
173.2921916185843
 20
188.7943606599084
 30
0.0
 10
173.1965317911798
 20
191.0404409012371
 30
0.0
 10
173.0931387273781
 20
193.1176892775759
 30
0.0
 10
172.9959736267523
 20
194.9388462574594
 30
0.0
 10
172.9372524613528
 20
196.0970205754934
 30
0.0
 10
172.9156128994723
 20
196.587190728734
 30
0.0
 10
172.9140183268511
 20
196.6331824652732
 30
0.0
 10
172.9132824411062
 20
196.6544073771098
 30
0.0
  0
SPLINE
  5
19B
330
1F
100
AcDbEntity
  8
0
  6
Continuous
 62
     7
370
    25
100
AcDbSpline
210
0.0
220
0.0
230
1.0
 70
     8
 71
     3
 72
    15
 73
    11
 74
     0
 42
0.000000001
 43
0.00000001
 40
0.0
 40
0.0
 40
0.0
 40
0.0
 40
0.0879855838870228
 40
0.1854102835127629
 40
0.2868795526879673
 40
0.4078458401789819
 40
0.5542514621055473
 40
0.7574763186244743
 40
0.9257081657233889
 40
1.0
 40
1.0
 40
1.0
 40
1.0
 10
126.1375670154957
 20
196.6873035530903
 30
0.0
 10
126.1372492062926
 20
196.6727896030329
 30
0.0
 10
126.1365794932345
 20
196.6422046426774
 30
0.0
 10
126.1064902195652
 20
196.0718464765635
 30
0.0
 10
126.0385028156374
 20
194.8332082819085
 30
0.0
 10
125.9467581791525
 20
193.0812157370208
 30
0.0
 10
125.8320182394189
 20
190.644017463262
 30
0.0
 10
125.7239061073257
 20
187.8909458030952
 30
0.0
 10
125.6470424609727
 20
185.5137072006305
 30
0.0
 10
125.6154301701657
 20
184.1913661860789
 30
0.0
 10
125.6057464351324
 20
183.7862958896318
 30
0.0
  0
SPLINE
  5
19C
330
1F
100
AcDbEntity
  8
0
  6
Continuous
 62
     7
370
    25
100
AcDbSpline
210
0.0
220
0.0
230
1.0
 70
     8
 71
     3
 72
    22
 73
    18
 74
     0
 42
0.000000001
 43
0.00000001
 40
0.0
 40
0.0
 40
0.0
 40
0.0
 40
0.0221994775510724
 40
0.0717446676990069
 40
0.1324872720423511
 40
0.1766983416335388
 40
0.2232972450098054
 40
0.2723836760376167
 40
0.3226619474610631
 40
0.3723311842715545
 40
0.4213794923484132
 40
0.4698066092791047
 40
0.5598812417707806
 40
0.6564525977214081
 40
0.7596842466452992
 40
0.8725648218632828
 40
1.0
 40
1.0
 40
1.0
 40
1.0
 10
172.8737235834269
 20
144.1999753701844
 30
0.0
 10
172.8812325004888
 20
144.3638118927238
 30
0.0
 10
172.9054999526463
 20
144.8933016899276
 30
0.0
 10
172.9496682981014
 20
145.8992070954627
 30
0.0
 10
173.0027601786093
 20
147.1507234950363
 30
0.0
 10
173.0562777637639
 20
148.479668462055
 30
0.0
 10
173.1029028674375
 20
149.6906710841754
 30
0.0
 10
173.1495182280886
 20
150.9631513908633
 30
0.0
 10
173.1945753067517
 20
152.2622806168106
 30
0.0
 10
173.237066290701
 20
153.5606233104307
 30
0.0
 10
173.2765486024898
 20
154.8424571141585
 30
0.0
 10
173.3237654066743
 20
156.4756533520432
 30
0.0
 10
173.3774055619714
 20
158.5221638849061
 30
0.0
 10
173.4343806212159
 20
161.04073558453
 30
0.0
 10
173.4853735556587
 20
163.7654770567499
 30
0.0
 10
173.5287567110334
 20
166.701576756474
 30
0.0
 10
173.5451446819717
 20
168.5894414780142
 30
0.0
 10
173.5538349320559
 20
169.5905426281848
 30
0.0
  0
SPLINE
  5
19D
330
1F
100
AcDbEntity
  8
0
  6
Continuous
 62
     7
370
    25
100
AcDbSpline
210
0.0
220
0.0
230
1.0
 70
     8
 71
     3
 72
    19
 73
    15
 74
     0
 42
0.000000001
 43
0.00000001
 40
0.0
 40
0.0
 40
0.0
 40
0.0
 40
0.1274238581159646
 40
0.2402944061933051
 40
0.3435168850871837
 40
0.4400796626392131
 40
0.5301462938338843
 40
0.6417394693945995
 40
0.7559035767366132
 40
0.8611910389301207
 40
0.8895522603668993
 40
0.9282614636031767
 40
0.9778023752959595
 40
0.9999999999999999
 40
0.9999999999999999
 40
0.9999999999999999
 40
0.9999999999999999
 10
125.495902525392
 20
169.5905426281848
 30
0.0
 10
125.504592766012
 20
168.5894419029087
 30
0.0
 10
125.5209807191028
 20
166.7015779826294
 30
0.0
 10
125.564363993306
 20
163.7654729480994
 30
0.0
 10
125.6153565328614
 20
161.0407492043562
 30
0.0
 10
125.6723329205209
 20
158.5221178655172
 30
0.0
 10
125.7403839553024
 20
155.9258282782971
 30
0.0
 10
125.8233200334952
 20
153.1740373770026
 30
0.0
 10
125.9228571444848
 20
150.2910672217296
 30
0.0
 10
126.007080180659
 20
148.1244388558017
 30
0.0
 10
126.0679745239839
 20
146.6544964987451
 30
0.0
 10
126.1072530348415
 20
145.7361077947384
 30
0.0
 10
126.144254963983
 20
144.8928513158556
 30
0.0
 10
126.1685090712084
 20
144.3637028717275
 30
0.0
 10
126.176013874021
 20
144.1999716448941
 30
0.0
  0
SPLINE
  5
19E
330
1F
100
AcDbEntity
  8
0
  6
Continuous
 62
     7
370
    25
100
AcDbSpline
210
0.0
220
0.0
230
1.0
 70
     8
 71
     3
 72
    18
 73
    14
 74
     0
 42
0.000000001
 43
0.00000001
 40
0.0
 40
0.0
 40
0.0
 40
0.0
 40
0.1359560970411941
 40
0.2447811569947136
 40
0.3339735870964108
 40
0.4182953507663845
 40
0.4977658078263369
 40
0.5806771797024894
 40
0.6636700232439072
 40
0.7488450356668143
 40
0.839186118816967
 40
0.9466030754461254
 40
1.0
 40
1.0
 40
1.0
 40
1.0
 10
131.0320992787747
 20
89.51604792358067
 30
0.0
 10
131.0994215268057
 20
89.0137675514547
 30
0.0
 10
131.2206313741252
 20
88.1094405422182
 30
0.0
 10
131.4756445265934
 20
86.88821204853808
 30
0.0
 10
131.8285919957433
 20
85.89207841557509
 30
0.0
 10
132.2877305205458
 20
85.06222381342626
 30
0.0
 10
132.8751181885723
 20
84.34642454970795
 30
0.0
 10
133.5912635083124
 20
83.7664303082102
 30
0.0
 10
134.4179169143463
 20
83.31601284971183
 30
0.0
 10
135.3335933401996
 20
83.00054606238291
 30
0.0
 10
136.3706627572796
 20
82.79515044908156
 30
0.0
 10
137.3005637001177
 20
82.6765195066288
 30
0.0
 10
137.8985348561576
 20
82.6279410331917
 30
0.0
 10
138.0970862527756
 20
82.61181095124867
 30
0.0
  0
SPLINE
  5
19F
330
1F
100
AcDbEntity
  8
0
  6
Continuous
 62
     7
370
    25
100
AcDbSpline
210
0.0
220
0.0
230
1.0
 70
     8
 71
     3
 72
    18
 73
    14
 74
     0
 42
0.000000001
 43
0.00000001
 40
0.0
 40
0.0
 40
0.0
 40
0.0
 40
0.1384374557281967
 40
0.2367766223538925
 40
0.3253802359059358
 40
0.4097206404431142
 40
0.4907566274391839
 40
0.5782175593295436
 40
0.6585764054740636
 40
0.7436756024149611
 40
0.8353493209540993
 40
0.9454274724699966
 40
0.9999999999999999
 40
0.9999999999999999
 40
0.9999999999999999
 40
0.9999999999999999
 10
160.9528654088644
 20
82.61298814298299
 30
0.0
 10
161.4674046581488
 20
82.659581658981
 30
0.0
 10
162.3474473089851
 20
82.73927291943914
 30
0.0
 10
163.5442256453314
 20
82.95576978704806
 30
0.0
 10
164.5125027151714
 20
83.26404661721546
 30
0.0
 10
165.3586640570349
 20
83.70165488741415
 30
0.0
 10
166.110212456061
 20
84.28127121402929
 30
0.0
 10
166.7169014899661
 20
84.99351810931083
 30
0.0
 10
167.1849991938751
 20
85.81774920468119
 30
0.0
 10
167.5203063795665
 20
86.71980087240144
 30
0.0
 10
167.7679732295731
 20
87.76245052556165
 30
0.0
 10
167.9022311197017
 20
88.70906801701783
 30
0.0
 10
167.9907488580448
 20
89.31640393118431
 30
0.0
 10
168.0200875570444
 20
89.51770195247319
 30
0.0
  0
SPLINE
  5
1A0
330
1F
100
AcDbEntity
  8
0
  6
Continuous
 62
     7
370
    25
100
AcDbSpline
210
0.0
220
0.0
230
1.0
 70
     8
 71
     3
 72
    15
 73
    11
 74
     0
 42
0.000000001
 43
0.00000001
 40
0.0
 40
0.0
 40
0.0
 40
0.0
 40
0.0761146388722764
 40
0.2238784124062814
 40
0.3488647210457529
 40
0.4569765279046
 40
0.5636213981832698
 40
0.7067416152543986
 40
0.9105669544130592
 40
1.0
 40
1.0
 40
1.0
 40
1.0
 10
128.0315232296852
 20
115.8975554394879
 30
0.0
 10
128.0407695509404
 20
115.7884584848908
 30
0.0
 10
128.0679660502454
 20
115.4675681363919
 30
0.0
 10
128.1206351367943
 20
114.8221130243724
 30
0.0
 10
128.1880091089946
 20
113.9891956544991
 30
0.0
 10
128.2670765089138
 20
113.0833274892685
 30
0.0
 10
128.3575538509251
 20
112.103791862818
 30
0.0
 10
128.4617171182236
 20
111.0237487896843
 30
0.0
 10
128.5589626594212
 20
110.0445923821968
 30
0.0
 10
128.6204247014494
 20
109.4283829421823
 30
0.0
 10
128.6391683687834
 20
109.2404616761365
 30
0.0
  0
SPLINE
  5
1A1
330
1F
100
AcDbEntity
  8
0
  6
Continuous
 62
     7
370
    25
100
AcDbSpline
210
0.0
220
0.0
230
1.0
 70
     8
 71
     3
 72
    15
 73
    11
 74
     0
 42
0.000000001
 43
0.00000001
 40
0.0
 40
0.0
 40
0.0
 40
0.0
 40
0.2066601969260665
 40
0.3085938351413139
 40
0.4308084313591866
 40
0.5788866803200589
 40
0.6546778642574973
 40
0.73076453329542
 40
0.8963019481201256
 40
1.0
 40
1.0
 40
1.0
 40
1.0
 10
170.4000805338291
 20
109.135609655396
 30
0.0
 10
170.4399504658538
 20
109.53427772538
 30
0.0
 10
170.4994859517061
 20
110.1295859196752
 30
0.0
 10
170.601141995982
 20
111.1596507651481
 30
0.0
 10
170.6971740831729
 20
112.1566327364097
 30
0.0
 10
170.7832707647397
 20
113.0931100445735
 30
0.0
 10
170.8530016830217
 20
113.8950908323354
 30
0.0
 10
170.9181419593885
 20
114.6803659004677
 30
0.0
 10
170.9772862807004
 20
115.4170496307419
 30
0.0
 10
171.0079068698619
 20
115.7764893136375
 30
0.0
 10
171.0197006185917
 20
115.91493019344
 30
0.0
  0
SPLINE
  5
1A2
330
1F
100
AcDbEntity
  8
0
  6
Continuous
 62
     7
370
    25
100
AcDbSpline
210
0.0
220
0.0
230
1.0
 70
     8
 71
     3
 72
    11
 73
     7
 74
     0
 42
0.000000001
 43
0.00000001
 40
0.0
 40
0.0
 40
0.0
 40
0.0
 40
0.0919497493791212
 40
0.4669175875277856
 40
0.8601115278323563
 40
1.0
 40
1.0
 40
1.0
 40
1.0
 10
138.0989898761181
 20
82.63303765536931
 30
0.0
 10
138.4479118511624
 20
82.59812835161529
 30
0.0
 10
140.2197253462857
 20
82.42086013717037
 30
0.0
 10
143.4952119088874
 20
82.21369974989925
 30
0.0
 10
146.9577012567487
 20
82.09122174012477
 30
0.0
 10
148.9912207005973
 20
82.09347802424786
 30
0.0
 10
149.524845373758
 20
82.09407010556843
 30
0.0
  0
SPLINE
  5
1A3
330
1F
100
AcDbEntity
  8
0
  6
Continuous
 62
     7
370
    25
100
AcDbSpline
210
0.0
220
0.0
230
1.0
 70
     8
 71
     3
 72
    11
 73
     7
 74
     0
 42
0.000000001
 43
0.00000001
 40
0.0
 40
0.0
 40
0.0
 40
0.0
 40
0.0620793843860719
 40
0.452878267480392
 40
0.8277004959381865
 40
1.0
 40
1.0
 40
1.0
 40
1.0
 10
149.5248761825757
 20
82.08855667592671
 30
0.0
 10
149.7616811279238
 20
82.08835663984065
 30
0.0
 10
151.4892081393563
 20
82.08689734708219
 30
0.0
 10
154.6458906511648
 20
82.17303707380191
 30
0.0
 10
158.2196620905767
 20
82.36845892944908
 30
0.0
 10
160.2961837915419
 20
82.57404603830324
 30
0.0
 10
160.9501217325596
 20
82.6387895035901
 30
0.0
  0
LINE
  5
1A4
330
1F
100
AcDbEntity
  8
0
  6
Continuous
 62
     7
370
    25
100
AcDbLine
 10
147.5248686337
 20
242.5598023224
 30
0.0
 11
147.5248686337
 21
229.5598020542
 31
0.0
  0
LINE
  5
1A5
330
1F
100
AcDbEntity
  8
0
  6
Continuous
 62
     7
370
    25
100
AcDbLine
 10
151.5248688237
 20
229.5598020542
 30
0.0
 11
151.5248688237
 21
242.5598023224
 31
0.0
  0
LINE
  5
1A6
330
1F
100
AcDbEntity
  8
0
  6
Continuous
 62
     7
370
    25
100
AcDbLine
 10
151.5248688237
 20
225.8010307092
 30
0.0
 11
151.5248688237
 21
229.5598020542
 31
0.0
  0
LINE
  5
1A7
330
1F
100
AcDbEntity
  8
0
  6
Continuous
 62
     7
370
    25
100
AcDbLine
 10
147.5248686337
 20
229.5598020542
 30
0.0
 11
147.5248686337
 21
225.8010307092
 31
0.0
  0
LINE
  5
1A8
330
1F
100
AcDbEntity
  8
0
  6
Continuous
 62
     7
370
    25
100
AcDbLine
 10
147.5248686337
 20
225.8010307092
 30
0.0
 11
147.5248686337
 21
223.0373235184
 31
0.0
  0
LINE
  5
1A9
330
1F
100
AcDbEntity
  8
0
  6
Continuous
 62
     7
370
    25
100
AcDbLine
 10
151.5248688237
 20
223.0375004697
 30
0.0
 11
151.5248688237
 21
225.8010307092
 31
0.0
  0
LINE
  5
1AA
330
1F
100
AcDbEntity
  8
0
  6
Continuous
 62
     7
370
    25
100
AcDbLine
 10
172.0956184735
 20
194.1375784341
 30
0.0
 11
172.124197038
 21
195.8907019112
 31
0.0
  0
SPLINE
  5
1AB
330
1F
100
AcDbEntity
  8
0
  6
Continuous
 62
     7
370
    25
100
AcDbSpline
210
0.0
220
0.0
230
1.0
 70
     8
 71
     3
 72
    16
 73
    12
 74
     0
 42
0.000000001
 43
0.00000001
 40
0.0
 40
0.0
 40
0.0
 40
0.0
 40
0.4999999999999999
 40
0.4999999999999999
 40
0.7499999999999998
 40
0.7499999999999998
 40
0.8749999999999999
 40
0.8749999999999999
 40
0.9375
 40
0.9375
 40
1.0
 40
1.0
 40
1.0
 40
1.0
 10
172.1527356625168
 20
199.4195049336754
 30
0.0
 10
172.1578358918188
 20
192.6236479223067
 30
0.0
 10
172.0383083736876
 20
185.8282973106326
 30
0.0
 10
171.7027355542732
 20
175.6406196307555
 30
0.0
 10
171.5638693228804
 20
172.2460799242421
 30
0.0
 10
171.3074392623332
 20
167.1566819878778
 30
0.0
 10
171.2175788647304
 20
165.4604376879641
 30
0.0
 10
171.0517348424272
 20
162.9176216819559
 30
0.0
 10
170.9908687451736
 20
162.0702922080821
 30
0.0
 10
170.8557025398501
 20
160.3762948794359
 30
0.0
 10
170.7813419247184
 20
159.5296318470282
 30
0.0
 10
170.7178550194558
 20
158.6824360628071
 30
0.0
  0
SPLINE
  5
1AC
330
1F
100
AcDbEntity
  8
0
  6
Continuous
 62
     7
370
    25
100
AcDbSpline
210
0.0
220
0.0
230
1.0
 70
     8
 71
     3
 72
    16
 73
    12
 74
     0
 42
0.000000001
 43
0.00000001
 40
0.0
 40
0.0
 40
0.0
 40
0.0
 40
0.5
 40
0.5
 40
0.7499999999999999
 40
0.7499999999999999
 40
0.875
 40
0.875
 40
0.9375
 40
0.9375
 40
1.0
 40
1.0
 40
1.0
 40
1.0
 10
126.8970017949312
 20
199.4195049336754
 30
0.0
 10
126.8919015656292
 20
192.6236479223067
 30
0.0
 10
127.0114290837603
 20
185.8282973106326
 30
0.0
 10
127.3470019031748
 20
175.6406196307555
 30
0.0
 10
127.4858681345676
 20
172.2460799242421
 30
0.0
 10
127.7422981951148
 20
167.1566819878778
 30
0.0
 10
127.8321585927176
 20
165.4604376879641
 30
0.0
 10
127.9980026150208
 20
162.9176216819559
 30
0.0
 10
128.0588687122744
 20
162.0702922080822
 30
0.0
 10
128.1940349175978
 20
160.3762948794359
 30
0.0
 10
128.2683955327296
 20
159.5296318470282
 30
0.0
 10
128.3318824379922
 20
158.6824360628071
 30
0.0
  0
SPLINE
  5
1AD
330
1F
100
AcDbEntity
  8
0
  6
Continuous
 62
     7
370
    25
100
AcDbSpline
210
0.0
220
0.0
230
1.0
 70
     8
 71
     3
 72
    12
 73
     8
 74
     0
 42
0.000000001
 43
0.00000001
 40
0.0
 40
0.0
 40
0.0
 40
0.0
 40
0.4999999999999991
 40
0.4999999999999991
 40
0.7499999999999996
 40
0.7499999999999996
 40
1.0
 40
1.0
 40
1.0
 40
1.0
 10
170.7178472181817
 20
158.6823851700753
 30
0.0
 10
170.257935573738
 20
152.4482183786033
 30
0.0
 10
169.671120233575
 20
146.2254419011717
 30
0.0
 10
168.6025014421677
 20
136.9145064399473
 30
0.0
 10
168.2144054533017
 20
133.8144827118695
 30
0.0
 10
167.373687268711
 20
127.6219058916829
 30
0.0
 10
166.9211180695186
 20
124.5293045858683
 30
0.0
 10
166.4358639397225
 20
121.443157728031
 30
0.0
  0
SPLINE
  5
1AE
330
1F
100
AcDbEntity
  8
0
  6
Continuous
 62
     7
370
    25
100
AcDbSpline
210
0.0
220
0.0
230
1.0
 70
     8
 71
     3
 72
    12
 73
     8
 74
     0
 42
0.000000001
 43
0.00000001
 40
0.0
 40
0.0
 40
0.0
 40
0.0
 40
0.4999999999999997
 40
0.4999999999999997
 40
0.7499999999999998
 40
0.7499999999999998
 40
1.0
 40
1.0
 40
1.0
 40
1.0
 10
128.3318902392662
 20
158.6823851700753
 30
0.0
 10
128.79180188371
 20
152.4482183786033
 30
0.0
 10
129.378617223873
 20
146.2254419011717
 30
0.0
 10
130.4472360152803
 20
136.9145064399473
 30
0.0
 10
130.8353320041462
 20
133.8144827118695
 30
0.0
 10
131.676050188737
 20
127.6219058916829
 30
0.0
 10
132.1286192166516
 20
124.5293045659571
 30
0.0
 10
132.6138735177255
 20
121.443157728031
 30
0.0
  0
SPLINE
  5
1AF
330
1F
100
AcDbEntity
  8
0
  6
Continuous
 62
     7
370
    25
100
AcDbSpline
210
0.0
220
0.0
230
1.0
 70
     8
 71
     3
 72
    11
 73
     7
 74
     0
 42
0.000000001
 43
0.00000001
 40
0.0
 40
0.0
 40
0.0
 40
0.0
 40
0.3167988697834744
 40
0.6420251435189603
 40
0.9590868061047618
 40
1.0
 40
1.0
 40
1.0
 40
1.0
 10
127.5523521771101
 20
205.9766380812385
 30
0.0
 10
127.2747753373342
 20
204.9129104678013
 30
0.0
 10
126.7122376284197
 20
202.7571582261695
 30
0.0
 10
126.5249931432872
 20
199.3252537709139
 30
0.0
 10
126.6014880343338
 20
196.8230353299957
 30
0.0
 10
126.9173033854101
 20
195.5460446890993
 30
0.0
 10
126.9533981402783
 20
195.4000965456822
 30
0.0
  0
ELLIPSE
  5
1B0
330
1F
100
AcDbEntity
  8
0
  6
Continuous
 62
     7
370
    25
100
AcDbEllipse
 10
149.5248687287
 20
199.3228355214
 30
0.0
 11
0.0
 21
22.95807636090268
 31
0.0
210
0.0
220
0.0
230
1.0
 40
0.9999909563
 41
5.006431970454557
 42
7.55993864390463
  0
SPLINE
  5
1B1
330
1F
100
AcDbEntity
  8
0
  6
Continuous
 62
     7
370
    25
100
AcDbSpline
210
0.0
220
0.0
230
1.0
 70
     8
 71
     3
 72
    11
 73
     7
 74
     0
 42
0.000000001
 43
0.00000001
 40
0.0
 40
0.0
 40
0.0
 40
0.0
 40
0.1797119366440562
 40
0.4963221401217442
 40
0.8216862420560662
 40
1.0
 40
1.0
 40
1.0
 40
1.0
 10
172.1219786276488
 20
195.7545672308066
 30
0.0
 10
172.233035710762
 20
196.3823894738089
 30
0.0
 10
172.5397492780174
 20
198.1162869826879
 30
0.0
 10
172.4799106866314
 20
200.9954719621948
 30
0.0
 10
172.1080830829388
 20
203.7829980540694
 30
0.0
 10
171.6570585333575
 20
205.4030882213886
 30
0.0
 10
171.4973852803377
 20
205.9766380812385
 30
0.0
  0
SPLINE
  5
1B2
330
1F
100
AcDbEntity
  8
0
  6
Continuous
 62
     7
370
    25
100
AcDbSpline
210
0.0
220
0.0
230
1.0
 70
     8
 71
     3
 72
     9
 73
     5
 74
     0
 42
0.000000001
 43
0.00000001
 40
0.0
 40
0.0
 40
0.0
 40
0.0
 40
0.455201512885704
 40
0.9999999999999999
 40
0.9999999999999999
 40
0.9999999999999999
 40
0.9999999999999999
 10
173.4055180867581
 20
183.4832956779161
 30
0.0
 10
173.4683127026581
 20
181.3410278990964
 30
0.0
 10
173.6062617518648
 20
176.6348313725536
 30
0.0
 10
173.5503866416973
 20
171.911786938592
 30
0.0
 10
173.5199459662108
 20
169.3386794763961
 30
0.0
  0
SPLINE
  5
1B3
330
1F
100
AcDbEntity
  8
0
  6
Continuous
 62
     7
370
    25
100
AcDbSpline
210
0.0
220
0.0
230
1.0
 70
     8
 71
     3
 72
     9
 73
     5
 74
     0
 42
0.000000001
 43
0.00000001
 40
0.0
 40
0.0
 40
0.0
 40
0.0
 40
0.4674034575697574
 40
1.0
 40
1.0
 40
1.0
 40
1.0
 10
125.6516792645125
 20
183.8069321352401
 30
0.0
 10
125.5853473250731
 20
181.5568768929676
 30
0.0
 10
125.443431516867
 20
176.7429303852298
 30
0.0
 10
125.4997803157708
 20
171.9117496381476
 30
0.0
 10
125.5297914912371
 20
169.3386794763961
 30
0.0
  0
SPLINE
  5
1B4
330
1F
100
AcDbEntity
  8
0
  6
Continuous
 62
     7
370
    25
100
AcDbSpline
210
0.0
220
0.0
230
1.0
 70
     8
 71
     3
 72
    34
 73
    30
 74
     0
 42
0.000000001
 43
0.00000001
 40
0.0
 40
0.0
 40
0.0
 40
0.0
 40
0.0624999999999998
 40
0.0624999999999998
 40
0.1249999999999997
 40
0.1249999999999997
 40
0.1874999999999996
 40
0.1874999999999996
 40
0.2499999999999994
 40
0.2499999999999994
 40
0.3749999999999989
 40
0.3749999999999989
 40
0.4374999999999988
 40
0.4374999999999988
 40
0.4687499999999987
 40
0.4687499999999987
 40
0.4999999999999987
 40
0.4999999999999987
 40
0.6249999999999989
 40
0.6249999999999989
 40
0.6874999999999991
 40
0.6874999999999991
 40
0.7499999999999992
 40
0.7499999999999992
 40
0.8749999999999997
 40
0.8749999999999997
 40
0.9374999999999998
 40
0.9374999999999998
 40
1.0
 40
1.0
 40
1.0
 40
1.0
 10
126.5836200484449
 20
201.290359993554
 30
0.0
 10
126.6399363753038
 20
202.0099923014851
 30
0.0
 10
126.7296298886735
 20
202.7212155816906
 30
0.0
 10
126.9733904886277
 20
204.1274441715463
 30
0.0
 10
127.1274711027841
 20
204.8224460573199
 30
0.0
 10
127.4995347818425
 20
206.1963504843106
 30
0.0
 10
127.7175174855788
 20
206.8752531141988
 30
0.0
 10
128.2185495886837
 20
208.2166656910545
 30
0.0
 10
128.5033831555214
 20
208.8825197739233
 30
0.0
 10
129.4425501497451
 20
210.8207219095607
 30
0.0
 10
130.1807759650253
 20
212.0387384955187
 30
0.0
 10
131.452571797647
 20
213.7570418536584
 30
0.0
 10
131.9040914152052
 20
214.3115716155843
 30
0.0
 10
132.6239276241791
 20
215.1152322585451
 30
0.0
 10
132.8714608535803
 20
215.3788603132515
 30
0.0
 10
133.3758104583266
 20
215.8913471372006
 30
0.0
 10
133.6331299317693
 20
216.1408133332079
 30
0.0
 10
134.9450171152822
 20
217.3548293437208
 30
0.0
 10
136.0748059159561
 20
218.2202883412019
 30
0.0
 10
137.8895953984371
 20
219.3602576154468
 30
0.0
 10
138.516992987488
 20
219.714859105478
 30
0.0
 10
139.8030980938968
 20
220.3636904300302
 30
0.0
 10
140.4566311076288
 20
220.6556051435334
 30
0.0
 10
142.4477234573835
 20
221.4367864116537
 30
0.0
 10
143.8155179050337
 20
221.832290818815
 30
0.0
 10
145.928872276839
 20
222.2343253103123
 30
0.0
 10
146.645347356761
 20
222.3362406494123
 30
0.0
 10
148.0814327178782
 20
222.4717329506622
 30
0.0
 10
148.8030397943773
 20
222.5057277113313
 30
0.0
 10
149.524868728724
 20
222.5057282652315
 30
0.0
  0
SPLINE
  5
1B5
330
1F
100
AcDbEntity
  8
0
  6
Continuous
 62
     7
370
    25
100
AcDbSpline
210
0.0
220
0.0
230
1.0
 70
     8
 71
     3
 72
    34
 73
    30
 74
     0
 42
0.000000001
 43
0.00000001
 40
0.0
 40
0.0
 40
0.0
 40
0.0
 40
0.0625
 40
0.0625
 40
0.1249999999999999
 40
0.1249999999999999
 40
0.2499999999999998
 40
0.2499999999999998
 40
0.3124999999999997
 40
0.3124999999999997
 40
0.3749999999999997
 40
0.3749999999999997
 40
0.4999999999999995
 40
0.4999999999999995
 40
0.5312499999999996
 40
0.5312499999999996
 40
0.5624999999999997
 40
0.5624999999999997
 40
0.6249999999999997
 40
0.6249999999999997
 40
0.7499999999999999
 40
0.7499999999999999
 40
0.8124999999999999
 40
0.8124999999999999
 40
0.875
 40
0.875
 40
0.9375
 40
0.9375
 40
1.0
 40
1.0
 40
1.0
 40
1.0
 10
149.524868728724
 20
222.5057282652315
 30
0.0
 10
150.2466976630707
 20
222.5057277113313
 30
0.0
 10
150.9683047395698
 20
222.4717329506622
 30
0.0
 10
152.404390100687
 20
222.3362406494123
 30
0.0
 10
153.120865180609
 20
222.2343253103122
 30
0.0
 10
155.2342195524143
 20
221.832290818815
 30
0.0
 10
156.6020140000645
 20
221.4367864116536
 30
0.0
 10
158.5931063498192
 20
220.6556051435333
 30
0.0
 10
159.2466393635512
 20
220.3636904300301
 30
0.0
 10
160.53274446996
 20
219.7148591054779
 30
0.0
 10
161.1601420590109
 20
219.3602576154467
 30
0.0
 10
162.9749315414919
 20
218.2202883412018
 30
0.0
 10
164.1047203421658
 20
217.3548293437207
 30
0.0
 10
165.4166075256786
 20
216.1408133332078
 30
0.0
 10
165.6739269991213
 20
215.8913471372005
 30
0.0
 10
166.1782766038676
 20
215.3788603132514
 30
0.0
 10
166.4258098332689
 20
215.115232258545
 30
0.0
 10
167.1456460422428
 20
214.3115716155842
 30
0.0
 10
167.5971656598009
 20
213.7570418536583
 30
0.0
 10
168.8689614924227
 20
212.0387384955186
 30
0.0
 10
169.6071873077028
 20
210.8207219095606
 30
0.0
 10
170.5463543019266
 20
208.8825197739231
 30
0.0
 10
170.8311878687642
 20
208.2166656910543
 30
0.0
 10
171.3322199718692
 20
206.8752531141988
 30
0.0
 10
171.5502026756054
 20
206.1963504843105
 30
0.0
 10
171.9222663546637
 20
204.8224460573197
 30
0.0
 10
172.0763469688202
 20
204.1274441715462
 30
0.0
 10
172.3201075687744
 20
202.7212155816905
 30
0.0
 10
172.409801082144
 20
202.009992301485
 30
0.0
 10
172.4661174090029
 20
201.2903599935539
 30
0.0
  0
LINE
  5
1B6
330
1F
100
AcDbEntity
  8
0
  6
Continuous
 62
     7
370
    25
100
AcDbLine
 10
126.3541796078
 20
140.4946936059
 30
0.0
 11
126.2275141498
 21
144.2017486084
 31
0.0
  0
LINE
  5
1B7
330
1F
100
AcDbEntity
  8
0
  6
Continuous
 62
     7
370
    25
100
AcDbLine
 10
172.8222233077
 20
144.2017486084
 30
0.0
 11
172.6955578496
 21
140.4946936059
 31
0.0
  0
SPLINE
  5
1B8
330
1F
100
AcDbEntity
  8
0
  6
Continuous
 62
     7
370
    25
100
AcDbSpline
210
0.0
220
0.0
230
1.0
 70
     8
 71
     3
 72
    14
 73
    10
 74
     0
 42
0.000000001
 43
0.00000001
 40
0.0
 40
0.0
 40
0.0
 40
0.0
 40
0.25
 40
0.25
 40
0.5
 40
0.5
 40
0.75
 40
0.75
 40
1.0
 40
1.0
 40
1.0
 40
1.0
 10
128.0286189634913
 20
115.9340075019359
 30
0.0
 10
127.857300434289
 20
117.9783150917378
 30
0.0
 10
127.6898405881556
 20
120.0228371487077
 30
0.0
 10
127.3753958229867
 20
124.1136929819671
 30
0.0
 10
127.2262098836468
 20
126.1598501076324
 30
0.0
 10
126.9457467561436
 20
130.2534431028456
 30
0.0
 10
126.8144589596264
 20
132.3008360522744
 30
0.0
 10
126.570960880259
 20
136.3969031099182
 30
0.0
 10
126.458727851901
 20
138.4455972793183
 30
0.0
 10
126.3543025867281
 20
140.4947081098833
 30
0.0
  0
SPLINE
  5
1B9
330
1F
100
AcDbEntity
  8
0
  6
Continuous
 62
     7
370
    25
100
AcDbSpline
210
0.0
220
0.0
230
1.0
 70
     8
 71
     3
 72
    14
 73
    10
 74
     0
 42
0.000000001
 43
0.00000001
 40
0.0
 40
0.0
 40
0.0
 40
0.0
 40
0.25
 40
0.25
 40
0.5
 40
0.5
 40
0.75
 40
0.75
 40
1.0
 40
1.0
 40
1.0
 40
1.0
 10
172.6954348707194
 20
140.4947081098831
 30
0.0
 10
172.5910096062231
 20
138.4455972925956
 30
0.0
 10
172.4787765775461
 20
136.3969031139916
 30
0.0
 10
172.2352784930046
 20
132.3008359731986
 30
0.0
 10
172.1039906916162
 20
130.253442950462
 30
0.0
 10
171.8235275485118
 20
126.1598497495065
 30
0.0
 10
171.6743416196981
 20
124.1136927854079
 30
0.0
 10
171.3598968641865
 20
120.0228370867906
 30
0.0
 10
171.1924370209358
 20
117.9783150652174
 30
0.0
 10
171.0211184939522
 20
115.9340075018909
 30
0.0
  0
SPLINE
  5
1BA
330
1F
100
AcDbEntity
  8
0
  6
Continuous
 62
     7
370
    25
100
AcDbSpline
210
0.0
220
0.0
230
1.0
 70
     8
 71
     3
 72
    20
 73
    16
 74
     0
 42
0.000000001
 43
0.00000001
 40
0.0
 40
0.0
 40
0.0
 40
0.0
 40
0.0624999999999997
 40
0.0624999999999997
 40
0.1249999999999994
 40
0.1249999999999994
 40
0.2499999999999988
 40
0.2499999999999988
 40
0.4999999999999992
 40
0.4999999999999992
 40
0.7499999999999997
 40
0.7499999999999997
 40
0.8749999999999998
 40
0.8749999999999998
 40
1.0
 40
1.0
 40
1.0
 40
1.0
 10
131.0338038211917
 20
89.51873403657929
 30
0.0
 10
130.9525577123042
 20
90.06645131322821
 30
0.0
 10
130.8726488204379
 20
90.6145419638994
 30
0.0
 10
130.7155370495359
 20
91.71098846957887
 30
0.0
 10
130.638609043125
 20
92.259422868952
 30
0.0
 10
130.4119508945341
 20
93.90528899076894
 30
0.0
 10
130.2662670478585
 20
95.00328085312715
 30
0.0
 10
129.8430624654986
 20
98.29919157749542
 30
0.0
 10
129.5804255134106
 20
100.499141091148
 30
0.0
 10
129.0848539406521
 20
104.9030378169615
 30
0.0
 10
128.8509796280395
 20
107.1068932959065
 30
0.0
 10
128.5226425476795
 20
110.4148571308355
 30
0.0
 10
128.4170159556722
 20
111.5179192376628
 30
0.0
 10
128.2157962025717
 20
113.7251680439922
 30
0.0
 10
128.1211789893227
 20
114.8295083902476
 30
0.0
 10
128.0286189634913
 20
115.9340075019359
 30
0.0
  0
SPLINE
  5
1BB
330
1F
100
AcDbEntity
  8
0
  6
Continuous
 62
     7
370
    25
100
AcDbSpline
210
0.0
220
0.0
230
1.0
 70
     8
 71
     3
 72
    20
 73
    16
 74
     0
 42
0.000000001
 43
0.00000001
 40
0.0
 40
0.0
 40
0.0
 40
0.0
 40
0.125
 40
0.125
 40
0.2500000000000001
 40
0.2500000000000001
 40
0.5000000000000001
 40
0.5000000000000001
 40
0.7500000000000002
 40
0.7500000000000002
 40
0.8750000000000009
 40
0.8750000000000009
 40
0.9375000000000004
 40
0.9375000000000004
 40
1.0
 40
1.0
 40
1.0
 40
1.0
 10
171.0211184939522
 20
115.9340075018909
 30
0.0
 10
170.9285589443954
 20
114.8295140734865
 30
0.0
 10
170.833938952818
 20
113.725140053918
 30
0.0
 10
170.6327091163982
 20
111.5177861164074
 30
0.0
 10
170.527078844288
 20
110.4146907638562
 30
0.0
 10
170.1987346275137
 20
107.1066685579402
 30
0.0
 10
169.9648625941211
 20
104.9028451569373
 30
0.0
 10
169.4692956836407
 20
100.4990033243289
 30
0.0
 10
169.206661314703
 20
98.29908130255916
 30
0.0
 10
168.7834613120685
 20
95.00321188026767
 30
0.0
 10
168.6377791037441
 20
93.90523379549393
 30
0.0
 10
168.4111235907415
 20
92.25938835826389
 30
0.0
 10
168.3341964932359
 20
91.7109608567905
 30
0.0
 10
168.1770866160882
 20
90.61452815355305
 30
0.0
 10
168.0971787204625
 20
90.06644440538719
 30
0.0
 10
168.0159336362554
 20
89.51873403657918
 30
0.0
  0
ARC
  5
1BC
330
1F
100
AcDbEntity
  8
0
  6
Continuous
 62
     7
370
    25
100
AcDbCircle
 10
149.5248687287
 20
199.4942692804
 30
0.0
 40
24.00000000000002
100
AcDbArc
 50
349.0692797264
 51
85.2198081528
  0
SPLINE
  5
1BD
330
1F
100
AcDbEntity
  8
0
  6
Continuous
 62
     7
370
    25
100
AcDbSpline
210
0.0
220
0.0
230
1.0
 70
     8
 71
     3
 72
    25
 73
    21
 74
     0
 42
0.000000001
 43
0.00000001
 40
0.0
 40
0.0
 40
0.0
 40
0.0
 40
0.0078030398237361
 40
0.0249883498526059
 40
0.0426359320086854
 40
0.0671856427936877
 40
0.092411827309546
 40
0.136564905846361
 40
0.1817713115608117
 40
0.2463021279707105
 40
0.3115078453754534
 40
0.3779724566564823
 40
0.4446578809304724
 40
0.5324961598619355
 40
0.6205649770429257
 40
0.7091925474307177
 40
0.797962737036329
 40
0.8884495836905129
 40
0.9790618863768653
 40
1.0
 40
1.0
 40
1.0
 40
1.0
 10
149.524868728724
 20
223.0486018347898
 30
0.0
 10
149.5419236317097
 20
223.0485952162445
 30
0.0
 10
149.5965400237998
 20
223.0485740211042
 30
0.0
 10
149.6889450392538
 20
223.0483312188752
 30
0.0
 10
149.8123671863391
 20
223.0477043812119
 30
0.0
 10
149.9427111959222
 20
223.0466472625304
 30
0.0
 10
150.1062980528908
 20
223.0448228486642
 30
0.0
 10
150.2785467572391
 20
223.0422589075317
 30
0.0
 10
150.4731899799483
 20
223.0386930358489
 30
0.0
 10
150.6566325869297
 20
223.0347679167035
 30
0.0
 10
150.8266944963115
 20
223.0308428819847
 30
0.0
 10
150.9708584241635
 20
223.027501114726
 30
0.0
 10
151.1064010483622
 20
223.0245890269439
 30
0.0
 10
151.2284854042606
 20
223.0225090791671
 30
0.0
 10
151.3339289537516
 20
223.0217281432591
 30
0.0
 10
151.4150234648745
 20
223.0225307389952
 30
0.0
 10
151.4745492762796
 20
223.0249638933853
 30
0.0
 10
151.5107092176901
 20
223.0293120278436
 30
0.0
 10
151.5267133923263
 20
223.0334930061062
 30
0.0
 10
151.5234895300047
 20
223.036821661395
 30
0.0
 10
151.522884408143
 20
223.037446452991
 30
0.0
  0
ARC
  5
1BE
330
1F
100
AcDbEntity
  8
0
  6
Continuous
 62
     7
370
    25
100
AcDbCircle
 10
149.5248687287
 20
199.4942692804
 30
0.0
 40
24.00000000000001
100
AcDbArc
 50
94.7801918472
 51
190.8587369348
  0
SPLINE
  5
1BF
330
1F
100
AcDbEntity
  8
0
  6
Continuous
 62
     7
370
    25
100
AcDbSpline
210
0.0
220
0.0
230
1.0
 70
     8
 71
     3
 72
    24
 73
    20
 74
     0
 42
0.000000001
 43
0.00000001
 40
0.0
 40
0.0
 40
0.0
 40
0.0
 40
0.1386652584114937
 40
0.2907823435074998
 40
0.3679037698462928
 40
0.4451302526466373
 40
0.5227472311265121
 40
0.6005425155990877
 40
0.6708880396410487
 40
0.741552647309279
 40
0.7767216959566022
 40
0.8120032991487286
 40
0.8478215798577593
 40
0.8839664398781434
 40
0.9129136852918467
 40
0.942468308106209
 40
0.9612090472338377
 40
0.9803999487835934
 40
0.9999999999999999
 40
0.9999999999999999
 40
0.9999999999999999
 40
0.9999999999999999
 10
147.5272518881975
 20
223.0374874311843
 30
0.0
 10
147.5312232356412
 20
223.0340245967629
 30
0.0
 10
147.5395511883657
 20
223.0267630006014
 30
0.0
 10
147.61348079245
 20
223.0228844337325
 30
0.0
 10
147.7049898999713
 20
223.021799079038
 30
0.0
 10
147.7933033591079
 20
223.0222268689889
 30
0.0
 10
147.9024557176718
 20
223.0238185141766
 30
0.0
 10
148.0316674471494
 20
223.0264380941579
 30
0.0
 10
148.182822131939
 20
223.0299013659791
 30
0.0
 10
148.3292839056982
 20
223.0333113181748
 30
0.0
 10
148.466361152814
 20
223.0363389446073
 30
0.0
 10
148.58147402158
 20
223.0387303983025
 30
0.0
 10
148.7122837739428
 20
223.0412028121366
 30
0.0
 10
148.8527965164002
 20
223.0435119256825
 30
0.0
 10
149.0031027667416
 20
223.0455389340756
 30
0.0
 10
149.142126999103
 20
223.0469758950141
 30
0.0
 10
149.2757842492086
 20
223.0479249607997
 30
0.0
 10
149.3970572906117
 20
223.0484885915282
 30
0.0
 10
149.4819663882575
 20
223.0485638225349
 30
0.0
 10
149.524868728724
 20
223.0486018347898
 30
0.0
  0
LINE
  5
1C0
330
1F
100
AcDbEntity
  8
0
  6
Continuous
 62
     7
370
    25
100
AcDbLine
 10
147.5248686337
 20
242.5598023224
 30
0.0
 11
151.5248688237
 21
242.5598023224
 31
0.0
  0
LINE
  5
1C1
330
1F
100
AcDbEntity
  8
0
  6
Continuous
 62
     8
370
    18
100
AcDbLine
 10
172.124197038
 20
195.8907019112
 30
0.0
 11
172.1793145706
 21
199.2717822982
 31
0.0
  0
SPLINE
  5
1C2
330
1F
100
AcDbEntity
  8
0
  6
Continuous
 62
     8
370
    18
100
AcDbSpline
210
0.0
220
0.0
230
1.0
 70
     8
 71
     3
 72
    13
 73
     9
 74
     0
 42
0.000000001
 43
0.00000001
 40
0.0
 40
0.0
 40
0.0
 40
0.0
 40
0.0454308842646165
 40
0.255622733437757
 40
0.4752187052643625
 40
0.7061901502238593
 40
0.8507070808750008
 40
1.0
 40
1.0
 40
1.0
 40
1.0
 10
172.1161317845253
 20
196.8107228863397
 30
0.0
 10
172.1258927973073
 20
196.8862029196508
 30
0.0
 10
172.1808143954413
 20
197.3109010682181
 30
0.0
 10
172.1937664955438
 20
197.839036479541
 30
0.0
 10
172.21484996979
 20
198.491756802752
 30
0.0
 10
172.2051700871771
 20
198.8904254224916
 30
0.0
 10
172.1927392144999
 20
199.1504958511472
 30
0.0
 10
172.1838006323453
 20
199.244243849389
 30
0.0
 10
172.1792586912779
 20
199.2918798028137
 30
0.0
  0
SPLINE
  5
1C3
330
1F
100
AcDbEntity
  8
0
  6
Continuous
 62
     8
370
    18
100
AcDbSpline
210
0.0
220
0.0
230
1.0
 70
     8
 71
     3
 72
    13
 73
     9
 74
     0
 42
0.000000001
 43
0.00000001
 40
0.0
 40
0.0
 40
0.0
 40
0.0
 40
0.0454308842646165
 40
0.255622733437757
 40
0.4752187052643625
 40
0.7061901502238593
 40
0.8507070808750008
 40
1.0
 40
1.0
 40
1.0
 40
1.0
 10
126.9336056729225
 20
196.8107228863397
 30
0.0
 10
126.9238446601406
 20
196.8862029196508
 30
0.0
 10
126.8689230620066
 20
197.3109010682181
 30
0.0
 10
126.855970961904
 20
197.839036479541
 30
0.0
 10
126.8348874876579
 20
198.491756802752
 30
0.0
 10
126.8445673702708
 20
198.8904254224916
 30
0.0
 10
126.8569982429479
 20
199.1504958511472
 30
0.0
 10
126.8659368251026
 20
199.244243849389
 30
0.0
 10
126.8704787661699
 20
199.2918798028137
 30
0.0
  0
SPLINE
  5
1C4
330
1F
100
AcDbEntity
  8
0
  6
Continuous
 62
     8
370
    18
100
AcDbSpline
210
0.0
220
0.0
230
1.0
 70
     8
 71
     3
 72
     9
 73
     5
 74
     0
 42
0.000000001
 43
0.00000001
 40
0.0
 40
0.0
 40
0.0
 40
0.0
 40
0.0239725763138127
 40
1.0
 40
1.0
 40
1.0
 40
1.0
 10
127.0454034974245
 20
188.8429080832162
 30
0.0
 10
127.042464779953
 20
188.9262179575397
 30
0.0
 10
126.9198781445818
 20
192.4014336887535
 30
0.0
 10
126.8949664698636
 20
195.8784494964948
 30
0.0
 10
126.8706519921688
 20
199.2721122774406
 30
0.0
  0
SPLINE
  5
1C5
330
1F
100
AcDbEntity
  8
0
  6
Continuous
 62
     8
370
    18
100
AcDbSpline
210
0.0
220
0.0
230
1.0
 70
     8
 71
     3
 72
    12
 73
     8
 74
     0
 42
0.000000001
 43
0.00000001
 40
0.0
 40
0.0
 40
0.0
 40
0.0
 40
0.1955469945527517
 40
0.393572938266464
 40
0.593821608690426
 40
0.7960448836274097
 40
1.0
 40
1.0
 40
1.0
 40
1.0
 10
172.1794247059065
 20
199.2918598306065
 30
0.0
 10
172.1777149274747
 20
199.3063787145178
 30
0.0
 10
172.1742736957506
 20
199.3356005382251
 30
0.0
 10
172.1688621511026
 20
199.3701122071447
 30
0.0
 10
172.1634721165881
 20
199.3980787110973
 30
0.0
 10
172.1581280290661
 20
199.4194175814614
 30
0.0
 10
172.1545318656199
 20
199.4278006811839
 30
0.0
 10
172.1527261173333
 20
199.4320101027485
 30
0.0
  0
SPLINE
  5
1C6
330
1F
100
AcDbEntity
  8
0
  6
Continuous
 62
     8
370
    18
100
AcDbSpline
210
0.0
220
0.0
230
1.0
 70
     8
 71
     3
 72
    11
 73
     7
 74
     0
 42
0.000000001
 43
0.00000001
 40
0.0
 40
0.0
 40
0.0
 40
0.0
 40
0.2556419835154881
 40
0.5074711816632057
 40
0.7555638837190697
 40
1.0
 40
1.0
 40
1.0
 40
1.0
 10
126.8971273071266
 20
199.4320415310005
 30
0.0
 10
126.8948200518493
 20
199.4265719414731
 30
0.0
 10
126.8902399529709
 20
199.4157143388897
 30
0.0
 10
126.8834577361538
 20
199.3853833466064
 30
0.0
 10
126.8768366821251
 20
199.3458579623539
 30
0.0
 10
126.8725879766203
 20
199.3097832522984
 30
0.0
 10
126.8704793952863
 20
199.2918798084925
 30
0.0
  0
SPLINE
  5
1C7
330
1F
100
AcDbEntity
  8
0
  6
Continuous
 62
     8
370
    18
100
AcDbSpline
210
0.0
220
0.0
230
1.0
 70
     8
 71
     3
 72
    10
 73
     6
 74
     0
 42
0.000000001
 43
0.00000001
 40
0.0
 40
0.0
 40
0.0
 40
0.0
 40
0.4999999999999999
 40
0.4999999999999999
 40
1.0
 40
1.0
 40
1.0
 40
1.0
 10
149.524868728724
 20
111.9466262331724
 30
0.0
 10
147.8008173003144
 20
111.9452644009728
 30
0.0
 10
146.0767203351854
 20
111.98347283744
 30
0.0
 10
142.6313340547734
 20
112.1415440955059
 30
0.0
 10
140.9107864294625
 20
112.2612702558786
 30
0.0
 10
139.1944696650067
 20
112.4267477514346
 30
0.0
  0
SPLINE
  5
1C8
330
1F
100
AcDbEntity
  8
0
  6
Continuous
 62
     8
370
    18
100
AcDbSpline
210
0.0
220
0.0
230
1.0
 70
     8
 71
     3
 72
    22
 73
    18
 74
     0
 42
0.000000001
 43
0.00000001
 40
0.0
 40
0.0
 40
0.0
 40
0.0
 40
0.2500000000000034
 40
0.2500000000000034
 40
0.3750000000000039
 40
0.3750000000000039
 40
0.5000000000000043
 40
0.5000000000000043
 40
0.6250000000000048
 40
0.6250000000000048
 40
0.7500000000000053
 40
0.7500000000000053
 40
0.8750000000000058
 40
0.8750000000000058
 40
0.9375000000000029
 40
0.9375000000000029
 40
1.0
 40
1.0
 40
1.0
 40
1.0
 10
139.1946655127921
 20
112.4267126738155
 30
0.0
 10
138.6658252619961
 20
112.4778199985773
 30
0.0
 10
138.1420361694395
 20
112.5525713363216
 30
0.0
 10
137.3779674305682
 20
112.7659060972831
 30
0.0
 10
137.1248409326799
 20
112.8559065637714
 30
0.0
 10
136.6415729576199
 20
113.0799881763654
 30
0.0
 10
136.4116656084879
 20
113.2120985181467
 30
0.0
 10
135.9789434638781
 20
113.5226959880014
 30
0.0
 10
135.7769956611978
 20
113.701321465279
 30
0.0
 10
135.4296859350721
 20
114.0982490990213
 30
0.0
 10
135.2803684801809
 20
114.318982643999
 30
0.0
 10
135.0202341622904
 20
114.7851379446093
 30
0.0
 10
134.9110270223109
 20
115.0267263800132
 30
0.0
 10
134.7662299294138
 20
115.3968801222081
 30
0.0
 10
134.7211656375247
 20
115.5215732180409
 30
0.0
 10
134.6363149515393
 20
115.7731180917636
 30
0.0
 10
134.5977599925622
 20
115.9016844593186
 30
0.0
 10
134.5589796682621
 20
116.0277365278314
 30
0.0
  0
SPLINE
  5
1C9
330
1F
100
AcDbEntity
  8
0
  6
Continuous
 62
     8
370
    18
100
AcDbSpline
210
0.0
220
0.0
230
1.0
 70
     8
 71
     3
 72
    19
 73
    15
 74
     0
 42
0.000000001
 43
0.00000001
 40
0.0
 40
0.0
 40
0.0
 40
0.0
 40
0.1249999999999999
 40
0.1249999999999999
 40
0.2499999999999999
 40
0.2499999999999999
 40
0.4999999999999998
 40
0.4999999999999998
 40
0.7499999999999997
 40
0.7499999999999997
 40
0.8749999999999922
 40
0.937499999999996
 40
0.937499999999996
 40
1.0
 40
1.0
 40
1.0
 40
1.0
 10
134.5589796682621
 20
116.0277365278314
 30
0.0
 10
134.5255299078739
 20
116.136536599147
 30
0.0
 10
134.4964039610745
 20
116.2466440151828
 30
0.0
 10
134.4381768684567
 20
116.4666887033047
 30
0.0
 10
134.4104047303827
 20
116.5770619724867
 30
0.0
 10
134.3301786761699
 20
116.9089917644281
 30
0.0
 10
134.2808198845302
 20
117.1312749588445
 30
0.0
 10
134.1857242217748
 20
117.5764820527869
 30
0.0
 10
134.1398694497468
 20
117.7994410928367
 30
0.0
 10
134.0732533602385
 20
118.1343330318567
 30
0.0
 10
134.0404860947008
 20
118.3018923462528
 30
0.0
 10
134.0084539410377
 20
118.4696059925224
 30
0.0
 10
133.9872540055181
 20
118.5814476094997
 30
0.0
 10
133.9782273031734
 20
118.6376870018609
 30
0.0
 10
133.9662431476519
 20
118.6933292560634
 30
0.0
  0
SPLINE
  5
1CA
330
1F
100
AcDbEntity
  8
0
  6
Continuous
 62
     8
370
    18
100
AcDbSpline
210
0.0
220
0.0
230
1.0
 70
     8
 71
     3
 72
    15
 73
    11
 74
     0
 42
0.000000001
 43
0.00000001
 40
0.0
 40
0.0
 40
0.0
 40
0.0
 40
0.0625000000000025
 40
0.0625000000000025
 40
0.1250000000000051
 40
0.2500000000000103
 40
0.2500000000000103
 40
0.500000000000007
 40
0.500000000000007
 40
1.0
 40
1.0
 40
1.0
 40
1.0
 10
133.9662431476519
 20
118.6933292560634
 30
0.0
 10
133.9535261594478
 20
118.7523551238506
 30
0.0
 10
133.94413430863
 20
118.8120066409321
 30
0.0
 10
133.9222613545409
 20
118.9307252733169
 30
0.0
 10
133.8896828626165
 20
119.1088436128729
 30
0.0
 10
133.8577526799046
 20
119.2870754850746
 30
0.0
 10
133.7946403772511
 20
119.6436706915651
 30
0.0
 10
133.7535591485746
 20
119.8815753873167
 30
0.0
 10
133.6324357123709
 20
120.5956671251118
 30
0.0
 10
133.554463097316
 20
121.0722227390349
 30
0.0
 10
133.4770927687206
 20
121.5489033638283
 30
0.0
  0
SPLINE
  5
1CB
330
1F
100
AcDbEntity
  8
0
  6
Continuous
 62
     8
370
    18
100
AcDbSpline
210
0.0
220
0.0
230
1.0
 70
     8
 71
     3
 72
    12
 73
     8
 74
     0
 42
0.000000001
 43
0.00000001
 40
0.0
 40
0.0
 40
0.0
 40
0.0
 40
0.25
 40
0.25
 40
0.5
 40
0.5
 40
1.0
 40
1.0
 40
1.0
 40
1.0
 10
133.4770928989711
 20
121.5489033833045
 30
0.0
 10
132.9786001377755
 20
124.6301245185468
 30
0.0
 10
132.5197121723652
 20
127.7185047277166
 30
0.0
 10
131.6689616291929
 20
133.9032758696102
 30
0.0
 10
131.2778642643
 20
136.9996269004668
 30
0.0
 10
130.2033408567048
 20
146.2999365069765
 30
0.0
 10
129.6167806486826
 20
152.5162033638432
 30
0.0
 10
129.1574491049553
 20
158.7439218284185
 30
0.0
  0
SPLINE
  5
1CC
330
1F
100
AcDbEntity
  8
0
  6
Continuous
 62
     8
370
    18
100
AcDbSpline
210
0.0
220
0.0
230
1.0
 70
     8
 71
     3
 72
    16
 73
    12
 74
     0
 42
0.000000001
 43
0.00000001
 40
0.0
 40
0.0
 40
0.0
 40
0.0
 40
0.0624999999999999
 40
0.0624999999999999
 40
0.1249999999999997
 40
0.1249999999999997
 40
0.2499999999999999
 40
0.2499999999999999
 40
0.5
 40
0.5
 40
1.0
 40
1.0
 40
1.0
 40
1.0
 10
129.1573610363917
 20
158.7451374947109
 30
0.0
 10
129.0939550227086
 20
159.5913012085659
 30
0.0
 10
129.0198187781354
 20
160.4369086026191
 30
0.0
 10
128.8847217549044
 20
162.128793523094
 30
0.0
 10
128.823890569938
 20
162.9750777370481
 30
0.0
 10
128.6583238804286
 20
165.5147901623325
 30
0.0
 10
128.5687941034116
 20
167.208989560095
 30
0.0
 10
128.3132597355606
 20
172.2922176184774
 30
0.0
 10
128.1750631059974
 20
175.6826362617286
 30
0.0
 10
127.8413741249446
 20
185.8579104159736
 30
0.0
 10
127.7228428417906
 20
192.6448848830828
 30
0.0
 10
127.7278523882257
 20
199.4323616343912
 30
0.0
  0
SPLINE
  5
1CD
330
1F
100
AcDbEntity
  8
0
  6
Continuous
 62
     8
370
    18
100
AcDbSpline
210
0.0
220
0.0
230
1.0
 70
     8
 71
     3
 72
    16
 73
    12
 74
     0
 42
0.000000001
 43
0.00000001
 40
0.0
 40
0.0
 40
0.0
 40
0.0
 40
0.0625000000000003
 40
0.0625000000000003
 40
0.1250000000000006
 40
0.1250000000000006
 40
0.2500000000000006
 40
0.2500000000000006
 40
0.5000000000000004
 40
0.5000000000000004
 40
1.0
 40
1.0
 40
1.0
 40
1.0
 10
169.8923764210563
 20
158.7451374947109
 30
0.0
 10
169.9557824347394
 20
159.5913012085659
 30
0.0
 10
170.0299186793125
 20
160.4369086026191
 30
0.0
 10
170.1650157025436
 20
162.128793523094
 30
0.0
 10
170.2258468875099
 20
162.9750777370481
 30
0.0
 10
170.3914135770193
 20
165.5147901623324
 30
0.0
 10
170.4809433540364
 20
167.208989560095
 30
0.0
 10
170.7364777218873
 20
172.2922176184774
 30
0.0
 10
170.8746743514506
 20
175.6826362617286
 30
0.0
 10
171.2083633325035
 20
185.8579104159736
 30
0.0
 10
171.3268946156573
 20
192.6448848830828
 30
0.0
 10
171.3218850692223
 20
199.4323616343912
 30
0.0
  0
SPLINE
  5
1CE
330
1F
100
AcDbEntity
  8
0
  6
Continuous
 62
     8
370
    18
100
AcDbSpline
210
0.0
220
0.0
230
1.0
 70
     8
 71
     3
 72
    12
 73
     8
 74
     0
 42
0.000000001
 43
0.00000001
 40
0.0
 40
0.0
 40
0.0
 40
0.0
 40
0.25
 40
0.25
 40
0.5
 40
0.5
 40
1.0
 40
1.0
 40
1.0
 40
1.0
 10
165.5726035606834
 20
121.5486499734361
 30
0.0
 10
166.0711019113239
 20
124.6298918600627
 30
0.0
 10
166.5299947117476
 20
127.7182929520312
 30
0.0
 10
167.3807539250851
 20
133.90310615318
 30
0.0
 10
167.7718551088584
 20
136.9994782748881
 30
0.0
 10
168.8463885830757
 20
146.2998513139289
 30
0.0
 10
169.4329536606858
 20
152.516160681485
 30
0.0
 10
169.8922883524927
 20
158.7439218284185
 30
0.0
  0
SPLINE
  5
1CF
330
1F
100
AcDbEntity
  8
0
  6
Continuous
 62
     8
370
    18
100
AcDbSpline
210
0.0
220
0.0
230
1.0
 70
     8
 71
     3
 72
     8
 73
     4
 74
     0
 42
0.000000001
 43
0.00000001
 40
0.0
 40
0.0
 40
0.0
 40
0.0
 40
1.0
 40
1.0
 40
1.0
 40
1.0
 10
165.083494309796
 20
118.6933292560634
 30
0.0
 10
165.2609833832009
 20
119.6424371450452
 30
0.0
 10
165.4178761750607
 20
120.5953732776841
 30
0.0
 10
165.5726035607144
 20
121.5486499734312
 30
0.0
  0
SPLINE
  5
1D0
330
1F
100
AcDbEntity
  8
0
  6
Continuous
 62
     8
370
    18
100
AcDbSpline
210
0.0
220
0.0
230
1.0
 70
     8
 71
     3
 72
    15
 73
    11
 74
     0
 42
0.000000001
 43
0.00000001
 40
0.0
 40
0.0
 40
0.0
 40
0.0
 40
0.4999999999999928
 40
0.4999999999999928
 40
0.7499999999999818
 40
0.7499999999999818
 40
0.8749999999999833
 40
0.9374999999999917
 40
0.9374999999999917
 40
1.0
 40
1.0
 40
1.0
 40
1.0
 10
164.4907577891859
 20
116.0277365278314
 30
0.0
 10
164.6191793257812
 20
116.4644774996783
 30
0.0
 10
164.7213697415401
 20
116.9086714118733
 30
0.0
 10
164.8640132356732
 20
117.5764820527869
 30
0.0
 10
164.9098680077011
 20
117.7994410928367
 30
0.0
 10
164.9764840972095
 20
118.1343330318567
 30
0.0
 10
165.0092513627471
 20
118.3018923462528
 30
0.0
 10
165.0412835164102
 20
118.4696059925224
 30
0.0
 10
165.0624834519298
 20
118.5814476094996
 30
0.0
 10
165.0715301661269
 20
118.6376827621357
 30
0.0
 10
165.083494309796
 20
118.6933292560634
 30
0.0
  0
SPLINE
  5
1D1
330
1F
100
AcDbEntity
  8
0
  6
Continuous
 62
     8
370
    18
100
AcDbSpline
210
0.0
220
0.0
230
1.0
 70
     8
 71
     3
 72
    22
 73
    18
 74
     0
 42
0.000000001
 43
0.00000001
 40
0.0
 40
0.0
 40
0.0
 40
0.0
 40
0.2499999999999986
 40
0.2499999999999986
 40
0.3749999999999978
 40
0.3749999999999978
 40
0.4999999999999971
 40
0.4999999999999971
 40
0.6249999999999964
 40
0.6249999999999964
 40
0.7499999999999957
 40
0.7499999999999957
 40
0.8749999999999949
 40
0.8749999999999949
 40
0.9374999999999974
 40
0.9374999999999974
 40
1.0
 40
1.0
 40
1.0
 40
1.0
 10
159.8550719446559
 20
112.4267126738155
 30
0.0
 10
160.3839121954519
 20
112.4778199985773
 30
0.0
 10
160.9077012880085
 20
112.5525713363218
 30
0.0
 10
161.6717700268797
 20
112.7659060972835
 30
0.0
 10
161.9248965247681
 20
112.8559065637715
 30
0.0
 10
162.4081644998281
 20
113.0799881763655
 30
0.0
 10
162.6380718489599
 20
113.2120985181472
 30
0.0
 10
163.0707939935698
 20
113.5226959880018
 30
0.0
 10
163.2727417962503
 20
113.701321465279
 30
0.0
 10
163.6200515223758
 20
114.0982490990213
 30
0.0
 10
163.769368977267
 20
114.3189826439989
 30
0.0
 10
164.0295032951575
 20
114.7851379446091
 30
0.0
 10
164.138710435137
 20
115.026726380013
 30
0.0
 10
164.2835075280342
 20
115.3968801222078
 30
0.0
 10
164.3285718199232
 20
115.5215732180407
 30
0.0
 10
164.4134225059086
 20
115.7731180917634
 30
0.0
 10
164.4519963802526
 20
115.9016787873269
 30
0.0
 10
164.4907577891859
 20
116.0277365278314
 30
0.0
  0
SPLINE
  5
1D2
330
1F
100
AcDbEntity
  8
0
  6
Continuous
 62
     8
370
    18
100
AcDbSpline
210
0.0
220
0.0
230
1.0
 70
     8
 71
     3
 72
    10
 73
     6
 74
     0
 42
0.000000001
 43
0.00000001
 40
0.0
 40
0.0
 40
0.0
 40
0.0
 40
0.5000000000000001
 40
0.5000000000000001
 40
1.0
 40
1.0
 40
1.0
 40
1.0
 10
149.524868728724
 20
111.9466262331724
 30
0.0
 10
151.2489201571057
 20
111.9452643870172
 30
0.0
 10
152.9730171222626
 20
111.9834728374401
 30
0.0
 10
156.4184034026746
 20
112.1415440955062
 30
0.0
 10
158.1389510279855
 20
112.2612702558786
 30
0.0
 10
159.8552677924413
 20
112.4267477514346
 30
0.0
  0
SPLINE
  5
1D3
330
1F
100
AcDbEntity
  8
0
  6
Continuous
 62
     8
370
    18
100
AcDbSpline
210
0.0
220
0.0
230
1.0
 70
     8
 71
     3
 72
    45
 73
    41
 74
     0
 42
0.000000001
 43
0.00000001
 40
0.0
 40
0.0
 40
0.0
 40
0.0
 40
0.0078125
 40
0.0078125
 40
0.015625
 40
0.0312500000000001
 40
0.0312500000000001
 40
0.0625000000000001
 40
0.0625000000000001
 40
0.1250000000000002
 40
0.1250000000000002
 40
0.1875000000000003
 40
0.1875000000000003
 40
0.2500000000000004
 40
0.2500000000000004
 40
0.3750000000000004
 40
0.3750000000000004
 40
0.4375000000000004
 40
0.4375000000000004
 40
0.5000000000000004
 40
0.5000000000000004
 40
0.6250000000000003
 40
0.6250000000000003
 40
0.6562500000000003
 40
0.6562500000000003
 40
0.6875000000000002
 40
0.6875000000000002
 40
0.7500000000000001
 40
0.8125000000000001
 40
0.8125000000000001
 40
0.875
 40
0.875
 40
0.9375
 40
0.9375
 40
0.96875
 40
0.96875
 40
0.9843750000000001
 40
0.9921875000000001
 40
0.9921875000000001
 40
1.0
 40
1.0
 40
1.0
 40
1.0
 10
127.7279931161933
 20
199.4403117242411
 30
0.0
 10
127.727845109263
 20
199.5291621643574
 30
0.0
 10
127.7282729289064
 20
199.620485933225
 30
0.0
 10
127.730280801113
 20
199.8003725440356
 30
0.0
 10
127.7350142709397
 20
200.0699149157096
 30
0.0
 10
127.7448550259749
 20
200.3386029467545
 30
0.0
 10
127.771203721287
 20
200.8748600330468
 30
0.0
 10
127.797654464312
 20
201.2308735523143
 30
0.0
 10
127.9026815733855
 20
202.2945747409123
 30
0.0
 10
128.0066315642523
 20
202.9979598821041
 30
0.0
 10
128.2822329012219
 20
204.3932709445706
 30
0.0
 10
128.453977944117
 20
205.0851877895135
 30
0.0
 10
128.8671179008833
 20
206.4572678530014
 30
0.0
 10
129.1095923496365
 20
207.1391621633977
 30
0.0
 10
129.9266737680118
 20
209.1233769698099
 30
0.0
 10
130.5935953976741
 20
210.3790238454674
 30
0.0
 10
131.7761288778865
 20
212.1623989013104
 30
0.0
 10
132.2025326906908
 20
212.7420598901646
 30
0.0
 10
133.1115349763902
 20
213.8573861388311
 30
0.0
 10
133.5899756566851
 20
214.3883831942322
 30
0.0
 10
135.0949649842517
 20
215.9037688143098
 30
0.0
 10
136.1905572821515
 20
216.8112480442795
 30
0.0
 10
137.6785122238431
 20
217.8136384685416
 30
0.0
 10
137.9829436648146
 20
218.0079562961432
 30
0.0
 10
138.5982625947034
 20
218.3795278749999
 30
0.0
 10
138.9093671270722
 20
218.5569976054681
 30
0.0
 10
139.8528325047881
 20
219.0649026171645
 30
0.0
 10
141.1378107396973
 20
219.6768784776608
 30
0.0
 10
142.476076985365
 20
220.1602386235115
 30
0.0
 10
143.8413629932399
 20
220.5783859172161
 30
0.0
 10
144.5406480174056
 20
220.7554272536898
 30
0.0
 10
145.9511605601247
 20
221.038453218367
 30
0.0
 10
146.6603965718059
 20
221.144413066726
 30
0.0
 10
147.7301046050018
 20
221.2510189063308
 30
0.0
 10
148.0876464263395
 20
221.2778574339478
 30
0.0
 10
148.6254439904903
 20
221.3048462079919
 30
0.0
 10
148.8947185769841
 20
221.3149851165579
 30
0.0
 10
149.1645819836727
 20
221.3198804160591
 30
0.0
 10
149.3446247184757
 20
221.321953917216
 30
0.0
 10
149.4360023383604
 20
221.3223932134441
 30
0.0
 10
149.524868728724
 20
221.3222301710392
 30
0.0
  0
SPLINE
  5
1D4
330
1F
100
AcDbEntity
  8
0
  6
Continuous
 62
     8
370
    18
100
AcDbSpline
210
0.0
220
0.0
230
1.0
 70
     8
 71
     3
 72
    45
 73
    41
 74
     0
 42
0.000000001
 43
0.00000001
 40
0.0
 40
0.0
 40
0.0
 40
0.0
 40
0.0078125
 40
0.0078125
 40
0.0156249999999999
 40
0.0312499999999999
 40
0.0312499999999999
 40
0.0624999999999999
 40
0.0624999999999999
 40
0.1249999999999998
 40
0.1249999999999998
 40
0.1874999999999998
 40
0.1874999999999998
 40
0.2499999999999997
 40
0.2499999999999997
 40
0.3749999999999997
 40
0.3749999999999997
 40
0.4374999999999995
 40
0.4374999999999995
 40
0.4999999999999993
 40
0.4999999999999993
 40
0.6249999999999989
 40
0.6249999999999989
 40
0.6562499999999989
 40
0.6562499999999989
 40
0.6874999999999989
 40
0.6874999999999989
 40
0.7499999999999991
 40
0.8124999999999993
 40
0.8124999999999993
 40
0.8749999999999996
 40
0.8749999999999996
 40
0.9374999999999998
 40
0.9374999999999998
 40
0.9687499999999999
 40
0.9687499999999999
 40
0.9843749999999999
 40
0.9921875
 40
0.9921875
 40
1.0
 40
1.0
 40
1.0
 40
1.0
 10
171.3217443412547
 20
199.4403117242411
 30
0.0
 10
171.3218924743657
 20
199.5291621641222
 30
0.0
 10
171.3214645285416
 20
199.620485933225
 30
0.0
 10
171.319456656335
 20
199.8003725440356
 30
0.0
 10
171.3147231865082
 20
200.0699149157096
 30
0.0
 10
171.3048824314731
 20
200.3386029467545
 30
0.0
 10
171.2785337361609
 20
200.8748600330468
 30
0.0
 10
171.252082993136
 20
201.2308735523143
 30
0.0
 10
171.1470558840625
 20
202.2945747409123
 30
0.0
 10
171.0431058931957
 20
202.9979598821041
 30
0.0
 10
170.767504556226
 20
204.3932709445706
 30
0.0
 10
170.5957595133309
 20
205.0851877895135
 30
0.0
 10
170.1826195565647
 20
206.4572678530014
 30
0.0
 10
169.9401451078115
 20
207.1391621633977
 30
0.0
 10
169.1230636894362
 20
209.1233769698099
 30
0.0
 10
168.456142059774
 20
210.3790238454674
 30
0.0
 10
167.2736085795615
 20
212.1623989013104
 30
0.0
 10
166.8472047667572
 20
212.7420598901646
 30
0.0
 10
165.9382024810578
 20
213.8573861388311
 30
0.0
 10
165.4597618007628
 20
214.3883831942322
 30
0.0
 10
163.9547724731963
 20
215.9037688143097
 30
0.0
 10
162.8591801752965
 20
216.8112480442795
 30
0.0
 10
161.3712252336049
 20
217.8136384685416
 30
0.0
 10
161.0667937926333
 20
218.0079562961432
 30
0.0
 10
160.4514748627446
 20
218.3795278749999
 30
0.0
 10
160.1403703303758
 20
218.5569976054681
 30
0.0
 10
159.1969049526598
 20
219.0649026171645
 30
0.0
 10
157.9119268625263
 20
219.676878819168
 30
0.0
 10
156.573660472083
 20
220.1602386235114
 30
0.0
 10
155.208374464208
 20
220.5783859172161
 30
0.0
 10
154.5090894400424
 20
220.7554272536898
 30
0.0
 10
153.0985768973232
 20
221.038453218367
 30
0.0
 10
152.3893408856421
 20
221.144413066726
 30
0.0
 10
151.3196328524461
 20
221.2510189063308
 30
0.0
 10
150.9620910311084
 20
221.2778574339478
 30
0.0
 10
150.4242934669577
 20
221.3048462079919
 30
0.0
 10
150.1550188804638
 20
221.3149851165579
 30
0.0
 10
149.8851554737753
 20
221.3198804160591
 30
0.0
 10
149.7051127389723
 20
221.321953917216
 30
0.0
 10
149.613735118837
 20
221.3223933441457
 30
0.0
 10
149.524868728724
 20
221.3222301710392
 30
0.0
  0
SPLINE
  5
1D5
330
1F
100
AcDbEntity
  8
0
  6
Continuous
 62
     8
370
    18
100
AcDbSpline
210
0.0
220
0.0
230
1.0
 70
     8
 71
     3
 72
    35
 73
    31
 74
     0
 42
0.000000001
 43
0.00000001
 40
0.0
 40
0.0
 40
0.0
 40
0.0
 40
0.0625000000000001
 40
0.0625000000000001
 40
0.1250000000000002
 40
0.1250000000000002
 40
0.1875000000000003
 40
0.1875000000000003
 40
0.2500000000000003
 40
0.3125000000000004
 40
0.3125000000000004
 40
0.3437500000000004
 40
0.3437500000000004
 40
0.3750000000000004
 40
0.3750000000000004
 40
0.5000000000000003
 40
0.5000000000000003
 40
0.5625000000000003
 40
0.5625000000000003
 40
0.6250000000000003
 40
0.6250000000000003
 40
0.7500000000000001
 40
0.7500000000000001
 40
0.8125000000000001
 40
0.8125000000000001
 40
0.8750000000000001
 40
0.8750000000000001
 40
0.9375000000000001
 40
0.9375000000000001
 40
1.0
 40
1.0
 40
1.0
 40
1.0
 10
149.524868728724
 20
222.0517587657282
 30
0.0
 10
150.2717678540074
 20
222.0517859015851
 30
0.0
 10
151.0145402575303
 20
222.0148558026573
 30
0.0
 10
152.4920510833638
 20
221.8686149399921
 30
0.0
 10
153.2267809980269
 20
221.7592789561751
 30
0.0
 10
154.68809406345
 20
221.4673561160042
 30
0.0
 10
155.412550174718
 20
221.2848141422683
 30
0.0
 10
156.827449010276
 20
220.8536922481068
 30
0.0
 10
158.2147049730049
 20
220.3553662078224
 30
0.0
 10
159.5474128631565
 20
219.7244223362516
 30
0.0
 10
160.5261737219688
 20
219.2007152109917
 30
0.0
 10
160.8489595396486
 20
219.0177147224647
 30
0.0
 10
161.4874653275956
 20
218.6345335251875
 30
0.0
 10
161.803336982939
 20
218.434177474318
 30
0.0
 10
163.3474780031565
 20
217.4004870098685
 30
0.0
 10
164.4853800885901
 20
216.4641588373757
 30
0.0
 10
166.0495083353873
 20
214.899410302096
 30
0.0
 10
166.5469273795414
 20
214.3509274235426
 30
0.0
 10
167.4923057985569
 20
213.1984285788402
 30
0.0
 10
167.9357185378688
 20
212.5995299339517
 30
0.0
 10
169.1660127333064
 20
210.7561193208342
 30
0.0
 10
169.8603979533825
 20
209.457491641213
 30
0.0
 10
170.7115874626323
 20
207.4040779851156
 30
0.0
 10
170.9642522833302
 20
206.6981775612776
 30
0.0
 10
171.3948085336136
 20
205.2778237983812
 30
0.0
 10
171.573897770661
 20
204.5614860774164
 30
0.0
 10
171.8613333745783
 20
203.1167479071933
 30
0.0
 10
171.9696826228836
 20
202.3883418423922
 30
0.0
 10
172.1152043109292
 20
200.9193709573583
 30
0.0
 10
172.1523706991537
 20
200.1788178435545
 30
0.0
 10
172.1526091847059
 20
199.4320433894506
 30
0.0
  0
SPLINE
  5
1D6
330
1F
100
AcDbEntity
  8
0
  6
Continuous
 62
     8
370
    18
100
AcDbSpline
210
0.0
220
0.0
230
1.0
 70
     8
 71
     3
 72
    35
 73
    31
 74
     0
 42
0.000000001
 43
0.00000001
 40
0.0
 40
0.0
 40
0.0
 40
0.0
 40
0.0624999999999998
 40
0.0624999999999998
 40
0.1249999999999997
 40
0.1249999999999997
 40
0.1874999999999996
 40
0.1874999999999996
 40
0.2499999999999994
 40
0.3124999999999992
 40
0.3124999999999992
 40
0.3437499999999992
 40
0.3437499999999992
 40
0.3749999999999991
 40
0.3749999999999991
 40
0.4999999999999992
 40
0.4999999999999992
 40
0.5624999999999993
 40
0.5624999999999993
 40
0.6249999999999993
 40
0.6249999999999993
 40
0.7499999999999993
 40
0.7499999999999993
 40
0.8124999999999996
 40
0.8124999999999996
 40
0.8749999999999998
 40
0.8749999999999998
 40
0.9374999999999999
 40
0.9374999999999999
 40
1.0
 40
1.0
 40
1.0
 40
1.0
 10
149.524868728724
 20
222.0517587657282
 30
0.0
 10
148.7779696034406
 20
222.0517859015851
 30
0.0
 10
148.0351971999177
 20
222.0148558026573
 30
0.0
 10
146.5576863740842
 20
221.8686149399921
 30
0.0
 10
145.8229564594211
 20
221.7592789561751
 30
0.0
 10
144.3616433939979
 20
221.4673561160042
 30
0.0
 10
143.63718728273
 20
221.2848141422683
 30
0.0
 10
142.2222884471719
 20
220.8536922481068
 30
0.0
 10
140.8350324844431
 20
220.3553662078224
 30
0.0
 10
139.5023245942914
 20
219.7244223362516
 30
0.0
 10
138.5235637354791
 20
219.2007152109917
 30
0.0
 10
138.2007779177994
 20
219.0177147224647
 30
0.0
 10
137.5622721298524
 20
218.6345335251875
 30
0.0
 10
137.246400474509
 20
218.4341774743179
 30
0.0
 10
135.7022594542915
 20
217.4004870098685
 30
0.0
 10
134.5643573688579
 20
216.4641588373757
 30
0.0
 10
133.0002291220607
 20
214.899410302096
 30
0.0
 10
132.5028100779065
 20
214.3509274235426
 30
0.0
 10
131.557431658891
 20
213.1984285788402
 30
0.0
 10
131.1140189195792
 20
212.5995299339517
 30
0.0
 10
129.8837247241416
 20
210.7561193208342
 30
0.0
 10
129.1893395040655
 20
209.457491641213
 30
0.0
 10
128.3381499948157
 20
207.4040779851156
 30
0.0
 10
128.0854851741177
 20
206.6981775612776
 30
0.0
 10
127.6549289238344
 20
205.2778237983812
 30
0.0
 10
127.475839686787
 20
204.5614860774164
 30
0.0
 10
127.1884040828697
 20
203.1167479071933
 30
0.0
 10
127.0800548345644
 20
202.3883418423922
 30
0.0
 10
126.9345331465188
 20
200.9193709573583
 30
0.0
 10
126.8973667582943
 20
200.1788178435545
 30
0.0
 10
126.897128272742
 20
199.4320433894506
 30
0.0
  0
SPLINE
  5
1D7
330
1F
100
AcDbEntity
  8
0
  6
Continuous
 62
     8
370
    18
100
AcDbSpline
210
0.0
220
0.0
230
1.0
 70
     8
 71
     3
 72
     9
 73
     5
 74
     0
 42
0.000000001
 43
0.00000001
 40
0.0
 40
0.0
 40
0.0
 40
0.0
 40
0.6817128338812353
 40
1.0
 40
1.0
 40
1.0
 40
1.0
 10
172.5979701449542
 20
201.2235014231288
 30
0.0
 10
172.8687716022792
 20
197.2047183999827
 30
0.0
 10
173.2660084502101
 20
191.3095924416437
 30
0.0
 10
173.3718348893453
 20
185.3728762504595
 30
0.0
 10
173.4055180867581
 20
183.4832956779161
 30
0.0
  0
SPLINE
  5
1D8
330
1F
100
AcDbEntity
  8
0
  6
Continuous
 62
     8
370
    18
100
AcDbSpline
210
0.0
220
0.0
230
1.0
 70
     8
 71
     3
 72
     9
 73
     5
 74
     0
 42
0.000000001
 43
0.00000001
 40
0.0
 40
0.0
 40
0.0
 40
0.0
 40
0.6943393933242029
 40
1.0
 40
1.0
 40
1.0
 40
1.0
 10
126.4517673124937
 20
201.2235014231288
 30
0.0
 10
126.1801297752256
 20
197.2048378123087
 30
0.0
 10
125.7889125407149
 20
191.4170866787017
 30
0.0
 10
125.6838061482108
 20
185.5885011300904
 30
0.0
 10
125.6516792645125
 20
183.8069321352401
 30
0.0
  0
SPLINE
  5
1D9
330
1F
100
AcDbEntity
  8
0
  6
Continuous
 62
     8
370
    18
100
AcDbSpline
210
0.0
220
0.0
230
1.0
 70
     8
 71
     3
 72
    11
 73
     7
 74
     0
 42
0.000000001
 43
0.00000001
 40
0.0
 40
0.0
 40
0.0
 40
0.0
 40
0.4264834257186214
 40
0.6397441347353728
 40
0.8531191799522512
 40
1.0
 40
1.0
 40
1.0
 40
1.0
 10
171.7407659461169
 20
140.5178164827981
 30
0.0
 10
172.0590309761239
 20
147.8960992536368
 30
0.0
 10
172.5364426970959
 20
158.9638520487416
 30
0.0
 10
172.6438618223428
 20
173.7365997724691
 30
0.0
 10
172.5596855185311
 20
183.6707350685694
 30
0.0
 10
172.2010251825666
 20
189.8996607858362
 30
0.0
 10
172.0547948797611
 20
192.4392716723838
 30
0.0
  0
SPLINE
  5
1DA
330
1F
100
AcDbEntity
  8
0
  6
Continuous
 62
     8
370
    18
100
AcDbSpline
210
0.0
220
0.0
230
1.0
 70
     8
 71
     3
 72
    12
 73
     8
 74
     0
 42
0.000000001
 43
0.00000001
 40
0.0
 40
0.0
 40
0.0
 40
0.0
 40
0.2500000000000004
 40
0.2500000000000004
 40
0.5000000000000009
 40
0.5000000000000009
 40
1.0
 40
1.0
 40
1.0
 40
1.0
 10
170.0323704783852
 20
115.9809686840997
 30
0.0
 10
170.2070007121247
 20
118.0230886933584
 30
0.0
 10
170.3778387431568
 20
120.0655988920132
 30
0.0
 10
170.6985763368913
 20
124.1523903714297
 30
0.0
 10
170.8507336227968
 20
126.1965542484172
 30
0.0
 10
171.2798495868037
 20
132.3310229497201
 30
0.0
 10
171.5271734308436
 20
136.4232630742282
 30
0.0
 10
171.7406417247407
 20
140.5178217020493
 30
0.0
  0
SPLINE
  5
1DB
330
1F
100
AcDbEntity
  8
0
  6
Continuous
 62
     8
370
    18
100
AcDbSpline
210
0.0
220
0.0
230
1.0
 70
     8
 71
     3
 72
    14
 73
    10
 74
     0
 42
0.000000001
 43
0.00000001
 40
0.0
 40
0.0
 40
0.0
 40
0.0
 40
0.5000000000000009
 40
0.5000000000000009
 40
0.7500000000000006
 40
0.7500000000000006
 40
0.8750000000000003
 40
0.8750000000000003
 40
1.0
 40
1.0
 40
1.0
 40
1.0
 10
166.9598503191832
 20
89.6177666801187
 30
0.0
 10
167.6410963441356
 20
93.98886973377185
 30
0.0
 10
168.2056949897014
 20
98.37643430394974
 30
0.0
 10
168.9603548711027
 20
104.9702654872937
 30
0.0
 10
169.1973038563782
 20
107.1702581227158
 30
0.0
 10
169.5303012544928
 20
110.4722849956712
 30
0.0
 10
169.6374801683053
 20
111.5733503408715
 30
0.0
 10
169.8418702263198
 20
113.7764688358724
 30
0.0
 10
169.9381033038406
 20
114.8786115536539
 30
0.0
 10
170.0323704783852
 20
115.9809686840999
 30
0.0
  0
SPLINE
  5
1DC
330
1F
100
AcDbEntity
  8
0
  6
Continuous
 62
     8
370
    18
100
AcDbSpline
210
0.0
220
0.0
230
1.0
 70
     8
 71
     3
 72
    28
 73
    24
 74
     0
 42
0.000000001
 43
0.00000001
 40
0.0
 40
0.0
 40
0.0
 40
0.0
 40
0.1249999999999999
 40
0.1249999999999999
 40
0.2499999999999999
 40
0.2499999999999999
 40
0.3749999999999998
 40
0.3749999999999998
 40
0.4374999999999991
 40
0.4374999999999991
 40
0.4999999999999983
 40
0.4999999999999983
 40
0.5624999999999976
 40
0.5624999999999976
 40
0.6249999999999968
 40
0.6249999999999968
 40
0.6874999999999959
 40
0.6874999999999959
 40
0.7499999999999951
 40
0.7499999999999951
 40
0.8749999999999977
 40
0.8749999999999977
 40
1.0
 40
1.0
 40
1.0
 40
1.0
 10
160.8740965665401
 20
83.64560310413027
 30
0.0
 10
161.2770633986958
 20
83.6895933016226
 30
0.0
 10
161.6815031579351
 20
83.72183860778703
 30
0.0
 10
162.4853034651957
 20
83.8257665542616
 30
0.0
 10
162.8874850962352
 20
83.8927385922597
 30
0.0
 10
163.6716288841774
 20
84.09093112345501
 30
0.0
 10
164.0517575335958
 20
84.22405400755564
 30
0.0
 10
164.5934044097785
 20
84.5050476338953
 30
0.0
 10
164.7679392824932
 20
84.61124191621536
 30
0.0
 10
165.0954488772789
 20
84.84598211899538
 30
0.0
 10
165.2496191253769
 20
84.97516388917384
 30
0.0
 10
165.5351372201326
 20
85.26165012576121
 30
0.0
 10
165.667054504881
 20
85.42030919656254
 30
0.0
 10
165.9015112277559
 20
85.75100165727758
 30
0.0
 10
166.00552480645
 20
85.92407939144323
 30
0.0
 10
166.1906631341795
 20
86.28363527597708
 30
0.0
 10
166.2719409857049
 20
86.47130061739745
 30
0.0
 10
166.4126045500545
 20
86.85283948567796
 30
0.0
 10
166.4722132051531
 20
87.04592346740264
 30
0.0
 10
166.6292576844012
 20
87.62987019723245
 30
0.0
 10
166.7047046843711
 20
88.02546402421171
 30
0.0
 10
166.8380888142778
 20
88.82036193196788
 30
0.0
 10
166.8976847850607
 20
89.21932933862887
 30
0.0
 10
166.9598769951601
 20
89.6177626557233
 30
0.0
  0
SPLINE
  5
1DD
330
1F
100
AcDbEntity
  8
0
  6
Continuous
 62
     8
370
    18
100
AcDbSpline
210
0.0
220
0.0
230
1.0
 70
     8
 71
     3
 72
    10
 73
     6
 74
     0
 42
0.000000001
 43
0.00000001
 40
0.0
 40
0.0
 40
0.0
 40
0.0
 40
0.5
 40
0.5
 40
1.0
 40
1.0
 40
1.0
 40
1.0
 10
149.5248687287235
 20
83.04313159773763
 30
0.0
 10
151.4202205237564
 20
83.0421094876204
 30
0.0
 10
153.3148964967521
 20
83.09194548594978
 30
0.0
 10
157.1003140552619
 20
83.2912297766971
 30
0.0
 10
158.9901198012032
 20
83.44066653345858
 30
0.0
 10
160.8740127893978
 20
83.64638920449563
 30
0.0
  0
SPLINE
  5
1DE
330
1F
100
AcDbEntity
  8
0
  6
Continuous
 62
     8
370
    18
100
AcDbSpline
210
0.0
220
0.0
230
1.0
 70
     8
 71
     3
 72
    10
 73
     6
 74
     0
 42
0.000000001
 43
0.00000001
 40
0.0
 40
0.0
 40
0.0
 40
0.0
 40
0.5
 40
0.5
 40
1.0
 40
1.0
 40
1.0
 40
1.0
 10
138.1756830060315
 20
83.64639375403168
 30
0.0
 10
140.059580398315
 20
83.44066976114328
 30
0.0
 10
141.9494221727821
 20
83.29123005538023
 30
0.0
 10
145.7348181701495
 20
83.09194647180438
 30
0.0
 10
147.6295119736504
 20
83.0421094849459
 30
0.0
 10
149.5248687287235
 20
83.04313159773736
 30
0.0
  0
SPLINE
  5
1DF
330
1F
100
AcDbEntity
  8
0
  6
Continuous
 62
     8
370
    18
100
AcDbSpline
210
0.0
220
0.0
230
1.0
 70
     8
 71
     3
 72
    28
 73
    24
 74
     0
 42
0.000000001
 43
0.00000001
 40
0.0
 40
0.0
 40
0.0
 40
0.0
 40
0.1250000000000002
 40
0.1250000000000002
 40
0.2500000000000004
 40
0.2500000000000004
 40
0.3125000000000004
 40
0.3125000000000004
 40
0.3750000000000003
 40
0.3750000000000003
 40
0.4375000000000003
 40
0.4375000000000003
 40
0.5000000000000003
 40
0.5000000000000003
 40
0.5624999999999996
 40
0.5624999999999996
 40
0.6249999999999988
 40
0.6249999999999988
 40
0.7499999999999991
 40
0.7499999999999991
 40
0.8749999999999996
 40
0.8749999999999996
 40
1.0
 40
1.0
 40
1.0
 40
1.0
 10
132.0896156573457
 20
89.61933090291502
 30
0.0
 10
132.1518245277123
 20
89.22083741683947
 30
0.0
 10
132.2114260283384
 20
88.82180758150355
 30
0.0
 10
132.3447923486586
 20
88.02677825285544
 30
0.0
 10
132.4202076562264
 20
87.63111359691086
 30
0.0
 10
132.5771887507985
 20
87.04705571437482
 30
0.0
 10
132.6367726292524
 20
86.85393366337705
 30
0.0
 10
132.7773791104801
 20
86.47231637040706
 30
0.0
 10
132.8586308695099
 20
86.28459409470463
 30
0.0
 10
133.0437220351789
 20
85.92493511403451
 30
0.0
 10
133.14771321997
 20
85.75180653462475
 30
0.0
 10
133.3821264698913
 20
85.42101316835934
 30
0.0
 10
133.5140257467396
 20
85.26229535822186
 30
0.0
 10
133.7995284812126
 20
84.97568722618179
 30
0.0
 10
133.953696776372
 20
84.84645156405887
 30
0.0
 10
134.2812128289103
 20
84.61161634745085
 30
0.0
 10
134.4557519022313
 20
84.50538140256936
 30
0.0
 10
134.9974574311691
 20
84.22426064655858
 30
0.0
 10
135.3776335944337
 20
84.09107695629947
 30
0.0
 10
136.1618872574198
 20
83.89280511810348
 30
0.0
 10
136.5641340224247
 20
83.8258127562527
 30
0.0
 10
137.3680621351521
 20
83.72185345508466
 30
0.0
 10
137.7725674033104
 20
83.68960492248328
 30
0.0
 10
138.1755992557228
 20
83.64560764926746
 30
0.0
  0
SPLINE
  5
1E0
330
1F
100
AcDbEntity
  8
0
  6
Continuous
 62
     8
370
    18
100
AcDbSpline
210
0.0
220
0.0
230
1.0
 70
     8
 71
     3
 72
    14
 73
    10
 74
     0
 42
0.000000001
 43
0.00000001
 40
0.0
 40
0.0
 40
0.0
 40
0.0
 40
0.125
 40
0.125
 40
0.25
 40
0.25
 40
0.5
 40
0.5
 40
1.0
 40
1.0
 40
1.0
 40
1.0
 10
129.0173669790582
 20
115.9809686841449
 30
0.0
 10
129.1116285141831
 20
114.8786775008832
 30
0.0
 10
129.2078556083609
 20
113.7766006849813
 30
0.0
 10
129.4122322385722
 20
111.5736137944859
 30
0.0
 10
129.5194039596296
 20
110.4726141795119
 30
0.0
 10
129.8523786289907
 20
107.1707843217193
 30
0.0
 10
130.0893111539807
 20
104.9709229020171
 30
0.0
 10
130.8439145491994
 20
98.3774854578466
 30
0.0
 10
131.40847845679
 20
93.9901830906939
 30
0.0
 10
132.0896427229363
 20
89.61933497926766
 30
0.0
  0
SPLINE
  5
1E1
330
1F
100
AcDbEntity
  8
0
  6
Continuous
 62
     8
370
    18
100
AcDbSpline
210
0.0
220
0.0
230
1.0
 70
     8
 71
     3
 72
    12
 73
     8
 74
     0
 42
0.000000001
 43
0.00000001
 40
0.0
 40
0.0
 40
0.0
 40
0.0
 40
0.5
 40
0.5
 40
0.75
 40
0.75
 40
1.0
 40
1.0
 40
1.0
 40
1.0
 10
127.3090570755801
 20
140.5185631948514
 30
0.0
 10
127.5225282360591
 20
136.4238807355316
 30
0.0
 10
127.7698555432447
 20
132.3315169333154
 30
0.0
 10
128.1989811119387
 20
126.1968631632309
 30
0.0
 10
128.3511422452718
 20
124.1526373388965
 30
0.0
 10
128.6718885242651
 20
120.0657222710536
 30
0.0
 10
128.8427314719903
 20
118.0231503595297
 30
0.0
 10
129.0173669790583
 20
115.9809686841451
 30
0.0
  0
SPLINE
  5
1E2
330
1F
100
AcDbEntity
  8
0
  6
Continuous
 62
     8
370
    18
100
AcDbSpline
210
0.0
220
0.0
230
1.0
 70
     8
 71
     3
 72
    11
 73
     7
 74
     0
 42
0.000000001
 43
0.00000001
 40
0.0
 40
0.0
 40
0.0
 40
0.0
 40
0.1468829183414165
 40
0.3601340570131609
 40
0.5735247709339941
 40
1.0
 40
1.0
 40
1.0
 40
1.0
 10
126.9949425776867
 20
192.4392716723838
 30
0.0
 10
126.8487100642229
 20
189.8996608767104
 30
0.0
 10
126.4901706987499
 20
183.6729304344789
 30
0.0
 10
126.4058777075032
 20
173.7387991192546
 30
0.0
 10
126.5132027074953
 20
158.9662957597115
 30
0.0
 10
126.9906873367549
 20
147.8965935434129
 30
0.0
 10
127.308934258428
 20
140.5185578155675
 30
0.0
  0
SPLINE
  5
1E3
330
1F
100
AcDbEntity
  8
0
  6
Continuous
 62
     8
370
    18
100
AcDbSpline
210
0.0
220
0.0
230
1.0
 70
     8
 71
     3
 72
    11
 73
     7
 74
     0
 42
0.000000001
 43
0.00000001
 40
0.0
 40
0.0
 40
0.0
 40
0.0
 40
0.3333819173917846
 40
0.5337026953457005
 40
0.7341304472880441
 40
1.0
 40
1.0
 40
1.0
 40
1.0
 10
126.2275141497521
 20
144.2017486083665
 30
0.0
 10
125.9729170174249
 20
150.3520589864899
 30
0.0
 10
125.565338895572
 20
160.1979356066056
 30
0.0
 10
125.4743398768956
 20
173.7539577077056
 30
0.0
 10
125.6292001093072
 20
186.0647130137229
 30
0.0
 10
126.1534232753327
 20
194.6605710814767
 30
0.0
 10
126.452320518103
 20
199.5616865647486
 30
0.0
  0
SPLINE
  5
1E4
330
1F
100
AcDbEntity
  8
0
  6
Continuous
 62
     8
370
    18
100
AcDbSpline
210
0.0
220
0.0
230
1.0
 70
     8
 71
     3
 72
    11
 73
     7
 74
     0
 42
0.000000001
 43
0.00000001
 40
0.0
 40
0.0
 40
0.0
 40
0.0
 40
0.2658695519261643
 40
0.4661783126645053
 40
0.6666180835935432
 40
1.0
 40
1.0
 40
1.0
 40
1.0
 10
172.5974169393448
 20
199.5616865647486
 30
0.0
 10
172.896316437416
 20
194.6605711839373
 30
0.0
 10
173.4204097856675
 20
186.0669068028608
 30
0.0
 10
173.5753976513744
 20
173.7561559941229
 30
0.0
 10
173.484483170035
 20
160.2001307390744
 30
0.0
 10
173.0768180316026
 20
150.352058952009
 30
0.0
 10
172.8222233076958
 20
144.2017486083665
 30
0.0
  0
SPLINE
  5
1E5
330
1F
100
AcDbEntity
  8
0
  6
Continuous
 62
     8
370
    18
100
AcDbSpline
210
0.0
220
0.0
230
1.0
 70
     8
 71
     3
 72
    32
 73
    28
 74
     0
 42
0.000000001
 43
0.00000001
 40
0.0
 40
0.0
 40
0.0
 40
0.0
 40
0.1250000000000001
 40
0.1250000000000001
 40
0.1875000000000001
 40
0.1875000000000001
 40
0.2500000000000002
 40
0.2500000000000002
 40
0.3750000000000004
 40
0.3750000000000004
 40
0.4375000000000004
 40
0.4375000000000004
 40
0.5000000000000004
 40
0.5000000000000004
 40
0.6250000000000002
 40
0.6250000000000002
 40
0.6875000000000001
 40
0.6875000000000001
 40
0.75
 40
0.75
 40
0.8749999999999999
 40
0.8749999999999999
 40
0.9062499999999999
 40
0.9062499999999999
 40
0.9375
 40
0.9375
 40
1.0
 40
1.0
 40
1.0
 40
1.0
 10
149.524868728724
 20
222.6765581379974
 30
0.0
 10
150.99204315003
 20
222.6765581379974
 30
0.0
 10
152.4351943664741
 20
222.5382325541768
 30
0.0
 10
154.5654526386343
 20
222.1322231249335
 30
0.0
 10
155.2697543528417
 20
221.9635706644585
 30
0.0
 10
156.6665836829766
 20
221.5584297050569
 30
0.0
 10
157.3622065846075
 20
221.3204669306778
 30
0.0
 10
159.3908407540541
 20
220.5174318826497
 30
0.0
 10
160.6760026583533
 20
219.8624585441292
 30
0.0
 10
162.5052881606966
 20
218.7046763010028
 30
0.0
 10
163.0985324767741
 20
218.2893358476719
 30
0.0
 10
164.2510609425028
 20
217.3981346769796
 30
0.0
 10
164.8037655587327
 20
216.9271674272168
 30
0.0
 10
166.3823844964546
 20
215.4500082415213
 30
0.0
 10
167.3345183821714
 20
214.3762289847602
 30
0.0
 10
168.6123765827159
 20
212.6318195014962
 30
0.0
 10
169.0149381516489
 20
212.0245968436088
 30
0.0
 10
169.7558177960191
 20
210.7841683089627
 30
0.0
 10
170.0948195896619
 20
210.1507655139471
 30
0.0
 10
171.0200075954669
 20
208.2119732265065
 30
0.0
 10
171.5151730870579
 20
206.8683333072514
 30
0.0
 10
171.9782001946088
 20
205.1230633946627
 30
0.0
 10
172.0630793722381
 20
204.7699299424182
 30
0.0
 10
172.2153961776595
 20
204.0637252042995
 30
0.0
 10
172.283033009167
 20
203.7100452872257
 30
0.0
 10
172.4608129839129
 20
202.6472975464109
 30
0.0
 10
172.5458793651707
 20
201.9365251451032
 30
0.0
 10
172.5979696113343
 20
201.2235014630533
 30
0.0
  0
SPLINE
  5
1E6
330
1F
100
AcDbEntity
  8
0
  6
Continuous
 62
     8
370
    18
100
AcDbSpline
210
0.0
220
0.0
230
1.0
 70
     8
 71
     3
 72
    32
 73
    28
 74
     0
 42
0.000000001
 43
0.00000001
 40
0.0
 40
0.0
 40
0.0
 40
0.0
 40
0.125
 40
0.125
 40
0.1875
 40
0.1875
 40
0.25
 40
0.25
 40
0.3749999999999999
 40
0.3749999999999999
 40
0.4374999999999999
 40
0.4374999999999999
 40
0.4999999999999998
 40
0.4999999999999998
 40
0.6249999999999993
 40
0.6249999999999993
 40
0.6874999999999993
 40
0.6874999999999993
 40
0.7499999999999993
 40
0.7499999999999993
 40
0.8749999999999996
 40
0.8749999999999996
 40
0.9062499999999997
 40
0.9062499999999997
 40
0.9374999999999998
 40
0.9374999999999998
 40
1.0
 40
1.0
 40
1.0
 40
1.0
 10
149.524868728724
 20
222.6765581379974
 30
0.0
 10
148.0576943074181
 20
222.6765581379974
 30
0.0
 10
146.614543090974
 20
222.5382325541768
 30
0.0
 10
144.4842848188137
 20
222.1322231249335
 30
0.0
 10
143.7799831046063
 20
221.9635706644585
 30
0.0
 10
142.3831537744714
 20
221.5584297050569
 30
0.0
 10
141.6875308728406
 20
221.3204669306778
 30
0.0
 10
139.6588967033939
 20
220.5174318826498
 30
0.0
 10
138.3737347990947
 20
219.8624585441293
 30
0.0
 10
136.5444492967515
 20
218.7046763010029
 30
0.0
 10
135.9512049806739
 20
218.289335847672
 30
0.0
 10
134.7986765149452
 20
217.3981346769797
 30
0.0
 10
134.2459718987153
 20
216.9271674272169
 30
0.0
 10
132.6673529609934
 20
215.4500082415214
 30
0.0
 10
131.7152190752766
 20
214.3762289847603
 30
0.0
 10
130.437360874732
 20
212.6318195014964
 30
0.0
 10
130.034799305799
 20
212.0245968436089
 30
0.0
 10
129.2939196614288
 20
210.7841683089628
 30
0.0
 10
128.9549178677861
 20
210.1507655139472
 30
0.0
 10
128.029729861981
 20
208.2119732265067
 30
0.0
 10
127.53456437039
 20
206.8683333072515
 30
0.0
 10
127.0715372628391
 20
205.1230633946629
 30
0.0
 10
126.9866580852098
 20
204.7699299424183
 30
0.0
 10
126.8343412797884
 20
204.0637252042997
 30
0.0
 10
126.7667044482809
 20
203.7100452872258
 30
0.0
 10
126.5889244735349
 20
202.6472975464111
 30
0.0
 10
126.5038580922772
 20
201.9365251451033
 30
0.0
 10
126.4517678461136
 20
201.2235014630534
 30
0.0
  0
SPLINE
  5
1E7
330
1F
100
AcDbEntity
  8
0
  6
Continuous
 62
     8
370
    18
100
AcDbSpline
210
0.0
220
0.0
230
1.0
 70
     8
 71
     3
 72
     9
 73
     5
 74
     0
 42
0.000000001
 43
0.00000001
 40
0.0830830831969722
 40
0.0830830831969722
 40
0.0830830831969722
 40
0.0830830831969722
 40
0.4992340255743815
 40
1.0
 40
1.0
 40
1.0
 40
1.0
 10
126.5835413335034
 20
201.2893899210178
 30
0.0
 10
126.5641637320539
 20
201.286865242982
 30
0.0
 10
126.5213082962306
 20
201.2791649116179
 30
0.0
 10
126.4763315136872
 20
201.2431633784456
 30
0.0
 10
126.4517678461136
 20
201.2235014630534
 30
0.0
  0
SPLINE
  5
1E8
330
1F
100
AcDbEntity
  8
0
  6
Continuous
 62
     8
370
    18
100
AcDbSpline
210
0.0
220
0.0
230
1.0
 70
     8
 71
     3
 72
     8
 73
     4
 74
     0
 42
0.000000001
 43
0.00000001
 40
0.0
 40
0.0
 40
0.0
 40
0.0
 40
0.0017326793771811
 40
0.0017326793771811
 40
0.0017326793771811
 40
0.0017326793771811
 10
172.4661960894844
 20
201.2893899255074
 30
0.0
 10
172.5110478239569
 20
200.7135765516492
 30
0.0
 10
172.5550764319019
 20
200.1376920195353
 30
0.0
 10
172.5974168017218
 20
199.5616865618769
 30
0.0
  0
SPLINE
  5
1E9
330
1F
100
AcDbEntity
  8
0
  6
Continuous
 62
     8
370
    18
100
AcDbSpline
210
0.0
220
0.0
230
1.0
 70
     8
 71
     3
 72
     8
 73
     4
 74
     0
 42
0.000000001
 43
0.00000001
 40
0.0
 40
0.0
 40
0.0
 40
0.0
 40
0.001732679377181
 40
0.001732679377181
 40
0.001732679377181
 40
0.001732679377181
 10
126.4523206557261
 20
199.5616865618772
 30
0.0
 10
126.494661025546
 20
200.1376920195356
 30
0.0
 10
126.538689633491
 20
200.7135765516495
 30
0.0
 10
126.5835413679635
 20
201.2893899255076
 30
0.0
  0
LINE
  5
1EA
330
1F
100
AcDbEntity
  8
0
  6
Continuous
 62
     8
370
    18
100
AcDbLine
 10
147.5248686337
 20
229.5598020542
 30
0.0
 11
151.5248688237
 21
229.5598020542
 31
0.0
  0
ARC
  5
1EB
330
1F
100
AcDbEntity
  8
0
  6
Continuous
 62
     8
370
    18
100
AcDbCircle
 10
149.5248687287
 20
225.8852593848
 30
0.0
 40
2.001772926626006
100
AcDbArc
 50
182.4115486505
 51
357.5884513495
  0
ENDSEC
  0
SECTION
  2
OBJECTS
  0
DICTIONARY
  5
C
330
0
100
AcDbDictionary
281
     1
  3
ACAD_GROUP
350
D
  3
ACAD_LAYOUT
350
1A
  3
ACAD_MLINESTYLE
350
17
  3
ACAD_PLOTSETTINGS
350
19
  3
ACAD_PLOTSTYLENAME
350
E
  3
ACAD_SCALELIST
350
47
  0
DICTIONARY
  5
D
102
{ACAD_REACTORS
330
C
102
}
330
C
100
AcDbDictionary
281
     1
  0
DICTIONARY
  5
1A
102
{ACAD_REACTORS
330
C
102
}
330
C
100
AcDbDictionary
281
     1
  3
Layout1
350
1E
  3
Layout2
350
26
  3
Model
350
22
  0
DICTIONARY
  5
17
102
{ACAD_REACTORS
330
C
102
}
330
C
100
AcDbDictionary
281
     1
  3
Standard
350
18
  0
DICTIONARY
  5
19
102
{ACAD_REACTORS
330
C
102
}
330
C
100
AcDbDictionary
281
     1
  0
ACDBDICTIONARYWDFLT
  5
E
102
{ACAD_REACTORS
330
C
102
}
330
C
100
AcDbDictionary
281
     1
  3
Normal
350
F
100
AcDbDictionaryWithDefault
340
F
  0
DICTIONARY
  5
47
102
{ACAD_REACTORS
330
C
102
}
330
C
100
AcDbDictionary
281
     1
  3
A0
350
48
  3
A1
350
49
  3
A2
350
4A
  3
A3
350
4B
  3
A4
350
4C
  3
A5
350
4D
  3
A6
350
4E
  3
A7
350
4F
  3
A8
350
50
  3
A9
350
51
  3
B0
350
52
  3
B1
350
53
  3
B2
350
54
  3
B3
350
55
  3
B4
350
56
  3
B5
350
57
  3
B6
350
58
  3
B7
350
59
  3
B8
350
5A
  3
B9
350
5B
  3
C0
350
5C
  3
C1
350
5D
  3
C2
350
5E
  3
C3
350
5F
  3
C4
350
60
  3
C5
350
61
  3
C6
350
62
  3
C7
350
63
  3
C8
350
64
  3
C9
350
65
  3
D0
350
66
  3
D1
350
67
  3
D2
350
68
  0
LAYOUT
  5
1E
102
{ACAD_REACTORS
330
1A
102
}
330
1A
100
AcDbPlotSettings
  1

  2
none_device
  4

  6

 40
0.0
 41
0.0
 42
0.0
 43
0.0
 44
0.0
 45
0.0
 46
0.0
 47
0.0
 48
0.0
 49
0.0
140
0.0
141
0.0
142
1.0
143
1.0
 70
   688
 72
     1
 73
     0
 74
     5
  7

 75
    16
147
1.0
148
0.0
149
0.0
100
AcDbLayout
  1
Layout1
 70
     1
 71
     1
 10
0.0
 20
0.0
 11
420.0
 21
297.0
 12
0.0
 22
0.0
 32
0.0
 14
1.0000000000E+20
 24
1.0000000000E+20
 34
1.0000000000E+20
 15
-1.0000000000E+20
 25
-1.0000000000E+20
 35
-1.0000000000E+20
146
0.0
 13
0.0
 23
0.0
 33
0.0
 16
1.0
 26
0.0
 36
0.0
 17
0.0
 27
1.0
 37
0.0
 76
     0
330
1B
  0
LAYOUT
  5
26
102
{ACAD_REACTORS
330
1A
102
}
330
1A
100
AcDbPlotSettings
  1

  2
none_device
  4

  6

 40
0.0
 41
0.0
 42
0.0
 43
0.0
 44
0.0
 45
0.0
 46
0.0
 47
0.0
 48
0.0
 49
0.0
140
0.0
141
0.0
142
1.0
143
1.0
 70
   688
 72
     1
 73
     0
 74
     5
  7

 75
    16
147
1.0
148
0.0
149
0.0
100
AcDbLayout
  1
Layout2
 70
     1
 71
     2
 10
0.0
 20
0.0
 11
0.0
 21
0.0
 12
0.0
 22
0.0
 32
0.0
 14
0.0
 24
0.0
 34
0.0
 15
0.0
 25
0.0
 35
0.0
146
0.0
 13
0.0
 23
0.0
 33
0.0
 16
1.0
 26
0.0
 36
0.0
 17
0.0
 27
1.0
 37
0.0
 76
     0
330
23
  0
LAYOUT
  5
22
102
{ACAD_REACTORS
330
1A
102
}
330
1A
100
AcDbPlotSettings
  1

  2
none_device
  4
Letter_(8.50_x_11.00_Inches)
  6

 40
6.35
 41
6.35
 42
6.35000508
 43
6.35000508
 44
215.9
 45
279.4
 46
0.0
 47
0.0
 48
0.0
 49
0.0
140
0.0
141
0.0
142
1.0
143
1.0
 70
  1712
 72
     1
 73
     0
 74
     0
  7

 75
     0
147
1.0
148
0.0
149
0.0
100
AcDbLayout
  1
Model
 70
     1
 71
     0
 10
0.0
 20
0.0
 11
594.0
 21
841.0
 12
0.0
 22
0.0
 32
0.0
 14
0.0
 24
0.0
 34
0.0
 15
594.0
 25
841.0
 35
0.0
146
0.0
 13
0.0
 23
0.0
 33
0.0
 16
1.0
 26
0.0
 36
0.0
 17
0.0
 27
1.0
 37
0.0
 76
     0
330
1F
331
29
  0
MLINESTYLE
  5
18
102
{ACAD_REACTORS
330
17
102
}
330
17
100
AcDbMlineStyle
  2
Standard
 70
     0
  3

 62
   256
 51
90.0
 52
90.0
 71
     2
 49
0.5
 62
   256
  6
BYLAYER
 49
-0.5
 62
   256
  6
BYLAYER
  0
ACDBPLACEHOLDER
  5
F
102
{ACAD_REACTORS
330
E
102
}
330
E
  0
SCALE
  5
48
102
{ACAD_REACTORS
330
47
102
}
330
47
100
AcDbScale
 70
     0
300
1:1
140
1.0
141
1.0
290
     1
  0
SCALE
  5
49
102
{ACAD_REACTORS
330
47
102
}
330
47
100
AcDbScale
 70
     0
300
1:2
140
1.0
141
2.0
290
     0
  0
SCALE
  5
4A
102
{ACAD_REACTORS
330
47
102
}
330
47
100
AcDbScale
 70
     0
300
1:4
140
1.0
141
4.0
290
     0
  0
SCALE
  5
4B
102
{ACAD_REACTORS
330
47
102
}
330
47
100
AcDbScale
 70
     0
300
1:5
140
1.0
141
5.0
290
     0
  0
SCALE
  5
4C
102
{ACAD_REACTORS
330
47
102
}
330
47
100
AcDbScale
 70
     0
300
1:8
140
1.0
141
8.0
290
     0
  0
SCALE
  5
4D
102
{ACAD_REACTORS
330
47
102
}
330
47
100
AcDbScale
 70
     0
300
1:10
140
1.0
141
10.0
290
     0
  0
SCALE
  5
4E
102
{ACAD_REACTORS
330
47
102
}
330
47
100
AcDbScale
 70
     0
300
1:16
140
1.0
141
16.0
290
     0
  0
SCALE
  5
4F
102
{ACAD_REACTORS
330
47
102
}
330
47
100
AcDbScale
 70
     0
300
1:20
140
1.0
141
20.0
290
     0
  0
SCALE
  5
50
102
{ACAD_REACTORS
330
47
102
}
330
47
100
AcDbScale
 70
     0
300
1:30
140
1.0
141
30.0
290
     0
  0
SCALE
  5
51
102
{ACAD_REACTORS
330
47
102
}
330
47
100
AcDbScale
 70
     0
300
1:40
140
1.0
141
40.0
290
     0
  0
SCALE
  5
52
102
{ACAD_REACTORS
330
47
102
}
330
47
100
AcDbScale
 70
     0
300
1:50
140
1.0
141
50.0
290
     0
  0
SCALE
  5
53
102
{ACAD_REACTORS
330
47
102
}
330
47
100
AcDbScale
 70
     0
300
1:100
140
1.0
141
100.0
290
     0
  0
SCALE
  5
54
102
{ACAD_REACTORS
330
47
102
}
330
47
100
AcDbScale
 70
     0
300
2:1
140
2.0
141
1.0
290
     0
  0
SCALE
  5
55
102
{ACAD_REACTORS
330
47
102
}
330
47
100
AcDbScale
 70
     0
300
4:1
140
4.0
141
1.0
290
     0
  0
SCALE
  5
56
102
{ACAD_REACTORS
330
47
102
}
330
47
100
AcDbScale
 70
     0
300
8:1
140
8.0
141
1.0
290
     0
  0
SCALE
  5
57
102
{ACAD_REACTORS
330
47
102
}
330
47
100
AcDbScale
 70
     0
300
10:1
140
10.0
141
1.0
290
     0
  0
SCALE
  5
58
102
{ACAD_REACTORS
330
47
102
}
330
47
100
AcDbScale
 70
     0
300
100:1
140
100.0
141
1.0
290
     0
  0
SCALE
  5
59
102
{ACAD_REACTORS
330
47
102
}
330
47
100
AcDbScale
 70
     0
300
1/128" = 1'-0"
140
0.0078125
141
12.0
290
     0
  0
SCALE
  5
5A
102
{ACAD_REACTORS
330
47
102
}
330
47
100
AcDbScale
 70
     0
300
1/64" = 1'-0"
140
0.015625
141
12.0
290
     0
  0
SCALE
  5
5B
102
{ACAD_REACTORS
330
47
102
}
330
47
100
AcDbScale
 70
     0
300
1/32" = 1'-0"
140
0.03125
141
12.0
290
     0
  0
SCALE
  5
5C
102
{ACAD_REACTORS
330
47
102
}
330
47
100
AcDbScale
 70
     0
300
1/16" = 1'-0"
140
0.0625
141
12.0
290
     0
  0
SCALE
  5
5D
102
{ACAD_REACTORS
330
47
102
}
330
47
100
AcDbScale
 70
     0
300
3/32" = 1'-0"
140
0.09375
141
12.0
290
     0
  0
SCALE
  5
5E
102
{ACAD_REACTORS
330
47
102
}
330
47
100
AcDbScale
 70
     0
300
1/8" = 1'-0"
140
0.125
141
12.0
290
     0
  0
SCALE
  5
5F
102
{ACAD_REACTORS
330
47
102
}
330
47
100
AcDbScale
 70
     0
300
3/16" = 1'-0"
140
0.1875
141
12.0
290
     0
  0
SCALE
  5
60
102
{ACAD_REACTORS
330
47
102
}
330
47
100
AcDbScale
 70
     0
300
1/4" = 1'-0"
140
0.25
141
12.0
290
     0
  0
SCALE
  5
61
102
{ACAD_REACTORS
330
47
102
}
330
47
100
AcDbScale
 70
     0
300
3/8" = 1'-0"
140
0.375
141
12.0
290
     0
  0
SCALE
  5
62
102
{ACAD_REACTORS
330
47
102
}
330
47
100
AcDbScale
 70
     0
300
1/2" = 1'-0"
140
0.5
141
12.0
290
     0
  0
SCALE
  5
63
102
{ACAD_REACTORS
330
47
102
}
330
47
100
AcDbScale
 70
     0
300
3/4" = 1'-0"
140
0.75
141
12.0
290
     0
  0
SCALE
  5
64
102
{ACAD_REACTORS
330
47
102
}
330
47
100
AcDbScale
 70
     0
300
1" = 1'-0"
140
1.0
141
12.0
290
     0
  0
SCALE
  5
65
102
{ACAD_REACTORS
330
47
102
}
330
47
100
AcDbScale
 70
     0
300
1-1/2" = 1'-0"
140
1.5
141
12.0
290
     0
  0
SCALE
  5
66
102
{ACAD_REACTORS
330
47
102
}
330
47
100
AcDbScale
 70
     0
300
3" = 1'-0"
140
3.0
141
12.0
290
     0
  0
SCALE
  5
67
102
{ACAD_REACTORS
330
47
102
}
330
47
100
AcDbScale
 70
     0
300
6" = 1'-0"
140
6.0
141
12.0
290
     0
  0
SCALE
  5
68
102
{ACAD_REACTORS
330
47
102
}
330
47
100
AcDbScale
 70
     0
300
1'-0" = 1'-0"
140
12.0
141
12.0
290
     0
  0
ENDSEC
  0
EOF
