  0
SECTION
  2
HEADER
  9
$ACADVER
  1
AC1024
  9
$ACADMAINTVER
 70
     6
  9
$DWGCODEPAGE
  3
ANSI_1252
  9
$INSBASE
 10
0.0
 20
0.0
 30
0.0
  9
$EXTMIN
 10
0.0
 20
0.0
 30
0.0
  9
$EXTMAX
 10
594.0
 20
841.0
 30
0.0
  9
$LIMMIN
 10
0.0
 20
0.0
  9
$LIMMAX
 10
594.0
 20
841.0
  9
$ORTHOMODE
 70
     0
  9
$REGENMODE
 70
     1
  9
$FILLMODE
 70
     1
  9
$QTEXTMODE
 70
     0
  9
$MIRRTEXT
 70
     1
  9
$LTSCALE
 40
1.0
  9
$ATTMODE
 70
     1
  9
$TEXTSIZE
 40
10.0
  9
$TRACEWID
 40
1.0
  9
$TEXTSTYLE
  7
Standard
  9
$CLAYER
  8
0
  9
$CELTYPE
  6
ByLayer
  9
$CECOLOR
 62
   256
  9
$CELTSCALE
 40
1.0
  9
$DISPSILH
 70
     0
  9
$DIMSCALE
 40
1.0
  9
$DIMASZ
 40
2.5
  9
$DIMEXO
 40
0.0
  9
$DIMDLI
 40
3.75
  9
$DIMRND
 40
0.0
  9
$DIMDLE
 40
0.0
  9
$DIMEXE
 40
1.0
  9
$DIMTP
 40
0.0
  9
$DIMTM
 40
0.0
  9
$DIMTXT
 40
3.5
  9
$DIMCEN
 40
2.5
  9
$DIMTSZ
 40
0.0
  9
$DIMTOL
 70
     0
  9
$DIMLIM
 70
     0
  9
$DIMTIH
 70
     1
  9
$DIMTOH
 70
     1
  9
$DIMSE1
 70
     0
  9
$DIMSE2
 70
     0
  9
$DIMTAD
 70
     1
  9
$DIMZIN
 70
     0
  9
$DIMBLK
  1

  9
$DIMASO
 70
     1
  9
$DIMSHO
 70
     1
  9
$DIMPOST
  1

  9
$DIMAPOST
  1

  9
$DIMALT
 70
     0
  9
$DIMALTD
 70
     3
  9
$DIMALTF
 40
0.0393700787
  9
$DIMLFAC
 40
1.0
  9
$DIMTOFL
 70
     1
  9
$DIMTVP
 40
0.0
  9
$DIMTIX
 70
     0
  9
$DIMSOXD
 70
     0
  9
$DIMSAH
 70
     0
  9
$DIMBLK1
  1

  9
$DIMBLK2
  1

  9
$DIMSTYLE
  2
ISO-25
  9
$DIMCLRD
 70
     0
  9
$DIMCLRE
 70
     0
  9
$DIMCLRT
 70
     0
  9
$DIMTFAC
 40
1.0
  9
$DIMGAP
 40
1.5
  9
$DIMJUST
 70
     0
  9
$DIMSD1
 70
     0
  9
$DIMSD2
 70
     0
  9
$DIMTOLJ
 70
     0
  9
$DIMTZIN
 70
     0
  9
$DIMALTZ
 70
     0
  9
$DIMALTTZ
 70
     0
  9
$DIMUPT
 70
     0
  9
$DIMDEC
 70
     2
  9
$DIMTDEC
 70
     2
  9
$DIMALTU
 70
     2
  9
$DIMALTTD
 70
     3
  9
$DIMTXSTY
  7
Standard
  9
$DIMAUNIT
 70
     0
  9
$DIMADEC
 70
     2
  9
$DIMALTRND
 40
0.0
  9
$DIMAZIN
 70
     0
  9
$DIMDSEP
 70
    44
  9
$DIMATFIT
 70
     3
  9
$DIMFRAC
 70
     0
  9
$DIMLDRBLK
  1

  9
$DIMLUNIT
 70
     2
  9
$DIMLWD
 70
    -2
  9
$DIMLWE
 70
    -2
  9
$DIMTMOVE
 70
     0
  9
$DIMFXL
 40
1.0
  9
$DIMFXLON
 70
     0
  9
$DIMJOGANG
 40
0.7853981634
  9
$DIMTFILL
 70
     0
  9
$DIMTFILLCLR
 70
     0
  9
$DIMARCSYM
 70
     0
  9
$DIMLTYPE
  6

  9
$DIMLTEX1
  6

  9
$DIMLTEX2
  6

  9
$DIMTXTDIRECTION
 70
     0
  9
$LUNITS
 70
     2
  9
$LUPREC
 70
     2
  9
$SKETCHINC
 40
1.0
  9
$FILLETRAD
 40
10.0
  9
$AUNITS
 70
     0
  9
$AUPREC
 70
     2
  9
$MENU
  1
.
  9
$ELEVATION
 40
0.0
  9
$PELEVATION
 40
0.0
  9
$THICKNESS
 40
0.0
  9
$LIMCHECK
 70
     0
  9
$CHAMFERA
 40
10.0
  9
$CHAMFERB
 40
10.0
  9
$CHAMFERC
 40
20.0
  9
$CHAMFERD
 40
0.0
  9
$SKPOLY
 70
     0
  9
$TDCREATE
 40
2456359.299851493
  9
$TDUCREATE
 40
2456359.258184826
  9
$TDUPDATE
 40
2456359.299854919
  9
$TDUUPDATE
 40
2456359.258188252
  9
$TDINDWG
 40
0.0000000116
  9
$TDUSRTIMER
 40
0.0000000116
  9
$USRTIMER
 70
     1
  9
$ANGBASE
 50
0.0
  9
$ANGDIR
 70
     0
  9
$PDMODE
 70
     0
  9
$PDSIZE
 40
-1.0
  9
$PLINEWID
 40
0.0
  9
$SPLFRAME
 70
     0
  9
$SPLINETYPE
 70
     6
  9
$SPLINESEGS
 70
     8
  9
$HANDSEED
  5
22A
  9
$SURFTAB1
 70
     6
  9
$SURFTAB2
 70
     6
  9
$SURFTYPE
 70
     6
  9
$SURFU
 70
     6
  9
$SURFV
 70
     6
  9
$UCSBASE
  2

  9
$UCSNAME
  2

  9
$UCSORG
 10
0.0
 20
0.0
 30
0.0
  9
$UCSXDIR
 10
1.0
 20
0.0
 30
0.0
  9
$UCSYDIR
 10
0.0
 20
1.0
 30
0.0
  9
$UCSORTHOREF
  2

  9
$UCSORTHOVIEW
 70
     0
  9
$UCSORGTOP
 10
0.0
 20
0.0
 30
0.0
  9
$UCSORGBOTTOM
 10
0.0
 20
0.0
 30
0.0
  9
$UCSORGLEFT
 10
0.0
 20
0.0
 30
0.0
  9
$UCSORGRIGHT
 10
0.0
 20
0.0
 30
0.0
  9
$UCSORGFRONT
 10
0.0
 20
0.0
 30
0.0
  9
$UCSORGBACK
 10
0.0
 20
0.0
 30
0.0
  9
$PUCSBASE
  2

  9
$PUCSNAME
  2

  9
$PUCSORG
 10
0.0
 20
0.0
 30
0.0
  9
$PUCSXDIR
 10
1.0
 20
0.0
 30
0.0
  9
$PUCSYDIR
 10
0.0
 20
1.0
 30
0.0
  9
$PUCSORTHOREF
  2

  9
$PUCSORTHOVIEW
 70
     0
  9
$PUCSORGTOP
 10
0.0
 20
0.0
 30
0.0
  9
$PUCSORGBOTTOM
 10
0.0
 20
0.0
 30
0.0
  9
$PUCSORGLEFT
 10
0.0
 20
0.0
 30
0.0
  9
$PUCSORGRIGHT
 10
0.0
 20
0.0
 30
0.0
  9
$PUCSORGFRONT
 10
0.0
 20
0.0
 30
0.0
  9
$PUCSORGBACK
 10
0.0
 20
0.0
 30
0.0
  9
$USERI1
 70
     0
  9
$USERI2
 70
     0
  9
$USERI3
 70
     0
  9
$USERI4
 70
     0
  9
$USERI5
 70
     0
  9
$USERR1
 40
0.0
  9
$USERR2
 40
0.0
  9
$USERR3
 40
0.0
  9
$USERR4
 40
0.0
  9
$USERR5
 40
0.0
  9
$WORLDVIEW
 70
     1
  9
$SHADEDGE
 70
     3
  9
$SHADEDIF
 70
    70
  9
$TILEMODE
 70
     1
  9
$MAXACTVP
 70
    64
  9
$PINSBASE
 10
0.0
 20
0.0
 30
0.0
  9
$PLIMCHECK
 70
     0
  9
$PEXTMIN
 10
1.0000000000E+20
 20
1.0000000000E+20
 30
1.0000000000E+20
  9
$PEXTMAX
 10
-1.0000000000E+20
 20
-1.0000000000E+20
 30
-1.0000000000E+20
  9
$PLIMMIN
 10
0.0
 20
0.0
  9
$PLIMMAX
 10
420.0
 20
297.0
  9
$UNITMODE
 70
     0
  9
$VISRETAIN
 70
     1
  9
$PLINEGEN
 70
     0
  9
$PSLTSCALE
 70
     1
  9
$TREEDEPTH
 70
  3020
  9
$CMLSTYLE
  2
Standard
  9
$CMLJUST
 70
     0
  9
$CMLSCALE
 40
20.0
  9
$PROXYGRAPHICS
 70
     1
  9
$MEASUREMENT
 70
     1
  9
$CELWEIGHT
370
    -1
  9
$ENDCAPS
280
     0
  9
$JOINSTYLE
280
     0
  9
$LWDISPLAY
290
     1
  9
$INSUNITS
 70
     4
  9
$HYPERLINKBASE
  1

  9
$STYLESHEET
  1

  9
$XEDIT
290
     1
  9
$CEPSNTYPE
380
     0
  9
$PSTYLEMODE
290
     1
  9
$FINGERPRINTGUID
  2
{0812010C-D2DE-43F5-8CF9-A5BDC8B17F96}
  9
$VERSIONGUID
  2
{FAEB1C32-E019-11D5-929B-00C0DF256EC4}
  9
$EXTNAMES
290
     1
  9
$PSVPSCALE
 40
0.0
  9
$OLESTARTUP
290
     0
  9
$SORTENTS
280
   127
  9
$INDEXCTL
280
     0
  9
$HIDETEXT
280
     1
  9
$XCLIPFRAME
280
     2
  9
$HALOGAP
280
     0
  9
$OBSCOLOR
 70
   257
  9
$OBSLTYPE
280
     0
  9
$INTERSECTIONDISPLAY
280
     0
  9
$INTERSECTIONCOLOR
 70
   257
  9
$DIMASSOC
280
     2
  9
$PROJECTNAME
  1

  9
$CAMERADISPLAY
290
     0
  9
$LENSLENGTH
 40
50.0
  9
$CAMERAHEIGHT
 40
0.0
  9
$STEPSPERSEC
 40
2.0
  9
$STEPSIZE
 40
6.0
  9
$3DDWFPREC
 40
2.0
  9
$PSOLWIDTH
 40
5.0
  9
$PSOLHEIGHT
 40
80.0
  9
$LOFTANG1
 40
1.5707963268
  9
$LOFTANG2
 40
1.5707963268
  9
$LOFTMAG1
 40
0.0
  9
$LOFTMAG2
 40
0.0
  9
$LOFTPARAM
 70
     7
  9
$LOFTNORMALS
280
     1
  9
$LATITUDE
 40
37.795
  9
$LONGITUDE
 40
-122.394
  9
$NORTHDIRECTION
 40
0.0
  9
$TIMEZONE
 70
 -8000
  9
$LIGHTGLYPHDISPLAY
280
     1
  9
$TILEMODELIGHTSYNCH
280
     1
  9
$SOLIDHIST
280
     1
  9
$SHOWHIST
280
     1
  9
$DWFFRAME
280
     2
  9
$DGNFRAME
280
     2
  9
$REALWORLDSCALE
290
     1
  9
$INTERFERECOLOR
 62
   256
  9
$CSHADOW
280
     0
  9
$SHADOWPLANELOCATION
 40
0.0
  0
ENDSEC
  0
SECTION
  2
CLASSES
  0
CLASS
  1
ACDBDICTIONARYWDFLT
  2
AcDbDictionaryWithDefault
  3
ObjectDBX Classes
 90
        0
 91
        4
280
     0
281
     0
  0
CLASS
  1
VISUALSTYLE
  2
AcDbVisualStyle
  3
ObjectDBX Classes
 90
     4095
 91
        4
280
     0
281
     0
  0
CLASS
  1
MATERIAL
  2
AcDbMaterial
  3
ObjectDBX Classes
 90
     1153
 91
        4
280
     0
281
     0
  0
ENDSEC
  0
SECTION
  2
TABLES
  0
TABLE
  2
VPORT
  5
8
330
0
100
AcDbSymbolTable
 70
     1
  0
VPORT
  5
29
330
8
100
AcDbSymbolTableRecord
100
AcDbViewportTableRecord
  2
*Active
 70
     0
 10
0.0
 20
0.0
 11
1.0
 21
1.0
 12
297.0
 22
420.5
 13
0.0
 23
0.0
 14
10.0
 24
10.0
 15
10.0
 25
10.0
 16
0.0
 26
0.0
 36
1.0
 17
0.0
 27
0.0
 37
0.0
 40
841.0
 41
0.7063020214
 42
50.0
 43
0.0
 44
0.0
 50
0.0
 51
0.0
 71
     0
 72
  2000
 73
     1
 74
     3
 75
     0
 76
     0
 77
     0
 78
     0
281
     0
 65
     1
110
0.0
120
0.0
130
0.0
111
1.0
121
0.0
131
0.0
112
0.0
122
1.0
132
0.0
 79
     0
146
0.0
 60
     3
 61
     5
292
     1
282
     1
141
0.0
142
0.0
 63
   250
  0
ENDTAB
  0
TABLE
  2
LTYPE
  5
5
330
0
100
AcDbSymbolTable
 70
     6
  0
LTYPE
  5
14
330
5
100
AcDbSymbolTableRecord
100
AcDbLinetypeTableRecord
  2
ByBlock
 70
     0
  3

 72
    65
 73
     0
 40
0.0
  0
LTYPE
  5
15
330
5
100
AcDbSymbolTableRecord
100
AcDbLinetypeTableRecord
  2
ByLayer
 70
     0
  3

 72
    65
 73
     0
 40
0.0
  0
LTYPE
  5
16
330
5
100
AcDbSymbolTableRecord
100
AcDbLinetypeTableRecord
  2
Continuous
 70
     0
  3
Solid line
 72
    65
 73
     0
 40
0.0
  0
LTYPE
  5
3F
330
5
100
AcDbSymbolTableRecord
100
AcDbLinetypeTableRecord
  2
HIDDEN
 70
     0
  3
Hidden __ __ __ __ __ __ __ __ __ __ __ __ __ __
 72
    65
 73
     2
 40
1.905
 49
1.27
 74
     0
 49
-0.635
 74
     0
  0
LTYPE
  5
40
330
5
100
AcDbSymbolTableRecord
100
AcDbLinetypeTableRecord
  2
PHANTOM
 70
     0
  3
Phantom ______  __  __  ______  __  __  ______
 72
    65
 73
     6
 40
12.7
 49
6.35
 74
     0
 49
-1.27
 74
     0
 49
1.27
 74
     0
 49
-1.27
 74
     0
 49
1.27
 74
     0
 49
-1.27
 74
     0
  0
LTYPE
  5
41
330
5
100
AcDbSymbolTableRecord
100
AcDbLinetypeTableRecord
  2
CENTER
 70
     0
  3
Center ____ _ ____ _ ____ _ ____ _ ____ _ ____
 72
    65
 73
     4
 40
10.16
 49
6.35
 74
     0
 49
-1.27
 74
     0
 49
1.27
 74
     0
 49
-1.27
 74
     0
  0
LTYPE
  5
42
330
5
100
AcDbSymbolTableRecord
100
AcDbLinetypeTableRecord
  2
CENTERX2
 70
     0
  3
Center (2x) ________  __  ________  __  _____
 72
    65
 73
     4
 40
20.32
 49
12.7
 74
     0
 49
-2.54
 74
     0
 49
2.54
 74
     0
 49
-2.54
 74
     0
  0
LTYPE
  5
43
330
5
100
AcDbSymbolTableRecord
100
AcDbLinetypeTableRecord
  2
DOT2
 70
     0
  3
Dot (.5x) ........................................
 72
    65
 73
     2
 40
0.635
 49
0.0
 74
     0
 49
-0.635
 74
     0
  0
ENDTAB
  0
TABLE
  2
LAYER
  5
2
330
0
100
AcDbSymbolTable
 70
     1
  0
LAYER
  5
10
330
2
100
AcDbSymbolTableRecord
100
AcDbLayerTableRecord
  2
0
 70
     0
 62
     7
  6
Continuous
370
    -3
390
F
347
3E
  0
ENDTAB
  0
TABLE
  2
STYLE
  5
3
330
0
100
AcDbSymbolTable
 70
     3
  0
STYLE
  5
11
330
3
100
AcDbSymbolTableRecord
100
AcDbTextStyleTableRecord
  2
Standard
 70
     0
 40
0.0
 41
1.0
 50
0.0
 71
     0
 42
10.0
  3
txt
  4

  0
STYLE
  5
47
330
3
100
AcDbSymbolTableRecord
100
AcDbTextStyleTableRecord
  2
SLDTEXTSTYLE0
 70
     0
 40
0.0
 41
0.96
 50
0.0
 71
     0
 42
0.2
  3
ISOCP3
  4

  0
STYLE
  5
5E
330
3
100
AcDbSymbolTableRecord
100
AcDbTextStyleTableRecord
  2
SLDTEXTSTYLE1
 70
     0
 40
0.0
 41
0.605
 50
0.0
 71
     0
 42
0.2
  3
TXT
  4

  0
ENDTAB
  0
TABLE
  2
VIEW
  5
6
330
0
100
AcDbSymbolTable
 70
     0
  0
ENDTAB
  0
TABLE
  2
UCS
  5
7
330
0
100
AcDbSymbolTable
 70
     0
  0
ENDTAB
  0
TABLE
  2
APPID
  5
9
330
0
100
AcDbSymbolTable
 70
     1
  0
APPID
  5
12
330
9
100
AcDbSymbolTableRecord
100
AcDbRegAppTableRecord
  2
ACAD
 70
     0
  0
ENDTAB
  0
TABLE
  2
DIMSTYLE
  5
A
330
0
100
AcDbSymbolTable
 70
     2
100
AcDbDimStyleTable
  0
DIMSTYLE
105
27
330
A
100
AcDbSymbolTableRecord
100
AcDbDimStyleTableRecord
  2
ISO-25
 70
     0
 41
2.5
 42
0.625
 43
3.75
 44
1.25
 73
     0
 74
     0
 77
     1
 78
     8
140
2.5
141
2.5
143
0.0393700787
147
0.625
171
     3
172
     1
178
     0
271
     2
272
     2
274
     3
278
    44
283
     0
284
     8
340
11
  0
DIMSTYLE
105
48
102
{ACAD_REACTORS
330
46
330
53
102
}
330
A
100
AcDbSymbolTableRecord
100
AcDbDimStyleTableRecord
  2
SLDDIMSTYLE0
 70
     0
 41
2.5
 44
0.0
 45
0.000000001
 73
     0
 74
     0
 77
     1
 78
    12
 79
     3
140
6.0
147
1.5
173
     1
178
     0
271
     2
272
     2
276
     2
284
    12
340
47
  0
ENDTAB
  0
TABLE
  2
BLOCK_RECORD
  5
1
330
0
100
AcDbSymbolTable
 70
     3
  0
BLOCK_RECORD
  5
1F
330
1
100
AcDbSymbolTableRecord
100
AcDbBlockTableRecord
  2
*Model_Space
340
22
 70
     0
280
     1
281
     0
  0
BLOCK_RECORD
  5
1B
330
1
100
AcDbSymbolTableRecord
100
AcDbBlockTableRecord
  2
*Paper_Space
340
1E
 70
     0
280
     1
281
     0
  0
BLOCK_RECORD
  5
23
330
1
100
AcDbSymbolTableRecord
100
AcDbBlockTableRecord
  2
*Paper_Space0
340
26
 70
     0
280
     1
281
     0
  0
BLOCK_RECORD
  5
49
330
1
100
AcDbSymbolTableRecord
100
AcDbBlockTableRecord
  2
_D
340
0
 70
     0
280
     1
281
     0
  0
BLOCK_RECORD
  5
54
330
1
100
AcDbSymbolTableRecord
100
AcDbBlockTableRecord
  2
_D_1
340
0
 70
     0
280
     1
281
     0
  0
ENDTAB
  0
ENDSEC
  0
SECTION
  2
BLOCKS
  0
BLOCK
  5
20
330
1F
100
AcDbEntity
  8
0
100
AcDbBlockBegin
  2
*Model_Space
 70
     0
 10
0.0
 20
0.0
 30
0.0
  3
*Model_Space
  1

  0
ENDBLK
  5
21
330
1F
100
AcDbEntity
  8
0
100
AcDbBlockEnd
  0
BLOCK
  5
1C
330
1B
100
AcDbEntity
 67
     1
  8
0
100
AcDbBlockBegin
  2
*Paper_Space
 70
     0
 10
0.0
 20
0.0
 30
0.0
  3
*Paper_Space
  1

  0
ENDBLK
  5
1D
330
1B
100
AcDbEntity
 67
     1
  8
0
100
AcDbBlockEnd
  0
BLOCK
  5
24
330
23
100
AcDbEntity
  8
0
100
AcDbBlockBegin
  2
*Paper_Space0
 70
     0
 10
0.0
 20
0.0
 30
0.0
  3
*Paper_Space0
  1

  0
ENDBLK
  5
25
330
23
100
AcDbEntity
  8
0
100
AcDbBlockEnd
  0
BLOCK
  5
4A
330
49
100
AcDbEntity
  8
0
100
AcDbBlockBegin
  2
_D
 70
     0
 10
0.0
 20
0.0
 30
0.0
  3
_D
  1

  0
SOLID
  5
4C
330
49
100
AcDbEntity
  8
0
  6
Continuous
 62
     7
370
     0
100
AcDbTrace
 10
42.7614395004
 20
152.0299240879
 30
0.0
 11
42.4614395004
 21
149.5299240879
 31
0.0
 12
43.0614395004
 22
149.5299240879
 32
0.0
 13
43.0614395004
 23
149.5299240879
 33
0.0
  0
SOLID
  5
4D
330
49
100
AcDbEntity
  8
0
  6
Continuous
 62
     7
370
     0
100
AcDbTrace
 10
42.7614395004
 20
52.0299240879
 30
0.0
 11
43.0614395004
 21
54.5299240879
 31
0.0
 12
42.4614395004
 22
54.5299240879
 32
0.0
 13
42.4614395004
 23
54.5299240879
 33
0.0
  0
LINE
  5
4E
330
49
100
AcDbEntity
  8
0
  6
Continuous
 62
     7
370
     0
100
AcDbLine
 10
56.6850079902
 20
152.0299240879
 30
0.0
 11
41.7614395004
 21
152.0299240879
 31
0.0
  0
LINE
  5
4F
330
49
100
AcDbEntity
  8
0
  6
Continuous
 62
     7
370
     0
100
AcDbLine
 10
56.6850079902
 20
52.0299240879
 30
0.0
 11
41.7614395004
 21
52.0299240879
 31
0.0
  0
LINE
  5
50
330
49
100
AcDbEntity
  8
0
  6
Continuous
 62
     7
370
     0
100
AcDbLine
 10
42.7614395004
 20
152.0299240879
 30
0.0
 11
42.7614395004
 21
52.0299240879
 31
0.0
  0
MTEXT
  5
51
330
49
100
AcDbEntity
  8
0
  6
Continuous
 62
     7
370
     0
100
AcDbMText
 10
35.0270332946
 20
91.6722208134
 30
0.1
 40
6.0
 41
0.0
 46
0.0
 71
     1
 72
     1
  1
100
  7
SLDTEXTSTYLE0
 11
-7.044195017643634E-15
 21
1.0
 31
0.0
 73
     1
 44
1.0
  0
MTEXT
  5
52
330
49
100
AcDbEntity
  8
0
  6
Continuous
 62
     7
370
     0
100
AcDbMText
 10
35.0270332946
 20
108.4388881795
 30
0.1
 40
6.0
 41
0.0
 46
0.0
 71
     1
 72
     1
  1
mm
  7
SLDTEXTSTYLE0
 11
-7.044195017643634E-15
 21
1.0
 31
0.0
 73
     1
 44
1.0
  0
ENDBLK
  5
4B
330
49
100
AcDbEntity
  8
0
100
AcDbBlockEnd
  0
BLOCK
  5
55
330
54
100
AcDbEntity
  8
0
100
AcDbBlockBegin
  2
_D_1
 70
     0
 10
0.0
 20
0.0
 30
0.0
  3
_D_1
  1

  0
SOLID
  5
57
330
54
100
AcDbEntity
  8
0
  6
Continuous
 62
     7
370
     0
100
AcDbTrace
 10
56.6850079902
 20
38.4602342313
 30
0.0
 11
59.1850079902
 21
38.1602342313
 31
0.0
 12
59.1850079902
 22
38.7602342313
 32
0.0
 13
59.1850079902
 23
38.7602342313
 33
0.0
  0
SOLID
  5
58
330
54
100
AcDbEntity
  8
0
  6
Continuous
 62
     7
370
     0
100
AcDbTrace
 10
156.6850079902
 20
38.4602342313
 30
0.0
 11
154.1850079902
 21
38.7602342313
 31
0.0
 12
154.1850079902
 22
38.1602342313
 32
0.0
 13
154.1850079902
 23
38.1602342313
 33
0.0
  0
LINE
  5
59
330
54
100
AcDbEntity
  8
0
  6
Continuous
 62
     7
370
     0
100
AcDbLine
 10
56.6850079902
 20
52.0299240879
 30
0.0
 11
56.6850079902
 21
37.4602342313
 31
0.0
  0
LINE
  5
5A
330
54
100
AcDbEntity
  8
0
  6
Continuous
 62
     7
370
     0
100
AcDbLine
 10
156.6850079902
 20
52.0299240879
 30
0.0
 11
156.6850079902
 21
37.4602342313
 31
0.0
  0
LINE
  5
5B
330
54
100
AcDbEntity
  8
0
  6
Continuous
 62
     7
370
     0
100
AcDbLine
 10
56.6850079902
 20
38.4602342313
 30
0.0
 11
156.6850079902
 21
38.4602342313
 31
0.0
  0
MTEXT
  5
5C
330
54
100
AcDbEntity
  8
0
  6
Continuous
 62
     7
370
     0
100
AcDbMText
 10
91.2668151533
 20
46.1946404371
 30
0.1
 40
6.0
 41
0.0
 46
0.0
 71
     1
 72
     1
  1
100
  7
SLDTEXTSTYLE0
 73
     1
 44
1.0
  0
MTEXT
  5
5D
330
54
100
AcDbEntity
  8
0
  6
Continuous
 62
     7
370
     0
100
AcDbMText
 10
108.0334825193
 20
46.1946404371
 30
0.1
 40
6.0
 41
0.0
 46
0.0
 71
     1
 72
     1
  1
mm
  7
SLDTEXTSTYLE0
 73
     1
 44
1.0
  0
ENDBLK
  5
56
330
54
100
AcDbEntity
  8
0
100
AcDbBlockEnd
  0
ENDSEC
  0
SECTION
  2
ENTITIES
  0
LINE
  5
44
330
1F
100
AcDbEntity
  8
0
  6
Continuous
 62
     7
370
     0
100
AcDbLine
 10
56.6850079902
 20
152.0299240879
 30
0.0
 11
56.6850079902
 21
52.0299240879
 31
0.0
  0
LINE
  5
45
330
1F
100
AcDbEntity
  8
0
  6
Continuous
 62
     7
370
     0
100
AcDbLine
 10
56.6850079902
 20
52.0299240879
 30
0.0
 11
156.6850079902
 21
52.0299240879
 31
0.0
  0
DIMENSION
  5
46
330
1F
100
AcDbEntity
  8
0
  6
Continuous
 62
     7
370
     0
100
AcDbDimension
280
     0
  2
_D
 10
42.7614395004
 20
52.0299240879
 30
0.0
 11
42.7614395004
 21
105.4472211621
 31
0.0
 70
   160
  1
<>mm
 71
     2
 42
-1.0
 73
     0
 74
     0
 75
     0
  3
SLDDIMSTYLE0
100
AcDbAlignedDimension
 13
56.6850079902
 23
152.0299240879
 33
0.0
 14
56.6850079902
 24
52.0299240879
 34
0.0
 50
90.0
100
AcDbRotatedDimension
  0
DIMENSION
  5
53
330
1F
100
AcDbEntity
  8
0
  6
Continuous
 62
     7
370
     0
100
AcDbDimension
280
     0
  2
_D_1
 10
156.6850079902
 20
38.4602342313
 30
0.0
 11
105.0418155019
 21
38.4602342313
 31
0.0
 70
   160
  1
<>mm
 71
     2
 42
-1.0
 73
     0
 74
     0
 75
     0
  3
SLDDIMSTYLE0
100
AcDbAlignedDimension
 13
56.6850079902
 23
52.0299240879
 33
0.0
 14
156.6850079902
 24
52.0299240879
 34
0.0
100
AcDbRotatedDimension
  0
MTEXT
  5
5F
330
1F
100
AcDbEntity
  8
0
  6
Continuous
 62
     7
370
     0
100
AcDbMText
 10
290.1880665604
 20
48.1627376815
 30
0.0
 40
10.0
 41
0.0
 46
0.0
 71
     1
 72
     1
  1
32 575 05 75
  7
SLDTEXTSTYLE1
 73
     1
 44
1.0
  0
MTEXT
  5
60
330
1F
100
AcDbEntity
  8
0
  6
Continuous
 62
     7
370
     0
100
AcDbMText
 10
412.8252631579
 20
48.4342449499
 30
0.0
 40
10.0
 41
0.0
 46
0.0
 71
     1
 72
     1
  1
KLUDI GmbH & Co KG
  7
SLDTEXTSTYLE1
 73
     1
 44
1.0
  0
LINE
  5
61
330
1F
100
AcDbEntity
  8
0
  6
Continuous
 62
     7
370
    15
100
AcDbLine
 10
164.9908882636
 20
561.9254830098
 30
0.0
 11
164.5607335278
 21
561.9332763171
 31
0.0
  0
SPLINE
  5
62
330
1F
100
AcDbEntity
  8
0
  6
Continuous
 62
     7
370
    15
100
AcDbSpline
210
0.0
220
0.0
230
1.0
 70
     8
 71
     3
 72
    22
 73
    18
 74
     0
 42
0.00000001
 43
0.00000001
 12
1.0
 22
0.0
 32
0.0
 13
1.0
 23
0.0
 33
0.0
 40
0.0
 40
0.0
 40
0.0
 40
0.0
 40
0.0664318943017269
 40
0.14054071485545
 40
0.1813920974194631
 40
0.2277644044578099
 40
0.2733719512078974
 40
0.3389022250781672
 40
0.40988325733521
 40
0.486144732644524
 40
0.5648188332568916
 40
0.6434361096579179
 40
0.720549548299051
 40
0.7977422774032414
 40
0.8760977316376627
 40
0.9553798228161977
 40
1.0
 40
1.0
 40
1.0
 40
1.0
 10
182.5620396657247
 20
552.2173317885441
 30
0.0
 10
182.5490222649587
 20
552.5180180066919
 30
0.0
 10
182.5214831615139
 20
553.1541379982993
 30
0.0
 10
182.3763952918957
 20
554.0425048221471
 30
0.0
 10
182.2117845925948
 20
554.7894617694761
 30
0.0
 10
181.9533333749879
 20
555.5696405568598
 30
0.0
 10
181.4740319888766
 20
556.40099540087
 30
0.0
 10
180.744526740842
 20
557.2773944501455
 30
0.0
 10
179.6768911469682
 20
558.1850182113938
 30
0.0
 10
178.3276369690199
 20
559.0415175564935
 30
0.0
 10
176.7197058082786
 20
559.8182116623542
 30
0.0
 10
174.9092303486713
 20
560.4860677228178
 30
0.0
 10
172.9388509896417
 20
561.0289301207023
 30
0.0
 10
170.838000792095
 20
561.4509498969858
 30
0.0
 10
168.6173750856594
 20
561.745906239676
 30
0.0
 10
166.6503714314791
 20
561.9100154838843
 30
0.0
 10
165.4302744400219
 20
561.9213876280703
 30
0.0
 10
164.9908882636442
 20
561.9254830098195
 30
0.0
  0
SPLINE
  5
63
330
1F
100
AcDbEntity
  8
0
  6
Continuous
 62
     7
370
    15
100
AcDbSpline
210
0.0
220
0.0
230
1.0
 70
     8
 71
     3
 72
    22
 73
    18
 74
     0
 42
0.00000001
 43
0.00000001
 12
1.0
 22
0.0
 32
0.0
 13
1.0
 23
0.0
 33
0.0
 40
0.0
 40
0.0
 40
0.0
 40
0.0
 40
0.007572270010915
 40
0.0859561799377489
 40
0.1648242037354226
 40
0.243656542140672
 40
0.3220809000156136
 40
0.3999707827091005
 40
0.477241725092613
 40
0.5553808738577188
 40
0.6346028052990248
 40
0.7040726447390251
 40
0.7673576372187784
 40
0.8101797457819132
 40
0.8567130627133254
 40
0.90098617459413
 40
0.9999999999999999
 40
0.9999999999999999
 40
0.9999999999999999
 40
0.9999999999999999
 10
164.5608466710147
 20
561.9406821942372
 30
0.0
 10
164.4856711548211
 20
561.9421317249563
 30
0.0
 10
163.6323206816425
 20
561.9585859880942
 30
0.0
 10
161.9950637028756
 20
561.86926592794
 30
0.0
 10
159.6950424638941
 20
561.6592192212933
 30
0.0
 10
157.4736498894065
 20
561.3054075932702
 30
0.0
 10
155.3780645429061
 20
560.8283595855279
 30
0.0
 10
153.4499572666414
 20
560.2271342511707
 30
0.0
 10
151.7099289229722
 20
559.5092954873148
 30
0.0
 10
150.1659661445055
 20
558.6756820975152
 30
0.0
 10
148.8963929677403
 20
557.7605698875844
 30
0.0
 10
147.9298534716186
 20
556.785451385082
 30
0.0
 10
147.32299370015
 20
555.8958037633663
 30
0.0
 10
146.9559618993905
 20
554.9872491172489
 30
0.0
 10
146.8087346355218
 20
554.3361949664065
 30
0.0
 10
146.6306664017995
 20
553.4092330910934
 30
0.0
 10
146.5857817897507
 20
552.7407089863
 30
0.0
 10
146.5547657234925
 20
552.2787469244046
 30
0.0
  0
LINE
  5
64
330
1F
100
AcDbEntity
  8
0
  6
Continuous
 62
     7
370
    15
100
AcDbLine
 10
152.6108090429
 20
536.6458940125
 30
0.0
 11
152.6108090429
 21
532.656495533
 31
0.0
  0
LINE
  5
65
330
1F
100
AcDbEntity
  8
0
  6
Continuous
 62
     7
370
    15
100
AcDbLine
 10
176.5108094214
 20
532.656495533
 30
0.0
 11
176.5108094214
 21
536.6372811413
 31
0.0
  0
LINE
  5
66
330
1F
100
AcDbEntity
  8
0
  6
Continuous
 62
     7
370
    15
100
AcDbLine
 10
174.5108090936
 20
530.0164195514
 30
0.0
 11
174.5108090936
 21
530.1283943272
 31
0.0
  0
LINE
  5
67
330
1F
100
AcDbEntity
  8
0
  6
Continuous
 62
     7
370
    15
100
AcDbLine
 10
154.6108093707
 20
530.1283943272
 30
0.0
 11
154.6108093707
 21
530.0164195514
 31
0.0
  0
SPLINE
  5
68
330
1F
100
AcDbEntity
  8
0
  6
Continuous
 62
     7
370
    15
100
AcDbSpline
210
0.0
220
0.0
230
1.0
 70
     8
 71
     3
 72
    21
 73
    17
 74
     0
 42
0.00000001
 43
0.00000001
 12
1.0
 22
0.0
 32
0.0
 13
1.0
 23
0.0
 33
0.0
 40
0.0
 40
0.0
 40
0.0
 40
0.0
 40
0.116386009824627
 40
0.2111692975486897
 40
0.2852469181502508
 40
0.3380996737531028
 40
0.3853916733782951
 40
0.4291367344721758
 40
0.4752016111156314
 40
0.5404051819161968
 40
0.625054858055174
 40
0.702050849724936
 40
0.7898552704299993
 40
0.8546117020273487
 40
0.924252795819261
 40
1.0
 40
1.0
 40
1.0
 40
1.0
 10
180.9725290758866
 20
559.8962801313443
 30
0.0
 10
180.9271768924272
 20
560.4457171953301
 30
0.0
 10
180.8448904669551
 20
561.4426088236615
 30
0.0
 10
180.7034544290944
 20
562.8061844542532
 30
0.0
 10
180.2982380647936
 20
563.8736066321698
 30
0.0
 10
179.7126058601577
 20
564.7528654382228
 30
0.0
 10
179.1065153548269
 20
565.4186056731594
 30
0.0
 10
178.4372931863329
 20
566.0044753757016
 30
0.0
 10
177.6003747476512
 20
566.604629237428
 30
0.0
 10
176.4026707117696
 20
567.2926452062553
 30
0.0
 10
174.7887679437587
 20
567.9879139044274
 30
0.0
 10
172.7884877428585
 20
568.6190780003084
 30
0.0
 10
170.7738084030247
 20
569.0697986446182
 30
0.0
 10
168.7159965945289
 20
569.3781949147993
 30
0.0
 10
166.7103442850016
 20
569.5786723458668
 30
0.0
 10
165.2971056158399
 20
569.6187581301975
 30
0.0
 10
164.560809232143
 20
569.6396427965207
 30
0.0
  0
SPLINE
  5
69
330
1F
100
AcDbEntity
  8
0
  6
Continuous
 62
     7
370
    15
100
AcDbSpline
210
0.0
220
0.0
230
1.0
 70
     8
 71
     3
 72
    21
 73
    17
 74
     0
 42
0.00000001
 43
0.00000001
 12
1.0
 22
0.0
 32
0.0
 13
1.0
 23
0.0
 33
0.0
 40
0.0
 40
0.0
 40
0.0
 40
0.0
 40
0.0929378151662046
 40
0.1768449725779679
 40
0.2532274829800304
 40
0.322595984443669
 40
0.4027848325615581
 40
0.4696355818497457
 40
0.5267189145156997
 40
0.5641704626677835
 40
0.5971871351906795
 40
0.6259967903796
 40
0.6643902497603127
 40
0.7462898942824374
 40
0.8593706132409322
 40
1.0
 40
1.0
 40
1.0
 40
1.0
 10
164.560809232143
 20
569.6396055436177
 30
0.0
 10
163.658692810054
 20
569.6107039551172
 30
0.0
 10
161.94211755335
 20
569.5557091113423
 30
0.0
 10
159.5489590762427
 20
569.2725507895956
 30
0.0
 10
157.475243782753
 20
568.8930569036592
 30
0.0
 10
155.5645258491698
 20
568.3981993982468
 30
0.0
 10
153.8899273335427
 20
567.8141661739229
 30
0.0
 10
152.4886085151107
 20
567.1661795737389
 30
0.0
 10
151.5091280968952
 20
566.5916149755033
 30
0.0
 10
150.8129125852643
 20
566.0976183202015
 30
0.0
 10
150.3185375641292
 20
565.6892575950014
 30
0.0
 10
149.852639097218
 20
565.2444273295596
 30
0.0
 10
149.2555043830725
 20
564.5632401954109
 30
0.0
 10
148.5877387007448
 20
563.468808341015
 30
0.0
 10
148.3132192315834
 20
561.8439858127706
 30
0.0
 10
148.2076165948997
 20
560.5908135913205
 30
0.0
 10
148.1490819378156
 20
559.8961907243771
 30
0.0
  0
SPLINE
  5
6A
330
1F
100
AcDbEntity
  8
0
  6
Continuous
 62
     7
370
    15
100
AcDbSpline
210
0.0
220
0.0
230
1.0
 70
     8
 71
     3
 72
     9
 73
     5
 74
     0
 42
0.00000001
 43
0.00000001
 12
1.0
 22
0.0
 32
0.0
 13
1.0
 23
0.0
 33
0.0
 40
0.0
 40
0.0
 40
0.0
 40
0.0
 40
0.5671653338420168
 40
1.0
 40
1.0
 40
1.0
 40
1.0
 10
148.1481971813697
 20
559.8846572256131
 30
0.0
 10
148.1067681485237
 20
559.2884029625172
 30
0.0
 10
148.0337223709101
 20
558.2371146916761
 30
0.0
 10
147.9649332997308
 20
557.1853093936064
 30
0.0
 10
147.9351590050715
 20
556.7300515985531
 30
0.0
  0
LINE
  5
6B
330
1F
100
AcDbEntity
  8
0
  6
Continuous
 62
     7
370
    15
100
AcDbLine
 10
181.1772393657
 20
556.698014102
 30
0.0
 11
180.9733989312
 21
559.8849552488
 31
0.0
  0
SPLINE
  5
6C
330
1F
100
AcDbEntity
  8
0
  6
Continuous
 62
     7
370
    15
100
AcDbSpline
210
0.0
220
0.0
230
1.0
 70
     8
 71
     3
 72
    12
 73
     8
 74
     0
 42
0.00000001
 43
0.00000001
 12
1.0
 22
0.0
 32
0.0
 13
1.0
 23
0.0
 33
0.0
 40
0.0
 40
0.0
 40
0.0
 40
0.0
 40
0.3294207749991799
 40
0.5957975203391448
 40
0.8014235161238542
 40
0.9587586337632589
 40
1.0
 40
1.0
 40
1.0
 40
1.0
 10
188.3671725763339
 20
534.3198302006764
 30
0.0
 10
187.7229841778495
 20
535.0258751221063
 30
0.0
 10
186.5578911431154
 20
536.3028431986857
 30
0.0
 10
184.8709448363996
 20
537.9638710537764
 30
0.0
 10
183.8333636014975
 20
539.2813822006289
 30
0.0
 10
183.3528935907509
 20
540.0884828677548
 30
0.0
 10
183.1668034152748
 20
540.4909903716529
 30
0.0
 10
183.1281552685756
 20
540.5745851612133
 30
0.0
  0
SPLINE
  5
6D
330
1F
100
AcDbEntity
  8
0
  6
Continuous
 62
     7
370
    15
100
AcDbSpline
210
0.0
220
0.0
230
1.0
 70
     8
 71
     3
 72
    12
 73
     8
 74
     0
 42
0.00000001
 43
0.00000001
 12
1.0
 22
0.0
 32
0.0
 13
1.0
 23
0.0
 33
0.0
 40
0.0
 40
0.0
 40
0.0
 40
0.0
 40
0.0396446431951182
 40
0.1982748424709676
 40
0.4051399135007511
 40
0.67129695748881
 40
1.0
 40
1.0
 40
1.0
 40
1.0
 10
145.9937127901572
 20
540.5792268729252
 30
0.0
 10
145.9573644871283
 20
540.4988174455768
 30
0.0
 10
145.7755756380854
 20
540.0966655971614
 30
0.0
 10
145.2962649487457
 20
539.2856436801248
 30
0.0
 10
144.2564884627891
 20
537.9617113730817
 30
0.0
 10
142.5589875421263
 20
536.3006607252581
 30
0.0
 10
141.3966550028267
 20
535.0247602514651
 30
0.0
 10
140.7543825580138
 20
534.3197333431286
 30
0.0
  0
SPLINE
  5
6E
330
1F
100
AcDbEntity
  8
0
  6
Continuous
 62
     7
370
    15
100
AcDbSpline
210
0.0
220
0.0
230
1.0
 70
     8
 71
     3
 72
    11
 73
     7
 74
     0
 42
0.00000001
 43
0.00000001
 12
1.0
 22
0.0
 32
0.0
 13
1.0
 23
0.0
 33
0.0
 40
0.0
 40
0.0
 40
0.0
 40
0.0
 40
0.0993534820708109
 40
0.3431223259753546
 40
0.6881287533449018
 40
1.0
 40
1.0
 40
1.0
 40
1.0
 10
185.92996100321
 20
465.2803433863861
 30
0.0
 10
185.9308743916763
 20
465.28192404807
 30
0.0
 10
185.9340288254069
 20
465.2873829439459
 30
0.0
 10
185.8846133553407
 20
465.4523598457373
 30
0.0
 10
185.8314020061582
 20
465.6987880283796
 30
0.0
 10
185.8003340452036
 20
465.930954598557
 30
0.0
 10
185.7855836524028
 20
466.0411822414441
 30
0.0
  0
LINE
  5
6F
330
1F
100
AcDbEntity
  8
0
  6
Continuous
 62
     7
370
    15
100
AcDbLine
 10
185.6768573298
 20
470.3155002362
 30
0.0
 11
185.6761588378
 21
470.7833091533
 31
0.0
  0
LINE
  5
70
330
1F
100
AcDbEntity
  8
0
  6
Continuous
 62
     7
370
    15
100
AcDbLine
 10
143.4454596265
 20
470.7833091533
 30
0.0
 11
143.438433729
 21
469.9428445464
 31
0.0
  0
SPLINE
  5
71
330
1F
100
AcDbEntity
  8
0
  6
Continuous
 62
     7
370
    15
100
AcDbSpline
210
0.0
220
0.0
230
1.0
 70
     8
 71
     3
 72
    10
 73
     6
 74
     0
 42
0.00000001
 43
0.00000001
 12
1.0
 22
0.0
 32
0.0
 13
1.0
 23
0.0
 33
0.0
 40
0.0
 40
0.0
 40
0.0
 40
0.0
 40
0.2957479051273416
 40
0.7087373179855843
 40
1.0
 40
1.0
 40
1.0
 40
1.0
 10
143.3367649687785
 20
466.1664656168265
 30
0.0
 10
143.3244907968717
 20
466.0399257179775
 30
0.0
 10
143.2950766792164
 20
465.7366824930092
 30
0.0
 10
143.22385571666
 20
465.3939048793902
 30
0.0
 10
143.2012517979637
 20
465.3088137791216
 30
0.0
 10
143.1919033302325
 20
465.2736220313651
 30
0.0
  0
LINE
  5
72
330
1F
100
AcDbEntity
  8
0
  6
Continuous
 62
     7
370
    15
100
AcDbLine
 10
138.4608088656
 20
419.9877763903
 30
0.0
 11
138.4608088656
 21
359.9877777314
 31
0.0
  0
LINE
  5
73
330
1F
100
AcDbEntity
  8
0
  6
Continuous
 62
     7
370
    15
100
AcDbLine
 10
190.6608095987
 20
359.9877777314
 30
0.0
 11
190.6608095987
 21
419.9877763903
 31
0.0
  0
LINE
  5
74
330
1F
100
AcDbEntity
  8
0
  6
Continuous
 62
     7
370
    15
100
AcDbLine
 10
190.5608097686
 20
420.4877736783
 30
0.0
 11
190.5608097686
 21
485.4877750194
 31
0.0
  0
LINE
  5
75
330
1F
100
AcDbEntity
  8
0
  6
Continuous
 62
     7
370
    15
100
AcDbLine
 10
138.5608086957
 20
485.4877750194
 30
0.0
 11
138.5608086957
 21
420.4877736783
 31
0.0
  0
LINE
  5
76
330
1F
100
AcDbEntity
  8
0
  6
Continuous
 62
     7
370
    15
100
AcDbLine
 10
138.5608086957
 20
528.6767455554
 30
0.0
 11
138.5608086957
 21
497.6877766466
 31
0.0
  0
LINE
  5
77
330
1F
100
AcDbEntity
  8
0
  6
Continuous
 62
     7
370
    15
100
AcDbLine
 10
190.5608097686
 20
497.6877766466
 30
0.0
 11
190.5608097686
 21
528.6711948729
 31
0.0
  0
LINE
  5
78
330
1F
100
AcDbEntity
  8
0
  6
Continuous
 62
     7
370
    15
100
AcDbLine
 10
190.5108089222
 20
485.4877750194
 30
0.0
 11
190.4542366637
 21
488.7287757164
 31
0.0
  0
LINE
  5
79
330
1F
100
AcDbEntity
  8
0
  6
Continuous
 62
     7
370
    15
100
AcDbLine
 10
138.6673818006
 20
488.7287757164
 30
0.0
 11
138.6108095421
 21
485.4877750194
 31
0.0
  0
ARC
  5
7A
330
1F
100
AcDbEntity
  8
0
  6
Continuous
 62
     7
370
    15
100
AcDbCircle
 10
164.6634211716
 20
488.2750122677
 30
0.0
 40
26.00000000000003
100
AcDbArc
 50
158.7751234916
 51
179.0
  0
ARC
  5
7B
330
1F
100
AcDbEntity
  8
0
  6
Continuous
 62
     7
370
    15
100
AcDbCircle
 10
164.4581972926
 20
488.2750122677
 30
0.0
 40
26.0
100
AcDbArc
 50
1.0
 51
21.2248765084
  0
LINE
  5
7C
330
1F
100
AcDbEntity
  8
0
  6
Continuous
 62
     7
370
    15
100
AcDbLine
 10
139.6608086897
 20
420.4877736783
 30
0.0
 11
139.6608086897
 21
419.9877763903
 31
0.0
  0
LINE
  5
7D
330
1F
100
AcDbEntity
  8
0
  6
Continuous
 62
     7
370
    15
100
AcDbLine
 10
189.4608097745
 20
419.9877763903
 30
0.0
 11
189.4608097745
 21
420.4877736783
 31
0.0
  0
SPLINE
  5
7E
330
1F
100
AcDbEntity
  8
0
  6
Continuous
 62
     7
370
    15
100
AcDbSpline
210
0.0
220
0.0
230
1.0
 70
     8
 71
     3
 72
     9
 73
     5
 74
     0
 42
0.00000001
 43
0.00000001
 12
1.0
 22
0.0
 32
0.0
 13
1.0
 23
0.0
 33
0.0
 40
0.0
 40
0.0
 40
0.0
 40
0.0
 40
0.5010213445594156
 40
0.9999999999999999
 40
0.9999999999999999
 40
0.9999999999999999
 40
0.9999999999999999
 10
190.5601820571679
 20
528.6701741433186
 30
0.0
 10
190.473800269965
 20
529.6319698579064
 30
0.0
 10
190.3013888784326
 20
531.5516399977753
 30
0.0
 10
189.0145294480815
 20
533.3938990733684
 30
0.0
 10
188.3724140597838
 20
534.313147029881
 30
0.0
  0
SPLINE
  5
7F
330
1F
100
AcDbEntity
  8
0
  6
Continuous
 62
     7
370
    15
100
AcDbSpline
210
0.0
220
0.0
230
1.0
 70
     8
 71
     3
 72
     9
 73
     5
 74
     0
 42
0.00000001
 43
0.00000001
 12
1.0
 22
0.0
 32
0.0
 13
1.0
 23
0.0
 33
0.0
 40
0.0
 40
0.0
 40
0.0
 40
0.0
 40
0.4991314399006693
 40
1.0
 40
1.0
 40
1.0
 40
1.0
 10
140.7491541130799
 20
534.3130650734944
 30
0.0
 10
140.1071813140864
 20
533.3941109994904
 30
0.0
 10
138.8210014671081
 20
531.5530046284174
 30
0.0
 10
138.648119046036
 20
529.634195658902
 30
0.0
 10
138.5615276767272
 20
528.673124573235
 30
0.0
  0
SPLINE
  5
80
330
1F
100
AcDbEntity
  8
0
  6
Continuous
 62
     7
370
    15
100
AcDbSpline
210
0.0
220
0.0
230
1.0
 70
     8
 71
     3
 72
    12
 73
     8
 74
     0
 42
0.00000001
 43
0.00000001
 12
1.0
 22
0.0
 32
0.0
 13
1.0
 23
0.0
 33
0.0
 40
0.0
 40
0.0
 40
0.0
 40
0.0
 40
0.2499999999999992
 40
0.2499999999999992
 40
0.4999999999999984
 40
0.4999999999999984
 40
1.0
 40
1.0
 40
1.0
 40
1.0
 10
183.388196214627
 20
535.7148479862765
 30
0.0
 10
183.3429045678919
 20
536.5871615296355
 30
0.0
 10
183.2990192670345
 20
537.4617145610729
 30
0.0
 10
183.2080401848357
 20
539.2083310065518
 30
0.0
 10
183.161944830757
 20
540.0815485129418
 30
0.0
 10
183.0203650728657
 20
542.6995661714485
 30
0.0
 10
182.9222861951786
 20
544.4433967856951
 30
0.0
 10
182.8209350642498
 20
546.1858349163649
 30
0.0
  0
SPLINE
  5
81
330
1F
100
AcDbEntity
  8
0
  6
Continuous
 62
     7
370
    15
100
AcDbSpline
210
0.0
220
0.0
230
1.0
 70
     8
 71
     3
 72
    11
 73
     7
 74
     0
 42
0.00000001
 43
0.00000001
 12
1.0
 22
0.0
 32
0.0
 13
1.0
 23
0.0
 33
0.0
 40
0.0
 40
0.0
 40
0.0
 40
0.0
 40
0.1382599209142296
 40
0.4212047097198383
 40
0.7092041325573001
 40
1.0
 40
1.0
 40
1.0
 40
1.0
 10
182.4656328780908
 20
551.934135220055
 30
0.0
 10
182.4845235989244
 20
551.6708945452766
 30
0.0
 10
182.5420736143773
 20
550.8689397106917
 30
0.0
 10
182.62282960239
 20
549.507667162664
 30
0.0
 10
182.723308779468
 20
547.855390038771
 30
0.0
 10
182.7882940120716
 20
546.74415686907
 30
0.0
 10
182.8209436161775
 20
546.1858558273358
 30
0.0
  0
SPLINE
  5
82
330
1F
100
AcDbEntity
  8
0
  6
Continuous
 62
     7
370
    15
100
AcDbSpline
210
0.0
220
0.0
230
1.0
 70
     8
 71
     3
 72
    11
 73
     7
 74
     0
 42
0.00000001
 43
0.00000001
 12
1.0
 22
0.0
 32
0.0
 13
1.0
 23
0.0
 33
0.0
 40
0.0
 40
0.0
 40
0.0
 40
0.0
 40
0.1478033866893535
 40
0.4276146623002635
 40
0.7124245936636596
 40
1.0
 40
1.0
 40
1.0
 40
1.0
 10
146.660491324808
 20
551.9981580591244
 30
0.0
 10
146.6400521105278
 20
551.7136081142157
 30
0.0
 10
146.5809187719226
 20
550.890367650481
 30
0.0
 10
146.4987553484944
 20
549.5076899672763
 30
0.0
 10
146.3983182205016
 20
547.8553842305558
 30
0.0
 10
146.3333273065898
 20
546.7441549267724
 30
0.0
 10
146.3006748481053
 20
546.1858558273358
 30
0.0
  0
SPLINE
  5
83
330
1F
100
AcDbEntity
  8
0
  6
Continuous
 62
     7
370
    15
100
AcDbSpline
210
0.0
220
0.0
230
1.0
 70
     8
 71
     3
 72
    12
 73
     8
 74
     0
 42
0.00000001
 43
0.00000001
 12
1.0
 22
0.0
 32
0.0
 13
1.0
 23
0.0
 33
0.0
 40
0.0
 40
0.0
 40
0.0
 40
0.0
 40
0.2499999999999998
 40
0.2499999999999998
 40
0.4999999999999996
 40
0.4999999999999996
 40
1.0
 40
1.0
 40
1.0
 40
1.0
 10
145.7334222496558
 20
535.7148479862765
 30
0.0
 10
145.7787138963909
 20
536.5871615296355
 30
0.0
 10
145.8225991972483
 20
537.461714561073
 30
0.0
 10
145.9135782794471
 20
539.208331006552
 30
0.0
 10
145.9596736335258
 20
540.0815485129419
 30
0.0
 10
146.1012533914172
 20
542.6995661714486
 30
0.0
 10
146.1993322691042
 20
544.443396785695
 30
0.0
 10
146.3006834000331
 20
546.1858349163649
 30
0.0
  0
SPLINE
  5
84
330
1F
100
AcDbEntity
  8
0
  6
Continuous
 62
     7
370
    15
100
AcDbSpline
210
0.0
220
0.0
230
1.0
 70
     8
 71
     3
 72
    15
 73
    11
 74
     0
 42
0.00000001
 43
0.00000001
 12
1.0
 22
0.0
 32
0.0
 13
1.0
 23
0.0
 33
0.0
 40
0.0
 40
0.0
 40
0.0
 40
0.0
 40
0.0729569005355159
 40
0.2517396390862533
 40
0.4475488491048648
 40
0.5574890477503751
 40
0.6674099130441751
 40
0.7742014094622837
 40
0.8809914509356247
 40
0.9999999999999999
 40
0.9999999999999999
 40
0.9999999999999999
 40
0.9999999999999999
 10
152.6400441898364
 20
536.6453426694912
 30
0.0
 10
152.6449351212342
 20
536.8936553973125
 30
0.0
 10
152.6618114042976
 20
537.7504647741281
 30
0.0
 10
153.4403327252097
 20
538.8100785060375
 30
0.0
 10
155.0081663538098
 20
539.6373489571108
 30
0.0
 10
156.8499638399434
 20
540.2217897001652
 30
0.0
 10
158.5250506581201
 20
540.6109349896483
 30
0.0
 10
160.3687698788293
 20
540.9080435872371
 30
0.0
 10
162.3890147018222
 20
541.1177959829367
 30
0.0
 10
163.8112246492423
 20
541.1460040902758
 30
0.0
 10
164.5608092321413
 20
541.1608713483853
 30
0.0
  0
SPLINE
  5
85
330
1F
100
AcDbEntity
  8
0
  6
Continuous
 62
     7
370
    15
100
AcDbSpline
210
0.0
220
0.0
230
1.0
 70
     8
 71
     3
 72
    16
 73
    12
 74
     0
 42
0.00000001
 43
0.00000001
 12
1.0
 22
0.0
 32
0.0
 13
1.0
 23
0.0
 33
0.0
 40
0.0
 40
0.0
 40
0.0
 40
0.0
 40
0.1970104963544559
 40
0.3019911593075633
 40
0.4069758015993126
 40
0.5120973634653041
 40
0.6172397232504404
 40
0.7252421998494419
 40
0.8331880863495084
 40
0.9412994328555733
 40
1.0
 40
1.0
 40
1.0
 40
1.0
 10
164.5608092321142
 20
541.1608713483853
 30
0.0
 10
165.806567678383
 20
541.120717098656
 30
0.0
 10
167.7161514029428
 20
541.0591659191438
 30
0.0
 10
170.0800277579931
 20
540.7033043879924
 30
0.0
 10
171.758436748768
 20
540.3530167932746
 30
0.0
 10
173.2307030557288
 20
539.9326552570544
 30
0.0
 10
174.4792602923156
 20
539.4431919238721
 30
0.0
 10
175.4641698792456
 20
538.8742316595641
 30
0.0
 10
176.1448648800223
 20
538.163233479128
 30
0.0
 10
176.4907546028869
 20
537.4244578201283
 30
0.0
 10
176.4729049778576
 20
536.8420387819375
 30
0.0
 10
176.4666237531561
 20
536.6370874261899
 30
0.0
  0
ARC
  5
86
330
1F
100
AcDbEntity
  8
0
  6
Continuous
 62
     7
370
    15
100
AcDbCircle
 10
170.148624451
 20
530.18558506
 30
0.0
 40
5.137695574391111
100
AcDbArc
 50
291.6855631876
 51
350.2275987278
  0
LINE
  5
87
330
1F
100
AcDbEntity
  8
0
  6
Continuous
 62
     7
370
    15
100
AcDbLine
 10
170.8447653463
 20
524.8843702292
 30
0.0
 11
170.1459097339
 21
524.6425765371
 31
0.0
  0
LWPOLYLINE
  5
88
330
1F
100
AcDbEntity
  8
0
  6
Continuous
 62
     7
370
    15
100
AcDbPolyline
 90
        3
 70
   128
 43
0.0
 10
165.5608092796
 20
523.8521220899
 10
164.0829556227
 20
523.833413682
 10
163.5608091846
 20
523.8521220899
  0
LWPOLYLINE
  5
89
330
1F
100
AcDbEntity
  8
0
  6
Continuous
 62
     7
370
    15
100
AcDbPolyline
 90
        3
 70
   128
 43
0.0
 10
159.012329731
 20
524.6310132361
 10
158.6932264863
 20
524.7353660679
 10
158.2768531179
 20
524.8843702292
  0
LWPOLYLINE
  5
8A
330
1F
100
AcDbEntity
  8
0
  6
Continuous
 62
     7
370
    15
100
AcDbPolyline
 90
       24
 70
   128
 43
0.0
 10
157.0745505987
 20
525.4115062571
 10
155.9440004303
 20
526.0891589141
 10
154.9646244048
 20
526.9334065533
 10
154.2936772703
 20
527.854156754
 10
153.9527247323
 20
528.8218083596
 10
153.9527247323
 20
529.8052700973
 10
154.2936772703
 20
530.7729291534
 10
154.9646244048
 20
531.6936793542
 10
155.9440004303
 20
532.5379269934
 10
157.2003271094
 20
533.278544507
 10
158.6932264863
 20
533.8917198396
 10
160.3747144936
 20
534.3577462053
 10
162.1907471808
 20
534.6616553879
 10
164.0829556227
 20
534.7936647749
 10
165.9905226797
 20
534.7495424366
 10
167.8521374369
 20
534.5307039833
 10
169.6079661733
 20
534.1441827631
 10
171.2015755138
 20
533.6023988938
 10
172.5817448123
 20
532.9227643824
 10
173.7041142432
 20
532.127124331
 10
174.532611355
 20
531.2410640335
 10
175.04060591
 20
530.2930447078
 10
175.211770892
 20
529.3135392284
 10
175.211770892
 20
529.3135392284
  0
ARC
  5
8B
330
1F
100
AcDbEntity
  8
0
  6
Continuous
 62
     7
370
    15
100
AcDbCircle
 10
168.5482944453
 20
534.0609835128
 30
0.0
 40
9.576239666630388
100
AcDbArc
 50
288.7748331848
 51
316.2066217103
  0
LINE
  5
8C
330
1F
100
AcDbEntity
  8
0
  6
Continuous
 62
     7
370
    15
100
AcDbLine
 10
170.948525857
 20
524.7547971821
 30
0.0
 11
170.0244121848
 21
524.4826572752
 31
0.0
  0
LINE
  5
8D
330
1F
100
AcDbEntity
  8
0
  6
Continuous
 62
     7
370
    15
100
AcDbLine
 10
165.5608092796
 20
523.8232957935
 30
0.0
 11
163.5608091846
 21
523.8232957935
 31
0.0
  0
LINE
  5
8E
330
1F
100
AcDbEntity
  8
0
  6
Continuous
 62
     7
370
    15
100
AcDbLine
 10
159.0702486819
 20
524.4898172832
 30
0.0
 11
158.1730926073
 21
524.7547971821
 31
0.0
  0
ARC
  5
8F
330
1F
100
AcDbEntity
  8
0
  6
Continuous
 62
     7
370
    15
100
AcDbCircle
 10
160.5760979686
 20
534.0643212412
 30
0.0
 40
9.58055193507962
100
AcDbArc
 50
223.7963061128
 51
251.2624429313
  0
SPLINE
  5
90
330
1F
100
AcDbEntity
  8
0
  6
Continuous
 62
     7
370
    15
100
AcDbSpline
210
0.0
220
0.0
230
1.0
 70
    24
 71
     3
 72
    14
 73
    10
 74
     0
 42
0.00000001
 43
0.00000001
 12
1.0
 22
0.0
 32
0.0
 13
1.0
 23
0.0
 33
0.0
 40
0.0
 40
0.0
 40
0.0
 40
0.0
 40
0.25
 40
0.25
 40
0.5
 40
0.5
 40
0.75
 40
0.75
 40
1.0
 40
1.0
 40
1.0
 40
1.0
 10
153.6608092321414
 20
532.4791833496339
 30
0.0
 10
153.6608092321414
 20
531.8366663953789
 30
0.0
 10
153.6608092321414
 20
531.2793618972347
 30
0.0
 10
153.6608092321414
 20
530.2797799358418
 30
0.0
 10
153.6608092321414
 20
529.8379267451768
 30
0.0
 10
153.6608092321414
 20
529.0356464561804
 30
0.0
 10
153.6608092321414
 20
528.6754360675748
 30
0.0
 10
153.6608092321414
 20
528.0140819637794
 30
0.0
 10
153.6608092321414
 20
527.7130615175879
 30
0.0
 10
153.6608092321414
 20
527.4336499725052
 30
0.0
  0
LWPOLYLINE
  5
91
330
1F
100
AcDbEntity
  8
0
  6
Continuous
 62
     7
370
    15
100
AcDbPolyline
 90
       14
 70
   128
 43
0.0
 10
153.6608091219
 20
532.4791866159
 10
154.6914563177
 20
533.4266545987
 10
156.0294036417
 20
534.2660742617
 10
157.6329930349
 20
534.9713089681
 10
159.4522925688
 20
535.5203944063
 10
161.4306557121
 20
535.896231494
 10
163.5064818792
 20
536.0871228194
 10
165.615136585
 20
536.0871228194
 10
167.6909627522
 20
535.896231494
 10
169.6693258955
 20
535.5203944063
 10
171.4886254294
 20
534.9713089681
 10
173.0922148226
 20
534.2660742617
 10
174.4301621465
 20
533.4266545987
 10
175.4608093424
 20
532.4791866159
  0
SPLINE
  5
92
330
1F
100
AcDbEntity
  8
0
  6
Continuous
 62
     7
370
    15
100
AcDbSpline
210
0.0
220
0.0
230
1.0
 70
    24
 71
     3
 72
    10
 73
     6
 74
     0
 42
0.00000001
 43
0.00000001
 12
1.0
 22
0.0
 32
0.0
 13
1.0
 23
0.0
 33
0.0
 40
0.0
 40
0.0
 40
0.0
 40
0.0
 40
0.5
 40
0.5
 40
1.0
 40
1.0
 40
1.0
 40
1.0
 10
175.4608092321414
 20
529.4367866006785
 30
0.0
 10
175.4608092321414
 20
529.8379267451767
 30
0.0
 10
175.4608092321414
 20
530.2797799358419
 30
0.0
 10
175.4608092321414
 20
531.2793618972347
 30
0.0
 10
175.4608092321414
 20
531.8366663953789
 30
0.0
 10
175.4608092321414
 20
532.4791833496339
 30
0.0
  0
SPLINE
  5
93
330
1F
100
AcDbEntity
  8
0
  6
Continuous
 62
     7
370
    15
100
AcDbSpline
210
0.0
220
0.0
230
1.0
 70
    24
 71
     3
 72
    10
 73
     6
 74
     0
 42
0.00000001
 43
0.00000001
 12
1.0
 22
0.0
 32
0.0
 13
1.0
 23
0.0
 33
0.0
 40
0.0
 40
0.0
 40
0.0
 40
0.0
 40
0.5
 40
0.5
 40
1.0
 40
1.0
 40
1.0
 40
1.0
 10
175.4608092321414
 20
527.4336499725052
 30
0.0
 10
175.4608092321414
 20
527.7130615175879
 30
0.0
 10
175.4608092321414
 20
528.0140819637794
 30
0.0
 10
175.4608092321414
 20
528.6754360675748
 30
0.0
 10
175.4608092321414
 20
529.0356464561803
 30
0.0
 10
175.4608092321414
 20
529.4367866006785
 30
0.0
  0
ARC
  5
94
330
1F
100
AcDbEntity
  8
0
  6
Continuous
 62
     7
370
    15
100
AcDbCircle
 10
172.6588113872
 20
532.5331497886
 30
0.0
 40
3.85397236987701
100
AcDbArc
 50
1.8340550871
 51
43.3610552162
  0
LINE
  5
95
330
1F
100
AcDbEntity
  8
0
  6
Continuous
 62
     7
370
    15
100
AcDbLine
 10
175.4608093424
 20
532.4791866159
 30
0.0
 11
175.4608093424
 21
535.1792621231
 31
0.0
  0
LINE
  5
96
330
1F
100
AcDbEntity
  8
0
  6
Continuous
 62
     7
370
    15
100
AcDbLine
 10
153.6608091219
 20
535.1792621231
 30
0.0
 11
153.6608091219
 21
532.4791866159
 31
0.0
  0
ARC
  5
97
330
1F
100
AcDbEntity
  8
0
  6
Continuous
 62
     7
370
    15
100
AcDbCircle
 10
156.2314651741
 20
532.656495533
 30
0.0
 40
3.601752879775621
100
AcDbArc
 50
135.5386914466
 51
224.4613085534
  0
ARC
  5
98
330
1F
100
AcDbEntity
  8
0
  6
Continuous
 62
     7
370
    15
100
AcDbCircle
 10
172.6588113872
 20
532.7798412774
 30
0.0
 40
3.853972369876987
100
AcDbArc
 50
316.6389447838
 51
358.1659449129
  0
ARC
  5
99
330
1F
100
AcDbEntity
  8
0
  6
Continuous
 62
     7
370
    15
100
AcDbCircle
 10
170.5689089874
 20
529.7376105805
 30
0.0
 40
4.08895035989895
100
AcDbArc
 50
300.2173128834
 51
354.0470618647
  0
LWPOLYLINE
  5
9A
330
1F
100
AcDbEntity
  8
0
  6
Continuous
 62
     7
370
    15
100
AcDbPolyline
 90
        3
 70
   128
 43
0.0
 10
170.8447653463
 20
525.2575549102
 10
170.6323530188
 20
525.172625742
 10
170.4813786446
 20
525.1150327539
  0
ARC
  5
9B
330
1F
100
AcDbEntity
  8
0
  6
Continuous
 62
     7
370
    15
100
AcDbCircle
 10
164.5608092321
 20
543.6267644893
 30
0.0
 40
19.50226664727502
100
AcDbArc
 50
267.0608073207
 51
272.9391926793
  0
LWPOLYLINE
  5
9C
330
1F
100
AcDbEntity
  8
0
  6
Continuous
 62
     7
370
    15
100
AcDbPolyline
 90
        3
 70
   128
 43
0.0
 10
158.770034056
 20
525.0672894335
 10
158.4892654455
 20
525.172625742
 10
158.2768531179
 20
525.2575549102
  0
LWPOLYLINE
  5
9D
330
1F
100
AcDbEntity
  8
0
  6
Continuous
 62
     7
370
    15
100
AcDbPolyline
 90
       23
 70
   128
 43
0.0
 10
156.4948181285
 20
526.2042554832
 10
155.9948711319
 20
526.5818807101
 10
155.166151434
 20
527.4390551066
 10
154.6573550104
 20
528.3600660777
 10
154.4858091174
 20
529.3135392284
 10
154.6573550104
 20
530.2670198298
 10
155.166151434
 20
531.1880308008
 10
155.9948711319
 20
532.0452051973
 10
157.1152945644
 20
532.8093516445
 10
158.4892654455
 20
533.4544601655
 10
160.0699955261
 20
533.9585515475
 10
161.8036545942
 20
534.3044596529
 10
163.6312055298
 20
534.4804125643
 10
165.4904129345
 20
534.4804125643
 10
167.3179638701
 20
534.3044596529
 10
169.0516229382
 20
533.9585515475
 10
170.6323530188
 20
533.4544601655
 10
172.0063238999
 20
532.8093516445
 10
173.1267473324
 20
532.0452051973
 10
173.9554670303
 20
531.1880308008
 10
174.4642634539
 20
530.2670198298
 10
174.6358093469
 20
529.3135392284
 10
174.6358093469
 20
529.3135392284
  0
ARC
  5
9E
330
1F
100
AcDbEntity
  8
0
  6
Continuous
 62
     7
370
    15
100
AcDbCircle
 10
164.5804050298
 20
515.7965860469
 30
0.0
 40
15.81978148783584
100
AcDbArc
 50
84.6304440842
 51
86.4469139302
  0
ARC
  5
9F
330
1F
100
AcDbEntity
  8
0
  6
Continuous
 62
     7
370
    15
100
AcDbCircle
 10
164.881452983
 20
518.0608290085
 30
0.0
 40
13.53758753970106
100
AcDbArc
 50
70.912330935
 51
85.0022187187
  0
ARC
  5
A0
330
1F
100
AcDbEntity
  8
0
  6
Continuous
 62
     7
370
    15
100
AcDbCircle
 10
165.8422212001
 20
521.1076107967
 30
0.0
 40
10.34451244721627
100
AcDbArc
 50
68.0107193089
 51
70.4227130618
  0
LINE
  5
A1
330
1F
100
AcDbEntity
  8
0
  6
Continuous
 62
     7
370
    15
100
AcDbLine
 10
169.4305520168
 20
530.5528166509
 30
0.0
 11
169.7155492975
 21
530.6996005392
 31
0.0
  0
ARC
  5
A2
330
1F
100
AcDbEntity
  8
0
  6
Continuous
 62
     7
370
    15
100
AcDbCircle
 10
164.8534004805
 20
518.5800406847
 30
0.0
 40
12.81786567736226
100
AcDbArc
 50
69.0783147169
 51
86.8362796583
  0
LINE
  5
A3
330
1F
100
AcDbEntity
  8
0
  6
Continuous
 62
     7
370
    15
100
AcDbLine
 10
165.5608092796
 20
531.5859588599
 30
0.0
 11
165.5608092796
 21
531.3783707833
 31
0.0
  0
SPLINE
  5
A4
330
1F
100
AcDbEntity
  8
0
  6
Continuous
 62
     7
370
    15
100
AcDbSpline
210
0.0
220
0.0
230
1.0
 70
    24
 71
     3
 72
     9
 73
     5
 74
     0
 42
0.00000001
 43
0.00000001
 12
1.0
 22
0.0
 32
0.0
 13
1.0
 23
0.0
 33
0.0
 40
0.0
 40
0.0
 40
0.0
 40
0.0
 40
0.6762351785601217
 40
1.0
 40
1.0
 40
1.0
 40
1.0
 10
166.0608092451799
 20
531.5469476199193
 30
0.0
 10
166.0608092451799
 20
532.1809985101114
 30
0.0
 10
166.0608092451799
 20
533.1186174188792
 30
0.0
 10
166.0608092451799
 20
534.0561449292873
 30
0.0
 10
166.0608092451799
 20
534.3596833562893
 30
0.0
  0
SPLINE
  5
A5
330
1F
100
AcDbEntity
  8
0
  6
Continuous
 62
     7
370
    15
100
AcDbSpline
210
0.0
220
0.0
230
1.0
 70
    24
 71
     3
 72
     8
 73
     4
 74
     0
 42
0.00000001
 43
0.00000001
 12
1.0
 22
0.0
 32
0.0
 13
1.0
 23
0.0
 33
0.0
 40
0.0
 40
0.0
 40
0.0
 40
0.0
 40
1.0
 40
1.0
 40
1.0
 40
1.0
 10
163.5608092321414
 20
531.585957313516
 30
0.0
 10
163.5608092321414
 20
532.4841740241706
 30
0.0
 10
163.5608092321414
 20
533.455195217403
 30
0.0
 10
163.5608092321414
 20
534.4990208932134
 30
0.0
  0
ARC
  5
A6
330
1F
100
AcDbEntity
  8
0
  6
Continuous
 62
     7
370
    15
100
AcDbCircle
 10
164.5412134345
 20
515.7965860469
 30
0.0
 40
15.81978148783584
100
AcDbArc
 50
93.5530860698
 51
95.3695559158
  0
SPLINE
  5
A7
330
1F
100
AcDbEntity
  8
0
  6
Continuous
 62
     7
370
    15
100
AcDbSpline
210
0.0
220
0.0
230
1.0
 70
    24
 71
     3
 72
     9
 73
     5
 74
     0
 42
0.00000001
 43
0.00000001
 12
1.0
 22
0.0
 32
0.0
 13
1.0
 23
0.0
 33
0.0
 40
0.0
 40
0.0
 40
0.0
 40
0.0
 40
0.4756182944990887
 40
1.0
 40
1.0
 40
1.0
 40
1.0
 10
163.0608092191029
 20
534.3651371812863
 30
0.0
 10
163.0608092191029
 20
533.9183650140476
 30
0.0
 10
163.0608092191029
 20
532.9790147569063
 30
0.0
 10
163.0608092191029
 20
532.0395734530523
 30
0.0
 10
163.0608092191029
 20
531.5469476199193
 30
0.0
  0
SPLINE
  5
A8
330
1F
100
AcDbEntity
  8
0
  6
Continuous
 62
     7
370
    15
100
AcDbSpline
210
0.0
220
0.0
230
1.0
 70
    24
 71
     3
 72
     8
 73
     4
 74
     0
 42
0.00000001
 43
0.00000001
 12
1.0
 22
0.0
 32
0.0
 13
1.0
 23
0.0
 33
0.0
 40
0.0
 40
0.0
 40
0.0
 40
0.0
 40
1.0
 40
1.0
 40
1.0
 40
1.0
 10
165.5608092321414
 20
534.4990208932134
 30
0.0
 10
165.5608092321414
 20
533.4551952174022
 30
0.0
 10
165.5608092321414
 20
532.4841740241698
 30
0.0
 10
165.5608092321414
 20
531.585957313516
 30
0.0
  0
ARC
  5
A9
330
1F
100
AcDbEntity
  8
0
  6
Continuous
 62
     7
370
    15
100
AcDbCircle
 10
164.2682179838
 20
518.5800406847
 30
0.0
 40
12.81786567736225
100
AcDbArc
 50
93.1637203417
 51
110.9216852831
  0
LINE
  5
AA
330
1F
100
AcDbEntity
  8
0
  6
Continuous
 62
     7
370
    15
100
AcDbLine
 10
159.4060691668
 20
530.6996005392
 30
0.0
 11
159.6910664475
 21
530.5528166509
 31
0.0
  0
ARC
  5
AB
330
1F
100
AcDbEntity
  8
0
  6
Continuous
 62
     7
370
    15
100
AcDbCircle
 10
163.2793972642
 20
521.1076107967
 30
0.0
 40
10.34451244721626
100
AcDbArc
 50
109.5772869382
 51
111.9892806911
  0
ARC
  5
AC
330
1F
100
AcDbEntity
  8
0
  6
Continuous
 62
     7
370
    15
100
AcDbCircle
 10
164.2401654813
 20
518.0608290085
 30
0.0
 40
13.53758753970116
100
AcDbArc
 50
94.9977812813
 51
109.087669065
  0
LINE
  5
AD
330
1F
100
AcDbEntity
  8
0
  6
Continuous
 62
     7
370
    15
100
AcDbLine
 10
163.5608091846
 20
531.3783707833
 30
0.0
 11
163.5608091846
 21
531.5859588599
 31
0.0
  0
LINE
  5
AE
330
1F
100
AcDbEntity
  8
0
  6
Continuous
 62
     7
370
    15
100
AcDbLine
 10
169.3084407261
 20
530.8541106796
 30
0.0
 11
169.3084407261
 21
533.8903042293
 31
0.0
  0
LINE
  5
AF
330
1F
100
AcDbEntity
  8
0
  6
Continuous
 62
     7
370
    15
100
AcDbLine
 10
159.8131777382
 20
533.8903042293
 30
0.0
 11
159.8131777382
 21
530.8541106796
 31
0.0
  0
LWPOLYLINE
  5
B0
330
1F
100
AcDbEntity
  8
0
  6
Continuous
 62
     7
370
    15
100
AcDbPolyline
 90
       17
 70
   128
 43
0.0
 10
166.7608092202
 20
529.5449766135
 10
166.59334415
 20
529.1113602734
 10
166.1164441275
 20
528.7437635279
 10
165.4027127906
 20
528.4981402373
 10
164.5608092321
 20
528.4118923163
 10
163.7189056737
 20
528.4981402373
 10
163.0051743368
 20
528.7437635279
 10
162.5282743143
 20
529.1113602734
 10
162.3608092441
 20
529.5449766135
 10
162.5282743143
 20
529.9785855031
 10
163.0051743368
 20
530.3461896992
 10
163.7189056737
 20
530.5918055391
 10
164.5608092321
 20
530.6780609107
 10
165.4027127906
 20
530.5918055391
 10
166.1164441275
 20
530.3461896992
 10
166.59334415
 20
529.9785855031
 10
166.7608092202
 20
529.5449766135
  0
LINE
  5
B1
330
1F
100
AcDbEntity
  8
0
  6
Continuous
 62
     7
370
    15
100
AcDbLine
 10
163.5754933477
 20
530.7304757452
 30
0.0
 11
162.8311802296
 21
531.3128131247
 31
0.0
  0
LWPOLYLINE
  5
B2
330
1F
100
AcDbEntity
  8
0
  6
Continuous
 62
     7
370
    15
100
AcDbPolyline
 90
        9
 70
   128
 43
0.0
 10
163.6299339252
 20
530.7420912004
 10
163.6302488286
 20
530.736786387
 10
163.6270572444
 20
530.7317348933
 10
163.6207361252
 20
530.7275402165
 10
163.6120317516
 20
530.7246940947
 10
163.601971838
 20
530.7235392547
 10
163.5917442281
 20
530.7242023563
 10
163.5825564981
 20
530.7266088939
 10
163.5754933477
 20
530.7304757452
  0
LINE
  5
B3
330
1F
100
AcDbEntity
  8
0
  6
Continuous
 62
     7
370
    15
100
AcDbLine
 10
163.3805117699
 20
531.3655185318
 30
0.0
 11
163.6299339252
 21
530.7420912004
 31
0.0
  0
ARC
  5
B4
330
1F
100
AcDbEntity
  8
0
  6
Continuous
 62
     7
370
    15
100
AcDbCircle
 10
158.4719991243
 20
531.0065604885
 30
0.0
 40
0.3124906692166329
100
AcDbArc
 50
69.9447329793
 51
125.0313499638
  0
LINE
  5
B5
330
1F
100
AcDbEntity
  8
0
  6
Continuous
 62
     7
370
    15
100
AcDbLine
 10
162.2364867607
 20
530.0244140244
 30
0.0
 11
158.2768531179
 21
530.4446416712
 31
0.0
  0
LWPOLYLINE
  5
B6
330
1F
100
AcDbEntity
  8
0
  6
Continuous
 62
     7
370
    15
100
AcDbPolyline
 90
        9
 70
   128
 43
0.0
 10
162.2590368742
 20
530.0524505591
 10
162.2665451968
 20
530.0488146758
 10
162.2712195048
 20
530.0440835571
 10
162.2725077568
 20
530.0388159967
 10
162.2702576815
 20
530.0336303926
 10
162.2647354042
 20
530.0291525936
 10
162.2565923853
 20
530.0258966899
 10
162.2467904481
 20
530.0242501116
 10
162.2364867607
 20
530.0244140244
  0
LINE
  5
B7
330
1F
100
AcDbEntity
  8
0
  6
Continuous
 62
     7
370
    15
100
AcDbLine
 10
158.5791604257
 20
531.3001024342
 30
0.0
 11
159.2803490011
 21
531.0623693085
 31
0.0
  0
LINE
  5
B8
330
1F
100
AcDbEntity
  8
0
  6
Continuous
 62
     7
370
    15
100
AcDbLine
 10
160.2157340048
 20
530.7452278948
 30
0.0
 11
162.2590368742
 21
530.0524505591
 31
0.0
  0
ARC
  5
B9
330
1F
100
AcDbEntity
  8
0
  6
Continuous
 62
     7
370
    15
100
AcDbCircle
 10
157.6747812961
 20
529.3108433855
 30
0.0
 40
0.2157226465008353
100
AcDbArc
 50
212.8957667166
 51
284.9391450447
  0
LINE
  5
BA
330
1F
100
AcDbEntity
  8
0
  6
Continuous
 62
     7
370
    15
100
AcDbLine
 10
162.0571848134
 20
529.5297997808
 30
0.0
 11
157.730393078
 21
529.1024121261
 31
0.0
  0
LWPOLYLINE
  5
BB
330
1F
100
AcDbEntity
  8
0
  6
Continuous
 62
     7
370
    15
100
AcDbPolyline
 90
        9
 70
   128
 43
0.0
 10
162.0571848134
 20
529.5601534462
 10
162.0668247005
 20
529.5582684493
 10
162.074658986
 20
529.5548188305
 10
162.0797630994
 20
529.5502069211
 10
162.0815342421
 20
529.5449766135
 10
162.0797630994
 20
529.5397463059
 10
162.074658986
 20
529.5351343966
 10
162.0668247005
 20
529.5316847777
 10
162.0571848134
 20
529.5297997808
  0
LINE
  5
BC
330
1F
100
AcDbEntity
  8
0
  6
Continuous
 62
     7
370
    15
100
AcDbLine
 10
158.2768531179
 20
529.9335616446
 30
0.0
 11
162.0571848134
 21
529.5601534462
 31
0.0
  0
ARC
  5
BD
330
1F
100
AcDbEntity
  8
0
  6
Continuous
 62
     7
370
    15
100
AcDbCircle
 10
160.4597957033
 20
530.1049017902
 30
0.0
 40
3.143751606250648
100
AcDbArc
 50
211.1944185148
 51
226.4205995297
  0
ARC
  5
BE
330
1F
100
AcDbEntity
  8
0
  6
Continuous
 62
     7
370
    15
100
AcDbCircle
 10
158.4719971383
 20
528.0834282556
 30
0.0
 40
0.3125247138607238
100
AcDbArc
 50
234.9734699682
 51
290.0533761067
  0
LINE
  5
BF
330
1F
100
AcDbEntity
  8
0
  6
Continuous
 62
     7
370
    15
100
AcDbLine
 10
162.2590368742
 20
529.0375026679
 30
0.0
 11
158.5791604257
 21
527.7898507929
 31
0.0
  0
LWPOLYLINE
  5
C0
330
1F
100
AcDbEntity
  8
0
  6
Continuous
 62
     7
370
    15
100
AcDbPolyline
 90
        9
 70
   128
 43
0.0
 10
162.2364867607
 20
529.0655392027
 10
162.2467904481
 20
529.0657031155
 10
162.2565923853
 20
529.0640565372
 10
162.2647354042
 20
529.0608006334
 10
162.2702576815
 20
529.0563228345
 10
162.2725077568
 20
529.0511372304
 10
162.2712195048
 20
529.0458696699
 10
162.2665451968
 20
529.0411385512
 10
162.2590368742
 20
529.0375026679
  0
LINE
  5
C1
330
1F
100
AcDbEntity
  8
0
  6
Continuous
 62
     7
370
    15
100
AcDbLine
 10
157.9214948824
 20
528.6075967169
 30
0.0
 11
162.2364867607
 21
529.0655392027
 31
0.0
  0
LWPOLYLINE
  5
C2
330
1F
100
AcDbEntity
  8
0
  6
Continuous
 62
     7
370
    15
100
AcDbPolyline
 90
        9
 70
   128
 43
0.0
 10
157.7705843037
 20
528.47661551
 10
157.7626405878
 20
528.4976112461
 10
157.7632855287
 20
528.5189944124
 10
157.7724911867
 20
528.5398485875
 10
157.7898608184
 20
528.5592797017
 10
157.8146456404
 20
528.5764383888
 10
157.8457764944
 20
528.590594492
 10
157.881912276
 20
528.6011296129
 10
157.9214948824
 20
528.6075967169
  0
ARC
  5
C3
330
1F
100
AcDbEntity
  8
0
  6
Continuous
 62
     7
370
    15
100
AcDbCircle
 10
170.649621326
 20
528.0834282556
 30
0.0
 40
0.3125247138607402
100
AcDbArc
 50
249.9466238933
 51
305.0265300318
  0
ARC
  5
C4
330
1F
100
AcDbEntity
  8
0
  6
Continuous
 62
     7
370
    15
100
AcDbCircle
 10
168.661822761
 20
530.1049017902
 30
0.0
 40
3.143751606250648
100
AcDbArc
 50
313.5794004703
 51
328.8055814852
  0
LWPOLYLINE
  5
C5
330
1F
100
AcDbEntity
  8
0
  6
Continuous
 62
     7
370
    15
100
AcDbPolyline
 90
        9
 70
   128
 43
0.0
 10
171.2001235819
 20
528.6075967169
 10
171.2397061883
 20
528.6011296129
 10
171.2758419698
 20
528.590594492
 10
171.3069728239
 20
528.5764383888
 10
171.3317576459
 20
528.5592797017
 10
171.3491272776
 20
528.5398485875
 10
171.3583329356
 20
528.5189944124
 10
171.3589778765
 20
528.4976112461
 10
171.3510341606
 20
528.47661551
  0
LINE
  5
C6
330
1F
100
AcDbEntity
  8
0
  6
Continuous
 62
     7
370
    15
100
AcDbLine
 10
166.8851317035
 20
529.0655392027
 30
0.0
 11
171.2001235819
 21
528.6075967169
 31
0.0
  0
LWPOLYLINE
  5
C7
330
1F
100
AcDbEntity
  8
0
  6
Continuous
 62
     7
370
    15
100
AcDbPolyline
 90
        9
 70
   128
 43
0.0
 10
166.86258159
 20
529.0375026679
 10
166.8550732674
 20
529.0411385512
 10
166.8503989594
 20
529.0458696699
 10
166.8491107075
 20
529.0511372304
 10
166.8513607828
 20
529.0563228345
 10
166.85688306
 20
529.0608006334
 10
166.865026079
 20
529.0640565372
 10
166.8748280162
 20
529.0657031155
 10
166.8851317035
 20
529.0655392027
  0
LINE
  5
C8
330
1F
100
AcDbEntity
  8
0
  6
Continuous
 62
     7
370
    15
100
AcDbLine
 10
170.5424580386
 20
527.7898507929
 30
0.0
 11
166.86258159
 21
529.0375026679
 31
0.0
  0
ARC
  5
C9
330
1F
100
AcDbEntity
  8
0
  6
Continuous
 62
     7
370
    15
100
AcDbCircle
 10
171.4468371682
 20
529.3108433855
 30
0.0
 40
0.2157226465008591
100
AcDbArc
 50
255.0608549553
 51
327.1042332834
  0
LINE
  5
CA
330
1F
100
AcDbEntity
  8
0
  6
Continuous
 62
     7
370
    15
100
AcDbLine
 10
167.0644336509
 20
529.5601534462
 30
0.0
 11
170.8447653463
 21
529.9335616446
 31
0.0
  0
LWPOLYLINE
  5
CB
330
1F
100
AcDbEntity
  8
0
  6
Continuous
 62
     7
370
    15
100
AcDbPolyline
 90
        9
 70
   128
 43
0.0
 10
167.0644336509
 20
529.5297997808
 10
167.0547937638
 20
529.5316847777
 10
167.0469594783
 20
529.5351343966
 10
167.0418553649
 20
529.5397463059
 10
167.0400842222
 20
529.5449766135
 10
167.0418553649
 20
529.5502069211
 10
167.0469594783
 20
529.5548188305
 10
167.0547937638
 20
529.5582684493
 10
167.0644336509
 20
529.5601534462
  0
LINE
  5
CC
330
1F
100
AcDbEntity
  8
0
  6
Continuous
 62
     7
370
    15
100
AcDbLine
 10
171.3912253863
 20
529.1024121261
 30
0.0
 11
167.0644336509
 21
529.5297997808
 31
0.0
  0
ARC
  5
CD
330
1F
100
AcDbEntity
  8
0
  6
Continuous
 62
     7
370
    15
100
AcDbCircle
 10
170.64961934
 20
531.0065604885
 30
0.0
 40
0.3124906692166242
100
AcDbArc
 50
54.9686500362
 51
110.0552670207
  0
LINE
  5
CE
330
1F
100
AcDbEntity
  8
0
  6
Continuous
 62
     7
370
    15
100
AcDbLine
 10
166.86258159
 20
530.0524505591
 30
0.0
 11
168.9058844595
 21
530.7452278948
 31
0.0
  0
LINE
  5
CF
330
1F
100
AcDbEntity
  8
0
  6
Continuous
 62
     7
370
    15
100
AcDbLine
 10
169.8412554933
 20
531.0623618579
 30
0.0
 11
170.5424580386
 21
531.3001024342
 31
0.0
  0
LWPOLYLINE
  5
D0
330
1F
100
AcDbEntity
  8
0
  6
Continuous
 62
     7
370
    15
100
AcDbPolyline
 90
        9
 70
   128
 43
0.0
 10
166.8851317035
 20
530.0244140244
 10
166.8748280162
 20
530.0242501116
 10
166.865026079
 20
530.0258966899
 10
166.85688306
 20
530.0291525936
 10
166.8513607828
 20
530.0336303926
 10
166.8491107075
 20
530.0388159967
 10
166.8503989594
 20
530.0440835571
 10
166.8550732674
 20
530.0488146758
 10
166.86258159
 20
530.0524505591
  0
LINE
  5
D1
330
1F
100
AcDbEntity
  8
0
  6
Continuous
 62
     7
370
    15
100
AcDbLine
 10
170.8447653463
 20
530.4446416712
 30
0.0
 11
166.8851317035
 21
530.0244140244
 31
0.0
  0
LINE
  5
D2
330
1F
100
AcDbEntity
  8
0
  6
Continuous
 62
     7
370
    15
100
AcDbLine
 10
165.4916845391
 20
530.7420912004
 30
0.0
 11
165.7411066944
 21
531.3655185318
 31
0.0
  0
LWPOLYLINE
  5
D3
330
1F
100
AcDbEntity
  8
0
  6
Continuous
 62
     7
370
    15
100
AcDbPolyline
 90
        9
 70
   128
 43
0.0
 10
165.5461251166
 20
530.7304757452
 10
165.5390619662
 20
530.7266088939
 10
165.5298742362
 20
530.7242023563
 10
165.5196466263
 20
530.7235392547
 10
165.5095867127
 20
530.7246940947
 10
165.500882339
 20
530.7275402165
 10
165.4945612199
 20
530.7317348933
 10
165.4913696356
 20
530.736786387
 10
165.4916845391
 20
530.7420912004
  0
LINE
  5
D4
330
1F
100
AcDbEntity
  8
0
  6
Continuous
 62
     7
370
    15
100
AcDbLine
 10
166.2904382347
 20
531.3128131247
 30
0.0
 11
165.5461251166
 21
530.7304757452
 31
0.0
  0
LINE
  5
D5
330
1F
100
AcDbEntity
  8
0
  6
Continuous
 62
     7
370
    15
100
AcDbLine
 10
166.3103055571
 20
530.4674926019
 30
0.0
 11
167.2376733868
 21
531.1718034363
 31
0.0
  0
LWPOLYLINE
  5
D6
330
1F
100
AcDbEntity
  8
0
  6
Continuous
 62
     7
370
    15
100
AcDbPolyline
 90
        9
 70
   128
 43
0.0
 10
166.3519725798
 20
530.4460349298
 10
166.3425737888
 20
530.4438519096
 10
166.3322966442
 20
530.4434421277
 10
166.3223545429
 20
530.4448428369
 10
166.313921417
 20
530.4478975749
 10
166.3079929667
 20
530.4522412634
 10
166.3052691974
 20
530.4573598123
 10
166.3060716482
 20
530.4626497245
 10
166.3103055571
 20
530.4674926019
  0
LINE
  5
D7
330
1F
100
AcDbEntity
  8
0
  6
Continuous
 62
     7
370
    15
100
AcDbLine
 10
167.976955151
 20
531.0135978079
 30
0.0
 11
166.3519725798
 21
530.4460349298
 31
0.0
  0
LINE
  5
D8
330
1F
100
AcDbEntity
  8
0
  6
Continuous
 62
     7
370
    15
100
AcDbLine
 10
162.7696458845
 20
530.4460349298
 30
0.0
 11
161.1446633133
 21
531.0135978079
 31
0.0
  0
LWPOLYLINE
  5
D9
330
1F
100
AcDbEntity
  8
0
  6
Continuous
 62
     7
370
    15
100
AcDbPolyline
 90
        9
 70
   128
 43
0.0
 10
162.8113129072
 20
530.4674926019
 10
162.8155468161
 20
530.4626497245
 10
162.8163492669
 20
530.4573598123
 10
162.8136254976
 20
530.4522412634
 10
162.8076970473
 20
530.4478975749
 10
162.7992639214
 20
530.4448428369
 10
162.7893218201
 20
530.4434421277
 10
162.7790446755
 20
530.4438519096
 10
162.7696458845
 20
530.4460349298
  0
LINE
  5
DA
330
1F
100
AcDbEntity
  8
0
  6
Continuous
 62
     7
370
    15
100
AcDbLine
 10
161.8839450775
 20
531.1718034363
 30
0.0
 11
162.8113129072
 21
530.4674926019
 31
0.0
  0
ARC
  5
DB
330
1F
100
AcDbEntity
  8
0
  6
Continuous
 62
     7
370
    15
100
AcDbCircle
 10
168.6763981629
 20
530.5282316995
 30
0.0
 40
4.109915260009552
100
AcDbArc
 50
301.8430438338
 51
329.3116201755
  0
LINE
  5
DC
330
1F
100
AcDbEntity
  8
0
  6
Continuous
 62
     7
370
    15
100
AcDbLine
 10
170.8447653463
 20
525.7590758419
 30
0.0
 11
170.6552160567
 21
525.6777527547
 31
0.0
  0
LINE
  5
DD
330
1F
100
AcDbEntity
  8
0
  6
Continuous
 62
     7
370
    15
100
AcDbLine
 10
169.4305520168
 20
526.3084965563
 30
0.0
 11
170.6552160567
 21
525.6777527547
 31
0.0
  0
ARC
  5
DE
330
1F
100
AcDbEntity
  8
0
  6
Continuous
 62
     7
370
    15
100
AcDbCircle
 10
164.8532877222
 20
538.281801071
 30
0.0
 40
12.81839964369258
100
AcDbArc
 50
273.164093196
 51
290.9213124288
  0
ARC
  5
DF
330
1F
100
AcDbEntity
  8
0
  6
Continuous
 62
     7
370
    15
100
AcDbCircle
 10
164.5608092321
 20
543.299580635
 30
0.0
 40
18.73535806674499
100
AcDbArc
 50
266.9403828907
 51
273.0596171093
  0
ARC
  5
E0
330
1F
100
AcDbEntity
  8
0
  6
Continuous
 62
     7
370
    15
100
AcDbCircle
 10
164.2683307421
 20
538.281801071
 30
0.0
 40
12.81839964369258
100
AcDbArc
 50
249.0786875712
 51
266.835906804
  0
LINE
  5
E1
330
1F
100
AcDbEntity
  8
0
  6
Continuous
 62
     7
370
    15
100
AcDbLine
 10
158.4664024076
 20
525.6777527547
 30
0.0
 11
159.6910664475
 21
526.3084965563
 31
0.0
  0
LINE
  5
E2
330
1F
100
AcDbEntity
  8
0
  6
Continuous
 62
     7
370
    15
100
AcDbLine
 10
158.4664024076
 20
525.6777527547
 30
0.0
 11
158.2768531179
 21
525.7590758419
 31
0.0
  0
ARC
  5
E3
330
1F
100
AcDbEntity
  8
0
  6
Continuous
 62
     7
370
    15
100
AcDbCircle
 10
160.4452203014
 20
530.5282316995
 30
0.0
 40
4.109915260009567
100
AcDbArc
 50
210.6883798245
 51
238.1569561662
  0
LINE
  5
E4
330
1F
100
AcDbEntity
  8
0
  6
Continuous
 62
     7
370
    15
100
AcDbLine
 10
154.9420165493
 20
529.0299403286
 30
0.0
 11
155.5559890939
 21
529.0299403286
 31
0.0
  0
ARC
  5
E5
330
1F
100
AcDbEntity
  8
0
  6
Continuous
 62
     7
370
    15
100
AcDbCircle
 10
157.4776146277
 20
529.5449766135
 30
0.0
 40
2.587377048298384
100
AcDbArc
 50
168.5181621758
 51
191.4818378242
  0
LINE
  5
E6
330
1F
100
AcDbEntity
  8
0
  6
Continuous
 62
     7
370
    15
100
AcDbLine
 10
157.0521886124
 20
532.6838317132
 30
0.0
 11
158.2768531179
 21
532.053080461
 31
0.0
  0
ARC
  5
E7
330
1F
100
AcDbEntity
  8
0
  6
Continuous
 62
     7
370
    15
100
AcDbCircle
 10
162.0622025068
 20
524.6934149955
 30
0.0
 40
9.43117164227147
100
AcDbArc
 50
112.4122223291
 51
122.0878284549
  0
ARC
  5
E8
330
1F
100
AcDbEntity
  8
0
  6
Continuous
 62
     7
370
    15
100
AcDbCircle
 10
167.0594159574
 20
524.6934149955
 30
0.0
 40
9.43117164227147
100
AcDbArc
 50
57.9121715451
 51
67.5877776709
  0
LINE
  5
E9
330
1F
100
AcDbEntity
  8
0
  6
Continuous
 62
     7
370
    15
100
AcDbLine
 10
170.8447653463
 20
532.053080461
 30
0.0
 11
172.0694298519
 21
532.6838317132
 31
0.0
  0
ARC
  5
EA
330
1F
100
AcDbEntity
  8
0
  6
Continuous
 62
     7
370
    15
100
AcDbCircle
 10
171.6321487345
 20
529.5434663088
 30
0.0
 40
2.599295690464828
100
AcDbArc
 50
0.0332913607
 51
11.4624453462
  0
ARC
  5
EB
330
1F
100
AcDbEntity
  8
0
  6
Continuous
 62
     7
370
    15
100
AcDbCircle
 10
171.6321487345
 20
529.5464869182
 30
0.0
 40
2.599295690464797
100
AcDbArc
 50
348.5375546538
 51
359.9667086393
  0
LINE
  5
EC
330
1F
100
AcDbEntity
  8
0
  6
Continuous
 62
     7
370
    15
100
AcDbLine
 10
173.5656871124
 20
529.0299403286
 30
0.0
 11
174.179601915
 21
529.0299403286
 31
0.0
  0
ARC
  5
ED
330
1F
100
AcDbEntity
  8
0
  6
Continuous
 62
     7
370
    15
100
AcDbCircle
 10
167.7605682858
 20
524.8313793466
 30
0.0
 40
6.145694158061155
100
AcDbArc
 50
53.3421851395
 51
56.7549907115
  0
SPLINE
  5
EE
330
1F
100
AcDbEntity
  8
0
  6
Continuous
 62
     7
370
    15
100
AcDbSpline
210
0.0
220
0.0
230
1.0
 70
     8
 71
     3
 72
     8
 73
     4
 74
     0
 42
0.00000001
 43
0.00000001
 12
1.0
 22
0.0
 32
0.0
 13
1.0
 23
0.0
 33
0.0
 40
0.0
 40
0.0
 40
0.0
 40
0.0
 40
1.0
 40
1.0
 40
1.0
 40
1.0
 10
172.0694296425048
 20
532.6838279274401
 30
0.0
 10
171.7329429126587
 20
531.7117869024468
 30
0.0
 10
171.419720695785
 20
530.8075872075739
 30
0.0
 10
171.1297629918835
 20
529.9712288428215
 30
0.0
  0
SPLINE
  5
EF
330
1F
100
AcDbEntity
  8
0
  6
Continuous
 62
     7
370
    15
100
AcDbSpline
210
0.0
220
0.0
230
1.0
 70
     8
 71
     3
 72
     8
 73
     4
 74
     0
 42
0.00000001
 43
0.00000001
 12
1.0
 22
0.0
 32
0.0
 13
1.0
 23
0.0
 33
0.0
 40
0.0
 40
0.0
 40
0.0
 40
0.0
 40
1.0
 40
1.0
 40
1.0
 40
1.0
 10
169.7155494295104
 20
530.6996026734977
 30
0.0
 10
170.0055071334116
 20
531.5359610382496
 30
0.0
 10
170.3187293502854
 20
532.4401607331225
 30
0.0
 10
170.6552160801317
 20
533.4122017581165
 30
0.0
  0
SPLINE
  5
F0
330
1F
100
AcDbEntity
  8
0
  6
Continuous
 62
     7
370
    15
100
AcDbSpline
210
0.0
220
0.0
230
1.0
 70
     8
 71
     3
 72
     9
 73
     5
 74
     0
 42
0.00000001
 43
0.00000001
 12
1.0
 22
0.0
 32
0.0
 13
1.0
 23
0.0
 33
0.0
 40
0.0
 40
0.0
 40
0.0
 40
0.0
 40
0.4840261355527821
 40
0.9999999999999999
 40
0.9999999999999999
 40
0.9999999999999999
 40
0.9999999999999999
 10
170.23779448479
 20
533.5199433183712
 30
0.0
 10
170.0880722455391
 20
533.0898087843022
 30
0.0
 10
169.7787454793722
 20
532.2011490560877
 30
0.0
 10
169.4685127212063
 20
531.3125859957026
 30
0.0
 10
169.3084407260972
 20
530.8541106796307
 30
0.0
  0
SPLINE
  5
F1
330
1F
100
AcDbEntity
  8
0
  6
Continuous
 62
     7
370
    15
100
AcDbSpline
210
0.0
220
0.0
230
1.0
 70
     8
 71
     3
 72
     9
 73
     5
 74
     0
 42
0.00000001
 43
0.00000001
 12
1.0
 22
0.0
 32
0.0
 13
1.0
 23
0.0
 33
0.0
 40
0.0
 40
0.0
 40
0.0
 40
0.0
 40
0.6563321191315002
 40
1.0
 40
1.0
 40
1.0
 40
1.0
 10
171.4297607204277
 20
529.7615500903172
 30
0.0
 10
171.6357615201079
 20
530.3516538061431
 30
0.0
 10
171.9496282252036
 20
531.2507469613074
 30
0.0
 10
172.2625998181055
 20
532.1499414691941
 30
0.0
 10
172.3701581022102
 20
532.4589657402081
 30
0.0
  0
SPLINE
  5
F2
330
1F
100
AcDbEntity
  8
0
  6
Continuous
 62
     7
370
    15
100
AcDbSpline
210
0.0
220
0.0
230
1.0
 70
     8
 71
     3
 72
     8
 73
     4
 74
     0
 42
0.00000001
 43
0.00000001
 12
1.0
 22
0.0
 32
0.0
 13
1.0
 23
0.0
 33
0.0
 40
0.0
 40
0.0
 40
0.0
 40
0.0
 40
1.0
 40
1.0
 40
1.0
 40
1.0
 10
158.4664023841511
 20
533.4122017581165
 30
0.0
 10
158.8028891139975
 20
532.4401607331224
 30
0.0
 10
159.1161113308712
 20
531.5359610382495
 30
0.0
 10
159.4060690347725
 20
530.6996026734977
 30
0.0
  0
SPLINE
  5
F3
330
1F
100
AcDbEntity
  8
0
  6
Continuous
 62
     7
370
    15
100
AcDbSpline
210
0.0
220
0.0
230
1.0
 70
     8
 71
     3
 72
     8
 73
     4
 74
     0
 42
0.00000001
 43
0.00000001
 12
1.0
 22
0.0
 32
0.0
 13
1.0
 23
0.0
 33
0.0
 40
0.0
 40
0.0
 40
0.0
 40
0.0
 40
1.0
 40
1.0
 40
1.0
 40
1.0
 10
157.9918554723994
 20
529.9712288428215
 30
0.0
 10
157.7018977684978
 20
530.8075872075739
 30
0.0
 10
157.3886755516241
 20
531.7117869024468
 30
0.0
 10
157.052188821778
 20
532.6838279274401
 30
0.0
  0
ARC
  5
F4
330
1F
100
AcDbEntity
  8
0
  6
Continuous
 62
     7
370
    15
100
AcDbCircle
 10
161.3610501784
 20
524.8313793466
 30
0.0
 40
6.145694158061028
100
AcDbArc
 50
123.2450092885
 51
126.6578148605
  0
SPLINE
  5
F5
330
1F
100
AcDbEntity
  8
0
  6
Continuous
 62
     7
370
    15
100
AcDbSpline
210
0.0
220
0.0
230
1.0
 70
     8
 71
     3
 72
     9
 73
     5
 74
     0
 42
0.00000001
 43
0.00000001
 12
1.0
 22
0.0
 32
0.0
 13
1.0
 23
0.0
 33
0.0
 40
0.0
 40
0.0
 40
0.0
 40
0.0
 40
0.4898640722436877
 40
1.0
 40
1.0
 40
1.0
 40
1.0
 10
156.7518794572312
 20
532.4578928566021
 30
0.0
 10
156.9051404141992
 20
532.0175878854662
 30
0.0
 10
157.2180046670644
 20
531.1187569728028
 30
0.0
 10
157.5317864055697
 20
530.2200253702099
 30
0.0
 10
157.6918577438551
 20
529.7615500903172
 30
0.0
  0
SPLINE
  5
F6
330
1F
100
AcDbEntity
  8
0
  6
Continuous
 62
     7
370
    15
100
AcDbSpline
210
0.0
220
0.0
230
1.0
 70
     8
 71
     3
 72
     9
 73
     5
 74
     0
 42
0.00000001
 43
0.00000001
 12
1.0
 22
0.0
 32
0.0
 13
1.0
 23
0.0
 33
0.0
 40
0.0
 40
0.0
 40
0.0
 40
0.0
 40
0.6673841057323731
 40
1.0
 40
1.0
 40
1.0
 40
1.0
 10
159.8131777381855
 20
530.8541106796307
 30
0.0
 10
159.6071751117367
 20
531.4442145626621
 30
0.0
 10
159.298503351832
 20
532.3284188431697
 30
0.0
 10
158.9907106528735
 20
533.2127200211474
 30
0.0
 10
158.8883339090604
 20
533.5068526482625
 30
0.0
  0
ARC
  5
F7
330
1F
100
AcDbEntity
  8
0
  6
Continuous
 62
     7
370
    15
100
AcDbCircle
 10
169.327817483
 20
526.6938177772
 30
0.0
 40
3.718756098234755
100
AcDbArc
 50
22.0334688597
 51
55.581908729
  0
ARC
  5
F8
330
1F
100
AcDbEntity
  8
0
  6
Continuous
 62
     7
370
    15
100
AcDbCircle
 10
170.4883232792
 20
527.2764846488
 30
0.0
 40
2.42668347374533
100
AcDbArc
 50
13.2184414681
 51
19.559472491
  0
LINE
  5
F9
330
1F
100
AcDbEntity
  8
0
  6
Continuous
 62
     7
370
    15
100
AcDbLine
 10
172.4476650952
 20
527.8313803291
 30
0.0
 11
172.8507126345
 21
527.8313803291
 31
0.0
  0
ARC
  5
FA
330
1F
100
AcDbEntity
  8
0
  6
Continuous
 62
     7
370
    15
100
AcDbCircle
 10
169.0604217412
 20
526.7483219296
 30
0.0
 40
3.556182368232028
100
AcDbArc
 50
17.731482936
 51
59.8836111866
  0
LINE
  5
FB
330
1F
100
AcDbEntity
  8
0
  6
Continuous
 62
     7
370
    15
100
AcDbLine
 10
171.1297630927
 20
529.9712317801
 30
0.0
 11
170.8447653463
 21
529.8244478917
 31
0.0
  0
LINE
  5
FC
330
1F
100
AcDbEntity
  8
0
  6
Continuous
 62
     7
370
    15
100
AcDbLine
 10
170.8447653463
 20
529.8244478917
 30
0.0
 11
170.8447653463
 21
532.053080461
 31
0.0
  0
ARC
  5
FD
330
1F
100
AcDbEntity
  8
0
  6
Continuous
 62
     7
370
    15
100
AcDbCircle
 10
158.633295185
 20
527.2764846488
 30
0.0
 40
2.426683473745304
100
AcDbArc
 50
160.440527509
 51
166.7815585319
  0
ARC
  5
FE
330
1F
100
AcDbEntity
  8
0
  6
Continuous
 62
     7
370
    15
100
AcDbCircle
 10
159.7938009813
 20
526.6938177772
 30
0.0
 40
3.718756098234781
100
AcDbArc
 50
124.418091271
 51
157.9665311403
  0
LINE
  5
FF
330
1F
100
AcDbEntity
  8
0
  6
Continuous
 62
     7
370
    15
100
AcDbLine
 10
158.2768531179
 20
529.8244478917
 30
0.0
 11
157.9918553716
 21
529.9712317801
 31
0.0
  0
ARC
  5
100
330
1F
100
AcDbEntity
  8
0
  6
Continuous
 62
     7
370
    15
100
AcDbCircle
 10
160.0611967231
 20
526.7483219296
 30
0.0
 40
3.556182368232028
100
AcDbArc
 50
120.1163888134
 51
162.268517064
  0
LINE
  5
101
330
1F
100
AcDbEntity
  8
0
  6
Continuous
 62
     7
370
    15
100
AcDbLine
 10
156.2709058298
 20
527.8313803291
 30
0.0
 11
156.6739533691
 21
527.8313803291
 31
0.0
  0
LINE
  5
102
330
1F
100
AcDbEntity
  8
0
  6
Continuous
 62
     7
370
    15
100
AcDbLine
 10
158.2768531179
 20
532.053080461
 30
0.0
 11
158.2768531179
 21
529.8244478917
 31
0.0
  0
LINE
  5
103
330
1F
100
AcDbEntity
  8
0
  6
Continuous
 62
     7
370
    15
100
AcDbLine
 10
156.3466447069
 20
532.3181646681
 30
0.0
 11
156.3466447069
 21
528.0889021969
 31
0.0
  0
LINE
  5
104
330
1F
100
AcDbEntity
  8
0
  6
Continuous
 62
     7
370
    15
100
AcDbLine
 10
172.7749737574
 20
528.0889021969
 30
0.0
 11
172.7749737574
 21
532.3181646681
 31
0.0
  0
SPLINE
  5
105
330
1F
100
AcDbEntity
  8
0
  6
Continuous
 62
     7
370
    15
100
AcDbSpline
210
0.0
220
0.0
230
1.0
 70
     8
 71
     3
 72
     9
 73
     5
 74
     0
 42
0.00000001
 43
0.00000001
 12
1.0
 22
0.0
 32
0.0
 13
1.0
 23
0.0
 33
0.0
 40
0.0
 40
0.0
 40
0.0
 40
0.0
 40
0.5350044946454107
 40
0.9999999999999999
 40
0.9999999999999999
 40
0.9999999999999999
 40
0.9999999999999999
 10
174.2332200182933
 20
530.5159213757557
 30
0.0
 10
173.9735362347263
 20
530.0829357056878
 30
0.0
 10
173.4881500628976
 20
529.2736234954139
 30
0.0
 10
173.0013388045155
 20
528.4649375341291
 30
0.0
 10
172.7749737574119
 20
528.0889021968884
 30
0.0
  0
ARC
  5
106
330
1F
100
AcDbEntity
  8
0
  6
Continuous
 62
     7
370
    15
100
AcDbCircle
 10
170.4887556857
 20
527.3560923171
 30
0.0
 40
2.426238817690778
100
AcDbArc
 50
340.4395816528
 51
346.7816069269
  0
SPLINE
  5
107
330
1F
100
AcDbEntity
  8
0
  6
Continuous
 62
     7
370
    15
100
AcDbSpline
210
0.0
220
0.0
230
1.0
 70
     8
 71
     3
 72
     8
 73
     4
 74
     0
 42
0.00000001
 43
0.00000001
 12
1.0
 22
0.0
 32
0.0
 13
1.0
 23
0.0
 33
0.0
 40
0.0
 40
0.0
 40
0.0
 40
0.0
 40
1.0
 40
1.0
 40
1.0
 40
1.0
 10
174.1796020511887
 20
529.0299382818224
 30
0.0
 10
173.7037379542819
 20
528.2312007344019
 30
0.0
 10
173.2607748471424
 20
527.4883224071267
 30
0.0
 10
172.8507127297704
 20
526.801303299997
 30
0.0
  0
SPLINE
  5
108
330
1F
100
AcDbEntity
  8
0
  6
Continuous
 62
     7
370
    15
100
AcDbSpline
210
0.0
220
0.0
230
1.0
 70
     8
 71
     3
 72
     8
 73
     4
 74
     0
 42
0.00000001
 43
0.00000001
 12
1.0
 22
0.0
 32
0.0
 13
1.0
 23
0.0
 33
0.0
 40
0.0
 40
0.0
 40
0.0
 40
0.0
 40
1.0
 40
1.0
 40
1.0
 40
1.0
 10
172.8507127297704
 20
527.8313794498171
 30
0.0
 10
173.2607748471424
 20
528.5183985569469
 30
0.0
 10
173.7037379542819
 20
529.261276884222
 30
0.0
 10
174.1796020511887
 20
530.0600144316426
 30
0.0
  0
LWPOLYLINE
  5
109
330
1F
100
AcDbEntity
  8
0
  6
Continuous
 62
     7
370
    15
100
AcDbPolyline
 90
        3
 70
   128
 43
0.0
 10
174.5080402715
 20
530.1373201227
 10
174.5090293361
 20
530.1133516049
 10
174.5108090936
 20
530.0164195514
  0
ARC
  5
10A
330
1F
100
AcDbEntity
  8
0
  6
Continuous
 62
     7
370
    15
100
AcDbCircle
 10
171.7966855501
 20
530.0212723183
 30
0.0
 40
2.714127881720977
100
AcDbArc
 50
343.3555824092
 51
359.8975570705
  0
SPLINE
  5
10B
330
1F
100
AcDbEntity
  8
0
  6
Continuous
 62
     7
370
    15
100
AcDbSpline
210
0.0
220
0.0
230
1.0
 70
     8
 71
     3
 72
     8
 73
     4
 74
     0
 42
0.00000001
 43
0.00000001
 12
1.0
 22
0.0
 32
0.0
 13
1.0
 23
0.0
 33
0.0
 40
0.0
 40
0.0
 40
0.0
 40
0.0
 40
1.0
 40
1.0
 40
1.0
 40
1.0
 10
172.7749738275218
 20
526.5437842625419
 30
0.0
 10
173.2684056772298
 20
527.3629282925588
 30
0.0
 10
173.8091124346943
 20
528.262953958296
 30
0.0
 10
174.3970940999154
 20
529.2438612597537
 30
0.0
  0
SPLINE
  5
10C
330
1F
100
AcDbEntity
  8
0
  6
Continuous
 62
     7
370
    15
100
AcDbSpline
210
0.0
220
0.0
230
1.0
 70
     8
 71
     3
 72
     8
 73
     4
 74
     0
 42
0.00000001
 43
0.00000001
 12
1.0
 22
0.0
 32
0.0
 13
1.0
 23
0.0
 33
0.0
 40
0.0
 40
0.0
 40
0.0
 40
0.0
 40
1.0
 40
1.0
 40
1.0
 40
1.0
 10
154.9420164130941
 20
530.0600144316426
 30
0.0
 10
155.417880510001
 20
529.261276884222
 30
0.0
 10
155.8608436171404
 20
528.5183985569469
 30
0.0
 10
156.2709057345124
 20
527.8313794498171
 30
0.0
  0
SPLINE
  5
10D
330
1F
100
AcDbEntity
  8
0
  6
Continuous
 62
     7
370
    15
100
AcDbSpline
210
0.0
220
0.0
230
1.0
 70
     8
 71
     3
 72
     8
 73
     4
 74
     0
 42
0.00000001
 43
0.00000001
 12
1.0
 22
0.0
 32
0.0
 13
1.0
 23
0.0
 33
0.0
 40
0.0
 40
0.0
 40
0.0
 40
0.0
 40
1.0
 40
1.0
 40
1.0
 40
1.0
 10
156.2709057345124
 20
526.801303299997
 30
0.0
 10
155.8608436171404
 20
527.4883224071267
 30
0.0
 10
155.417880510001
 20
528.2312007344019
 30
0.0
 10
154.9420164130941
 20
529.0299382818224
 30
0.0
  0
ARC
  5
10E
330
1F
100
AcDbEntity
  8
0
  6
Continuous
 62
     7
370
    15
100
AcDbCircle
 10
158.6328627786
 20
527.3560923171
 30
0.0
 40
2.426238817690778
100
AcDbArc
 50
193.2183930731
 51
199.5604183472
  0
SPLINE
  5
10F
330
1F
100
AcDbEntity
  8
0
  6
Continuous
 62
     7
370
    15
100
AcDbSpline
210
0.0
220
0.0
230
1.0
 70
     8
 71
     3
 72
     8
 73
     4
 74
     0
 42
0.00000001
 43
0.00000001
 12
1.0
 22
0.0
 32
0.0
 13
1.0
 23
0.0
 33
0.0
 40
0.0
 40
0.0
 40
0.0
 40
0.0
 40
1.0
 40
1.0
 40
1.0
 40
1.0
 10
154.7245243643674
 20
529.2438612597535
 30
0.0
 10
155.3125060295885
 20
528.2629539582958
 30
0.0
 10
155.853212787053
 20
527.3629282925586
 30
0.0
 10
156.346644636761
 20
526.5437842625419
 30
0.0
  0
ARC
  5
110
330
1F
100
AcDbEntity
  8
0
  6
Continuous
 62
     7
370
    15
100
AcDbCircle
 10
157.3069270678
 20
530.0181529717
 30
0.0
 40
2.695983859841019
100
AcDbArc
 50
177.4666020036
 51
196.6905092618
  0
SPLINE
  5
111
330
1F
100
AcDbEntity
  8
0
  6
Continuous
 62
     7
370
    15
100
AcDbSpline
210
0.0
220
0.0
230
1.0
 70
     8
 71
     3
 72
     9
 73
     5
 74
     0
 42
0.00000001
 43
0.00000001
 12
1.0
 22
0.0
 32
0.0
 13
1.0
 23
0.0
 33
0.0
 40
0.0
 40
0.0
 40
0.0
 40
0.0
 40
0.6041309198144951
 40
1.0
 40
1.0
 40
1.0
 40
1.0
 10
156.3466447068709
 20
528.0889021968884
 30
0.0
 10
156.0553295801334
 20
528.5729130003488
 30
0.0
 10
155.573124287898
 20
529.3740817331279
 30
0.0
 10
155.0922987434113
 20
530.1758528603476
 30
0.0
 10
154.9019547773856
 20
530.4932492589993
 30
0.0
  0
LINE
  5
112
330
1F
100
AcDbEntity
  8
0
  6
Continuous
 62
     7
370
    15
100
AcDbLine
 10
172.8507126345
 20
526.8013003087
 30
0.0
 11
172.4476650952
 21
526.8013003087
 31
0.0
  0
LINE
  5
113
330
1F
100
AcDbEntity
  8
0
  6
Continuous
 62
     7
370
    15
100
AcDbLine
 10
172.4476650952
 20
526.8013003087
 30
0.0
 11
172.4476650952
 21
527.8313803291
 31
0.0
  0
ARC
  5
114
330
1F
100
AcDbEntity
  8
0
  6
Continuous
 62
     7
370
    15
100
AcDbCircle
 10
161.3596457343
 20
529.799474481
 30
0.0
 40
6.143390160956886
100
AcDbArc
 50
233.3425208691
 51
236.7565669223
  0
ARC
  5
115
330
1F
100
AcDbEntity
  8
0
  6
Continuous
 62
     7
370
    15
100
AcDbCircle
 10
159.7938461665
 20
527.9388929862
 30
0.0
 40
3.718806489845115
100
AcDbArc
 50
202.0335315311
 51
235.5815967809
  0
LINE
  5
116
330
1F
100
AcDbEntity
  8
0
  6
Continuous
 62
     7
370
    15
100
AcDbLine
 10
156.6739533691
 20
526.8013003087
 30
0.0
 11
156.2709058298
 21
526.8013003087
 31
0.0
  0
ARC
  5
117
330
1F
100
AcDbEntity
  8
0
  6
Continuous
 62
     7
370
    15
100
AcDbCircle
 10
160.0611802162
 20
527.8843569321
 30
0.0
 40
3.556166104569847
100
AcDbArc
 50
197.7315366764
 51
239.8837666482
  0
LINE
  5
118
330
1F
100
AcDbEntity
  8
0
  6
Continuous
 62
     7
370
    15
100
AcDbLine
 10
157.9918553716
 20
524.6614563084
 30
0.0
 11
158.2768531179
 21
524.8082401967
 31
0.0
  0
ARC
  5
119
330
1F
100
AcDbEntity
  8
0
  6
Continuous
 62
     7
370
    15
100
AcDbCircle
 10
169.3277722978
 20
527.9388929862
 30
0.0
 40
3.718806489845141
100
AcDbArc
 50
304.4184032191
 51
337.9664684689
  0
ARC
  5
11A
330
1F
100
AcDbEntity
  8
0
  6
Continuous
 62
     7
370
    15
100
AcDbCircle
 10
167.76197273
 20
529.799474481
 30
0.0
 40
6.143390160956869
100
AcDbArc
 50
303.2434330777
 51
306.6574791309
  0
LINE
  5
11B
330
1F
100
AcDbEntity
  8
0
  6
Continuous
 62
     7
370
    15
100
AcDbLine
 10
170.8447653463
 20
524.8082401967
 30
0.0
 11
171.1297630927
 21
524.6614563084
 31
0.0
  0
ARC
  5
11C
330
1F
100
AcDbEntity
  8
0
  6
Continuous
 62
     7
370
    15
100
AcDbCircle
 10
169.0604382481
 20
527.8843569321
 30
0.0
 40
3.556166104569999
100
AcDbArc
 50
300.1162333518
 51
342.2684633236
  0
LINE
  5
11D
330
1F
100
AcDbEntity
  8
0
  6
Continuous
 62
     7
370
    15
100
AcDbLine
 10
156.6739533691
 20
527.8313803291
 30
0.0
 11
156.6739533691
 21
526.8013003087
 31
0.0
  0
LINE
  5
11E
330
1F
100
AcDbEntity
  8
0
  6
Continuous
 62
     7
370
    15
100
AcDbLine
 10
158.2768531179
 20
524.8082401967
 30
0.0
 11
158.2768531179
 21
527.036872766
 31
0.0
  0
LINE
  5
11F
330
1F
100
AcDbEntity
  8
0
  6
Continuous
 62
     7
370
    15
100
AcDbLine
 10
170.8447653463
 20
527.036872766
 30
0.0
 11
170.8447653463
 21
524.8082401967
 31
0.0
  0
SPLINE
  5
120
330
1F
100
AcDbEntity
  8
0
  6
Continuous
 62
     7
370
    15
100
AcDbSpline
210
0.0
220
0.0
230
1.0
 70
     8
 71
     3
 72
     8
 73
     4
 74
     0
 42
0.00000001
 43
0.00000001
 12
1.0
 22
0.0
 32
0.0
 13
1.0
 23
0.0
 33
0.0
 40
0.0
 40
0.0
 40
0.0
 40
0.0
 40
0.9473044749837759
 40
0.9473044749837759
 40
0.9473044749837759
 40
0.9473044749837759
 10
145.7334383637206
 20
535.7147539833627
 30
0.0
 10
147.1418052912587
 20
526.6510837280566
 30
0.0
 10
153.1040122550355
 20
519.2978715190787
 30
0.0
 10
164.5608092321414
 20
519.2978715190787
 30
0.0
  0
SPLINE
  5
121
330
1F
100
AcDbEntity
  8
0
  6
Continuous
 62
     7
370
    15
100
AcDbSpline
210
0.0
220
0.0
230
1.0
 70
     8
 71
     3
 72
    38
 73
    34
 74
     0
 42
0.00000001
 43
0.00000001
 12
1.0
 22
0.0
 32
0.0
 13
1.0
 23
0.0
 33
0.0
 40
0.0
 40
0.0
 40
0.0
 40
0.0
 40
0.0177413682145436
 40
0.035284849652561
 40
0.0526389070090736
 40
0.0698124987366859
 40
0.0868149789838966
 40
0.1036560180835465
 40
0.1203455425003754
 40
0.136893691540224
 40
0.1533107875318452
 40
0.1696073162150864
 40
0.1857939144250753
 40
0.2018813626631645
 40
0.217880580674571
 40
0.2338026246435484
 40
0.2496586850381717
 40
0.2654600844790489
 40
0.2812182752729268
 40
0.3443856542551743
 40
0.4073973928784428
 40
0.4688507087458759
 40
0.5312498517954125
 40
0.5931278916655964
 40
0.6566490508301909
 40
0.7202987943033754
 40
0.7859367047543854
 40
0.8204019516761215
 40
0.8552944999329908
 40
0.8906562847746027
 40
0.9265298859467223
 40
0.962960923725463
 40
1.0
 40
1.0
 40
1.0
 40
1.0
 10
164.5608092633321
 20
519.297795813786
 30
0.0
 10
164.7324314539032
 20
519.2987908350816
 30
0.0
 10
165.0737615654322
 20
519.3007697792301
 30
0.0
 10
165.5827244857222
 20
519.3162852279693
 30
0.0
 10
166.0857030395659
 20
519.341027365384
 30
0.0
 10
166.5826984778139
 20
519.3758657606147
 30
0.0
 10
167.0737163813012
 20
519.4205656880675
 30
0.0
 10
167.5587644279483
 20
519.4751812434295
 30
0.0
 10
168.0378507950625
 20
519.5396896422964
 30
0.0
 10
168.5109828768332
 20
519.6140890529538
 30
0.0
 10
168.9781663422733
 20
519.6983737333749
 30
0.0
 10
169.4394044654778
 20
519.7925413025226
 30
0.0
 10
169.8946976297411
 20
519.8965912737237
 30
0.0
 10
170.3440431158549
 20
520.0105258347528
 30
0.0
 10
170.7874345193578
 20
520.1343495641516
 30
0.0
 10
171.2248630200301
 20
520.2680706705618
 30
0.0
 10
171.6563121052
 20
520.4116969050485
 30
0.0
 10
172.081776766398
 20
520.5652509534225
 30
0.0
 10
172.9219789401026
 20
520.8927106605737
 30
0.0
 10
174.1427109843499
 20
521.4616825227239
 30
0.0
 10
175.6502426744626
 20
522.3726433534329
 30
0.0
 10
177.0296495691376
 20
523.423252475487
 30
0.0
 10
178.2680418067938
 20
524.5925818535133
 30
0.0
 10
179.3799605208307
 20
525.8817676227007
 30
0.0
 10
180.3564911229092
 20
527.2686805951366
 30
0.0
 10
181.2087241708111
 20
528.7559047527883
 30
0.0
 10
181.8144147590829
 20
530.0679335500217
 30
0.0
 10
182.2426208436435
 20
531.1724459337227
 30
0.0
 10
182.5379406319906
 20
532.0399883110246
 30
0.0
 10
182.8009229137414
 20
532.9284815234856
 30
0.0
 10
183.0309275551714
 20
533.8379495751091
 30
0.0
 10
183.2310137862931
 20
534.7680602217883
 30
0.0
 10
183.3355037559193
 20
535.3974509527858
 30
0.0
 10
183.3881811201071
 20
535.7147507364093
 30
0.0
  0
ARC
  5
122
330
1F
100
AcDbEntity
  8
0
  6
Continuous
 62
     7
370
    15
100
AcDbCircle
 10
164.2682775283
 20
536.052919065
 30
0.0
 40
12.818147650133
100
AcDbArc
 50
249.0785116148
 51
266.8360827604
  0
LINE
  5
123
330
1F
100
AcDbEntity
  8
0
  6
Continuous
 62
     7
370
    15
100
AcDbLine
 10
159.6910664475
 20
526.3084965563
 30
0.0
 11
159.6910664475
 21
524.079863987
 31
0.0
  0
LINE
  5
124
330
1F
100
AcDbEntity
  8
0
  6
Continuous
 62
     7
370
    15
100
AcDbLine
 10
163.5608091846
 20
523.2543098545
 30
0.0
 11
163.5608091846
 21
525.4829424238
 31
0.0
  0
LINE
  5
125
330
1F
100
AcDbEntity
  8
0
  6
Continuous
 62
     7
370
    15
100
AcDbLine
 10
159.6910664475
 20
524.079863987
 30
0.0
 11
159.4060691668
 21
523.9330800986
 31
0.0
  0
SPLINE
  5
126
330
1F
100
AcDbEntity
  8
0
  6
Continuous
 62
     7
370
    15
100
AcDbSpline
210
0.0
220
0.0
230
1.0
 70
     8
 71
     3
 72
     8
 73
     4
 74
     0
 42
0.00000001
 43
0.00000001
 12
1.0
 22
0.0
 32
0.0
 13
1.0
 23
0.0
 33
0.0
 40
0.0
 40
0.0
 40
0.0
 40
0.0
 40
1.0
 40
1.0
 40
1.0
 40
1.0
 10
159.4060690347724
 20
523.9330800763162
 30
0.0
 10
159.116111330871
 20
524.4707599258234
 30
0.0
 10
158.8028891139972
 20
525.0523168855008
 30
0.0
 10
158.4664023841511
 20
525.6777509553485
 30
0.0
  0
LINE
  5
127
330
1F
100
AcDbEntity
  8
0
  6
Continuous
 62
     7
370
    15
100
AcDbLine
 10
169.7155492975
 20
523.9330800986
 30
0.0
 11
169.4305520168
 21
524.079863987
 31
0.0
  0
LINE
  5
128
330
1F
100
AcDbEntity
  8
0
  6
Continuous
 62
     7
370
    15
100
AcDbLine
 10
169.4305520168
 20
524.079863987
 30
0.0
 11
169.4305520168
 21
526.3084965563
 31
0.0
  0
SPLINE
  5
129
330
1F
100
AcDbEntity
  8
0
  6
Continuous
 62
     7
370
    15
100
AcDbSpline
210
0.0
220
0.0
230
1.0
 70
     8
 71
     3
 72
     8
 73
     4
 74
     0
 42
0.00000001
 43
0.00000001
 12
1.0
 22
0.0
 32
0.0
 13
1.0
 23
0.0
 33
0.0
 40
0.0
 40
0.0
 40
0.0
 40
0.0
 40
1.0
 40
1.0
 40
1.0
 40
1.0
 10
170.6552160801317
 20
525.6777509553485
 30
0.0
 10
170.3187293502857
 20
525.0523168855008
 30
0.0
 10
170.0055071334119
 20
524.4707599258234
 30
0.0
 10
169.7155494295104
 20
523.9330800763162
 30
0.0
  0
ARC
  5
12A
330
1F
100
AcDbEntity
  8
0
  6
Continuous
 62
     7
370
    15
100
AcDbCircle
 10
164.881452983
 20
536.5718516294
 30
0.0
 40
13.53758753970093
100
AcDbArc
 50
274.9977812813
 51
289.087669065
  0
ARC
  5
12B
330
1F
100
AcDbEntity
  8
0
  6
Continuous
 62
     7
370
    15
100
AcDbCircle
 10
164.5788712816
 20
538.8557523621
 30
0.0
 40
15.83949652746462
100
AcDbArc
 50
273.5542166224
 51
275.3684253632
  0
LINE
  5
12C
330
1F
100
AcDbEntity
  8
0
  6
Continuous
 62
     7
370
    15
100
AcDbLine
 10
165.5608092796
 20
523.2543098545
 30
0.0
 11
165.5608092796
 21
523.0467217779
 31
0.0
  0
ARC
  5
12D
330
1F
100
AcDbEntity
  8
0
  6
Continuous
 62
     7
370
    15
100
AcDbCircle
 10
164.8533409359
 20
536.052919065
 30
0.0
 40
12.818147650133
100
AcDbArc
 50
273.1639172396
 51
290.9214883852
  0
ARC
  5
12E
330
1F
100
AcDbEntity
  8
0
  6
Continuous
 62
     7
370
    15
100
AcDbCircle
 10
165.8422212001
 20
533.5250698412
 30
0.0
 40
10.34451244721617
100
AcDbArc
 50
289.5772869382
 51
291.9892806911
  0
ARC
  5
12F
330
1F
100
AcDbEntity
  8
0
  6
Continuous
 62
     7
370
    15
100
AcDbCircle
 10
164.5427471827
 20
538.8557523621
 30
0.0
 40
15.83949652746461
100
AcDbArc
 50
264.6315746368
 51
266.4457833776
  0
ARC
  5
130
330
1F
100
AcDbEntity
  8
0
  6
Continuous
 62
     7
370
    15
100
AcDbCircle
 10
164.2401654813
 20
536.5718516294
 30
0.0
 40
13.53758753970093
100
AcDbArc
 50
250.912330935
 51
265.0022187187
  0
LINE
  5
131
330
1F
100
AcDbEntity
  8
0
  6
Continuous
 62
     7
370
    15
100
AcDbLine
 10
163.5608091846
 20
523.0467217779
 30
0.0
 11
163.5608091846
 21
523.2543098545
 31
0.0
  0
ARC
  5
132
330
1F
100
AcDbEntity
  8
0
  6
Continuous
 62
     7
370
    15
100
AcDbCircle
 10
163.2793972642
 20
533.5250698412
 30
0.0
 40
10.34451244721616
100
AcDbArc
 50
248.0107193089
 51
250.4227130618
  0
LINE
  5
133
330
1F
100
AcDbEntity
  8
0
  6
Continuous
 62
     7
370
    15
100
AcDbLine
 10
165.5608092796
 20
525.4829424238
 30
0.0
 11
165.5608092796
 21
523.2543098545
 31
0.0
  0
SPLINE
  5
134
330
1F
100
AcDbEntity
  8
0
  6
Continuous
 62
     7
370
    15
100
AcDbSpline
210
0.0
220
0.0
230
1.0
 70
     8
 71
     3
 72
     8
 73
     4
 74
     0
 42
0.00000001
 43
0.00000001
 12
1.0
 22
0.0
 32
0.0
 13
1.0
 23
0.0
 33
0.0
 40
0.0
 40
0.0
 40
0.0
 40
0.0
 40
1.0
 40
1.0
 40
1.0
 40
1.0
 10
185.6740315834968
 20
470.4819327105311
 30
0.0
 10
185.2862633629119
 20
492.2343930884825
 30
0.0
 10
184.5257710328301
 20
513.9811690007577
 30
0.0
 10
183.3881649917508
 20
535.7146567504567
 30
0.0
  0
SPLINE
  5
135
330
1F
100
AcDbEntity
  8
0
  6
Continuous
 62
     7
370
    15
100
AcDbSpline
210
0.0
220
0.0
230
1.0
 70
     8
 71
     3
 72
     8
 73
     4
 74
     0
 42
0.00000001
 43
0.00000001
 12
1.0
 22
0.0
 32
0.0
 13
1.0
 23
0.0
 33
0.0
 40
0.0
 40
0.0
 40
0.0
 40
0.0
 40
1.0
 40
1.0
 40
1.0
 40
1.0
 10
185.7292777333753
 20
467.2278966498964
 30
0.0
 10
185.7117726351996
 20
468.3125377460912
 30
0.0
 10
185.693356998352
 20
469.3972118632454
 30
0.0
 10
185.6740315834968
 20
470.4819327105311
 30
0.0
  0
SPLINE
  5
136
330
1F
100
AcDbEntity
  8
0
  6
Continuous
 62
     7
370
    15
100
AcDbSpline
210
0.0
220
0.0
230
1.0
 70
     8
 71
     3
 72
    34
 73
    30
 74
     0
 42
0.00000001
 43
0.00000001
 12
1.0
 22
0.0
 32
0.0
 13
1.0
 23
0.0
 33
0.0
 40
0.0
 40
0.0
 40
0.0
 40
0.0
 40
0.013037046023709
 40
0.0259396001948133
 40
0.0387127448828427
 40
0.0513616599604243
 40
0.0638916177674163
 40
0.0763079774552278
 40
0.0886161787055654
 40
0.1008217348246507
 40
0.1129302252214132
 40
0.1249472872861257
 40
0.1864597204880096
 40
0.2501302941065272
 40
0.3084373508798225
 40
0.3749040250632108
 40
0.4249819690143814
 40
0.5000292207730848
 40
0.5714554779847983
 40
0.6251750997652799
 40
0.6914153335363993
 40
0.7496038477864004
 40
0.8167287149157751
 40
0.8748423566410407
 40
0.903874755930772
 40
0.9309385515851902
 40
0.9559979432310663
 40
0.9790251272844069
 40
1.0
 40
1.0
 40
1.0
 40
1.0
 10
164.5608092321414
 20
447.9062238662285
 30
0.0
 10
164.7157138981989
 20
447.9068215171886
 30
0.0
 10
165.0239252137481
 20
447.9080106536643
 30
0.0
 10
165.483720348369
 20
447.9177381886882
 30
0.0
 10
165.9385274956227
 20
447.9332876608631
 30
0.0
 10
166.3883375723673
 20
447.9552010728954
 30
0.0
 10
166.8331416503084
 20
447.9833194403051
 30
0.0
 10
167.2729307602518
 20
448.0176681443727
 30
0.0
 10
167.7076973673734
 20
448.0582235935694
 30
0.0
 10
168.1374297534391
 20
448.1049732897552
 30
0.0
 10
168.5621327913769
 20
448.1579056743807
 30
0.0
 10
169.5587607107786
 20
448.2982396461817
 30
0.0
 10
171.1328140698341
 20
448.6008623448583
 30
0.0
 10
173.1465004743384
 20
449.194484365982
 30
0.0
 10
175.0862600188163
 20
449.9938646451756
 30
0.0
 10
176.7400487959033
 20
450.9100188565703
 30
0.0
 10
178.3825983346387
 20
452.0724423891369
 30
0.0
 10
179.8789433686696
 20
453.4253350752961
 30
0.0
 10
181.1801368247125
 20
454.9589414336441
 30
0.0
 10
182.2546017911539
 20
456.5294548500542
 30
0.0
 10
183.1140363258
 20
458.0738916757152
 30
0.0
 10
183.8946321732548
 20
459.8120824938356
 30
0.0
 10
184.5152886400707
 20
461.5450729635639
 30
0.0
 10
184.9402679598794
 20
463.0555091748061
 30
0.0
 10
185.2085628967368
 20
464.2015571306299
 30
0.0
 10
185.3788642730249
 20
465.0290628801794
 30
0.0
 10
185.5192585144555
 20
465.8074141807035
 30
0.0
 10
185.6351030293805
 20
466.532552124582
 30
0.0
 10
185.6988776752872
 20
467.0034360148431
 30
0.0
 10
185.7292777333435
 20
467.2278966511701
 30
0.0
  0
SPLINE
  5
137
330
1F
100
AcDbEntity
  8
0
  6
Continuous
 62
     7
370
    15
100
AcDbSpline
210
0.0
220
0.0
230
1.0
 70
     8
 71
     3
 72
     8
 73
     4
 74
     0
 42
0.00000001
 43
0.00000001
 12
1.0
 22
0.0
 32
0.0
 13
1.0
 23
0.0
 33
0.0
 40
0.0
 40
0.0
 40
0.0
 40
0.0
 40
0.1774419611394032
 40
0.1774419611394032
 40
0.1774419611394032
 40
0.1774419611394032
 10
143.4475861548178
 20
470.4819381821189
 30
0.0
 10
143.4282510423616
 20
469.3972588335253
 30
0.0
 10
143.4098361616132
 20
468.3125791800254
 30
0.0
 10
143.3923407309074
 20
467.2278966499102
 30
0.0
  0
SPLINE
  5
138
330
1F
100
AcDbEntity
  8
0
  6
Continuous
 62
     7
370
    15
100
AcDbSpline
210
0.0
220
0.0
230
1.0
 70
     8
 71
     3
 72
     8
 73
     4
 74
     0
 42
0.00000001
 43
0.00000001
 12
1.0
 22
0.0
 32
0.0
 13
1.0
 23
0.0
 33
0.0
 40
0.0
 40
0.0
 40
0.0
 40
0.0
 40
1.0
 40
1.0
 40
1.0
 40
1.0
 10
143.447586880786
 20
470.4819327105311
 30
0.0
 10
143.8353551013709
 20
492.2343930884825
 30
0.0
 10
144.5958474314527
 20
513.9811690007576
 30
0.0
 10
145.733453472532
 20
535.7146567504567
 30
0.0
  0
SPLINE
  5
139
330
1F
100
AcDbEntity
  8
0
  6
Continuous
 62
     7
370
    15
100
AcDbSpline
210
0.0
220
0.0
230
1.0
 70
     8
 71
     3
 72
    17
 73
    13
 74
     0
 42
0.00000001
 43
0.00000001
 12
1.0
 22
0.0
 32
0.0
 13
1.0
 23
0.0
 33
0.0
 40
0.0
 40
0.0
 40
0.0
 40
0.0
 40
0.0624996212618261
 40
0.1249992425236523
 40
0.1874988637854784
 40
0.2499984850473045
 40
0.3124981063091307
 40
0.3749977275709568
 40
0.437497348832783
 40
0.4999969700946091
 40
0.4999969700946091
 40
0.4999973556913961
 40
0.4999973556913961
 40
0.4999973556913961
 40
0.4999973556913961
 10
143.3923407309045
 20
467.2278966514379
 30
0.0
 10
143.5673512321851
 20
465.8836826964258
 30
0.0
 10
144.0438223292838
 20
463.3112317373856
 30
0.0
 10
145.1921192743576
 20
459.7049363032309
 30
0.0
 10
146.8569467102268
 20
456.3726826252918
 30
0.0
 10
149.1408835478319
 20
453.395439966793
 30
0.0
 10
152.1381893835392
 20
450.9151367415761
 30
0.0
 10
155.854796059907
 20
449.1127911572902
 30
0.0
 10
160.1001217251941
 20
448.0973511884981
 30
0.0
 10
163.0750996402614
 20
447.9062238662285
 30
0.0
 10
164.5607909000545
 20
447.9062238662285
 30
0.0
 10
164.5608000660979
 20
447.9062238662323
 30
0.0
 10
164.5608092321414
 20
447.9062238662398
 30
0.0
  0
SPLINE
  5
13A
330
1F
100
AcDbEntity
  8
0
  6
Continuous
 62
     7
370
    15
100
AcDbSpline
210
0.0
220
0.0
230
1.0
 70
     8
 71
     3
 72
    30
 73
    26
 74
     0
 42
0.00000001
 43
0.00000001
 12
1.0
 22
0.0
 32
0.0
 13
1.0
 23
0.0
 33
0.0
 40
0.0
 40
0.0
 40
0.0
 40
0.0
 40
0.0488649663023294
 40
0.0964753965425937
 40
0.1428406346768736
 40
0.1879385960798386
 40
0.2299175624427434
 40
0.2690260341972778
 40
0.305846402411862
 40
0.3400515832234914
 40
0.4188120072538219
 40
0.4923935175800965
 40
0.5645078525848577
 40
0.6317307218439286
 40
0.6925734978437973
 40
0.7459800605984293
 40
0.783737453605616
 40
0.8193163647513394
 40
0.8524802587234769
 40
0.8830454898605885
 40
0.9109326478933238
 40
0.9362226000449664
 40
0.9591901021434244
 40
0.9802837251960337
 40
1.0
 40
1.0
 40
1.0
 40
1.0
 10
180.9101920493715
 20
559.4134249835455
 30
0.0
 10
180.8946455182507
 20
559.6221253695044
 30
0.0
 10
180.8639515903054
 20
560.0341680662988
 30
0.0
 10
180.8102351871791
 20
560.6401647501366
 30
0.0
 10
180.7412862212335
 20
561.2250341190255
 30
0.0
 10
180.6653665059296
 20
561.7793916848763
 30
0.0
 10
180.5189509563943
 20
562.2958244499403
 30
0.0
 10
180.2957567425854
 20
562.7727531675779
 30
0.0
 10
180.0097109280372
 20
563.2132022541172
 30
0.0
 10
179.5256762041425
 20
563.8012126904317
 30
0.0
 10
178.73880996422
 20
564.5023657297709
 30
0.0
 10
177.5260688255363
 20
565.2860636310752
 30
0.0
 10
176.1453932601541
 20
565.9506886622247
 30
0.0
 10
174.6682245888931
 20
566.500059321882
 30
0.0
 10
173.2041302674219
 20
566.9351801467675
 30
0.0
 10
171.8991276908866
 20
567.2486490021661
 30
0.0
 10
170.7649021390966
 20
567.4639066410116
 30
0.0
 10
169.7868640400019
 20
567.6189111932376
 30
0.0
 10
168.857674253444
 20
567.7448004516416
 30
0.0
 10
167.9886704048601
 20
567.8465297743735
 30
0.0
 10
167.1861892606084
 20
567.9265886135521
 30
0.0
 10
166.4506512659653
 20
567.9855893612258
 30
0.0
 10
165.7764325621513
 20
568.0232259172617
 30
0.0
 10
165.1534992024655
 20
568.0408464114608
 30
0.0
 10
164.7538767567312
 20
568.0416840483884
 30
0.0
 10
164.5608092321414
 20
568.0420887315834
 30
0.0
  0
SPLINE
  5
13B
330
1F
100
AcDbEntity
  8
0
  6
Continuous
 62
     7
370
    15
100
AcDbSpline
210
0.0
220
0.0
230
1.0
 70
     8
 71
     3
 72
    39
 73
    35
 74
     0
 42
0.00000001
 43
0.00000001
 12
1.0
 22
0.0
 32
0.0
 13
1.0
 23
0.0
 33
0.0
 40
0.0
 40
0.0
 40
0.0
 40
0.0
 40
0.010913348191247
 40
0.022198191840766
 40
0.0339309714737063
 40
0.0462015864617516
 40
0.0591004113088278
 40
0.0727078357666643
 40
0.087087236280979
 40
0.1022818381231439
 40
0.1183153592692648
 40
0.135193066371836
 40
0.152904373390001
 40
0.1714261110357296
 40
0.1907258477024193
 40
0.2107650347500532
 40
0.2315013164043281
 40
0.2528898531487032
 40
0.3061236348923833
 40
0.3667731666674275
 40
0.433794154068891
 40
0.5057147618257553
 40
0.575620615977294
 40
0.6503382110251519
 40
0.7191169866428971
 40
0.795701463255884
 40
0.8201462578807286
 40
0.8449587753605302
 40
0.870067524155206
 40
0.8954658169145364
 40
0.9211563716659815
 40
0.9471412811937263
 40
0.9734221132407321
 40
1.0
 40
1.0
 40
1.0
 40
1.0
 10
164.5608092321414
 20
568.0420887315834
 30
0.0
 10
164.4539520080712
 20
568.0419730663559
 30
0.0
 10
164.236600090226
 20
568.0417377986028
 30
0.0
 10
163.904643295707
 20
568.0379222145893
 30
0.0
 10
163.5599349494226
 20
568.0292706634928
 30
0.0
 10
163.200259675412
 20
568.0147107611781
 30
0.0
 10
162.8233841087446
 20
567.9937254219147
 30
0.0
 10
162.4273547543853
 20
567.9660845866911
 30
0.0
 10
162.0107095398206
 20
567.9317403758106
 30
0.0
 10
161.572594293477
 20
567.8906883786091
 30
0.0
 10
161.1128041385325
 20
567.8428796962902
 30
0.0
 10
160.6317729719741
 20
567.7881390821078
 30
0.0
 10
160.1305358742962
 20
567.7261032446705
 30
0.0
 10
159.6106678889011
 20
567.65618062206
 30
0.0
 10
159.0742138945337
 20
567.5775303093614
 30
0.0
 10
158.5236320799326
 20
567.4890334962366
 30
0.0
 10
157.9617230451581
 20
567.3893264847208
 30
0.0
 10
157.1139847120405
 20
567.2218734631895
 30
0.0
 10
155.9511824975855
 20
566.9440705892737
 30
0.0
 10
154.4891735324761
 20
566.5119045586648
 30
0.0
 10
153.0125462582643
 20
565.9660218558909
 30
0.0
 10
151.6530739586325
 20
565.3160968555289
 30
0.0
 10
150.4707989348567
 20
564.5638252862095
 30
0.0
 10
149.545238558118
 20
563.7674419083271
 30
0.0
 10
148.8600072299545
 20
562.897041418627
 30
0.0
 10
148.5625496174367
 20
562.2076876481615
 30
0.0
 10
148.4482347283154
 20
561.6894945401879
 30
0.0
 10
148.4030109218189
 20
561.3806743224095
 30
0.0
 10
148.3608889283031
 20
561.0657912773763
 30
0.0
 10
148.324596828703
 20
560.7453328227424
 30
0.0
 10
148.2922486154004
 20
560.4195401390352
 30
0.0
 10
148.2632223119667
 20
560.0885992132687
 30
0.0
 10
148.2364688675019
 20
559.7527839758187
 30
0.0
 10
148.2198051146741
 20
559.5269676608295
 30
0.0
 10
148.211426414894
 20
559.4134249836002
 30
0.0
  0
SPLINE
  5
13C
330
1F
100
AcDbEntity
  8
0
  6
Continuous
 62
     7
370
    15
100
AcDbSpline
210
0.0
220
0.0
230
1.0
 70
     8
 71
     3
 72
    14
 73
    10
 74
     0
 42
0.00000001
 43
0.00000001
 12
1.0
 22
0.0
 32
0.0
 13
1.0
 23
0.0
 33
0.0
 40
0.0
 40
0.0
 40
0.0
 40
0.0
 40
0.2154485765477702
 40
0.4327331402477532
 40
0.5667558576883949
 40
0.6934814429519801
 40
0.8259096502440003
 40
0.9518632529793535
 40
1.0
 40
1.0
 40
1.0
 40
1.0
 10
188.6074929161328
 20
533.3540635919613
 30
0.0
 10
188.5694064877422
 20
531.5159522820436
 30
0.0
 10
188.4929090700178
 20
527.8240658374409
 30
0.0
 10
188.1430762267111
 20
523.047702471386
 30
0.0
 10
187.6393826141554
 20
519.1244298844272
 30
0.0
 10
187.0523027625583
 20
515.9927623433584
 30
0.0
 10
186.2257803837343
 20
513.0950176183964
 30
0.0
 10
185.4023697132024
 20
510.9014501175296
 30
0.0
 10
184.7193808980587
 20
509.8419319913608
 30
0.0
 10
184.5305314882058
 20
509.5489705717606
 30
0.0
  0
SPLINE
  5
13D
330
1F
100
AcDbEntity
  8
0
  6
Continuous
 62
     7
370
    15
100
AcDbSpline
210
0.0
220
0.0
230
1.0
 70
     8
 71
     3
 72
    16
 73
    12
 74
     0
 42
0.00000001
 43
0.00000001
 12
1.0
 22
0.0
 32
0.0
 13
1.0
 23
0.0
 33
0.0
 40
0.0
 40
0.0
 40
0.0
 40
0.0
 40
0.1424411160158121
 40
0.289807231362617
 40
0.4326781059462598
 40
0.522907300171775
 40
0.609728333983164
 40
0.6934810967721237
 40
0.8259079299796311
 40
0.9518631981972862
 40
1.0
 40
1.0
 40
1.0
 40
1.0
 10
140.514175839569
 20
533.3497050023121
 30
0.0
 10
140.5356268556095
 20
532.13439066465
 30
0.0
 10
140.5792705712901
 20
529.6617416621385
 30
0.0
 10
140.7618445391521
 20
525.9925907720678
 30
0.0
 10
141.0254289201755
 20
522.8040693136151
 30
0.0
 10
141.3445736247598
 20
520.1694605099165
 30
0.0
 10
141.6782749235643
 20
518.0616562567834
 30
0.0
 10
142.160672756536
 20
515.6690033449765
 30
0.0
 10
142.8961030097459
 20
513.095159109846
 30
0.0
 10
143.719221519084
 20
510.9014491016288
 30
0.0
 10
144.4022329610356
 20
509.8419297646891
 30
0.0
 10
144.591086976077
 20
509.5489705717606
 30
0.0
  0
SPLINE
  5
13E
330
1F
100
AcDbEntity
  8
0
  6
Continuous
 62
     7
370
    15
100
AcDbSpline
210
0.0
220
0.0
230
1.0
 70
     8
 71
     3
 72
    35
 73
    31
 74
     0
 42
0.00000001
 43
0.00000001
 12
1.0
 22
0.0
 32
0.0
 13
1.0
 23
0.0
 33
0.0
 40
0.0
 40
0.0
 40
0.0
 40
0.0
 40
0.0154092071515804
 40
0.0308524855373426
 40
0.0463324440091026
 40
0.0618516729129248
 40
0.0774127429757413
 40
0.0930182042384151
 40
0.1086705850368966
 40
0.1243723910328719
 40
0.1868919006081103
 40
0.2482558561779484
 40
0.3773382760123906
 40
0.4981827010977176
 40
0.5636273672709273
 40
0.6268373241101602
 40
0.6884275503884787
 40
0.7490622682712096
 40
0.7806380463720647
 40
0.8120146673569627
 40
0.8432985671899514
 40
0.8745971272175972
 40
0.8903201961137012
 40
0.9060023340946952
 40
0.9216571374517278
 40
0.9372982737586031
 40
0.9529394464162017
 40
0.9685943587293459
 40
0.9842766779849157
 40
0.9999999999999999
 40
0.9999999999999999
 40
0.9999999999999999
 40
0.9999999999999999
 10
189.2062802770515
 20
457.3432871738218
 30
0.0
 10
189.1883034964371
 20
457.0910763595369
 30
0.0
 10
189.1523101868229
 20
456.5860970686793
 30
0.0
 10
189.0928168832146
 20
455.8306217152482
 30
0.0
 10
189.0289791728541
 20
455.0756089535564
 30
0.0
 10
188.96020779989
 20
454.3212572025689
 30
0.0
 10
188.8863856393801
 20
453.5675128650792
 30
0.0
 10
188.8072568445021
 20
452.8143915154719
 30
0.0
 10
188.7225872305721
 20
452.061884874099
 30
0.0
 10
188.5423438715657
 20
450.5635967972281
 30
0.0
 10
188.2318976297065
 20
448.358154239033
 30
0.0
 10
187.5212709144174
 20
444.4441583740323
 30
0.0
 10
186.3180237046779
 20
439.8043753975344
 30
0.0
 10
184.4567365134373
 20
435.4828701070317
 30
0.0
 10
182.4878795735063
 20
432.399496303035
 30
0.0
 10
180.6908721032546
 20
430.2648790910969
 30
0.0
 10
178.6409373230365
 20
428.4307804538847
 30
0.0
 10
176.6966749999313
 20
427.1392327353562
 30
0.0
 10
174.9997672638133
 20
426.255639653372
 30
0.0
 10
173.6395002576229
 20
425.6658515804133
 30
0.0
 10
172.2239830876262
 20
425.1644551620671
 30
0.0
 10
171.0012040120363
 20
424.8204009354627
 30
0.0
 10
170.001178349648
 20
424.5897329419172
 30
0.0
 10
169.2411453930125
 20
424.4392802406896
 30
0.0
 10
168.4742494952773
 20
424.3119796588952
 30
0.0
 10
167.7011234480446
 20
424.2078600371267
 30
0.0
 10
166.9224354189674
 20
424.126775247079
 30
0.0
 10
166.138866191825
 20
424.0692833561839
 30
0.0
 10
165.3511143970216
 20
424.0332944065627
 30
0.0
 10
164.8244734787478
 20
424.0288622525976
 30
0.0
 10
164.5608092321567
 20
424.0266432823364
 30
0.0
  0
SPLINE
  5
13F
330
1F
100
AcDbEntity
  8
0
  6
Continuous
 62
     7
370
    15
100
AcDbSpline
210
0.0
220
0.0
230
1.0
 70
     8
 71
     3
 72
    15
 73
    11
 74
     0
 42
0.00000001
 43
0.00000001
 12
1.0
 22
0.0
 32
0.0
 13
1.0
 23
0.0
 33
0.0
 40
0.0
 40
0.0
 40
0.0
 40
0.0
 40
0.062499680386339
 40
0.1249993016481651
 40
0.1874989229099913
 40
0.2499985441718174
 40
0.3124981654336435
 40
0.3749977866954697
 40
0.4374974079572958
 40
0.4999970292191219
 40
0.4999970292191219
 40
0.4999970292191219
 40
0.4999970292191219
 10
164.560803281009
 20
424.0266432823364
 30
0.0
 10
162.4638847680276
 20
424.0266432823376
 30
0.0
 10
158.2710072996254
 20
424.5207205945831
 30
0.0
 10
152.6777775444475
 20
426.7113515978578
 30
0.0
 10
148.2372184298258
 20
430.186605036661
 30
0.0
 10
145.0177733613802
 20
434.6480410543408
 30
0.0
 10
142.8098215358252
 20
439.7888674705294
 30
0.0
 10
141.3631859924877
 20
445.3710421973403
 30
0.0
 10
140.4272514404628
 20
451.2434946582466
 30
0.0
 10
140.0579840911498
 20
455.2947385610821
 30
0.0
 10
139.9153381872313
 20
457.3432871738218
 30
0.0
  0
SPLINE
  5
140
330
1F
100
AcDbEntity
  8
0
  6
Continuous
 62
     7
370
    15
100
AcDbSpline
210
0.0
220
0.0
230
1.0
 70
     8
 71
     3
 72
    11
 73
     7
 74
     0
 42
0.00000001
 43
0.00000001
 12
1.0
 22
0.0
 32
0.0
 13
1.0
 23
0.0
 33
0.0
 40
0.0
 40
0.0
 40
0.0
 40
0.0
 40
0.1896667873068995
 40
0.4754151909846526
 40
0.7470664728265545
 40
1.0
 40
1.0
 40
1.0
 40
1.0
 10
188.3588167501944
 20
534.3150916314167
 30
0.0
 10
188.4000194214601
 20
534.267028121358
 30
0.0
 10
188.503297259963
 20
534.1465530337663
 30
0.0
 10
188.593654807186
 20
533.9069919707148
 30
0.0
 10
188.6403818423908
 20
533.6284293239571
 30
0.0
 10
188.6187474379888
 20
533.439340936914
 30
0.0
 10
188.6083162052888
 20
533.3481701827092
 30
0.0
  0
SPLINE
  5
141
330
1F
100
AcDbEntity
  8
0
  6
Continuous
 62
     7
370
    15
100
AcDbSpline
210
0.0
220
0.0
230
1.0
 70
     8
 71
     3
 72
    11
 73
     7
 74
     0
 42
0.00000001
 43
0.00000001
 12
1.0
 22
0.0
 32
0.0
 13
1.0
 23
0.0
 33
0.0
 40
0.0
 40
0.0
 40
0.0
 40
0.0
 40
0.1867419924223612
 40
0.4735030499580625
 40
0.7461406798763079
 40
1.0
 40
1.0
 40
1.0
 40
1.0
 10
140.7626769168633
 20
534.3151214337391
 30
0.0
 10
140.7222792268504
 20
534.2680276037212
 30
0.0
 10
140.6198468323777
 20
534.1486164747166
 30
0.0
 10
140.5300313872653
 20
533.9102143290504
 30
0.0
 10
140.4832212376418
 20
533.6316696875916
 30
0.0
 10
140.5048323086993
 20
533.442467044358
 30
0.0
 10
140.5152524484652
 20
533.3512398219151
 30
0.0
  0
SPLINE
  5
142
330
1F
100
AcDbEntity
  8
0
  6
Continuous
 62
     7
370
    15
100
AcDbSpline
210
0.0
220
0.0
230
1.0
 70
     8
 71
     3
 72
    15
 73
    11
 74
     0
 42
0.00000001
 43
0.00000001
 12
1.0
 22
0.0
 32
0.0
 13
1.0
 23
0.0
 33
0.0
 40
0.0
 40
0.0
 40
0.0
 40
0.0
 40
0.0808957075635516
 40
0.1639809202706402
 40
0.2492843000448805
 40
0.370388677048869
 40
0.4992148743529612
 40
0.7498562143270345
 40
0.8740863264776415
 40
1.0
 40
1.0
 40
1.0
 40
1.0
 10
189.4299898331283
 20
461.9454351674981
 30
0.0
 10
189.4272198530082
 20
461.8200212963508
 30
0.0
 10
189.4216049211051
 20
461.5657991302455
 30
0.0
 10
189.4102507922574
 20
461.1801387434692
 30
0.0
 10
189.3948020804002
 20
460.7331071251068
 30
0.0
 10
189.3735910887003
 20
460.2167845465016
 30
0.0
 10
189.3369331875371
 20
459.4481418006816
 30
0.0
 10
189.2933142847586
 20
458.6780431373631
 30
0.0
 10
189.2453493559749
 20
457.9148299368018
 30
0.0
 10
189.2193616057902
 20
457.5346543362121
 30
0.0
 10
189.2062802770515
 20
457.3432871738218
 30
0.0
  0
SPLINE
  5
143
330
1F
100
AcDbEntity
  8
0
  6
Continuous
 62
     7
370
    15
100
AcDbSpline
210
0.0
220
0.0
230
1.0
 70
     8
 71
     3
 72
    12
 73
     8
 74
     0
 42
0.00000001
 43
0.00000001
 12
1.0
 22
0.0
 32
0.0
 13
1.0
 23
0.0
 33
0.0
 40
0.0
 40
0.0
 40
0.0
 40
0.0
 40
0.2549018309035931
 40
0.5078664061995527
 40
0.5078664061995527
 40
0.7608388392665357
 40
1.0
 40
1.0
 40
1.0
 40
1.0
 10
139.9153381872313
 20
457.3432871738218
 30
0.0
 10
139.8884053372417
 20
457.7300718691246
 30
0.0
 10
139.837652826143
 20
458.5043943524992
 30
0.0
 10
139.7940754409254
 20
459.2832980802845
 30
0.0
 10
139.7549597086761
 20
460.0601486955139
 30
0.0
 10
139.7213719018596
 20
460.8167109955878
 30
0.0
 10
139.6991466020291
 20
461.5757871840332
 30
0.0
 10
139.6916286311545
 20
461.9454351674981
 30
0.0
  0
LINE
  5
144
330
1F
100
AcDbEntity
  8
0
  6
Continuous
 62
     7
370
    15
100
AcDbLine
 10
138.4608088656
 20
419.9877763903
 30
0.0
 11
190.6608095987
 21
419.9877763903
 31
0.0
  0
LINE
  5
145
330
1F
100
AcDbEntity
  8
0
  6
Continuous
 62
     7
370
    15
100
AcDbLine
 10
138.4608088656
 20
359.9877777314
 30
0.0
 11
190.6608095987
 21
359.9877777314
 31
0.0
  0
LINE
  5
146
330
1F
100
AcDbEntity
  8
0
  6
Continuous
 62
     7
370
    15
100
AcDbLine
 10
164.5608092321
 20
420.4877736783
 30
0.0
 11
190.5608097686
 21
420.4877736783
 31
0.0
  0
LINE
  5
147
330
1F
100
AcDbEntity
  8
0
  6
Continuous
 62
     7
370
    15
100
AcDbLine
 10
138.5608086957
 20
420.4877736783
 30
0.0
 11
164.5608092321
 21
420.4877736783
 31
0.0
  0
LINE
  5
148
330
1F
100
AcDbEntity
  8
0
  6
Continuous
 62
     7
370
    15
100
AcDbLine
 10
185.3662333114
 20
485.4877750194
 30
0.0
 11
190.5608097686
 21
485.4877750194
 31
0.0
  0
LINE
  5
149
330
1F
100
AcDbEntity
  8
0
  6
Continuous
 62
     7
370
    15
100
AcDbLine
 10
138.5608086957
 20
485.4877750194
 30
0.0
 11
143.7454051001
 21
485.4877750194
 31
0.0
  0
LINE
  5
14A
330
1F
100
AcDbEntity
  8
0
  6
Continuous
 62
     7
370
    15
100
AcDbLine
 10
138.5608086957
 20
497.6877766466
 30
0.0
 11
144.1137580796
 21
497.6877766466
 31
0.0
  0
LINE
  5
14B
330
1F
100
AcDbEntity
  8
0
  6
Continuous
 62
     7
370
    15
100
AcDbLine
 10
184.9940321071
 20
497.6877766466
 30
0.0
 11
190.5608097686
 21
497.6877766466
 31
0.0
  0
LINE
  5
14C
330
1F
100
AcDbEntity
  8
0
  6
Continuous
 62
     7
370
    15
100
AcDbLine
 10
190.522163607
 20
528.6711948729
 30
0.0
 11
190.5256653799
 21
528.7479880071
 31
0.0
  0
SPLINE
  5
14D
330
1F
100
AcDbEntity
  8
0
  6
Continuous
 62
     8
370
    15
100
AcDbSpline
210
0.0
220
0.0
230
1.0
 70
     8
 71
     3
 72
    18
 73
    14
 74
     0
 42
0.00000001
 43
0.00000001
 12
1.0
 22
0.0
 32
0.0
 13
1.0
 23
0.0
 33
0.0
 40
0.0
 40
0.0
 40
0.0
 40
0.0
 40
0.0849806594382383
 40
0.170693281678216
 40
0.2573093596355487
 40
0.345246346154041
 40
0.4345728388741473
 40
0.5249368150067477
 40
0.6163750280303755
 40
0.7075579892114003
 40
0.8273011920179472
 40
0.9466026747362842
 40
1.0
 40
1.0
 40
1.0
 40
1.0
 10
164.5611532491376
 20
560.1344081378026
 30
0.0
 10
165.4248638138081
 20
560.121104618557
 30
0.0
 10
167.1597243300518
 20
560.0943829930372
 30
0.0
 10
169.722279960706
 20
559.858200730359
 30
0.0
 10
172.2045807745533
 20
559.4795103047903
 30
0.0
 10
174.5635641487424
 20
558.9551731206516
 30
0.0
 10
176.7385047247899
 20
558.2957098626047
 30
0.0
 10
178.6640377181143
 20
557.5084670570093
 30
0.0
 10
180.2568616250882
 20
556.6096538419828
 30
0.0
 10
181.5835882445087
 20
555.5186646315494
 30
0.0
 10
182.3447578300442
 20
554.1787947956793
 30
0.0
 10
182.391548602888
 20
552.9351861505017
 30
0.0
 10
182.4481363287994
 20
552.1705543103387
 30
0.0
 10
182.4656328780908
 20
551.934135220055
 30
0.0
  0
SPLINE
  5
14E
330
1F
100
AcDbEntity
  8
0
  6
Continuous
 62
     8
370
    15
100
AcDbSpline
210
0.0
220
0.0
230
1.0
 70
     8
 71
     3
 72
    18
 73
    14
 74
     0
 42
0.00000001
 43
0.00000001
 12
1.0
 22
0.0
 32
0.0
 13
1.0
 23
0.0
 33
0.0
 40
0.0
 40
0.0
 40
0.0
 40
0.0
 40
0.0853939435170539
 40
0.1715234095701942
 40
0.2585607250917662
 40
0.3469253731123856
 40
0.4366862848815048
 40
0.527489725627359
 40
0.6193726275706517
 40
0.7109990363121507
 40
0.8313245829083723
 40
0.9512062612113579
 40
0.9999999999999999
 40
0.9999999999999999
 40
0.9999999999999999
 40
0.9999999999999999
 10
164.5604652151452
 20
560.1344081378026
 30
0.0
 10
163.6967546498956
 20
560.1211046179538
 30
0.0
 10
161.9618941324887
 20
560.0943829912228
 30
0.0
 10
159.3993385106469
 20
559.8582007377219
 30
0.0
 10
156.9170376627393
 20
559.4795102766831
 30
0.0
 10
154.5580544186633
 20
558.9551732280428
 30
0.0
 10
152.3831133461326
 20
558.2957094529628
 30
0.0
 10
150.4575822398428
 20
557.5084686125086
 30
0.0
 10
148.8647511999897
 20
556.6096479693638
 30
0.0
 10
147.53805396704
 20
555.5186893617462
 30
0.0
 10
146.7767407861783
 20
554.1786699869485
 30
0.0
 10
146.7311748789522
 20
552.9561114535098
 30
0.0
 10
146.6763506537487
 20
552.2130948739942
 30
0.0
 10
146.660491324808
 20
551.9981580591244
 30
0.0
  0
SPLINE
  5
14F
330
1F
100
AcDbEntity
  8
0
  6
Continuous
 62
     8
370
    15
100
AcDbSpline
210
0.0
220
0.0
230
1.0
 70
     8
 71
     3
 72
    12
 73
     8
 74
     0
 42
0.00000001
 43
0.00000001
 12
1.0
 22
0.0
 32
0.0
 13
1.0
 23
0.0
 33
0.0
 40
0.0
 40
0.0
 40
0.0
 40
0.0
 40
0.3173048802494681
 40
0.6040620693744427
 40
0.7319995961485461
 40
0.8558591970914184
 40
1.0
 40
1.0
 40
1.0
 40
1.0
 10
146.3006785733956
 20
546.1858632779164
 30
0.0
 10
146.5736358693098
 20
544.8091028758184
 30
0.0
 10
147.0932722168223
 20
542.1881260510363
 30
0.0
 10
148.4870906994344
 20
539.1841179546195
 30
0.0
 10
149.8839141379841
 20
537.1722777489476
 30
0.0
 10
151.0626072325603
 20
535.7751390069302
 30
0.0
 10
152.0693464365227
 20
535.009977566016
 30
0.0
 10
152.6108090428966
 20
534.5984446620984
 30
0.0
  0
SPLINE
  5
150
330
1F
100
AcDbEntity
  8
0
  6
Continuous
 62
     8
370
    15
100
AcDbSpline
210
0.0
220
0.0
230
1.0
 70
     8
 71
     3
 72
    12
 73
     8
 74
     0
 42
0.00000001
 43
0.00000001
 12
1.0
 22
0.0
 32
0.0
 13
1.0
 23
0.0
 33
0.0
 40
0.0
 40
0.0
 40
0.0
 40
0.0
 40
0.3173048802494681
 40
0.6040620693744427
 40
0.7319995961485461
 40
0.8558591970914184
 40
1.0
 40
1.0
 40
1.0
 40
1.0
 10
182.8209398908872
 20
546.1858632779164
 30
0.0
 10
182.547982594973
 20
544.8091028758184
 30
0.0
 10
182.0283462474605
 20
542.1881260510363
 30
0.0
 10
180.6345277648484
 20
539.1841179546195
 30
0.0
 10
179.2377043262987
 20
537.1722777489476
 30
0.0
 10
178.0590112317224
 20
535.7751390069302
 30
0.0
 10
177.0522720277601
 20
535.009977566016
 30
0.0
 10
176.5108094213861
 20
534.5984446620984
 30
0.0
  0
LINE
  5
151
330
1F
100
AcDbEntity
  8
0
  6
Continuous
 62
     8
370
    15
100
AcDbLine
 10
163.5754933477
 20
530.7304757452
 30
0.0
 11
163.5754933477
 21
530.8781611538
 31
0.0
  0
LINE
  5
152
330
1F
100
AcDbEntity
  8
0
  6
Continuous
 62
     8
370
    15
100
AcDbLine
 10
165.5461251166
 20
530.7304757452
 30
0.0
 11
165.5461251166
 21
530.8781611538
 31
0.0
  0
LINE
  5
153
330
1F
100
AcDbEntity
  8
0
  6
Continuous
 62
     8
370
    15
100
AcDbLine
 10
162.7696458845
 20
530.4460349298
 30
0.0
 11
162.7696458845
 21
530.4991352177
 31
0.0
  0
LINE
  5
154
330
1F
100
AcDbEntity
  8
0
  6
Continuous
 62
     8
370
    15
100
AcDbLine
 10
166.3519725798
 20
530.4460349298
 30
0.0
 11
166.3519725798
 21
530.4991352177
 31
0.0
  0
LINE
  5
155
330
1F
100
AcDbEntity
  8
0
  6
Continuous
 62
     8
370
    15
100
AcDbLine
 10
162.2364867607
 20
530.0244140244
 30
0.0
 11
162.2364867607
 21
530.0600948548
 31
0.0
  0
LINE
  5
156
330
1F
100
AcDbEntity
  8
0
  6
Continuous
 62
     8
370
    15
100
AcDbLine
 10
166.8851317035
 20
530.0244140244
 30
0.0
 11
166.8851317035
 21
530.0600948548
 31
0.0
  0
LINE
  5
157
330
1F
100
AcDbEntity
  8
0
  6
Continuous
 62
     8
370
    15
100
AcDbLine
 10
162.0571848134
 20
529.5297997808
 30
0.0
 11
162.0571848134
 21
529.5601534462
 31
0.0
  0
LINE
  5
158
330
1F
100
AcDbEntity
  8
0
  6
Continuous
 62
     8
370
    15
100
AcDbLine
 10
167.0644336509
 20
529.5297997808
 30
0.0
 11
167.0644336509
 21
529.5601534462
 31
0.0
  0
LINE
  5
159
330
1F
100
AcDbEntity
  8
0
  6
Continuous
 62
     8
370
    15
100
AcDbLine
 10
157.730393078
 20
529.1024121261
 30
0.0
 11
157.730393078
 21
529.4114696598
 31
0.0
  0
LINE
  5
15A
330
1F
100
AcDbEntity
  8
0
  6
Continuous
 62
     8
370
    15
100
AcDbLine
 10
171.3912253863
 20
529.4114696598
 30
0.0
 11
171.3912253863
 21
529.1024121261
 31
0.0
  0
LINE
  5
15B
330
1F
100
AcDbEntity
  8
0
  6
Continuous
 62
     8
370
    15
100
AcDbLine
 10
162.2590368742
 20
529.0375026679
 30
0.0
 11
162.2590368742
 21
529.0633114791
 31
0.0
  0
LINE
  5
15C
330
1F
100
AcDbEntity
  8
0
  6
Continuous
 62
     8
370
    15
100
AcDbLine
 10
166.86258159
 20
529.0375026679
 30
0.0
 11
166.86258159
 21
529.0633114791
 31
0.0
  0
LINE
  5
15D
330
1F
100
AcDbEntity
  8
0
  6
Continuous
 62
     8
370
    15
100
AcDbLine
 10
158.5791604257
 20
527.7898507929
 30
0.0
 11
158.5791604257
 21
528.6773937559
 31
0.0
  0
LINE
  5
15E
330
1F
100
AcDbEntity
  8
0
  6
Continuous
 62
     8
370
    15
100
AcDbLine
 10
170.5424580386
 20
528.6773937559
 30
0.0
 11
170.5424580386
 21
527.7898507929
 31
0.0
  0
LINE
  5
15F
330
1F
100
AcDbEntity
  8
0
  6
Continuous
 62
     8
370
    15
100
AcDbLine
 10
157.7705843037
 20
528.47661551
 30
0.0
 11
157.7705843037
 21
528.5368087506
 31
0.0
  0
LINE
  5
160
330
1F
100
AcDbEntity
  8
0
  6
Continuous
 62
     8
370
    15
100
AcDbLine
 10
171.3510341606
 20
528.47661551
 30
0.0
 11
171.3510341606
 21
528.5368087506
 31
0.0
  0
LINE
  5
161
330
1F
100
AcDbEntity
  8
0
  6
Continuous
 62
     8
370
    15
100
AcDbLine
 10
158.2926218061
 20
527.8275060272
 30
0.0
 11
158.2926218061
 21
528.6469879365
 31
0.0
  0
LINE
  5
162
330
1F
100
AcDbEntity
  8
0
  6
Continuous
 62
     8
370
    15
100
AcDbLine
 10
170.8289966582
 20
527.8275060272
 30
0.0
 11
170.8289966582
 21
528.6469879365
 31
0.0
  0
SPLINE
  5
163
330
1F
100
AcDbEntity
  8
0
  6
Continuous
 62
     8
370
    15
100
AcDbSpline
210
0.0
220
0.0
230
1.0
 70
     8
 71
     3
 72
     9
 73
     5
 74
     0
 42
0.00000001
 43
0.00000001
 12
1.0
 22
0.0
 32
0.0
 13
1.0
 23
0.0
 33
0.0
 40
0.0
 40
0.0
 40
0.0
 40
0.0
 40
0.4443319535610642
 40
1.0
 40
1.0
 40
1.0
 40
1.0
 10
180.9651753528375
 20
559.8960491633458
 30
0.0
 10
180.9707445912091
 20
559.8236440355563
 30
0.0
 10
180.9832785499465
 20
559.6606912539497
 30
0.0
 10
180.9363012841339
 20
559.5017445233173
 30
0.0
 10
180.9101975186128
 20
559.4134229040188
 30
0.0
  0
SPLINE
  5
164
330
1F
100
AcDbEntity
  8
0
  6
Continuous
 62
     8
370
    15
100
AcDbSpline
210
0.0
220
0.0
230
1.0
 70
     8
 71
     3
 72
     9
 73
     5
 74
     0
 42
0.00000001
 43
0.00000001
 12
1.0
 22
0.0
 32
0.0
 13
1.0
 23
0.0
 33
0.0
 40
0.0
 40
0.0
 40
0.0
 40
0.0
 40
0.4441388141236745
 40
1.0
 40
1.0
 40
1.0
 40
1.0
 10
148.1564300729293
 20
559.8959672069592
 30
0.0
 10
148.1508637936666
 20
559.8236170837465
 30
0.0
 10
148.1383310469541
 20
559.6607172855032
 30
0.0
 10
148.1852974058895
 20
559.5018214418878
 30
0.0
 10
148.2114041818637
 20
559.4134974098248
 30
0.0
  0
LINE
  5
165
330
1F
100
AcDbEntity
  8
0
  6
Continuous
 62
     8
370
    15
100
AcDbLine
 10
181.0832204892
 20
556.8118366218
 30
0.0
 11
180.9102198704
 21
559.4134974098
 31
0.0
  0
LINE
  5
166
330
1F
100
AcDbEntity
  8
0
  6
Continuous
 62
     8
370
    15
100
AcDbLine
 10
148.2113985939
 20
559.4134974098
 30
0.0
 11
148.0402680708
 21
556.8399402118
 31
0.0
  0
SPLINE
  5
167
330
1F
100
AcDbEntity
  8
0
  6
Continuous
 62
     8
370
    15
100
AcDbSpline
210
0.0
220
0.0
230
1.0
 70
     8
 71
     3
 72
    10
 73
     6
 74
     0
 42
0.00000001
 43
0.00000001
 12
1.0
 22
0.0
 32
0.0
 13
1.0
 23
0.0
 33
0.0
 40
0.0
 40
0.0
 40
0.0
 40
0.0
 40
0.3655066571950603
 40
0.7160980661910522
 40
1.0
 40
1.0
 40
1.0
 40
1.0
 10
188.6072191072959
 20
533.349190912251
 30
0.0
 10
187.8538910703084
 20
534.1314254411623
 30
0.0
 10
186.3779760907181
 20
535.6639738159579
 30
0.0
 10
184.1731798010697
 20
537.8368904715073
 30
0.0
 10
183.4731169206016
 20
539.3187080990929
 30
0.0
 10
183.159876115467
 20
539.9817424631161
 30
0.0
  0
SPLINE
  5
168
330
1F
100
AcDbEntity
  8
0
  6
Continuous
 62
     8
370
    15
100
AcDbSpline
210
0.0
220
0.0
230
1.0
 70
     8
 71
     3
 72
    11
 73
     7
 74
     0
 42
0.00000001
 43
0.00000001
 12
1.0
 22
0.0
 32
0.0
 13
1.0
 23
0.0
 33
0.0
 40
0.0
 40
0.0
 40
0.0
 40
0.0
 40
0.1214504431532981
 40
0.4068251628098172
 40
0.6988110533758007
 40
1.0
 40
1.0
 40
1.0
 40
1.0
 10
145.9671998991031
 20
540.083740911488
 30
0.0
 10
145.8740279465733
 20
539.7945948195462
 30
0.0
 10
145.5619278523035
 20
538.8260359335025
 30
0.0
 10
144.3286034023513
 20
537.2083624612064
 30
0.0
 10
142.3685705494121
 20
535.2992907151117
 30
0.0
 10
141.1388162647531
 20
534.0059031775183
 30
0.0
 10
140.5143993569869
 20
533.3491760110898
 30
0.0
  0
SPLINE
  5
169
330
1F
100
AcDbEntity
  8
0
  6
Continuous
 62
     8
370
    15
100
AcDbSpline
210
0.0
220
0.0
230
1.0
 70
     8
 71
     3
 72
    17
 73
    13
 74
     0
 42
0.00000001
 43
0.00000001
 12
1.0
 22
0.0
 32
0.0
 13
1.0
 23
0.0
 33
0.0
 40
0.0
 40
0.0
 40
0.0
 40
0.0
 40
0.0025083570433228
 40
0.1276898482829011
 40
0.2497740473313013
 40
0.4507151241449654
 40
0.5409808741426447
 40
0.6256647332797247
 40
0.7188685630786228
 40
0.8121209160593675
 40
0.9064002400024218
 40
1.0
 40
1.0
 40
1.0
 40
1.0
 10
143.595577649619
 20
476.4900683230204
 30
0.0
 10
143.5877263033784
 20
476.4820566925817
 30
0.0
 10
143.1880474725885
 20
476.0742184711669
 30
0.0
 10
142.5429367492985
 20
475.1785727628039
 30
0.0
 10
141.4870822303431
 20
473.4846167164822
 30
0.0
 10
140.7527256479436
 20
471.7014763296363
 30
0.0
 10
140.266498552509
 20
469.8716147204597
 30
0.0
 10
140.0008733219488
 20
468.4673568524091
 30
0.0
 10
139.8154127792617
 20
466.9508870396714
 30
0.0
 10
139.7084730297981
 20
465.3065083469515
 30
0.0
 10
139.669582837226
 20
463.6266730772533
 30
0.0
 10
139.6842973642807
 20
462.5044947794766
 30
0.0
 10
139.6916280163783
 20
461.9454351058645
 30
0.0
  0
SPLINE
  5
16A
330
1F
100
AcDbEntity
  8
0
  6
Continuous
 62
     8
370
    15
100
AcDbSpline
210
0.0
220
0.0
230
1.0
 70
     8
 71
     3
 72
    17
 73
    13
 74
     0
 42
0.00000001
 43
0.00000001
 12
1.0
 22
0.0
 32
0.0
 13
1.0
 23
0.0
 33
0.0
 40
0.0
 40
0.0
 40
0.0
 40
0.0
 40
0.0025083570433228
 40
0.1276898482829011
 40
0.2497740473313013
 40
0.4507151241449654
 40
0.5409808741426447
 40
0.6256647332797247
 40
0.7188685630786228
 40
0.8121209160593675
 40
0.9064002400024218
 40
1.0
 40
1.0
 40
1.0
 40
1.0
 10
185.5260408146638
 20
476.4900683230204
 30
0.0
 10
185.5338921609044
 20
476.4820566925817
 30
0.0
 10
185.9335709916943
 20
476.0742184711669
 30
0.0
 10
186.5786817149843
 20
475.1785727628039
 30
0.0
 10
187.6345362339396
 20
473.4846167164822
 30
0.0
 10
188.3688928163392
 20
471.7014763296363
 30
0.0
 10
188.8551199117738
 20
469.8716147204597
 30
0.0
 10
189.120745142334
 20
468.4673568524091
 30
0.0
 10
189.306205685021
 20
466.9508870396714
 30
0.0
 10
189.4131454344847
 20
465.3065083469515
 30
0.0
 10
189.4520356270567
 20
463.6266730772533
 30
0.0
 10
189.4373211000021
 20
462.5044947794766
 30
0.0
 10
189.4299904479045
 20
461.9454351058645
 30
0.0
  0
SPLINE
  5
16B
330
1F
100
AcDbEntity
  8
0
  6
Continuous
 62
     8
370
    15
100
AcDbSpline
210
0.0
220
0.0
230
1.0
 70
     8
 71
     3
 72
    11
 73
     7
 74
     0
 42
0.00000001
 43
0.00000001
 12
1.0
 22
0.0
 32
0.0
 13
1.0
 23
0.0
 33
0.0
 40
0.0
 40
0.0
 40
0.0
 40
0.0
 40
0.0806608263775108
 40
0.3873127726957071
 40
0.6941717132578538
 40
0.9999999999999999
 40
0.9999999999999999
 40
0.9999999999999999
 40
0.9999999999999999
 10
190.5256653799075
 20
528.7479880070729
 30
0.0
 10
190.5343219675584
 20
528.873838469015
 30
0.0
 10
190.5758886997097
 20
529.4781403779948
 30
0.0
 10
190.2890490139969
 20
530.5661154454152
 30
0.0
 10
189.6842780608336
 20
531.9885215350547
 30
0.0
 10
188.9659899724406
 20
532.896849100092
 30
0.0
 10
188.6074500752944
 20
533.3502488946957
 30
0.0
  0
SPLINE
  5
16C
330
1F
100
AcDbEntity
  8
0
  6
Continuous
 62
     8
370
    15
100
AcDbSpline
210
0.0
220
0.0
230
1.0
 70
     8
 71
     3
 72
    12
 73
     8
 74
     0
 42
0.00000001
 43
0.00000001
 12
1.0
 22
0.0
 32
0.0
 13
1.0
 23
0.0
 33
0.0
 40
0.0
 40
0.0
 40
0.0
 40
0.0
 40
0.1805607960316723
 40
0.3811484043570241
 40
0.6017730366756977
 40
0.802603570366473
 40
1.0
 40
1.0
 40
1.0
 40
1.0
 10
140.5141702516335
 20
533.3502339935345
 30
0.0
 10
140.2921957314778
 20
533.0784965259344
 30
0.0
 10
139.8236264959367
 20
532.5048819625512
 30
0.0
 10
139.2675110240569
 20
531.5754882447295
 30
0.0
 10
138.8549195969687
 20
530.6006164076258
 30
0.0
 10
138.6050145273932
 20
529.6225641590012
 30
0.0
 10
138.576400495198
 20
528.9902006977622
 30
0.0
 10
138.5622168554324
 20
528.6767455554051
 30
0.0
  0
SPLINE
  5
16D
330
1F
100
AcDbEntity
  8
0
  6
Continuous
 62
     7
370
    15
100
AcDbSpline
210
0.0
220
0.0
230
1.0
 70
     8
 71
     3
 72
    14
 73
    10
 74
     0
 42
0.00000001
 43
0.00000001
 12
1.0
 22
0.0
 32
0.0
 13
1.0
 23
0.0
 33
0.0
 40
0.0
 40
0.0
 40
0.0
 40
0.0
 40
0.1888500108422587
 40
0.3761791287064486
 40
0.5463422227902944
 40
0.6989378653092596
 40
0.8357723258023632
 40
0.9606918322323055
 40
1.0
 40
1.0
 40
1.0
 40
1.0
 10
314.6328305065331
 20
501.9896413004441
 30
0.0
 10
314.7288722162095
 20
504.0059859871108
 30
0.0
 10
314.9201821690363
 20
508.0224368415176
 30
0.0
 10
315.4658829057486
 20
513.82694149009
 30
0.0
 10
316.2890036494115
 20
519.2102912758038
 30
0.0
 10
317.5206503125333
 20
524.0015181008334
 30
0.0
 10
319.2977986659899
 20
528.121786154619
 30
0.0
 10
321.0225212507592
 20
530.9457597999873
 30
0.0
 10
322.2571374882515
 20
532.2401401375128
 30
0.0
 10
322.5526449441609
 20
532.5499522304577
 30
0.0
  0
LINE
  5
16E
330
1F
100
AcDbEntity
  8
0
  6
Continuous
 62
     7
370
    15
100
AcDbLine
 10
263.0333186298
 20
419.9877763903
 30
0.0
 11
263.0333186298
 21
359.9877777314
 31
0.0
  0
LINE
  5
16F
330
1F
100
AcDbEntity
  8
0
  6
Continuous
 62
     7
370
    15
100
AcDbLine
 10
315.2333175003
 20
359.9877777314
 30
0.0
 11
315.2333175003
 21
419.9877763903
 31
0.0
  0
LINE
  5
170
330
1F
100
AcDbEntity
  8
0
  6
Continuous
 62
     7
370
    15
100
AcDbLine
 10
263.13331846
 20
516.4453322804
 30
0.0
 11
263.13331846
 21
497.6877766466
 31
0.0
  0
LINE
  5
171
330
1F
100
AcDbEntity
  8
0
  6
Continuous
 62
     7
370
    15
100
AcDbLine
 10
315.1333195328
 20
497.6877766466
 30
0.0
 11
315.1333195328
 21
500.6929161763
 31
0.0
  0
LINE
  5
172
330
1F
100
AcDbEntity
  8
0
  6
Continuous
 62
     7
370
    15
100
AcDbLine
 10
315.1333195328
 20
484.005044288
 30
0.0
 11
315.1333195328
 21
485.4877750194
 31
0.0
  0
LINE
  5
173
330
1F
100
AcDbEntity
  8
0
  6
Continuous
 62
     7
370
    15
100
AcDbLine
 10
315.1333195328
 20
420.4877736783
 30
0.0
 11
315.1333195328
 21
424.0266429997
 31
0.0
  0
LINE
  5
174
330
1F
100
AcDbEntity
  8
0
  6
Continuous
 62
     7
370
    15
100
AcDbLine
 10
263.13331846
 20
485.4877750194
 30
0.0
 11
263.13331846
 21
420.4877736783
 31
0.0
  0
LINE
  5
175
330
1F
100
AcDbEntity
  8
0
  6
Continuous
 62
     7
370
    15
100
AcDbLine
 10
315.0833186865
 20
485.4877750194
 30
0.0
 11
315.026746428
 21
488.7287757164
 31
0.0
  0
LINE
  5
176
330
1F
100
AcDbEntity
  8
0
  6
Continuous
 62
     7
370
    15
100
AcDbLine
 10
263.2398897022
 20
488.7287757164
 30
0.0
 11
263.1833174437
 21
485.4877750194
 31
0.0
  0
ARC
  5
177
330
1F
100
AcDbEntity
  8
0
  6
Continuous
 62
     7
370
    15
100
AcDbCircle
 10
289.2359298479
 20
488.2750122677
 30
0.0
 40
26.00000000000006
100
AcDbArc
 50
158.7751234916
 51
179.0
  0
ARC
  5
178
330
1F
100
AcDbEntity
  8
0
  6
Continuous
 62
     7
370
    15
100
AcDbCircle
 10
289.0307059689
 20
488.2750122677
 30
0.0
 40
26.00000000000005
100
AcDbArc
 50
1.0
 51
21.2248765084
  0
SPLINE
  5
179
330
1F
100
AcDbEntity
  8
0
  6
Continuous
 62
     7
370
    15
100
AcDbSpline
210
0.0
220
0.0
230
1.0
 70
     8
 71
     3
 72
    22
 73
    18
 74
     0
 42
0.00000001
 43
0.00000001
 12
1.0
 22
0.0
 32
0.0
 13
1.0
 23
0.0
 33
0.0
 40
0.0
 40
0.0
 40
0.0
 40
0.0
 40
0.0736985050742235
 40
0.1556380364926872
 40
0.2384053696015473
 40
0.3135091821954566
 40
0.3798469800484163
 40
0.4392561885822304
 40
0.4960045468471722
 40
0.5520452281093283
 40
0.6140957366924743
 40
0.6812277227843764
 40
0.7503389419862045
 40
0.8058871137475696
 40
0.864888691258483
 40
0.9314725993768446
 40
1.0
 40
1.0
 40
1.0
 40
1.0
 10
369.3572742104229
 20
569.5691454029126
 30
0.0
 10
366.6031528442052
 20
568.7038838135302
 30
0.0
 10
360.7869420368218
 20
566.8766063851969
 30
0.0
 10
352.2313866838697
 20
563.1107443528323
 30
0.0
 10
343.8131510583909
 20
558.9615098910517
 30
0.0
 10
335.916651181532
 20
555.1291220359145
 30
0.0
 10
328.8396191687126
 20
551.7040568088046
 30
0.0
 10
322.4155344760768
 20
548.5788965853891
 30
0.0
 10
316.3595267382115
 20
545.6186813548416
 30
0.0
 10
310.2019448423813
 20
542.6307938483271
 30
0.0
 10
303.6430591353934
 20
539.5392817293576
 30
0.0
 10
296.5704124473179
 20
536.3405278321262
 30
0.0
 10
289.7361765696468
 20
533.2321196658946
 30
0.0
 10
283.2704446430118
 20
530.0850468967744
 30
0.0
 10
277.0218740714883
 20
526.7308103604513
 30
0.0
 10
270.5015245446285
 20
522.8146491260834
 30
0.0
 10
266.2008341517896
 20
519.7328514829046
 30
0.0
 10
264.019557571381
 20
518.1697877860112
 30
0.0
  0
LINE
  5
17A
330
1F
100
AcDbEntity
  8
0
  6
Continuous
 62
     7
370
    15
100
AcDbLine
 10
264.233318454
 20
420.4877736783
 30
0.0
 11
264.233318454
 21
419.9877763903
 31
0.0
  0
LINE
  5
17B
330
1F
100
AcDbEntity
  8
0
  6
Continuous
 62
     7
370
    15
100
AcDbLine
 10
314.0333176762
 20
419.9877763903
 30
0.0
 11
314.0333176762
 21
420.4877736783
 31
0.0
  0
LINE
  5
17C
330
1F
100
AcDbEntity
  8
0
  6
Continuous
 62
     7
370
    15
100
AcDbLine
 10
479.292207694
 20
527.3210751629
 30
0.0
 11
481.4068612814
 21
523.8017114615
 31
0.0
  0
LINE
  5
17D
330
1F
100
AcDbEntity
  8
0
  6
Continuous
 62
     7
370
    15
100
AcDbLine
 10
501.8931565046
 20
536.1111211395
 30
0.0
 11
498.8589671611
 21
541.1608713484
 31
0.0
  0
LINE
  5
17E
330
1F
100
AcDbEntity
  8
0
  6
Continuous
 62
     7
370
    15
100
AcDbLine
 10
481.4068612814
 20
523.8017114615
 30
0.0
 11
482.9066333532
 21
523.8278928018
 31
0.0
  0
LINE
  5
17F
330
1F
100
AcDbEntity
  8
0
  6
Continuous
 62
     7
370
    15
100
AcDbLine
 10
501.165950036
 20
534.7991931057
 30
0.0
 11
501.8931565046
 21
536.1111211395
 31
0.0
  0
LINE
  5
180
330
1F
100
AcDbEntity
  8
0
  6
Continuous
 62
     7
370
    15
100
AcDbLine
 10
315.1325670242
 20
500.6877752757
 30
0.0
 11
315.3833163142
 21
500.6877752757
 31
0.0
  0
LINE
  5
181
330
1F
100
AcDbEntity
  8
0
  6
Continuous
 62
     7
370
    15
100
AcDbLine
 10
315.3833163142
 20
508.687776587
 30
0.0
 11
315.280896908
 21
508.687776587
 31
0.0
  0
LINE
  5
182
330
1F
100
AcDbEntity
  8
0
  6
Continuous
 62
     7
370
    15
100
AcDbLine
 10
315.3833163142
 20
500.6877752757
 30
0.0
 11
315.9838666379
 21
500.906356684
 31
0.0
  0
LINE
  5
183
330
1F
100
AcDbEntity
  8
0
  6
Continuous
 62
     7
370
    15
100
AcDbLine
 10
315.9838666379
 20
508.4691951788
 30
0.0
 11
315.3833163142
 21
508.687776587
 31
0.0
  0
ARC
  5
184
330
1F
100
AcDbEntity
  8
0
  6
Continuous
 62
     7
370
    15
100
AcDbCircle
 10
315.9154612497
 20
508.281254944
 30
0.0
 40
0.1999999999999886
100
AcDbArc
 50
0.0
 51
70.0
  0
ARC
  5
185
330
1F
100
AcDbEntity
  8
0
  6
Continuous
 62
     7
370
    15
100
AcDbCircle
 10
315.9154612497
 20
501.0942947261
 30
0.0
 40
0.1999999999999886
100
AcDbArc
 50
290.0
 51
0.0
  0
LINE
  5
186
330
1F
100
AcDbEntity
  8
0
  6
Continuous
 62
     7
370
    15
100
AcDbLine
 10
316.1154625177
 20
501.0942938542
 30
0.0
 11
316.1154625177
 21
508.2812542832
 31
0.0
  0
SPLINE
  5
187
330
1F
100
AcDbEntity
  8
0
  6
Continuous
 62
     7
370
     0
100
AcDbSpline
210
0.0
220
0.0
230
1.0
 70
     8
 71
     3
 72
    70
 73
    66
 74
     0
 42
0.00000001
 43
0.00000001
 12
1.0
 22
0.0
 32
0.0
 13
1.0
 23
0.0
 33
0.0
 40
0.0
 40
0.0
 40
0.0
 40
0.0
 40
0.0106110848721789
 40
0.021234067787425
 40
0.0393966718638849
 40
0.0486893734679805
 40
0.0766243999406329
 40
0.0952969243359622
 40
0.1046483526331774
 40
0.1390687486358217
 40
0.1563312461501278
 40
0.1649754910464185
 40
0.1895312419155244
 40
0.2134377710786837
 40
0.2214201923766822
 40
0.237403864966517
 40
0.2522324922442979
 40
0.2670797603727885
 40
0.289380784883169
 40
0.3037860313574109
 40
0.3107529249198245
 40
0.3386338248042161
 40
0.3658287310409696
 40
0.3724528391424179
 40
0.3923103698760313
 40
0.4183281203624797
 40
0.4247191456406663
 40
0.4374822649283732
 40
0.4502171068389262
 40
0.4565725640713414
 40
0.4816420156409759
 40
0.500335868579353
 40
0.5065443310354774
 40
0.5189241035687235
 40
0.5557328024314899
 40
0.5679753741602313
 40
0.5922839851519199
 40
0.6288766118519437
 40
0.6410677053274861
 40
0.6659900031676977
 40
0.6755497636468586
 40
0.6787323253960587
 40
0.6914445078571918
 40
0.7110410993867855
 40
0.7179459189548681
 40
0.7317536856421855
 40
0.745569596334205
 40
0.7524847022005301
 40
0.7750816276127362
 40
0.782942184035658
 40
0.7908203296522837
 40
0.8225526530632443
 40
0.8416566019754494
 40
0.8512855710747738
 40
0.8609713979494883
 40
0.8805328369172188
 40
0.9003842955172091
 40
0.9135765615617747
 40
0.9404494702469753
 40
0.9472826068362937
 40
0.9611009213618487
 40
0.9822464684583486
 40
0.9894183464909708
 40
0.9947343097606977
 40
1.0
 40
1.0
 40
1.0
 40
1.0
 10
299.0205950734403
 20
533.3497047270661
 30
0.0
 10
299.025639409205
 20
533.1809604268725
 30
0.0
 10
299.0357337368688
 20
532.8432826161476
 30
0.0
 10
299.0603190675512
 20
532.2170030080309
 30
0.0
 10
299.0899018511095
 20
531.6119678751959
 30
0.0
 10
299.1418395195475
 20
530.7324518084989
 30
0.0
 10
299.2063463453063
 20
529.8456917088474
 30
0.0
 10
299.2867534729479
 20
528.9595894753711
 30
0.0
 10
299.3873676890317
 20
527.9720843972859
 30
0.0
 10
299.5026208294423
 20
527.0089252116396
 30
0.0
 10
299.6372897985775
 20
526.0603743366172
 30
0.0
 10
299.7588669413395
 20
525.2685672927373
 30
0.0
 10
299.9095272805004
 20
524.3750019133769
 30
0.0
 10
300.0780284674116
 20
523.4961764185138
 30
0.0
 10
300.232242261042
 20
522.7537593468536
 30
0.0
 10
300.3641309481908
 20
522.1539757079923
 30
0.0
 10
300.5300686191642
 20
521.4512187772087
 30
0.0
 10
300.7309463912316
 20
520.6550612943793
 30
0.0
 10
300.9453309824389
 20
519.8705874481694
 30
0.0
 10
301.1399533965212
 20
519.2111142695256
 30
0.0
 10
301.3679751656524
 20
518.4709925918072
 30
0.0
 10
301.6732931202635
 20
517.5464549046558
 30
0.0
 10
302.0056239206575
 20
516.6414903540899
 30
0.0
 10
302.3104385642054
 20
515.8635112158821
 30
0.0
 10
302.6203733242833
 20
515.1097616350168
 30
0.0
 10
302.9496582576938
 20
514.3734021713254
 30
0.0
 10
303.2466198256967
 20
513.7470410606535
 30
0.0
 10
303.4614077782915
 20
513.3091396353219
 30
0.0
 10
303.682699645391
 20
512.8778377137465
 30
0.0
 10
303.9963749925024
 20
512.2867509631026
 30
0.0
 10
304.3651436946543
 20
511.6288560914807
 30
0.0
 10
304.7493894928566
 20
510.9935544612445
 30
0.0
 10
305.0426156717444
 20
510.529123368346
 30
0.0
 10
305.4853443510586
 20
509.8498802396504
 30
0.0
 10
305.9962241622694
 20
509.1296804313232
 30
0.0
 10
306.6230642140407
 20
508.3158548067537
 30
0.0
 10
307.2590681575707
 20
507.5394979076534
 30
0.0
 10
307.9067041230555
 20
506.8258367791828
 30
0.0
 10
308.5599222271322
 20
506.1603310128341
 30
0.0
 10
308.9725136502003
 20
505.7648811682695
 30
0.0
 10
309.30200501966
 20
505.4656820957312
 30
0.0
 10
309.5236195397635
 20
505.268398380577
 30
0.0
 10
309.8306571465223
 20
505.0019146061952
 30
0.0
 10
310.1643436167898
 20
504.726587160756
 30
0.0
 10
310.5011426779131
 20
504.4594704148041
 30
0.0
 10
310.7852376534005
 20
504.2411509559481
 30
0.0
 10
311.0626858477702
 20
504.0364726116152
 30
0.0
 10
311.4036551244708
 20
503.7922922319441
 30
0.0
 10
311.6887531732813
 20
503.5968308119694
 30
0.0
 10
311.9701444298446
 20
503.4115994193407
 30
0.0
 10
312.3113092661435
 20
503.1918077357256
 30
0.0
 10
312.7098993280518
 20
502.9488550370157
 30
0.0
 10
313.0849439694121
 20
502.7336188550129
 30
0.0
 10
313.3099133575133
 20
502.6086601579536
 30
0.0
 10
313.528336080831
 20
502.4899772210616
 30
0.0
 10
313.7862223269501
 20
502.3542740474356
 30
0.0
 10
314.0356504266517
 20
502.2281463502508
 30
0.0
 10
314.2932873279427
 20
502.1016265793784
 30
0.0
 10
314.4694696847019
 20
502.0181265407329
 30
0.0
 10
314.6255559058883
 20
501.9457446450693
 30
0.0
 10
314.7506908353018
 20
501.8885293939437
 30
0.0
 10
314.8559577590883
 20
501.8414194647962
 30
0.0
 10
314.9261431011119
 20
501.810390248052
 30
0.0
 10
314.960178774234
 20
501.7954171865086
 30
0.0
 10
314.9784180557619
 20
501.7874329738521
 30
0.0
 10
314.987494369462
 20
501.7834598338679
 30
0.0
  0
SPLINE
  5
188
330
1F
100
AcDbEntity
  8
0
  6
Continuous
 62
     7
370
    15
100
AcDbSpline
210
0.0
220
0.0
230
1.0
 70
     8
 71
     3
 72
     9
 73
     5
 74
     0
 42
0.00000001
 43
0.00000001
 12
1.0
 22
0.0
 32
0.0
 13
1.0
 23
0.0
 33
0.0
 40
0.0
 40
0.0
 40
0.0
 40
0.0
 40
0.5142872095971444
 40
1.0
 40
1.0
 40
1.0
 40
1.0
 10
315.280900633305
 20
508.6877765870137
 30
0.0
 10
315.3927729637397
 20
510.7233201655185
 30
0.0
 10
315.6103018626645
 20
514.681310060113
 30
0.0
 10
316.347254652864
 20
518.5758312366271
 30
0.0
 10
316.7052020489868
 20
520.4674499845547
 30
0.0
  0
SPLINE
  5
189
330
1F
100
AcDbEntity
  8
0
  6
Continuous
 62
     7
370
    15
100
AcDbSpline
210
0.0
220
0.0
230
1.0
 70
     8
 71
     3
 72
     9
 73
     5
 74
     0
 42
0.00000001
 43
0.00000001
 12
1.0
 22
0.0
 32
0.0
 13
1.0
 23
0.0
 33
0.0
 40
0.0
 40
0.0
 40
0.0
 40
0.0
 40
0.1146436452945233
 40
1.0
 40
1.0
 40
1.0
 40
1.0
 10
322.544195985764
 20
532.5563671803517
 30
0.0
 10
322.6687602022166
 20
532.7245046088342
 30
0.0
 10
323.7552941843896
 20
534.1911138399923
 30
0.0
 10
325.2130326063901
 20
535.3186893974124
 30
0.0
 10
326.5036505818066
 20
536.3169955825848
 30
0.0
  0
SPLINE
  5
18A
330
1F
100
AcDbEntity
  8
0
  6
Continuous
 62
     7
370
    15
100
AcDbSpline
210
0.0
220
0.0
230
1.0
 70
     8
 71
     3
 72
    32
 73
    28
 74
     0
 42
0.00000001
 43
0.00000001
 12
1.0
 22
0.0
 32
0.0
 13
1.0
 23
0.0
 33
0.0
 40
0.0
 40
0.0
 40
0.0
 40
0.0
 40
0.1249999999999995
 40
0.1249999999999995
 40
0.1874999999999995
 40
0.1874999999999995
 40
0.2499999999999995
 40
0.2499999999999995
 40
0.3124999999999995
 40
0.3124999999999995
 40
0.3749999999999995
 40
0.3749999999999995
 40
0.4374999999999996
 40
0.4374999999999996
 40
0.4999999999999996
 40
0.4999999999999996
 40
0.6249999999999997
 40
0.6249999999999997
 40
0.7499999999999998
 40
0.7499999999999998
 40
0.8124999999999999
 40
0.8124999999999999
 40
0.875
 40
0.875
 40
0.9375
 40
0.9375
 40
1.0
 40
1.0
 40
1.0
 40
1.0
 10
315.2809007353845
 20
508.6877748336051
 30
0.0
 10
315.2804311895507
 20
508.6877854778998
 30
0.0
 10
315.2690341311925
 20
508.6272541738468
 30
0.0
 10
315.2375698574434
 20
508.4525016841607
 30
0.0
 10
315.2247592124241
 20
508.3804528002456
 30
0.0
 10
315.1950296821391
 20
508.2083177302156
 30
0.0
 10
315.1780811954748
 20
508.1079805530168
 30
0.0
 10
315.1420540837831
 20
507.8857195195391
 30
0.0
 10
315.1228545168206
 20
507.7631221958453
 30
0.0
 10
315.083144086677
 20
507.4949076717339
 30
0.0
 10
315.0624754384788
 20
507.348011804449
 30
0.0
 10
315.0221610519881
 20
507.0390839459106
 30
0.0
 10
315.0024289868273
 20
506.8766064850647
 30
0.0
 10
314.9649300685683
 20
506.5357147230525
 30
0.0
 10
314.9470596833488
 20
506.3561208118375
 30
0.0
 10
314.8988202531352
 20
505.8001311751285
 30
0.0
 10
314.8744842193162
 20
505.4153301716468
 30
0.0
 10
314.8465457937899
 20
504.6168415712833
 30
0.0
 10
314.8436523207403
 20
504.219074707146
 30
0.0
 10
314.8550427876864
 20
503.6348251697111
 30
0.0
 10
314.8614999562006
 20
503.4414254280704
 30
0.0
 10
314.8785498010878
 20
503.0707129422828
 30
0.0
 10
314.8891615686009
 20
502.8916792462477
 30
0.0
 10
314.9136004368649
 20
502.5462000917673
 30
0.0
 10
314.9275559959189
 20
502.3785715488258
 30
0.0
 10
314.9567965328133
 20
502.0655964017179
 30
0.0
 10
314.9721074255075
 20
501.9194501207255
 30
0.0
 10
314.9874917655334
 20
501.7834609724869
 30
0.0
  0
SPLINE
  5
18B
330
1F
100
AcDbEntity
  8
0
  6
Continuous
 62
     7
370
    15
100
AcDbSpline
210
0.0
220
0.0
230
1.0
 70
     8
 71
     3
 72
    10
 73
     6
 74
     0
 42
0.00000001
 43
0.00000001
 12
1.0
 22
0.0
 32
0.0
 13
1.0
 23
0.0
 33
0.0
 40
0.0
 40
0.0
 40
0.0
 40
0.0
 40
0.8225580388243489
 40
0.8225580388243489
 40
1.0
 40
1.0
 40
1.0
 40
1.0
 10
296.717766222928
 20
461.9454351674981
 30
0.0
 10
303.697961958238
 20
464.2049584402033
 30
0.0
 10
305.3490908070812
 20
464.0418610204641
 30
0.0
 10
316.9538779223352
 20
469.3285690848398
 30
0.0
 10
319.3804236931861
 20
470.4766058196992
 30
0.0
 10
322.3070730208106
 20
471.9042290765439
 30
0.0
  0
ARC
  5
18C
330
1F
100
AcDbEntity
  8
0
  6
Continuous
 62
     7
370
    15
100
AcDbCircle
 10
265.303458268
 20
516.4453313235
 30
0.0
 40
2.170140359601874
100
AcDbArc
 50
126.6214308223
 51
180.0
  0
SPLINE
  5
18D
330
1F
100
AcDbEntity
  8
0
  6
Continuous
 62
     7
370
     0
100
AcDbSpline
210
0.0
220
0.0
230
1.0
 70
     8
 71
     3
 72
    33
 73
    29
 74
     0
 42
0.00000001
 43
0.00000001
 12
1.0
 22
0.0
 32
0.0
 13
1.0
 23
0.0
 33
0.0
 40
0.0
 40
0.0
 40
0.0
 40
0.0
 40
0.0145204379918168
 40
0.0313819706146065
 40
0.0449529442379919
 40
0.0553708827266716
 40
0.0626539305679932
 40
0.0815894961657969
 40
0.1251859464179979
 40
0.1436847251574729
 40
0.1874991065350433
 40
0.2187904001632032
 40
0.2501685081007746
 40
0.2877189805199484
 40
0.374205799133437
 40
0.4374043384973842
 40
0.4991389754369032
 40
0.5480575208550369
 40
0.6315938525909595
 40
0.7496267511556847
 40
0.8091451707913022
 40
0.8744846520222942
 40
0.9045284487271659
 40
0.9370195823510897
 40
0.95251032402624
 40
0.9686184294978067
 40
0.9868006512556128
 40
0.9999999999999999
 40
0.9999999999999999
 40
0.9999999999999999
 40
0.9999999999999999
 10
297.7976908912425
 20
534.681362638781
 30
0.0
 10
297.5849460246733
 20
534.5786417281857
 30
0.0
 10
297.1251559580895
 20
534.3566384663263
 30
0.0
 10
296.4662927138061
 20
534.0346378217755
 30
0.0
 10
295.8644085817375
 20
533.7397492848531
 30
0.0
 10
295.4009517969598
 20
533.5126644693684
 30
0.0
 10
294.8580535394311
 20
533.2451352330811
 30
0.0
 10
293.8103903309375
 20
532.7337956506581
 30
0.0
 10
292.5805917113284
 20
532.1340830620125
 30
0.0
 10
290.9640651890193
 20
531.3447603012763
 30
0.0
 10
289.5275917887956
 20
530.6430796783022
 30
0.0
 10
287.8913728010134
 20
529.844281550097
 30
0.0
 10
286.3535473475876
 20
529.0939699915881
 30
0.0
 10
283.9806053410695
 20
527.9354789846346
 30
0.0
 10
281.1613223830432
 20
526.559118437696
 30
0.0
 10
278.1022846700758
 20
525.0657876221784
 30
0.0
 10
275.7021328165295
 20
523.8942397220742
 30
0.0
 10
273.1715930173287
 20
522.6592367160557
 30
0.0
 10
270.1744419319
 20
521.1965263592296
 30
0.0
 10
267.5979231681154
 20
519.9386935148003
 30
0.0
 10
265.8065487102153
 20
519.0640966999562
 30
0.0
 10
264.9611973940424
 20
518.6517390217017
 30
0.0
 10
264.4666207976284
 20
518.4104373220459
 30
0.0
 10
264.2458451923741
 20
518.3021221321433
 30
0.0
 10
264.1209552654216
 20
518.2412876426213
 30
0.0
 10
264.0576665919118
 20
518.2118639307909
 30
0.0
 10
264.0252419854262
 20
518.1976219508471
 30
0.0
 10
264.0137793856206
 20
518.1902194269236
 30
0.0
 10
264.0089581211036
 20
518.1871058639855
 30
0.0
  0
SPLINE
  5
18E
330
1F
100
AcDbEntity
  8
0
  6
Continuous
 62
     7
370
    15
100
AcDbSpline
210
0.0
220
0.0
230
1.0
 70
     8
 71
     3
 72
     8
 73
     4
 74
     0
 42
0.00000001
 43
0.00000001
 12
1.0
 22
0.0
 32
0.0
 13
1.0
 23
0.0
 33
0.0
 40
0.0
 40
0.0
 40
0.0
 40
0.0
 40
1.0
 40
1.0
 40
1.0
 40
1.0
 10
297.8816151597448
 20
534.7226572199652
 30
0.0
 10
297.8536502387064
 20
534.7088975303551
 30
0.0
 10
297.8256754796187
 20
534.6951326681972
 30
0.0
 10
297.7976908913446
 20
534.6813626388189
 30
0.0
  0
LINE
  5
18F
330
1F
100
AcDbEntity
  8
0
  6
Continuous
 62
     7
370
    15
100
AcDbLine
 10
263.0333186298
 20
359.9877777314
 30
0.0
 11
315.2333175003
 21
359.9877777314
 31
0.0
  0
LINE
  5
190
330
1F
100
AcDbEntity
  8
0
  6
Continuous
 62
     7
370
    15
100
AcDbLine
 10
263.0333186298
 20
419.9877763903
 30
0.0
 11
315.2333175003
 21
419.9877763903
 31
0.0
  0
LINE
  5
191
330
1F
100
AcDbEntity
  8
0
  6
Continuous
 62
     7
370
    15
100
AcDbLine
 10
263.13331846
 20
497.6877766466
 30
0.0
 11
315.1333195328
 21
497.6877766466
 31
0.0
  0
SPLINE
  5
192
330
1F
100
AcDbEntity
  8
0
  6
Continuous
 62
     7
370
    15
100
AcDbSpline
210
0.0
220
0.0
230
1.0
 70
     8
 71
     3
 72
    10
 73
     6
 74
     0
 42
0.00000001
 43
0.00000001
 12
1.0
 22
0.0
 32
0.0
 13
1.0
 23
0.0
 33
0.0
 40
0.0
 40
0.0
 40
0.0
 40
0.0
 40
0.429688882523961
 40
0.8695306691470186
 40
1.0
 40
1.0
 40
1.0
 40
1.0
 10
315.1325483977494
 20
500.6929161763234
 30
0.0
 10
315.1263590147657
 20
500.7324671826912
 30
0.0
 10
315.113834002958
 20
500.8125037264116
 30
0.0
 10
315.0414342438555
 20
501.3161275117185
 30
0.0
 10
314.9974871571879
 20
501.6964120349121
 30
0.0
 10
314.9874334394631
 20
501.7834092295212
 30
0.0
  0
LINE
  5
193
330
1F
100
AcDbEntity
  8
0
  6
Continuous
 62
     7
370
    15
100
AcDbLine
 10
263.13331846
 20
420.4877736783
 30
0.0
 11
315.1333195328
 21
420.4877736783
 31
0.0
  0
LINE
  5
194
330
1F
100
AcDbEntity
  8
0
  6
Continuous
 62
     7
370
    15
100
AcDbLine
 10
263.13331846
 20
485.4877750194
 30
0.0
 11
315.1333195328
 21
485.4877750194
 31
0.0
  0
SPLINE
  5
195
330
1F
100
AcDbEntity
  8
0
  6
Continuous
 62
     7
370
     0
100
AcDbSpline
210
0.0
220
0.0
230
1.0
 70
     8
 71
     3
 72
    26
 73
    22
 74
     0
 42
0.00000001
 43
0.00000001
 12
1.0
 22
0.0
 32
0.0
 13
1.0
 23
0.0
 33
0.0
 40
0.0
 40
0.0
 40
0.0
 40
0.0
 40
0.0265317950657681
 40
0.0530722980966415
 40
0.0905821524047219
 40
0.1278938157487976
 40
0.1526671556584325
 40
0.2517304447119614
 40
0.3509308979067254
 40
0.3758486958434618
 40
0.4501665059499336
 40
0.4999893397038108
 40
0.5251207697264025
 40
0.601501632719683
 40
0.6519402361093926
 40
0.7031779129806882
 40
0.8046976640497766
 40
0.8809434622599364
 40
0.9069027664461875
 40
0.9529783390657889
 40
1.0
 40
1.0
 40
1.0
 40
1.0
 10
315.1329724432935
 20
484.0050434085029
 30
0.0
 10
315.1322464201079
 20
484.0046100975442
 30
0.0
 10
315.1307941354498
 20
484.0037433334103
 30
0.0
 10
315.1172956095949
 20
483.9954974786746
 30
0.0
 10
315.0909095648184
 20
483.9791156624223
 30
0.0
 10
315.050939384893
 20
483.9539644168019
 30
0.0
 10
314.9678636037636
 20
483.9013859174254
 30
0.0
 10
314.8019658436526
 20
483.7957148658791
 30
0.0
 10
314.5571258074211
 20
483.6397210113252
 30
0.0
 10
314.2972537392536
 20
483.4736753906795
 30
0.0
 10
314.0768372532048
 20
483.3325072853204
 30
0.0
 10
313.8255932105071
 20
483.1709095706838
 30
0.0
 10
313.5526551069
 20
482.9948729868266
 30
0.0
 10
313.2540676709978
 20
482.8014690386642
 30
0.0
 10
312.8700979011606
 20
482.5510124390244
 30
0.0
 10
312.4017862507546
 20
482.2436902102646
 30
0.0
 10
311.824612646249
 20
481.8614840441163
 30
0.0
 10
311.2645344436011
 20
481.4851893007515
 30
0.0
 10
310.8386133628531
 20
481.1962236368905
 30
0.0
 10
310.4874447356593
 20
480.9565010382442
 30
0.0
 10
310.2010373878505
 20
480.75911032628
 30
0.0
 10
310.0563784255631
 20
480.6594119918051
 30
0.0
  0
SPLINE
  5
196
330
1F
100
AcDbEntity
  8
0
  6
Continuous
 62
     7
370
    15
100
AcDbSpline
210
0.0
220
0.0
230
1.0
 70
     8
 71
     3
 72
    26
 73
    22
 74
     0
 42
0.00000001
 43
0.00000001
 12
1.0
 22
0.0
 32
0.0
 13
1.0
 23
0.0
 33
0.0
 40
0.0
 40
0.0
 40
0.0
 40
0.0
 40
0.1250000000000002
 40
0.1250000000000002
 40
0.2500000000000002
 40
0.2500000000000002
 40
0.3125000000000002
 40
0.3125000000000002
 40
0.3750000000000002
 40
0.3750000000000002
 40
0.5000000000000002
 40
0.5000000000000002
 40
0.5625000000000002
 40
0.5625000000000002
 40
0.6250000000000002
 40
0.6250000000000002
 40
0.7500000000000001
 40
0.7500000000000001
 40
0.8750000000000001
 40
0.8750000000000001
 40
1.0
 40
1.0
 40
1.0
 40
1.0
 10
315.1333179084158
 20
424.026643282337
 30
0.0
 10
315.133317908164
 20
425.3025921690112
 30
0.0
 10
315.1820319351597
 20
426.5724055329152
 30
0.0
 10
315.4287527127705
 20
429.0932288696474
 30
0.0
 10
315.6268248719558
 20
430.3442306042782
 30
0.0
 10
316.0821312658476
 20
432.2008081776904
 30
0.0
 10
316.2615048902955
 20
432.8192415701014
 30
0.0
 10
316.673300031295
 20
434.0265376496347
 30
0.0
 10
316.9058050684748
 20
434.6168611633516
 30
0.0
 10
317.685491485453
 20
436.3466818380746
 30
0.0
 10
318.3153803778364
 20
437.4447606100546
 30
0.0
 10
319.4239426588817
 20
439.0098863489311
 30
0.0
 10
319.8198576058631
 20
439.5164176315789
 30
0.0
 10
320.6468289106327
 20
440.4854419186477
 30
0.0
 10
321.0796274313186
 20
440.9505112345829
 30
0.0
 10
322.4292068910356
 20
442.2941908603117
 30
0.0
 10
323.3980701149309
 20
443.1223880351134
 30
0.0
 10
325.4368176586527
 20
444.6687112310207
 30
0.0
 10
326.4952930609
 20
445.3787563699145
 30
0.0
 10
328.6694919253292
 20
446.7064388683996
 30
0.0
 10
329.7853315703845
 20
447.323888689735
 30
0.0
 10
330.9229252853569
 20
447.9062238662398
 30
0.0
  0
SPLINE
  5
197
330
1F
100
AcDbEntity
  8
0
  6
Continuous
 62
     7
370
    15
100
AcDbSpline
210
0.0
220
0.0
230
1.0
 70
     8
 71
     3
 72
     9
 73
     5
 74
     0
 42
0.00000001
 43
0.00000001
 12
1.0
 22
0.0
 32
0.0
 13
1.0
 23
0.0
 33
0.0
 40
0.0
 40
0.0
 40
0.0
 40
0.0
 40
0.5
 40
0.8388692518020254
 40
0.8388692518020254
 40
0.8388692518020254
 40
0.8388692518020254
 10
465.0309514304369
 20
519.2978715190787
 30
0.0
 10
439.8069509989415
 20
505.1942221984281
 30
0.0
 10
397.1090650280543
 20
482.0869746606906
 30
0.0
 10
350.6499935220452
 20
458.0045266086475
 30
0.0
 10
330.9229252853697
 20
447.9062238662285
 30
0.0
  0
SPLINE
  5
198
330
1F
100
AcDbEntity
  8
0
  6
Continuous
 62
     7
370
    15
100
AcDbSpline
210
0.0
220
0.0
230
1.0
 70
     8
 71
     3
 72
    10
 73
     6
 74
     0
 42
0.00000001
 43
0.00000001
 12
1.0
 22
0.0
 32
0.0
 13
1.0
 23
0.0
 33
0.0
 40
0.0
 40
0.0
 40
0.0
 40
0.0
 40
0.4999999999999998
 40
0.4999999999999998
 40
1.0
 40
1.0
 40
1.0
 40
1.0
 10
327.4852726060872
 20
478.1941900641143
 30
0.0
 10
348.6926228022961
 20
488.4272589287659
 30
0.0
 10
369.9046602405769
 20
498.6505983960684
 30
0.0
 10
412.3451394237463
 20
519.0632266000364
 30
0.0
 10
433.5717080489409
 20
529.2563861592561
 30
0.0
 10
454.7982779653694
 20
539.4495342433561
 30
0.0
  0
SPLINE
  5
199
330
1F
100
AcDbEntity
  8
0
  6
Continuous
 62
     7
370
    15
100
AcDbSpline
210
0.0
220
0.0
230
1.0
 70
     8
 71
     3
 72
    11
 73
     7
 74
     0
 42
0.00000001
 43
0.00000001
 12
1.0
 22
0.0
 32
0.0
 13
1.0
 23
0.0
 33
0.0
 40
0.0
 40
0.0
 40
0.0
 40
0.0
 40
0.0610213630049637
 40
0.5306266217847454
 40
0.7503249363472829
 40
1.0
 40
1.0
 40
1.0
 40
1.0
 10
479.2922106018538
 20
527.3210776187253
 30
0.0
 10
479.0025471056724
 20
527.157142277456
 30
0.0
 10
476.4837052630121
 20
525.7316012530476
 30
0.0
 10
472.9188462871758
 20
523.7213597051658
 30
0.0
 10
468.4534638627462
 20
521.2131820116094
 30
0.0
 10
466.2193774704581
 20
519.9628750254435
 30
0.0
 10
465.0309937910916
 20
519.2977958137859
 30
0.0
  0
SPLINE
  5
19A
330
1F
100
AcDbEntity
  8
0
  6
Continuous
 62
     7
370
    15
100
AcDbSpline
210
0.0
220
0.0
230
1.0
 70
     8
 71
     3
 72
    24
 73
    20
 74
     0
 42
0.00000001
 43
0.00000001
 12
1.0
 22
0.0
 32
0.0
 13
1.0
 23
0.0
 33
0.0
 40
0.0
 40
0.0
 40
0.0
 40
0.0
 40
0.1249999999999987
 40
0.1249999999999987
 40
0.2499999999999973
 40
0.2499999999999973
 40
0.374999999999996
 40
0.374999999999996
 40
0.4999999999999947
 40
0.4999999999999947
 40
0.562499999999995
 40
0.562499999999995
 40
0.6249999999999953
 40
0.6249999999999953
 40
0.7499999999999969
 40
0.7499999999999969
 40
0.8749999999999984
 40
0.8749999999999984
 40
1.0
 40
1.0
 40
1.0
 40
1.0
 10
484.3940008694468
 20
533.9886378857292
 30
0.0
 10
483.9852810481431
 20
533.5695059493283
 30
0.0
 10
483.5997411806493
 20
533.1389703923048
 30
0.0
 10
482.8889842662168
 20
532.2975851389667
 30
0.0
 10
482.5602393494581
 20
531.8832918849262
 30
0.0
 10
481.9449796386074
 20
531.0777508744379
 30
0.0
 10
481.6574127122399
 20
530.6848099425163
 30
0.0
 10
481.1338738501085
 20
529.9538556161193
 30
0.0
 10
480.8957396091092
 20
529.6130424179375
 30
0.0
 10
480.5706217211944
 20
529.1443550919929
 30
0.0
 10
480.4676431007131
 20
528.9952268941094
 30
0.0
 10
480.272459501136
 20
528.7123056094872
 30
0.0
 10
480.1798572932624
 20
528.5779379869996
 30
0.0
 10
479.9228469929598
 20
528.2057702086365
 30
0.0
 10
479.7782426656344
 20
527.9976525798384
 30
0.0
 10
479.5418493390311
 20
527.6619537189857
 30
0.0
 10
479.4500486996932
 20
527.5343480884812
 30
0.0
 10
479.3245326571582
 20
527.3630202273824
 30
0.0
 10
479.2921873721114
 20
527.3211131349383
 30
0.0
 10
479.2922106037011
 20
527.3210776197711
 30
0.0
  0
SPLINE
  5
19B
330
1F
100
AcDbEntity
  8
0
  6
Continuous
 62
     7
370
    15
100
AcDbSpline
210
0.0
220
0.0
230
1.0
 70
     8
 71
     3
 72
    20
 73
    16
 74
     0
 42
0.00000001
 43
0.00000001
 12
1.0
 22
0.0
 32
0.0
 13
1.0
 23
0.0
 33
0.0
 40
0.0
 40
0.0
 40
0.0
 40
0.0
 40
0.1249999999999994
 40
0.1249999999999994
 40
0.2499999999999989
 40
0.2499999999999989
 40
0.3749999999999983
 40
0.3749999999999983
 40
0.4999999999999978
 40
0.4999999999999978
 40
0.6249999999999972
 40
0.6249999999999972
 40
0.7499999999999967
 40
0.7499999999999967
 40
1.0
 40
1.0
 40
1.0
 40
1.0
 10
508.584712839977
 20
560.1343846306276
 30
0.0
 10
508.6107779519713
 20
560.2549035897767
 30
0.0
 10
508.6216657123305
 20
560.3760954826384
 30
0.0
 10
508.614112280177
 20
560.6197796560466
 30
0.0
 10
508.5950786939745
 20
560.7426993466804
 30
0.0
 10
508.5289069876525
 20
560.9766693406568
 30
0.0
 10
508.4810363851043
 20
561.0907992915894
 30
0.0
 10
508.3594778027007
 20
561.3030524090603
 30
0.0
 10
508.2867225059422
 20
561.4004392123609
 30
0.0
 10
508.1170558455653
 20
561.57758439389
 30
0.0
 10
508.0216357767812
 20
561.6553509962488
 30
0.0
 10
507.8158325583988
 20
561.7851358567659
 30
0.0
 10
507.7031760260509
 20
561.8382225061226
 30
0.0
 10
507.3563145043504
 20
561.9523845436789
 30
0.0
 10
507.10554442666
 20
561.9711706456828
 30
0.0
 10
506.8647778019697
 20
561.9298317435126
 30
0.0
  0
SPLINE
  5
19C
330
1F
100
AcDbEntity
  8
0
  6
Continuous
 62
     7
370
    15
100
AcDbSpline
210
0.0
220
0.0
230
1.0
 70
     8
 71
     3
 72
    17
 73
    13
 74
     0
 42
0.00000001
 43
0.00000001
 12
1.0
 22
0.0
 32
0.0
 13
1.0
 23
0.0
 33
0.0
 40
0.0
 40
0.0
 40
0.0
 40
0.0
 40
0.249999999999996
 40
0.249999999999996
 40
0.499999999999992
 40
0.499999999999992
 40
0.5624999999999928
 40
0.5624999999999928
 40
0.6249999999999936
 40
0.749999999999995
 40
0.749999999999995
 40
1.0
 40
1.0
 40
1.0
 40
1.0
 10
508.5846242360048
 20
560.1344120908775
 30
0.0
 10
508.2017350986026
 20
558.3630570175046
 30
0.0
 10
507.7282047309765
 20
556.623961895326
 30
0.0
 10
506.5525434964267
 20
553.2271324283121
 30
0.0
 10
505.8512709278564
 20
551.5690926081109
 30
0.0
 10
504.8217862972617
 20
549.5509590227222
 30
0.0
 10
504.6078915146157
 20
549.1494190385413
 30
0.0
 10
504.1678319026721
 20
548.3575951835121
 30
0.0
 10
503.4885780769107
 20
547.1850832365926
 30
0.0
 10
502.7526474665338
 20
546.0575942332275
 30
0.0
 10
501.2072683119614
 20
543.8610174538599
 30
0.0
 10
500.0787845574876
 20
542.4746657322265
 30
0.0
 10
498.8589610497445
 20
541.1608725472779
 30
0.0
  0
SPLINE
  5
19D
330
1F
100
AcDbEntity
  8
0
  6
Continuous
 62
     7
370
    15
100
AcDbSpline
210
0.0
220
0.0
230
1.0
 70
     8
 71
     3
 72
    34
 73
    30
 74
     0
 42
0.00000001
 43
0.00000001
 12
1.0
 22
0.0
 32
0.0
 13
1.0
 23
0.0
 33
0.0
 40
0.0
 40
0.0
 40
0.0
 40
0.0
 40
0.0624999999999997
 40
0.0624999999999997
 40
0.1249999999999993
 40
0.1249999999999993
 40
0.187499999999999
 40
0.187499999999999
 40
0.2499999999999987
 40
0.2499999999999987
 40
0.3750000000000011
 40
0.3750000000000011
 40
0.4375000000000011
 40
0.4375000000000011
 40
0.500000000000001
 40
0.500000000000001
 40
0.562500000000001
 40
0.562500000000001
 40
0.625000000000001
 40
0.625000000000001
 40
0.6875000000000009
 40
0.6875000000000009
 40
0.7500000000000008
 40
0.7500000000000008
 40
0.8750000000000004
 40
0.8750000000000004
 40
0.9375000000000002
 40
0.9375000000000002
 40
1.0
 40
1.0
 40
1.0
 40
1.0
 10
484.3943216485553
 20
533.9880803438832
 30
0.0
 10
484.7105384090925
 20
534.312590831609
 30
0.0
 10
485.0424390870996
 20
534.6337572143163
 30
0.0
 10
485.7438570514909
 20
535.2644493122485
 30
0.0
 10
486.1138460535184
 20
535.5737655022042
 30
0.0
 10
486.8720590090342
 20
536.1568877760411
 30
0.0
 10
487.2630573977345
 20
536.4332528826475
 30
0.0
 10
488.0695503540976
 20
536.9546002378751
 30
0.0
 10
488.4866921950771
 20
537.2004353605937
 30
0.0
 10
489.7629786856306
 20
537.8874934154912
 30
0.0
 10
490.6185286953158
 20
538.2639708865644
 30
0.0
 10
491.8865897395147
 20
538.7593997575973
 30
0.0
 10
492.3049238695284
 20
538.9122669699327
 30
0.0
 10
493.1131801904384
 20
539.1965722769395
 30
0.0
 10
493.5055423317097
 20
539.3289742617882
 30
0.0
 10
494.2640666044198
 20
539.5809757237367
 30
0.0
 10
494.632119072335
 20
539.701180245023
 30
0.0
 10
495.3297556685532
 20
539.9294649042376
 30
0.0
 10
495.6573691381491
 20
540.0368954679258
 30
0.0
 10
496.2702864112706
 20
540.2403408755326
 30
0.0
 10
496.5556007467677
 20
540.3363244718648
 30
0.0
 10
497.0829818917868
 20
540.516587020689
 30
0.0
 10
497.3265295140743
 20
540.6013726359138
 30
0.0
 10
497.9752551004092
 20
540.8306818460868
 30
0.0
 10
498.3014891065179
 20
540.9509066544078
 30
0.0
 10
498.6345698615347
 20
541.075246371484
 30
0.0
 10
498.7191890682291
 20
541.1072563151093
 30
0.0
 10
498.8310629008518
 20
541.1498370693806
 30
0.0
 10
498.8590721939476
 20
541.1606875722628
 30
0.0
 10
498.8589610497448
 20
541.160872547278
 30
0.0
  0
SPLINE
  5
19E
330
1F
100
AcDbEntity
  8
0
  6
Continuous
 62
     7
370
    15
100
AcDbSpline
210
0.0
220
0.0
230
1.0
 70
     8
 71
     3
 72
    15
 73
    11
 74
     0
 42
0.00000001
 43
0.00000001
 12
1.0
 22
0.0
 32
0.0
 13
1.0
 23
0.0
 33
0.0
 40
0.0
 40
0.0
 40
0.0
 40
0.0
 40
0.1250131545069535
 40
0.2500596660317247
 40
0.3751357047653123
 40
0.5002348473938868
 40
0.6252183584363312
 40
0.750028033724113
 40
0.8748992868586583
 40
1.0
 40
1.0
 40
1.0
 40
1.0
 10
476.5569239018612
 20
549.7372963680778
 30
0.0
 10
475.6466380950201
 20
549.3162245881067
 30
0.0
 10
473.8258235915395
 20
548.4739686743974
 30
0.0
 10
471.0990717943865
 20
547.2000811123812
 30
0.0
 10
468.3745655862677
 20
545.9197853931732
 30
0.0
 10
465.6534409038394
 20
544.6334987529491
 30
0.0
 10
462.936610405438
 20
543.3431426580479
 30
0.0
 10
460.2234901508388
 20
542.0492457374394
 30
0.0
 10
457.5112626815698
 20
540.7512993640418
 30
0.0
 10
455.7031930731391
 20
539.8836495689939
 30
0.0
 10
454.798328416539
 20
539.449426444959
 30
0.0
  0
SPLINE
  5
19F
330
1F
100
AcDbEntity
  8
0
  6
Continuous
 62
     7
370
    15
100
AcDbSpline
210
0.0
220
0.0
230
1.0
 70
     8
 71
     3
 72
    78
 73
    74
 74
     0
 42
0.00000001
 43
0.00000001
 12
1.0
 22
0.0
 32
0.0
 13
1.0
 23
0.0
 33
0.0
 40
0.0
 40
0.0
 40
0.0
 40
0.0
 40
0.0640381069596803
 40
0.1008218852519178
 40
0.113083026549487
 40
0.1375169681447197
 40
0.16195119176883
 40
0.1863857898144892
 40
0.2228090399685654
 40
0.2467863277342193
 40
0.258775496227817
 40
0.3067316903564613
 40
0.3237705925744438
 40
0.3322907475493412
 40
0.357850573407925
 40
0.3706298591942478
 40
0.3748894856293623
 40
0.380590432774308
 40
0.3976929769265549
 40
0.4033937939673112
 40
0.4090942955121893
 40
0.4176453560064389
 40
0.4204959056654738
 40
0.4260225160380163
 40
0.4315493562626837
 40
0.4343132890646405
 40
0.4398411521958134
 40
0.4481325640540009
 40
0.4508964972860317
 40
0.4564246222406984
 40
0.4647164763512749
 40
0.4669368566568212
 40
0.4735978241095318
 40
0.4824795825681814
 40
0.491361443426605
 40
0.4980230243130873
 40
0.502463479290488
 40
0.5046834675230649
 40
0.5135637692860641
 40
0.5180043698107252
 40
0.5202247271409625
 40
0.5268851815711963
 40
0.5313242906429048
 40
0.5335442642296379
 40
0.5386197815126545
 40
0.5471855932735452
 40
0.558606133997605
 40
0.5700266381776055
 40
0.604517206333216
 40
0.6160572809979499
 40
0.6275972173477393
 40
0.6392950485814183
 40
0.6509925948921019
 40
0.6743840878709685
 40
0.6862190970129318
 40
0.6921368400547915
 40
0.709888685621942
 40
0.7336825921524734
 40
0.7456440607462175
 40
0.7695640883635313
 40
0.7936879088045187
 40
0.805750748437865
 40
0.8259207528511935
 40
0.8502440538364194
 40
0.8583858314074518
 40
0.8746683944412098
 40
0.8989053368886422
 40
0.9150026614454253
 40
0.9389873826560107
 40
0.9589555201748872
 40
0.9709291158658656
 40
0.985465134724646
 40
1.0
 40
1.0
 40
1.0
 40
1.0
 10
477.59461469067
 20
547.6518698468617
 30
0.0
 10
478.4018238218105
 20
548.0455224087754
 30
0.0
 10
479.6726975290141
 20
548.6652907828058
 30
0.0
 10
481.0974523333293
 20
549.361703765145
 30
0.0
 10
482.023413336196
 20
549.8138128890341
 30
0.0
 10
482.7939541996484
 20
550.1894981658169
 30
0.0
 10
483.7179658380625
 20
550.6399287389542
 30
0.0
 10
484.7922841831359
 20
551.1656907930172
 30
0.0
 10
485.8609002531218
 20
551.6884826251248
 30
0.0
 10
486.7730229695503
 20
552.1339564834018
 30
0.0
 10
487.8305614701819
 20
552.6501483820941
 30
0.0
 10
488.8006879054149
 20
553.1235419084979
 30
0.0
 10
489.7265816351536
 20
553.5764971493238
 30
0.0
 10
490.370256384864
 20
553.8916960407854
 30
0.0
 10
490.9601177589168
 20
554.1809079797493
 30
0.0
 10
491.4963566933657
 20
554.4436932134578
 30
0.0
 10
491.7826504344276
 20
554.5838528350126
 30
0.0
 10
492.1233856974828
 20
554.7505907598012
 30
0.0
 10
492.4822636590044
 20
554.9260670728371
 30
0.0
 10
492.8410929715566
 20
555.1012832578841
 30
0.0
 10
493.0922430215283
 20
555.2238270654423
 30
0.0
 10
493.3074323974149
 20
555.3287883108663
 30
0.0
 10
493.5203044950298
 20
555.4326234782235
 30
0.0
 10
493.6950455387167
 20
555.5178850215067
 30
0.0
 10
493.8685034110854
 20
555.6025950191855
 30
0.0
 10
494.0417816213514
 20
555.6872905792787
 30
0.0
 10
494.2494587797063
 20
555.7889011408197
 30
0.0
 10
494.4565693306927
 20
555.8904385864287
 30
0.0
 10
494.6631020124811
 20
555.9917925357697
 30
0.0
 10
494.8692335662122
 20
556.0929393609799
 30
0.0
 10
495.0678468820303
 20
556.1903799447545
 30
0.0
 10
495.2797581947985
 20
556.2943425270581
 30
0.0
 10
495.49832528378
 20
556.4015520428458
 30
0.0
 10
495.7972705407371
 20
556.5481003311832
 30
0.0
 10
496.0942934120663
 20
556.6935677963148
 30
0.0
 10
496.3357872254448
 20
556.8117724442538
 30
0.0
 10
496.4960085679713
 20
556.8901744783175
 30
0.0
 10
496.6823553761232
 20
556.9813495973539
 30
0.0
 10
496.8677719052553
 20
557.0720537363131
 30
0.0
 10
497.0519761954914
 20
557.1621609294979
 30
0.0
 10
497.2093398363553
 20
557.2391368323047
 30
0.0
 10
497.3659739104349
 20
557.3157551690076
 30
0.0
 10
497.5216563513272
 20
557.3919189932545
 30
0.0
 10
497.6583001417011
 20
557.4587758572266
 30
0.0
 10
497.8422238697701
 20
557.5487806859122
 30
0.0
 10
498.1304695432422
 20
557.6898899865097
 30
0.0
 10
498.4871300595722
 20
557.8646034723207
 30
0.0
 10
499.1279913010997
 20
558.1787490265533
 30
0.0
 10
499.7493527575786
 20
558.4835181390861
 30
0.0
 10
500.3472240346431
 20
558.7765328742031
 30
0.0
 10
500.7007312058944
 20
558.9497443031894
 30
0.0
 10
501.0477507929926
 20
559.1197478896995
 30
0.0
 10
501.5012269102551
 20
559.3418919694817
 30
0.0
 10
501.9387887944955
 20
559.5562503510371
 30
0.0
 10
502.3061907946915
 20
559.7363294511551
 30
0.0
 10
502.6160564826347
 20
559.8882367679643
 30
0.0
 10
503.0172741482022
 20
560.0850134698317
 30
0.0
 10
503.4428330928311
 20
560.2938335300693
 30
0.0
 10
503.8907789874547
 20
560.5135622273446
 30
0.0
 10
504.314081862731
 20
560.7210798168618
 30
0.0
 10
504.7001209732765
 20
560.9103411227658
 30
0.0
 10
505.034721309261
 20
561.0744695582825
 30
0.0
 10
505.3458208197507
 20
561.22716044192
 30
0.0
 10
505.6034889306757
 20
561.3535304634634
 30
0.0
 10
505.8193654926893
 20
561.4594173312449
 30
0.0
 10
506.0176003272996
 20
561.5566669840852
 30
0.0
 10
506.214364519366
 20
561.6531815754814
 30
0.0
 10
506.3982432993492
 20
561.7433904105735
 30
0.0
 10
506.5327798457649
 20
561.8093781693383
 30
0.0
 10
506.6195752238842
 20
561.85201472935
 30
0.0
 10
506.6684664452798
 20
561.8760315337231
 30
0.0
 10
506.6961957601355
 20
561.8896664471489
 30
0.0
 10
506.6999491558851
 20
561.8914789566959
 30
0.0
 10
506.7018257792893
 20
561.8923851755077
 30
0.0
  0
SPLINE
  5
1A0
330
1F
100
AcDbEntity
  8
0
  6
Continuous
 62
     7
370
    15
100
AcDbSpline
210
0.0
220
0.0
230
1.0
 70
     8
 71
     3
 72
    16
 73
    12
 74
     0
 42
0.00000001
 43
0.00000001
 12
1.0
 22
0.0
 32
0.0
 13
1.0
 23
0.0
 33
0.0
 40
0.0
 40
0.0
 40
0.0
 40
0.0
 40
0.2499999999999982
 40
0.2499999999999982
 40
0.3749999999999987
 40
0.3749999999999987
 40
0.4999999999999992
 40
0.4999999999999992
 40
0.7499999999999996
 40
0.7499999999999996
 40
1.0
 40
1.0
 40
1.0
 40
1.0
 10
506.7018257541973
 20
561.8923851683259
 30
0.0
 10
504.0955309709049
 20
561.1401978110089
 30
0.0
 10
501.5061404406613
 20
560.3345564702582
 30
0.0
 10
497.666081202608
 20
558.9868753609306
 30
0.0
 10
496.3951366764263
 20
558.5143595081859
 30
0.0
 10
493.8718697472498
 20
557.5222451025127
 30
0.0
 10
492.6193868223369
 20
557.0029395770692
 30
0.0
 10
488.8806194996919
 20
555.3975599613483
 30
0.0
 10
486.4142125454628
 20
554.2687082817777
 30
0.0
 10
481.4831378216916
 20
552.00834701915
 30
0.0
 10
479.0192278054318
 20
550.8745882346512
 30
0.0
 10
476.5568593835853
 20
549.7374398438689
 30
0.0
  0
SPLINE
  5
1A1
330
1F
100
AcDbEntity
  8
0
  6
Continuous
 62
     7
370
    15
100
AcDbSpline
210
0.0
220
0.0
230
1.0
 70
     8
 71
     3
 72
    13
 73
     9
 74
     0
 42
0.00000001
 43
0.00000001
 12
1.0
 22
0.0
 32
0.0
 13
1.0
 23
0.0
 33
0.0
 40
0.0
 40
0.0
 40
0.0
 40
0.0
 40
0.15247800921059
 40
0.4543873813276144
 40
0.7715845346660382
 40
0.7715845346660382
 40
0.8857922673330191
 40
1.0
 40
1.0
 40
1.0
 40
1.0
 10
354.6044961413901
 20
552.6015720106438
 30
0.0
 10
352.8237394312605
 20
551.6097176381562
 30
0.0
 10
347.4619182823213
 20
548.7552375103279
 30
0.0
 10
339.1097649291744
 20
544.1388371976858
 30
0.0
 10
333.7269762308808
 20
541.1275929218375
 30
0.0
 10
330.4094759281298
 20
539.0648729907726
 30
0.0
 10
328.7355706949282
 20
537.9795080677582
 30
0.0
 10
327.2217312650062
 20
536.878630372529
 30
0.0
 10
326.5035404699252
 20
536.3170445860854
 30
0.0
  0
SPLINE
  5
1A2
330
1F
100
AcDbEntity
  8
0
  6
Continuous
 62
     7
370
    15
100
AcDbSpline
210
0.0
220
0.0
230
1.0
 70
     8
 71
     3
 72
     8
 73
     4
 74
     0
 42
0.00000001
 43
0.00000001
 12
1.0
 22
0.0
 32
0.0
 13
1.0
 23
0.0
 33
0.0
 40
0.0
 40
0.0
 40
0.0
 40
0.0
 40
1.0
 40
1.0
 40
1.0
 40
1.0
 10
506.7018259592629
 20
561.8923848133344
 30
0.0
 10
506.7539357054634
 20
561.9074545102956
 30
0.0
 10
506.8083233759262
 20
561.9201163647652
 30
0.0
 10
506.864709278177
 20
561.9297975290008
 30
0.0
  0
ARC
  5
1A3
330
1F
100
AcDbEntity
  8
0
  6
Continuous
 62
     7
370
    15
100
AcDbCircle
 10
369.716641127
 20
568.3833597955
 30
0.0
 40
1.260247413551645
100
AcDbArc
 50
344.2883088269
 51
106.8608555874
  0
SPLINE
  5
1A4
330
1F
100
AcDbEntity
  8
0
  6
Continuous
 62
     7
370
    15
100
AcDbSpline
210
0.0
220
0.0
230
1.0
 70
     8
 71
     3
 72
    15
 73
    11
 74
     0
 42
0.00000001
 43
0.00000001
 12
1.0
 22
0.0
 32
0.0
 13
1.0
 23
0.0
 33
0.0
 40
0.0
 40
0.0
 40
0.0
 40
0.0
 40
0.2159249427285367
 40
0.2159249427285367
 40
0.3466041189404472
 40
0.4772832951523577
 40
0.6079624713642683
 40
0.7386416475761789
 40
0.8693208237880894
 40
0.8898059991320623
 40
0.8898059991320623
 40
0.8898059991320623
 40
0.8898059991320623
 10
354.6044961413901
 20
552.6015720106438
 30
0.0
 10
356.3979170879106
 20
553.6004801699667
 30
0.0
 10
358.1725733632877
 20
554.6338546559676
 30
0.0
 10
360.878969604851
 20
556.378590819709
 30
0.0
 10
362.8548026584189
 20
557.7334438529559
 30
0.0
 10
365.5307985710015
 20
559.9087848598618
 30
0.0
 10
367.8260977700123
 20
562.2525674957375
 30
0.0
 10
369.6477572096487
 20
564.7901719325172
 30
0.0
 10
370.5500566081422
 20
566.772094547333
 30
0.0
 10
370.8869127440373
 20
567.8896272633964
 30
0.0
 10
370.9298012995915
 20
568.0420887315834
 30
0.0
  0
SPLINE
  5
1A5
330
1F
100
AcDbEntity
  8
0
  6
Continuous
 62
     7
370
    15
100
AcDbSpline
210
0.0
220
0.0
230
1.0
 70
     8
 71
     3
 72
    32
 73
    28
 74
     0
 42
0.00000001
 43
0.00000001
 12
1.0
 22
0.0
 32
0.0
 13
1.0
 23
0.0
 33
0.0
 40
0.0
 40
0.0
 40
0.0
 40
0.0
 40
0.1250000000000001
 40
0.1250000000000001
 40
0.2500000000000003
 40
0.2500000000000003
 40
0.3750000000000004
 40
0.3750000000000004
 40
0.4374999999999999
 40
0.4374999999999999
 40
0.4999999999999994
 40
0.4999999999999994
 40
0.562499999999999
 40
0.562499999999999
 40
0.5937499999999987
 40
0.5937499999999987
 40
0.6249999999999983
 40
0.6249999999999983
 40
0.6874999999999987
 40
0.6874999999999987
 40
0.7499999999999989
 40
0.7499999999999989
 40
0.8124999999999992
 40
0.8124999999999992
 40
0.8749999999999996
 40
0.8749999999999996
 40
1.0
 40
1.0
 40
1.0
 40
1.0
 10
327.485278428526
 20
478.1942595212279
 30
0.0
 10
326.8081153272345
 20
477.8668529696626
 30
0.0
 10
326.1221538628252
 20
477.562520038792
 30
0.0
 10
324.7252568783254
 20
477.0193483923154
 30
0.0
 10
324.0145658167073
 20
476.7798685867709
 30
0.0
 10
322.5537256628214
 20
476.4043872727689
 30
0.0
 10
321.812833782534
 20
476.2698265480361
 30
0.0
 10
320.6841320848532
 20
476.2099623968101
 30
0.0
 10
320.3042892010991
 20
476.2145771418904
 30
0.0
 10
319.5581536309077
 20
476.2888477632361
 30
0.0
 10
319.1894795836158
 20
476.3580866089602
 30
0.0
 10
318.4640917855317
 20
476.5839540844748
 30
0.0
 10
318.1208093530235
 20
476.7369603555822
 30
0.0
 10
317.6403293170517
 20
477.0334323397106
 30
0.0
 10
317.4847409099077
 20
477.1444531135763
 30
0.0
 10
317.1925885796534
 20
477.3842050332957
 30
0.0
 10
317.0556937788568
 20
477.512850929704
 30
0.0
 10
316.6705673707885
 20
477.9232013293324
 30
0.0
 10
316.4459506611301
 20
478.233282071099
 30
0.0
 10
316.0689304089948
 20
478.8839324834757
 30
0.0
 10
315.914488958722
 20
479.2249624395755
 30
0.0
 10
315.6556730941048
 20
479.9301019185535
 30
0.0
 10
315.5513851860186
 20
480.2955006039211
 30
0.0
 10
315.3845914674052
 20
481.0268148126788
 30
0.0
 10
315.321192168551
 20
481.3950231926958
 30
0.0
 10
315.1751975979956
 20
482.5052877640687
 30
0.0
 10
315.1360139133017
 20
483.2535291549623
 30
0.0
 10
315.132972443294
 20
484.0050434085035
 30
0.0
  0
LWPOLYLINE
  5
1A6
330
1F
100
AcDbEntity
  8
0
  6
Continuous
 62
     7
370
    15
100
AcDbPolyline
 90
        8
 70
   128
 43
0.0
 10
495.8485898733
 20
532.4791866159
 10
497.4254605531
 20
533.4266545987
 10
498.8224891185
 20
534.2660742617
 10
499.9961939811
 20
534.9713089681
 10
500.9100225925
 20
535.5203944063
 10
501.5355137348
 20
535.896231494
 10
501.8532064914
 20
536.0871228194
 10
501.8931565046
 20
536.1111211395
  0
LINE
  5
1A7
330
1F
100
AcDbEntity
  8
0
  6
Continuous
 62
     7
370
    15
100
AcDbLine
 10
494.2262259483
 20
535.1792621231
 30
0.0
 11
495.8485898733
 21
532.4791866159
 31
0.0
  0
LWPOLYLINE
  5
1A8
330
1F
100
AcDbEntity
  8
0
  6
Continuous
 62
     7
370
    15
100
AcDbPolyline
 90
        9
 70
   128
 43
0.0
 10
485.8290490865
 20
530.1337289429
 10
486.837082839
 20
530.7394164419
 10
487.8806558609
 20
531.366457305
 10
488.9481303453
 20
532.0078628874
 10
490.027644968
 20
532.656495533
 10
491.1071446895
 20
533.3051281786
 10
492.174619174
 20
533.946533761
 10
493.2181921959
 20
534.5735746241
 10
494.2262259483
 20
535.1792621231
  0
LINE
  5
1A9
330
1F
100
AcDbEntity
  8
0
  6
Continuous
 62
     7
370
    15
100
AcDbLine
 10
487.4514130115
 20
527.4336534357
 30
0.0
 11
485.8290490865
 21
530.1337289429
 31
0.0
  0
LWPOLYLINE
  5
1AA
330
1F
100
AcDbEntity
  8
0
  6
Continuous
 62
     7
370
    15
100
AcDbPolyline
 90
        8
 70
   128
 43
0.0
 10
481.4068612814
 20
523.8017114615
 10
481.4468112945
 20
523.8257097817
 10
481.7645040512
 20
524.0166011071
 10
482.3899951935
 20
524.3924456453
 10
483.3038238048
 20
524.941523633
 10
484.4775286674
 20
525.6467583394
 10
485.8745572328
 20
526.4861780024
 10
487.4514130115
 20
527.4336534357
  0
SPLINE
  5
1AB
330
1F
100
AcDbEntity
  8
0
  6
Continuous
 62
     7
370
    15
100
AcDbSpline
210
0.0
220
0.0
230
1.0
 70
     8
 71
     3
 72
    14
 73
    10
 74
     0
 42
0.00000001
 43
0.00000001
 12
1.0
 22
0.0
 32
0.0
 13
1.0
 23
0.0
 33
0.0
 40
0.0
 40
0.0
 40
0.0
 40
0.0
 40
0.25
 40
0.25
 40
0.5
 40
0.5
 40
0.75
 40
0.75
 40
1.0
 40
1.0
 40
1.0
 40
1.0
 10
495.8485970912105
 20
532.4791833496339
 30
0.0
 10
495.1905116188533
 20
531.8366663953789
 30
0.0
 10
494.5532608188811
 20
531.2793618972347
 30
0.0
 10
493.272743811431
 20
530.2797799358418
 30
0.0
 10
492.629842804463
 20
529.8379267451768
 30
0.0
 10
491.294624180392
 20
529.0356464561804
 30
0.0
 10
490.6026672288392
 20
528.6754360675748
 30
0.0
 10
489.1189224215008
 20
528.0140819637794
 30
0.0
 10
488.3276806274254
 20
527.7130615175879
 30
0.0
 10
487.4514194141407
 20
527.4336499725052
 30
0.0
  0
LWPOLYLINE
  5
1AC
330
1F
100
AcDbEntity
  8
0
  6
Continuous
 62
     7
370
    15
100
AcDbPolyline
 90
       20
 70
   128
 43
0.0
 10
482.9066333532
 20
523.8278928018
 10
482.9158273697
 20
523.833413682
 10
483.1355300903
 20
523.9654305196
 10
483.6413202047
 20
524.2693322516
 10
484.4169256448
 20
524.7353660679
 10
485.437416768
 20
525.3485414004
 10
486.6700110197
 20
526.0891589141
 10
488.075071311
 20
526.9334065533
 10
489.6074620247
 20
527.854156754
 10
491.2179050207
 20
528.8218083596
 10
492.8546634674
 20
529.8052700973
 10
494.4651064634
 20
530.7729291534
 10
495.9974971771
 20
531.6936793542
 10
497.4025574684
 20
532.5379269934
 10
498.63515172
 20
533.278544507
 10
499.6556577444
 20
533.8917198396
 10
500.4312631845
 20
534.3577462053
 10
500.9370383978
 20
534.6616553879
 10
501.1567560196
 20
534.7936647749
 10
501.165950036
 20
534.7991931057
  0
LWPOLYLINE
  5
1AD
330
1F
100
AcDbEntity
  8
0
  6
Continuous
 62
     7
370
    15
100
AcDbPolyline
 90
        9
 70
   128
 43
0.0
 10
494.0934864044
 20
527.8313803291
 10
494.1472646951
 20
527.8636934972
 10
494.2009982824
 20
527.8959768629
 10
494.254672265
 20
527.9282229757
 10
494.3082717418
 20
527.9604318357
 10
494.3618265152
 20
527.9926108933
 10
494.4153067827
 20
528.0247452474
 10
494.4687274456
 20
528.0568423486
 10
494.5220736026
 20
528.0889021969
  0
SPLINE
  5
1AE
330
1F
100
AcDbEntity
  8
0
  6
Continuous
 62
     7
370
    15
100
AcDbSpline
210
0.0
220
0.0
230
1.0
 70
     8
 71
     3
 72
     9
 73
     5
 74
     0
 42
0.00000001
 43
0.00000001
 12
1.0
 22
0.0
 32
0.0
 13
1.0
 23
0.0
 33
0.0
 40
0.0
 40
0.0
 40
0.0
 40
0.0
 40
0.5296413530574485
 40
1.0
 40
1.0
 40
1.0
 40
1.0
 10
492.8934511899647
 20
529.8285829639477
 30
0.0
 10
493.1053480530105
 20
529.4759346982132
 30
0.0
 10
493.5054241834384
 20
528.8101100534816
 30
0.0
 10
493.9053689330906
 20
528.1444699211368
 30
0.0
 10
494.0934864043888
 20
527.8313803291363
 30
0.0
  0
SPLINE
  5
1AF
330
1F
100
AcDbEntity
  8
0
  6
Continuous
 62
     7
370
    15
100
AcDbSpline
210
0.0
220
0.0
230
1.0
 70
     8
 71
     3
 72
     9
 73
     5
 74
     0
 42
0.00000001
 43
0.00000001
 12
1.0
 22
0.0
 32
0.0
 13
1.0
 23
0.0
 33
0.0
 40
0.0
 40
0.0
 40
0.0
 40
0.0
 40
0.6042625368561858
 40
0.9999999999999999
 40
0.9999999999999999
 40
0.9999999999999999
 40
0.9999999999999999
 10
492.3791525125202
 20
526.8013003087086
 30
0.0
 10
492.1374760976345
 20
527.2035276803567
 30
0.0
 10
491.737523427818
 20
527.8691777035084
 30
0.0
 10
491.3374437964637
 20
528.5350086814334
 30
0.0
 10
491.1791172980962
 20
528.79850294352
 30
0.0
  0
LWPOLYLINE
  5
1B0
330
1F
100
AcDbEntity
  8
0
  6
Continuous
 62
     7
370
    15
100
AcDbPolyline
 90
        9
 70
   128
 43
0.0
 10
491.9505802154
 20
526.5437858915
 10
492.0039263725
 20
526.5758382893
 10
492.0573321342
 20
526.6079353905
 10
492.1108273029
 20
526.6400697446
 10
492.1643820762
 20
526.6722488022
 10
492.217981553
 20
526.7044576621
 10
492.2716555357
 20
526.7367112255
 10
492.3253742218
 20
526.7689871407
 10
492.3791525125
 20
526.8013003087
  0
SPLINE
  5
1B1
330
1F
100
AcDbEntity
  8
0
  6
Continuous
 62
     7
370
    15
100
AcDbSpline
210
0.0
220
0.0
230
1.0
 70
     8
 71
     3
 72
     9
 73
     5
 74
     0
 42
0.00000001
 43
0.00000001
 12
1.0
 22
0.0
 32
0.0
 13
1.0
 23
0.0
 33
0.0
 40
0.0
 40
0.0
 40
0.0
 40
0.0
 40
0.4349590949034723
 40
1.0
 40
1.0
 40
1.0
 40
1.0
 10
490.7505300998387
 20
528.540981075768
 30
0.0
 10
490.9245898214331
 20
528.2512970339875
 30
0.0
 10
491.3247647427851
 20
527.5852940806643
 30
0.0
 10
491.7246363823065
 20
526.9198110343519
 30
0.0
 10
491.950580215424
 20
526.5437858915371
 30
0.0
  0
SPLINE
  5
1B2
330
1F
100
AcDbEntity
  8
0
  6
Continuous
 62
     7
370
    15
100
AcDbSpline
210
0.0
220
0.0
230
1.0
 70
     8
 71
     3
 72
     9
 73
     5
 74
     0
 42
0.00000001
 43
0.00000001
 12
1.0
 22
0.0
 32
0.0
 13
1.0
 23
0.0
 33
0.0
 40
0.0
 40
0.0
 40
0.0
 40
0.0
 40
0.7272455743753857
 40
1.0
 40
1.0
 40
1.0
 40
1.0
 10
494.5220736026463
 20
528.0889021968884
 30
0.0
 10
494.2312626514496
 20
528.5728978141067
 30
0.0
 10
493.8313826639411
 20
529.2384166350823
 30
0.0
 10
493.4311921279946
 20
529.9044372978043
 30
0.0
 10
493.3220383882222
 20
530.0860973811192
 30
0.0
  0
LWPOLYLINE
  5
1B3
330
1F
100
AcDbEntity
  8
0
  6
Continuous
 62
     7
370
    15
100
AcDbPolyline
 90
        9
 70
   128
 43
0.0
 10
491.9505802154
 20
526.5437858915
 10
491.5792432785
 20
526.320670805
 10
491.2125853061
 20
526.1003571367
 10
490.8516046762
 20
525.8834558344
 10
490.4973295688
 20
525.6705852962
 10
490.1507434606
 20
525.4623415685
 10
489.8128447294
 20
525.2593057966
 10
489.4845572471
 20
525.0620516753
 10
489.1668048858
 20
524.8711305475
  0
LINE
  5
1B4
330
1F
100
AcDbEntity
  8
0
  6
Continuous
 62
     7
370
    15
100
AcDbLine
 10
487.9667696714
 20
526.8683331823
 30
0.0
 11
489.1668048858
 21
524.8711305475
 31
0.0
  0
LINE
  5
1B5
330
1F
100
AcDbEntity
  8
0
  6
Continuous
 62
     7
370
    15
100
AcDbLine
 10
497.3058340311
 20
529.7615500903
 30
0.0
 11
496.1057988167
 21
531.7587527251
 31
0.0
  0
LWPOLYLINE
  5
1B6
330
1F
100
AcDbEntity
  8
0
  6
Continuous
 62
     7
370
    15
100
AcDbPolyline
 90
        9
 70
   128
 43
0.0
 10
497.3058340311
 20
529.7615500903
 10
496.9880965709
 20
529.5706364131
 10
496.6598090887
 20
529.3733822918
 10
496.3219103574
 20
529.17034652
 10
495.9753242492
 20
528.9620953417
 10
495.6210491419
 20
528.7492248035
 10
495.2600685119
 20
528.5323309517
 10
494.8933956384
 20
528.3120098329
 10
494.5220736026
 20
528.0889021969
  0
SPLINE
  5
1B7
330
1F
100
AcDbEntity
  8
0
  6
Continuous
 62
     7
370
    15
100
AcDbSpline
210
0.0
220
0.0
230
1.0
 70
     8
 71
     3
 72
     9
 73
     5
 74
     0
 42
0.00000001
 43
0.00000001
 12
1.0
 22
0.0
 32
0.0
 13
1.0
 23
0.0
 33
0.0
 40
0.0
 40
0.0
 40
0.0
 40
0.0
 40
0.5296398558979865
 40
1.0
 40
1.0
 40
1.0
 40
1.0
 10
486.8959722280201
 20
526.2249308443112
 30
0.0
 10
487.2352320103836
 20
525.9488107825347
 30
0.0
 10
487.8757800707034
 20
525.4274752774706
 30
0.0
 10
488.5164866527419
 20
524.9065015744128
 30
0.0
 10
488.8178494929966
 20
524.6614563083691
 30
0.0
  0
SPLINE
  5
1B8
330
1F
100
AcDbEntity
  8
0
  6
Continuous
 62
     7
370
    15
100
AcDbSpline
210
0.0
220
0.0
230
1.0
 70
     8
 71
     3
 72
     9
 73
     5
 74
     0
 42
0.00000001
 43
0.00000001
 12
1.0
 22
0.0
 32
0.0
 13
1.0
 23
0.0
 33
0.0
 40
0.0
 40
0.0
 40
0.0
 40
0.0
 40
0.604267552301737
 40
1.0
 40
1.0
 40
1.0
 40
1.0
 10
487.6056400298771
 20
523.9330800986332
 30
0.0
 10
487.2184839786242
 20
524.2478989254153
 30
0.0
 10
486.5777809493482
 20
524.7688913659041
 30
0.0
 10
485.9372333378893
 20
525.2902347073809
 30
0.0
 10
485.6837478637394
 20
525.4965471839947
 30
0.0
  0
LWPOLYLINE
  5
1B9
330
1F
100
AcDbEntity
  8
0
  6
Continuous
 62
     7
370
    15
100
AcDbPolyline
 90
        9
 70
   128
 43
0.0
 10
487.3484906912
 20
523.7785699582
 10
487.3794702053
 20
523.7971815085
 10
487.4107775449
 20
523.8160016751
 10
487.4424276113
 20
523.8350230074
 10
487.4744204044
 20
523.8542380548
 10
487.5067261219
 20
523.8736542678
 10
487.539374566
 20
523.8932641959
 10
487.5723359346
 20
523.9130752897
 10
487.6056400299
 20
523.9330800986
  0
SPLINE
  5
1BA
330
1F
100
AcDbEntity
  8
0
  6
Continuous
 62
     7
370
    15
100
AcDbSpline
210
0.0
220
0.0
230
1.0
 70
     8
 71
     3
 72
     9
 73
     5
 74
     0
 42
0.00000001
 43
0.00000001
 12
1.0
 22
0.0
 32
0.0
 13
1.0
 23
0.0
 33
0.0
 40
0.0
 40
0.0
 40
0.0
 40
0.0
 40
0.4349576839262333
 40
1.0
 40
1.0
 40
1.0
 40
1.0
 10
485.4209360837635
 20
525.3386395788235
 30
0.0
 10
485.7003122319829
 20
525.1122360255324
 30
0.0
 10
486.3426187333824
 20
524.591717451754
 30
0.0
 10
486.985331040546
 20
524.0721484374287
 30
0.0
 10
487.3484906911549
 20
523.7785699582142
 30
0.0
  0
SPLINE
  5
1BB
330
1F
100
AcDbEntity
  8
0
  6
Continuous
 62
     7
370
    15
100
AcDbSpline
210
0.0
220
0.0
230
1.0
 70
     8
 71
     3
 72
     9
 73
     5
 74
     0
 42
0.00000001
 43
0.00000001
 12
1.0
 22
0.0
 32
0.0
 13
1.0
 23
0.0
 33
0.0
 40
0.0
 40
0.0
 40
0.0
 40
0.0
 40
0.7272441901334663
 40
1.0
 40
1.0
 40
1.0
 40
1.0
 10
489.1668048858342
 20
524.8711305475277
 30
0.0
 10
488.6994056773568
 20
525.2490197223634
 30
0.0
 10
488.0567065471079
 20
525.7686377268279
 30
0.0
 10
487.414398756555
 20
526.2891815603507
 30
0.0
 10
487.2392055749592
 20
526.431162915234
 30
0.0
  0
LWPOLYLINE
  5
1BC
330
1F
100
AcDbEntity
  8
0
  6
Continuous
 62
     7
370
    15
100
AcDbPolyline
 90
        9
 70
   128
 43
0.0
 10
488.817849493
 20
524.6614563084
 10
488.8606158256
 20
524.6871459103
 10
488.9036205768
 20
524.7129919744
 10
488.9468786478
 20
524.7389795995
 10
488.9903900385
 20
524.7651236868
 10
489.0341249466
 20
524.7914093351
 10
489.0781280756
 20
524.8178365445
 10
489.122354722
 20
524.8444127655
 10
489.1668048858
 20
524.8711305475
  0
LWPOLYLINE
  5
1BD
330
1F
100
AcDbEntity
  8
0
  6
Continuous
 62
     7
370
    15
100
AcDbPolyline
 90
        9
 70
   128
 43
0.0
 10
498.8670137882
 20
530.6996005392
 10
498.9003178835
 20
530.7196053481
 10
498.933279252
 20
530.7394164419
 10
498.9659276962
 20
530.7590263701
 10
498.9982334137
 20
530.7784425831
 10
499.0302113056
 20
530.797665081
 10
499.061861372
 20
530.8166789627
 10
499.0931836128
 20
530.8354991293
 10
499.1241631269
 20
530.8541106796
  0
SPLINE
  5
1BE
330
1F
100
AcDbEntity
  8
0
  6
Continuous
 62
     7
370
    15
100
AcDbSpline
210
0.0
220
0.0
230
1.0
 70
     8
 71
     3
 72
     9
 73
     5
 74
     0
 42
0.00000001
 43
0.00000001
 12
1.0
 22
0.0
 32
0.0
 13
1.0
 23
0.0
 33
0.0
 40
0.0
 40
0.0
 40
0.0
 40
0.0
 40
0.5296407481895643
 40
1.0
 40
1.0
 40
1.0
 40
1.0
 10
498.3888206243214
 20
533.1305312728924
 30
0.0
 10
498.4733473987358
 20
532.7013502063594
 30
0.0
 10
498.6329400560292
 20
531.8910253437043
 30
0.0
 10
498.7921349819466
 20
531.0807303066067
 30
0.0
 10
498.8670137881932
 20
530.6996005392117
 30
0.0
  0
SPLINE
  5
1BF
330
1F
100
AcDbEntity
  8
0
  6
Continuous
 62
     7
370
    15
100
AcDbSpline
210
0.0
220
0.0
230
1.0
 70
     8
 71
     3
 72
     9
 73
     5
 74
     0
 42
0.00000001
 43
0.00000001
 12
1.0
 22
0.0
 32
0.0
 13
1.0
 23
0.0
 33
0.0
 40
0.0
 40
0.0
 40
0.0
 40
0.0
 40
0.604262960762722
 40
0.9999999999999999
 40
0.9999999999999999
 40
0.9999999999999999
 40
0.9999999999999999
 10
497.6548043250737
 20
529.9712317800564
 30
0.0
 10
497.5585860646726
 20
530.4608622039791
 30
0.0
 10
497.3993536333492
 20
531.2711558273128
 30
0.0
 10
497.2397659274379
 20
532.0814851763444
 30
0.0
 10
497.1766111612019
 20
532.4021625137372
 30
0.0
  0
SPLINE
  5
1C0
330
1F
100
AcDbEntity
  8
0
  6
Continuous
 62
     7
370
    15
100
AcDbSpline
210
0.0
220
0.0
230
1.0
 70
     8
 71
     3
 72
     9
 73
     5
 74
     0
 42
0.00000001
 43
0.00000001
 12
1.0
 22
0.0
 32
0.0
 13
1.0
 23
0.0
 33
0.0
 40
0.0
 40
0.0
 40
0.0
 40
0.0
 40
0.4349591093272026
 40
1.0
 40
1.0
 40
1.0
 40
1.0
 10
496.8333033084568
 20
532.1958782887501
 30
0.0
 10
496.902047783182
 20
531.8429138966904
 30
0.0
 10
497.0600959151813
 20
531.03142521996
 30
0.0
 10
497.2171129729196
 20
530.2200246123397
 30
0.0
 10
497.3058340310749
 20
529.7615500903172
 30
0.0
  0
SPLINE
  5
1C1
330
1F
100
AcDbEntity
  8
0
  6
Continuous
 62
     7
370
    15
100
AcDbSpline
210
0.0
220
0.0
230
1.0
 70
     8
 71
     3
 72
     9
 73
     5
 74
     0
 42
0.00000001
 43
0.00000001
 12
1.0
 22
0.0
 32
0.0
 13
1.0
 23
0.0
 33
0.0
 40
0.0
 40
0.0
 40
0.0
 40
0.0
 40
0.7272471867112958
 40
1.0
 40
1.0
 40
1.0
 40
1.0
 10
499.1241631269154
 20
530.8541106796307
 30
0.0
 10
499.0099347719677
 20
531.4442129343971
 30
0.0
 10
498.852865267905
 20
532.2556320303376
 30
0.0
 10
498.6948154441675
 20
533.0671419641014
 30
0.0
 10
498.6517069101033
 20
533.2884835815472
 30
0.0
  0
LWPOLYLINE
  5
1C2
330
1F
100
AcDbEntity
  8
0
  6
Continuous
 62
     7
370
    15
100
AcDbPolyline
 90
        9
 70
   128
 43
0.0
 10
497.3058340311
 20
529.7615500903
 10
497.3502990961
 20
529.7882678723
 10
497.3945257425
 20
529.8148440933
 10
497.4385139703
 20
529.8412713027
 10
497.4822637796
 20
529.8675569511
 10
497.5257751703
 20
529.8937010384
 10
497.5690332412
 20
529.9196961141
 10
497.6120379924
 20
529.9455347276
 10
497.6548043251
 20
529.9712317801
  0
LINE
  5
1C3
330
1F
100
AcDbEntity
  8
0
  6
Continuous
 62
     7
370
    15
100
AcDbLine
 10
486.6498795509
 20
526.0770666218
 30
0.0
 11
487.8499296665
 21
524.079863987
 31
0.0
  0
LINE
  5
1C4
330
1F
100
AcDbEntity
  8
0
  6
Continuous
 62
     7
370
    15
100
AcDbLine
 10
487.8499296665
 20
524.079863987
 30
0.0
 11
487.6056400299
 21
523.9330800986
 31
0.0
  0
LINE
  5
1C5
330
1F
100
AcDbEntity
  8
0
  6
Continuous
 62
     7
370
    15
100
AcDbLine
 10
498.8670137882
 20
530.6996005392
 30
0.0
 11
498.6227241516
 21
530.5528166509
 31
0.0
  0
LINE
  5
1C6
330
1F
100
AcDbEntity
  8
0
  6
Continuous
 62
     7
370
    15
100
AcDbLine
 10
498.6227241516
 20
530.5528166509
 30
0.0
 11
497.4226889372
 21
532.5500192857
 31
0.0
  0
LINE
  5
1C7
330
1F
100
AcDbEntity
  8
0
  6
Continuous
 62
     7
370
    15
100
AcDbLine
 10
500.2772447824
 20
531.5469476199
 30
0.0
 11
499.0771946668
 21
533.5441502547
 31
0.0
  0
LWPOLYLINE
  5
1C8
330
1F
100
AcDbEntity
  8
0
  6
Continuous
 62
     7
370
    15
100
AcDbPolyline
 90
        9
 70
   128
 43
0.0
 10
500.2772447824
 20
531.5469476199
 10
500.1992074012
 20
531.5000611162
 10
500.1016047954
 20
531.4414175963
 10
499.9847051859
 20
531.3711809731
 10
499.8488512993
 20
531.2895449615
 10
499.6944007635
 20
531.1967479801
 10
499.5218155145
 20
531.0930433488
 10
499.3315574884
 20
530.9787216401
 10
499.1241631269
 20
530.8541106796
  0
LINE
  5
1C9
330
1F
100
AcDbEntity
  8
0
  6
Continuous
 62
     7
370
    15
100
AcDbLine
 10
484.9953738212
 20
525.0829356527
 30
0.0
 11
486.1954090357
 21
523.0857330179
 31
0.0
  0
LWPOLYLINE
  5
1CA
330
1F
100
AcDbEntity
  8
0
  6
Continuous
 62
     7
370
    15
100
AcDbPolyline
 90
        9
 70
   128
 43
0.0
 10
487.3484906912
 20
523.7785699582
 10
487.1410963297
 20
523.6539589977
 10
486.9508383035
 20
523.5396372891
 10
486.7782381534
 20
523.4359326577
 10
486.6238025188
 20
523.3431356764
 10
486.487933731
 20
523.2614996648
 10
486.3710490226
 20
523.1912630415
 10
486.2734464168
 20
523.1326195216
 10
486.1954090357
 20
523.0857330179
  0
LINE
  5
1CB
330
1F
100
AcDbEntity
  8
0
  6
Continuous
 62
     7
370
    15
100
AcDbLine
 10
315.3833163142
 20
504.6877759314
 30
0.0
 11
315.3833163142
 21
508.687776587
 31
0.0
  0
LINE
  5
1CC
330
1F
100
AcDbEntity
  8
0
  6
Continuous
 62
     7
370
    15
100
AcDbLine
 10
315.3833163142
 20
500.6877752757
 30
0.0
 11
315.3833163142
 21
504.6877759314
 31
0.0
  0
SPLINE
  5
1CD
330
1F
100
AcDbEntity
  8
0
  6
Continuous
 62
     7
370
    15
100
AcDbSpline
210
0.0
220
0.0
230
1.0
 70
     8
 71
     3
 72
     9
 73
     5
 74
     0
 42
0.00000001
 43
0.00000001
 12
1.0
 22
0.0
 32
0.0
 13
1.0
 23
0.0
 33
0.0
 40
0.0
 40
0.0
 40
0.0
 40
0.0
 40
0.434956377128916
 40
1.0
 40
1.0
 40
1.0
 40
1.0
 10
500.1060453414617
 20
534.1623398280186
 30
0.0
 10
500.1311610890332
 20
533.7831652728131
 30
0.0
 10
500.1889042303971
 20
532.9114122071186
 30
0.0
 10
500.2453502940911
 20
532.0395741527286
 30
0.0
 10
500.2772447824178
 20
531.5469476199193
 30
0.0
  0
SPLINE
  5
1CE
330
1F
100
AcDbEntity
  8
0
  6
Continuous
 62
     7
370
    15
100
AcDbSpline
210
0.0
220
0.0
230
1.0
 70
     8
 71
     3
 72
     9
 73
     5
 74
     0
 42
0.00000001
 43
0.00000001
 12
1.0
 22
0.0
 32
0.0
 13
1.0
 23
0.0
 33
0.0
 40
0.0
 40
0.0
 40
0.0
 40
0.0
 40
0.6042630109557479
 40
1.0
 40
1.0
 40
1.0
 40
1.0
 10
500.3421542405782
 20
531.5859588599247
 30
0.0
 10
500.3061960128085
 20
532.1117950110523
 30
0.0
 10
500.2466884356149
 20
532.9820057331945
 30
0.0
 10
500.1867053162665
 20
533.8521837967395
 30
0.0
 10
500.1629677772221
 20
534.1965454435391
 30
0.0
  0
LWPOLYLINE
  5
1CF
330
1F
100
AcDbEntity
  8
0
  6
Continuous
 62
     7
370
    15
100
AcDbPolyline
 90
        9
 70
   128
 43
0.0
 10
500.2772447824
 20
531.5469476199
 10
500.2867666244
 20
531.5526771164
 10
500.2959010362
 20
531.5581607437
 10
500.3046182155
 20
531.5634059525
 10
500.3129479646
 20
531.568405292
 10
500.3208604812
 20
531.5731587625
 10
500.3283706665
 20
531.5776663637
 10
500.3354636192
 20
531.5819355464
 10
500.3421542406
 20
531.5859588599
  0
SPLINE
  5
1D0
330
1F
100
AcDbEntity
  8
0
  6
Continuous
 62
     7
370
    15
100
AcDbSpline
210
0.0
220
0.0
230
1.0
 70
     8
 71
     3
 72
     9
 73
     5
 74
     0
 42
0.00000001
 43
0.00000001
 12
1.0
 22
0.0
 32
0.0
 13
1.0
 23
0.0
 33
0.0
 40
0.0
 40
0.0
 40
0.0
 40
0.0
 40
0.5296399153945489
 40
1.0
 40
1.0
 40
1.0
 40
1.0
 10
483.9096156119999
 20
524.4305404639287
 30
0.0
 10
484.3016363332131
 20
524.1861256059987
 30
0.0
 10
485.0418009428257
 20
523.7246519692392
 30
0.0
 10
485.782220752166
 20
523.2635879085259
 30
0.0
 10
486.130484676331
 20
523.0467217779202
 30
0.0
  0
SPLINE
  5
1D1
330
1F
100
AcDbEntity
  8
0
  6
Continuous
 62
     7
370
    15
100
AcDbSpline
210
0.0
220
0.0
230
1.0
 70
     8
 71
     3
 72
     9
 73
     5
 74
     0
 42
0.00000001
 43
0.00000001
 12
1.0
 22
0.0
 32
0.0
 13
1.0
 23
0.0
 33
0.0
 40
0.0
 40
0.0
 40
0.0
 40
0.0
 40
0.7272493657119946
 40
1.0
 40
1.0
 40
1.0
 40
1.0
 10
486.1954090356526
 20
523.0857330179257
 30
0.0
 10
485.6548586266002
 20
523.4196727475337
 30
0.0
 10
484.9115779383823
 20
523.8788546256519
 30
0.0
 10
484.1689782701614
 20
524.3391367758153
 30
0.0
 10
483.9664337396321
 20
524.4646790242238
 30
0.0
  0
LWPOLYLINE
  5
1D2
330
1F
100
AcDbEntity
  8
0
  6
Continuous
 62
     7
370
    15
100
AcDbPolyline
 90
        9
 70
   128
 43
0.0
 10
486.1304846763
 20
523.0467217779
 10
486.1371901989
 20
523.0507450914
 10
486.1442831516
 20
523.0550142741
 10
486.1517933368
 20
523.0595218754
 10
486.1597058534
 20
523.0642827964
 10
486.1680207014
 20
523.0692746854
 10
486.1767527818
 20
523.0745198941
 10
486.1858722925
 20
523.0800035214
 10
486.1954090357
 20
523.0857330179
  0
SPLINE
  5
1D3
330
1F
100
AcDbEntity
  8
0
  6
Continuous
 62
     8
370
     0
100
AcDbSpline
210
0.0
220
0.0
230
1.0
 70
     8
 71
     3
 72
    27
 73
    23
 74
     0
 42
0.00000001
 43
0.00000001
 12
1.0
 22
0.0
 32
0.0
 13
1.0
 23
0.0
 33
0.0
 40
0.0
 40
0.0
 40
0.0
 40
0.0
 40
0.0360201525284694
 40
0.0719594171849698
 40
0.107843303957062
 40
0.1436593353619767
 40
0.179393524272732
 40
0.2150320123624188
 40
0.2505586090717259
 40
0.34125113940085
 40
0.4234912077301076
 40
0.497438484597473
 40
0.5753667829776972
 40
0.6572204019353525
 40
0.7433592561395462
 40
0.7857184617537497
 40
0.8280589281396551
 40
0.8704468320903407
 40
0.901570743866094
 40
0.9335168000854562
 40
0.9663153665121069
 40
1.0
 40
1.0
 40
1.0
 40
1.0
 10
323.9345943781698
 20
545.4253045449811
 30
0.0
 10
323.6244522542248
 20
545.2743208470172
 30
0.0
 10
323.0048644702488
 20
544.9726925043464
 30
0.0
 10
322.0766547222082
 20
544.5212056589002
 30
0.0
 10
321.149727535699
 20
544.0723900543334
 30
0.0
 10
320.2246894535847
 20
543.62538213876
 30
0.0
 10
319.3022012903958
 20
543.1799174839424
 30
0.0
 10
318.3829750746686
 20
542.7357849087124
 30
0.0
 10
316.9933779543089
 20
542.0619612730842
 30
0.0
 10
315.2079710136379
 20
541.1940987151473
 30
0.0
 10
313.1056487613552
 20
540.1692289343367
 30
0.0
 10
311.1318707705298
 20
539.1988316668657
 30
0.0
 10
309.1842147107078
 20
538.251814184863
 30
0.0
 10
307.1794261715359
 20
537.2693323372582
 30
0.0
 10
305.5040498213118
 20
536.4471131736849
 30
0.0
 10
304.1520777005803
 20
535.7938568492453
 30
0.0
 10
303.1478506636383
 20
535.3084380564263
 30
0.0
 10
302.2271475361392
 20
534.8753566662377
 30
0.0
 10
301.385533165717
 20
534.4813255701836
 30
0.0
 10
300.6196236473562
 20
534.1156962701028
 30
0.0
 10
299.8302473932629
 20
533.7370449712377
 30
0.0
 10
299.2928762794683
 20
533.4796092250092
 30
0.0
 10
299.0206097664483
 20
533.349175840793
 30
0.0
  0
SPLINE
  5
1D4
330
1F
100
AcDbEntity
  8
0
  6
Continuous
 62
     8
370
     0
100
AcDbSpline
210
0.0
220
0.0
230
1.0
 70
     8
 71
     3
 72
    63
 73
    59
 74
     0
 42
0.00000001
 43
0.00000001
 12
1.0
 22
0.0
 32
0.0
 13
1.0
 23
0.0
 33
0.0
 40
0.0
 40
0.0
 40
0.0
 40
0.0
 40
0.0171443971675716
 40
0.0343293360183489
 40
0.0608917783324112
 40
0.0835821463931638
 40
0.1083869376585398
 40
0.1329596818606167
 40
0.1701117464587742
 40
0.1825833670388302
 40
0.195102470269311
 40
0.2315924318909373
 40
0.2436305175142118
 40
0.2800783176155268
 40
0.3046824963076179
 40
0.3106187575763208
 40
0.3285248477766819
 40
0.3648051731439481
 40
0.3709178009074038
 40
0.3893783068260114
 40
0.4135916095765468
 40
0.4254759857924754
 40
0.4374485819576472
 40
0.4495148287069977
 40
0.4739437941733832
 40
0.4925459952984193
 40
0.5071964971451545
 40
0.5156442732753452
 40
0.5500249533372303
 40
0.5676044025266047
 40
0.5763715030932205
 40
0.6031130601507663
 40
0.621337797802213
 40
0.6305792842808616
 40
0.6561769357916022
 40
0.6811142469466687
 40
0.6895760424179459
 40
0.706726755565673
 40
0.7469661218751774
 40
0.7538125375074001
 40
0.7720698551009461
 40
0.8065706936333704
 40
0.82750293089612
 40
0.8431890350760767
 40
0.8638215860163457
 40
0.8714942219781863
 40
0.8791384607955505
 40
0.9018754953993268
 40
0.9056354658104226
 40
0.9174618319164396
 40
0.9334885585757358
 40
0.9374696040898937
 40
0.9493494908621883
 40
0.9650555558516004
 40
0.9689595750547338
 40
0.9796830830840959
 40
0.9898731248584626
 40
1.0
 40
1.0
 40
1.0
 40
1.0
 10
310.0564165677138
 20
480.6594741951643
 30
0.0
 10
309.97170318312
 20
480.6007667847853
 30
0.0
 10
309.8020760905753
 20
480.4832131374935
 30
0.0
 10
309.4944930775196
 20
480.2684230640006
 30
0.0
 10
309.1522896545667
 20
480.027615065164
 30
0.0
 10
308.7624092923561
 20
479.7505453409799
 30
0.0
 10
308.3756967906241
 20
479.4729541552973
 30
0.0
 10
307.902810302164
 20
479.1296899011931
 30
0.0
 10
307.4887448980685
 20
478.8246035384485
 30
0.0
 10
307.1369580973818
 20
478.5618792449455
 30
0.0
 10
306.7865387016458
 20
478.298354932925
 30
0.0
 10
306.4341383354107
 20
478.0295956053703
 30
0.0
 10
305.9385508188377
 20
477.6454875907944
 30
0.0
 10
305.5081326214189
 20
477.3064777835716
 30
0.0
 10
305.1100654405104
 20
476.9856267330189
 30
0.0
 10
304.8211550353435
 20
476.7498506854748
 30
0.0
 10
304.4616905975943
 20
476.45359630795
 30
0.0
 10
304.0995079998835
 20
476.1479504289566
 30
0.0
 10
303.7335739844108
 20
475.8325600846891
 30
0.0
 10
303.4400631423086
 20
475.5764169676408
 30
0.0
 10
303.1119632291295
 20
475.283445556876
 30
0.0
 10
302.8234588788023
 20
475.0202561681006
 30
0.0
 10
302.6082501865149
 20
474.8210241137926
 30
0.0
 10
302.3185872491041
 20
474.5486985453558
 30
0.0
 10
301.9908054402871
 20
474.2328711654001
 30
0.0
 10
301.6503606799862
 20
473.8941836742167
 30
0.0
 10
301.4061118213965
 20
473.6446866614884
 30
0.0
 10
301.071589575555
 20
473.2961860877674
 30
0.0
 10
300.7244360916737
 20
472.9207799375869
 30
0.0
 10
300.3830017417778
 20
472.5315281957661
 30
0.0
 10
300.0883760751561
 20
472.1857774076886
 30
0.0
 10
299.7957793522543
 20
471.8281732746739
 30
0.0
 10
299.5093980941165
 20
471.4572293120009
 30
0.0
 10
299.2351083573957
 20
471.0877718409196
 30
0.0
 10
298.9351892001845
 20
470.6623864978028
 30
0.0
 10
298.6545887759091
 20
470.2289589940714
 30
0.0
 10
298.424397868047
 20
469.8497451282362
 30
0.0
 10
298.1351455363657
 20
469.3479366590993
 30
0.0
 10
297.8783645106274
 20
468.8408417032999
 30
0.0
 10
297.6430092288323
 20
468.3117792949133
 30
0.0
 10
297.4410654497417
 20
467.822707212992
 30
0.0
 10
297.2266527607702
 20
467.2020639468974
 30
0.0
 10
297.0583433652822
 20
466.5902816363259
 30
0.0
 10
296.9435509876639
 20
466.0920734495342
 30
0.0
 10
296.8710852054808
 20
465.7055226456341
 30
0.0
 10
296.8216034505014
 20
465.3879306846093
 30
0.0
 10
296.7747209067613
 20
465.0508577809435
 30
0.0
 10
296.7422325332815
 20
464.7470054689592
 30
0.0
 10
296.714476251026
 20
464.4052109189373
 30
0.0
 10
296.6957344940638
 20
464.1229000846522
 30
0.0
 10
296.6839247111915
 20
463.8381804008183
 30
0.0
 10
296.6767859073452
 20
463.5528564027995
 30
0.0
 10
296.673305065087
 20
463.2703102490678
 30
0.0
 10
296.6756089858916
 20
462.9884299260215
 30
0.0
 10
296.6813766283158
 20
462.7169850758613
 30
0.0
 10
296.6883601081518
 20
462.4949586181347
 30
0.0
 10
296.700804946572
 20
462.2174107485006
 30
0.0
 10
296.7121412301364
 20
462.03594138719
 30
0.0
 10
296.7177917492924
 20
461.9454888066329
 30
0.0
  0
SPLINE
  5
1D5
330
1F
100
AcDbEntity
  8
0
  6
Continuous
 62
     8
370
     0
100
AcDbSpline
210
0.0
220
0.0
230
1.0
 70
     8
 71
     3
 72
    46
 73
    42
 74
     0
 42
0.00000001
 43
0.00000001
 12
1.0
 22
0.0
 32
0.0
 13
1.0
 23
0.0
 33
0.0
 40
0.0
 40
0.0
 40
0.0
 40
0.0
 40
0.00974210794486
 40
0.0197912139415245
 40
0.0301473917342193
 40
0.0408107086219266
 40
0.0517812261767546
 40
0.0630590008648176
 40
0.0746440845850588
 40
0.0865365251386748
 40
0.0987363666395858
 40
0.111243649874608
 40
0.1240584126205366
 40
0.1654522137230165
 40
0.2068871221006864
 40
0.2483633224865211
 40
0.2892408375676447
 40
0.3283169710552103
 40
0.3655936503106372
 40
0.4010731107784646
 40
0.4347579606477059
 40
0.4666512634448804
 40
0.4967566448089806
 40
0.5642761621488527
 40
0.6285064122440878
 40
0.6895293176500025
 40
0.7474404705975282
 40
0.7661403898905822
 40
0.7847202355184575
 40
0.8031844225048541
 40
0.8215374493433429
 40
0.8397838967449981
 40
0.8579284261419937
 40
0.87597577794036
 40
0.8939307695164213
 40
0.9117982929529264
 40
0.9295833125125197
 40
0.9472908618479785
 40
0.9649260409505538
 40
0.9824940128397515
 40
1.0
 40
1.0
 40
1.0
 40
1.0
 10
299.0206408392581
 20
533.3502327643815
 30
0.0
 10
298.8713373716926
 20
533.2795075332839
 30
0.0
 10
298.568025512953
 20
533.1358283431497
 30
0.0
 10
298.1023822108361
 20
532.915165831784
 30
0.0
 10
297.619856606086
 20
532.6865231511136
 30
0.0
 10
297.1200723919467
 20
532.4497581911025
 30
0.0
 10
296.6030301346547
 20
532.2049105993555
 30
0.0
 10
296.0686611842064
 20
531.951969304318
 30
0.0
 10
295.5169567200472
 20
531.6909367576026
 30
0.0
 10
294.9479327273549
 20
531.4218142729264
 30
0.0
 10
294.3616532099204
 20
531.1445932877212
 30
0.0
 10
293.758189598627
 20
530.8593075522788
 30
0.0
 10
292.6815421031926
 20
530.3500027346006
 30
0.0
 10
291.1266181751133
 20
529.6165861113011
 30
0.0
 10
289.0953702224805
 20
528.660238765478
 30
0.0
 10
287.0758414105118
 20
527.7012290826927
 30
0.0
 10
285.1051257665044
 20
526.7644822885567
 30
0.0
 10
283.2181304502193
 20
525.8753282101172
 30
0.0
 10
281.4425029005588
 20
525.0403206714162
 30
0.0
 10
279.782220334045
 20
524.2601365939157
 30
0.0
 10
278.2394965080245
 20
523.5346025267474
 30
0.0
 10
276.8144337626621
 20
522.8637398866814
 30
0.0
 10
274.9380426758487
 20
521.980163692462
 30
0.0
 10
272.7055756513739
 20
520.9333964841086
 30
0.0
 10
270.2834084178511
 20
519.7981460998323
 30
0.0
 10
268.2391707626019
 20
518.8373612552903
 30
0.0
 10
266.9157175606788
 20
518.2148749801644
 30
0.0
 10
266.1080372092915
 20
517.8370443272892
 30
0.0
 10
265.6665355200618
 20
517.6307746513435
 30
0.0
 10
265.2599678129306
 20
517.441023117873
 30
0.0
 10
264.8885767206577
 20
517.2677634303876
 30
0.0
 10
264.5525735904249
 20
517.111002802221
 30
0.0
 10
264.2521062732563
 20
516.9707397368428
 30
0.0
 10
263.9872669923686
 20
516.846974359465
 30
0.0
 10
263.75809828463
 20
516.7397089170147
 30
0.0
 10
263.5645676282823
 20
516.6489356220579
 30
0.0
 10
263.4066687290336
 20
516.5746844236501
 30
0.0
 10
263.2840509446158
 20
516.5168452044363
 30
0.0
 10
263.197399289684
 20
516.4758272756434
 30
0.0
 10
263.1433211366827
 20
516.4501128574416
 30
0.0
 10
263.1366483870156
 20
516.4469232892009
 30
0.0
 10
263.1333179084165
 20
516.4453313234752
 30
0.0
  0
SPLINE
  5
1D6
330
1F
100
AcDbEntity
  8
0
  6
Continuous
 62
     8
370
     0
100
AcDbSpline
210
0.0
220
0.0
230
1.0
 70
     8
 71
     3
 72
    12
 73
     8
 74
     0
 42
0.00000001
 43
0.00000001
 12
1.0
 22
0.0
 32
0.0
 13
1.0
 23
0.0
 33
0.0
 40
0.0
 40
0.0
 40
0.0
 40
0.0
 40
0.2549018309035931
 40
0.5078664061995527
 40
0.5078664061995527
 40
0.7608388392665357
 40
1.0
 40
1.0
 40
1.0
 40
1.0
 10
297.4158753017884
 20
457.3432871738218
 30
0.0
 10
297.3357342604347
 20
457.7300718691246
 30
0.0
 10
297.1820562637072
 20
458.5043943524992
 30
0.0
 10
297.0461621458186
 20
459.2832980802845
 30
0.0
 10
296.9226703691699
 20
460.0601486955139
 30
0.0
 10
296.8150491250947
 20
460.8167109955878
 30
0.0
 10
296.7424174259794
 20
461.5757871840332
 30
0.0
 10
296.717766222928
 20
461.9454351674981
 30
0.0
  0
SPLINE
  5
1D7
330
1F
100
AcDbEntity
  8
0
  6
Continuous
 62
     8
370
     0
100
AcDbSpline
210
0.0
220
0.0
230
1.0
 70
     8
 71
     3
 72
    15
 73
    11
 74
     0
 42
0.00000001
 43
0.00000001
 12
1.0
 22
0.0
 32
0.0
 13
1.0
 23
0.0
 33
0.0
 40
0.0
 40
0.0
 40
0.0
 40
0.0
 40
0.062499680386339
 40
0.1249993016481651
 40
0.1874989229099913
 40
0.2499985441718174
 40
0.3124981654336435
 40
0.3749977866954697
 40
0.4374974079572958
 40
0.4999970292191219
 40
0.4999970292191219
 40
0.4999970292191219
 40
0.4999970292191219
 10
315.1333179084165
 20
424.0266432823364
 30
0.0
 10
315.1333179084153
 20
424.0266432823376
 30
0.0
 10
314.6149877580201
 20
424.5207205945831
 30
0.0
 10
312.4896285422041
 20
426.7113515978578
 30
0.0
 10
309.5669124162677
 20
430.186605036661
 30
0.0
 10
306.4381791893463
 20
434.6480410543408
 30
0.0
 10
303.5118636265886
 20
439.7888674705294
 30
0.0
 10
300.9644589918212
 20
445.3710421973403
 30
0.0
 10
298.8827002026991
 20
451.2434946582466
 30
0.0
 10
297.8403306152537
 20
455.2947385610821
 30
0.0
 10
297.4158753017884
 20
457.3432871738218
 30
0.0
  0
SPLINE
  5
1D8
330
1F
100
AcDbEntity
  8
0
  6
Continuous
 62
     8
370
     0
100
AcDbSpline
210
0.0
220
0.0
230
1.0
 70
     8
 71
     3
 72
    56
 73
    52
 74
     0
 42
0.00000001
 43
0.00000001
 12
1.0
 22
0.0
 32
0.0
 13
1.0
 23
0.0
 33
0.0
 40
0.0
 40
0.0
 40
0.0
 40
0.0
 40
0.009863127408296
 40
0.0197850007549858
 40
0.029785297318514
 40
0.0398832376026779
 40
0.0500975538331585
 40
0.0604465585646549
 40
0.0709483301718931
 40
0.0816100649958
 40
0.0924265523392057
 40
0.1033914780739632
 40
0.1144977969794142
 40
0.125737704557254
 40
0.1371083051462849
 40
0.1486157573069306
 40
0.1602628706228552
 40
0.1720528219828961
 40
0.183989230108941
 40
0.1960761807364732
 40
0.2083182513285977
 40
0.2207205350304941
 40
0.23328866354467
 40
0.2460288285837386
 40
0.2589468410700048
 40
0.2720390319479906
 40
0.2852979649862415
 40
0.2987159910158927
 40
0.3122849521570555
 40
0.3259962213604404
 40
0.3398407504508787
 40
0.3538091276413168
 40
0.3678916456042201
 40
0.3820805604117669
 40
0.3964141607255161
 40
0.4109112963722422
 40
0.4255742177922904
 40
0.4404054829751825
 40
0.4554079966386884
 40
0.4705850522498688
 40
0.4859403768207112
 40
0.5014781783665189
 40
0.6022532110695167
 40
0.7507887079299262
 40
0.7727297290895285
 40
0.7992871309545525
 40
0.8304019185790871
 40
0.8659290000007455
 40
0.9060452218438382
 40
0.9507344791492941
 40
1.0
 40
1.0
 40
1.0
 40
1.0
 10
369.3511297369611
 20
569.5894382969922
 30
0.0
 10
369.350384454956
 20
569.5890833966135
 30
0.0
 10
369.3488894519595
 20
569.588371482028
 30
0.0
 10
369.337614999097
 20
569.5828841903277
 30
0.0
 10
369.3203709913593
 20
569.5744745140206
 30
0.0
 10
369.2970515777297
 20
569.5630893452259
 30
0.0
 10
369.2685061907411
 20
569.5491427420098
 30
0.0
 10
369.2354250647846
 20
569.5329706727889
 30
0.0
 10
369.19865895889
 20
569.5149875582167
 30
0.0
 10
369.1568083874947
 20
569.4945130917329
 30
0.0
 10
369.109890658725
 20
569.4715556238136
 30
0.0
 10
369.0576484951393
 20
569.4459901297313
 30
0.0
 10
368.9999009559907
 20
569.4177287226014
 30
0.0
 10
368.9364391615401
 20
569.3866699224376
 30
0.0
 10
368.8670045016027
 20
569.3526880737749
 30
0.0
 10
368.7913151465364
 20
569.3156458706269
 30
0.0
 10
368.7091071058999
 20
569.2754145057471
 30
0.0
 10
368.6201086963608
 20
569.2318614824792
 30
0.0
 10
368.5240450379758
 20
569.1848527340284
 30
0.0
 10
368.4206346804695
 20
569.1342509953885
 30
0.0
 10
368.3095905687293
 20
569.0799162711596
 30
0.0
 10
368.1906197735202
 20
569.0217057041115
 30
0.0
 10
368.0634239781539
 20
568.9594738220536
 30
0.0
 10
367.9277016986979
 20
568.893073593396
 30
0.0
 10
367.7831918144611
 20
568.8223778439914
 30
0.0
 10
367.6296073414413
 20
568.7472461115151
 30
0.0
 10
367.4669059621995
 20
568.6676576940295
 30
0.0
 10
367.2950385596805
 20
568.5835885580406
 30
0.0
 10
367.1139744406113
 20
568.495023658862
 30
0.0
 10
366.9236923368708
 20
568.401952541212
 30
0.0
 10
366.724184756023
 20
568.3043714727828
 30
0.0
 10
366.5154521602703
 20
568.2022805690071
 30
0.0
 10
366.2975118529918
 20
568.0956882445391
 30
0.0
 10
366.0700747325935
 20
567.9844527189233
 30
0.0
 10
365.8329264100022
 20
567.8684701526317
 30
0.0
 10
365.5857065743358
 20
567.7475646730403
 30
0.0
 10
365.3281930067803
 20
567.6216276981487
 30
0.0
 10
365.060274960562
 20
567.4906052735951
 30
0.0
 10
364.7818435443961
 20
567.354444177266
 30
0.0
 10
364.4927955841413
 20
567.2130945967938
 30
0.0
 10
364.1930357056429
 20
567.0665082366562
 30
0.0
 10
363.3158588528443
 20
566.6375818995053
 30
0.0
 10
361.4026764511562
 20
565.7016919021297
 30
0.0
 10
359.1921399189917
 20
564.6199292395795
 30
0.0
 10
357.5494862576263
 20
563.816787154366
 30
0.0
 10
356.881914334109
 20
563.4908257547529
 30
0.0
 10
356.0981217199088
 20
563.1082983010177
 30
0.0
 10
355.2001116757785
 20
562.6701075977726
 30
0.0
 10
354.1875938107577
 20
562.1761756086928
 30
0.0
 10
353.0592954027105
 20
561.625828896306
 30
0.0
 10
352.2685279791554
 20
561.2401729224098
 30
0.0
 10
351.8538862785655
 20
561.0379528459428
 30
0.0
  0
LINE
  5
1D9
330
1F
100
AcDbEntity
  8
0
  6
Continuous
 62
     8
370
     0
100
AcDbLine
 10
351.8539008856
 20
561.0379474974
 30
0.0
 11
351.7636818051
 21
560.9939443684
 31
0.0
  0
SPLINE
  5
1DA
330
1F
100
AcDbEntity
  8
0
  6
Continuous
 62
     8
370
     0
100
AcDbSpline
210
0.0
220
0.0
230
1.0
 70
     8
 71
     3
 72
    12
 73
     8
 74
     0
 42
0.00000001
 43
0.00000001
 12
1.0
 22
0.0
 32
0.0
 13
1.0
 23
0.0
 33
0.0
 40
0.0
 40
0.0
 40
0.0
 40
0.0
 40
0.5
 40
0.5
 40
0.75
 40
0.75
 40
1.0
 40
1.0
 40
1.0
 40
1.0
 10
351.7636827833883
 20
560.9939457910607
 30
0.0
 10
347.0450140501228
 20
558.6927647676052
 30
0.0
 10
342.3262336128826
 20
556.3914691526505
 30
0.0
 10
335.2475979325122
 20
552.9392189039177
 30
0.0
 10
332.8878579443908
 20
551.7883610645817
 30
0.0
 10
328.168020646365
 20
549.4864589039771
 30
0.0
 10
325.8115025054605
 20
548.3371111828516
 30
0.0
 10
323.4566686855067
 20
547.1886566103618
 30
0.0
  0
SPLINE
  5
1DB
330
1F
100
AcDbEntity
  8
0
  6
Continuous
 62
     8
370
     0
100
AcDbSpline
210
0.0
220
0.0
230
1.0
 70
     8
 71
     3
 72
     8
 73
     4
 74
     0
 42
0.00000001
 43
0.00000001
 12
1.0
 22
0.0
 32
0.0
 13
1.0
 23
0.0
 33
0.0
 40
0.0
 40
0.0
 40
0.0
 40
0.0
 40
1.0
 40
1.0
 40
1.0
 40
1.0
 10
323.4566943124306
 20
547.188604238557
 30
0.0
 10
323.4267404249194
 20
547.1739999740171
 30
0.0
 10
323.3967870147944
 20
547.1593959416501
 30
0.0
 10
323.3668340893203
 20
547.1447921445523
 30
0.0
  0
SPLINE
  5
1DC
330
1F
100
AcDbEntity
  8
0
  6
Continuous
 62
     8
370
     0
100
AcDbSpline
210
0.0
220
0.0
230
1.0
 70
     8
 71
     3
 72
     8
 73
     4
 74
     0
 42
0.00000001
 43
0.00000001
 12
1.0
 22
0.0
 32
0.0
 13
1.0
 23
0.0
 33
0.0
 40
0.0
 40
0.0
 40
0.0
 40
0.0
 40
1.0
 40
1.0
 40
1.0
 40
1.0
 10
323.3668340893274
 20
547.1447921445557
 30
0.0
 10
323.2782156386193
 20
547.1016085728239
 30
0.0
 10
323.1896013143679
 20
547.0584269737673
 30
0.0
 10
323.1009912523408
 20
547.0152474020915
 30
0.0
  0
SPLINE
  5
1DD
330
1F
100
AcDbEntity
  8
0
  6
Continuous
 62
     8
370
     0
100
AcDbSpline
210
0.0
220
0.0
230
1.0
 70
     8
 71
     3
 72
     8
 73
     4
 74
     0
 42
0.00000001
 43
0.00000001
 12
1.0
 22
0.0
 32
0.0
 13
1.0
 23
0.0
 33
0.0
 40
0.0
 40
0.0
 40
0.0
 40
0.0
 40
1.0
 40
1.0
 40
1.0
 40
1.0
 10
323.1019091782781
 20
547.0155451697865
 30
0.0
 10
323.0718028767729
 20
547.0008766490912
 30
0.0
 10
323.0416964741596
 20
546.986208108879
 30
0.0
 10
323.0115900477597
 20
546.971539585736
 30
0.0
  0
SPLINE
  5
1DE
330
1F
100
AcDbEntity
  8
0
  6
Continuous
 62
     8
370
     0
100
AcDbSpline
210
0.0
220
0.0
230
1.0
 70
     8
 71
     3
 72
    21
 73
    17
 74
     0
 42
0.00000001
 43
0.00000001
 12
1.0
 22
0.0
 32
0.0
 13
1.0
 23
0.0
 33
0.0
 40
0.0
 40
0.0
 40
0.0
 40
0.0
 40
0.0306975117820855
 40
0.0825806572861118
 40
0.1555833990159659
 40
0.2496012574775721
 40
0.364552427158511
 40
0.5005859837884336
 40
0.6062737747115253
 40
0.6993974674351228
 40
0.7804529747430031
 40
0.8493486084667455
 40
0.9057926609381739
 40
0.9497138621514035
 40
0.9811165645984629
 40
0.9999999999999999
 40
0.9999999999999999
 40
0.9999999999999999
 40
0.9999999999999999
 10
323.0115900482278
 20
546.9715395854317
 30
0.0
 10
322.7451480061738
 20
546.8414498813369
 30
0.0
 10
322.0283811516593
 20
546.4914901404114
 30
0.0
 10
320.677908099756
 20
545.8332022938554
 30
0.0
 10
318.7790857189654
 20
544.9077430658419
 30
0.0
 10
316.3367023530641
 20
543.7176654258159
 30
0.0
 10
313.3577856358681
 20
542.2661427297796
 30
0.0
 10
310.304766956936
 20
540.7785508487459
 30
0.0
 10
307.5002339769738
 20
539.4119174998509
 30
0.0
 10
305.2194212807323
 20
538.3004160736893
 30
0.0
 10
303.2737594752621
 20
537.3522885519533
 30
0.0
 10
301.6239942167782
 20
536.5483322206459
 30
0.0
 10
300.2667028293811
 20
535.8867876165176
 30
0.0
 10
299.2041922692129
 20
535.3686388976844
 30
0.0
 10
298.4403998383133
 20
534.9960797462445
 30
0.0
 10
298.0314250617881
 20
534.7960546983629
 30
0.0
 10
297.8778469763798
 20
534.72094135238
 30
0.0
  0
SPLINE
  5
1DF
330
1F
100
AcDbEntity
  8
0
  6
Continuous
 62
     8
370
     0
100
AcDbSpline
210
0.0
220
0.0
230
1.0
 70
     8
 71
     3
 72
     8
 73
     4
 74
     0
 42
0.00000001
 43
0.00000001
 12
1.0
 22
0.0
 32
0.0
 13
1.0
 23
0.0
 33
0.0
 40
0.0
 40
0.0
 40
0.0
 40
0.0
 40
0.1774419611394032
 40
0.1774419611394032
 40
0.1774419611394032
 40
0.1774419611394032
 10
323.0030827665424
 20
470.4819381821189
 30
0.0
 10
320.7781735506776
 20
469.3972588335253
 30
0.0
 10
318.5532568293039
 20
468.3125791800254
 30
0.0
 10
316.3283360769724
 20
467.2278966499102
 30
0.0
  0
SPLINE
  5
1E0
330
1F
100
AcDbEntity
  8
0
  6
Continuous
 62
     8
370
     0
100
AcDbSpline
210
0.0
220
0.0
230
1.0
 70
     8
 71
     3
 72
     8
 73
     4
 74
     0
 42
0.00000001
 43
0.00000001
 12
1.0
 22
0.0
 32
0.0
 13
1.0
 23
0.0
 33
0.0
 40
0.1774419611394032
 40
0.1774419611394032
 40
0.1774419611394032
 40
0.1774419611394032
 40
1.0
 40
1.0
 40
1.0
 40
1.0
 10
316.3283360769724
 20
467.2278966499102
 30
0.0
 10
306.0143920783162
 20
462.1996928991895
 30
0.0
 10
304.0350743074087
 20
461.04251224016
 30
0.0
 10
297.4158753017884
 20
457.3432871738218
 30
0.0
  0
SPLINE
  5
1E1
330
1F
100
AcDbEntity
  8
0
  6
Continuous
 62
     8
370
     0
100
AcDbSpline
210
0.0
220
0.0
230
1.0
 70
     8
 71
     3
 72
     8
 73
     4
 74
     0
 42
0.00000001
 43
0.00000001
 12
1.0
 22
0.0
 32
0.0
 13
1.0
 23
0.0
 33
0.0
 40
0.0
 40
0.0
 40
0.0
 40
0.0
 40
1.0
 40
1.0
 40
1.0
 40
1.0
 10
323.0030854440972
 20
470.4819327105311
 30
0.0
 10
367.62231047756
 20
492.2343930884825
 30
0.0
 10
412.2406724802348
 20
513.9811690007576
 30
0.0
 10
456.8563382082281
 20
535.7146567504567
 30
0.0
  0
SPLINE
  5
1E2
330
1F
100
AcDbEntity
  8
0
  6
Continuous
 62
     8
370
    15
100
AcDbSpline
210
0.0
220
0.0
230
1.0
 70
    24
 71
     3
 72
     9
 73
     5
 74
     0
 42
0.00000001
 43
0.00000001
 12
1.0
 22
0.0
 32
0.0
 13
1.0
 23
0.0
 33
0.0
 40
0.1933632574953296
 40
0.1933632574953296
 40
0.1933632574953296
 40
0.1933632574953296
 40
0.5
 40
1.0
 40
1.0
 40
1.0
 40
1.0
 10
322.3070945845932
 20
471.9041827628807
 30
0.0
 10
339.2645201077922
 20
480.1758689433398
 30
0.0
 10
383.8713357923067
 20
501.9346896055389
 30
0.0
 10
428.4734128136919
 20
523.6911987886596
 30
0.0
 10
456.1176811223789
 20
537.1758348747824
 30
0.0
  0
SPLINE
  5
1E3
330
1F
100
AcDbEntity
  8
0
  6
Continuous
 62
     8
370
     0
100
AcDbSpline
210
0.0
220
0.0
230
1.0
 70
     8
 71
     3
 72
    12
 73
     8
 74
     0
 42
0.00000001
 43
0.00000001
 12
1.0
 22
0.0
 32
0.0
 13
1.0
 23
0.0
 33
0.0
 40
0.0
 40
0.0
 40
0.0
 40
0.0
 40
0.2499999999999998
 40
0.2499999999999998
 40
0.4999999999999996
 40
0.4999999999999996
 40
1.0
 40
1.0
 40
1.0
 40
1.0
 10
456.8562351763142
 20
535.7148479862765
 30
0.0
 10
458.6454089885079
 20
536.5871615296355
 30
0.0
 10
460.4335268666177
 20
537.461714561073
 30
0.0
 10
464.0108935464974
 20
539.208331006552
 30
0.0
 10
465.7996053309323
 20
540.0815485129419
 30
0.0
 10
471.1664523458946
 20
542.6995661714486
 30
0.0
 10
474.7449993370375
 20
544.443396785695
 30
0.0
 10
478.3241210002996
 20
546.1858349163649
 30
0.0
  0
SPLINE
  5
1E4
330
1F
100
AcDbEntity
  8
0
  6
Continuous
 62
     8
370
    15
100
AcDbSpline
210
0.0
220
0.0
230
1.0
 70
     8
 71
     3
 72
    10
 73
     6
 74
     0
 42
0.00000001
 43
0.00000001
 12
1.0
 22
0.0
 32
0.0
 13
1.0
 23
0.0
 33
0.0
 40
0.0
 40
0.0
 40
0.0
 40
0.0
 40
0.168433929226899
 40
0.7247279782473182
 40
1.0
 40
1.0
 40
1.0
 40
1.0
 10
477.5945515348719
 20
547.6520110728486
 30
0.0
 10
476.3887824944316
 20
547.0638466034521
 30
0.0
 10
471.2006677070937
 20
544.5331258113936
 30
0.0
 10
464.0417212366094
 20
541.0410278186465
 30
0.0
 10
458.088322545748
 20
538.1371654257924
 30
0.0
 10
456.117578245888
 20
537.1759043788749
 30
0.0
  0
SPLINE
  5
1E5
330
1F
100
AcDbEntity
  8
0
  6
Continuous
 62
     8
370
     0
100
AcDbSpline
210
0.0
220
0.0
230
1.0
 70
     8
 71
     3
 72
    39
 73
    35
 74
     0
 42
0.00000001
 43
0.00000001
 12
1.0
 22
0.0
 32
0.0
 13
1.0
 23
0.0
 33
0.0
 40
0.0
 40
0.0
 40
0.0
 40
0.0
 40
0.0101485410704173
 40
0.0203134713480029
 40
0.0304957047709492
 40
0.0406939162005144
 40
0.0509060595340184
 40
0.0611308571236962
 40
0.0713692521815095
 40
0.081623695683831
 40
0.1012317123338829
 40
0.1209043852801588
 40
0.1444665005982073
 40
0.1681251672899749
 40
0.1990264783397158
 40
0.2301998828891995
 40
0.2768933684114829
 40
0.3239967243048807
 40
0.3362724814232572
 40
0.3613795207087837
 40
0.4346958080264429
 40
0.4733654308155751
 40
0.4940754592243951
 40
0.5148482028560395
 40
0.5457698297845198
 40
0.5764504681624724
 40
0.5947134372255187
 40
0.6220783832851822
 40
0.6494170619962971
 40
0.710803466826293
 40
0.7754903959912446
 40
0.842395032159296
 40
0.9208885303029719
 40
0.9999999999999999
 40
0.9999999999999999
 40
0.9999999999999999
 40
0.9999999999999999
 10
508.5846233276599
 20
560.1344079188241
 30
0.0
 10
508.5837377774922
 20
560.1341091044186
 30
0.0
 10
508.5819652470533
 20
560.1335109930427
 30
0.0
 10
508.567233591806
 20
560.1272081306041
 30
0.0
 10
508.5434696276077
 20
560.1168340989304
 30
0.0
 10
508.5096823578292
 20
560.1019279380984
 30
0.0
 10
508.465990753829
 20
560.0825249945913
 30
0.0
 10
508.412240745673
 20
560.0585439723394
 30
0.0
 10
508.3483716117237
 20
560.0299592336702
 30
0.0
 10
508.2518561150019
 20
559.9867007658994
 30
0.0
 10
508.109019948551
 20
559.9226546713197
 30
0.0
 10
507.8889609349058
 20
559.8241674392623
 30
0.0
 10
507.6103865259623
 20
559.699509611214
 30
0.0
 10
507.2305159338145
 20
559.5296471434999
 30
0.0
 10
506.7464772513327
 20
559.3137641419461
 30
0.0
 10
506.0389222560613
 20
559.0001418706142
 30
0.0
 10
505.0930026795165
 20
558.5848476798399
 30
0.0
 10
504.1616751618808
 20
558.1796102829192
 30
0.0
 10
503.3609770078993
 20
557.833152122764
 30
0.0
 10
502.2640615440971
 20
557.3599868982056
 30
0.0
 10
500.7511483405755
 20
556.7132676929356
 30
0.0
 10
499.1604513532599
 20
556.0328511777318
 30
0.0
 10
498.1660428364461
 20
555.6052285502038
 30
0.0
 10
497.2496745750946
 20
555.2083372899586
 30
0.0
 10
496.1867391930061
 20
554.7383593300118
 30
0.0
 10
495.1397141650964
 20
554.2629610115597
 30
0.0
 10
494.1295158651045
 20
553.8124549517992
 30
0.0
 10
493.1657458727873
 20
553.3702062540732
 30
0.0
 10
491.6393280866666
 20
552.6499326309065
 30
0.0
 10
489.6302152884741
 20
551.6799760230878
 30
0.0
 10
487.104568509063
 20
550.4560093497813
 30
0.0
 10
484.3564048135813
 20
549.120468617827
 30
0.0
 10
481.4198207479105
 20
547.6925872583116
 30
0.0
 10
479.3587006651816
 20
546.6894113805062
 30
0.0
 10
478.3240997817148
 20
546.18585670742
 30
0.0
  0
LWPOLYLINE
  5
1E6
330
1F
100
AcDbEntity
  8
0
  6
Continuous
 62
     8
370
     0
100
AcDbPolyline
 90
        3
 70
   128
 43
0.0
 10
477.551603055
 20
547.7236333108
 10
477.5730011224
 20
547.6880269861
 10
477.5945482015
 20
547.6520183301
  0
SPLINE
  5
1E7
330
1F
100
AcDbEntity
  8
0
  6
Continuous
 62
     8
370
     0
100
AcDbSpline
210
0.0
220
0.0
230
1.0
 70
     8
 71
     3
 72
    15
 73
    11
 74
     0
 42
0.00000001
 43
0.00000001
 12
1.0
 22
0.0
 32
0.0
 13
1.0
 23
0.0
 33
0.0
 40
0.0
 40
0.0
 40
0.0
 40
0.0
 40
0.181046449754437
 40
0.347870908076941
 40
0.5005313745877654
 40
0.6257734995057358
 40
0.7508540186838538
 40
0.8352971729896622
 40
0.9189388228276651
 40
1.0
 40
1.0
 40
1.0
 40
1.0
 10
352.6831847450208
 20
559.4134942341492
 30
0.0
 10
350.9688500240575
 20
558.5815999823486
 30
0.0
 10
347.674849081547
 20
556.9831604150974
 30
0.0
 10
342.9371933708853
 20
554.6783649433064
 30
0.0
 10
338.7281631972943
 20
552.6292042060531
 30
0.0
 10
334.9127783415378
 20
550.7749700652478
 30
0.0
 10
331.7450510555614
 20
549.2305356149627
 30
0.0
 10
328.9711015183553
 20
547.8772713911723
 30
0.0
 10
326.6126843044903
 20
546.7300295000753
 30
0.0
 10
325.0551044417322
 20
545.9705661681289
 30
0.0
 10
324.2885161596308
 20
545.596783927567
 30
0.0
  0
SPLINE
  5
1E8
330
1F
100
AcDbEntity
  8
0
  6
Continuous
 62
     8
370
     0
100
AcDbSpline
210
0.0
220
0.0
230
1.0
 70
     8
 71
     3
 72
     8
 73
     4
 74
     0
 42
0.00000001
 43
0.00000001
 12
1.0
 22
0.0
 32
0.0
 13
1.0
 23
0.0
 33
0.0
 40
0.0
 40
0.0
 40
0.0
 40
0.0
 40
1.0
 40
1.0
 40
1.0
 40
1.0
 10
324.2885355716706
 20
545.5967176933113
 30
0.0
 10
324.169753014593
 20
545.5389066981645
 30
0.0
 10
324.0518326265106
 20
545.4815098719606
 30
0.0
 10
323.9347629130829
 20
545.4245286514174
 30
0.0
  0
SPLINE
  5
1E9
330
1F
100
AcDbEntity
  8
0
  6
Continuous
 62
     8
370
     0
100
AcDbSpline
210
0.0
220
0.0
230
1.0
 70
     8
 71
     3
 72
    39
 73
    35
 74
     0
 42
0.00000001
 43
0.00000001
 12
1.0
 22
0.0
 32
0.0
 13
1.0
 23
0.0
 33
0.0
 40
0.0
 40
0.0
 40
0.0
 40
0.0
 40
0.010913348191247
 40
0.022198191840766
 40
0.0339309714737063
 40
0.0462015864617516
 40
0.0591004113088278
 40
0.0727078357666643
 40
0.087087236280979
 40
0.1022818381231439
 40
0.1183153592692648
 40
0.135193066371836
 40
0.152904373390001
 40
0.1714261110357296
 40
0.1907258477024193
 40
0.2107650347500532
 40
0.2315013164043281
 40
0.2528898531487032
 40
0.3061236348923833
 40
0.3667731666674275
 40
0.433794154068891
 40
0.5057147618257553
 40
0.575620615977294
 40
0.6503382110251519
 40
0.7191169866428971
 40
0.795701463255884
 40
0.8201462578807286
 40
0.8449587753605302
 40
0.870067524155206
 40
0.8954658169145364
 40
0.9211563716659815
 40
0.9471412811937263
 40
0.9734221132407321
 40
1.0
 40
1.0
 40
1.0
 40
1.0
 10
370.9298012995915
 20
568.0420887315834
 30
0.0
 10
370.9288537430256
 20
568.0419730663559
 30
0.0
 10
370.9269263746268
 20
568.0417377986028
 30
0.0
 10
370.9125427008595
 20
568.0379222145893
 30
0.0
 10
370.8901231308386
 20
568.0292706634928
 30
0.0
 10
370.8584295522958
 20
568.0147107611781
 30
0.0
 10
370.8171459733582
 20
567.9937254219147
 30
0.0
 10
370.7653407952815
 20
567.9660845866911
 30
0.0
 10
370.7019543017911
 20
567.9317403758106
 30
0.0
 10
370.6256976556911
 20
567.8906883786091
 30
0.0
 10
370.5351240362669
 20
567.8428796962902
 30
0.0
 10
370.4286441747454
 20
567.7881390821078
 30
0.0
 10
370.3045660777025
 20
567.7261032446705
 30
0.0
 10
370.1611322171045
 20
567.65618062206
 30
0.0
 10
369.9965595418703
 20
567.5775303093614
 30
0.0
 10
369.8090967069322
 20
567.4890334962366
 30
0.0
 10
369.5970733479652
 20
567.3893264847208
 30
0.0
 10
369.2429501054422
 20
567.2218734631895
 30
0.0
 10
368.6677706439359
 20
566.9440705892737
 30
0.0
 10
367.7595474077068
 20
566.5119045586648
 30
0.0
 10
366.5934883725807
 20
565.9660218558909
 30
0.0
 10
365.2015972831767
 20
565.3160968555289
 30
0.0
 10
363.6026661111119
 20
564.5638252862095
 30
0.0
 10
361.8987915154462
 20
563.7674419083271
 30
0.0
 10
360.0433197796641
 20
562.897041418627
 30
0.0
 10
358.5526145958826
 20
562.2076876481615
 30
0.0
 10
357.4405160445926
 20
561.6894945401879
 30
0.0
 10
356.7825932647515
 20
561.3806743224095
 30
0.0
 10
356.1170754993226
 20
561.0657912773763
 30
0.0
 10
355.4443059311014
 20
560.7453328227424
 30
0.0
 10
354.7643795718593
 20
560.4195401390352
 30
0.0
 10
354.0771818846271
 20
560.0885992132687
 30
0.0
 10
353.3825934750882
 20
559.7527839758187
 30
0.0
 10
352.9172058029603
 20
559.5269676608295
 30
0.0
 10
352.6832042772269
 20
559.4134249836002
 30
0.0
  0
SPLINE
  5
1EA
330
1F
100
AcDbEntity
  8
0
  6
Continuous
 62
     7
370
    15
100
AcDbSpline
210
0.0
220
0.0
230
1.0
 70
     8
 71
     3
 72
    20
 73
    16
 74
     0
 42
0.00000001
 43
0.00000001
 12
1.0
 22
0.0
 32
0.0
 13
1.0
 23
0.0
 33
0.0
 40
0.0
 40
0.0
 40
0.0
 40
0.0
 40
0.084565589783736
 40
0.1597872787955427
 40
0.2276334573685865
 40
0.2880143892417514
 40
0.3572660704591256
 40
0.4128712816899348
 40
0.4586661266948788
 40
0.550003095292218
 40
0.6075662224088662
 40
0.6734033025517331
 40
0.7738643008430167
 40
0.8822730502531714
 40
1.0
 40
1.0
 40
1.0
 40
1.0
 10
164.5608092321421
 20
211.8087165486182
 30
0.0
 10
165.3967773968588
 20
211.8585483747154
 30
0.0
 10
166.9763451447027
 20
211.9527059618597
 30
0.0
 10
169.1724933413334
 20
212.4332049099627
 30
0.0
 10
171.0680923680382
 20
213.0522947502227
 30
0.0
 10
172.8191217712485
 20
213.8449438448242
 30
0.0
 10
174.3569587785544
 20
214.7567340831657
 30
0.0
 10
175.6569054851238
 20
215.7383761796108
 30
0.0
 10
177.0018654890604
 20
216.966668170219
 30
0.0
 10
178.1780929200867
 20
218.3620601313474
 30
0.0
 10
179.2227772547807
 20
220.0428900292169
 30
0.0
 10
180.0841850928614
 20
221.897647881748
 30
0.0
 10
180.729923801199
 20
224.3124732619571
 30
0.0
 10
180.8602195033063
 20
227.2452468941793
 30
0.0
 10
180.9363466597852
 20
229.2555323482958
 30
0.0
 10
180.975978694703
 20
230.3020932208861
 30
0.0
  0
SPLINE
  5
1EB
330
1F
100
AcDbEntity
  8
0
  6
Continuous
 62
     7
370
    15
100
AcDbSpline
210
0.0
220
0.0
230
1.0
 70
     8
 71
     3
 72
    21
 73
    17
 74
     0
 42
0.00000001
 43
0.00000001
 12
1.0
 22
0.0
 32
0.0
 13
1.0
 23
0.0
 33
0.0
 40
0.0
 40
0.0
 40
0.0
 40
0.0
 40
0.1024522590256606
 40
0.1935859802560384
 40
0.2759390119066342
 40
0.3450622146930806
 40
0.3994633762460707
 40
0.4453190542919235
 40
0.5377659300899925
 40
0.5954001119514665
 40
0.6606247133406481
 40
0.7339449790553275
 40
0.8143711228694615
 40
0.8720523093014556
 40
0.9333603165459389
 40
1.0
 40
1.0
 40
1.0
 40
1.0
 10
148.1456360442895
 20
230.3020410668219
 30
0.0
 10
148.1803980649773
 20
229.3914716748878
 30
0.0
 10
148.2460817298816
 20
227.6709291509347
 30
0.0
 10
148.337412322073
 20
225.2034640879883
 30
0.0
 10
148.6948126202659
 20
223.0406320112047
 30
0.0
 10
149.3121229202901
 20
221.2740838739318
 30
0.0
 10
149.9989652611887
 20
219.884708483669
 30
0.0
 10
150.9399335836996
 20
218.3770632862451
 30
0.0
 10
152.1130313005038
 20
216.963313095629
 30
0.0
 10
153.6231748382496
 20
215.5953456588821
 30
0.0
 10
155.1488433085759
 20
214.4993754891775
 30
0.0
 10
157.0084152142616
 20
213.4811385030143
 30
0.0
 10
158.9371358153474
 20
212.7305060117823
 30
0.0
 10
160.8321844160717
 20
212.2316625169151
 30
0.0
 10
162.6368748788423
 20
211.9054768435215
 30
0.0
 10
163.9019259060855
 20
211.8418488223167
 30
0.0
 10
164.5608092321421
 20
211.8087090980376
 30
0.0
  0
SPLINE
  5
1EC
330
1F
100
AcDbEntity
  8
0
  6
Continuous
 62
     7
370
    15
100
AcDbSpline
210
0.0
220
0.0
230
1.0
 70
     8
 71
     3
 72
    16
 73
    12
 74
     0
 42
0.00000001
 43
0.00000001
 12
1.0
 22
0.0
 32
0.0
 13
1.0
 23
0.0
 33
0.0
 40
0.0
 40
0.0
 40
0.0
 40
0.0
 40
0.1290613391283104
 40
0.2383871510581373
 40
0.3279780361827948
 40
0.3978384113318185
 40
0.4528439165359713
 40
0.5432880708274339
 40
0.6648359968636968
 40
0.8173769668440334
 40
1.0
 40
1.0
 40
1.0
 40
1.0
 10
180.9763176961202
 20
230.2947842013205
 30
0.0
 10
181.017689220706
 20
231.5158698324848
 30
0.0
 10
181.0941059071247
 20
233.7713177208869
 30
0.0
 10
181.1938514260271
 20
236.8742347052144
 30
0.0
 10
181.273036817325
 20
239.4170228765022
 30
0.0
 10
181.3343568169255
 20
241.4459244530814
 30
0.0
 10
181.3946162777919
 20
243.4830938733517
 30
0.0
 10
181.4668437302676
 20
246.0090611555898
 30
0.0
 10
181.5642619333857
 20
249.4574987528939
 30
0.0
 10
181.6558786222127
 20
253.7780530050895
 30
0.0
 10
181.7800992510269
 20
256.9470476947215
 30
0.0
 10
181.8477841688651
 20
258.6737588476504
 30
0.0
  0
SPLINE
  5
1ED
330
1F
100
AcDbEntity
  8
0
  6
Continuous
 62
     7
370
    15
100
AcDbSpline
210
0.0
220
0.0
230
1.0
 70
     8
 71
     3
 72
     9
 73
     5
 74
     0
 42
0.00000001
 43
0.00000001
 12
1.0
 22
0.0
 32
0.0
 13
1.0
 23
0.0
 33
0.0
 40
0.0
 40
0.0
 40
0.0
 40
0.0
 40
0.4520384722666434
 40
1.0
 40
1.0
 40
1.0
 40
1.0
 10
147.2738212569016
 20
258.6735725831355
 30
0.0
 10
147.4012866237067
 20
254.398527099611
 30
0.0
 10
147.6832656467885
 20
244.9412668312799
 30
0.0
 10
147.9817405523439
 20
235.4793640762803
 30
0.0
 10
148.145293317582
 20
230.2946053873862
 30
0.0
  0
SPLINE
  5
1EE
330
1F
100
AcDbEntity
  8
0
  6
Continuous
 62
     7
370
    15
100
AcDbSpline
210
0.0
220
0.0
230
1.0
 70
     8
 71
     3
 72
    10
 73
     6
 74
     0
 42
0.00000001
 43
0.00000001
 12
1.0
 22
0.0
 32
0.0
 13
1.0
 23
0.0
 33
0.0
 40
0.0
 40
0.0
 40
0.0
 40
0.0
 40
0.0523607860603816
 40
0.7950436659033437
 40
1.0
 40
1.0
 40
1.0
 40
1.0
 10
187.6305057330388
 20
281.5484401267137
 30
0.0
 10
187.6399748719606
 20
281.5708699152899
 30
0.0
 10
187.783753823496
 20
281.9114427499791
 30
0.0
 10
187.8424630687482
 20
282.0391133887218
 30
0.0
 10
187.8260067738902
 20
282.0100680412785
 30
0.0
 10
187.8224475903768
 20
282.003786085185
 30
0.0
  0
LINE
  5
1EF
330
1F
100
AcDbEntity
  8
0
  6
Continuous
 62
     7
370
    15
100
AcDbLine
 10
142.0193477197
 20
280.471870346
 30
0.0
 11
142.1376480384
 21
280.1807370465
 31
0.0
  0
LINE
  5
1F0
330
1F
100
AcDbEntity
  8
0
  6
Continuous
 62
     7
370
    15
100
AcDbLine
 10
181.8475718273
 20
258.6767428052
 30
0.0
 11
181.8657307549
 21
259.0299673807
 31
0.0
  0
LINE
  5
1F1
330
1F
100
AcDbEntity
  8
0
  6
Continuous
 62
     7
370
    15
100
AcDbLine
 10
147.2558728082
 20
259.0297550392
 30
0.0
 11
147.2740317358
 21
258.6765341889
 31
0.0
  0
SPLINE
  5
1F2
330
1F
100
AcDbEntity
  8
0
  6
Continuous
 62
     7
370
    15
100
AcDbSpline
210
0.0
220
0.0
230
1.0
 70
     8
 71
     3
 72
    14
 73
    10
 74
     0
 42
0.00000001
 43
0.00000001
 12
1.0
 22
0.0
 32
0.0
 13
1.0
 23
0.0
 33
0.0
 40
0.0
 40
0.0
 40
0.0
 40
0.0
 40
0.2062240938745809
 40
0.3665156843809158
 40
0.4800676878617329
 40
0.5636207796515662
 40
0.6797409220930305
 40
0.8318400754880317
 40
1.0
 40
1.0
 40
1.0
 40
1.0
 10
181.8656674249429
 20
259.0286486279334
 30
0.0
 10
181.9665226693947
 20
260.6438545071705
 30
0.0
 10
182.1457695665403
 20
263.5145098080236
 30
0.0
 10
182.5870885677441
 20
267.2569728521157
 30
0.0
 10
183.0770544014416
 20
270.0248499883627
 30
0.0
 10
183.6603719731742
 20
272.4097040347505
 30
0.0
 10
184.5432177805552
 20
275.0204466180144
 30
0.0
 10
185.9799904910812
 20
278.1492922557517
 30
0.0
 10
187.0809841554925
 20
280.437234766173
 30
0.0
 10
187.6590880228538
 20
281.6385753881301
 30
0.0
  0
SPLINE
  5
1F3
330
1F
100
AcDbEntity
  8
0
  6
Continuous
 62
     7
370
    15
100
AcDbSpline
210
0.0
220
0.0
230
1.0
 70
     8
 71
     3
 72
    15
 73
    11
 74
     0
 42
0.00000001
 43
0.00000001
 12
1.0
 22
0.0
 32
0.0
 13
1.0
 23
0.0
 33
0.0
 40
0.0
 40
0.0
 40
0.0
 40
0.0
 40
0.1586888255562983
 40
0.2796038307385396
 40
0.3654219134218198
 40
0.4408609299667319
 40
0.5411346415682539
 40
0.6673292413937079
 40
0.8202895677439973
 40
1.0
 40
1.0
 40
1.0
 40
1.0
 10
141.205220915224
 20
282.1777496915425
 30
0.0
 10
141.755455572832
 20
281.019257276116
 30
0.0
 10
142.7249486517112
 20
278.9780365657147
 30
0.0
 10
144.0174747370901
 20
276.3246127655741
 30
0.0
 10
144.8681096502729
 20
274.2135977568182
 30
0.0
 10
145.5180023834622
 20
272.1948322655315
 30
0.0
 10
146.0954549179828
 20
269.8293246952362
 30
0.0
 10
146.5965724733699
 20
266.8151941209622
 30
0.0
 10
147.0035410716183
 20
263.1446325593354
 30
0.0
 10
147.1675633185446
 20
260.4742283144175
 30
0.0
 10
147.2561689688224
 20
259.0316623877849
 30
0.0
  0
SPLINE
  5
1F4
330
1F
100
AcDbEntity
  8
0
  6
Continuous
 62
     7
370
    15
100
AcDbSpline
210
0.0
220
0.0
230
1.0
 70
     8
 71
     3
 72
    18
 73
    14
 74
     0
 42
0.00000001
 43
0.00000001
 12
1.0
 22
0.0
 32
0.0
 13
1.0
 23
0.0
 33
0.0
 40
0.0
 40
0.0
 40
0.0
 40
0.0
 40
0.1787894753108051
 40
0.3370983854486496
 40
0.4581321242026773
 40
0.5499446691693017
 40
0.6215815015587514
 40
0.6964288294077722
 40
0.7648380612312351
 40
0.7988921071813158
 40
0.8447206886486995
 40
0.9090695006965568
 40
0.9999999999999999
 40
0.9999999999999999
 40
0.9999999999999999
 40
0.9999999999999999
 10
185.6775222940701
 20
259.920181376871
 30
0.0
 10
185.6916044488617
 20
261.4523040553767
 30
0.0
 10
185.7181556294366
 20
264.3410427819471
 30
0.0
 10
185.7500112933469
 20
268.2789727954228
 30
0.0
 10
185.8923467295585
 20
271.4735498942895
 30
0.0
 10
186.117205856797
 20
273.9254094169993
 30
0.0
 10
186.4162653585325
 20
275.9721764340621
 30
0.0
 10
186.8039378547472
 20
277.8272773421476
 30
0.0
 10
187.2355848522355
 20
279.3846007561511
 30
0.0
 10
187.6486918507379
 20
280.6973913165809
 30
0.0
 10
188.080011113284
 20
281.9874891393665
 30
0.0
 10
188.704541752234
 20
283.7883823834013
 30
0.0
 10
189.1529897300062
 20
285.1938698913788
 30
0.0
 10
189.4155977888364
 20
286.0169137325253
 30
0.0
  0
SPLINE
  5
1F5
330
1F
100
AcDbEntity
  8
0
  6
Continuous
 62
     7
370
    15
100
AcDbSpline
210
0.0
220
0.0
230
1.0
 70
     8
 71
     3
 72
    18
 73
    14
 74
     0
 42
0.00000001
 43
0.00000001
 12
1.0
 22
0.0
 32
0.0
 13
1.0
 23
0.0
 33
0.0
 40
0.0
 40
0.0
 40
0.0
 40
0.0
 40
0.0756946153289649
 40
0.1411217235501017
 40
0.205366662002533
 40
0.2566009708906466
 40
0.3101035834400641
 40
0.3680026269871849
 40
0.4408398812612524
 40
0.5341909335094556
 40
0.6572528405106163
 40
0.81821454075546
 40
1.0
 40
1.0
 40
1.0
 40
1.0
 10
139.8509326054114
 20
285.5702542197074
 30
0.0
 10
140.0661809844377
 20
284.8965401088084
 30
0.0
 10
140.4674806291685
 20
283.6404970455483
 30
0.0
 10
141.0957062800743
 20
281.8319095301445
 30
0.0
 10
141.6243204778645
 20
280.2416321404638
 30
0.0
 10
142.0602433354885
 20
278.777673473685
 30
0.0
 10
142.4135200005497
 20
277.3805958312348
 30
0.0
 10
142.7276667049901
 20
275.8188019021566
 30
0.0
 10
143.0044714493961
 20
273.9252591392387
 30
0.0
 10
143.2292483551968
 20
271.4736096038235
 30
0.0
 10
143.3716164767195
 20
268.2789490291595
 30
0.0
 10
143.4034598665409
 20
264.3410503627731
 30
0.0
 10
143.4300129867058
 20
261.4523066826374
 30
0.0
 10
143.4440961702126
 20
259.920181376871
 30
0.0
  0
SPLINE
  5
1F6
330
1F
100
AcDbEntity
  8
0
  6
Continuous
 62
     7
370
     0
100
AcDbSpline
210
0.0
220
0.0
230
1.0
 70
     8
 71
     3
 72
    37
 73
    33
 74
     0
 42
0.00000001
 43
0.00000001
 12
1.0
 22
0.0
 32
0.0
 13
1.0
 23
0.0
 33
0.0
 40
0.0
 40
0.0
 40
0.0
 40
0.0
 40
0.047867434929413
 40
0.0916370643545246
 40
0.1313074170494505
 40
0.1668614116277034
 40
0.1985233392707816
 40
0.2262145814359412
 40
0.2498554960527412
 40
0.3050477683452953
 40
0.3747878789537419
 40
0.4371734839480593
 40
0.4711466104223773
 40
0.4990374982948365
 40
0.5331084556265686
 40
0.5662797385250407
 40
0.5986868456521044
 40
0.6304460143435032
 40
0.6616149699912934
 40
0.692110046120626
 40
0.7218325088535238
 40
0.7506960906414649
 40
0.7787926304206807
 40
0.8061992486249376
 40
0.8329077109128443
 40
0.8589072757561217
 40
0.8841787758839367
 40
0.9086840578761866
 40
0.9324691132006299
 40
0.9555639056236233
 40
0.9780240193071715
 40
1.0
 40
1.0
 40
1.0
 40
1.0
 10
179.8463493843967
 20
230.9283511657636
 30
0.0
 10
179.8332105686305
 20
230.5252812991662
 30
0.0
 10
179.8080577166407
 20
229.7536473196302
 30
0.0
 10
179.7693889516954
 20
228.6480745361152
 30
0.0
 10
179.7298457256589
 20
227.6463191459149
 30
0.0
 10
179.6875917169116
 20
226.746815088169
 30
0.0
 10
179.6461631623383
 20
225.948178872374
 30
0.0
 10
179.5756073195975
 20
225.2517764780729
 30
0.0
 10
179.4396136083759
 20
224.3628656850798
 30
0.0
 10
179.1381373023591
 20
223.1389932395018
 30
0.0
 10
178.5591470956804
 20
221.6439637355464
 30
0.0
 10
177.8507875502669
 20
220.3949687981221
 30
0.0
 10
177.2306035490068
 20
219.5091895765707
 30
0.0
 10
176.7095809585644
 20
218.8505234126897
 30
0.0
 10
176.1520932798399
 20
218.224615386256
 30
0.0
 10
175.5218569971966
 20
217.6046202438201
 30
0.0
 10
174.8651277112051
 20
217.0349958679057
 30
0.0
 10
174.1855734780365
 20
216.5130355789611
 30
0.0
 10
173.4866385753104
 20
216.0384503632667
 30
0.0
 10
172.7744708040578
 20
215.6102249792692
 30
0.0
 10
172.0556594958614
 20
215.2279356818959
 30
0.0
 10
171.3348550373549
 20
214.8904522328066
 30
0.0
 10
170.6149029665293
 20
214.5959329375478
 30
0.0
 10
169.898203169351
 20
214.3409920854784
 30
0.0
 10
169.1873520119988
 20
214.1229342508037
 30
0.0
 10
168.4853966037357
 20
213.9392949528278
 30
0.0
 10
167.7952352961011
 20
213.787938595082
 30
0.0
 10
167.1192511466158
 20
213.6652616166917
 30
0.0
 10
166.45860280487
 20
213.5692468555363
 30
0.0
 10
165.8139163374585
 20
213.4953007177482
 30
0.0
 10
165.1833359217846
 20
213.441781825107
 30
0.0
 10
164.7668054233186
 20
213.434291459908
 30
0.0
 10
164.5608092321428
 20
213.4305870812198
 30
0.0
  0
SPLINE
  5
1F7
330
1F
100
AcDbEntity
  8
0
  6
Continuous
 62
     7
370
    15
100
AcDbSpline
210
0.0
220
0.0
230
1.0
 70
     8
 71
     3
 72
     8
 73
     4
 74
     0
 42
0.00000001
 43
0.00000001
 12
1.0
 22
0.0
 32
0.0
 13
1.0
 23
0.0
 33
0.0
 40
0.0
 40
0.0
 40
0.0
 40
0.0
 40
1.0
 40
1.0
 40
1.0
 40
1.0
 10
141.6563802666238
 20
284.9001010569646
 30
0.0
 10
141.6445957281994
 20
284.928065978003
 30
0.0
 10
141.6328666115193
 20
284.9560407370906
 30
0.0
 10
141.6211928597703
 20
284.9840253253647
 30
0.0
  0
SPLINE
  5
1F8
330
1F
100
AcDbEntity
  8
0
  6
Continuous
 62
     7
370
     0
100
AcDbSpline
210
0.0
220
0.0
230
1.0
 70
     8
 71
     3
 72
    33
 73
    29
 74
     0
 42
0.00000001
 43
0.00000001
 12
1.0
 22
0.0
 32
0.0
 13
1.0
 23
0.0
 33
0.0
 40
0.0
 40
0.0
 40
0.0
 40
0.0
 40
0.0145204379918168
 40
0.0313819706146065
 40
0.0449529442379919
 40
0.0553708827266716
 40
0.0626539305679932
 40
0.0815894961657969
 40
0.1251859464179979
 40
0.1436847251574729
 40
0.1874991065350433
 40
0.2187904001632032
 40
0.2501685081007746
 40
0.2877189805199484
 40
0.374205799133437
 40
0.4374043384973842
 40
0.4991389754369032
 40
0.5480575208550369
 40
0.6315938525909595
 40
0.7496267511556847
 40
0.8091451707913022
 40
0.8744846520222942
 40
0.9045284487271659
 40
0.9370195823510897
 40
0.95251032402624
 40
0.9686184294978067
 40
0.9868006512556128
 40
0.9999999999999999
 40
0.9999999999999999
 40
0.9999999999999999
 40
0.9999999999999999
 10
141.621192859795
 20
284.9840253254669
 30
0.0
 10
141.5451337085267
 20
285.1967701920361
 30
0.0
 10
141.3807525754357
 20
285.6565602586198
 30
0.0
 10
141.1513785819888
 20
286.3154235029033
 30
0.0
 10
140.9554553237504
 20
286.9173076349719
 30
0.0
 10
140.8163675509588
 20
287.3807644197496
 30
0.0
 10
140.6555470545702
 20
287.9236626772782
 30
0.0
 10
140.398712313494
 20
288.9713258857719
 30
0.0
 10
140.1750710103211
 20
290.2011245053811
 30
0.0
 10
139.9721483983587
 20
291.8176510276902
 30
0.0
 10
139.8753758169527
 20
293.2541244279138
 30
0.0
 10
139.8804083932496
 20
294.890343415696
 30
0.0
 10
139.9774340643089
 20
296.4281688691217
 30
0.0
 10
140.2775844867635
 20
298.8011108756399
 30
0.0
 10
140.9746516555392
 20
301.6203938336663
 30
0.0
 10
142.2064944885517
 20
304.6794315466336
 30
0.0
 10
143.5242036892031
 20
307.07958340018
 30
0.0
 10
145.2889599490369
 20
309.6101231993807
 30
0.0
 10
148.0003371867159
 20
312.6072742848094
 30
0.0
 10
151.48550722696
 20
315.1837930485941
 30
0.0
 10
155.1375442243448
 20
316.9751675064941
 30
0.0
 10
157.6241910877076
 20
317.8205188226671
 30
0.0
 10
159.740612411001
 20
318.315095419081
 30
0.0
 10
161.0528460626686
 20
318.5358710243353
 30
0.0
 10
162.1397136171839
 20
318.6607609512878
 30
0.0
 10
162.987996811787
 20
318.7240496247976
 30
0.0
 10
163.799061653778
 20
318.7564742312832
 30
0.0
 10
164.3352694452568
 20
318.7679368310888
 30
0.0
 10
164.5608028881638
 20
318.7727580956059
 30
0.0
  0
SPLINE
  5
1F9
330
1F
100
AcDbEntity
  8
0
  6
Continuous
 62
     7
370
     0
100
AcDbSpline
210
0.0
220
0.0
230
1.0
 70
     8
 71
     3
 72
    34
 73
    30
 74
     0
 42
0.00000001
 43
0.00000001
 12
1.0
 22
0.0
 32
0.0
 13
1.0
 23
0.0
 33
0.0
 40
0.0
 40
0.0
 40
0.0
 40
0.0
 40
0.0144961281819169
 40
0.0316258703433983
 40
0.0454268715342721
 40
0.0558567669968505
 40
0.062910334354309
 40
0.0716497908801195
 40
0.0925491378041947
 40
0.1254407131833045
 40
0.1460818821355776
 40
0.1884853737910525
 40
0.2182801966882311
 40
0.2507525764225988
 40
0.3305164916135495
 40
0.413543585099667
 40
0.5006157794971725
 40
0.5925252503019122
 40
0.6759325914729425
 40
0.749670060612509
 40
0.7950051134420136
 40
0.8499116139050411
 40
0.8592975511852834
 40
0.8687492392940842
 40
0.8873892079154029
 40
0.9247270675245705
 40
0.9627025040619163
 40
0.9857677725637145
 40
1.0
 40
1.0
 40
1.0
 40
1.0
 10
164.5608028881641
 20
318.7727582005058
 30
0.0
 10
164.8083735223137
 20
318.7643012643406
 30
0.0
 10
165.3484926960816
 20
318.7458509606938
 30
0.0
 10
166.1239560857412
 20
318.7091938776738
 30
0.0
 10
166.8289131241871
 20
318.6591659734044
 30
0.0
 10
167.3605762596705
 20
318.607229157188
 30
0.0
 10
167.8061073690385
 20
318.5617186381946
 30
0.0
 10
168.4258223474243
 20
318.474170579502
 30
0.0
 10
169.4758121915221
 20
318.2931746719596
 30
0.0
 10
170.7087095237547
 20
318.0062404400871
 30
0.0
 10
172.2697219733249
 20
317.5540294621323
 30
0.0
 10
173.7453227785078
 20
317.022714009717
 30
0.0
 10
175.3483328905846
 20
316.3061641386524
 30
0.0
 10
177.4442842393778
 20
315.2025872502186
 30
0.0
 10
180.1182859175047
 20
313.3825563135343
 30
0.0
 10
183.063159207902
 20
310.5799367138681
 30
0.0
 10
185.5864635276241
 20
307.2335077308377
 30
0.0
 10
187.4715207105064
 20
303.5556331768096
 30
0.0
 10
188.6437863787683
 20
299.8644837940681
 30
0.0
 10
189.1403569057521
 20
296.7779670767826
 30
0.0
 10
189.2683128632688
 20
294.1063539925961
 30
0.0
 10
189.1971434421182
 20
292.4205116975772
 30
0.0
 10
189.0782396042957
 20
291.2929382939656
 30
0.0
 10
189.007681184606
 20
290.7208020192879
 30
0.0
 10
188.8585171687934
 20
289.7246760593734
 30
0.0
 10
188.5722065550682
 20
288.3035530992484
 30
0.0
 10
188.1627429183634
 20
286.8365538281193
 30
0.0
 10
187.7770926773867
 20
285.7340807864035
 30
0.0
 10
187.5734706618744
 20
285.190713920315
 30
0.0
 10
187.4957712141523
 20
284.9833723649369
 30
0.0
  0
SPLINE
  5
1FA
330
1F
100
AcDbEntity
  8
0
  6
Continuous
 62
     7
370
     0
100
AcDbSpline
210
0.0
220
0.0
230
1.0
 70
     8
 71
     3
 72
    21
 73
    17
 74
     0
 42
0.00000001
 43
0.00000001
 12
1.0
 22
0.0
 32
0.0
 13
1.0
 23
0.0
 33
0.0
 40
0.0
 40
0.0
 40
0.0
 40
0.0
 40
0.0170924234861703
 40
0.0622476652993384
 40
0.086511952352304
 40
0.124844814129554
 40
0.194656620380622
 40
0.2507687956190363
 40
0.3477676758025999
 40
0.5001569985392712
 40
0.562377392901925
 40
0.6248711073068848
 40
0.7500346172042661
 40
0.8754337632820257
 40
0.9608945539452424
 40
0.9999999999999999
 40
0.9999999999999999
 40
0.9999999999999999
 40
0.9999999999999999
 10
187.4633260990014
 20
284.9053297483304
 30
0.0
 10
187.4061816340167
 20
284.7659082652805
 30
0.0
 10
187.1980713252031
 20
284.2581592138103
 30
0.0
 10
186.896898289051
 20
283.5562637919482
 30
0.0
 10
186.5062432914969
 20
282.6879704185965
 30
0.0
 10
186.0109854766286
 20
281.626890245575
 30
0.0
 10
185.382612023779
 20
280.3159008712169
 30
0.0
 10
184.538899614791
 20
278.5318339258355
 30
0.0
 10
183.4442832183227
 20
276.0638972684351
 30
0.0
 10
182.5367747027036
 20
273.4735291867938
 30
0.0
 10
181.9805091952045
 20
271.1157687729884
 30
0.0
 10
181.5771613664361
 20
268.9726775991888
 30
0.0
 10
181.2037772474597
 20
266.2711258960188
 30
0.0
 10
180.9335577693426
 20
263.3596592501976
 30
0.0
 10
180.7927681983891
 20
261.1898994249499
 30
0.0
 10
180.7344972022978
 20
260.1083976150207
 30
0.0
 10
180.7162040166462
 20
259.7688785623415
 30
0.0
  0
SPLINE
  5
1FB
330
1F
100
AcDbEntity
  8
0
  6
Continuous
 62
     7
370
    15
100
AcDbSpline
210
0.0
220
0.0
230
1.0
 70
     8
 71
     3
 72
    39
 73
    35
 74
     0
 42
0.00000001
 43
0.00000001
 12
1.0
 22
0.0
 32
0.0
 13
1.0
 23
0.0
 33
0.0
 40
0.0
 40
0.0
 40
0.0
 40
0.0
 40
0.0101485410704173
 40
0.0203134713480029
 40
0.0304957047709492
 40
0.0406939162005144
 40
0.0509060595340184
 40
0.0611308571236962
 40
0.0713692521815095
 40
0.081623695683831
 40
0.1012317123338829
 40
0.1209043852801588
 40
0.1444665005982073
 40
0.1681251672899749
 40
0.1990264783397158
 40
0.2301998828891995
 40
0.2768933684114829
 40
0.3239967243048807
 40
0.3362724814232572
 40
0.3613795207087837
 40
0.4346958080264429
 40
0.4733654308155751
 40
0.4940754592243951
 40
0.5148482028560395
 40
0.5457698297845198
 40
0.5764504681624724
 40
0.5947134372255187
 40
0.6220783832851822
 40
0.6494170619962971
 40
0.710803466826293
 40
0.7754903959912446
 40
0.842395032159296
 40
0.9208885303029719
 40
0.9999999999999999
 40
0.9999999999999999
 40
0.9999999999999999
 40
0.9999999999999999
 10
164.5604652151347
 20
74.19709288904949
 30
0.0
 10
164.4128074350446
 20
74.19797843921714
 30
0.0
 10
164.1172534175402
 20
74.19975096965604
 30
0.0
 10
163.6737894329132
 20
74.21448262490341
 30
0.0
 10
163.2300994685718
 20
74.23824658910166
 30
0.0
 10
162.7864861697759
 20
74.2720338588802
 30
0.0
 10
162.3432935499815
 20
74.3157254628804
 30
0.0
 10
161.9008411397175
 20
74.36947547103642
 30
0.0
 10
161.4593841857699
 20
74.43334460498569
 30
0.0
 10
160.8855606333817
 20
74.52986010170748
 30
0.0
 10
160.1817545517208
 20
74.67269626815842
 30
0.0
 10
159.2994584220106
 20
74.89275528180362
 30
0.0
 10
158.3747287688849
 20
75.17132969074719
 30
0.0
 10
157.3164332901774
 20
75.55120028289488
 30
0.0
 10
156.1860094871067
 20
76.03523896537673
 30
0.0
 10
154.8042073458189
 20
76.74279396064809
 30
0.0
 10
153.3032715845485
 20
77.68871353719287
 30
0.0
 10
152.1363011624048
 20
78.62004105482856
 30
0.0
 10
151.2701904912556
 20
79.42073920881018
 30
0.0
 10
150.1890764628039
 20
80.51765467261235
 30
0.0
 10
149.0359934451779
 20
82.03056787613389
 30
0.0
 10
148.1726318332591
 20
83.62126486344948
 30
0.0
 10
147.7370736033045
 20
84.61567338026329
 30
0.0
 10
147.4001686748679
 20
85.53204164161482
 30
0.0
 10
147.0998379574725
 20
86.59497702370325
 30
0.0
 10
146.9207030002418
 20
87.64200205161296
 30
0.0
 10
146.8224545251924
 20
88.65220035160498
 30
0.0
 10
146.7675271211036
 20
89.61597034392216
 30
0.0
 10
146.7040250131088
 20
91.14238813004272
 30
0.0
 10
146.6342108299667
 20
93.15150092823538
 30
0.0
 10
146.5563143047325
 20
95.6771477076464
 30
0.0
 10
146.4745892164237
 20
98.4253114031281
 30
0.0
 10
146.388915645243
 20
101.3618954687989
 30
0.0
 10
146.3301648556827
 20
103.4230155515279
 30
0.0
 10
146.3006742795185
 20
104.4576164349946
 30
0.0
  0
SPLINE
  5
1FC
330
1F
100
AcDbEntity
  8
0
  6
Continuous
 62
     7
370
    15
100
AcDbSpline
210
0.0
220
0.0
230
1.0
 70
     8
 71
     3
 72
    12
 73
     8
 74
     0
 42
0.00000001
 43
0.00000001
 12
1.0
 22
0.0
 32
0.0
 13
1.0
 23
0.0
 33
0.0
 40
0.0
 40
0.0
 40
0.0
 40
0.0
 40
0.2499999999999998
 40
0.2499999999999998
 40
0.4999999999999996
 40
0.4999999999999996
 40
1.0
 40
1.0
 40
1.0
 40
1.0
 10
145.7334222496558
 20
125.9254810403952
 30
0.0
 10
145.7787138963909
 20
124.1363072282015
 30
0.0
 10
145.8225991972483
 20
122.3481893500916
 30
0.0
 10
145.9135782794471
 20
118.770822670212
 30
0.0
 10
145.9596736335258
 20
116.9821108857771
 30
0.0
 10
146.1012533914172
 20
111.6152638708148
 30
0.0
 10
146.1993322691042
 20
108.0367168796718
 30
0.0
 10
146.3006834000331
 20
104.4575952164099
 30
0.0
  0
SPLINE
  5
1FD
330
1F
100
AcDbEntity
  8
0
  6
Continuous
 62
     7
370
    15
100
AcDbSpline
210
0.0
220
0.0
230
1.0
 70
     8
 71
     3
 72
    12
 73
     8
 74
     0
 42
0.00000001
 43
0.00000001
 12
1.0
 22
0.0
 32
0.0
 13
1.0
 23
0.0
 33
0.0
 40
0.0
 40
0.0
 40
0.0
 40
0.0
 40
0.2499999999999992
 40
0.2499999999999992
 40
0.4999999999999984
 40
0.4999999999999984
 40
1.0
 40
1.0
 40
1.0
 40
1.0
 10
183.388196214627
 20
125.9254810403952
 30
0.0
 10
183.3429045678919
 20
124.1363072282015
 30
0.0
 10
183.2990192670345
 20
122.3481893500917
 30
0.0
 10
183.2080401848357
 20
118.770822670212
 30
0.0
 10
183.161944830757
 20
116.9821108857773
 30
0.0
 10
183.0203650728657
 20
111.6152638708149
 30
0.0
 10
182.9222861951786
 20
108.0367168796716
 30
0.0
 10
182.8209350642498
 20
104.4575952164097
 30
0.0
  0
SPLINE
  5
1FE
330
1F
100
AcDbEntity
  8
0
  6
Continuous
 62
     7
370
    15
100
AcDbSpline
210
0.0
220
0.0
230
1.0
 70
     8
 71
     3
 72
    42
 73
    38
 74
     0
 42
0.00000001
 43
0.00000001
 12
1.0
 22
0.0
 32
0.0
 13
1.0
 23
0.0
 33
0.0
 40
0.0
 40
0.0
 40
0.0
 40
0.0
 40
0.2499999999999938
 40
0.2499999999999938
 40
0.3124999999999932
 40
0.3124999999999932
 40
0.3749999999999925
 40
0.3749999999999925
 40
0.4062499999999925
 40
0.4062499999999925
 40
0.4374999999999923
 40
0.4374999999999923
 40
0.4687499999999922
 40
0.4687499999999922
 40
0.4999999999999921
 40
0.4999999999999921
 40
0.531249999999992
 40
0.531249999999992
 40
0.5624999999999919
 40
0.5624999999999919
 40
0.6249999999999917
 40
0.6249999999999917
 40
0.6562499999999917
 40
0.6562499999999917
 40
0.6874999999999917
 40
0.6874999999999917
 40
0.749999999999993
 40
0.749999999999993
 40
0.8124999999999944
 40
0.8124999999999944
 40
0.8749999999999958
 40
0.8749999999999958
 40
0.9062499999999968
 40
0.9062499999999968
 40
0.9374999999999978
 40
0.9374999999999978
 40
1.0
 40
1.0
 40
1.0
 40
1.0
 10
182.8209350642498
 20
104.4575952164097
 30
0.0
 10
182.7326365810564
 20
101.339415763113
 30
0.0
 10
182.6428348467076
 20
98.22194333691075
 30
0.0
 10
182.5233988884541
 20
94.31996598089559
 30
0.0
 10
182.4990211993045
 20
93.53899417313575
 30
0.0
 10
182.4464306879615
 20
91.97441167591117
 30
0.0
 10
182.41891521414
 20
91.19346505172962
 30
0.0
 10
182.3703586788806
 20
90.01045409781808
 30
0.0
 10
182.3528907705628
 20
89.613663528105
 30
0.0
 10
182.3062920167576
 20
88.80643159776261
 30
0.0
 10
182.2774271549453
 20
88.39432234815631
 30
0.0
 10
182.1816249636441
 20
87.54218475937375
 30
0.0
 10
182.1123217704015
 20
87.10533342642628
 30
0.0
 10
181.9229720715956
 20
86.2470628806298
 30
0.0
 10
181.8051584034236
 20
85.82476311650913
 30
0.0
 10
181.5263427605008
 20
84.9866120580777
 30
0.0
 10
181.3641686475824
 20
84.56921459936567
 30
0.0
 10
181.003105079893
 20
83.75616970956123
 30
0.0
 10
180.8042537506931
 20
83.36008812720088
 30
0.0
 10
180.1563390245762
 20
82.20289341771877
 30
0.0
 10
179.6562405958421
 20
81.47233697475976
 30
0.0
 10
178.8093089506556
 20
80.43612610714443
 30
0.0
 10
178.510790406347
 20
80.10073374051846
 30
0.0
 10
177.8813620596712
 20
79.45012050979255
 30
0.0
 10
177.5527265654862
 20
79.13739561129631
 30
0.0
 10
176.5362925644192
 20
78.24383793749034
 30
0.0
 10
175.8142329888752
 20
77.70303932856271
 30
0.0
 10
174.2827455702663
 20
76.7258395433096
 30
0.0
 10
173.4671996215227
 20
76.28766147332053
 30
0.0
 10
171.7973378915986
 20
75.53776226388142
 30
0.0
 10
170.9391870527537
 20
75.22230153155036
 30
0.0
 10
169.6126082585141
 20
74.83838944322521
 30
0.0
 10
169.1638556836068
 20
74.72547714667299
 30
0.0
 10
168.25273991043
 20
74.53111195338899
 30
0.0
 10
167.7897871158651
 20
74.4497890680619
 30
0.0
 10
166.4061797564963
 20
74.25780166747914
 30
0.0
 10
165.4827227854668
 20
74.19732536594168
 30
0.0
 10
164.5611448396614
 20
74.19700349130102
 30
0.0
  0
SPLINE
  5
1FF
330
1F
100
AcDbEntity
  8
0
  6
Continuous
 62
     7
370
    15
100
AcDbSpline
210
0.0
220
0.0
230
1.0
 70
     8
 71
     3
 72
    10
 73
     6
 74
     0
 42
0.00000001
 43
0.00000001
 12
1.0
 22
0.0
 32
0.0
 13
1.0
 23
0.0
 33
0.0
 40
0.0
 40
0.0
 40
0.0
 40
0.0
 40
0.3947129254520987
 40
0.7927894742409322
 40
0.9999999999999999
 40
0.9999999999999999
 40
0.9999999999999999
 40
0.9999999999999999
 10
188.6074929161328
 20
283.7611843329038
 30
0.0
 10
188.5676259924806
 20
283.6657552858946
 30
0.0
 10
188.4875524113948
 20
283.4740839746017
 30
0.0
 10
188.173301998728
 20
282.734969057979
 30
0.0
 10
187.7974556406037
 20
281.9909834173255
 30
0.0
 10
187.6687905414361
 20
281.7362916153039
 30
0.0
  0
SPLINE
  5
200
330
1F
100
AcDbEntity
  8
0
  6
Continuous
 62
     7
370
    15
100
AcDbSpline
210
0.0
220
0.0
230
1.0
 70
     8
 71
     3
 72
    11
 73
     7
 74
     0
 42
0.00000001
 43
0.00000001
 12
1.0
 22
0.0
 32
0.0
 13
1.0
 23
0.0
 33
0.0
 40
0.0
 40
0.0
 40
0.0
 40
0.0
 40
0.2846417828746779
 40
0.5791252507167407
 40
0.8646258252688118
 40
1.0
 40
1.0
 40
1.0
 40
1.0
 10
140.514175839569
 20
283.7610613983239
 30
0.0
 10
140.5353880688244
 20
283.7092561609147
 30
0.0
 10
140.5785459547178
 20
283.6038544844637
 30
0.0
 10
140.7648218447304
 20
283.1688809222067
 30
0.0
 10
141.0014633396158
 20
282.6384857847173
 30
0.0
 10
141.2221008817296
 20
282.1926320917441
 30
0.0
 10
141.2930688483972
 20
282.0492234509553
 30
0.0
  0
LINE
  5
201
330
1F
100
AcDbEntity
  8
0
  6
Continuous
 62
     7
370
    15
100
AcDbLine
 10
142.1549184842
 20
280.1887743604
 30
0.0
 11
141.2836550398
 21
282.0860069674
 31
0.0
  0
SPLINE
  5
202
330
1F
100
AcDbEntity
  8
0
  6
Continuous
 62
     7
370
    15
100
AcDbSpline
210
0.0
220
0.0
230
1.0
 70
     8
 71
     3
 72
     8
 73
     4
 74
     0
 42
0.00000001
 43
0.00000001
 12
1.0
 22
0.0
 32
0.0
 13
1.0
 23
0.0
 33
0.0
 40
0.0
 40
0.0
 40
0.0
 40
0.0
 40
1.0
 40
1.0
 40
1.0
 40
1.0
 10
185.6740315834968
 20
259.7786307726122
 30
0.0
 10
185.2862633629119
 20
215.1594057391494
 30
0.0
 10
184.5257710328301
 20
170.5410437364746
 30
0.0
 10
183.3881649917508
 20
125.9253780084813
 30
0.0
  0
SPLINE
  5
203
330
1F
100
AcDbEntity
  8
0
  6
Continuous
 62
     7
370
    15
100
AcDbSpline
210
0.0
220
0.0
230
1.0
 70
     8
 71
     3
 72
     8
 73
     4
 74
     0
 42
0.00000001
 43
0.00000001
 12
1.0
 22
0.0
 32
0.0
 13
1.0
 23
0.0
 33
0.0
 40
0.0
 40
0.0
 40
0.0
 40
0.0
 40
1.0
 40
1.0
 40
1.0
 40
1.0
 10
143.447586880786
 20
259.7786307726122
 30
0.0
 10
143.8353551013709
 20
215.1594057391494
 30
0.0
 10
144.5958474314527
 20
170.5410437364746
 30
0.0
 10
145.733453472532
 20
125.9253780084813
 30
0.0
  0
SPLINE
  5
204
330
1F
100
AcDbEntity
  8
0
  6
Continuous
 62
     7
370
    15
100
AcDbSpline
210
0.0
220
0.0
230
1.0
 70
     8
 71
     3
 72
    46
 73
    42
 74
     0
 42
0.00000001
 43
0.00000001
 12
1.0
 22
0.0
 32
0.0
 13
1.0
 23
0.0
 33
0.0
 40
0.0
 40
0.0
 40
0.0
 40
0.0
 40
0.00974210794486
 40
0.0197912139415245
 40
0.0301473917342193
 40
0.0408107086219266
 40
0.0517812261767546
 40
0.0630590008648176
 40
0.0746440845850588
 40
0.0865365251386748
 40
0.0987363666395858
 40
0.111243649874608
 40
0.1240584126205366
 40
0.1654522137230165
 40
0.2068871221006864
 40
0.2483633224865211
 40
0.2892408375676447
 40
0.3283169710552103
 40
0.3655936503106372
 40
0.4010731107784646
 40
0.4347579606477059
 40
0.4666512634448804
 40
0.4967566448089806
 40
0.5642761621488527
 40
0.6285064122440878
 40
0.6895293176500025
 40
0.7474404705975282
 40
0.7661403898905822
 40
0.7847202355184575
 40
0.8031844225048541
 40
0.8215374493433429
 40
0.8397838967449981
 40
0.8579284261419937
 40
0.87597577794036
 40
0.8939307695164213
 40
0.9117982929529264
 40
0.9295833125125197
 40
0.9472908618479785
 40
0.9649260409505538
 40
0.9824940128397515
 40
1.0
 40
1.0
 40
1.0
 40
1.0
 10
140.514170272377
 20
283.7610753774514
 30
0.0
 10
140.4537181061085
 20
283.9103788450168
 30
0.0
 10
140.3309087754564
 20
284.2136907037564
 30
0.0
 10
140.155177846034
 20
284.6793340058733
 30
0.0
 10
139.9829661284147
 20
285.1618596106235
 30
0.0
 10
139.8159830806465
 20
285.6616438247627
 30
0.0
 10
139.6549073197723
 20
286.1786860820546
 30
0.0
 10
139.5007451696427
 20
286.7130550325031
 30
0.0
 10
139.3544497033533
 20
287.2647594966622
 30
0.0
 10
139.2170261267751
 20
287.8337834893545
 30
0.0
 10
139.0895025972268
 20
288.420063006789
 30
0.0
 10
138.9729321620103
 20
289.0235266180824
 30
0.0
 10
138.7915455401883
 20
290.1001741135167
 30
0.0
 10
138.6107886921869
 20
291.655098041596
 30
0.0
 10
138.5343978206666
 20
293.6863459942289
 30
0.0
 10
138.6162167313813
 20
295.7058748061976
 30
0.0
 10
138.8497575595059
 20
297.676590450205
 30
0.0
 10
139.2193298652179
 20
299.5635857664901
 30
0.0
 10
139.7026111335195
 20
301.3392133161506
 30
0.0
 10
140.2803796955027
 20
302.9994958826645
 30
0.0
 10
140.9342300792543
 20
304.542219708685
 30
0.0
 10
141.6468912917462
 20
305.9672824540473
 30
0.0
 10
142.7296250213931
 20
307.8436735408607
 30
0.0
 10
144.3148843303877
 20
310.0761405653355
 30
0.0
 10
146.5561733378865
 20
312.4983077988583
 30
0.0
 10
148.9833574204913
 20
314.5425454541075
 30
0.0
 10
151.0012250215415
 20
315.8659986560306
 30
0.0
 10
152.4711039770064
 20
316.6736790074179
 30
0.0
 10
153.3522033314306
 20
317.1151806966476
 30
0.0
 10
154.246557049067
 20
317.5217484037788
 30
0.0
 10
155.152771041772
 20
317.8931394960517
 30
0.0
 10
156.0694215830005
 20
318.2291426262846
 30
0.0
 10
156.9950996109943
 20
318.5296099434531
 30
0.0
 10
157.9284017521756
 20
318.7944492243407
 30
0.0
 10
158.8679354055475
 20
319.0236179320793
 30
0.0
 10
159.8123200027601
 20
319.2171485884271
 30
0.0
 10
160.760189194412
 20
319.3750474876758
 30
0.0
 10
161.7101926907751
 20
319.4976652720936
 30
0.0
 10
162.6609981204851
 20
319.5843169270254
 30
0.0
 10
163.6112927075454
 20
319.6383950800267
 30
0.0
 10
164.244676841634
 20
319.6450678296938
 30
0.0
 10
164.5608092321414
 20
319.6483983082928
 30
0.0
  0
SPLINE
  5
205
330
1F
100
AcDbEntity
  8
0
  6
Continuous
 62
     7
370
    15
100
AcDbSpline
210
0.0
220
0.0
230
1.0
 70
     8
 71
     3
 72
    52
 73
    48
 74
     0
 42
0.00000001
 43
0.00000001
 12
1.0
 22
0.0
 32
0.0
 13
1.0
 23
0.0
 33
0.0
 40
0.0
 40
0.0
 40
0.0
 40
0.0
 40
0.0084661916221675
 40
0.0169463522021199
 40
0.0254410789142347
 40
0.03395096586638
 40
0.042476603997097
 40
0.051018580975892
 40
0.0595774811067002
 40
0.0681538852345571
 40
0.0767483706555501
 40
0.0853615110300599
 40
0.0939938762993326
 40
0.102646032605416
 40
0.1113185422144696
 40
0.1200119634434564
 40
0.1287268505902398
 40
0.1374637538670683
 40
0.1462232193374532
 40
0.155005788856428
 40
0.1638120000141717
 40
0.1726423860829732
 40
0.1814974759675211
 40
0.1903777941584753
 40
0.1992838606892961
 40
0.2082161910962885
 40
0.2171752963818201
 40
0.2261616829806655
 40
0.2351758527294271
 40
0.2442183028389834
 40
0.2532895258699034
 40
0.3110489150192197
 40
0.3719106491224687
 40
0.4359693813802425
 40
0.5033062365467705
 40
0.5723578498001143
 40
0.6550104506561133
 40
0.7512830412891287
 40
0.7927457869645583
 40
0.8342138659040849
 40
0.8756872812025739
 40
0.8964647694535084
 40
0.9172181819336146
 40
0.9379479637992192
 40
0.958654561730676
 40
0.9793384239103234
 40
1.0
 40
1.0
 40
1.0
 40
1.0
 10
164.5608092321414
 20
319.6483983082928
 30
0.0
 10
164.7136603625034
 20
319.6476199641041
 30
0.0
 10
165.0196148229273
 20
319.6460619914824
 30
0.0
 10
165.4787600534435
 20
319.6334467602455
 30
0.0
 10
165.938342008733
 20
319.6132670678286
 30
0.0
 10
166.3982151218021
 20
319.5847521050099
 30
0.0
 10
166.8582326029681
 20
319.5480708717157
 30
0.0
 10
167.3182464761416
 20
319.5031431751816
 30
0.0
 10
167.7781076240334
 20
319.4499591142878
 30
0.0
 10
168.2376658322586
 20
319.388493284865
 30
0.0
 10
168.6967698350273
 20
319.3187278794933
 30
0.0
 10
169.1552673616892
 20
319.2406465244826
 30
0.0
 10
169.6130051843237
 20
319.1542359801938
 30
0.0
 10
170.0698291663134
 20
319.0594857270138
 30
0.0
 10
170.5255843119087
 20
318.9563881187096
 30
0.0
 10
170.9801148167729
 20
318.8449383822792
 30
0.0
 10
171.4332641194957
 20
318.7251346580584
 30
0.0
 10
171.8848749540726
 20
318.5969780279558
 30
0.0
 10
172.334789403327
 20
318.4604725458083
 30
0.0
 10
172.7828489533022
 20
318.3156252660319
 30
0.0
 10
173.2288945484747
 20
318.1624462716675
 30
0.0
 10
173.6727666482928
 20
318.0009487011087
 30
0.0
 10
174.1143052830918
 20
317.8311487751117
 30
0.0
 10
174.553350116628
 20
317.6530658182189
 30
0.0
 10
174.9897404880298
 20
317.4667222964039
 30
0.0
 10
175.4233155350489
 20
317.2721437890938
 30
0.0
 10
175.8539140166393
 20
317.0693592022348
 30
0.0
 10
176.2813752667231
 20
316.8584000726509
 30
0.0
 10
176.7055359109349
 20
316.6393032740684
 30
0.0
 10
177.1262424734467
 20
316.41210096368
 30
0.0
 10
178.2890110269114
 20
315.7562446669568
 30
0.0
 10
180.1592095438133
 20
314.5264621258202
 30
0.0
 10
182.5775234157219
 20
312.4862232855154
 30
0.0
 10
184.8111633742548
 20
310.070014465406
 30
0.0
 10
186.7735682038291
 20
307.3058067912339
 30
0.0
 10
188.4799326592734
 20
304.0717714922918
 30
0.0
 10
189.8510539585
 20
300.2019530936693
 30
0.0
 10
190.4672827040134
 20
296.6252501472686
 30
0.0
 10
190.5872119103382
 20
293.6993609113208
 30
0.0
 10
190.5117446911813
 20
291.6666147539615
 30
0.0
 10
190.3167537083318
 20
289.9829918142704
 30
0.0
 10
190.0819869124086
 20
288.6467657470157
 30
0.0
 10
189.8661385270299
 20
287.6495803504273
 30
0.0
 10
189.611291314457
 20
286.6606949001504
 30
0.0
 10
189.3167652902592
 20
285.6818425369728
 30
0.0
 10
188.9863895732065
 20
284.7133855145241
 30
0.0
 10
188.7337176260473
 20
284.0784005263253
 30
0.0
 10
188.6074497503037
 20
283.7610791675817
 30
0.0
  0
ARC
  5
206
330
1F
100
AcDbEntity
  8
0
  6
Continuous
 62
     7
370
    15
100
AcDbCircle
 10
164.5608092321
 20
293.6483983083
 30
0.0
 40
26.00000000000002
100
AcDbArc
 50
334.3639975582
 51
346.416543336
  0
ARC
  5
207
330
1F
100
AcDbEntity
  8
0
  6
Continuous
 62
     7
370
    15
100
AcDbCircle
 10
164.5608092321
 20
293.6483983083
 30
0.0
 40
25.99999999999998
100
AcDbArc
 50
78.450870405
 51
90.0
  0
ARC
  5
208
330
1F
100
AcDbEntity
  8
0
  6
Continuous
 62
     7
370
    15
100
AcDbCircle
 10
164.5608092321
 20
293.6483983083
 30
0.0
 40
26.00000000000002
100
AcDbArc
 50
193.2745476734
 51
205.9276640561
  0
SPLINE
  5
209
330
1F
100
AcDbEntity
  8
0
  6
Continuous
 62
     7
370
     0
100
AcDbSpline
210
0.0
220
0.0
230
1.0
 70
     8
 71
     3
 72
    16
 73
    12
 74
     0
 42
0.00000001
 43
0.00000001
 12
1.0
 22
0.0
 32
0.0
 13
1.0
 23
0.0
 33
0.0
 40
0.0
 40
0.0
 40
0.0
 40
0.0
 40
0.1719415604185756
 40
0.3139861572056791
 40
0.4310914297625804
 40
0.5282640520886477
 40
0.6105408639234482
 40
0.6829244294901509
 40
0.7882743319942848
 40
0.8988789874116514
 40
1.0
 40
1.0
 40
1.0
 40
1.0
 10
144.4143424405116
 20
260.4746424090232
 30
0.0
 10
144.393529624729
 20
261.8803393863148
 30
0.0
 10
144.3555228971391
 20
264.447312670848
 30
0.0
 10
144.1804299786943
 20
267.9960842981188
 30
0.0
 10
143.9244589113367
 20
270.9468451795852
 30
0.0
 10
143.5864266863688
 20
273.4168162711647
 30
0.0
 10
143.1707128820212
 20
275.5208407662687
 30
0.0
 10
142.5977055478368
 20
277.6899973449681
 30
0.0
 10
141.7825115094446
 20
280.0762829972659
 30
0.0
 10
140.7910283450833
 20
282.6814377703558
 30
0.0
 10
140.2244911837844
 20
284.4359910264051
 30
0.0
 10
139.9539108051318
 20
285.273972569045
 30
0.0
  0
SPLINE
  5
20A
330
1F
100
AcDbEntity
  8
0
  6
Continuous
 62
     7
370
     0
100
AcDbSpline
210
0.0
220
0.0
230
1.0
 70
     8
 71
     3
 72
    29
 73
    25
 74
     0
 42
0.00000001
 43
0.00000001
 12
1.0
 22
0.0
 32
0.0
 13
1.0
 23
0.0
 33
0.0
 40
0.0
 40
0.0
 40
0.0
 40
0.0
 40
0.0411994358189736
 40
0.0822308400756164
 40
0.1231046804218894
 40
0.1637734136496281
 40
0.2042119674800696
 40
0.2443483970299019
 40
0.2841205313305223
 40
0.3234591002528178
 40
0.36230244610694
 40
0.4006029748353428
 40
0.438315657310538
 40
0.4754419594800588
 40
0.511962116614503
 40
0.5478413136126614
 40
0.5830612656564172
 40
0.6176296361091128
 40
0.6934677949053265
 40
0.7673453374528928
 40
0.8406496872382981
 40
0.9142305364002579
 40
0.988945430616018
 40
1.0
 40
1.0
 40
1.0
 40
1.0
 10
184.7073670036494
 20
260.4745730177606
 30
0.0
 10
184.7110336609492
 20
260.8217968906369
 30
0.0
 10
184.718352021117
 20
261.5148284866612
 30
0.0
 10
184.7367867838614
 20
262.5539673431649
 30
0.0
 10
184.7608064848078
 20
263.5896997800587
 30
0.0
 10
184.7928001196529
 20
264.6221563318938
 30
0.0
 10
184.8322263318371
 20
265.6497354991186
 30
0.0
 10
184.8808514299287
 20
266.6715004799506
 30
0.0
 10
184.939275022845
 20
267.685670266057
 30
0.0
 10
185.0087965147579
 20
268.6907354029457
 30
0.0
 10
185.0907330347113
 20
269.68522465225
 30
0.0
 10
185.1862325368627
 20
270.6677420555602
 30
0.0
 10
185.2977235002472
 20
271.6376515408283
 30
0.0
 10
185.4263671589175
 20
272.5940685686532
 30
0.0
 10
185.5741821217532
 20
273.5362763595275
 30
0.0
 10
185.7430260648985
 20
274.4631734936586
 30
0.0
 10
185.9344086005877
 20
275.3736868688071
 30
0.0
 10
186.2355280761236
 20
276.6278624565456
 30
0.0
 10
186.6970213496776
 20
278.2112219469759
 30
0.0
 10
187.3627183578491
 20
280.1121733242828
 30
0.0
 10
188.0587205104718
 20
281.9866465099764
 30
0.0
 10
188.7312843169788
 20
283.8726794092214
 30
0.0
 10
189.1755624711209
 20
285.2346808113828
 30
0.0
 10
189.4009652761208
 20
285.9692523145818
 30
0.0
 10
189.4300167688391
 20
286.0639290364452
 30
0.0
  0
LINE
  5
20B
330
1F
100
AcDbEntity
  8
0
  6
Continuous
 62
     7
370
    15
100
AcDbLine
 10
164.5608092321
 20
319.7483975869
 30
0.0
 11
162.4782730023
 21
319.6651820522
 31
0.0
  0
LWPOLYLINE
  5
20C
330
1F
100
AcDbEntity
  8
0
  6
Continuous
 62
     7
370
    15
100
AcDbPolyline
 90
        3
 70
   128
 43
0.0
 10
139.4523824228
 20
286.5226041954
 10
139.9254551752
 20
285.0281145852
 10
140.5607550068
 20
283.3913337868
  0
LWPOLYLINE
  5
20D
330
1F
100
AcDbEntity
  8
0
  6
Continuous
 62
     7
370
    15
100
AcDbPolyline
 90
        3
 70
   128
 43
0.0
 10
188.4956820531
 20
283.2401372921
 10
189.1961632891
 20
285.0281145852
 10
189.7023743613
 20
286.6404239517
  0
LINE
  5
20E
330
1F
100
AcDbEntity
  8
0
  6
Continuous
 62
     7
370
    15
100
AcDbLine
 10
166.766065372
 20
319.655067889
 30
0.0
 11
164.5608092321
 21
319.7483975869
 31
0.0
  0
SPLINE
  5
20F
330
1F
100
AcDbEntity
  8
0
  6
Continuous
 62
     8
370
     0
100
AcDbSpline
210
0.0
220
0.0
230
1.0
 70
     8
 71
     3
 72
    56
 73
    52
 74
     0
 42
0.00000001
 43
0.00000001
 12
1.0
 22
0.0
 32
0.0
 13
1.0
 23
0.0
 33
0.0
 40
0.0
 40
0.0
 40
0.0
 40
0.0
 40
0.009863127408296
 40
0.0197850007549858
 40
0.029785297318514
 40
0.0398832376026779
 40
0.0500975538331585
 40
0.0604465585646549
 40
0.0709483301718931
 40
0.0816100649958
 40
0.0924265523392057
 40
0.1033914780739632
 40
0.1144977969794142
 40
0.125737704557254
 40
0.1371083051462849
 40
0.1486157573069306
 40
0.1602628706228552
 40
0.1720528219828961
 40
0.183989230108941
 40
0.1960761807364732
 40
0.2083182513285977
 40
0.2207205350304941
 40
0.23328866354467
 40
0.2460288285837386
 40
0.2589468410700048
 40
0.2720390319479906
 40
0.2852979649862415
 40
0.2987159910158927
 40
0.3122849521570555
 40
0.3259962213604404
 40
0.3398407504508787
 40
0.3538091276413168
 40
0.3678916456042201
 40
0.3820805604117669
 40
0.3964141607255161
 40
0.4109112963722422
 40
0.4255742177922904
 40
0.4404054829751825
 40
0.4554079966386884
 40
0.4705850522498688
 40
0.4859403768207112
 40
0.5014781783665189
 40
0.6022532110695167
 40
0.7507887079299262
 40
0.7727297290895285
 40
0.7992871309545525
 40
0.8304019185790871
 40
0.8659290000007455
 40
0.9060452218438382
 40
0.9507344791492941
 40
1.0
 40
1.0
 40
1.0
 40
1.0
 10
164.558700152071
 20
213.4305864797483
 30
0.0
 10
164.4662989978206
 20
213.4313317617533
 30
0.0
 10
164.2809463372569
 20
213.43282676475
 30
0.0
 10
164.0021436313296
 20
213.4441012176124
 30
0.0
 10
163.7215498303107
 20
213.4613452253501
 30
0.0
 10
163.4387437973201
 20
213.4846646389796
 30
0.0
 10
163.1532550036704
 20
213.5132100259683
 30
0.0
 10
162.8645654606712
 20
213.5462911519248
 30
0.0
 10
162.5721948193604
 20
213.5830572578194
 30
0.0
 10
162.2762336416816
 20
213.6249078292147
 30
0.0
 10
161.9768119454579
 20
213.6718255579844
 30
0.0
 10
161.6742411998542
 20
213.72406772157
 30
0.0
 10
161.3688579629539
 20
213.7818152607186
 30
0.0
 10
161.0609818950033
 20
213.8452770551694
 30
0.0
 10
160.7508321245238
 20
213.9147117151067
 30
0.0
 10
160.4385471366484
 20
213.990401070173
 30
0.0
 10
160.1242163293126
 20
214.0726091108095
 30
0.0
 10
159.8079707457567
 20
214.1616075203487
 30
0.0
 10
159.4899459059165
 20
214.2576711787337
 30
0.0
 10
159.1702823396669
 20
214.3610815362399
 30
0.0
 10
158.8491254069556
 20
214.4721256479801
 30
0.0
 10
158.5266255136184
 20
214.5910964431893
 30
0.0
 10
158.202937877179
 20
214.7182922385555
 30
0.0
 10
157.8782318311489
 20
214.8540145180114
 30
0.0
 10
157.5527708850959
 20
214.9985244022483
 30
0.0
 10
157.2270003527221
 20
215.1521088752681
 30
0.0
 10
156.9013894136415
 20
215.3148102545099
 30
0.0
 10
156.5764712965585
 20
215.4866776570289
 30
0.0
 10
156.2527979647872
 20
215.6677417760981
 30
0.0
 10
155.9309486192057
 20
215.8580238798386
 30
0.0
 10
155.6115272578374
 20
216.0575314606864
 30
0.0
 10
155.2951682168758
 20
216.2662640564392
 30
0.0
 10
154.9825015258421
 20
216.4842043637177
 30
0.0
 10
154.6738909997564
 20
216.7116414841159
 30
0.0
 10
154.3693153224228
 20
216.9487898067071
 30
0.0
 10
154.06877792023
 20
217.1960096423736
 30
0.0
 10
153.7726220208987
 20
217.4535232099291
 30
0.0
 10
153.4813121917702
 20
217.7214412561473
 30
0.0
 10
153.1953295117166
 20
217.9998726723134
 30
0.0
 10
152.9151754965594
 20
218.2889206325682
 30
0.0
 10
152.641341377617
 20
218.5886805110666
 30
0.0
 10
151.8874758056585
 20
219.4658573638652
 30
0.0
 10
150.5881362011284
 20
221.3790397655532
 30
0.0
 10
149.7968424072498
 20
223.5895762977177
 30
0.0
 10
149.5446036912391
 20
225.2322299590831
 30
0.0
 10
149.4748457128605
 20
225.8998018826005
 30
0.0
 10
149.4321524587907
 20
226.6835944968007
 30
0.0
 10
149.3902972789356
 20
227.581604540931
 30
0.0
 10
149.3497825824317
 20
228.5941224059517
 30
0.0
 10
149.3102821201878
 20
229.7224208139989
 30
0.0
 10
149.2845015064017
 20
230.5131882375541
 30
0.0
 10
149.2709833502104
 20
230.9278299381439
 30
0.0
  0
SPLINE
  5
210
330
1F
100
AcDbEntity
  8
0
  6
Continuous
 62
     8
370
     0
100
AcDbSpline
210
0.0
220
0.0
230
1.0
 70
     8
 71
     3
 72
     8
 73
     4
 74
     0
 42
0.00000001
 43
0.00000001
 12
1.0
 22
0.0
 32
0.0
 13
1.0
 23
0.0
 33
0.0
 40
0.0
 40
0.0
 40
0.0
 40
0.0
 40
1.0
 40
1.0
 40
1.0
 40
1.0
 10
180.7162040114717
 20
259.7688784943266
 30
0.0
 10
180.7147641535799
 20
259.7393727801368
 30
0.0
 10
180.7133325979253
 20
259.7098682077692
 30
0.0
 10
180.7119092223639
 20
259.6803648326767
 30
0.0
  0
SPLINE
  5
211
330
1F
100
AcDbEntity
  8
0
  6
Continuous
 62
     8
370
     0
100
AcDbSpline
210
0.0
220
0.0
230
1.0
 70
     8
 71
     3
 72
     8
 73
     4
 74
     0
 42
0.00000001
 43
0.00000001
 12
1.0
 22
0.0
 32
0.0
 13
1.0
 23
0.0
 33
0.0
 40
0.0
 40
0.0
 40
0.0
 40
0.0
 40
1.0
 40
1.0
 40
1.0
 40
1.0
 10
180.7119794930308
 20
259.6812848269802
 30
0.0
 10
180.7076010002105
 20
259.5926471123934
 30
0.0
 10
180.7032974982903
 20
259.5040065254332
 30
0.0
 10
180.6990669510873
 20
259.4153631729409
 30
0.0
  0
SPLINE
  5
212
330
1F
100
AcDbEntity
  8
0
  6
Continuous
 62
     8
370
     0
100
AcDbSpline
210
0.0
220
0.0
230
1.0
 70
     8
 71
     3
 72
     8
 73
     4
 74
     0
 42
0.00000001
 43
0.00000001
 12
1.0
 22
0.0
 32
0.0
 13
1.0
 23
0.0
 33
0.0
 40
0.0
 40
0.0
 40
0.0
 40
0.0
 40
1.0
 40
1.0
 40
1.0
 40
1.0
 10
180.6990669510872
 20
259.4153631729411
 30
0.0
 10
180.6975871094698
 20
259.3854272060366
 30
0.0
 10
180.6961155896894
 20
259.3554909037796
 30
0.0
 10
180.6946523133838
 20
259.3255542723635
 30
0.0
  0
SPLINE
  5
213
330
1F
100
AcDbEntity
  8
0
  6
Continuous
 62
     8
370
     0
100
AcDbSpline
210
0.0
220
0.0
230
1.0
 70
     8
 71
     3
 72
    12
 73
     8
 74
     0
 42
0.00000001
 43
0.00000001
 12
1.0
 22
0.0
 32
0.0
 13
1.0
 23
0.0
 33
0.0
 40
0.0
 40
0.0
 40
0.0
 40
0.0
 40
0.2500000000000002
 40
0.2500000000000002
 40
0.5000000000000003
 40
0.5000000000000003
 40
1.0
 40
1.0
 40
1.0
 40
1.0
 10
180.69466425872
 20
259.3255795417201
 30
0.0
 10
180.5780891975123
 20
256.9707040028808
 30
0.0
 10
180.5199262352634
 20
254.6141333225336
 30
0.0
 10
180.4071016111457
 20
249.8942879586992
 30
0.0
 10
180.3442984512093
 20
247.5345457094648
 30
0.0
 10
180.1466170721839
 20
240.4558971760544
 30
0.0
 10
180.0035801030203
 20
235.7371069822055
 30
0.0
 10
179.8493029325283
 20
231.0184331684997
 30
0.0
  0
LINE
  5
214
330
1F
100
AcDbEntity
  8
0
  6
Continuous
 62
     8
370
     0
100
AcDbLine
 10
179.8493028282
 20
231.018436743
 30
0.0
 11
179.846348673
 21
230.9283443224
 31
0.0
  0
LINE
  5
215
330
1F
100
AcDbEntity
  8
0
  6
Continuous
 62
     8
370
     0
100
AcDbLine
 10
149.2709838448
 20
230.9278153312
 30
0.0
 11
149.2680259643
 21
231.0180344116
 31
0.0
  0
SPLINE
  5
216
330
1F
100
AcDbEntity
  8
0
  6
Continuous
 62
     8
370
     0
100
AcDbSpline
210
0.0
220
0.0
230
1.0
 70
     8
 71
     3
 72
    12
 73
     8
 74
     0
 42
0.00000001
 43
0.00000001
 12
1.0
 22
0.0
 32
0.0
 13
1.0
 23
0.0
 33
0.0
 40
0.0
 40
0.0
 40
0.0
 40
0.0
 40
0.5
 40
0.5
 40
0.75
 40
0.75
 40
1.0
 40
1.0
 40
1.0
 40
1.0
 10
149.2680255007852
 20
231.0180334333212
 30
0.0
 10
149.1137962393784
 20
235.7367021665867
 30
0.0
 10
148.9708022146297
 20
240.4554826038268
 30
0.0
 10
148.7731861325066
 20
247.5341182841972
 30
0.0
 10
148.7104044809215
 20
249.8938582723186
 30
0.0
 10
148.5976223904464
 20
254.6136955703444
 30
0.0
 10
148.539482025584
 20
256.9702137112489
 30
0.0
 10
148.4229294096288
 20
259.3250475312026
 30
0.0
  0
SPLINE
  5
217
330
1F
100
AcDbEntity
  8
0
  6
Continuous
 62
     8
370
     0
100
AcDbSpline
210
0.0
220
0.0
230
1.0
 70
     8
 71
     3
 72
     8
 73
     4
 74
     0
 42
0.00000001
 43
0.00000001
 12
1.0
 22
0.0
 32
0.0
 13
1.0
 23
0.0
 33
0.0
 40
0.0
 40
0.0
 40
0.0
 40
0.0
 40
1.0
 40
1.0
 40
1.0
 40
1.0
 10
148.4229416632498
 20
259.3250219042787
 30
0.0
 10
148.4214778866882
 20
259.35497579179
 30
0.0
 10
148.4200058643688
 20
259.384929201915
 30
0.0
 10
148.4185255180927
 20
259.4148821273891
 30
0.0
  0
SPLINE
  5
218
330
1F
100
AcDbEntity
  8
0
  6
Continuous
 62
     8
370
     0
100
AcDbSpline
210
0.0
220
0.0
230
1.0
 70
     8
 71
     3
 72
     8
 73
     4
 74
     0
 42
0.00000001
 43
0.00000001
 12
1.0
 22
0.0
 32
0.0
 13
1.0
 23
0.0
 33
0.0
 40
0.0
 40
0.0
 40
0.0
 40
0.0
 40
1.0
 40
1.0
 40
1.0
 40
1.0
 10
148.418525518093
 20
259.414882127382
 30
0.0
 10
148.4142452305248
 20
259.5035005780902
 30
0.0
 10
148.4098920903147
 20
259.5921149023415
 30
0.0
 10
148.405464070487
 20
259.6807249643686
 30
0.0
  0
SPLINE
  5
219
330
1F
100
AcDbEntity
  8
0
  6
Continuous
 62
     8
370
     0
100
AcDbSpline
210
0.0
220
0.0
230
1.0
 70
     8
 71
     3
 72
     8
 73
     4
 74
     0
 42
0.00000001
 43
0.00000001
 12
1.0
 22
0.0
 32
0.0
 13
1.0
 23
0.0
 33
0.0
 40
0.0
 40
0.0
 40
0.0
 40
0.0
 40
1.0
 40
1.0
 40
1.0
 40
1.0
 10
148.4055357007047
 20
259.6798070384313
 30
0.0
 10
148.4040662022281
 20
259.7099133399365
 30
0.0
 10
148.4025881746738
 20
259.7400197425499
 30
0.0
 10
148.4011014963382
 20
259.7701261689497
 30
0.0
  0
SPLINE
  5
21A
330
1F
100
AcDbEntity
  8
0
  6
Continuous
 62
     8
370
     0
100
AcDbSpline
210
0.0
220
0.0
230
1.0
 70
     8
 71
     3
 72
    21
 73
    17
 74
     0
 42
0.00000001
 43
0.00000001
 12
1.0
 22
0.0
 32
0.0
 13
1.0
 23
0.0
 33
0.0
 40
0.0
 40
0.0
 40
0.0
 40
0.0
 40
0.0306975117820855
 40
0.0825806572861118
 40
0.1555833990159659
 40
0.2496012574775721
 40
0.364552427158511
 40
0.5005859837884336
 40
0.6062737747115253
 40
0.6993974674351228
 40
0.7804529747430031
 40
0.8493486084667455
 40
0.9057926609381739
 40
0.9497138621514035
 40
0.9811165645984629
 40
0.9999999999999999
 40
0.9999999999999999
 40
0.9999999999999999
 40
0.9999999999999999
 10
148.401101494067
 20
259.7701261684816
 30
0.0
 10
148.3863536636977
 20
260.0365682105356
 30
0.0
 10
148.3466799098742
 20
260.7533350650502
 30
0.0
 10
148.2641300552476
 20
262.1038081169534
 30
0.0
 10
148.1228279028043
 20
264.002630497744
 30
0.0
 10
147.8861838461742
 20
266.4450138636453
 30
0.0
 10
147.4899675385507
 20
269.4239305808413
 30
0.0
 10
146.8601223688269
 20
272.4769492597734
 30
0.0
 10
145.9765969855902
 20
275.2814822397356
 30
0.0
 10
145.0289300006287
 20
277.562294935977
 30
0.0
 10
144.1114438456721
 20
279.5079567414472
 30
0.0
 10
143.3266244392985
 20
281.1577219999312
 30
0.0
 10
142.6944330185017
 20
282.5150133873284
 30
0.0
 10
142.2184430440226
 20
283.5775239474966
 30
0.0
 10
141.8899565630895
 20
284.3413163783962
 30
0.0
 10
141.7189975359742
 20
284.7502911549212
 30
0.0
 10
141.6547990533912
 20
284.9038692403296
 30
0.0
  0
SPLINE
  5
21B
330
1F
100
AcDbEntity
  8
0
  6
Continuous
 62
     8
370
     0
100
AcDbSpline
210
0.0
220
0.0
230
1.0
 70
     8
 71
     3
 72
     8
 73
     4
 74
     0
 42
0.00000001
 43
0.00000001
 12
1.0
 22
0.0
 32
0.0
 13
1.0
 23
0.0
 33
0.0
 40
0.0
 40
0.0
 40
0.0
 40
0.0
 40
1.0
 40
1.0
 40
1.0
 40
1.0
 10
187.4957712137422
 20
284.98337236509
 30
0.0
 10
187.4844840733818
 20
284.9560880735557
 30
0.0
 10
187.4731447324888
 20
284.9288139688567
 30
0.0
 10
187.4617531484275
 20
284.9015500581706
 30
0.0
  0
SPLINE
  5
21C
330
1F
100
AcDbEntity
  8
0
  6
Continuous
 62
     8
370
     0
100
AcDbSpline
210
0.0
220
0.0
230
1.0
 70
     8
 71
     3
 72
    10
 73
     6
 74
     0
 42
0.00000001
 43
0.00000001
 12
1.0
 22
0.0
 32
0.0
 13
1.0
 23
0.0
 33
0.0
 40
0.0
 40
0.0
 40
0.0
 40
0.0
 40
0.168433929226899
 40
0.7247279782473182
 40
1.0
 40
1.0
 40
1.0
 40
1.0
 10
147.3490756842921
 20
105.1871646818376
 30
0.0
 10
147.3145186706415
 20
106.3929337222778
 30
0.0
 10
147.165828708042
 20
111.5810485096157
 30
0.0
 10
146.9714090564609
 20
118.7399949801
 30
0.0
 10
146.8190155255773
 20
124.6933936709614
 30
0.0
 10
146.7685689323085
 20
126.6641379708215
 30
0.0
  0
SPLINE
  5
21D
330
1F
100
AcDbEntity
  8
0
  6
Continuous
 62
     8
370
     0
100
AcDbSpline
210
0.0
220
0.0
230
1.0
 70
     8
 71
     3
 72
    41
 73
    37
 74
     0
 42
0.00000001
 43
0.00000001
 12
1.0
 22
0.0
 32
0.0
 13
1.0
 23
0.0
 33
0.0
 40
0.0
 40
0.0
 40
0.0
 40
0.0
 40
0.0102484668042712
 40
0.020149390494297
 40
0.0297071982124616
 40
0.0389256313057566
 40
0.0478076938011527
 40
0.0563556152970094
 40
0.0645708914673625
 40
0.0724559109983074
 40
0.1165437695368028
 40
0.1417391193544006
 40
0.1554572993141922
 40
0.1814219204177133
 40
0.2201407666675695
 40
0.269730530892324
 40
0.2994988375969487
 40
0.3285191885311276
 40
0.3841027491997565
 40
0.4099544769718744
 40
0.4400469102027988
 40
0.4756193603311745
 40
0.4941679956432418
 40
0.5102123644929453
 40
0.5449932043311031
 40
0.5742596979786164
 40
0.5884452855890846
 40
0.5968542909237404
 40
0.617617136220658
 40
0.6399262108541484
 40
0.6664117537917755
 40
0.708262376595433
 40
0.757574249872918
 40
0.8244339815004423
 40
0.881619905798259
 40
1.0
 40
1.0
 40
1.0
 40
1.0
 10
164.5608096014416
 20
75.91700693653291
 30
0.0
 10
164.4164930688011
 20
75.91798425789345
 30
0.0
 10
164.1327540250504
 20
75.91990575796831
 30
0.0
 10
163.7146707495055
 20
75.93409168030773
 30
0.0
 10
163.3115422195164
 20
75.95571274418275
 30
0.0
 10
162.9233785412504
 20
75.9847571293455
 30
0.0
 10
162.5501786242563
 20
76.02021649270729
 30
0.0
 10
162.1919423880605
 20
76.06136034088087
 30
0.0
 10
161.8486281019975
 20
76.1073964528041
 30
0.0
 10
161.0130910346141
 20
76.23511603629376
 30
0.0
 10
159.9534714636446
 20
76.46265647480247
 30
0.0
 10
158.843894834422
 20
76.79456254927511
 30
0.0
 10
157.9915072674355
 20
77.09035306228054
 30
0.0
 10
156.9814307717157
 20
77.492488837758
 30
0.0
 10
155.5630878147236
 20
78.17985368016936
 30
0.0
 10
154.18992300934
 20
79.02986893524685
 30
0.0
 10
153.0240912499337
 20
79.91691509233961
 30
0.0
 10
151.8739788503697
 20
80.9315673294051
 30
0.0
 10
150.8836257148203
 20
82.01704651009645
 30
0.0
 10
150.0223156211472
 20
83.19824209554824
 30
0.0
 10
149.3970222668922
 20
84.21249942695297
 30
0.0
 10
148.9156910831801
 20
85.18852892858334
 30
0.0
 10
148.5830569094009
 20
86.02512241523291
 30
0.0
 10
148.2991781031449
 20
86.8654319198009
 30
0.0
 10
148.0475246338448
 20
87.85578149868839
 30
0.0
 10
147.9191694760693
 20
88.84043718357599
 30
0.0
 10
147.8696024302004
 20
89.49534695850686
 30
0.0
 10
147.8360207645183
 20
90.04326857609965
 30
0.0
 10
147.8054646582571
 20
90.69434519783759
 30
0.0
 10
147.7708698546838
 20
91.57409762337981
 30
0.0
 10
147.7285862206658
 20
92.72070386935222
 30
0.0
 10
147.6777941085925
 20
94.20885231306254
 30
0.0
 10
147.6150304016787
 20
96.20805300831414
 30
0.0
 10
147.5487091280328
 20
98.40121200209364
 30
0.0
 10
147.4572544670488
 20
101.4682474739163
 30
0.0
 10
147.3926664104811
 20
103.6894543386028
 30
0.0
 10
147.3491161819908
 20
105.1871626088613
 30
0.0
  0
SPLINE
  5
21E
330
1F
100
AcDbEntity
  8
0
  6
Continuous
 62
     8
370
     0
100
AcDbSpline
210
0.0
220
0.0
230
1.0
 70
     8
 71
     3
 72
    67
 73
    63
 74
     0
 42
0.00000001
 43
0.00000001
 12
1.0
 22
0.0
 32
0.0
 13
1.0
 23
0.0
 33
0.0
 40
0.0
 40
0.0
 40
0.0
 40
0.0
 40
0.0098281262183326
 40
0.0195969696181547
 40
0.0293111685122148
 40
0.0389754495956424
 40
0.0485945957383477
 40
0.0581734106520398
 40
0.0677166818318021
 40
0.077229145275071
 40
0.0867083122099884
 40
0.0961021298581202
 40
0.1054040322231618
 40
0.1146196822690062
 40
0.1237545843746127
 40
0.132813941007527
 40
0.1418026443769042
 40
0.1507254002617857
 40
0.159586720948155
 40
0.1683909499023758
 40
0.1771422868953189
 40
0.1858448126204707
 40
0.1945025119387744
 40
0.2031192950135274
 40
0.2116990157755495
 40
0.2202414798824875
 40
0.2287082222368064
 40
0.2370918525348359
 40
0.2453963242983137
 40
0.2536253870006952
 40
0.2617826271172271
 40
0.2698715019786752
 40
0.2778953642939415
 40
0.2858574796268465
 40
0.2937610382343656
 40
0.3016091620813911
 40
0.3094049075029382
 40
0.3171512638691998
 40
0.3248511487189753
 40
0.332507367299629
 40
0.3401225550247041
 40
0.3476908122906541
 40
0.3551770799342753
 40
0.362580255004902
 40
0.3699036056858421
 40
0.377150220028046
 40
0.3843230289147771
 40
0.3914248264032187
 40
0.4338505481673944
 40
0.4890541471556571
 40
0.5136472943195229
 40
0.5381898200612978
 40
0.5627901498095947
 40
0.5872628359291122
 40
0.6162709479843473
 40
0.6586254686784738
 40
0.7144061857683086
 40
0.7836285060981042
 40
0.8359810240630546
 40
0.8894930536339215
 40
0.9441658028994686
 40
1.0
 40
1.0
 40
1.0
 40
1.0
 10
164.5608088665906
 20
75.91701068018061
 30
0.0
 10
164.6992189127727
 20
75.91791594671169
 30
0.0
 10
164.9752041219185
 20
75.91972101924644
 30
0.0
 10
165.3877678823101
 20
75.93328613203302
 30
0.0
 10
165.7975736197532
 20
75.9548273859208
 30
0.0
 10
166.2045919286008
 20
75.98509947755863
 30
0.0
 10
166.6087949963945
 20
76.02387598147541
 30
0.0
 10
167.0101558736107
 20
76.07117562194179
 30
0.0
 10
167.4086485020151
 20
76.1269379133703
 30
0.0
 10
167.8041486088543
 20
76.19109401009727
 30
0.0
 10
168.1957537719827
 20
76.26340728356907
 30
0.0
 10
168.5824339909365
 20
76.34351078769203
 30
0.0
 10
168.9633067082295
 20
76.4309661886309
 30
0.0
 10
169.3383018284742
 20
76.52547167937965
 30
0.0
 10
169.707523916272
 20
76.62676885396152
 30
0.0
 10
170.0710744631734
 20
76.73462169269676
 30
0.0
 10
170.42905200712
 20
76.84880945399622
 30
0.0
 10
170.7815516689931
 20
76.96912821429666
 30
0.0
 10
171.1286639380777
 20
77.09539503663143
 30
0.0
 10
171.4704730241828
 20
77.22744852644212
 30
0.0
 10
171.8070555379196
 20
77.36514960719661
 30
0.0
 10
172.1384794215613
 20
77.50838152746975
 30
0.0
 10
172.4648031427766
 20
77.65704926221018
 30
0.0
 10
172.7860750421402
 20
77.81107858237826
 30
0.0
 10
173.1022842240648
 20
77.97038893750394
 30
0.0
 10
173.4128982538748
 20
78.13464345666426
 30
0.0
 10
173.7172786679229
 20
78.30338806727407
 30
0.0
 10
174.0148777691894
 20
78.47614443103973
 30
0.0
 10
174.3056680198348
 20
78.65270644925798
 30
0.0
 10
174.5897570278079
 20
78.83294692584123
 30
0.0
 10
174.8672496470556
 20
79.01674194958244
 30
0.0
 10
175.1382488612627
 20
79.2039715657577
 30
0.0
 10
175.402855564249
 20
79.39452129722405
 30
0.0
 10
175.661167727114
 20
79.5882836370946
 30
0.0
 10
175.9132791498976
 20
79.78515939044523
 30
0.0
 10
176.1592780659788
 20
79.98505862067302
 30
0.0
 10
176.3992458503417
 20
80.18790103807211
 30
0.0
 10
176.6332559529311
 20
80.39361581270447
 30
0.0
 10
176.8613732012916
 20
80.60214024208007
 30
0.0
 10
177.0836523416836
 20
80.81341812266865
 30
0.0
 10
177.3000608317695
 20
81.02731729904231
 30
0.0
 10
177.5102208018039
 20
81.24334278813727
 30
0.0
 10
177.7137712782071
 20
81.46092554288396
 30
0.0
 10
177.9104631105008
 20
81.67957202368542
 30
0.0
 10
178.1004049871312
 20
81.89915632516816
 30
0.0
 10
178.2837395319705
 20
82.11959853182779
 30
0.0
 10
178.4606068335843
 20
82.34082668668272
 30
0.0
 10
178.9143722244312
 20
82.93136448229491
 30
0.0
 10
179.6735201227184
 20
84.07119899826095
 30
0.0
 10
180.3593633304035
 20
85.49736524419683
 30
0.0
 10
180.7902494755055
 20
86.7607973708715
 30
0.0
 10
181.0255049555101
 20
87.67071010476444
 30
0.0
 10
181.1790844375691
 20
88.59316482301155
 30
0.0
 10
181.2627437910667
 20
89.57913828018776
 30
0.0
 10
181.3219713390433
 20
90.79106902430051
 30
0.0
 10
181.3816804985795
 20
92.39948700714868
 30
0.0
 10
181.454556575459
 20
94.5166683224076
 30
0.0
 10
181.5232789536616
 20
96.76064058984146
 30
0.0
 10
181.5901255087061
 20
98.97594169180748
 30
0.0
 10
181.6504581809496
 20
101.0071713342601
 30
0.0
 10
181.71156199588
 20
103.082470180006
 30
0.0
 10
181.7520527438633
 20
104.4807080106659
 30
0.0
 10
181.7725109003682
 20
105.1871747912415
 30
0.0
  0
SPLINE
  5
21F
330
1F
100
AcDbEntity
  8
0
  6
Continuous
 62
     8
370
     0
100
AcDbSpline
210
0.0
220
0.0
230
1.0
 70
     8
 71
     3
 72
    10
 73
     6
 74
     0
 42
0.00000001
 43
0.00000001
 12
1.0
 22
0.0
 32
0.0
 13
1.0
 23
0.0
 33
0.0
 40
0.0
 40
0.0
 40
0.0
 40
0.0
 40
0.3141858682607901
 40
0.6475246636078257
 40
0.9999999999999999
 40
0.9999999999999999
 40
0.9999999999999999
 40
0.9999999999999999
 10
181.7725109003682
 20
105.1871747912415
 30
0.0
 10
181.8366481003916
 20
107.4363396715322
 30
0.0
 10
181.968832336111
 20
112.0717796439624
 30
0.0
 10
182.1624057258308
 20
119.2307320125467
 30
0.0
 10
182.2883220668315
 20
124.1406003941569
 30
0.0
 10
182.3530369838877
 20
126.6640355777695
 30
0.0
  0
SPLINE
  5
220
330
1F
100
AcDbEntity
  8
0
  6
Continuous
 62
     8
370
     0
100
AcDbSpline
210
0.0
220
0.0
230
1.0
 70
     8
 71
     3
 72
     8
 73
     4
 74
     0
 42
0.00000001
 43
0.00000001
 12
1.0
 22
0.0
 32
0.0
 13
1.0
 23
0.0
 33
0.0
 40
0.0
 40
0.0
 40
0.0
 40
0.0
 40
1.0
 40
1.0
 40
1.0
 40
1.0
 10
181.4956998733529
 20
105.2301127402356
 30
0.0
 10
181.588007006686
 20
105.2158943487198
 30
0.0
 10
181.68027627377
 20
105.2015802150876
 30
0.0
 10
181.7725076133078
 20
105.1871701843537
 30
0.0
  0
LWPOLYLINE
  5
221
330
1F
100
AcDbEntity
  8
0
  6
Continuous
 62
     8
370
     0
100
AcDbPolyline
 90
        3
 70
   128
 43
0.0
 10
147.6259189321
 20
105.2301131617
 10
147.4874871446
 20
105.2087150943
 10
147.3491112365
 20
105.1871680152
  0
SPLINE
  5
222
330
1F
100
AcDbEntity
  8
0
  6
Continuous
 62
     8
370
     0
100
AcDbSpline
210
0.0
220
0.0
230
1.0
 70
     8
 71
     3
 72
     8
 73
     4
 74
     0
 42
0.00000001
 43
0.00000001
 12
1.0
 22
0.0
 32
0.0
 13
1.0
 23
0.0
 33
0.0
 40
0.0
 40
0.0
 40
0.0
 40
0.0
 40
1.0
 40
1.0
 40
1.0
 40
1.0
 10
164.5609119713414
 20
76.0798902574465
 30
0.0
 10
164.5608773172724
 20
76.02778051124595
 30
0.0
 10
164.5608419532807
 20
75.97339284078316
 30
0.0
 10
164.5608061945019
 20
75.91700693853248
 30
0.0
  0
LINE
  5
223
330
1F
100
AcDbEntity
  8
0
  6
Continuous
 62
     8
370
     0
100
AcDbLine
 10
188.6072191073
 20
283.7611061018
 30
0.0
 11
186.4359187557
 21
279.0761661213
 31
0.0
  0
LINE
  5
224
330
1F
100
AcDbEntity
  8
0
  6
Continuous
 62
     8
370
     0
100
AcDbLine
 10
141.2836550398
 20
282.0860069674
 30
0.0
 11
140.514399357
 21
283.7611061018
 31
0.0
  0
SPLINE
  5
225
330
1F
100
AcDbEntity
  8
0
  6
Continuous
 62
     8
370
     0
100
AcDbSpline
210
0.0
220
0.0
230
1.0
 70
     8
 71
     3
 72
    20
 73
    16
 74
     0
 42
0.00000001
 43
0.00000001
 12
1.0
 22
0.0
 32
0.0
 13
1.0
 23
0.0
 33
0.0
 40
0.0
 40
0.0
 40
0.0
 40
0.0
 40
0.0692594971400597
 40
0.139796246717986
 40
0.2116103253435063
 40
0.284701593451169
 40
0.3590700034388612
 40
0.4347156452011308
 40
0.5116386187528902
 40
0.5898390346500489
 40
0.6693168068555413
 40
0.7500716735789552
 40
0.8321037424120488
 40
0.9154131391736936
 40
1.0
 40
1.0
 40
1.0
 40
1.0
 10
182.3531456956467
 20
126.6640350993094
 30
0.0
 10
182.4325154487545
 20
129.7528456378596
 30
0.0
 10
182.5927186561929
 20
135.987429167091
 30
0.0
 10
182.8211131379687
 20
145.4250433064614
 30
0.0
 10
183.0428999559626
 20
155.0337570138856
 30
0.0
 10
183.256433982735
 20
164.8135863005821
 30
0.0
 10
183.4613668272013
 20
174.7645185416885
 30
0.0
 10
183.6569820971021
 20
184.8865583852412
 30
0.0
 10
183.8426498476035
 20
195.1797141861959
 30
0.0
 10
184.0177118922878
 20
205.6439857861925
 30
0.0
 10
184.181469373799
 20
216.2793552818707
 30
0.0
 10
184.333359788039
 20
227.0858042048247
 30
0.0
 10
184.4723581722538
 20
238.0633268972809
 30
0.0
 10
184.5992023407227
 20
249.2119207044078
 30
0.0
 10
184.671069713133
 20
256.7014074018331
 30
0.0
 10
184.7072768062235
 20
260.4746431965841
 30
0.0
  0
SPLINE
  5
226
330
1F
100
AcDbEntity
  8
0
  6
Continuous
 62
     8
370
     0
100
AcDbSpline
210
0.0
220
0.0
230
1.0
 70
     8
 71
     3
 72
     9
 73
     5
 74
     0
 42
0.00000001
 43
0.00000001
 12
1.0
 22
0.0
 32
0.0
 13
1.0
 23
0.0
 33
0.0
 40
0.1933632574953296
 40
0.1933632574953296
 40
0.1933632574953296
 40
0.1933632574953296
 40
0.5
 40
1.0
 40
1.0
 40
1.0
 40
1.0
 10
144.4144534149841
 20
260.4746216321163
 30
0.0
 10
144.5703797956137
 20
243.5171961089172
 30
0.0
 10
145.1222011038818
 20
198.9103804244027
 30
0.0
 10
146.048782050656
 20
154.3083034030175
 30
0.0
 10
146.7684727687657
 20
126.6640350943305
 30
0.0
  0
LWPOLYLINE
  5
227
330
1F
100
AcDbEntity
  8
0
  6
Continuous
 62
     8
370
     0
100
AcDbPolyline
 90
        9
 70
   128
 43
0.0
 10
164.5608028883
 20
318.7728017997
 10
164.5608034791
 20
318.9664069992
 10
164.5608041478
 20
319.1398565155
 10
164.5608048855
 20
319.2907959651
 10
164.560805682
 20
319.4171820264
 10
164.5608065265
 20
319.5173029285
 10
164.5608074078
 20
319.5898026656
 10
164.5608083137
 20
319.6336996239
 10
164.5608092321
 20
319.6483977568
  0
ENDSEC
  0
SECTION
  2
OBJECTS
  0
DICTIONARY
  5
C
330
0
100
AcDbDictionary
281
     1
  3
ACAD_GROUP
350
D
  3
ACAD_LAYOUT
350
1A
  3
ACAD_MATERIAL
350
3B
  3
ACAD_MLEADERSTYLE
350
229
  3
ACAD_MLINESTYLE
350
17
  3
ACAD_PLOTSETTINGS
350
19
  3
ACAD_PLOTSTYLENAME
350
E
  3
ACAD_TABLESTYLE
350
228
  3
ACAD_VISUALSTYLE
350
2A
  0
DICTIONARY
  5
D
102
{ACAD_REACTORS
330
C
102
}
330
C
100
AcDbDictionary
281
     1
  0
DICTIONARY
  5
1A
102
{ACAD_REACTORS
330
C
102
}
330
C
100
AcDbDictionary
281
     1
  3
Layout1
350
1E
  3
Layout2
350
26
  3
Model
350
22
  0
DICTIONARY
  5
3B
102
{ACAD_REACTORS
330
C
102
}
330
C
100
AcDbDictionary
281
     1
  3
ByBlock
350
3D
  3
ByLayer
350
3C
  3
Global
350
3E
  0
DICTIONARY
  5
229
102
{ACAD_REACTORS
330
C
102
}
330
C
100
AcDbDictionary
281
     1
  0
DICTIONARY
  5
17
102
{ACAD_REACTORS
330
C
102
}
330
C
100
AcDbDictionary
281
     1
  3
Standard
350
18
  0
DICTIONARY
  5
19
102
{ACAD_REACTORS
330
C
102
}
330
C
100
AcDbDictionary
281
     1
  0
ACDBDICTIONARYWDFLT
  5
E
102
{ACAD_REACTORS
330
C
102
}
330
C
100
AcDbDictionary
281
     1
  3
Normal
350
F
100
AcDbDictionaryWithDefault
340
F
  0
DICTIONARY
  5
228
102
{ACAD_REACTORS
330
C
102
}
330
C
100
AcDbDictionary
281
     1
  0
DICTIONARY
  5
2A
102
{ACAD_REACTORS
330
C
102
}
330
C
100
AcDbDictionary
281
     1
  3
2dWireframe
350
2F
  3
3D Hidden
350
31
  3
3dWireframe
350
30
  3
Basic
350
32
  3
Brighten
350
36
  3
ColorChange
350
3A
  3
Conceptual
350
34
  3
Dim
350
35
  3
Facepattern
350
39
  3
Flat
350
2B
  3
FlatWithEdges
350
2C
  3
Gouraud
350
2D
  3
GouraudWithEdges
350
2E
  3
Linepattern
350
38
  3
Realistic
350
33
  3
Thicken
350
37
  0
LAYOUT
  5
1E
102
{ACAD_REACTORS
330
1A
102
}
330
1A
100
AcDbPlotSettings
  1

  2
none_device
  4

  6

 40
0.0
 41
0.0
 42
0.0
 43
0.0
 44
0.0
 45
0.0
 46
0.0
 47
0.0
 48
0.0
 49
0.0
140
0.0
141
0.0
142
1.0
143
1.0
 70
   688
 72
     0
 73
     0
 74
     5
  7

 75
    16
 76
     0
 77
     2
 78
   300
147
1.0
148
0.0
149
0.0
100
AcDbLayout
  1
Layout1
 70
     1
 71
     1
 10
0.0
 20
0.0
 11
420.0
 21
297.0
 12
0.0
 22
0.0
 32
0.0
 14
1.0000000000E+20
 24
1.0000000000E+20
 34
1.0000000000E+20
 15
-1.0000000000E+20
 25
-1.0000000000E+20
 35
-1.0000000000E+20
146
0.0
 13
0.0
 23
0.0
 33
0.0
 16
1.0
 26
0.0
 36
0.0
 17
0.0
 27
1.0
 37
0.0
 76
     0
330
1B
  0
LAYOUT
  5
26
102
{ACAD_REACTORS
330
1A
102
}
330
1A
100
AcDbPlotSettings
  1

  2
none_device
  4

  6

 40
0.0
 41
0.0
 42
0.0
 43
0.0
 44
0.0
 45
0.0
 46
0.0
 47
0.0
 48
0.0
 49
0.0
140
0.0
141
0.0
142
1.0
143
1.0
 70
   688
 72
     0
 73
     0
 74
     5
  7

 75
    16
 76
     0
 77
     2
 78
   300
147
1.0
148
0.0
149
0.0
100
AcDbLayout
  1
Layout2
 70
     1
 71
     2
 10
0.0
 20
0.0
 11
0.0
 21
0.0
 12
0.0
 22
0.0
 32
0.0
 14
0.0
 24
0.0
 34
0.0
 15
0.0
 25
0.0
 35
0.0
146
0.0
 13
0.0
 23
0.0
 33
0.0
 16
1.0
 26
0.0
 36
0.0
 17
0.0
 27
1.0
 37
0.0
 76
     0
330
23
  0
LAYOUT
  5
22
102
{ACAD_REACTORS
330
1A
102
}
330
1A
100
AcDbPlotSettings
  1

  2
none_device
  4

  6

 40
0.0
 41
0.0
 42
0.0
 43
0.0
 44
0.0
 45
0.0
 46
0.0
 47
0.0
 48
0.0
 49
0.0
140
0.0
141
0.0
142
1.0
143
1.0
 70
  1712
 72
     0
 73
     0
 74
     0
  7

 75
     0
 76
     0
 77
     2
 78
   300
147
1.0
148
0.0
149
0.0
100
AcDbLayout
  1
Model
 70
     1
 71
     0
 10
0.0
 20
0.0
 11
594.0
 21
841.0
 12
0.0
 22
0.0
 32
0.0
 14
0.0
 24
0.0
 34
0.0
 15
594.0
 25
841.0
 35
0.0
146
0.0
 13
0.0
 23
0.0
 33
0.0
 16
1.0
 26
0.0
 36
0.0
 17
0.0
 27
1.0
 37
0.0
 76
     0
330
1F
331
29
  0
MATERIAL
  5
3D
102
{ACAD_REACTORS
330
3B
102
}
330
3B
100
AcDbMaterial
  1
ByBlock
 72
     1
 94
      127
  0
MATERIAL
  5
3C
102
{ACAD_REACTORS
330
3B
102
}
330
3B
100
AcDbMaterial
  1
ByLayer
 72
     1
 94
      127
  0
MATERIAL
  5
3E
102
{ACAD_REACTORS
330
3B
102
}
330
3B
100
AcDbMaterial
  1
Global
 72
     1
 94
      127
  0
MLINESTYLE
  5
18
102
{ACAD_REACTORS
330
17
102
}
330
17
100
AcDbMlineStyle
  2
Standard
 70
     0
  3

 62
   256
 51
90.0
 52
90.0
 71
     2
 49
0.5
 62
   256
  6
BYLAYER
 49
-0.5
 62
   256
  6
BYLAYER
  0
ACDBPLACEHOLDER
  5
F
102
{ACAD_REACTORS
330
E
102
}
330
E
  0
VISUALSTYLE
  5
2F
102
{ACAD_REACTORS
330
2A
102
}
330
2A
100
AcDbVisualStyle
  2
2dWireframe
 70
     4
177
     2
291
     0
 71
     0
176
     1
 72
     2
176
     1
 73
     0
176
     1
 90
        0
176
     1
 40
-0.6
176
     1
 41
-30.0
176
     1
 62
     5
 63
     7
421
 16777215
176
     1
 74
     1
176
     1
 91
        4
176
     1
 64
     7
176
     1
 65
   257
176
     1
 75
     1
176
     1
175
     1
176
     1
 42
1.0
176
     1
 92
        0
176
     1
 66
   257
176
     1
 43
1.0
176
     1
 76
     1
176
     1
 77
     6
176
     1
 78
     2
176
     1
 67
     7
176
     1
 79
     5
176
     1
170
     0
176
     1
171
     0
176
     1
290
     0
176
     1
 93
        1
176
     1
 44
0.0
176
     1
173
     0
176
     1
  0
VISUALSTYLE
  5
31
102
{ACAD_REACTORS
330
2A
102
}
330
2A
100
AcDbVisualStyle
  2
3D Hidden
 70
     6
177
     2
291
     0
 71
     1
176
     1
 72
     2
176
     1
 73
     2
176
     1
 90
        0
176
     1
 40
-0.6
176
     1
 41
-30.0
176
     1
 62
     5
 63
     7
421
 16777215
176
     1
 74
     2
176
     1
 91
        2
176
     1
 64
     7
176
     1
 65
   257
176
     1
 75
     2
176
     1
175
     1
176
     1
 42
40.0
176
     1
 92
        0
176
     1
 66
   257
176
     1
 43
1.0
176
     1
 76
     1
176
     1
 77
     6
176
     1
 78
     2
176
     1
 67
     7
176
     1
 79
     3
176
     1
170
     0
176
     1
171
     0
176
     1
290
     0
176
     1
 93
        1
176
     1
 44
0.0
176
     1
173
     0
176
     1
  0
VISUALSTYLE
  5
30
102
{ACAD_REACTORS
330
2A
102
}
330
2A
100
AcDbVisualStyle
  2
3dWireframe
 70
     5
177
     2
291
     0
 71
     0
176
     1
 72
     2
176
     1
 73
     0
176
     1
 90
        0
176
     1
 40
-0.6
176
     1
 41
-30.0
176
     1
 62
     5
 63
     7
421
 16777215
176
     1
 74
     1
176
     1
 91
        4
176
     1
 64
     7
176
     1
 65
   257
176
     1
 75
     1
176
     1
175
     1
176
     1
 42
1.0
176
     1
 92
        0
176
     1
 66
   257
176
     1
 43
1.0
176
     1
 76
     1
176
     1
 77
     6
176
     1
 78
     2
176
     1
 67
     7
176
     1
 79
     5
176
     1
170
     0
176
     1
171
     0
176
     1
290
     0
176
     1
 93
        1
176
     1
 44
0.0
176
     1
173
     0
176
     1
  0
VISUALSTYLE
  5
32
102
{ACAD_REACTORS
330
2A
102
}
330
2A
100
AcDbVisualStyle
  2
Basic
 70
     7
177
     2
291
     1
 71
     1
176
     1
 72
     0
176
     1
 73
     1
176
     1
 90
        0
176
     1
 40
-0.6
176
     1
 41
-30.0
176
     1
 62
     5
 63
     7
421
 16777215
176
     1
 74
     0
176
     1
 91
        4
176
     1
 64
     7
176
     1
 65
   257
176
     1
 75
     1
176
     1
175
     1
176
     1
 42
1.0
176
     1
 92
        8
176
     1
 66
     7
176
     1
 43
1.0
176
     1
 76
     1
176
     1
 77
     6
176
     1
 78
     2
176
     1
 67
     7
176
     1
 79
     5
176
     1
170
     0
176
     1
171
     0
176
     1
290
     0
176
     1
 93
        1
176
     1
 44
0.0
176
     1
173
     0
176
     1
  0
VISUALSTYLE
  5
36
102
{ACAD_REACTORS
330
2A
102
}
330
2A
100
AcDbVisualStyle
  2
Brighten
 70
    12
177
     2
291
     1
 71
     2
176
     1
 72
     2
176
     1
 73
     0
176
     1
 90
        0
176
     1
 40
-0.6
176
     1
 41
-30.0
176
     1
 62
     5
 63
     7
421
 16777215
176
     1
 74
     1
176
     1
 91
        4
176
     1
 64
     7
176
     1
 65
   257
176
     1
 75
     1
176
     1
175
     1
176
     1
 42
1.0
176
     1
 92
        8
176
     1
 66
     7
176
     1
 43
1.0
176
     1
 76
     1
176
     1
 77
     6
176
     1
 78
     2
176
     1
 67
     7
176
     1
 79
     5
176
     1
170
     0
176
     1
171
     0
176
     1
290
     0
176
     1
 93
        1
176
     1
 44
50.0
176
     1
173
     0
176
     1
  0
VISUALSTYLE
  5
3A
102
{ACAD_REACTORS
330
2A
102
}
330
2A
100
AcDbVisualStyle
  2
ColorChange
 70
    16
177
     2
291
     1
 71
     2
176
     1
 72
     2
176
     1
 73
     3
176
     1
 90
        0
176
     1
 40
-0.6
176
     1
 41
-30.0
176
     1
 62
     5
 63
     8
421
  8421504
176
     1
 74
     1
176
     1
 91
        4
176
     1
 64
     7
176
     1
 65
   257
176
     1
 75
     1
176
     1
175
     1
176
     1
 42
1.0
176
     1
 92
        8
176
     1
 66
     8
424
  8421504
176
     1
 43
1.0
176
     1
 76
     1
176
     1
 77
     6
176
     1
 78
     2
176
     1
 67
     7
176
     1
 79
     5
176
     1
170
     0
176
     1
171
     0
176
     1
290
     0
176
     1
 93
        1
176
     1
 44
0.0
176
     1
173
     0
176
     1
  0
VISUALSTYLE
  5
34
102
{ACAD_REACTORS
330
2A
102
}
330
2A
100
AcDbVisualStyle
  2
Conceptual
 70
     9
177
     2
291
     0
 71
     3
176
     1
 72
     2
176
     1
 73
     0
176
     1
 90
        0
176
     1
 40
-0.6
176
     1
 41
-30.0
176
     1
 62
     5
 63
     7
421
 16777215
176
     1
 74
     2
176
     1
 91
        2
176
     1
 64
     7
176
     1
 65
   257
176
     1
 75
     1
176
     1
175
     1
176
     1
 42
40.0
176
     1
 92
        8
176
     1
 66
     7
176
     1
 43
1.0
176
     1
 76
     1
176
     1
 77
     6
176
     1
 78
     2
176
     1
 67
     7
176
     1
 79
     3
176
     1
170
     0
176
     1
171
     0
176
     1
290
     0
176
     1
 93
        1
176
     1
 44
0.0
176
     1
173
     0
176
     1
  0
VISUALSTYLE
  5
35
102
{ACAD_REACTORS
330
2A
102
}
330
2A
100
AcDbVisualStyle
  2
Dim
 70
    11
177
     2
291
     1
 71
     2
176
     1
 72
     2
176
     1
 73
     0
176
     1
 90
        0
176
     1
 40
-0.6
176
     1
 41
-30.0
176
     1
 62
     5
 63
     7
421
 16777215
176
     1
 74
     1
176
     1
 91
        4
176
     1
 64
     7
176
     1
 65
   257
176
     1
 75
     1
176
     1
175
     1
176
     1
 42
1.0
176
     1
 92
        8
176
     1
 66
     7
176
     1
 43
1.0
176
     1
 76
     1
176
     1
 77
     6
176
     1
 78
     2
176
     1
 67
     7
176
     1
 79
     5
176
     1
170
     0
176
     1
171
     0
176
     1
290
     0
176
     1
 93
        1
176
     1
 44
-50.0
176
     1
173
     0
176
     1
  0
VISUALSTYLE
  5
39
102
{ACAD_REACTORS
330
2A
102
}
330
2A
100
AcDbVisualStyle
  2
Facepattern
 70
    15
177
     2
291
     1
 71
     2
176
     1
 72
     2
176
     1
 73
     0
176
     1
 90
        0
176
     1
 40
-0.6
176
     1
 41
-30.0
176
     1
 62
     5
 63
     7
421
 16777215
176
     1
 74
     1
176
     1
 91
        4
176
     1
 64
     7
176
     1
 65
   257
176
     1
 75
     1
176
     1
175
     1
176
     1
 42
1.0
176
     1
 92
        8
176
     1
 66
     7
176
     1
 43
1.0
176
     1
 76
     1
176
     1
 77
     6
176
     1
 78
     2
176
     1
 67
     7
176
     1
 79
     5
176
     1
170
     0
176
     1
171
     0
176
     1
290
     0
176
     1
 93
        1
176
     1
 44
0.0
176
     1
173
     0
176
     1
  0
VISUALSTYLE
  5
2B
102
{ACAD_REACTORS
330
2A
102
}
330
2A
100
AcDbVisualStyle
  2
Flat
 70
     0
177
     2
291
     1
 71
     2
176
     1
 72
     1
176
     1
 73
     1
176
     1
 90
        2
176
     1
 40
-0.6
176
     1
 41
30.0
176
     1
 62
     5
 63
     7
421
 16777215
176
     1
 74
     0
176
     1
 91
        4
176
     1
 64
     7
176
     1
 65
   257
176
     1
 75
     1
176
     1
175
     1
176
     1
 42
1.0
176
     1
 92
        8
176
     1
 66
     7
176
     1
 43
1.0
176
     1
 76
     1
176
     1
 77
     6
176
     1
 78
     2
176
     1
 67
     7
176
     1
 79
     5
176
     1
170
     0
176
     1
171
     0
176
     1
290
     0
176
     1
 93
       13
176
     1
 44
0.0
176
     1
173
     0
176
     1
  0
VISUALSTYLE
  5
2C
102
{ACAD_REACTORS
330
2A
102
}
330
2A
100
AcDbVisualStyle
  2
FlatWithEdges
 70
     1
177
     2
291
     1
 71
     2
176
     1
 72
     1
176
     1
 73
     1
176
     1
 90
        2
176
     1
 40
-0.6
176
     1
 41
30.0
176
     1
 62
     5
 63
     7
421
 16777215
176
     1
 74
     1
176
     1
 91
        4
176
     1
 64
     7
176
     1
 65
   257
176
     1
 75
     1
176
     1
175
     1
176
     1
 42
1.0
176
     1
 92
        0
176
     1
 66
   257
176
     1
 43
1.0
176
     1
 76
     1
176
     1
 77
     6
176
     1
 78
     2
176
     1
 67
     7
176
     1
 79
     5
176
     1
170
     0
176
     1
171
     0
176
     1
290
     0
176
     1
 93
       13
176
     1
 44
0.0
176
     1
173
     0
176
     1
  0
VISUALSTYLE
  5
2D
102
{ACAD_REACTORS
330
2A
102
}
330
2A
100
AcDbVisualStyle
  2
Gouraud
 70
     2
177
     2
291
     1
 71
     2
176
     1
 72
     2
176
     1
 73
     1
176
     1
 90
        2
176
     1
 40
-0.6
176
     1
 41
30.0
176
     1
 62
     5
 63
     7
421
 16777215
176
     1
 74
     0
176
     1
 91
        4
176
     1
 64
     7
176
     1
 65
   257
176
     1
 75
     1
176
     1
175
     1
176
     1
 42
1.0
176
     1
 92
        0
176
     1
 66
     7
176
     1
 43
1.0
176
     1
 76
     1
176
     1
 77
     6
176
     1
 78
     2
176
     1
 67
     7
176
     1
 79
     5
176
     1
170
     0
176
     1
171
     0
176
     1
290
     0
176
     1
 93
       13
176
     1
 44
0.0
176
     1
173
     0
176
     1
  0
VISUALSTYLE
  5
2E
102
{ACAD_REACTORS
330
2A
102
}
330
2A
100
AcDbVisualStyle
  2
GouraudWithEdges
 70
     3
177
     2
291
     1
 71
     2
176
     1
 72
     2
176
     1
 73
     1
176
     1
 90
        2
176
     1
 40
-0.6
176
     1
 41
30.0
176
     1
 62
     5
 63
     7
421
 16777215
176
     1
 74
     1
176
     1
 91
        4
176
     1
 64
     7
176
     1
 65
   257
176
     1
 75
     1
176
     1
175
     1
176
     1
 42
1.0
176
     1
 92
        0
176
     1
 66
   257
176
     1
 43
1.0
176
     1
 76
     1
176
     1
 77
     6
176
     1
 78
     2
176
     1
 67
     7
176
     1
 79
     5
176
     1
170
     0
176
     1
171
     0
176
     1
290
     0
176
     1
 93
       13
176
     1
 44
0.0
176
     1
173
     0
176
     1
  0
VISUALSTYLE
  5
38
102
{ACAD_REACTORS
330
2A
102
}
330
2A
100
AcDbVisualStyle
  2
Linepattern
 70
    14
177
     2
291
     1
 71
     2
176
     1
 72
     2
176
     1
 73
     0
176
     1
 90
        0
176
     1
 40
-0.6
176
     1
 41
-30.0
176
     1
 62
     5
 63
     7
421
 16777215
176
     1
 74
     1
176
     1
 91
        4
176
     1
 64
     7
176
     1
 65
   257
176
     1
 75
     7
176
     1
175
     7
176
     1
 42
1.0
176
     1
 92
        8
176
     1
 66
     7
176
     1
 43
1.0
176
     1
 76
     1
176
     1
 77
     6
176
     1
 78
     2
176
     1
 67
     7
176
     1
 79
     5
176
     1
170
     0
176
     1
171
     0
176
     1
290
     0
176
     1
 93
        1
176
     1
 44
0.0
176
     1
173
     0
176
     1
  0
VISUALSTYLE
  5
33
102
{ACAD_REACTORS
330
2A
102
}
330
2A
100
AcDbVisualStyle
  2
Realistic
 70
     8
177
     2
291
     0
 71
     2
176
     1
 72
     2
176
     1
 73
     0
176
     1
 90
        0
176
     1
 40
-0.6
176
     1
 41
-30.0
176
     1
 62
     5
 63
     7
421
 16777215
176
     1
 74
     1
176
     1
 91
        0
176
     1
 64
     7
176
     1
 65
   257
176
     1
 75
     1
176
     1
175
     1
176
     1
 42
1.0
176
     1
 92
        8
176
     1
 66
     8
424
  7895160
176
     1
 43
1.0
176
     1
 76
     1
176
     1
 77
     6
176
     1
 78
     2
176
     1
 67
     7
176
     1
 79
     5
176
     1
170
     0
176
     1
171
     0
176
     1
290
     0
176
     1
 93
       13
176
     1
 44
0.0
176
     1
173
     0
176
     1
  0
VISUALSTYLE
  5
37
102
{ACAD_REACTORS
330
2A
102
}
330
2A
100
AcDbVisualStyle
  2
Thicken
 70
    13
177
     2
291
     1
 71
     2
176
     1
 72
     2
176
     1
 73
     0
176
     1
 90
        0
176
     1
 40
-0.6
176
     1
 41
-30.0
176
     1
 62
     5
 63
     7
421
 16777215
176
     1
 74
     1
176
     1
 91
        4
176
     1
 64
     7
176
     1
 65
   257
176
     1
 75
     1
176
     1
175
     1
176
     1
 42
1.0
176
     1
 92
       12
176
     1
 66
     7
176
     1
 43
1.0
176
     1
 76
     1
176
     1
 77
     6
176
     1
 78
     2
176
     1
 67
     7
176
     1
 79
     5
176
     1
170
     0
176
     1
171
     0
176
     1
290
     0
176
     1
 93
        1
176
     1
 44
0.0
176
     1
173
     0
176
     1
  0
ENDSEC
  0
EOF
